  0
SECTION
  2
HEADER
  9
$ACADVER
  1
AC1015
  9
$ACADMAINTVER
 70
     6
  9
$DWGCODEPAGE
  3
ANSI_932
  9
$INSBASE
 10
0.0
 20
0.0
 30
0.0
  9
$EXTMIN
 10
0.0
 20
0.00000000000001
 30
0.0
  9
$EXTMAX
 10
209.9999999999999
 20
297.0
 30
0.0
  9
$LIMMIN
 10
0.0
 20
0.0
  9
$LIMMAX
 10
12.0
 20
9.0
  9
$ORTHOMODE
 70
     0
  9
$REGENMODE
 70
     1
  9
$FILLMODE
 70
     1
  9
$QTEXTMODE
 70
     0
  9
$MIRRTEXT
 70
     1
  9
$LTSCALE
 40
1.0
  9
$ATTMODE
 70
     1
  9
$TEXTSIZE
 40
0.2
  9
$TRACEWID
 40
0.05
  9
$TEXTSTYLE
  7
Standard
  9
$CLAYER
  8
0
  9
$CELTYPE
  6
ByLayer
  9
$CECOLOR
 62
   256
  9
$CELTSCALE
 40
1.0
  9
$DISPSILH
 70
     0
  9
$DIMSCALE
 40
1.0
  9
$DIMASZ
 40
0.18
  9
$DIMEXO
 40
0.0625
  9
$DIMDLI
 40
0.38
  9
$DIMRND
 40
0.0
  9
$DIMDLE
 40
0.0
  9
$DIMEXE
 40
0.18
  9
$DIMTP
 40
0.0
  9
$DIMTM
 40
0.0
  9
$DIMTXT
 40
0.18
  9
$DIMCEN
 40
0.09
  9
$DIMTSZ
 40
0.0
  9
$DIMTOL
 70
     0
  9
$DIMLIM
 70
     0
  9
$DIMTIH
 70
     1
  9
$DIMTOH
 70
     1
  9
$DIMSE1
 70
     0
  9
$DIMSE2
 70
     0
  9
$DIMTAD
 70
     0
  9
$DIMZIN
 70
     0
  9
$DIMBLK
  1

  9
$DIMASO
 70
     1
  9
$DIMSHO
 70
     1
  9
$DIMPOST
  1

  9
$DIMAPOST
  1

  9
$DIMALT
 70
     0
  9
$DIMALTD
 70
     2
  9
$DIMALTF
 40
25.4
  9
$DIMLFAC
 40
1.0
  9
$DIMTOFL
 70
     0
  9
$DIMTVP
 40
0.0
  9
$DIMTIX
 70
     0
  9
$DIMSOXD
 70
     0
  9
$DIMSAH
 70
     0
  9
$DIMBLK1
  1

  9
$DIMBLK2
  1

  9
$DIMSTYLE
  2
Standard
  9
$DIMCLRD
 70
     0
  9
$DIMCLRE
 70
     0
  9
$DIMCLRT
 70
     0
  9
$DIMTFAC
 40
1.0
  9
$DIMGAP
 40
0.09
  9
$DIMJUST
 70
     0
  9
$DIMSD1
 70
     0
  9
$DIMSD2
 70
     0
  9
$DIMTOLJ
 70
     1
  9
$DIMTZIN
 70
     0
  9
$DIMALTZ
 70
     0
  9
$DIMALTTZ
 70
     0
  9
$DIMUPT
 70
     0
  9
$DIMDEC
 70
     4
  9
$DIMTDEC
 70
     4
  9
$DIMALTU
 70
     2
  9
$DIMALTTD
 70
     2
  9
$DIMTXSTY
  7
Standard
  9
$DIMAUNIT
 70
     0
  9
$DIMADEC
 70
     0
  9
$DIMALTRND
 40
0.0
  9
$DIMAZIN
 70
     0
  9
$DIMDSEP
 70
    46
  9
$DIMATFIT
 70
     3
  9
$DIMFRAC
 70
     0
  9
$DIMLDRBLK
  1

  9
$DIMLUNIT
 70
     2
  9
$DIMLWD
 70
    -2
  9
$DIMLWE
 70
    -2
  9
$DIMTMOVE
 70
     0
  9
$LUNITS
 70
     2
  9
$LUPREC
 70
     4
  9
$SKETCHINC
 40
0.1
  9
$FILLETRAD
 40
0.5
  9
$AUNITS
 70
     0
  9
$AUPREC
 70
     0
  9
$MENU
  1
.
  9
$ELEVATION
 40
0.0
  9
$PELEVATION
 40
0.0
  9
$THICKNESS
 40
0.0
  9
$LIMCHECK
 70
     0
  9
$CHAMFERA
 40
0.5
  9
$CHAMFERB
 40
0.5
  9
$CHAMFERC
 40
1.0
  9
$CHAMFERD
 40
0.0
  9
$SKPOLY
 70
     0
  9
$TDCREATE
 40
2459790.694694004
  9
$TDUCREATE
 40
2459790.319694004
  9
$TDUPDATE
 40
2459790.694695637
  9
$TDUUPDATE
 40
2459790.319695637
  9
$TDINDWG
 40
0.0000000116
  9
$TDUSRTIMER
 40
0.0000000116
  9
$USRTIMER
 70
     1
  9
$ANGBASE
 50
0.0
  9
$ANGDIR
 70
     0
  9
$PDMODE
 70
     0
  9
$PDSIZE
 40
0.0
  9
$PLINEWID
 40
0.0
  9
$SPLFRAME
 70
     0
  9
$SPLINETYPE
 70
     6
  9
$SPLINESEGS
 70
     8
  9
$HANDSEED
  5
154
  9
$SURFTAB1
 70
     6
  9
$SURFTAB2
 70
     6
  9
$SURFTYPE
 70
     6
  9
$SURFU
 70
     6
  9
$SURFV
 70
     6
  9
$UCSBASE
  2

  9
$UCSNAME
  2

  9
$UCSORG
 10
0.0
 20
0.0
 30
0.0
  9
$UCSXDIR
 10
1.0
 20
0.0
 30
0.0
  9
$UCSYDIR
 10
0.0
 20
1.0
 30
0.0
  9
$UCSORTHOREF
  2

  9
$UCSORTHOVIEW
 70
     0
  9
$UCSORGTOP
 10
0.0
 20
0.0
 30
0.0
  9
$UCSORGBOTTOM
 10
0.0
 20
0.0
 30
0.0
  9
$UCSORGLEFT
 10
0.0
 20
0.0
 30
0.0
  9
$UCSORGRIGHT
 10
0.0
 20
0.0
 30
0.0
  9
$UCSORGFRONT
 10
0.0
 20
0.0
 30
0.0
  9
$UCSORGBACK
 10
0.0
 20
0.0
 30
0.0
  9
$PUCSBASE
  2

  9
$PUCSNAME
  2

  9
$PUCSORG
 10
0.0
 20
0.0
 30
0.0
  9
$PUCSXDIR
 10
1.0
 20
0.0
 30
0.0
  9
$PUCSYDIR
 10
0.0
 20
1.0
 30
0.0
  9
$PUCSORTHOREF
  2

  9
$PUCSORTHOVIEW
 70
     0
  9
$PUCSORGTOP
 10
0.0
 20
0.0
 30
0.0
  9
$PUCSORGBOTTOM
 10
0.0
 20
0.0
 30
0.0
  9
$PUCSORGLEFT
 10
0.0
 20
0.0
 30
0.0
  9
$PUCSORGRIGHT
 10
0.0
 20
0.0
 30
0.0
  9
$PUCSORGFRONT
 10
0.0
 20
0.0
 30
0.0
  9
$PUCSORGBACK
 10
0.0
 20
0.0
 30
0.0
  9
$USERI1
 70
     0
  9
$USERI2
 70
     0
  9
$USERI3
 70
     0
  9
$USERI4
 70
     0
  9
$USERI5
 70
     0
  9
$USERR1
 40
18.1
  9
$USERR2
 40
0.0
  9
$USERR3
 40
0.0
  9
$USERR4
 40
0.0
  9
$USERR5
 40
0.0
  9
$WORLDVIEW
 70
     1
  9
$SHADEDGE
 70
     3
  9
$SHADEDIF
 70
    70
  9
$TILEMODE
 70
     1
  9
$MAXACTVP
 70
    64
  9
$PINSBASE
 10
0.0
 20
0.0
 30
0.0
  9
$PLIMCHECK
 70
     0
  9
$PEXTMIN
 10
1.00000000000000E+20
 20
1.00000000000000E+20
 30
1.00000000000000E+20
  9
$PEXTMAX
 10
-1.00000000000000E+20
 20
-1.00000000000000E+20
 30
-1.00000000000000E+20
  9
$PLIMMIN
 10
0.0
 20
0.0
  9
$PLIMMAX
 10
12.0
 20
9.0
  9
$UNITMODE
 70
     0
  9
$VISRETAIN
 70
     1
  9
$PLINEGEN
 70
     0
  9
$PSLTSCALE
 70
     1
  9
$TREEDEPTH
 70
  3020
  9
$CMLSTYLE
  2
Standard
  9
$CMLJUST
 70
     0
  9
$CMLSCALE
 40
1.0
  9
$PROXYGRAPHICS
 70
     1
  9
$MEASUREMENT
 70
     1
  9
$CELWEIGHT
370
    -1
  9
$ENDCAPS
280
     0
  9
$JOINSTYLE
280
     0
  9
$LWDISPLAY
290
     0
  9
$INSUNITS
 70
     4
  9
$HYPERLINKBASE
  1

  9
$STYLESHEET
  1

  9
$XEDIT
290
     1
  9
$CEPSNTYPE
380
     0
  9
$PSTYLEMODE
290
     1
  9
$FINGERPRINTGUID
  2
{B93BD672-4CC9-43CD-88FA-1098DCD66727}
  9
$VERSIONGUID
  2
{FAEB1C32-E019-11D5-929B-00C0DF256EC4}
  9
$EXTNAMES
290
     1
  9
$PSVPSCALE
 40
0.0
  9
$OLESTARTUP
290
     0
  0
ENDSEC
  0
SECTION
  2
CLASSES
  0
CLASS
  1
ACDBDICTIONARYWDFLT
  2
AcDbDictionaryWithDefault
  3
ObjectDBX Classes
 90
        0
280
     0
281
     0
  0
CLASS
  1
VISUALSTYLE
  2
AcDbVisualStyle
  3
ObjectDBX Classes
 90
     4095
280
     0
281
     0
  0
CLASS
  1
MATERIAL
  2
AcDbMaterial
  3
ObjectDBX Classes
 90
     1153
280
     0
281
     0
  0
CLASS
  1
DICTIONARYVAR
  2
AcDbDictionaryVar
  3
ObjectDBX Classes
 90
        0
280
     0
281
     0
  0
CLASS
  1
ACDBPLACEHOLDER
  2
AcDbPlaceHolder
  3
ObjectDBX Classes
 90
        0
280
     0
281
     0
  0
CLASS
  1
LAYOUT
  2
AcDbLayout
  3
ObjectDBX Classes
 90
        0
280
     0
281
     0
  0
ENDSEC
  0
SECTION
  2
TABLES
  0
TABLE
  2
VPORT
  5
8
330
0
100
AcDbSymbolTable
 70
     1
  0
VPORT
  5
29
330
8
100
AcDbSymbolTableRecord
100
AcDbViewportTableRecord
  2
*Active
 70
     0
 10
0.0
 20
0.0
 11
1.0
 21
1.0
 12
104.9999999999999
 22
148.5
 13
0.0
 23
0.0
 14
0.5
 24
0.5
 15
0.5
 25
0.5
 16
0.0
 26
0.0
 36
1.0
 17
0.0
 27
0.0
 37
0.0
 40
326.7
 41
1.60267857142857
 42
50.0
 43
0.0
 44
0.0
 50
0.0
 51
0.0
 71
     0
 72
   100
 73
     1
 74
     3
 75
     0
 76
     0
 77
     0
 78
     0
281
     0
 65
     1
110
0.0
120
0.0
130
0.0
111
1.0
121
0.0
131
0.0
112
0.0
122
1.0
132
0.0
 79
     0
146
0.0
  0
ENDTAB
  0
TABLE
  2
LTYPE
  5
5
330
0
100
AcDbSymbolTable
 70
     8
  0
LTYPE
  5
14
330
5
100
AcDbSymbolTableRecord
100
AcDbLinetypeTableRecord
  2
ByBlock
 70
     0
  3

 72
    65
 73
     0
 40
0.0
  0
LTYPE
  5
15
330
5
100
AcDbSymbolTableRecord
100
AcDbLinetypeTableRecord
  2
ByLayer
 70
     0
  3

 72
    65
 73
     0
 40
0.0
  0
LTYPE
  5
16
330
5
100
AcDbSymbolTableRecord
100
AcDbLinetypeTableRecord
  2
Continuous
 70
     0
  3
Solid line
 72
    65
 73
     0
 40
0.0
  0
LTYPE
  5
3F
330
5
100
AcDbSymbolTableRecord
100
AcDbLinetypeTableRecord
  2
DASHED
 70
     0
  3
Dashed
 72
    65
 73
     2
 40
15.0
 49
7.0
 74
     0
 49
-8.0
 74
     0
  0
LTYPE
  5
40
330
5
100
AcDbSymbolTableRecord
100
AcDbLinetypeTableRecord
  2
DOTTED
 70
     0
  3
Dotted
 72
    65
 73
     2
 40
1.0
 49
0.0
 74
     0
 49
-1.0
 74
     0
  0
LTYPE
  5
41
330
5
100
AcDbSymbolTableRecord
100
AcDbLinetypeTableRecord
  2
DOT_CENTER
 70
     0
  3
Dot_Center
 72
    65
 73
     4
 40
14.0
 49
12.0
 74
     0
 49
-1.0
 74
     0
 49
0.0
 74
     0
 49
-1.0
 74
     0
  0
LTYPE
  5
42
330
5
100
AcDbSymbolTableRecord
100
AcDbLinetypeTableRecord
  2
LONG_DASHED
 70
     0
  3
Long_Dashed
 72
    65
 73
     2
 40
15.0
 49
10.0
 74
     0
 49
-5.0
 74
     0
  0
LTYPE
  5
43
330
5
100
AcDbSymbolTableRecord
100
AcDbLinetypeTableRecord
  2
DASH_CENTER
 70
     0
  3
Dash_Center
 72
    65
 73
     4
 40
14.0
 49
11.0
 74
     0
 49
-1.0
 74
     0
 49
1.0
 74
     0
 49
-1.0
 74
     0
  0
LTYPE
  5
44
330
5
100
AcDbSymbolTableRecord
100
AcDbLinetypeTableRecord
  2
PHANTOM
 70
     0
  3
Phantom
 72
    65
 73
     6
 40
13.0
 49
10.0
 74
     0
 49
-1.0
 74
     0
 49
0.0
 74
     0
 49
-1.0
 74
     0
 49
0.0
 74
     0
 49
-1.0
 74
     0
  0
LTYPE
  5
45
330
5
100
AcDbSymbolTableRecord
100
AcDbLinetypeTableRecord
  2
CENTER_DASH_DASH
 70
     0
  3
Center_Dash_Dash
 72
    65
 73
     6
 40
14.0
 49
9.0
 74
     0
 49
-1.0
 74
     0
 49
1.0
 74
     0
 49
-1.0
 74
     0
 49
1.0
 74
     0
 49
-1.0
 74
     0
  0
ENDTAB
  0
TABLE
  2
LAYER
  5
2
330
0
100
AcDbSymbolTable
 70
     3
  0
LAYER
  5
10
330
2
100
AcDbSymbolTableRecord
100
AcDbLayerTableRecord
  2
0
 70
     0
 62
     7
  6
Continuous
370
    -3
390
F
  0
LAYER
  5
46
330
2
100
AcDbSymbolTableRecord
100
AcDbLayerTableRecord
  2
1
 70
     0
 62
     7
  6
Continuous
370
    -3
390
F
  0
LAYER
  5
47
330
2
100
AcDbSymbolTableRecord
100
AcDbLayerTableRecord
  2
_U_30EC_U_30A4_U_30E4_U_30FC_1
 70
     0
 62
     7
  6
Continuous
370
    -3
390
F
  0
ENDTAB
  0
TABLE
  2
STYLE
  5
3
330
0
100
AcDbSymbolTable
 70
     3
  0
STYLE
  5
11
330
3
100
AcDbSymbolTableRecord
100
AcDbTextStyleTableRecord
  2
Standard
 70
     0
 40
0.0
 41
1.0
 50
0.0
 71
     0
 42
0.2
  3
txt
  4

  0
STYLE
  5
BA
330
3
100
AcDbSymbolTableRecord
100
AcDbTextStyleTableRecord
  2
CONVERTER_11
 70
     0
 40
0.0
 41
0.89
 50
0.0
 71
     0
 42
0.2
  3
MS Mincho.ttf
  4

1001
ACAD
1000
MS Mincho
1071
    32785
  0
STYLE
  5
F3
330
3
100
AcDbSymbolTableRecord
100
AcDbTextStyleTableRecord
  2
CONVERTER_12
 70
     0
 40
0.0
 41
0.9
 50
0.0
 71
     0
 42
0.2
  3
txt.shx
  4

  0
ENDTAB
  0
TABLE
  2
VIEW
  5
6
330
0
100
AcDbSymbolTable
 70
     0
  0
ENDTAB
  0
TABLE
  2
UCS
  5
7
330
0
100
AcDbSymbolTable
 70
     0
  0
ENDTAB
  0
TABLE
  2
APPID
  5
9
330
0
100
AcDbSymbolTable
 70
     1
  0
APPID
  5
12
330
9
100
AcDbSymbolTableRecord
100
AcDbRegAppTableRecord
  2
ACAD
 70
     0
  0
ENDTAB
  0
TABLE
  2
DIMSTYLE
  5
A
330
0
100
AcDbSymbolTable
 70
     3
100
AcDbDimStyleTable
  0
DIMSTYLE
105
27
330
A
100
AcDbSymbolTableRecord
100
AcDbDimStyleTableRecord
  2
Standard
 70
     0
178
     0
340
11
  0
DIMSTYLE
105
10A
102
{ACAD_REACTORS
330
10B
102
}
330
A
100
AcDbSymbolTableRecord
100
AcDbDimStyleTableRecord
  2
ME10_DIM_10
 70
     0
 41
3.5
 42
0.0
 44
1.0
 73
     0
 74
     0
 77
     1
 78
     8
140
3.5
147
1.0
172
     1
173
     1
174
     1
175
     1
176
     2
177
     2
271
     2
178
     7
271
     2
340
F3
  0
DIMSTYLE
105
115
102
{ACAD_REACTORS
330
116
102
}
330
A
100
AcDbSymbolTableRecord
100
AcDbDimStyleTableRecord
  2
ME10_DIM_11
 70
     0
 41
3.5
 42
0.0
 44
1.0
 73
     0
 74
     0
 77
     1
 78
     8
140
3.5
147
1.0
172
     1
173
     1
174
     1
175
     1
176
     2
177
     2
271
     2
178
     7
271
     2
340
F3
  0
ENDTAB
  0
TABLE
  2
BLOCK_RECORD
  5
1
330
0
100
AcDbSymbolTable
 70
     9
  0
BLOCK_RECORD
  5
1F
330
1
100
AcDbSymbolTableRecord
100
AcDbBlockTableRecord
  2
*Model_Space
340
22
  0
BLOCK_RECORD
  5
1B
330
1
100
AcDbSymbolTableRecord
100
AcDbBlockTableRecord
  2
*Paper_Space
340
1E
  0
BLOCK_RECORD
  5
23
330
1
100
AcDbSymbolTableRecord
100
AcDbBlockTableRecord
  2
*Paper_Space0
340
26
  0
BLOCK_RECORD
  5
48
330
1
100
AcDbSymbolTableRecord
100
AcDbBlockTableRecord
  2
開示A4
340
0
102
{BLKREFS
331
4C
102
}
  0
BLOCK_RECORD
  5
4B
330
1
100
AcDbSymbolTableRecord
100
AcDbBlockTableRecord
  2
開示A4枠
340
0
102
{BLKREFS
331
55
102
}
  0
BLOCK_RECORD
  5
4F
330
1
100
AcDbSymbolTableRecord
100
AcDbBlockTableRecord
  2
P88
340
0
102
{BLKREFS
331
56
102
}
  0
BLOCK_RECORD
  5
52
330
1
100
AcDbSymbolTableRecord
100
AcDbBlockTableRecord
  2
GOMU
340
0
102
{BLKREFS
331
57
102
}
  0
BLOCK_RECORD
  5
101
330
1
100
AcDbSymbolTableRecord
100
AcDbBlockTableRecord
  2
*D5
340
0
  0
BLOCK_RECORD
  5
10C
330
1
100
AcDbSymbolTableRecord
100
AcDbBlockTableRecord
  2
*D6
340
0
  0
BLOCK_RECORD
  5
117
330
1
100
AcDbSymbolTableRecord
100
AcDbBlockTableRecord
  2
*D7
340
0
102
{BLKREFS
331
11E
102
}
  0
BLOCK_RECORD
  5
11F
330
1
100
AcDbSymbolTableRecord
100
AcDbBlockTableRecord
  2
*D8
340
0
102
{BLKREFS
331
128
102
}
  0
ENDTAB
  0
ENDSEC
  0
SECTION
  2
BLOCKS
  0
BLOCK
  5
20
330
1F
100
AcDbEntity
  8
0
100
AcDbBlockBegin
  2
*Model_Space
 70
     0
 10
0.0
 20
0.0
 30
0.0
  3
*Model_Space
  1

  0
ENDBLK
  5
21
330
1F
100
AcDbEntity
  8
0
100
AcDbBlockEnd
  0
BLOCK
  5
1C
330
1B
100
AcDbEntity
 67
     1
  8
0
100
AcDbBlockBegin
  2
*Paper_Space
 70
     0
 10
0.0
 20
0.0
 30
0.0
  3
*Paper_Space
  1

  0
ENDBLK
  5
1D
330
1B
100
AcDbEntity
 67
     1
  8
0
100
AcDbBlockEnd
  0
BLOCK
  5
24
330
23
100
AcDbEntity
  8
0
100
AcDbBlockBegin
  2
*Paper_Space0
 70
     0
 10
0.0
 20
0.0
 30
0.0
  3
*Paper_Space0
  1

  0
ENDBLK
  5
25
330
23
100
AcDbEntity
  8
0
100
AcDbBlockEnd
  0
BLOCK
  5
49
330
48
100
AcDbEntity
  8
0
100
AcDbBlockBegin
  2
開示A4
 70
     0
 10
0.0
 20
0.00000000000001
 30
0.0
  3
開示A4
  1

  0
POINT
  5
58
330
48
100
AcDbEntity
  8
1
 62
     4
100
AcDbPoint
 10
182.9999999999999
 20
15.00000000000003
 30
0.0
  0
POINT
  5
59
330
48
100
AcDbEntity
  8
1
 62
     4
100
AcDbPoint
 10
93.74999999999997
 20
17.00000000000001
 30
0.0
  0
POINT
  5
5A
330
48
100
AcDbEntity
  8
1
 62
     4
100
AcDbPoint
 10
85.24999999999997
 20
17.00000000000001
 30
0.0
  0
POINT
  5
5B
330
48
100
AcDbEntity
  8
1
 62
     4
100
AcDbPoint
 10
106.5
 20
19.00000000000003
 30
0.0
  0
POINT
  5
5C
330
48
100
AcDbEntity
  8
1
 62
     4
100
AcDbPoint
 10
106.5
 20
12.50000000000001
 30
0.0
  0
POINT
  5
5D
330
48
100
AcDbEntity
  8
1
 62
     4
100
AcDbPoint
 10
112.25
 20
12.50000000000001
 30
0.0
  0
POINT
  5
5E
330
48
100
AcDbEntity
  8
1
 62
     4
100
AcDbPoint
 10
100.75
 20
12.50000000000001
 30
0.0
  0
POINT
  5
5F
330
48
100
AcDbEntity
  8
1
 62
     4
100
AcDbPoint
 10
123.5
 20
19.00000000000003
 30
0.0
  0
POINT
  5
60
330
48
100
AcDbEntity
  8
1
 62
     4
100
AcDbPoint
 10
123.5
 20
12.50000000000001
 30
0.0
  0
POINT
  5
61
330
48
100
AcDbEntity
  8
1
 62
     4
100
AcDbPoint
 10
129.25
 20
12.50000000000001
 30
0.0
  0
POINT
  5
62
330
48
100
AcDbEntity
  8
1
 62
     4
100
AcDbPoint
 10
117.75
 20
12.50000000000001
 30
0.0
  0
POINT
  5
63
330
48
100
AcDbEntity
  8
1
 62
     4
100
AcDbPoint
 10
140.5
 20
19.00000000000003
 30
0.0
  0
POINT
  5
64
330
48
100
AcDbEntity
  8
1
 62
     4
100
AcDbPoint
 10
140.5
 20
12.50000000000001
 30
0.0
  0
POINT
  5
65
330
48
100
AcDbEntity
  8
1
 62
     4
100
AcDbPoint
 10
146.25
 20
12.50000000000001
 30
0.0
  0
POINT
  5
66
330
48
100
AcDbEntity
  8
1
 62
     4
100
AcDbPoint
 10
134.75
 20
12.50000000000001
 30
0.0
  0
POINT
  5
67
330
48
100
AcDbEntity
  8
1
 62
     4
100
AcDbPoint
 10
151.75
 20
12.50000000000001
 30
0.0
  0
POINT
  5
68
330
48
100
AcDbEntity
  8
1
 62
     4
100
AcDbPoint
 10
163.25
 20
12.50000000000001
 30
0.0
  0
POINT
  5
69
330
48
100
AcDbEntity
  8
1
 62
     4
100
AcDbPoint
 10
157.5
 20
12.50000000000001
 30
0.0
  0
POINT
  5
6A
330
48
100
AcDbEntity
  8
1
 62
     4
100
AcDbPoint
 10
57.0
 20
14.25000000000001
 30
0.0
  0
POINT
  5
6B
330
48
100
AcDbEntity
  8
1
 62
     4
100
AcDbPoint
 10
57.0
 20
22.75000000000003
 30
0.0
  0
POINT
  5
6C
330
48
100
AcDbEntity
  8
1
 62
     4
100
AcDbPoint
 10
47.5
 20
282.0000000000003
 30
0.0
  0
POINT
  5
6D
330
48
100
AcDbEntity
  8
1
 62
     4
100
AcDbPoint
 10
157.5
 20
19.00000000000003
 30
0.0
  0
POINT
  5
6E
330
48
100
AcDbEntity
  8
1
 62
     4
100
AcDbPoint
 10
57.0
 20
16.25000000000001
 30
0.0
  0
POINT
  5
6F
330
48
100
AcDbEntity
  8
1
 62
     4
100
AcDbPoint
 10
57.0
 20
24.75000000000003
 30
0.0
  0
POINT
  5
70
330
48
100
AcDbEntity
  8
1
 62
     4
100
AcDbPoint
 10
57.0
 20
20.75000000000003
 30
0.0
  0
POINT
  5
71
330
48
100
AcDbEntity
  8
1
 62
     4
100
AcDbPoint
 10
57.0
 20
12.25000000000001
 30
0.0
  0
POINT
  5
72
330
48
100
AcDbEntity
  8
1
 62
     4
100
AcDbPoint
 10
34.0
 20
34.00000000000001
 30
0.0
  0
LINE
  5
77
330
48
100
AcDbEntity
  8
1
  6
Continuous
 62
     7
100
AcDbLine
 10
105.0
 20
10.00000000000001
 30
0.0
 11
199.9999999999999
 21
10.00000000000001
 31
0.0
  0
LINE
  5
78
330
48
100
AcDbEntity
  8
1
  6
Continuous
 62
     2
100
AcDbLine
 10
105.0
 20
10.00000000000001
 30
0.0
 11
105.0
 21
5.00000000000001
 31
0.0
  0
LINE
  5
79
330
48
100
AcDbEntity
  8
1
  6
Continuous
 62
     7
100
AcDbLine
 10
199.9999999999999
 20
148.5
 30
0.0
 11
199.9999999999999
 21
287.0000000000003
 31
0.0
  0
LINE
  5
7A
330
48
100
AcDbEntity
  8
1
  6
Continuous
 62
     2
100
AcDbLine
 10
199.9999999999999
 20
148.5
 30
0.0
 11
204.9999999999999
 21
148.5
 31
0.0
  0
LINE
  5
7B
330
48
100
AcDbEntity
  8
1
  6
Continuous
 62
     7
100
AcDbLine
 10
25.0
 20
148.5
 30
0.0
 11
25.0
 21
287.0000000000003
 31
0.0
  0
LINE
  5
7C
330
48
100
AcDbEntity
  8
1
  6
Continuous
 62
     2
100
AcDbLine
 10
25.0
 20
148.5
 30
0.0
 11
20.0
 21
148.5
 31
0.0
  0
LINE
  5
7D
330
48
100
AcDbEntity
  8
1
  6
Continuous
 62
     7
100
AcDbLine
 10
105.0
 20
287.0000000000003
 30
0.0
 11
25.0
 21
287.0000000000003
 31
0.0
  0
LINE
  5
7E
330
48
100
AcDbEntity
  8
1
  6
Continuous
 62
     2
100
AcDbLine
 10
105.0
 20
287.0000000000003
 30
0.0
 11
105.0
 21
292.0000000000003
 31
0.0
  0
LINE
  5
7F
330
48
100
AcDbEntity
  8
1
  6
Continuous
 62
     2
100
AcDbLine
 10
166.0
 20
20.00000000000003
 30
0.0
 11
199.9999999999999
 21
20.00000000000003
 31
0.0
  0
LINE
  5
80
330
48
100
AcDbEntity
  8
1
  6
Continuous
 62
     2
100
AcDbLine
 10
97.99999999999997
 20
27.00000000000003
 30
0.0
 11
97.99999999999997
 21
10.00000000000001
 31
0.0
  0
LINE
  5
81
330
48
100
AcDbEntity
  8
1
  6
Continuous
 62
     2
100
AcDbLine
 10
115.0
 20
27.00000000000003
 30
0.0
 11
115.0
 21
10.00000000000001
 31
0.0
  0
LINE
  5
82
330
48
100
AcDbEntity
  8
1
  6
Continuous
 62
     2
100
AcDbLine
 10
149.0
 20
27.00000000000003
 30
0.0
 11
149.0
 21
10.00000000000001
 31
0.0
  0
LINE
  5
83
330
48
100
AcDbEntity
  8
1
  6
Continuous
 62
     2
100
AcDbLine
 10
132.0
 20
27.00000000000003
 30
0.0
 11
132.0
 21
10.0
 31
0.0
  0
LINE
  5
84
330
48
100
AcDbEntity
  8
1
  6
Continuous
 62
     2
100
AcDbLine
 10
166.0
 20
27.00000000000003
 30
0.0
 11
166.0
 21
10.00000000000001
 31
0.0
  0
LINE
  5
85
330
48
100
AcDbEntity
  8
1
  6
Continuous
 62
     2
100
AcDbLine
 10
55.0
 20
277.0000000000003
 30
0.0
 11
25.0
 21
277.0000000000003
 31
0.0
  0
LINE
  5
86
330
48
100
AcDbEntity
  8
1
  6
Continuous
 62
     7
100
AcDbLine
 10
25.0
 20
10.00000000000001
 30
0.0
 11
25.0
 21
148.5
 31
0.0
  0
LINE
  5
87
330
48
100
AcDbEntity
  8
1
  6
Continuous
 62
     2
100
AcDbLine
 10
40.0
 20
287.0000000000003
 30
0.0
 11
40.0
 21
277.0000000000003
 31
0.0
  0
LINE
  5
88
330
48
100
AcDbEntity
  8
1
  6
Continuous
 62
     2
100
AcDbLine
 10
55.0
 20
287.0000000000003
 30
0.0
 11
55.0
 21
277.0000000000003
 31
0.0
  0
LINE
  5
89
330
48
100
AcDbEntity
  8
1
  6
Continuous
 62
     2
100
AcDbLine
 10
33.0
 20
41.00000000000001
 30
0.0
 11
33.0
 21
27.00000000000001
 31
0.0
  0
LINE
  5
8A
330
48
100
AcDbEntity
  8
1
  6
Continuous
 62
     7
100
AcDbLine
 10
199.9999999999999
 20
27.00000000000003
 30
0.0
 11
25.0
 21
27.00000000000003
 31
0.0
  0
LINE
  5
8B
330
48
100
AcDbEntity
  8
1
  6
Continuous
 62
     7
100
AcDbLine
 10
25.0
 20
41.00000000000001
 30
0.0
 11
199.9999999999999
 21
41.00000000000001
 31
0.0
  0
LINE
  5
8C
330
48
100
AcDbEntity
  8
1
  6
PHANTOM
 62
     4
100
AcDbLine
 10
0.0
 20
0.00000000000001
 30
0.0
 11
209.9999999999999
 21
0.00000000000001
 31
0.0
  0
LINE
  5
8D
330
48
100
AcDbEntity
  8
1
  6
PHANTOM
 62
     4
100
AcDbLine
 10
209.9999999999999
 20
0.00000000000001
 30
0.0
 11
209.9999999999999
 21
297.0
 31
0.0
  0
LINE
  5
8E
330
48
100
AcDbEntity
  8
1
  6
PHANTOM
 62
     4
100
AcDbLine
 10
209.9999999999999
 20
297.0
 30
0.0
 11
0.0
 21
297.0
 31
0.0
  0
LINE
  5
8F
330
48
100
AcDbEntity
  8
1
  6
PHANTOM
 62
     4
100
AcDbLine
 10
0.0
 20
297.0
 30
0.0
 11
0.0
 21
0.00000000000001
 31
0.0
  0
LINE
  5
90
330
48
100
AcDbEntity
  8
1
  6
Continuous
 62
     7
100
AcDbLine
 10
25.0
 20
10.00000000000001
 30
0.0
 11
105.0
 21
10.00000000000001
 31
0.0
  0
LINE
  5
91
330
48
100
AcDbEntity
  8
1
  6
Continuous
 62
     7
100
AcDbLine
 10
199.9999999999999
 20
10.00000000000001
 30
0.0
 11
199.9999999999999
 21
148.5
 31
0.0
  0
LINE
  5
92
330
48
100
AcDbEntity
  8
1
  6
Continuous
 62
     7
100
AcDbLine
 10
199.9999999999999
 20
287.0000000000003
 30
0.0
 11
105.0
 21
287.0000000000003
 31
0.0
  0
LINE
  5
93
330
48
100
AcDbEntity
  8
1
  6
Continuous
 62
     2
100
AcDbLine
 10
25.0
 20
18.50000000000003
 30
0.0
 11
81.0
 21
18.50000000000003
 31
0.0
  0
LINE
  5
94
330
48
100
AcDbEntity
  8
1
  6
Continuous
 62
     2
100
AcDbLine
 10
33.0
 20
27.00000000000001
 30
0.0
 11
33.0
 21
10.00000000000001
 31
0.0
  0
LINE
  5
95
330
48
100
AcDbEntity
  8
1
  6
Continuous
 62
     7
100
AcDbLine
 10
190.9999999999999
 20
24.70000000000002
 30
0.0
 11
190.9999999999999
 21
22.30000000000002
 31
0.0
  0
LINE
  5
96
330
48
100
AcDbEntity
  8
1
  6
Continuous
 62
     7
100
AcDbLine
 10
190.9999999999999
 20
24.70000000000002
 30
0.0
 11
195.9999999999999
 21
25.50000000000003
 31
0.0
  0
LINE
  5
97
330
48
100
AcDbEntity
  8
1
  6
Continuous
 62
     7
100
AcDbLine
 10
195.9999999999999
 20
25.50000000000003
 30
0.0
 11
195.9999999999999
 21
21.50000000000003
 31
0.0
  0
LINE
  5
98
330
48
100
AcDbEntity
  8
1
  6
Continuous
 62
     7
100
AcDbLine
 10
195.9999999999999
 20
21.50000000000003
 30
0.0
 11
190.9999999999999
 21
22.30000000000002
 31
0.0
  0
LINE
  5
99
330
48
100
AcDbEntity
  8
1
  6
DOT_CENTER
 62
     2
100
AcDbLine
 10
183.9999999999999
 20
23.50000000000003
 30
0.0
 11
196.9999999999999
 21
23.50000000000003
 31
0.0
  0
LINE
  5
9A
330
48
100
AcDbEntity
  8
1
  6
DOT_CENTER
 62
     2
100
AcDbLine
 10
186.9999999999999
 20
26.50000000000003
 30
0.0
 11
186.9999999999999
 21
20.50000000000003
 31
0.0
  0
LINE
  5
9B
330
48
100
AcDbEntity
  8
1
  6
Continuous
 62
     2
100
AcDbLine
 10
81.0
 20
27.00000000000003
 30
0.0
 11
81.0
 21
10.00000000000001
 31
0.0
  0
CIRCLE
  5
9C
330
48
100
AcDbEntity
  8
1
  6
Continuous
 62
     7
100
AcDbCircle
 10
103.5
 20
12.50000000000001
 30
0.0
 40
0.2999999999999972
  0
CIRCLE
  5
9D
330
48
100
AcDbEntity
  8
1
  6
Continuous
 62
     7
100
AcDbCircle
 10
109.5
 20
12.50000000000001
 30
0.0
 40
0.2999999999999972
  0
CIRCLE
  5
9E
330
48
100
AcDbEntity
  8
1
  6
Continuous
 62
     7
100
AcDbCircle
 10
120.5
 20
12.50000000000001
 30
0.0
 40
0.2999999999999972
  0
CIRCLE
  5
9F
330
48
100
AcDbEntity
  8
1
  6
Continuous
 62
     7
100
AcDbCircle
 10
126.5
 20
12.50000000000001
 30
0.0
 40
0.2999999999999972
  0
CIRCLE
  5
A0
330
48
100
AcDbEntity
  8
1
  6
Continuous
 62
     7
100
AcDbCircle
 10
137.5
 20
12.50000000000001
 30
0.0
 40
0.3000000000000114
  0
CIRCLE
  5
A1
330
48
100
AcDbEntity
  8
1
  6
Continuous
 62
     7
100
AcDbCircle
 10
143.5
 20
12.50000000000001
 30
0.0
 40
0.3000000000000114
  0
CIRCLE
  5
A2
330
48
100
AcDbEntity
  8
1
  6
Continuous
 62
     7
100
AcDbCircle
 10
160.5
 20
12.50000000000001
 30
0.0
 40
0.3000000000000114
  0
CIRCLE
  5
A3
330
48
100
AcDbEntity
  8
1
  6
Continuous
 62
     7
100
AcDbCircle
 10
154.5
 20
12.50000000000001
 30
0.0
 40
0.3000000000000114
  0
CIRCLE
  5
A4
330
48
100
AcDbEntity
  8
1
  6
Continuous
 62
     7
100
AcDbCircle
 10
186.9999999999999
 20
23.50000000000003
 30
0.0
 40
1.200000000000216
  0
CIRCLE
  5
A5
330
48
100
AcDbEntity
  8
1
  6
Continuous
 62
     7
100
AcDbCircle
 10
186.9999999999999
 20
23.50000000000003
 30
0.0
 40
2.0
  0
CIRCLE
  5
A6
330
48
100
AcDbEntity
  8
1
  6
DOT_CENTER
 62
     7
100
AcDbCircle
 10
89.49999999999997
 20
16.00000000000001
 30
0.0
 40
0.1000000000000227
  0
CIRCLE
  5
A7
330
48
100
AcDbEntity
  8
1
  6
DOT_CENTER
 62
     7
100
AcDbCircle
 10
89.49999999999997
 20
18.00000000000001
 30
0.0
 40
0.1000000000000227
  0
SPLINE
  5
A8
102
{ACAD_REACTORS
330
C7
102
}
330
48
100
AcDbEntity
  8
_U_30EC_U_30A4_U_30E4_U_30FC_1
  6
Continuous
 62
     2
100
AcDbSpline
210
0.0
220
0.0
230
1.0
 70
     8
 71
     3
 72
    24
 73
    20
 74
    18
 42
0.000000001
 43
0.0000000001
 44
0.00000001
 40
0.0
 40
0.0
 40
0.0
 40
0.0
 40
0.2211075008753968
 40
0.4273218586245324
 40
0.5080174679239343
 40
0.5914835907870216
 40
0.8143265690192716
 40
1.054651302686584
 40
1.295452694023173
 40
1.518109231328828
 40
1.540864321905443
 40
1.595126460622704
 40
1.659890947896017
 40
1.714153085187374
 40
1.736908174961675
 40
1.764951100735367
 40
1.801562291220956
 40
1.953914424543634
 40
2.126104167379719
 40
2.126104167379719
 40
2.126104167379719
 40
2.126104167379719
 10
185.9375369556889
 20
15.58989295113017
 30
0.0
 10
185.9112579081811
 20
15.53097628234375
 30
0.0
 10
185.8604698894425
 20
15.4171113967926
 30
0.0
 10
185.8131784839111
 20
15.14441958233116
 30
0.0
 10
185.7043482802618
 20
15.24445482575456
 30
0.0
 10
185.5514800279637
 20
15.27118593367331
 30
0.0
 10
185.7686155181198
 20
15.48518135017633
 30
0.0
 10
185.7838483674381
 20
15.70332117782488
 30
0.0
 10
185.8906889492
 20
15.88451579066427
 30
0.0
 10
185.8305380947078
 20
16.16913226311401
 30
0.0
 10
185.9334317395402
 20
16.14114089222452
 30
0.0
 10
185.9779933468149
 20
16.132432516023
 30
0.0
 10
186.0380842395397
 20
16.12139654183357
 30
0.0
 10
186.0756619587437
 20
16.10767523055561
 30
0.0
 10
186.1252466928607
 20
16.10756076160225
 30
0.0
 10
186.0930158919325
 20
16.07306592398625
 30
0.0
 10
186.0171802221882
 20
16.08404104537967
 30
0.0
 10
186.0429447159693
 20
15.8985896958245
 30
0.0
 10
186.005589676385
 20
15.8070231354959
 30
0.0
 10
185.9857704961609
 20
15.75844135397706
 30
0.0
 11
185.9375369556889
 21
15.58989295113017
 31
0.0
 11
185.8616471328552
 21
15.3822170831856
 31
0.0
 11
185.7717402238433
 21
15.19663392356193
 31
0.0
 11
185.701149392311
 21
15.23573272563552
 31
0.0
 11
185.6245525192651
 21
15.2688916318772
 31
0.0
 11
185.7214026947455
 21
15.46958801203539
 31
0.0
 11
185.7994641467471
 21
15.69688163177025
 31
0.0
 11
185.858971692972
 21
15.93021436608692
 31
0.0
 11
185.9001601511226
 21
16.14902808999055
 31
0.0
 11
185.9224183822214
 21
16.14429889221396
 31
0.0
 11
185.975495702534
 21
16.13302157443901
 31
0.0
 11
186.0388460525844
 21
16.11956154999794
 31
0.0
 11
186.091923372897
 21
16.10828423222299
 31
0.0
 11
186.1141816039958
 21
16.10355503444639
 31
0.0
 11
186.096409715746
 21
16.08186250841011
 31
0.0
 11
186.0606122998071
 21
16.07418628445369
 31
0.0
 11
186.028195330148
 21
15.92532288171315
 31
0.0
 11
185.9857704961609
 21
15.75844135397706
 31
0.0
  0
SPLINE
  5
A9
102
{ACAD_REACTORS
330
C7
102
}
330
48
100
AcDbEntity
  8
_U_30EC_U_30A4_U_30E4_U_30FC_1
  6
Continuous
 62
     2
100
AcDbSpline
210
0.0
220
0.0
230
1.0
 70
     8
 71
     3
 72
    70
 73
    66
 74
    64
 42
0.000000001
 43
0.0000000001
 44
0.00000001
 40
0.0
 40
0.0
 40
0.0
 40
0.0
 40
0.0241731073021472
 40
0.0846058988987013
 40
0.1631685280353284
 40
0.2417311571789756
 40
0.3021639488292751
 40
0.3263370654895541
 40
0.3533118254248899
 40
0.4228783438922111
 40
0.5179999095313402
 40
0.6216398239466102
 40
0.7167613891499706
 40
0.7863279069649863
 40
0.8133026791761836
 40
0.8372943998771674
 40
0.8945054261372869
 40
0.9627895541962639
 40
1.020000580349074
 40
1.043992300975172
 40
1.071934345522908
 40
1.113121768772919
 40
1.145225199332243
 40
1.225483775412778
 40
1.329819923771488
 40
1.434156071994378
 40
1.514414647795798
 40
1.546518078208406
 40
1.578974764260179
 40
1.662678849314174
 40
1.777131373668395
 40
1.901833377474786
 40
2.016285900500575
 40
2.099989982527942
 40
2.132446666570301
 40
2.158782354486025
 40
2.216720867907814
 40
2.274659381334239
 40
2.300995069256171
 40
2.333451754066143
 40
2.417155836543824
 40
2.531608358985263
 40
2.656310362283758
 40
2.770762886388891
 40
2.854466971340056
 40
2.886923657363862
 40
2.913597976833296
 40
2.982389642875098
 40
3.076451716946965
 40
3.178937260458577
 40
3.272999334739982
 40
3.341791001059205
 40
3.368465320663518
 40
3.396976080738739
 40
3.472140811845975
 40
3.578408190308664
 40
3.700226892456101
 40
3.822045594634318
 40
3.928312973256425
 40
4.003477705314822
 40
4.031988456866888
 40
4.058324144797686
 40
4.116262658236847
 40
4.174201171400647
 40
4.200536849608579
 40
4.200536849608579
 40
4.200536849608579
 40
4.200536849608579
 10
185.9857704961609
 20
15.75844135397706
 30
0.0
 10
185.9938259544679
 20
15.75844359811687
 30
0.0
 10
186.0220200663241
 20
15.75845146032799
 30
0.0
 10
186.0765534803672
 20
15.75830754828372
 30
0.0
 10
186.1482891808604
 20
15.75909120499899
 30
0.0
 10
186.2236240137062
 20
15.75627570463812
 30
0.0
 10
186.2713052366439
 20
15.76298403400959
 30
0.0
 10
186.3195071245615
 20
15.75197563692433
 30
0.0
 10
186.3062571799874
 20
15.80546402997035
 30
0.0
 10
186.3151093964538
 20
15.86049583543092
 30
0.0
 10
186.3108698036285
 20
15.9541990872611
 30
0.0
 10
186.313348348128
 20
16.04959482218533
 30
0.0
 10
186.309093870606
 20
16.14356821983388
 30
0.0
 10
186.3179818665846
 20
16.19795062438013
 30
0.0
 10
186.3046977409945
 20
16.25233997691462
 30
0.0
 10
186.3514119277109
 20
16.23842216335359
 30
0.0
 10
186.3943254545736
 20
16.24103877374044
 30
0.0
 10
186.4605443456685
 20
16.23648422450756
 30
0.0
 10
186.5013342271798
 20
16.22778162134162
 30
0.0
 10
186.5525145690818
 20
16.23531799890196
 30
0.0
 10
186.52537204872
 20
16.19349970223286
 30
0.0
 10
186.4803096055706
 20
16.20284992072597
 30
0.0
 10
186.4942065045051
 20
16.13841207371839
 30
0.0
 10
186.4858414431653
 20
16.07378219627399
 30
0.0
 10
186.4903632178398
 20
15.97529141193889
 30
0.0
 10
186.4854741311167
 20
15.87595932842571
 30
0.0
 10
186.4950258992082
 20
15.8129311555297
 30
0.0
 10
186.47997614552
 20
15.7496401149979
 30
0.0
 10
186.5449159457208
 20
15.7651507294427
 30
0.0
 10
186.6116246399496
 20
15.75499387697813
 30
0.0
 10
186.7241435470828
 20
15.75988800099369
 30
0.0
 10
186.8390235448954
 20
15.75691204732784
 30
0.0
 10
186.9519871999747
 20
15.76221664184992
 30
0.0
 10
187.0176267597678
 20
15.7510730647209
 30
0.0
 10
187.0816276691053
 20
15.76744532319858
 30
0.0
 10
187.0703142889189
 20
15.71761689905276
 30
0.0
 10
187.0775339871509
 20
15.67416715212124
 30
0.0
 10
187.070314261127
 20
15.63071745587446
 30
0.0
 10
187.0816277175994
 20
15.58088895196877
 30
0.0
 10
187.0176263598972
 20
15.59726166091363
 30
0.0
 10
186.9519921240459
 20
15.5861127166159
 30
0.0
 10
186.838997431733
 20
15.59144857206855
 30
0.0
 10
186.7242456548644
 20
15.58834345663823
 30
0.0
 10
186.611318368686
 20
15.59364894682589
 30
0.0
 10
186.5455220903585
 20
15.58257300019595
 30
0.0
 10
186.4816097975358
 20
15.59887597847619
 30
0.0
 10
186.4936015165126
 20
15.54423524395742
 30
0.0
 10
186.4862104613005
 20
15.48854295047843
 30
0.0
 10
186.4892684841983
 20
15.39649689140571
 30
0.0
 10
186.4893422785683
 20
15.30179109873102
 30
0.0
 10
186.486031357836
 20
15.20952782902266
 30
0.0
 10
186.4939505989904
 20
15.15435768736141
 30
0.0
 10
186.4815076611617
 20
15.10058169100137
 30
0.0
 10
186.5389116551631
 20
15.11453768862782
 30
0.0
 10
186.5994708140383
 20
15.10511457884227
 30
0.0
 10
186.7048680855081
 20
15.10942885928705
 30
0.0
 10
186.8204294070622
 20
15.10835504612032
 30
0.0
 10
186.9359688877797
 20
15.10725965900995
 30
0.0
 10
187.0414181130841
 20
15.11162525770633
 30
0.0
 10
187.1018680471804
 20
15.10209426030672
 30
0.0
 10
187.159283773911
 20
15.1161728960638
 30
0.0
 10
187.1477773876709
 20
15.06707153265684
 30
0.0
 10
187.153756678175
 20
15.0256465801865
 30
0.0
 10
187.1520311050801
 20
14.97651677966696
 30
0.0
 10
187.1521500122971
 20
14.94854428447609
 30
0.0
 10
187.1521871691833
 20
14.93980288195951
 30
0.0
 11
185.9857704961609
 21
15.75844135397706
 31
0.0
 11
186.0099436128282
 21
15.75844135397706
 31
0.0
 11
186.0703764044962
 21
15.75844135397706
 31
0.0
 11
186.1489390336648
 21
15.75844135397706
 31
0.0
 11
186.2275016628334
 21
15.75844135397706
 31
0.0
 11
186.2879344545015
 21
15.75844135397706
 31
0.0
 11
186.3121075711687
 21
15.75844135397706
 31
0.0
 11
186.3121075711687
 21
15.78541612620064
 31
0.0
 11
186.3121075711687
 21
15.8549826440404
 31
0.0
 11
186.3121075711687
 21
15.95010420924986
 31
0.0
 11
186.3121075711687
 21
16.05374412358257
 31
0.0
 11
186.3121075711687
 21
16.14886568879203
 31
0.0
 11
186.3121075711687
 21
16.21843220663179
 31
0.0
 11
186.3121075711687
 21
16.24540697885537
 31
0.0
 11
186.3360407604892
 21
16.24373213107801
 31
0.0
 11
186.3931122119458
 21
16.23973826330122
 31
0.0
 11
186.461229750781
 21
16.23497138885796
 31
0.0
 11
186.5183012022376
 21
16.23097752108118
 31
0.0
 11
186.5422343915581
 21
16.22930267330382
 31
0.0
 11
186.5274972731229
 21
16.20556293372641
 31
0.0
 11
186.4886640249976
 21
16.19183767331313
 31
0.0
 11
186.4886640249976
 21
16.1597342422512
 31
0.0
 11
186.4886640249976
 21
16.07947566459637
 31
0.0
 11
186.4886640249976
 21
15.97513951364509
 31
0.0
 11
186.4886640249976
 21
15.87080336269382
 31
0.0
 11
186.4886640249976
 21
15.79054478503899
 31
0.0
 11
186.4886640249976
 21
15.75844135397706
 31
0.0
 11
186.5211207110824
 21
15.75844135397706
 31
0.0
 11
186.6048247962486
 21
15.75844135397706
 31
0.0
 11
186.7192773208634
 21
15.75844135397706
 31
0.0
 11
186.8439793252946
 21
15.75844135397706
 31
0.0
 11
186.9584318499095
 21
15.75844135397706
 31
0.0
 11
187.0421359350756
 21
15.75844135397706
 31
0.0
 11
187.0745926211604
 21
15.75844135397706
 31
0.0
 11
187.0745926211604
 21
15.73210566604962
 31
0.0
 11
187.0745926211604
 21
15.67416715260926
 31
0.0
 11
187.0745926211604
 21
15.61622863916889
 31
0.0
 11
187.0745926211604
 21
15.58989295124145
 31
0.0
 11
187.0421359350756
 21
15.58989295124145
 31
0.0
 11
186.9584318499095
 21
15.58989295124145
 31
0.0
 11
186.8439793252946
 21
15.58989295124145
 31
0.0
 11
186.7192773208634
 21
15.58989295124145
 31
0.0
 11
186.6048247962485
 21
15.58989295124145
 31
0.0
 11
186.5211207110824
 21
15.58989295124145
 31
0.0
 11
186.4886640249976
 21
15.58989295124145
 31
0.0
 11
186.4886640249976
 21
15.56321863152023
 31
0.0
 11
186.4886640249976
 21
15.49442696487076
 31
0.0
 11
186.4886640249976
 21
15.40036489006435
 31
0.0
 11
186.4886640249976
 21
15.29787934587229
 31
0.0
 11
186.4886640249976
 21
15.20381727106587
 31
0.0
 11
186.4886640249976
 21
15.1350256044164
 31
0.0
 11
186.4886640249976
 21
15.10835128469518
 31
0.0
 11
186.5171747850993
 21
15.10835128469518
 31
0.0
 11
186.5923395162766
 21
15.10835128469518
 31
0.0
 11
186.6986068948376
 21
15.10835128469518
 31
0.0
 11
186.8204255970904
 21
15.10835128469518
 31
0.0
 11
186.9422442993433
 21
15.10835128469518
 31
0.0
 11
187.0485116779043
 21
15.10835128469518
 31
0.0
 11
187.1236764090816
 21
15.10835128469518
 31
0.0
 11
187.1521871691833
 21
15.10835128469518
 31
0.0
 11
187.1521871691833
 21
15.08201559676773
 31
0.0
 11
187.1521871691833
 21
15.02407708332735
 31
0.0
 11
187.1521871691833
 21
14.96613856988696
 31
0.0
 11
187.1521871691833
 21
14.93980288195951
 31
0.0
  0
SPLINE
  5
AA
102
{ACAD_REACTORS
330
C7
102
}
330
48
100
AcDbEntity
  8
_U_30EC_U_30A4_U_30E4_U_30FC_1
  6
Continuous
 62
     2
100
AcDbSpline
210
0.0
220
0.0
230
1.0
 70
     8
 71
     3
 72
    62
 73
    58
 74
    56
 42
0.000000001
 43
0.0000000001
 44
0.00000001
 40
0.0
 40
0.0
 40
0.0
 40
0.0
 40
0.0598250028308769
 40
0.2024846486897616
 40
0.3727558389221315
 40
0.5154154847936923
 40
0.5752404975786192
 40
0.9332326775488206
 40
1.290451762839594
 40
1.602077253146015
 40
1.699931634112289
 40
1.799359756425191
 40
2.27012014965723
 40
2.804661928461691
 40
2.882342287383404
 40
3.076543185719252
 40
3.329004354835718
 40
3.581465524568543
 40
3.775666424543827
 40
3.853346784558447
 40
3.899120679595192
 40
3.98412934179219
 40
4.029903236817539
 40
4.105797496059694
 40
4.295533144152653
 40
4.542189486611898
 40
4.788845828875846
 40
4.978581476410231
 40
5.054475735244473
 40
5.621734664339489
 40
6.130867242037501
 40
6.225249780948762
 40
6.318913039727497
 40
6.663579954559163
 40
7.04749890022503
 40
7.435230791575965
 40
7.498943906668377
 40
7.65087518121037
 40
7.832212509001881
 40
7.984143783697267
 40
8.047856898903394
 40
8.0915546327329
 40
8.172707566964556
 40
8.21640530076828
 40
8.289021782161164
 40
8.462184160757538
 40
8.668861838005618
 40
8.84202421526421
 40
8.914640695475406
 40
8.989881580861613
 40
9.15541152882752
 40
9.320941477744302
 40
9.396182352487555
 40
9.454709011144102
 40
9.583467660171037
 40
9.712226309013316
 40
9.77075295798977
 40
9.77075295798977
 40
9.77075295798977
 40
9.77075295798977
 10
187.1521871691833
 20
14.93980288195951
 30
0.0
 10
187.1322348171623
 20
14.93980875568672
 30
0.0
 10
187.0647037716465
 20
14.93982863806158
 30
0.0
 10
186.9410612161788
 20
14.93949362520326
 30
0.0
 10
186.7863180150056
 20
14.94107673750513
 30
0.0
 10
186.6697349482479
 20
14.93686078860496
 30
0.0
 10
186.455094263424
 20
14.95215205331627
 30
0.0
 10
186.8518948407228
 20
14.59198721286193
 30
0.0
 10
186.8945656069266
 20
14.37510503397168
 30
0.0
 10
187.3189162146612
 20
14.19325062511445
 30
0.0
 10
187.1439821496073
 20
14.08985196568075
 30
0.0
 10
187.0194523925085
 20
13.87831523212721
 30
0.0
 10
186.7666277235943
 20
14.34806081001565
 30
0.0
 10
186.4797602893626
 20
14.99511516984522
 30
0.0
 10
186.490633592666
 20
14.68782672154695
 30
0.0
 10
186.488289277796
 20
14.52288616971779
 30
0.0
 10
186.4861096126411
 20
14.28879670711694
 30
0.0
 10
186.4980774396346
 20
14.04498072421784
 30
0.0
 10
186.4687984740631
 20
13.89855796860986
 30
0.0
 10
186.511452262547
 20
13.75113490174539
 30
0.0
 10
186.4239814005639
 20
13.76685797306221
 30
0.0
 10
186.3768527606744
 20
13.76694303543456
 30
0.0
 10
186.2898973207713
 20
13.7510942548291
 30
0.0
 10
186.3313474021722
 20
13.89527771422764
 30
0.0
 10
186.3029875004285
 20
14.03855052698456
 30
0.0
 10
186.31459737753
 20
14.27674947365266
 30
0.0
 10
186.3124175648271
 20
14.50517235240347
 30
0.0
 10
186.3103111127994
 20
14.66705729375996
 30
0.0
 10
186.3208035438323
 20
14.98153709333753
 30
0.0
 10
186.0128963252891
 20
14.29229470872434
 30
0.0
 10
185.7055258267459
 20
13.81476750243057
 30
0.0
 10
185.5851367066273
 20
14.03741112637428
 30
0.0
 10
185.4074607910722
 20
14.15011034955564
 30
0.0
 10
185.8853326362893
 20
14.32548143465461
 30
0.0
 10
185.9353959057209
 20
14.56091929252031
 30
0.0
 10
186.3583799621717
 20
14.95322989344608
 30
0.0
 10
186.1276754273541
 20
14.93655307029067
 30
0.0
 10
186.004968585934
 20
14.94269518948772
 30
0.0
 10
185.8325483095662
 20
14.93312822699575
 30
0.0
 10
185.7213224694449
 20
14.95448818489667
 30
0.0
 10
185.6025779627447
 20
14.92136265357421
 30
0.0
 10
185.6183169706686
 20
15.00203900606884
 30
0.0
 10
185.6178550933762
 20
15.04645414290855
 30
0.0
 10
185.6027881889931
 20
15.12967081778534
 30
0.0
 10
185.7372380935443
 20
15.09062651983884
 30
0.0
 10
185.8619755545747
 20
15.11739729328423
 30
0.0
 10
186.0628755237279
 20
15.10063949044053
 30
0.0
 10
186.1921540949353
 20
15.12204225913005
 30
0.0
 10
186.3328419928294
 20
15.08868778853421
 30
0.0
 10
186.2980927452615
 20
15.22651875785069
 30
0.0
 10
186.3222185666712
 20
15.34963257349482
 30
0.0
 10
186.2967086182392
 20
15.47024055670336
 30
0.0
 10
186.3333251146685
 20
15.60539865141496
 30
0.0
 10
186.2211417027769
 20
15.58094545781892
 30
0.0
 10
186.1280356457136
 20
15.59307749842024
 30
0.0
 10
186.0191547579819
 20
15.58957630069994
 30
0.0
 10
185.9569697640964
 20
15.58981755951604
 30
0.0
 10
185.9375369557246
 20
15.58989295124145
 30
0.0
 11
187.1521871691833
 21
14.93980288195951
 31
0.0
 11
187.0923621563982
 21
14.93980288195951
 31
0.0
 11
186.9497025105259
 21
14.93980288195951
 31
0.0
 11
186.7794313202913
 21
14.93980288195951
 31
0.0
 11
186.636771674419
 21
14.93980288195951
 31
0.0
 11
186.5769466616339
 21
14.93980288195951
 31
0.0
 11
186.7679960754842
 21
14.63705127966892
 31
0.0
 11
186.9941272785629
 21
14.36051890576685
 31
0.0
 11
187.2244526173371
 21
14.15061253493458
 31
0.0
 11
187.1521596330703
 21
14.08466403668718
 31
0.0
 11
187.0879364402643
 21
14.00876059052561
 31
0.0
 11
186.7732818215558
 21
14.35891458349364
 31
0.0
 11
186.4886640249976
 21
14.81138295143602
 31
0.0
 11
186.4886640249976
 21
14.73370259137314
 31
0.0
 11
186.4886640249976
 21
14.53950169121594
 31
0.0
 11
186.4886640249976
 21
14.28704052101157
 31
0.0
 11
186.4886640249976
 21
14.03457935080721
 31
0.0
 11
186.4886640249976
 21
13.84037845065001
 31
0.0
 11
186.4886640249976
 21
13.76269809058713
 31
0.0
 11
186.4428901295605
 21
13.76269809058713
 31
0.0
 11
186.3578814666058
 21
13.76269809058713
 31
0.0
 11
186.3121075711687
 21
13.76269809058713
 31
0.0
 11
186.3121075711687
 21
13.83859234982741
 31
0.0
 11
186.3121075711687
 21
14.02832799792812
 31
0.0
 11
186.3121075711687
 21
14.27498434045905
 31
0.0
 11
186.3121075711687
 21
14.52164068298997
 31
0.0
 11
186.3121075711687
 21
14.71137633109068
 31
0.0
 11
186.3121075711687
 21
14.78727059033096
 31
0.0
 11
185.9987626399266
 21
14.31440946197694
 31
0.0
 11
185.6352328662148
 21
13.95795177109383
 31
0.0
 11
185.5773927461627
 21
14.03253450545023
 31
0.0
 11
185.509485230534
 21
14.09704322939243
 31
0.0
 11
185.7750721898319
 21
14.3167221979589
 31
0.0
 11
186.0233764972061
 21
14.60953395971698
 31
0.0
 11
186.226498280526
 21
14.93980288195951
 31
0.0
 11
186.1627851652721
 21
14.93980288195951
 31
0.0
 11
186.0108538904359
 21
14.93980288195951
 31
0.0
 11
185.8295165624055
 21
14.93980288195951
 31
0.0
 11
185.6775852875693
 21
14.93980288195951
 31
0.0
 11
185.6138721723154
 21
14.93980288195951
 31
0.0
 11
185.6138721723154
 21
14.98350061600209
 31
0.0
 11
185.6138721723154
 21
15.0646535506526
 31
0.0
 11
185.6138721723154
 21
15.10835128469518
 31
0.0
 11
185.6864886537961
 21
15.10835128469518
 31
0.0
 11
185.8596510327118
 21
15.10835128469518
 31
0.0
 11
186.0663287107723
 21
15.10835128469518
 31
0.0
 11
186.239491089688
 21
15.10835128469518
 31
0.0
 11
186.3121075711687
 21
15.10835128469518
 31
0.0
 11
186.3121075711687
 21
15.18359217009304
 31
0.0
 11
186.3121075711687
 21
15.34912211796832
 31
0.0
 11
186.3121075711687
 21
15.5146520658436
 31
0.0
 11
186.3121075711687
 21
15.58989295124145
 31
0.0
 11
186.2535809125055
 21
15.58989295124145
 31
0.0
 11
186.1248222634467
 21
15.58989295124145
 31
0.0
 11
185.9960636143877
 21
15.58989295124145
 31
0.0
 11
185.9375369557246
 21
15.58989295124145
 31
0.0
  0
SPLINE
  5
AB
102
{ACAD_REACTORS
330
C8
102
}
330
48
100
AcDbEntity
  8
_U_30EC_U_30A4_U_30E4_U_30FC_1
  6
Continuous
 62
     2
100
AcDbSpline
210
0.0
220
0.0
230
1.0
 70
    11
 71
     3
 72
   124
 73
   120
 74
   118
 42
0.000000001
 43
0.0000000001
 44
0.00000001
 40
0.0
 40
0.0
 40
0.0
 40
0.0
 40
0.027818722962451
 40
0.1011590162384269
 40
0.2048470170590239
 40
0.3237088716559245
 40
0.4425707262522
 40
0.5462587270699547
 40
0.6195990203311798
 40
0.647417752257866
 40
0.6750060736115242
 40
0.7357003855242794
 40
0.7963946998054581
 40
0.8239830245571873
 40
0.8540933811102966
 40
0.9373396629409647
 40
1.063094687343246
 40
1.220731268638084
 40
1.399622220914758
 40
1.589140358637743
 40
1.778658496423909
 40
1.957549448940519
 40
2.115186030873169
 40
2.240941056914473
 40
2.324187341760543
 40
2.354297700109393
 40
2.381886024671901
 40
2.442580338710493
 40
2.503274652750519
 40
2.530862977314627
 40
2.56098394927858
 40
2.640393784452926
 40
2.752662861759149
 40
2.881361560118166
 40
3.010060258455213
 40
3.12232933570536
 40
3.201739170817974
 40
3.231860142753335
 40
3.264298024030391
 40
3.352343701778259
 40
3.482095226868782
 40
3.639650650173039
 40
3.811108022565494
 40
3.982565394928
 40
4.140120818152579
 40
4.269872343141288
 40
4.357918020802349
 40
4.390355902043976
 40
4.423256253992546
 40
4.508104530073067
 40
4.624121560636834
 40
4.750528176031591
 40
4.866545206602038
 40
4.951393482691995
 40
4.984293834645396
 40
5.011450833242315
 40
5.071196230152103
 40
5.130941627057182
 40
5.15809862564885
 40
5.190998977601541
 40
5.275847253689366
 40
5.3918642842568
 40
5.518270899648345
 40
5.634287930209385
 40
5.719136206288058
 40
5.752036558235946
 40
5.782130946282972
 40
5.862783906229143
 40
5.979550131775015
 40
6.11798431664042
 40
6.263641154587964
 40
6.402075339414171
 40
6.518841564907963
 40
6.599494524815548
 40
6.629588912848786
 40
6.654403028226362
 40
6.713575149488129
 40
6.784199939329446
 40
6.843372060493548
 40
6.868186175802794
 40
6.896246243201881
 40
6.939586233758277
 40
6.967846564564905
 40
7.043584251089843
 40
7.1532343344517
 40
7.283231855734449
 40
7.42001185603548
 40
7.550009376579828
 40
7.659659458835229
 40
7.735397144417222
 40
7.763657474851392
 40
7.796409728011049
 40
7.880876065096324
 40
7.996370852465709
 40
8.122208446418604
 40
8.237703224799198
 40
8.322169562010892
 40
8.354921815205905
 40
8.382078813307688
 40
8.441824209206997
 40
8.501569605240151
 40
8.528726603485731
 40
8.56147885669578
 40
8.64594519387783
 40
8.761439980865342
 40
8.887277580764485
 40
9.002772362001005
 40
9.087238696661226
 40
9.11999094923568
 40
9.15242883061338
 40
9.240474508638593
 40
9.370226034149542
 40
9.527781457984425
 40
9.699238830981411
 40
9.870696203978598
 40
10.02825162781402
 40
10.15800315332564
 40
10.24604883135118
 40
10.27848670378521
 40
10.27848670378521
 40
10.27848670378521
 40
10.27848670378521
 10
195.3821827564383
 20
14.01410517385759
 30
0.0
 10
195.3914554737523
 20
14.01410498511276
 30
0.0
 10
195.4251744536861
 20
14.01410430876716
 30
0.0
 10
195.4934706812465
 20
14.01411807243307
 30
0.0
 10
195.592014171158
 20
14.01403224219547
 30
0.0
 10
195.7062066464812
 20
14.01441755612253
 30
0.0
 10
195.818589441707
 20
14.01300835897547
 30
0.0
 10
195.9214376600118
 20
14.01719117422245
 30
0.0
 10
195.9806839874849
 20
14.00823089251985
 30
0.0
 10
196.0371265937032
 20
14.02164434526063
 30
0.0
 10
196.0246255586955
 20
13.97087198613363
 30
0.0
 10
196.0329549635703
 20
13.92589320939069
 30
0.0
 10
196.024817084112
 20
13.88056752990489
 30
0.0
 10
196.0370529214456
 20
13.82931932408467
 30
0.0
 10
195.9747773490334
 20
13.84447955365277
 30
0.0
 10
195.9060513026867
 20
13.83359750710744
 30
0.0
 10
195.7782756749592
 20
13.83911304747973
 30
0.0
 10
195.6262984511643
 20
13.83700851253699
 30
0.0
 10
195.4502695972523
 20
13.83771002588474
 30
0.0
 10
195.2644431934287
 20
13.83745237531293
 30
0.0
 10
195.0786167437175
 20
13.83771005144604
 30
0.0
 10
194.9025880142168
 20
13.83700841847731
 30
0.0
 10
194.7506104154195
 20
13.8391133222999
 30
0.0
 10
194.6228357664554
 20
13.83359680767641
 30
0.0
 10
194.5541077836581
 20
13.84448077125944
 30
0.0
 10
194.4918349042883
 20
13.8293178668421
 30
0.0
 10
194.5040616290017
 20
13.88057510805173
 30
0.0
 10
194.4960004462596
 20
13.92582473272427
 30
0.0
 10
194.5040675809893
 20
13.97106357955325
 30
0.0
 10
194.4918238487083
 20
14.0223417690996
 30
0.0
 10
194.5525017120697
 20
14.00749577363136
 30
0.0
 10
194.6162810745736
 20
14.01756448170737
 30
0.0
 10
194.7277314353502
 20
14.01294644212001
 30
0.0
 10
194.8497533443824
 20
14.01413328905471
 30
0.0
 10
194.9719538137823
 20
14.01515863900637
 30
0.0
 10
195.0829794287392
 20
14.01092475623403
 30
0.0
 10
195.1476517413958
 20
14.02018584521741
 30
0.0
 10
195.2091162810501
 20
14.00604423049684
 30
0.0
 10
195.1930065601337
 20
14.07235527884519
 30
0.0
 10
195.2042980327358
 20
14.14447790121977
 30
0.0
 10
195.1987400822561
 20
14.27513760888288
 30
0.0
 10
195.200803506169
 20
14.42607323708242
 30
0.0
 10
195.2000167127295
 20
14.59335873107887
 30
0.0
 10
195.2007845215628
 20
14.76061110332304
 30
0.0
 10
195.1988038785628
 20
14.91163289269915
 30
0.0
 10
195.204130615662
 20
15.04206069552995
 30
0.0
 10
195.1933101388425
 20
15.114654426059
 30
0.0
 10
195.2090326429875
 20
15.18150469436799
 30
0.0
 10
195.143270813249
 20
15.16580512490825
 30
0.0
 10
195.0756367830763
 20
15.17609243083996
 30
0.0
 10
194.9615885293809
 20
15.17113786847123
 30
0.0
 10
194.8451242674902
 20
15.17414128030475
 30
0.0
 10
194.7306554121477
 20
15.16880303143389
 30
0.0
 10
194.6640324657812
 20
15.18001268074825
 30
0.0
 10
194.5990769715186
 20
15.16349132665012
 30
0.0
 10
194.6107989758707
 20
15.2147372047706
 30
0.0
 10
194.6032830189122
 20
15.25950333784092
 30
0.0
 10
194.6107989878835
 20
15.30426944897963
 30
0.0
 10
194.5990769505347
 20
15.35551536129743
 30
0.0
 10
194.6640326339199
 20
15.33899381766817
 30
0.0
 10
194.7306533339822
 20
15.35020571373946
 30
0.0
 10
194.8451352858063
 20
15.34485436710666
 30
0.0
 10
194.9615454436962
 20
15.3479118877112
 30
0.0
 10
195.0757660174641
 20
15.34278499010709
 30
0.0
 10
195.1430150439227
 20
15.35345733355601
 30
0.0
 10
195.2083325941438
 20
15.33742082669079
 30
0.0
 10
195.1941391448552
 20
15.39949685750056
 30
0.0
 10
195.2036059462995
 20
15.46586761628764
 30
0.0
 10
195.1990269004085
 20
15.58239972741968
 30
0.0
 10
195.2007696555948
 20
15.71426685022378
 30
0.0
 10
195.1997551495392
 20
15.85615960150275
 30
0.0
 10
195.2017191344372
 20
15.98769050702581
 30
0.0
 10
195.1964668553852
 20
16.10524577283005
 30
0.0
 10
195.2073408763474
 20
16.16947789001586
 30
0.0
 10
195.1919536641853
 20
16.23108802545049
 30
0.0
 10
195.24075915378
 20
16.21702407382113
 30
0.0
 10
195.2853995564726
 20
16.21954742075316
 30
0.0
 10
195.3538643946742
 20
16.21512797401712
 30
0.0
 10
195.3959106169102
 20
16.20613025544036
 30
0.0
 10
195.4487544758775
 20
16.21411714866512
 30
0.0
 10
195.4207035002014
 20
16.17113917611675
 30
0.0
 10
195.3749142248594
 20
16.18259552043838
 30
0.0
 10
195.3869539073265
 20
16.12173520005138
 30
0.0
 10
195.3796086070641
 20
16.05769299468774
 30
0.0
 10
195.3831195826161
 20
15.94909368863912
 30
0.0
 10
195.3819806760173
 20
15.82494319144755
 30
0.0
 10
195.3819174780263
 20
15.69189719829879
 30
0.0
 10
195.3832872966867
 20
15.56797381249557
 30
0.0
 10
195.3791638801313
 20
15.4586833784934
 30
0.0
 10
195.3877763103564
 20
15.39608580094172
 30
0.0
 10
195.3746757454402
 20
15.33740133296367
 30
0.0
 10
195.4393884328198
 20
15.35362113810904
 30
0.0
 10
195.5060405953156
 20
15.34270260383313
 30
0.0
 10
195.6198779541102
 20
15.34793740173757
 30
0.0
 10
195.7357259122097
 20
15.34485547516916
 30
0.0
 10
195.849692426328
 20
15.35018259812513
 30
0.0
 10
195.9160341018099
 20
15.33904208166545
 30
0.0
 10
195.980718852548
 20
15.3554697959318
 30
0.0
 10
195.9689820772722
 20
15.30425925210052
 30
0.0
 10
195.976516806304
 20
15.25950334121002
 30
0.0
 10
195.9689820992258
 20
15.21474739010028
 30
0.0
 10
195.9807188140736
 20
15.16353690871041
 30
0.0
 10
195.9160344075252
 20
15.1799642779422
 30
0.0
 10
195.8496886430824
 20
15.1688278444727
 30
0.0
 10
195.7357459487012
 20
15.17413115893121
 30
0.0
 10
195.6197995623054
 20
15.17114764593544
 30
0.0
 10
195.5062756882122
 20
15.17606892268395
 30
0.0
 10
195.4389231318804
 20
15.1658508751352
 30
0.0
 10
195.3734285122495
 20
15.18145996138817
 30
0.0
 10
195.3891713619218
 20
15.11463851827412
 30
0.0
 10
195.3783275998213
 20
15.0420705781588
 30
0.0
 10
195.3836581629792
 20
14.91162247614417
 30
0.0
 10
195.3817136151855
 20
14.76064558185227
 30
0.0
 10
195.3823133683214
 20
14.5932224393416
 30
0.0
 10
195.3821506559604
 20
14.42656176118373
 30
0.0
 10
195.3821895488136
 20
14.27360142921638
 30
0.0
 10
195.38218164131
 20
14.14849178985707
 30
0.0
 10
195.3821828382744
 20
14.06507890991422
 30
0.0
 10
195.3821827716208
 20
14.02491778281978
 30
0.0
 10
195.3821827564383
 20
14.01410517385759
 30
0.0
 11
195.3821827564383
 21
14.01410517385759
 31
0.0
 11
195.4100014883675
 21
14.01410517385759
 31
0.0
 11
195.4833417816353
 21
14.01410517385759
 31
0.0
 11
195.5870297824622
 21
14.01410517385759
 31
0.0
 11
195.7058916370687
 21
14.01410517385759
 31
0.0
 11
195.8247534916751
 21
14.01410517385759
 31
0.0
 11
195.928441492502
 21
14.01410517385759
 31
0.0
 11
196.0017817857698
 21
14.01410517385759
 31
0.0
 11
196.029600517699
 21
14.01410517385759
 31
0.0
 11
196.029600517699
 21
13.98651684921171
 31
0.0
 11
196.029600517699
 21
13.92582253499079
 31
0.0
 11
196.029600517699
 21
13.86512822076985
 31
0.0
 11
196.029600517699
 21
13.83753989612398
 31
0.0
 11
195.9994901593494
 21
13.83753989612398
 31
0.0
 11
195.9162438745004
 21
13.83753989612398
 31
0.0
 11
195.7904888484521
 21
13.83753989612398
 31
0.0
 11
195.6328522665041
 21
13.83753989612398
 31
0.0
 11
195.4539613139564
 21
13.83753989612398
 31
0.0
 11
195.2644431761089
 21
13.83753989612398
 31
0.0
 11
195.0749250382613
 21
13.83753989612398
 31
0.0
 11
194.8960340857136
 21
13.83753989612398
 31
0.0
 11
194.7383975037656
 21
13.83753989612398
 31
0.0
 11
194.6126424777172
 21
13.83753989612398
 31
0.0
 11
194.5293961928683
 21
13.83753989612398
 31
0.0
 11
194.4992858345187
 21
13.83753989612398
 31
0.0
 11
194.4992858345187
 21
13.86512822076986
 31
0.0
 11
194.4992858345187
 21
13.92582253499079
 31
0.0
 11
194.4992858345187
 21
13.98651684921171
 31
0.0
 11
194.4992858345187
 21
14.01410517385759
 31
0.0
 11
194.5294068064947
 21
14.01410517385759
 31
0.0
 11
194.608816641704
 21
14.01410517385759
 31
0.0
 11
194.721085719069
 21
14.01410517385759
 31
0.0
 11
194.8497844175118
 21
14.01410517385759
 31
0.0
 11
194.9784831159545
 21
14.01410517385759
 31
0.0
 11
195.0907521933195
 21
14.01410517385759
 31
0.0
 11
195.1701620285289
 21
14.01410517385759
 31
0.0
 11
195.2002830005048
 21
14.01410517385759
 31
0.0
 11
195.2002830005048
 21
14.04654305523837
 31
0.0
 11
195.2002830005048
 21
14.13458873327192
 31
0.0
 11
195.2002830005048
 21
14.26434025879504
 31
0.0
 11
195.2002830005048
 21
14.42189568264455
 31
0.0
 11
195.2002830005048
 21
14.59335305565725
 31
0.0
 11
195.2002830005048
 21
14.76481042866995
 31
0.0
 11
195.2002830005048
 21
14.92236585251946
 31
0.0
 11
195.2002830005048
 21
15.05211737804258
 31
0.0
 11
195.2002830005048
 21
15.14016305607613
 31
0.0
 11
195.2002830005048
 21
15.17260093745691
 31
0.0
 11
195.1673826485529
 21
15.17260093745691
 31
0.0
 11
195.0825343724662
 21
15.17260093745691
 31
0.0
 11
194.9665173418988
 21
15.17260093745691
 31
0.0
 11
194.8401107265044
 21
15.17260093745691
 31
0.0
 11
194.724093695937
 21
15.17260093745691
 31
0.0
 11
194.6392454198503
 21
15.17260093745691
 31
0.0
 11
194.6063450678984
 21
15.17260093745691
 31
0.0
 11
194.6063450678984
 21
15.19975793614804
 31
0.0
 11
194.6063450678984
 21
15.25950333326852
 31
0.0
 11
194.6063450678984
 21
15.31924873038899
 31
0.0
 11
194.6063450678984
 21
15.34640572908012
 31
0.0
 11
194.6392454198504
 21
15.34640572908012
 31
0.0
 11
194.724093695937
 21
15.34640572908012
 31
0.0
 11
194.8401107265044
 21
15.34640572908012
 31
0.0
 11
194.9665173418988
 21
15.34640572908012
 31
0.0
 11
195.0825343724662
 21
15.34640572908012
 31
0.0
 11
195.1673826485529
 21
15.34640572908012
 31
0.0
 11
195.2002830005048
 21
15.34640572908012
 31
0.0
 11
195.2002830005048
 21
15.37650011731372
 31
0.0
 11
195.2002830005048
 21
15.45715307777975
 31
0.0
 11
195.2002830005048
 21
15.57391930412611
 31
0.0
 11
195.2002830005048
 21
15.71235349000065
 31
0.0
 11
195.2002830005048
 21
15.85801032905126
 31
0.0
 11
195.2002830005048
 21
15.9964445149258
 31
0.0
 11
195.2002830005048
 21
16.11321074127216
 31
0.0
 11
195.2002830005048
 21
16.1938637017382
 31
0.0
 11
195.2002830005048
 21
16.22395808997179
 31
0.0
 11
195.2250405288618
 21
16.22228324219444
 31
0.0
 11
195.2840777118669
 21
16.21828937441767
 31
0.0
 11
195.3545414464214
 21
16.21352249997443
 31
0.0
 11
195.4135786294265
 21
16.20952863219766
 31
0.0
 11
195.4383361577835
 21
16.20785378442031
 31
0.0
 11
195.423306722403
 21
16.18415814206511
 31
0.0
 11
195.3821827564383
 21
16.17047697887405
 31
0.0
 11
195.3821827564383
 21
16.14221664794833
 31
0.0
 11
195.3821827564383
 21
16.06647896106741
 31
0.0
 11
195.3821827564383
 21
15.95682887707562
 31
0.0
 11
195.3821827564383
 21
15.82683135481732
 31
0.0
 11
195.3821827564383
 21
15.69005135313685
 31
0.0
 11
195.3821827564383
 21
15.56005383087855
 31
0.0
 11
195.3821827564383
 21
15.45040374688676
 31
0.0
 11
195.3821827564383
 21
15.37466606000584
 31
0.0
 11
195.3821827564383
 21
15.34640572908012
 31
0.0
 11
195.4149350096115
 21
15.34640572908012
 31
0.0
 11
195.4994013467422
 21
15.34640572908012
 31
0.0
 11
195.6148961342476
 21
15.34640572908012
 31
0.0
 11
195.7407337385445
 21
15.34640572908012
 31
0.0
 11
195.8562285260498
 21
15.34640572908012
 31
0.0
 11
195.9406948631806
 21
15.34640572908012
 31
0.0
 11
195.9734471163538
 21
15.34640572908012
 31
0.0
 11
195.9734471163538
 21
15.31924873038899
 31
0.0
 11
195.9734471163538
 21
15.25950333326852
 31
0.0
 11
195.9734471163538
 21
15.19975793614804
 31
0.0
 11
195.9734471163538
 21
15.17260093745691
 31
0.0
 11
195.9406948631806
 21
15.17260093745691
 31
0.0
 11
195.8562285260498
 21
15.17260093745691
 31
0.0
 11
195.7407337385445
 21
15.17260093745691
 31
0.0
 11
195.6148961342476
 21
15.17260093745691
 31
0.0
 11
195.4994013467422
 21
15.17260093745691
 31
0.0
 11
195.4149350096114
 21
15.17260093745691
 31
0.0
 11
195.3821827564383
 21
15.17260093745691
 31
0.0
 11
195.3821827564383
 21
15.14016305607613
 31
0.0
 11
195.3821827564383
 21
15.05211737804258
 31
0.0
 11
195.3821827564383
 21
14.92236585251946
 31
0.0
 11
195.3821827564383
 21
14.76481042866995
 31
0.0
 11
195.3821827564383
 21
14.59335305565725
 31
0.0
 11
195.3821827564383
 21
14.42189568264455
 31
0.0
 11
195.3821827564383
 21
14.26434025879504
 31
0.0
 11
195.3821827564383
 21
14.13458873327192
 31
0.0
 11
195.3821827564383
 21
14.04654305523837
 31
0.0
 11
195.3821827564383
 21
14.01410517385759
 31
0.0
  0
SPLINE
  5
AC
102
{ACAD_REACTORS
330
C9
102
}
330
48
100
AcDbEntity
  8
_U_30EC_U_30A4_U_30E4_U_30FC_1
  6
Continuous
 62
     2
100
AcDbSpline
210
0.0
220
0.0
230
1.0
 70
    11
 71
     3
 72
   131
 73
   127
 74
   125
 42
0.000000001
 43
0.0000000001
 44
0.00000001
 40
0.0
 40
0.0
 40
0.0
 40
0.0
 40
0.0195577029826316
 40
0.0426490537462124
 40
0.2863607575856982
 40
0.5344948436189513
 40
0.7842238845573353
 40
0.8737315789467568
 40
0.9803832810312852
 40
1.092842274517034
 40
1.199761146656769
 40
1.289788768186498
 40
1.351573580786213
 40
1.370727117561454
 40
1.416400936017865
 40
1.47091484835602
 40
1.51658866679181
 40
1.535742203552906
 40
1.63421659229321
 40
1.760283341175023
 40
1.897966686682084
 40
2.031216387368908
 40
2.049689751137902
 40
2.101115601646836
 40
2.179502577739955
 40
2.27885931831407
 40
2.393194462258727
 40
2.516516648383841
 40
2.642834515405968
 40
2.766156701983471
 40
2.880491846754586
 40
2.979848588358627
 40
3.058235565443804
 40
3.109661416668958
 40
3.128134780704134
 40
3.146783742386451
 40
3.191254343315312
 40
3.24433215731597
 40
3.288802758225874
 40
3.307451719895117
 40
3.327717853844729
 40
3.383747753580089
 40
3.46838866592448
 40
3.574487837698787
 40
3.694892515728892
 40
3.822449946852029
 40
3.95000737792042
 40
4.07041205580051
 40
4.176511227368064
 40
4.261152139501512
 40
4.317182039076704
 40
4.337448172964624
 40
4.620011002696234
 40
4.885096638397503
 40
4.945373043518334
 40
5.014107710488658
 40
5.070481727652019
 40
5.319246955636543
 40
5.584812164506014
 40
5.859000912056866
 40
6.133746937542049
 40
6.401732212968851
 40
6.420736683995442
 40
6.472845717451093
 40
6.55070274389402
 40
6.646951193874229
 40
6.754234497930553
 40
6.865196086587331
 40
6.97247939035779
 40
7.068727839771952
 40
7.14658486545096
 40
7.19869389818919
 40
7.217698368905331
 40
7.234950401630807
 40
7.276089864269854
 40
7.325191803515962
 40
7.366331266090348
 40
7.383583298769699
 40
7.402779163492077
 40
7.453386443254508
 40
7.524934666445509
 40
7.606953361405849
 40
7.688972056429001
 40
7.760520279784251
 40
7.811127559734493
 40
7.830323424546115
 40
7.847844055299745
 40
7.894799345666786
 40
7.962779392744474
 40
8.043374293560522
 40
8.12817414514943
 40
8.208769044817231
 40
8.276749090376931
 40
8.323704379669497
 40
8.341225010056228
 40
8.358497614800376
 40
8.401679126686581
 40
8.457815092185639
 40
8.513951057728043
 40
8.557132569708
 40
8.574405174505042
 40
8.602340668616408
 40
8.643455660539948
 40
8.663225271966615
 40
8.71534515656426
 40
8.789031889628598
 40
8.873502045520327
 40
8.957972194323952
 40
9.031658925567845
 40
9.083778811234533
 40
9.103548423002996
 40
9.119550083123533
 40
9.160817522379835
 40
9.2172444291102
 40
9.278724491644686
 40
9.335151398295471
 40
9.376418837357766
 40
9.392420497300554
 40
9.401196302734773
 40
9.417494229384248
 40
9.42627002774952
 40
9.440875075477553
 40
9.475702496998732
 40
9.517270709865896
 40
9.552098131994065
 40
9.566703169884272
 40
9.566703169884272
 40
9.566703169884272
 40
9.566703169884272
 10
194.6170254148479
 20
15.67015871511028
 30
0.0
 10
194.6134345093371
 20
15.6645369070216
 30
0.0
 10
194.6056039123624
 20
15.65227754419112
 30
0.0
 10
194.5129968974546
 20
15.61601916040983
 30
0.0
 10
194.4887622233247
 20
15.40148444212711
 30
0.0
 10
194.3858709845938
 20
15.22197284509709
 30
0.0
 10
194.1220492364306
 20
15.03615573798148
 30
0.0
 10
194.284547156918
 20
14.95959336566083
 30
0.0
 10
194.3607225760838
 20
14.89856693195442
 30
0.0
 10
194.4492171072758
 20
14.83515804544762
 30
0.0
 10
194.538993023311
 20
14.77525634219559
 30
0.0
 10
194.5883817636046
 20
14.72102154849209
 30
0.0
 10
194.6745708157381
 20
14.69286240541833
 30
0.0
 10
194.6411260674229
 20
14.65713309652814
 30
0.0
 10
194.621467116631
 20
14.62550387991906
 30
0.0
 10
194.5919888217881
 20
14.58475872796073
 30
0.0
 10
194.5688989446031
 20
14.55504663489644
 30
0.0
 10
194.5380205968355
 20
14.50211422668499
 30
0.0
 10
194.4729193365741
 20
14.62740334938903
 30
0.0
 10
194.3796000122415
 20
14.68213900233936
 30
0.0
 10
194.2950636285139
 20
14.73916423939344
 30
0.0
 10
194.1722498125741
 20
14.89675287427523
 30
0.0
 10
194.1764450847301
 20
14.82035806766837
 30
0.0
 10
194.1751478652677
 20
14.77361280161296
 30
0.0
 10
194.1758126448076
 20
14.69584785812602
 30
0.0
 10
194.1755549986956
 20
14.59902068324424
 30
0.0
 10
194.1756431239921
 20
14.4865027907881
 30
0.0
 10
194.1756077302282
 20
14.36524085945701
 30
0.0
 10
194.1756511758278
 20
14.24086897858962
 30
0.0
 10
194.1755199942405
 20
14.11967683631337
 30
0.0
 10
194.1759477562047
 20
14.00691148919744
 30
0.0
 10
194.174667820231
 20
13.91082913768745
 30
0.0
 10
194.1779759851044
 20
13.83113826468701
 30
0.0
 10
194.1715197740086
 20
13.78815175788785
 30
0.0
 10
194.1806208705556
 20
13.74955432372044
 30
0.0
 10
194.1447910339935
 20
13.75810887724072
 30
0.0
 10
194.1115223815252
 20
13.75342519985448
 30
0.0
 10
194.0604562576041
 20
13.75351298759785
 30
0.0
 10
194.0269723972812
 20
13.75794430283822
 30
0.0
 10
193.9907585408754
 20
13.74960793842511
 30
0.0
 10
194.0009782568666
 20
13.79145277179286
 30
0.0
 10
193.9936487887773
 20
13.83778560820175
 30
0.0
 10
193.9973633136103
 20
13.92374831106015
 30
0.0
 10
193.9959480554896
 20
14.0260514270485
 30
0.0
 10
193.9964105554638
 20
14.14453223931513
 30
0.0
 10
193.9962773686231
 20
14.26957683153357
 30
0.0
 10
193.9963015910045
 20
14.39475828107051
 30
0.0
 10
193.9963354925551
 20
14.51286645379059
 30
0.0
 10
193.9962060293132
 20
14.61628748709517
 30
0.0
 10
193.9965507549081
 20
14.69932036153667
 30
0.0
 10
193.995869827869
 20
14.75143368521244
 30
0.0
 10
193.9994586600623
 20
14.87912907821361
 30
0.0
 10
193.7826171386437
 20
14.58048716819621
 30
0.0
 10
193.6021354921951
 20
14.35263981511518
 30
0.0
 10
193.5490322295611
 20
14.49373443289815
 30
0.0
 10
193.5200429133148
 20
14.54325767560942
 30
0.0
 10
193.419664806282
 20
14.64641779790112
 30
0.0
 10
193.7405127723261
 20
14.72695035023778
 30
0.0
 10
193.8689897005429
 20
14.91066283036436
 30
0.0
 10
194.0906454325359
 20
15.11931995771763
 30
0.0
 10
194.1770224894068
 20
15.29339211228345
 30
0.0
 10
194.4549394229074
 20
15.56967051342512
 30
0.0
 10
194.3346247839284
 20
15.56534559551115
 30
0.0
 10
194.2863197351348
 20
15.56614856202553
 30
0.0
 10
194.2102377454905
 20
15.56574582146585
 30
0.0
 10
194.116701000975
 20
15.56590275611611
 30
0.0
 10
194.0117594788557
 20
15.56582502576224
 30
0.0
 10
193.9033887738717
 20
15.56595464378556
 30
0.0
 10
193.7981454235897
 20
15.56554393490692
 30
0.0
 10
193.7056237819412
 20
15.56682073671592
 30
0.0
 10
193.6268130800707
 20
15.5634076653485
 30
0.0
 10
193.5839674565379
 20
15.57023350036322
 30
0.0
 10
193.5449499586516
 20
15.56065064201124
 30
0.0
 10
193.5526365271863
 20
15.59420779565544
 30
0.0
 10
193.5485464404312
 20
15.62523550322234
 30
0.0
 10
193.5485531368814
 20
15.67236529270901
 30
0.0
 10
193.5526239724911
 20
15.70340941646779
 30
0.0
 10
193.5449495574583
 20
15.73701861635902
 30
0.0
 10
193.5834819405494
 20
15.72748410420873
 30
0.0
 10
193.624122801448
 20
15.73397435498072
 30
0.0
 10
193.6951471850463
 20
15.73100150650255
 30
0.0
 10
193.7729318149633
 20
15.73174761399158
 30
0.0
 10
193.8507292246474
 20
15.73247814044526
 30
0.0
 10
193.9217232089907
 20
15.72954235514161
 30
0.0
 10
193.962427979182
 20
15.73595468772953
 30
0.0
 10
194.000985348991
 20
15.72650524176005
 30
0.0
 10
193.9927342754927
 20
15.76264692158785
 30
0.0
 10
193.9982346669359
 20
15.80129837613228
 30
0.0
 10
193.9955754206163
 20
15.8691352856184
 30
0.0
 10
193.9965815471533
 20
15.94591641538741
 30
0.0
 10
193.9960178018319
 20
16.02849393582758
 30
0.0
 10
193.9970714526593
 20
16.10517329229879
 30
0.0
 10
193.994267586313
 20
16.17331990776701
 30
0.0
 10
194.0000702721304
 20
16.21132399809348
 30
0.0
 10
193.9915654551158
 20
16.24758448077647
 30
0.0
 10
194.0255610233125
 20
16.23755723771854
 30
0.0
 10
194.0594575683099
 20
16.24073266813707
 30
0.0
 10
194.1126669060346
 20
16.2350896564061
 30
0.0
 10
194.1660768574483
 20
16.23434774436426
 30
0.0
 10
194.1995914649491
 20
16.22819223482981
 30
0.0
 10
194.2388086183039
 20
16.23346029773594
 30
0.0
 10
194.2120263698492
 20
16.1925338079349
 30
0.0
 10
194.1708111001723
 20
16.20371204538112
 30
0.0
 10
194.1782641540874
 20
16.15867056192125
 30
0.0
 10
194.1742227952184
 20
16.11412278028145
 30
0.0
 10
194.1761714049641
 20
16.04223572621704
 30
0.0
 10
194.1752364849758
 20
15.96168630588772
 30
0.0
 10
194.1765107190031
 20
15.88173995404996
 30
0.0
 10
194.1732043793862
 20
15.80841837083183
 30
0.0
 10
194.1802106179962
 20
15.76688643002569
 30
0.0
 10
194.1701440380125
 20
15.72752418568114
 30
0.0
 10
194.2029814803921
 20
15.73468063430982
 30
0.0
 10
194.236457729648
 20
15.73027243137945
 30
0.0
 10
194.2915053476019
 20
15.73217943347898
 30
0.0
 10
194.3489502595314
 20
15.73185366407289
 30
0.0
 10
194.4023026248309
 20
15.73106308733083
 30
0.0
 10
194.4398540896638
 20
15.73313959118074
 30
0.0
 10
194.4623172523237
 20
15.7302233816711
 30
0.0
 10
194.4751678073731
 20
15.73572552644057
 30
0.0
 10
194.4858255685888
 20
15.73801118197791
 30
0.0
 10
194.4986635650143
 20
15.74494972588054
 30
0.0
 10
194.5145991033071
 20
15.72853046313673
 30
0.0
 10
194.5410623920891
 20
15.71709122319449
 30
0.0
 10
194.5726805253757
 20
15.69644687835191
 30
0.0
 10
194.5987255892151
 20
15.68116869628295
 30
0.0
 10
194.6128517723973
 20
15.67266976323184
 30
0.0
 10
194.6170254148479
 20
15.67015871511028
 30
0.0
 11
194.6170254148479
 21
15.67015871511028
 31
0.0
 11
194.6049990002243
 21
15.65473571164189
 31
0.0
 11
194.5848961795564
 21
15.64337406233918
 31
0.0
 11
194.4778986355813
 21
15.4244062023116
 31
0.0
 11
194.3477039934324
 21
15.21317201512162
 31
0.0
 11
194.1996540366071
 21
15.01206059027481
 31
0.0
 11
194.2734958253735
 21
14.9614738493538
 31
0.0
 11
194.36056643118
 21
14.8998841165374
 31
0.0
 11
194.4518003750404
 21
14.83413160594426
 31
0.0
 11
194.5381321779687
 21
14.77105653169305
 31
0.0
 11
194.6104963609787
 21
14.71749910790242
 31
0.0
 11
194.6598274450843
 21
14.68029954869105
 31
0.0
 11
194.6486940702213
 21
14.66471410869495
 31
0.0
 11
194.6221452532403
 21
14.62754882870425
 31
0.0
 11
194.5904579555532
 21
14.58319026871535
 31
0.0
 11
194.5639091385722
 21
14.54602498872464
 31
0.0
 11
194.5527757637092
 21
14.53043954872854
 31
0.0
 11
194.4807013362947
 21
14.59754008690619
 31
0.0
 11
194.385285698538
 21
14.6799335417467
 31
0.0
 11
194.279326415217
 21
14.76785017366917
 31
0.0
 11
194.175621051109
 21
14.85152024309268
 31
0.0
 11
194.175621051109
 21
14.83304687900864
 31
0.0
 11
194.175621051109
 21
14.78162102763956
 31
0.0
 11
194.175621051109
 21
14.70323405031
 31
0.0
 11
194.175621051109
 21
14.6038773083445
 31
0.0
 11
194.175621051109
 21
14.48954216306761
 31
0.0
 11
194.175621051109
 21
14.3662199758039
 31
0.0
 11
194.175621051109
 21
14.23990210787791
 31
0.0
 11
194.175621051109
 21
14.1165799206142
 31
0.0
 11
194.175621051109
 21
14.00224477533731
 31
0.0
 11
194.175621051109
 21
13.90288803337181
 31
0.0
 11
194.175621051109
 21
13.82450105604224
 31
0.0
 11
194.175621051109
 21
13.77307520467317
 31
0.0
 11
194.175621051109
 21
13.75460184058913
 31
0.0
 11
194.1569720893626
 21
13.75460184058913
 31
0.0
 11
194.1125014882749
 21
13.75460184058913
 31
0.0
 11
194.0594236740736
 21
13.75460184058913
 31
0.0
 11
194.0149530729859
 21
13.75460184058913
 31
0.0
 11
193.9963041112395
 21
13.75460184058913
 31
0.0
 11
193.9963041112395
 21
13.7748679746022
 31
0.0
 11
193.9963041112395
 21
13.83089787452067
 31
0.0
 11
193.9963041112395
 21
13.91553878716348
 31
0.0
 11
193.9963041112395
 21
14.02163795934954
 31
0.0
 11
193.9963041112395
 21
14.14204263789776
 31
0.0
 11
193.9963041112395
 21
14.26960006962706
 31
0.0
 11
193.9963041112395
 21
14.39715750135637
 31
0.0
 11
193.9963041112395
 21
14.51756217990459
 31
0.0
 11
193.9963041112395
 21
14.62366135209064
 31
0.0
 11
193.9963041112395
 21
14.70830226473345
 31
0.0
 11
193.9963041112395
 21
14.76433216465193
 31
0.0
 11
193.9963041112395
 21
14.784598298665
 31
0.0
 11
193.7883272849481
 21
14.59331998274057
 31
0.0
 11
193.5763486358425
 21
14.43414885430812
 31
0.0
 11
193.5495629014482
 21
14.48814671952096
 31
0.0
 11
193.5138765415024
 21
14.54689140572027
 31
0.0
 11
193.4799697494124
 21
14.59192871537977
 31
0.0
 11
193.6830287742319
 21
14.73563387201055
 31
0.0
 11
193.881853195826
 21
14.91168423529989
 31
0.0
 11
194.0677041444178
 21
15.11327514524951
 31
0.0
 11
194.2318427502303
 21
15.3336019418611
 31
0.0
 11
194.3655301434864
 21
15.56585996513636
 31
0.0
 11
194.3465256724482
 21
15.56585996513636
 31
0.0
 11
194.2944166389562
 21
15.56585996513636
 31
0.0
 11
194.2165596124447
 21
15.56585996513636
 31
0.0
 11
194.1203111623478
 21
15.56585996513636
 31
0.0
 11
194.0130278580997
 21
15.56585996513636
 31
0.0
 11
193.9020662691345
 21
15.56585996513636
 31
0.0
 11
193.7947829648864
 21
15.56585996513636
 31
0.0
 11
193.6985345147895
 21
15.56585996513636
 31
0.0
 11
193.620677488278
 21
15.56585996513636
 31
0.0
 11
193.568568454786
 21
15.56585996513636
 31
0.0
 11
193.5495639837478
 21
15.56585996513636
 31
0.0
 11
193.5495639837478
 21
15.58311199790982
 31
0.0
 11
193.5495639837478
 21
15.62425146067732
 31
0.0
 11
193.5495639837478
 21
15.6733534001095
 31
0.0
 11
193.5495639837478
 21
15.71449286287699
 31
0.0
 11
193.5495639837478
 21
15.73174489565046
 31
0.0
 11
193.5687598486009
 21
15.73174489565046
 31
0.0
 11
193.6193671286684
 21
15.73174489565046
 31
0.0
 11
193.690915352212
 21
15.73174489565046
 31
0.0
 11
193.7729340474937
 21
15.73174489565046
 31
0.0
 11
193.8549527427753
 21
15.73174489565046
 31
0.0
 11
193.9265009663189
 21
15.73174489565046
 31
0.0
 11
193.9771082463864
 21
15.73174489565046
 31
0.0
 11
193.9963041112395
 21
15.73174489565046
 31
0.0
 11
193.9963041112395
 21
15.74926552655219
 31
0.0
 11
193.9963041112395
 21
15.79622081736883
 31
0.0
 11
193.9963041112395
 21
15.86420086526754
 31
0.0
 11
193.9963041112395
 21
15.9447957674155
 31
0.0
 11
193.9963041112395
 21
16.02959562097987
 31
0.0
 11
193.9963041112395
 21
16.11019052312783
 31
0.0
 11
193.9963041112395
 21
16.17817057102654
 31
0.0
 11
193.9963041112395
 21
16.22512586184318
 31
0.0
 11
193.9963041112395
 21
16.24264649274491
 31
0.0
 11
194.0135484112111
 21
16.2416580616752
 31
0.0
 11
194.0566591611401
 21
16.23918698400092
 31
0.0
 11
194.1127031360477
 21
16.23597458302437
 31
0.0
 11
194.1687471109553
 21
16.23276218204781
 31
0.0
 11
194.2118578608843
 21
16.23029110437353
 31
0.0
 11
194.2291021608559
 21
16.22930267330382
 31
0.0
 11
194.2143774674851
 21
16.20556293372641
 31
0.0
 11
194.175621051109
 21
16.19183767331313
 31
0.0
 11
194.175621051109
 21
16.17206806177294
 31
0.0
 11
194.175621051109
 21
16.11994817680334
 31
0.0
 11
194.175621051109
 21
16.0462614428808
 31
0.0
 11
194.175621051109
 21
15.9617912844818
 31
0.0
 11
194.175621051109
 21
15.87732112608279
 31
0.0
 11
194.175621051109
 21
15.80363439216025
 31
0.0
 11
194.175621051109
 21
15.75151450719065
 31
0.0
 11
194.175621051109
 21
15.73174489565046
 31
0.0
 11
194.1916227112935
 21
15.73174489565046
 31
0.0
 11
194.232890150717
 21
15.73174489565046
 31
0.0
 11
194.2893170576837
 21
15.73174489565046
 31
0.0
 11
194.3507971204981
 21
15.73174489565046
 31
0.0
 11
194.4072240274648
 21
15.73174489565046
 31
0.0
 11
194.4484914668882
 21
15.73174489565046
 31
0.0
 11
194.4644931270728
 21
15.73174489565046
 31
0.0
 11
194.4728206422924
 21
15.73451387455922
 31
0.0
 11
194.4882860277004
 21
15.73965626396119
 31
0.0
 11
194.49661354292
 21
15.74242524286995
 31
0.0
 11
194.5091363776005
 21
15.73490952398294
 31
0.0
 11
194.5389985218386
 21
15.71698742509855
 31
0.0
 11
194.5746404359293
 21
15.69559653288168
 31
0.0
 11
194.6045025801674
 21
15.67767443399729
 31
0.0
 11
194.6170254148479
 21
15.67015871511028
 31
0.0
  0
SPLINE
  5
AD
102
{ACAD_REACTORS
330
CA
102
}
330
48
100
AcDbEntity
  8
_U_30EC_U_30A4_U_30E4_U_30FC_1
  6
Continuous
 62
     2
100
AcDbSpline
210
0.0
220
0.0
230
1.0
 70
    11
 71
     3
 72
    91
 73
    87
 74
    85
 42
0.000000001
 43
0.0000000001
 44
0.00000001
 40
0.0
 40
0.0
 40
0.0
 40
0.0
 40
0.0267532254356684
 40
0.0856103386464102
 40
0.1444674521996603
 40
0.1712206856618514
 40
0.2039416005642536
 40
0.2955601971652484
 40
0.4362601844616918
 40
0.616225284450725
 40
0.8256392189704698
 40
1.054685709844411
 40
1.293548478893531
 40
1.532411247938303
 40
1.761457738799568
 40
1.970871673298537
 40
2.150836773256732
 40
2.291536760495593
 40
2.3831553568367
 40
2.41587628410132
 40
2.442629517487963
 40
2.501486630949093
 40
2.560343744424244
 40
2.587096977826515
 40
2.617068194440942
 40
2.699247336756083
 40
2.822032643466396
 40
2.973822353257925
 40
3.143014704823368
 40
3.318007936879947
 40
3.48720028818678
 40
3.63898999754826
 40
3.761775303794759
 40
3.843954445753094
 40
3.87392566222979
 40
3.890812773500498
 40
3.907699884771676
 40
3.937960767857276
 40
3.980983618142309
 40
4.199085915228457
 40
4.439444339237248
 40
4.67758824126089
 40
5.050698317837776
 40
5.448212454763162
 40
5.855291218044687
 40
6.138575438885358
 40
6.417434507584199
 40
6.444551104393856
 40
6.504207617363156
 40
6.563864130314454
 40
6.590980727104021
 40
6.848609460381424
 40
7.109611990668423
 40
7.352910904446084
 40
7.55783022070545
 40
7.587518925913369
 40
7.652834077375815
 40
7.718149228845825
 40
7.747837934062106
 40
7.85488019030102
 40
7.97651125740356
 40
8.369487896592304
 40
8.757514959223625
 40
9.126072419331116
 40
9.460639380392179
 40
9.74669559303592
 40
9.777569943118692
 40
9.807050320931793
 40
9.830377336128926
 40
9.886003295436002
 40
9.952395569429918
 40
10.00802152870627
 40
10.0313485438822
 40
10.2135695100959
 40
10.42203479292873
 40
10.66154556731065
 40
10.91693789564304
 40
11.15832906556562
 40
11.1898267459662
 40
11.27286608520401
 40
11.39026653033346
 40
11.52484752840877
 40
11.65942852648433
 40
11.77682897161472
 40
11.85986831085668
 40
11.89136598230413
 40
11.89136598230413
 40
11.89136598230413
 40
11.89136598230413
 10
190.7027885008196
 20
14.70699600701773
 30
0.0
 10
190.7028237765288
 20
14.71587847311986
 30
0.0
 10
190.7029366710796
 20
14.74430237047347
 30
0.0
 10
190.7012984568489
 20
14.79409639169804
 30
0.0
 10
190.7069750292911
 20
14.83657564478155
 30
0.0
 10
190.6956928731706
 20
14.88730154856848
 30
0.0
 10
190.7632296979031
 20
14.8701290074011
 30
0.0
 10
190.83880292107
 20
14.88290227165997
 30
0.0
 10
190.9828357056
 20
14.87629729457383
 30
0.0
 10
191.1569419185427
 20
14.87888462206467
 30
0.0
 10
191.3639599611003
 20
14.87800591955554
 30
0.0
 10
191.5894688172378
 20
14.87828207920028
 30
0.0
 10
191.8251162293406
 20
14.87818339658663
 30
0.0
 10
192.0607640531348
 20
14.87828184412768
 30
0.0
 10
192.2862717580626
 20
14.8780067819079
 30
0.0
 10
192.4932934632805
 20
14.87888186270736
 30
0.0
 10
192.6673888915288
 20
14.87630522678447
 30
0.0
 10
192.8114492071986
 20
14.88288290449214
 30
0.0
 10
192.8869691915292
 20
14.87016243405605
 30
0.0
 10
192.954577603703
 20
14.88726400191687
 30
0.0
 10
192.9430840140676
 20
14.83674785802941
 30
0.0
 10
192.9505104581733
 20
14.79253252226502
 30
0.0
 10
192.9428838927986
 20
14.74867966503611
 30
0.0
 10
192.9546489459425
 20
14.69878374479329
 30
0.0
 10
192.8930788491982
 20
14.71393227712513
 30
0.0
 10
192.8256791738672
 20
14.70310665350675
 30
0.0
 10
192.7013004056221
 20
14.70852031626237
 30
0.0
 10
192.555442823657
 20
14.70649205390786
 30
0.0
 10
192.3893576440085
 20
14.70715777578388
 30
0.0
 10
192.2188412621724
 20
14.70689643521243
 30
0.0
 10
192.0519790855388
 20
14.70721553391095
 30
0.0
 10
191.9087346827105
 20
14.70635302590763
 30
0.0
 10
191.7773313869834
 20
14.70863300482989
 30
0.0
 10
191.7239859134656
 20
14.70407704374203
 30
0.0
 10
191.6485188456912
 20
14.70999914992879
 30
0.0
 10
191.6769075779232
 20
14.70094169343353
 30
0.0
 10
191.7033652409542
 20
14.6972591226893
 30
0.0
 10
191.6633522907701
 20
14.66654271968276
 30
0.0
 10
191.5713663691868
 20
14.67667591174634
 30
0.0
 10
191.5439396207069
 20
14.43032502247786
 30
0.0
 10
191.4478793967234
 20
14.27499558764377
 30
0.0
 10
191.1917277964473
 20
13.9452541793157
 30
0.0
 10
191.7627537732763
 20
14.08430022210452
 30
0.0
 10
192.0173656320516
 20
14.08291779973364
 30
0.0
 10
192.6279647048617
 20
13.99790569242086
 30
0.0
 10
192.3340698578083
 20
14.29685417558207
 30
0.0
 10
192.0133304286517
 20
14.44330856901777
 30
0.0
 10
192.1313543360434
 20
14.50025540818289
 30
0.0
 10
192.1724716466261
 20
14.52420099873348
 30
0.0
 10
192.215681239441
 20
14.54599758811231
 30
0.0
 10
192.3174574094449
 20
14.60928721253908
 30
0.0
 10
192.4328867625247
 20
14.35147151408778
 30
0.0
 10
192.6329591642277
 20
14.21616041113686
 30
0.0
 10
192.7269077387228
 20
14.03792795138884
 30
0.0
 10
192.9558829746392
 20
13.8799782102705
 30
0.0
 10
192.8596031846708
 20
13.82915972576301
 30
0.0
 10
192.8167959763779
 20
13.79881292523054
 30
0.0
 10
192.7718243528778
 20
13.77466130281463
 30
0.0
 10
192.7121720925213
 20
13.72552146747568
 30
0.0
 10
192.6789731061324
 20
13.85997475673615
 30
0.0
 10
192.5582013350796
 20
14.01594265286578
 30
0.0
 10
192.1970976005979
 20
13.88569928059558
 30
0.0
 10
191.8385061955541
 20
13.90224694409484
 30
0.0
 10
191.457092045008
 20
13.89331229351866
 30
0.0
 10
191.1703455282892
 20
13.8288267167241
 30
0.0
 10
190.8592055599712
 20
13.94230668192824
 30
0.0
 10
190.8268737818788
 20
13.83122259927769
 30
0.0
 10
190.7896178253317
 20
13.81196313850013
 30
0.0
 10
190.7865737632754
 20
13.85874784087298
 30
0.0
 10
190.7679892860607
 20
13.89806853919136
 30
0.0
 10
190.7512436616778
 20
13.95765983478233
 30
0.0
 10
190.7383730915754
 20
14.00201969871284
 30
0.0
 10
190.7042327806428
 20
14.09106331120202
 30
0.0
 10
190.9482714457754
 20
14.0218104294377
 30
0.0
 10
191.1441394486671
 20
14.00030369057745
 30
0.0
 10
191.2395426381277
 20
14.28226484478464
 30
0.0
 10
191.2945135769596
 20
14.44363045421122
 30
0.0
 10
191.5159619357156
 20
14.71391177589741
 30
0.0
 10
191.3849239381214
 20
14.70548446853735
 30
0.0
 10
191.3110026555853
 20
14.70779008496972
 30
0.0
 10
191.1977459876243
 20
14.70671378321659
 30
0.0
 10
191.0694251807484
 20
14.7070763907651
 30
0.0
 10
190.9404252030415
 20
14.70697724466088
 30
0.0
 10
190.8287840946291
 20
14.70699932712572
 30
0.0
 10
190.7514663970027
 20
14.70699579189672
 30
0.0
 10
190.713287653201
 20
14.70699595845082
 30
0.0
 10
190.7027885008196
 20
14.70699600701773
 30
0.0
 11
190.7027885008196
 21
14.70699600701773
 31
0.0
 11
190.7027885008196
 21
14.73374924051798
 31
0.0
 11
190.7027885008196
 21
14.79260635421855
 31
0.0
 11
190.7027885008196
 21
14.8514634679191
 31
0.0
 11
190.7027885008196
 21
14.87821670141936
 31
0.0
 11
190.7355094280989
 21
14.87821670141936
 31
0.0
 11
190.8271280244809
 21
14.87821670141936
 31
0.0
 11
190.9678280117818
 21
14.87821670141936
 31
0.0
 11
191.1477931118179
 21
14.87821670141936
 31
0.0
 11
191.3572070464054
 21
14.87821670141936
 31
0.0
 11
191.5862535373604
 21
14.87821670141936
 31
0.0
 11
191.8251163064992
 21
14.87821670141936
 31
0.0
 11
192.0639790756381
 21
14.87821670141936
 31
0.0
 11
192.2930255665931
 21
14.87821670141936
 31
0.0
 11
192.5024395011806
 21
14.87821670141936
 31
0.0
 11
192.6824046012167
 21
14.87821670141936
 31
0.0
 11
192.8231045885176
 21
14.87821670141936
 31
0.0
 11
192.9147231848996
 21
14.87821670141936
 31
0.0
 11
192.9474441121789
 21
14.87821670141936
 31
0.0
 11
192.9474441121789
 21
14.85146346791911
 31
0.0
 11
192.9474441121789
 21
14.79260635421855
 31
0.0
 11
192.9474441121789
 21
14.73374924051798
 31
0.0
 11
192.9474441121789
 21
14.70699600701773
 31
0.0
 11
192.9174728954758
 21
14.70699600701773
 31
0.0
 11
192.8352937529027
 21
14.70699600701773
 31
0.0
 11
192.7125084457639
 21
14.70699600701773
 31
0.0
 11
192.5607187353642
 21
14.70699600701773
 31
0.0
 11
192.3915263830077
 21
14.70699600701773
 31
0.0
 11
192.2165331499991
 21
14.70699600701773
 31
0.0
 11
192.0473407976426
 21
14.70699600701773
 31
0.0
 11
191.8955510872428
 21
14.70699600701773
 31
0.0
 11
191.7727657801042
 21
14.70699600701773
 31
0.0
 11
191.690586637531
 21
14.70699600701773
 31
0.0
 11
191.6606154208279
 21
14.70699600701773
 31
0.0
 11
191.6766359412525
 21
14.70165583340794
 31
0.0
 11
191.6926564616771
 21
14.69631565979816
 31
0.0
 11
191.670615568142
 21
14.67558114591444
 31
0.0
 11
191.6284861855363
 21
14.66685871536111
 31
0.0
 11
191.5365235541377
 21
14.46909247312658
 31
0.0
 11
191.4279078521763
 21
14.2546751197851
 31
0.0
 11
191.3127500824807
 21
14.04622559051621
 31
0.0
 11
191.685736667502
 21
14.0558244125303
 31
0.0
 11
192.083070003615
 21
14.06781232404996
 31
0.0
 11
192.4899342191145
 21
14.08102711828533
 31
0.0
 11
192.2983119496978
 21
14.28966761302482
 31
0.0
 11
192.0966752013698
 21
14.48229420151833
 31
0.0
 11
192.1204947794749
 21
14.49525327269565
 31
0.0
 11
192.1728978513061
 21
14.52376322928577
 31
0.0
 11
192.2253009231373
 21
14.55227318587589
 31
0.0
 11
192.2491205012424
 21
14.56523225705321
 31
0.0
 11
192.4387101558626
 21
14.39079508370269
 31
0.0
 11
192.6200310940435
 21
14.20305846374093
 31
0.0
 11
192.7777729231147
 21
14.01782380992438
 31
0.0
 11
192.8966252504058
 21
13.85089253500951
 31
0.0
 11
192.8715408217923
 21
13.83501202286071
 31
0.0
 11
192.8163550788425
 21
13.80007489613334
 31
0.0
 11
192.7611693358927
 21
13.76513776940596
 31
0.0
 11
192.7360849072792
 21
13.74925725725716
 31
0.0
 11
192.6775518151612
 21
13.8388782468181
 31
0.0
 11
192.6050015078457
 21
13.93650288221033
 31
0.0
 11
192.2125412924095
 21
13.9163628694376
 31
0.0
 11
191.8249474069561
 21
13.89803302999774
 31
0.0
 11
191.4567378976213
 21
13.88202178722396
 31
0.0
 11
191.1224308105412
 21
13.86883756444948
 31
0.0
 11
190.8365441918518
 21
13.85898878500751
 31
0.0
 11
190.821186232174
 21
13.83220523466697
 31
0.0
 11
190.7937434290546
 21
13.82143559057246
 31
0.0
 11
190.7867927192319
 21
13.84370299445578
 31
0.0
 11
190.7702179496548
 21
13.8968021883314
 31
0.0
 11
190.7504351601596
 21
13.96017864553778
 31
0.0
 11
190.7338603905825
 21
14.01327783941339
 31
0.0
 11
190.7269096807598
 21
14.03554524329671
 31
0.0
 11
190.9091199859153
 21
14.03751638912953
 31
0.0
 11
191.1174975848588
 21
14.04356211829473
 31
0.0
 11
191.2303203127216
 21
14.25483550301555
 31
0.0
 11
191.3407936722035
 21
14.4850981315588
 31
0.0
 11
191.4358254265626
 21
14.70699600701773
 31
0.0
 11
191.4043277461595
 21
14.70699600701773
 31
0.0
 11
191.3212884069152
 21
14.70699600701773
 31
0.0
 11
191.2038879617767
 21
14.70699600701773
 31
0.0
 11
191.0693069636911
 21
14.70699600701773
 31
0.0
 11
190.9347259656055
 21
14.70699600701773
 31
0.0
 11
190.8173255204669
 21
14.70699600701773
 31
0.0
 11
190.7342861812226
 21
14.70699600701773
 31
0.0
 11
190.7027885008196
 21
14.70699600701773
 31
0.0
  0
SPLINE
  5
AE
102
{ACAD_REACTORS
330
CB
102
}
330
48
100
AcDbEntity
  8
_U_30EC_U_30A4_U_30E4_U_30FC_1
  6
Continuous
 62
     2
100
AcDbSpline
210
0.0
220
0.0
230
1.0
 70
    11
 71
     3
 72
    35
 73
    31
 74
    29
 42
0.000000001
 43
0.0000000001
 44
0.00000001
 40
0.0
 40
0.0
 40
0.0
 40
0.0
 40
0.0335231036620617
 40
0.0713218571712037
 40
0.4278866681487041
 40
0.8116865841964063
 40
1.198190238000065
 40
1.561379546812694
 40
1.659983174622077
 40
1.759315573807194
 40
2.132719617231076
 40
2.525233363588827
 40
2.910815397779693
 40
3.265244364303282
 40
3.592606723582056
 40
3.964386154604003
 40
4.359942131737826
 40
4.758154118639288
 40
4.843846538699902
 40
4.93665006554322
 40
5.2566166025373
 40
5.581707404416036
 40
5.899719158308132
 40
6.198363494280698
 40
6.466301046615714
 40
6.493895311537065
 40
6.559697020196857
 40
6.638234543442461
 40
6.704036252154243
 40
6.731630508423049
 40
6.731630508423049
 40
6.731630508423049
 40
6.731630508423049
 10
191.9736010568669
 20
16.23463843719135
 30
0.0
 10
191.9676006097789
 20
16.22480690542324
 30
0.0
 10
191.9548344099157
 20
16.203889885798
 30
0.0
 10
191.7949362006554
 20
16.17127126532689
 30
0.0
 10
192.2322025842337
 20
15.88206680336704
 30
0.0
 10
192.4345394828262
 20
15.68041138358439
 30
0.0
 10
192.6819564267973
 20
15.43749387603278
 30
0.0
 10
193.1831513624607
 20
15.36047662757775
 30
0.0
 10
193.012556219897
 20
15.21876939174659
 30
0.0
 10
192.9383299463201
 20
15.01710366209107
 30
0.0
 10
192.6131432248187
 20
15.36956287174728
 30
0.0
 10
192.3277741670664
 20
15.53175212559563
 30
0.0
 10
192.0337604077658
 20
15.7368713005305
 30
0.0
 10
191.8084452691134
 20
16.21827488595455
 30
0.0
 10
191.5993085055521
 20
15.75343046609226
 30
0.0
 10
191.3207873674833
 20
15.54350952252912
 30
0.0
 10
191.0371383177209
 20
15.37424456359988
 30
0.0
 10
190.7078639527831
 20
15.00142360907938
 30
0.0
 10
190.6277012318224
 20
15.19708014459002
 30
0.0
 10
190.4759724909744
 20
15.32491104190596
 30
0.0
 10
190.9083395826795
 20
15.40454031765937
 30
0.0
 10
191.0962565329766
 20
15.60026634915474
 30
0.0
 10
191.3468477420502
 20
15.81632996916754
 30
0.0
 10
191.5714350470161
 20
15.98190992300061
 30
0.0
 10
191.6259775409712
 20
16.26133964636829
 30
0.0
 10
191.749466102901
 20
16.24737950408079
 30
0.0
 10
191.8060273344519
 20
16.24521268867649
 30
0.0
 10
191.8761870984944
 20
16.24046859881361
 30
0.0
 10
191.9333414022105
 20
16.23709429350542
 30
0.0
 10
191.9644190320838
 20
16.2351985471112
 30
0.0
 10
191.9736010568669
 20
16.23463843719135
 30
0.0
 11
191.9736010568669
 21
16.23463843719135
 31
0.0
 11
191.9525319069884
 21
16.20856374969787
 31
0.0
 11
191.9174464559425
 21
16.1945011455347
 31
0.0
 11
192.1512374769094
 21
15.92527961131383
 31
0.0
 11
192.4414585957566
 21
15.6741340796926
 31
0.0
 11
192.7612797483684
 21
15.45710987618785
 31
0.0
 11
193.0838708706289
 21
15.29025232631638
 31
0.0
 11
193.0213299868076
 21
15.21402035584929
 31
0.0
 11
192.9688035818975
 21
15.12971197913426
 31
0.0
 11
192.6436279095814
 21
15.31326404831581
 31
0.0
 11
192.3237227768436
 21
15.54070139743429
 31
0.0
 11
192.0354200158608
 21
15.79673855123311
 31
0.0
 11
191.8050514588095
 21
16.06609003445567
 31
0.0
 11
191.5995531719515
 21
15.81126348721037
 31
0.0
 11
191.3288301341535
 21
15.55645182277757
 31
0.0
 11
191.0119538423246
 21
15.31969466354857
 31
0.0
 11
190.6679957933741
 21
15.11903163191467
 31
0.0
 11
190.6218855341338
 21
15.19126067703554
 31
0.0
 11
190.5636970460348
 21
15.26355586798967
 31
0.0
 11
190.8433040489015
 21
15.41911456961745
 31
0.0
 11
191.1093004621154
 21
15.60601009790406
 31
0.0
 11
191.3499997459746
 21
15.81384496285209
 31
0.0
 11
191.5537153607773
 21
16.03222167446417
 31
0.0
 11
191.7087607668217
 21
16.25074274274288
 31
0.0
 11
191.7363041569864
 21
16.24906789496552
 31
0.0
 11
191.8019845489176
 21
16.24507402718874
 31
0.0
 11
191.880377274771
 21
16.24030715274549
 31
0.0
 11
191.9460576667022
 21
16.23631328496871
 31
0.0
 11
191.9736010568669
 21
16.23463843719135
 31
0.0
  0
SPLINE
  5
AF
102
{ACAD_REACTORS
330
CC
102
}
330
48
100
AcDbEntity
  8
_U_30EC_U_30A4_U_30E4_U_30FC_1
  6
Continuous
 62
     2
100
AcDbSpline
210
0.0
220
0.0
230
1.0
 70
    11
 71
     3
 72
    15
 73
    11
 74
     9
 42
0.000000001
 43
0.0000000001
 44
0.00000001
 40
0.0
 40
0.0
 40
0.0
 40
0.0
 40
0.2785535985096574
 40
0.5215624748198886
 40
0.6076917376040509
 40
0.6938210001741243
 40
0.9405019146455056
 40
1.22169140348914
 40
1.300471877081057
 40
1.379252341684822
 40
1.379252341684822
 40
1.379252341684822
 40
1.379252341684822
 10
189.5681493630999
 20
16.22930267330382
 30
0.0
 10
189.6296017794178
 20
16.17691646592716
 30
0.0
 10
189.7446649974113
 20
16.07882876798223
 30
0.0
 10
190.0397348497244
 20
15.92889785897223
 30
0.0
 10
189.9025147631857
 20
15.84343227515015
 30
0.0
 10
189.8041227843778
 20
15.71085785201556
 30
0.0
 10
189.7130033590649
 20
16.01616985781421
 30
0.0
 10
189.3636839480654
 20
16.07967869465376
 30
0.0
 10
189.5119258376571
 20
16.1789650988088
 30
0.0
 10
189.5494081874236
 20
16.21252348402383
 30
0.0
 10
189.5681493630999
 20
16.22930267330382
 30
0.0
 11
189.5681493630999
 21
16.22930267330382
 31
0.0
 11
189.7919222440596
 21
16.06341774278973
 31
0.0
 11
189.9695046306383
 21
15.89753281227565
 31
0.0
 11
189.9066308127979
 21
15.83866743034593
 31
0.0
 11
189.8437569949575
 21
15.77980204841621
 31
0.0
 11
189.6688535117725
 21
15.95375677059492
 31
0.0
 11
189.447825685614
 21
16.12757920110704
 31
0.0
 11
189.507987524357
 21
16.17844093720543
 31
0.0
 11
189.5681493630999
 21
16.22930267330382
 31
0.0
  0
SPLINE
  5
B0
102
{ACAD_REACTORS
330
CD
102
}
330
48
100
AcDbEntity
  8
_U_30EC_U_30A4_U_30E4_U_30FC_1
  6
Continuous
 62
     2
100
AcDbSpline
210
0.0
220
0.0
230
1.0
 70
    11
 71
     3
 72
    75
 73
    71
 74
    69
 42
0.000000001
 43
0.0000000001
 44
0.00000001
 40
0.0
 40
0.0
 40
0.0
 40
0.0
 40
0.0342546099129691
 40
0.1245622414432346
 40
0.2522385480897518
 40
0.398599192294068
 40
0.5449598364980821
 40
0.6726361431438816
 40
0.762943774673696
 40
0.7971983935297973
 40
1.101723623449661
 40
1.408591244036665
 40
1.433332471690371
 40
1.487763172450169
 40
1.542193873081996
 40
1.566935100592546
 40
1.923523931821858
 40
2.271755704953713
 40
2.5905797551009
 40
2.858943305581158
 40
2.889120339309176
 40
2.918305855191124
 40
2.941366645531247
 40
2.996357760973138
 40
3.061992318140685
 40
3.116983433626882
 40
3.140044223997561
 40
3.411273122936454
 40
3.732441619741147
 40
3.761068217532844
 40
3.837787499630406
 40
3.948858699126047
 40
4.080541049104422
 40
4.219093782625805
 40
4.350776132722356
 40
4.461847332405691
 40
4.538566614678421
 40
4.567193212544669
 40
4.594907573998928
 40
4.666381453557467
 40
4.764111044011077
 40
4.87059253812588
 40
4.968322128642331
 40
5.039796008287016
 40
5.067510369784475
 40
5.094263603185693
 40
5.153120716668331
 40
5.211977830150781
 40
5.238731063551787
 40
5.272290535139026
 40
5.363380529444887
 40
5.497618415781565
 40
5.660621563453807
 40
5.838007341749508
 40
6.015393119910859
 40
6.178396267038485
 40
6.312634151842436
 40
6.403724143059426
 40
6.437283612672521
 40
6.46403684626114
 40
6.52289396000476
 40
6.581751071484026
 40
6.608504301590976
 40
6.637253941281124
 40
6.711397748902975
 40
6.812778057283587
 40
6.923237199249364
 40
7.024617507624008
 40
7.098761315207661
 40
7.127510946007611
 40
7.127510946007611
 40
7.127510946007611
 40
7.127510946007611
 10
188.4418622390564
 20
14.95849128473265
 30
0.0
 10
188.4418622819707
 20
14.9470731340872
 30
0.0
 10
188.4418624481129
 20
14.9055525784263
 30
0.0
 10
188.4418593081786
 20
14.82146922003772
 30
0.0
 10
188.44187882798
 20
14.70004497322329
 30
0.0
 10
188.4417912187737
 20
14.55980494047449
 30
0.0
 10
188.442111623523
 20
14.42006556794577
 30
0.0
 10
188.441160590974
 20
14.29745038894929
 30
0.0
 10
188.4431978595968
 20
14.21587074438044
 30
0.0
 10
188.4349433178744
 20
14.06271267077698
 30
0.0
 10
188.7430797940901
 20
14.22560236054722
 30
0.0
 10
189.0350645173736
 20
14.39482938688005
 30
0.0
 10
189.0408354448708
 20
14.25973235781912
 30
0.0
 10
189.0455471719891
 20
14.21617221160445
 30
0.0
 10
189.0482535411918
 20
14.17211249350546
 30
0.0
 10
189.0672545672958
 20
14.02272590363134
 30
0.0
 10
188.6583942247303
 20
14.08681172241262
 30
0.0
 10
188.3793710348832
 20
13.9729634141102
 30
0.0
 10
188.1018081587165
 20
13.87364095811142
 30
0.0
 10
187.8099837184401
 20
13.91630687596357
 30
0.0
 10
187.7869144678658
 20
13.81321679744542
 30
0.0
 10
187.7537474383333
 20
13.7869109124447
 30
0.0
 10
187.7480653962738
 20
13.83455309036305
 30
0.0
 10
187.7284214559044
 20
13.8718033611507
 30
0.0
 10
187.7095089485623
 20
13.93007387847565
 30
0.0
 10
187.6942849867707
 20
13.97385201007805
 30
0.0
 10
187.6477246372935
 20
14.08759421046312
 30
0.0
 10
187.989089731245
 20
14.05576301120047
 30
0.0
 10
188.2679649367386
 20
14.0216143510648
 30
0.0
 10
188.2617753034907
 20
14.16913976479653
 30
0.0
 10
188.2630935452773
 20
14.24013150908834
 30
0.0
 10
188.2624831689948
 20
14.34719767958662
 30
0.0
 10
188.2625871570724
 20
14.47398529785998
 30
0.0
 10
188.2629987964055
 20
14.60849243496051
 30
0.0
 10
188.2613907841968
 20
14.73395549951185
 30
0.0
 10
188.2659902567925
 20
14.84505246719118
 30
0.0
 10
188.256418650221
 20
14.9076188680069
 30
0.0
 10
188.2704001783691
 20
14.96595388295002
 30
0.0
 10
188.2147384386704
 20
14.95289710582239
 30
0.0
 10
188.1575655197821
 20
14.96136307749499
 30
0.0
 10
188.0616048925648
 20
14.95729976080637
 30
0.0
 10
187.963376752282
 20
14.95970889852475
 30
0.0
 10
187.8672582457561
 20
14.95551600613389
 30
0.0
 10
187.8104648525811
 20
14.96429346441163
 30
0.0
 10
187.7550356873385
 20
14.95094936850123
 30
0.0
 10
187.7670679427916
 20
15.00036910959257
 30
0.0
 10
187.7592003173938
 20
15.04393988030398
 30
0.0
 10
187.7666295563828
 20
15.08830469118526
 30
0.0
 10
187.7551930564144
 20
15.13902297763993
 30
0.0
 10
187.8232102370133
 20
15.12162460757745
 30
0.0
 10
187.8968496879747
 20
15.13417450237191
 30
0.0
 10
188.0325064058211
 20
15.12799677011099
 30
0.0
 10
188.1884909024525
 20
15.13029203093086
 30
0.0
 10
188.3615926358143
 20
15.12940968262532
 30
0.0
 10
188.5346942964181
 20
15.1302920714241
 30
0.0
 10
188.6906789811216
 20
15.12799662955552
 30
0.0
 10
188.8263351889797
 20
15.13417486262433
 30
0.0
 10
188.8999756705652
 20
15.12162394218337
 30
0.0
 10
188.9679914174724
 20
15.13902373012144
 30
0.0
 10
188.9565590885922
 20
15.08830130414557
 30
0.0
 10
188.9639539458298
 20
15.0439706081111
 30
0.0
 10
188.956203991227
 20
15.00028307550197
 30
0.0
 10
188.9681203741877
 20
14.95063590098478
 30
0.0
 10
188.9108170223616
 20
14.96461411338426
 30
0.0
 10
188.8520145789772
 20
14.95539755673255
 30
0.0
 10
188.7525293633199
 20
14.9595226816493
 30
0.0
 10
188.649428009835
 20
14.95822760025889
 30
0.0
 10
188.5537846354573
 20
14.95854077077641
 30
0.0
 10
188.4857467971617
 20
14.95848776697146
 30
0.0
 10
188.4514462213443
 20
14.95849051871657
 30
0.0
 10
188.4418622390564
 20
14.95849128473265
 30
0.0
 11
188.4418622390564
 21
14.95849128473265
 31
0.0
 11
188.4418622390564
 21
14.92423666587186
 31
0.0
 11
188.4418622390564
 21
14.83392903432976
 31
0.0
 11
188.4418622390564
 21
14.7062527276668
 31
0.0
 11
188.4418622390564
 21
14.5598920834434
 31
0.0
 11
188.4418622390564
 21
14.41353143922001
 31
0.0
 11
188.4418622390564
 21
14.28585513255705
 31
0.0
 11
188.4418622390564
 21
14.19554750101495
 31
0.0
 11
188.4418622390564
 21
14.16129288215416
 31
0.0
 11
188.7391932644567
 21
14.2270947571377
 31
0.0
 11
189.0384623627245
 21
14.29496038212073
 31
0.0
 11
189.0405487124976
 21
14.27030727882828
 31
0.0
 11
189.0451386819987
 21
14.2160704515849
 31
0.0
 11
189.0497286514996
 21
14.16183362434153
 31
0.0
 11
189.0518150012728
 21
14.13718052104908
 31
0.0
 11
188.705639688924
 21
14.05163370140898
 31
0.0
 11
188.3669653138837
 21
13.97060877629902
 31
0.0
 11
188.0563731516688
 21
13.8986276402493
 31
0.0
 11
187.7944444777955
 21
13.84021218778992
 31
0.0
 11
187.7817515029292
 21
13.81283442738014
 31
0.0
 11
187.7569794787513
 21
13.79740260446736
 31
0.0
 11
187.7491867589501
 21
13.81910683390637
 31
0.0
 11
187.7306041194242
 21
13.87086307333787
 31
0.0
 11
187.70842483999
 21
13.93263664943352
 31
0.0
 11
187.689842200464
 21
13.98439288886502
 31
0.0
 11
187.6820494806628
 21
14.00609711830403
 31
0.0
 11
187.9482776335931
 21
14.05794001759667
 31
0.0
 11
188.2626334936289
 21
14.12373968771911
 31
0.0
 11
188.2626334936289
 21
14.15236628569625
 31
0.0
 11
188.2626334936289
 21
14.229085568275
 31
0.0
 11
188.2626334936289
 21
14.34015676842633
 31
0.0
 11
188.2626334936289
 21
14.47183911912119
 31
0.0
 11
188.2626334936289
 21
14.61039185333057
 31
0.0
 11
188.2626334936289
 21
14.74207420402544
 31
0.0
 11
188.2626334936289
 21
14.85314540417676
 31
0.0
 11
188.2626334936289
 21
14.9298646867555
 31
0.0
 11
188.2626334936289
 21
14.95849128473265
 31
0.0
 11
188.2349191321108
 21
14.95849128473265
 31
0.0
 11
188.1634452524063
 21
14.95849128473265
 31
0.0
 11
188.06571566179
 21
14.95849128473265
 31
0.0
 11
187.9592341675364
 21
14.95849128473265
 31
0.0
 11
187.8615045769201
 21
14.95849128473265
 31
0.0
 11
187.7900306972156
 21
14.95849128473265
 31
0.0
 11
187.7623163356975
 21
14.95849128473265
 31
0.0
 11
187.7623163356975
 21
14.9852445182329
 31
0.0
 11
187.7623163356975
 21
15.04410163193346
 31
0.0
 11
187.7623163356975
 21
15.10295874563401
 31
0.0
 11
187.7623163356975
 21
15.12971197913426
 31
0.0
 11
187.7958758072874
 21
15.12971197913426
 31
0.0
 11
187.8869658016031
 21
15.12971197913426
 31
0.0
 11
188.0212036879629
 21
15.12971197913426
 31
0.0
 11
188.1842068356856
 21
15.12971197913426
 31
0.0
 11
188.3615926140897
 21
15.12971197913426
 31
0.0
 11
188.5389783924938
 21
15.12971197913426
 31
0.0
 11
188.7019815402164
 21
15.12971197913426
 31
0.0
 11
188.8362194265763
 21
15.12971197913426
 31
0.0
 11
188.9273094208918
 21
15.12971197913426
 31
0.0
 11
188.9608688924818
 21
15.12971197913426
 31
0.0
 11
188.9608688924818
 21
15.10295874563401
 31
0.0
 11
188.9608688924818
 21
15.04410163193345
 31
0.0
 11
188.9608688924818
 21
14.9852445182329
 31
0.0
 11
188.9608688924818
 21
14.95849128473265
 31
0.0
 11
188.9321192527877
 21
14.95849128473265
 31
0.0
 11
188.8579754451555
 21
14.95849128473265
 31
0.0
 11
188.7565951367604
 21
14.95849128473265
 31
0.0
 11
188.6461359947778
 21
14.95849128473265
 31
0.0
 11
188.5447556863827
 21
14.95849128473265
 31
0.0
 11
188.4706118787505
 21
14.95849128473265
 31
0.0
 11
188.4418622390564
 21
14.95849128473265
 31
0.0
  0
SPLINE
  5
B1
102
{ACAD_REACTORS
330
CE
102
}
330
48
100
AcDbEntity
  8
_U_30EC_U_30A4_U_30E4_U_30FC_1
  6
Continuous
 62
     2
100
AcDbSpline
210
0.0
220
0.0
230
1.0
 70
    11
 71
     3
 72
    91
 73
    87
 74
    85
 42
0.000000001
 43
0.0000000001
 44
0.00000001
 40
0.0
 40
0.0
 40
0.0
 40
0.0
 40
0.0345987051695718
 40
0.1258134969461369
 40
0.2547723404888987
 40
0.4026032099154125
 40
0.5504340793416704
 40
0.679392922883608
 40
0.7706077146571035
 40
0.8052064287780925
 40
1.124852390615277
 40
1.427402236308871
 40
1.706356627453509
 40
1.955541417875194
 40
2.169485938566339
 40
2.344350786664806
 40
2.480568411561957
 40
2.590440557428979
 40
2.649189927151108
 40
2.749320643306312
 40
2.91263273988001
 40
3.147745656000216
 40
3.24482749638511
 40
3.3384900569467
 40
3.583815413207127
 40
3.761423943238488
 40
3.886956104362651
 40
3.985855451886857
 40
4.091766255337769
 40
4.250186473811936
 40
4.422734315084558
 40
4.628285684838651
 40
4.872093227758471
 40
5.152549652145582
 40
5.464967135837562
 40
5.803201477852479
 40
6.160362988813953
 40
6.193449448276009
 40
6.284170385501663
 40
6.419718138764533
 40
6.587285046385783
 40
6.774063446723697
 40
6.96724567811368
 40
7.154024078817666
 40
7.321590987026052
 40
7.45713874089041
 40
7.547859678556146
 40
7.580946138182706
 40
7.608533084714758
 40
7.669224367077734
 40
7.729915649429951
 40
7.757502595950002
 40
7.790278062553456
 40
7.880146277430954
 40
8.014419963180416
 40
8.180411842397916
 40
8.365434637679385
 40
8.556801071622687
 40
8.7418238668308
 40
8.90781574591631
 40
9.042089431507463
 40
9.131957646249589
 40
9.164733112797165
 40
9.415425063140098
 40
9.667986180958563
 40
9.694169807462702
 40
9.756607686047689
 40
9.83113031532258
 40
9.893568193900045
 40
9.919751820398861
 40
9.950967964690696
 40
9.996421631210806
 40
10.22087981037469
 40
10.44341866197558
 40
10.4784797078887
 40
10.57091337438771
 40
10.70159545461245
 40
10.85140174170376
 40
11.00120802880493
 40
11.13189010907399
 40
11.22432377583027
 40
11.25938480938973
 40
11.28697175596161
 40
11.34766303835935
 40
11.40835432042085
 40
11.4359412589212
 40
11.4359412589212
 40
11.4359412589212
 40
11.4359412589212
 10
190.0818114333289
 20
15.55242795125078
 30
0.0
 10
190.0702785844941
 20
15.55242790287916
 30
0.0
 10
190.0283409444998
 20
15.55242773704165
 30
0.0
 10
189.9434129719026
 20
15.5524312580091
 30
0.0
 10
189.8207688553128
 20
15.55240926435879
 30
0.0
 10
189.6791206916993
 20
15.55250801177055
 30
0.0
 10
189.537975369849
 20
15.55214686232421
 30
0.0
 10
189.4141351317905
 20
15.5532188360909
 30
0.0
 10
189.3317217825382
 20
15.55092249091269
 30
0.0
 10
189.1727791229692
 20
15.56048569373421
 30
0.0
 10
189.3503402353375
 20
15.1978539431137
 30
0.0
 10
189.3379739205452
 20
14.95243127723115
 30
0.0
 10
189.4064519473864
 20
14.66862501324835
 30
0.0
 10
189.4693024320969
 20
14.43250999939036
 30
0.0
 10
189.5452253431728
 20
14.2332674039613
 30
0.0
 10
189.6303189577015
 20
14.07745347451375
 30
0.0
 10
189.7244607592935
 20
13.97657857781394
 30
0.0
 10
189.8282648207728
 20
13.92465852638965
 30
0.0
 10
189.9125872030773
 20
13.97606484379619
 30
0.0
 10
189.9351322179451
 20
14.09144544037518
 30
0.0
 10
189.9745730975371
 20
14.21885149702382
 30
0.0
 10
189.9202919734942
 20
14.53622328086757
 30
0.0
 10
190.0451218072473
 20
14.38982180140906
 30
0.0
 10
190.2019291513603
 20
14.35795300331172
 30
0.0
 10
190.0947720007057
 20
14.12421357767629
 30
0.0
 10
190.0808711209867
 20
13.95972776583658
 30
0.0
 10
190.0234709467225
 20
13.83130869122482
 30
0.0
 10
189.9335020145007
 20
13.76018802352828
 30
0.0
 10
189.8095274657876
 20
13.74432324142254
 30
0.0
 10
189.663427319686
 20
13.77993797554173
 30
0.0
 10
189.5243894320283
 20
13.90000570500279
 30
0.0
 10
189.4102003962144
 20
14.0743568255032
 30
0.0
 10
189.3146141301486
 20
14.29946603111242
 30
0.0
 10
189.2318652572626
 20
14.56388246006443
 30
0.0
 10
189.1807179256411
 20
14.88187933098544
 30
0.0
 10
189.0770189207338
 20
15.15543728488913
 30
0.0
 10
189.204284120852
 20
15.56005818612868
 30
0.0
 10
189.0357890623018
 20
15.55112367849679
 30
0.0
 10
188.9511995787077
 20
15.55315961418364
 30
0.0
 10
188.8189876387627
 20
15.55213937388407
 30
0.0
 10
188.6560505094104
 20
15.5525323031843
 30
0.0
 10
188.4733759170532
 20
15.55235696313369
 30
0.0
 10
188.2847057373383
 20
15.55260105307469
 30
0.0
 10
188.1014469020189
 20
15.55185657906237
 30
0.0
 10
187.9404746832718
 20
15.55416360522426
 30
0.0
 10
187.8029808335276
 20
15.54799804883663
 30
0.0
 10
187.728959037231
 20
15.56032838458213
 30
0.0
 10
187.6613215186856
 20
15.54329323723556
 30
0.0
 10
187.673237371927
 20
15.59524438447529
 30
0.0
 10
187.6655677285694
 20
15.64071424966529
 30
0.0
 10
187.6732592225115
 20
15.68614453703706
 30
0.0
 10
187.6613141797762
 20
15.7380239598457
 30
0.0
 10
187.7283588305866
 20
15.72119143490264
 30
0.0
 10
187.8017375665676
 20
15.73335409092671
 30
0.0
 10
187.9379128305272
 20
15.72727231074958
 30
0.0
 10
188.0973811801512
 20
15.72954834315058
 30
0.0
 10
188.2789173085836
 20
15.72881233998962
 30
0.0
 10
188.4658034862179
 20
15.72905954196134
 30
0.0
 10
188.6468012316836
 20
15.72886400799253
 30
0.0
 10
188.8080802578878
 20
15.72932234714839
 30
0.0
 10
188.9393882124887
 20
15.72812673751205
 30
0.0
 10
189.0225051322596
 20
15.73051347319743
 30
0.0
 10
189.1556236547814
 20
15.72230605725464
 30
0.0
 10
189.0645893502659
 20
15.97752868952655
 30
0.0
 10
188.9789633074416
 20
16.24164358328247
 30
0.0
 10
189.0990589003455
 20
16.22904442969166
 30
0.0
 10
189.1514264948542
 20
16.22694235763075
 30
0.0
 10
189.2214497569716
 20
16.22535399889659
 30
0.0
 10
189.2671922337817
 20
16.21602567538113
 30
0.0
 10
189.3220812646934
 20
16.22545966915428
 30
0.0
 10
189.2963574785681
 20
16.17733028655173
 30
0.0
 10
189.1825397571453
 20
16.18266829744168
 30
0.0
 10
189.3159346621136
 20
15.95449174576776
 30
0.0
 10
189.1943658735472
 20
15.72156856595923
 30
0.0
 10
189.3223188769412
 20
15.73087258884438
 30
0.0
 10
189.4049048406461
 20
15.7280100175468
 30
0.0
 10
189.5307214850824
 20
15.72923437412302
 30
0.0
 10
189.6741469838057
 20
15.72932431888965
 30
0.0
 10
189.8157420951728
 20
15.72746163183853
 30
0.0
 10
189.9459127249967
 20
15.73333075937163
 30
0.0
 10
190.0193452286191
 20
15.72070340823204
 30
0.0
 10
190.0891112922096
 20
15.73877563110412
 30
0.0
 10
190.0775772605396
 20
15.68612850546326
 30
0.0
 10
190.0833184346682
 20
15.64221317686548
 30
0.0
 10
190.0816615770911
 20
15.5908998267655
 30
0.0
 10
190.081775756167
 20
15.56158792021635
 30
0.0
 10
190.0818114333289
 20
15.55242795125078
 30
0.0
 11
190.0818114333289
 21
15.55242795125078
 31
0.0
 11
190.0472127192051
 21
15.55242795125078
 31
0.0
 11
189.9559979274241
 21
15.55242795125078
 31
0.0
 11
189.8270390838717
 21
15.55242795125078
 31
0.0
 11
189.6792082144335
 21
15.55242795125078
 31
0.0
 11
189.5313773449954
 21
15.55242795125078
 31
0.0
 11
189.402418501443
 21
15.55242795125078
 31
0.0
 11
189.311203709662
 21
15.55242795125078
 31
0.0
 11
189.2766049955382
 21
15.55242795125078
 31
0.0
 11
189.3083140497693
 21
15.23435864930122
 31
0.0
 11
189.3527866656865
 21
14.93509522788081
 31
0.0
 11
189.4092389118319
 21
14.66191269512577
 31
0.0
 11
189.4768868567478
 21
14.42208605917228
 31
0.0
 11
189.5549465689761
 21
14.22289032815655
 31
0.0
 11
189.6426341170591
 21
14.07160051021479
 31
0.0
 11
189.7391655695388
 21
13.97549161348318
 31
0.0
 11
189.8437569949575
 21
13.94183864609793
 31
0.0
 11
189.8943077302785
 21
13.97177376978836
 31
0.0
 11
189.9310588991551
 21
14.06491619815048
 31
0.0
 11
189.9562640977527
 21
14.22627151712055
 31
0.0
 11
189.9721769222368
 21
14.46084531263483
 31
0.0
 11
190.0494082682583
 21
14.40202182306619
 31
0.0
 11
190.1327184184385
 21
14.35921885432691
 31
0.0
 11
190.1066365811217
 21
14.11528388661011
 31
0.0
 11
190.0673317805105
 21
13.94207902887563
 31
0.0
 11
190.0105702596765
 21
13.83011272445918
 31
0.0
 11
189.932118261691
 21
13.76989341669646
 31
0.0
 11
189.8277420296255
 21
13.75192954892318
 31
0.0
 11
189.6738595065096
 21
13.78957440012362
 31
0.0
 11
189.5388902376747
 21
13.89707348877404
 31
0.0
 11
189.4221739916162
 21
14.0662736174481
 31
0.0
 11
189.32305053683
 21
14.28902158871944
 31
0.0
 11
189.2408596418113
 21
14.55716420516173
 31
0.0
 11
189.1749410750559
 21
14.86254826934861
 31
0.0
 11
189.1246346050593
 21
15.19702058385374
 31
0.0
 11
189.0892800003171
 21
15.55242795125078
 31
0.0
 11
189.0561935405844
 21
15.55242795125078
 31
0.0
 11
188.9654726026075
 21
15.55242795125078
 31
0.0
 11
188.8299248482185
 21
15.55242795125078
 31
0.0
 11
188.6623579392495
 21
15.55242795125078
 31
0.0
 11
188.4755795375324
 21
15.55242795125078
 31
0.0
 11
188.2823973048992
 21
15.55242795125078
 31
0.0
 11
188.0956189031822
 21
15.55242795125078
 31
0.0
 11
187.9280519942131
 21
15.55242795125078
 31
0.0
 11
187.7925042398241
 21
15.55242795125078
 31
0.0
 11
187.7017833018473
 21
15.55242795125078
 31
0.0
 11
187.6686968421145
 21
15.55242795125078
 31
0.0
 11
187.6686968421145
 21
15.58001489785847
 31
0.0
 11
187.6686968421145
 21
15.64070618039538
 31
0.0
 11
187.6686968421145
 21
15.70139746293229
 31
0.0
 11
187.6686968421145
 21
15.72898440953998
 31
0.0
 11
187.7014723087631
 21
15.72898440953998
 31
0.0
 11
187.7913405237673
 21
15.72898440953998
 31
0.0
 11
187.9256142097148
 21
15.72898440953998
 31
0.0
 11
188.0916060891932
 21
15.72898440953998
 31
0.0
 11
188.2766288847901
 21
15.72898440953998
 31
0.0
 11
188.4679953190932
 21
15.72898440953998
 31
0.0
 11
188.6530181146902
 21
15.72898440953998
 31
0.0
 11
188.8190099941685
 21
15.72898440953998
 31
0.0
 11
188.953283680116
 21
15.72898440953998
 31
0.0
 11
189.0431518951202
 21
15.72898440953998
 31
0.0
 11
189.0759273617688
 21
15.72898440953998
 31
0.0
 11
189.0659183950103
 21
15.97947647544959
 31
0.0
 11
189.0599112510662
 21
16.23196614552532
 31
0.0
 11
189.0860575870658
 21
16.23056921608122
 31
0.0
 11
189.1484065421418
 21
16.22723807663762
 31
0.0
 11
189.2228230369099
 21
16.2232622005275
 31
0.0
 11
189.2851719919859
 21
16.21993106108389
 31
0.0
 11
189.3113183279855
 21
16.2185341316398
 31
0.0
 11
189.298293111304
 21
16.19016528616081
 31
0.0
 11
189.2551649266405
 21
16.17581274276165
 31
0.0
 11
189.2574991961821
 21
15.95136670115109
 31
0.0
 11
189.2658452735903
 21
15.72898440953998
 31
0.0
 11
189.3009063195165
 21
15.72898440953998
 31
0.0
 11
189.3933399860495
 21
15.72898440953998
 31
0.0
 11
189.5240220663201
 21
15.72898440953998
 31
0.0
 11
189.6738283534596
 21
15.72898440953998
 31
0.0
 11
189.8236346405991
 21
15.72898440953998
 31
0.0
 11
189.9543167208697
 21
15.72898440953998
 31
0.0
 11
190.0467503874027
 21
15.72898440953998
 31
0.0
 11
190.0818114333289
 21
15.72898440953998
 31
0.0
 11
190.0818114333289
 21
15.70139746293229
 31
0.0
 11
190.0818114333289
 21
15.64070618039538
 31
0.0
 11
190.0818114333289
 21
15.58001489785847
 31
0.0
 11
190.0818114333289
 21
15.55242795125078
 31
0.0
  0
SPLINE
  5
B2
102
{ACAD_REACTORS
330
CF
102
}
330
48
100
AcDbEntity
  8
_U_30EC_U_30A4_U_30E4_U_30FC_1
  6
Continuous
 62
     2
100
AcDbSpline
210
0.0
220
0.0
230
1.0
 70
    11
 71
     3
 72
   118
 73
   114
 74
   112
 42
0.000000001
 43
0.0000000001
 44
0.00000001
 40
0.0
 40
0.0
 40
0.0
 40
0.0
 40
0.1054708162973237
 40
0.246609827005189
 40
0.3965912874591364
 40
0.5285525069754106
 40
0.6156245055642187
 40
0.6431434105797499
 40
0.7036850037986372
 40
0.7642265984504938
 40
0.791745505235541
 40
0.9287404319990227
 40
1.106572819088044
 40
1.287544879681045
 40
1.317578308030564
 40
1.399928030857201
 40
1.522968204799975
 40
1.675072986590596
 40
1.844616533180672
 40
2.019973001638739
 40
2.189516548880052
 40
2.341621331585388
 40
2.464661506320525
 40
2.547011229647088
 40
2.577044658168054
 40
2.603797890893125
 40
2.662655002908897
 40
2.721512114949737
 40
2.748265347702917
 40
2.774215307344994
 40
2.845959313407322
 40
2.954338556588523
 40
3.0901942275857
 40
3.244367517100667
 40
3.407699615844425
 40
3.571031714539574
 40
3.72520500392025
 40
3.86106067472975
 40
3.969439917716443
 40
4.041183923629116
 40
4.06713388321311
 40
4.311886746012278
 40
4.547897258335623
 40
4.764747083044064
 40
4.952749679951866
 40
5.045772974195993
 40
5.137862019645077
 40
5.330543169793128
 40
5.55344826524412
 40
5.795083855888283
 40
6.043293412177341
 40
6.285761695541285
 40
6.313902908752769
 40
6.384255941793358
 40
6.475714884766947
 40
6.567173827759009
 40
6.637526860839787
 40
6.665668074074151
 40
6.692018920328127
 40
6.749990782071195
 40
6.807962643790565
 40
6.834313490018038
 40
6.856393084245288
 40
6.91333519564994
 40
6.991194817302575
 40
7.07602694228378
 40
7.153886563725298
 40
7.210828674844824
 40
7.232908268931159
 40
7.25819933492368
 40
7.32487578159233
 40
7.419142481924985
 40
7.527204308841928
 40
7.635266135230505
 40
7.729532834168491
 40
7.796209279292813
 40
7.821500344594759
 40
7.844652988850858
 40
7.899863140541665
 40
7.965759128053832
 40
8.020969279771172
 40
8.044121924046639
 40
8.069356610160723
 40
8.109134395441496
 40
8.132238100191207
 40
8.19314786778657
 40
8.279261678876745
 40
8.37797751267396
 40
8.476693347146744
 40
8.562807160411795
 40
8.623716930826582
 40
8.646820636853535
 40
8.671988793774348
 40
8.73490918582826
 40
8.816705695188974
 40
8.898502204815545
 40
8.961422597378006
 40
8.986590754551118
 40
9.012941600733273
 40
9.070913462380359
 40
9.128885324081853
 40
9.155236170325175
 40
9.180404327929217
 40
9.24332472194829
 40
9.325121234212084
 40
9.406917746637738
 40
9.469838141978194
 40
9.495006288270968
 40
9.51781118437911
 40
9.572192090487109
 40
9.63709833328134
 40
9.69147923951554
 40
9.714284125643578
 40
9.714284125643578
 40
9.714284125643578
 40
9.714284125643578
 10
185.2874469028653
 20
15.2688916318772
 30
0.0
 10
185.3090990569037
 20
15.24111869242812
 30
0.0
 10
185.3597257109473
 20
15.17618054561234
 30
0.0
 10
185.4349383202592
 20
15.068910603129
 30
0.0
 10
185.5248482274346
 20
14.95377438266627
 30
0.0
 10
185.5709169676674
 20
14.85357045748322
 30
0.0
 10
185.6655825294654
 20
14.78434006814943
 30
0.0
 10
185.6204439320412
 20
14.73771639678274
 30
0.0
 10
185.5947047785789
 20
14.6966030886604
 30
0.0
 10
185.5645196708012
 20
14.6606597172794
 30
0.0
 10
185.519368473056
 20
14.58579782596096
 30
0.0
 10
185.4710504458562
 20
14.80782524253603
 30
0.0
 10
185.3968539713073
 20
14.84510677337714
 30
0.0
 10
185.2836047324607
 20
15.11610202130603
 30
0.0
 10
185.2885133578169
 20
15.00095328446229
 30
0.0
 10
185.2868486556306
 20
14.92836675781628
 30
0.0
 10
185.2876830076713
 20
14.80625588483987
 30
0.0
 10
185.2873609540265
 20
14.65913800810462
 30
0.0
 10
185.2875076912455
 20
14.49307063956558
 30
0.0
 10
185.2872950092723
 20
14.32187554608603
 30
0.0
 10
185.2879497252034
 20
14.15552828635499
 30
0.0
 10
185.2859192461139
 20
14.00935173055694
 30
0.0
 10
185.291346039993
 20
13.88471047474611
 30
0.0
 10
185.2804930868708
 20
13.81718656540628
 30
0.0
 10
185.2956739155554
 20
13.75549061417023
 30
0.0
 10
185.2457895108133
 20
13.76727503897004
 30
0.0
 10
185.2017150342522
 20
13.7594382277997
 30
0.0
 10
185.1582371630199
 20
13.76760441372704
 30
0.0
 10
185.1092346786488
 20
13.75538056738469
 30
0.0
 10
185.1218731234824
 20
13.80960667249314
 30
0.0
 10
185.1130182968449
 20
13.86936918907559
 30
0.0
 10
185.1175058770312
 20
13.9792202904437
 30
0.0
 10
185.115796013599
 20
14.1102997540568
 30
0.0
 10
185.1163550915985
 20
14.26198011444329
 30
0.0
 10
185.1161928768692
 20
14.42211074929954
 30
0.0
 10
185.1162269924674
 20
14.58236865674567
 30
0.0
 10
185.1162514960125
 20
14.7337024752044
 30
0.0
 10
185.1161453543224
 20
14.86582156338601
 30
0.0
 10
185.116429914193
 20
14.97294802533195
 30
0.0
 10
185.1158675547566
 20
15.03808619579474
 30
0.0
 10
185.1180765083687
 20
15.16618957858676
 30
0.0
 10
185.0319435998601
 20
14.79097610391577
 30
0.0
 10
184.95551408185
 20
14.63918193123395
 30
0.0
 10
184.8660040767833
 20
14.47766206446306
 30
0.0
 10
184.7640413217327
 20
14.20471848820173
 30
0.0
 10
184.7187976491038
 20
14.36717346596512
 30
0.0
 10
184.6102355941671
 20
14.45605432058121
 30
0.0
 10
184.7995791751753
 20
14.6054979496141
 30
0.0
 10
184.85653405457
 20
14.79749136974926
 30
0.0
 10
184.9717520993352
 20
15.02899622906759
 30
0.0
 10
184.9940151630132
 20
15.21797259759064
 30
0.0
 10
185.177190515214
 20
15.49454089325931
 30
0.0
 10
185.0538033597552
 20
15.48698978832095
 30
0.0
 10
184.9925684166834
 20
15.48856772366119
 30
0.0
 10
184.9081999617064
 20
15.48882592573673
 30
0.0
 10
184.8204235085966
 20
15.48544845751206
 30
0.0
 10
184.7656768696122
 20
15.49394814982021
 30
0.0
 10
184.7104703026025
 20
15.48048561049789
 30
0.0
 10
184.7222823035536
 20
15.52931442126765
 30
0.0
 10
184.7142496151794
 20
15.57269004896709
 30
0.0
 10
184.7228186104679
 20
15.61509438309575
 30
0.0
 10
184.7102943409156
 20
15.66267796552118
 30
0.0
 10
184.7555101538735
 20
15.6526721299511
 30
0.0
 10
184.8014815562723
 20
15.65894105174061
 30
0.0
 10
184.877722204771
 20
15.65593561405874
 30
0.0
 10
184.9561296131993
 20
15.65770448278542
 30
0.0
 10
185.0323992648932
 20
15.65464793981661
 30
0.0
 10
185.0783009459473
 20
15.66103971376178
 30
0.0
 10
185.1231733965399
 20
15.65093822978897
 30
0.0
 10
185.1105552275633
 20
15.701572015819
 30
0.0
 10
185.1191936582705
 20
15.75501261882071
 30
0.0
 10
185.1152361595441
 20
15.84863255131681
 30
0.0
 10
185.1162325068333
 20
15.95112606688925
 30
0.0
 10
185.1171927413072
 20
16.05353270248165
 30
0.0
 10
185.1133211458004
 20
16.14735929609321
 30
0.0
 10
185.1217789814363
 20
16.20036542840354
 30
0.0
 10
185.1093075932834
 20
16.2521143565119
 30
0.0
 10
185.1542106389849
 20
16.23850747226757
 30
0.0
 10
185.1955083836771
 20
16.24100480320587
 30
0.0
 10
185.259534428105
 20
16.23648060574488
 30
0.0
 10
185.2986111148786
 20
16.22781003043309
 30
0.0
 10
185.3476543498742
 20
16.23515102070687
 30
0.0
 10
185.3225080030591
 20
16.19602896051761
 30
0.0
 10
185.2815901333723
 20
16.20563842455809
 30
0.0
 10
185.2910109616604
 20
16.1554014816978
 30
0.0
 10
185.2855647318746
 20
16.10385945639491
 30
0.0
 10
185.2881699601804
 20
16.01959707584522
 30
0.0
 10
185.2870102202154
 20
15.92559135583409
 30
0.0
 10
185.2883591064231
 20
15.83196865395527
 30
0.0
 10
185.2849970101509
 20
15.74679517552224
 30
0.0
 10
185.2920959917769
 20
15.69716856072045
 30
0.0
 10
185.2812569154545
 20
15.6499369496999
 30
0.0
 10
185.3304010225245
 20
15.66201674936852
 30
0.0
 10
185.3794877630146
 20
15.65447393363012
 30
0.0
 10
185.4573714280641
 20
15.65686070361433
 30
0.0
 10
185.5350365172896
 20
15.65899381905416
 30
0.0
 10
185.5845393931355
 20
15.65193391922456
 30
0.0
 10
185.6344594750639
 20
15.66360151936215
 30
0.0
 10
185.6223198516881
 20
15.61540235371394
 30
0.0
 10
185.6305838229143
 20
15.57249219801236
 30
0.0
 10
185.6223198650783
 20
15.52958201851386
 30
0.0
 10
185.6344594549855
 20
15.48138288754865
 30
0.0
 10
185.5845395158746
 20
15.49305034471511
 30
0.0
 10
185.5350350651203
 20
15.48599202435046
 30
0.0
 10
185.4573784382972
 20
15.48811665228604
 30
0.0
 10
185.379464386576
 20
15.49053389365761
 30
0.0
 10
185.3304500352715
 20
15.48291848194486
 30
0.0
 10
185.2813246108943
 20
15.49507952557594
 30
0.0
 10
185.291555998857
 20
15.45073013424158
 30
0.0
 10
185.2856677678054
 20
15.40925436202913
 30
0.0
 10
185.2878788305569
 20
15.34915394315304
 30
0.0
 10
185.2874109346146
 20
15.3022578276289
 30
0.0
 10
185.2874386992913
 20
15.27650146418197
 30
0.0
 10
185.2874469028653
 20
15.2688916318772
 30
0.0
 11
185.2874469028653
 21
15.2688916318772
 31
0.0
 11
185.3516977534484
 21
15.18524999634257
 31
0.0
 11
185.4348258835499
 21
15.07118889748222
 31
0.0
 11
185.5216831568896
 21
14.94891767195725
 31
0.0
 11
185.5971214371872
 21
14.84064565642877
 31
0.0
 11
185.6459925881626
 21
14.76858218755791
 31
0.0
 11
185.6296821285093
 21
14.746417821244
 31
0.0
 11
185.5937991172719
 21
14.6976562153534
 31
0.0
 11
185.5579161060346
 21
14.64889460946281
 31
0.0
 11
185.5416056463812
 21
14.6267302431489
 31
0.0
 11
185.4763067109445
 21
14.74716139023814
 31
0.0
 11
185.3848434243234
 21
14.89966983670208
 31
0.0
 11
185.2874469028653
 21
15.05219788193143
 31
0.0
 11
185.2874469028653
 21
15.02216445328254
 31
0.0
 11
185.2874469028653
 21
14.93981472956784
 31
0.0
 11
185.2874469028653
 21
14.81677455413529
 31
0.0
 11
185.2874469028653
 21
14.66466977033284
 31
0.0
 11
185.2874469028653
 21
14.49512622150846
 31
0.0
 11
185.2874469028653
 21
14.3197697510101
 31
0.0
 11
185.2874469028653
 21
14.15022620218572
 31
0.0
 11
185.2874469028653
 21
13.99812141838327
 31
0.0
 11
185.2874469028653
 21
13.87508124295072
 31
0.0
 11
185.2874469028653
 21
13.79273151923602
 31
0.0
 11
185.2874469028653
 21
13.76269809058713
 31
0.0
 11
185.2606936700409
 21
13.76269809058713
 31
0.0
 11
185.2018365578271
 21
13.76269809058713
 31
0.0
 11
185.1429794456133
 21
13.76269809058713
 31
0.0
 11
185.1162262127889
 21
13.76269809058713
 31
0.0
 11
185.1162262127889
 21
13.78864805031251
 31
0.0
 11
185.1162262127889
 21
13.86039205661208
 31
0.0
 11
185.1162262127889
 21
13.96877130017102
 31
0.0
 11
185.1162262127889
 21
14.10462697167448
 31
0.0
 11
185.1162262127889
 21
14.25880026180762
 31
0.0
 11
185.1162262127889
 21
14.4221323612556
 31
0.0
 11
185.1162262127889
 21
14.58546446070357
 31
0.0
 11
185.1162262127889
 21
14.73963775083671
 31
0.0
 11
185.1162262127889
 21
14.87549342234016
 31
0.0
 11
185.1162262127889
 21
14.9838726658991
 31
0.0
 11
185.1162262127889
 21
15.05561667219868
 31
0.0
 11
185.1162262127889
 21
15.08156663192406
 31
0.0
 11
185.0379865861721
 21
14.84965603302373
 31
0.0
 11
184.9497110789303
 21
14.63077616328679
 31
0.0
 11
184.8544106930045
 21
14.43598991333548
 31
0.0
 11
184.7550964303356
 21
14.27636017379203
 31
0.0
 11
184.7109198342406
 21
14.358224461966
 31
0.0
 11
184.658805738348
 21
14.43414885430812
 31
0.0
 11
184.7627302590299
 21
14.59640087926758
 31
0.0
 11
184.8629319864735
 21
14.79551465421782
 31
0.0
 11
184.9550446607901
 21
15.01890447916198
 31
0.0
 11
185.0347020220912
 21
15.25398465410321
 31
0.0
 11
185.097537810488
 21
15.48816947904466
 31
0.0
 11
185.0693965972142
 21
15.48816947904466
 31
0.0
 11
184.9990435640297
 21
15.48816947904466
 31
0.0
 11
184.9075846208898
 21
15.48816947904466
 31
0.0
 11
184.8161256777499
 21
15.48816947904466
 31
0.0
 11
184.7457726445654
 21
15.48816947904466
 31
0.0
 11
184.7176314312916
 21
15.48816947904466
 31
0.0
 11
184.7176314312916
 21
15.51452032539224
 31
0.0
 11
184.7176314312916
 21
15.57249218735689
 31
0.0
 11
184.7176314312916
 21
15.63046404932156
 31
0.0
 11
184.7176314312916
 21
15.65681489566913
 31
0.0
 11
184.7397110256019
 21
15.65681489566913
 31
0.0
 11
184.7966531372444
 21
15.65681489566913
 31
0.0
 11
184.8745127592862
 21
15.65681489566913
 31
0.0
 11
184.9593448847943
 21
15.65681489566913
 31
0.0
 11
185.0372045068361
 21
15.65681489566913
 31
0.0
 11
185.0941466184785
 21
15.65681489566913
 31
0.0
 11
185.1162262127889
 21
15.65681489566913
 31
0.0
 11
185.1162262127889
 21
15.68210596174354
 31
0.0
 11
185.1162262127889
 21
15.74878240866698
 31
0.0
 11
185.1162262127889
 21
15.84304910948978
 31
0.0
 11
185.1162262127889
 21
15.95111093726225
 31
0.0
 11
185.1162262127889
 21
16.05917276503472
 31
0.0
 11
185.1162262127889
 21
16.15343946585752
 31
0.0
 11
185.1162262127889
 21
16.22011591278096
 31
0.0
 11
185.1162262127889
 21
16.24540697885537
 31
0.0
 11
185.1393181988664
 21
16.24373213107801
 31
0.0
 11
185.1943837041284
 21
16.23973826330123
 31
0.0
 11
185.2601070491183
 21
16.23497138885797
 31
0.0
 11
185.3151725543802
 21
16.23097752108118
 31
0.0
 11
185.3382645404578
 21
16.22930267330382
 31
0.0
 11
185.3249012644362
 21
16.20789677921193
 31
0.0
 11
185.2874469028653
 21
16.1945011455347
 31
0.0
 11
185.2874469028653
 21
16.17139743948579
 31
0.0
 11
185.2874469028653
 21
16.11048766899321
 31
0.0
 11
185.2874469028653
 21
16.02437385553817
 31
0.0
 11
185.2874469028653
 21
15.92565802060192
 31
0.0
 11
185.2874469028653
 21
15.82694218566566
 31
0.0
 11
185.2874469028653
 21
15.74082837221063
 31
0.0
 11
185.2874469028653
 21
15.67991860171804
 31
0.0
 11
185.2874469028653
 21
15.65681489566913
 31
0.0
 11
185.3126150604809
 21
15.65681489566913
 31
0.0
 11
185.3755354545199
 21
15.65681489566913
 31
0.0
 11
185.4573319667706
 21
15.65681489566913
 31
0.0
 11
185.5391284790212
 21
15.65681489566913
 31
0.0
 11
185.6020488730602
 21
15.65681489566913
 31
0.0
 11
185.6272170306758
 21
15.65681489566913
 31
0.0
 11
185.6272170306758
 21
15.63046404932156
 31
0.0
 11
185.6272170306758
 21
15.57249218735689
 31
0.0
 11
185.6272170306758
 21
15.51452032539223
 31
0.0
 11
185.6272170306758
 21
15.48816947904466
 31
0.0
 11
185.6020488730602
 21
15.48816947904466
 31
0.0
 11
185.5391284790212
 21
15.48816947904466
 31
0.0
 11
185.4573319667705
 21
15.48816947904466
 31
0.0
 11
185.3755354545199
 21
15.48816947904466
 31
0.0
 11
185.3126150604809
 21
15.48816947904466
 31
0.0
 11
185.2874469028653
 21
15.48816947904466
 31
0.0
 11
185.2874469028653
 21
15.46536458293924
 31
0.0
 11
185.2874469028653
 21
15.41098367684171
 31
0.0
 11
185.2874469028653
 21
15.34607743408014
 31
0.0
 11
185.2874469028653
 21
15.29169652798262
 31
0.0
 11
185.2874469028653
 21
15.2688916318772
 31
0.0
  0
SPLINE
  5
B3
102
{ACAD_REACTORS
330
D0
102
}
330
48
100
AcDbEntity
  8
_U_30EC_U_30A4_U_30E4_U_30FC_1
  6
Continuous
 62
     2
100
AcDbSpline
210
0.0
220
0.0
230
1.0
 70
    11
 71
     3
 72
    47
 73
    43
 74
    41
 42
0.000000001
 43
0.0000000001
 44
0.00000001
 40
0.0
 40
0.0
 40
0.0
 40
0.0
 40
0.2207912809957266
 40
0.4459404186303186
 40
0.4902387190459973
 40
0.5327473892722081
 40
0.5742260451226252
 40
0.6155432630561828
 40
0.6568164066316744
 40
0.6982511618781668
 40
0.7407663929318177
 40
0.7851366743176248
 40
1.01028883383643
 40
1.231080507002288
 40
1.451765243652512
 40
1.676638205891803
 40
1.720461045359773
 40
1.830018144043638
 40
1.972442372353269
 40
2.114866600677638
 40
2.224423699395263
 40
2.268246538883504
 40
2.493628801207334
 40
2.715602830286724
 40
2.934211330706486
 40
3.149502369855484
 40
3.231387784851129
 40
3.318231873854164
 40
3.405143198198152
 40
3.486970301720673
 40
3.702258172494125
 40
3.920866283534359
 40
4.14283932593214
 40
4.3682219038656
 40
4.41204474336008
 40
4.521601842096096
 40
4.664026070452576
 40
4.806450298809286
 40
4.916007397546978
 40
4.9598302370433
 40
5.184703515847336
 40
5.40538725076771
 40
5.40538725076771
 40
5.40538725076771
 40
5.40538725076771
 10
182.6507427258645
 20
15.73406440953873
 30
0.0
 10
182.6568139420002
 20
15.79758482501212
 30
0.0
 10
182.6690762107243
 20
15.92587938689629
 30
0.0
 10
182.5604706879411
 20
16.2016622017408
 30
0.0
 10
182.6761985896603
 20
16.17188133432056
 30
0.0
 10
182.7171842509015
 20
16.16765556262821
 30
0.0
 10
182.7591205797518
 20
16.16310446389609
 30
0.0
 10
182.800419662571
 20
16.16201982929487
 30
0.0
 10
182.8417032115555
 20
16.16310338195228
 30
0.0
 10
182.8836148270647
 20
16.16766112711345
 30
0.0
 10
182.9245983549019
 20
16.17187430209729
 30
0.0
 10
183.0404922843489
 20
16.20177611317537
 30
0.0
 10
182.9295652727456
 20
15.9233980660989
 30
0.0
 10
182.9574856365266
 20
15.74283140824954
 30
0.0
 10
182.9404267346969
 20
15.50961042346473
 30
0.0
 10
182.9414637282101
 20
15.34906622543146
 30
0.0
 10
182.9414099399404
 20
15.22284817558723
 30
0.0
 10
182.9414277372479
 20
15.12428963336242
 30
0.0
 10
182.9414188581079
 20
14.99280702442964
 30
0.0
 10
182.9414263928033
 20
14.8613284496865
 30
0.0
 10
182.9414129405128
 20
14.76276222694091
 30
0.0
 10
182.9414531717491
 20
14.63639735624153
 30
0.0
 10
182.9406746403817
 20
14.47482068822871
 30
0.0
 10
182.9565958319265
 20
14.24361821892915
 30
0.0
 10
182.9333468885408
 20
14.05874351972004
 30
0.0
 10
183.0360183444366
 20
13.78935602770056
 30
0.0
 10
182.8820238362836
 20
13.82660112685817
 30
0.0
 10
182.8004129802833
 20
13.82137994680535
 30
0.0
 10
182.7188192292582
 20
13.82660620378351
 30
0.0
 10
182.5648513666842
 20
13.78937069885385
 30
0.0
 10
182.6674183421917
 20
14.0587512986288
 30
0.0
 10
182.6442045316088
 20
14.24361585325416
 30
0.0
 10
182.6600444655139
 20
14.47482218565639
 30
0.0
 10
182.6593296313426
 20
14.63639712308504
 30
0.0
 10
182.6593664569907
 20
14.76276231210521
 30
0.0
 10
182.659354900027
 20
14.86132756635982
 30
0.0
 10
182.6593575019214
 20
14.99281127417221
 30
0.0
 10
182.6593648531779
 20
15.124275480312
 30
0.0
 10
182.6593442541351
 20
15.22287786275327
 30
0.0
 10
182.6594082192028
 20
15.34896149354428
 30
0.0
 10
182.6581733947591
 20
15.51210091383773
 30
0.0
 10
182.6532040396745
 20
15.66054183777551
 30
0.0
 10
182.6507427258645
 20
15.73406440953873
 30
0.0
 11
182.6507427258645
 21
15.73406440953873
 31
0.0
 11
182.6417328200379
 21
15.95467178795579
 31
0.0
 11
182.6318769706145
 21
16.17960510387181
 31
0.0
 11
182.6756985840801
 21
16.1731239146373
 31
0.0
 11
182.7178400934214
 21
16.16754892331926
 31
0.0
 11
182.759137140979
 21
16.16367167505632
 31
0.0
 11
182.8004341885365
 21
16.16238072887609
 31
0.0
 11
182.841687138873
 21
16.16367167505632
 31
0.0
 11
182.8829400892097
 21
16.16754892331926
 31
0.0
 11
182.9250882131343
 21
16.1731239146373
 31
0.0
 11
182.9689825870145
 21
16.17960510387181
 31
0.0
 11
182.9590577693891
 21
15.95467178795579
 31
0.0
 11
182.9500384208309
 21
15.73406440953873
 31
0.0
 11
182.9435638463434
 21
15.51347467001056
 31
0.0
 11
182.9414218238285
 21
15.28861190965008
 31
0.0
 11
182.9414218238285
 21
15.24478907015487
 31
0.0
 11
182.9414218238285
 21
15.13523197141683
 31
0.0
 11
182.9414218238285
 21
14.99280774305738
 31
0.0
 11
182.9414218238285
 21
14.85038351469793
 31
0.0
 11
182.9414218238285
 21
14.74082641595989
 31
0.0
 11
182.9414218238285
 21
14.69700357646468
 31
0.0
 11
182.9435638463434
 21
14.47163149318767
 31
0.0
 11
182.9500384208309
 21
14.24975190990982
 31
0.0
 11
182.9590577693891
 21
14.03132954885331
 31
0.0
 11
182.9689825870145
 21
13.81626739612928
 31
0.0
 11
182.887261616877
 21
13.82145433189186
 31
0.0
 11
182.8004341885365
 21
13.82315538223863
 31
0.0
 11
182.7135395119339
 21
13.82145433189186
 31
0.0
 11
182.6318769706145
 21
13.81626739612928
 31
0.0
 11
182.6417328200379
 21
14.03132954885331
 31
0.0
 11
182.6507427258645
 21
14.24975190990982
 31
0.0
 11
182.6571833838798
 21
14.47163149318767
 31
0.0
 11
182.6593583588023
 21
14.69700357646468
 31
0.0
 11
182.6593583588023
 21
14.74082641595989
 31
0.0
 11
182.6593583588023
 21
14.85038351469793
 31
0.0
 11
182.6593583588023
 21
14.99280774305738
 31
0.0
 11
182.6593583588023
 21
15.13523197141683
 31
0.0
 11
182.6593583588023
 21
15.24478907015487
 31
0.0
 11
182.6593583588023
 21
15.28861190965008
 31
0.0
 11
182.6571833838798
 21
15.51347467001055
 31
0.0
 11
182.6507427258645
 21
15.73406440953873
 31
0.0
  0
SPLINE
  5
B4
102
{ACAD_REACTORS
330
D1
102
}
330
48
100
AcDbEntity
  8
_U_30EC_U_30A4_U_30E4_U_30FC_1
  6
Continuous
 62
     2
100
AcDbSpline
210
0.0
220
0.0
230
1.0
 70
    11
 71
     3
 72
   110
 73
   106
 74
   104
 42
0.000000001
 43
0.0000000001
 44
0.00000001
 40
0.0
 40
0.0
 40
0.0
 40
0.0
 40
0.2203406257277649
 40
0.4407808782838109
 40
0.5952494494615089
 40
0.7488431659393093
 40
0.9023581831309077
 40
1.056801968670406
 40
1.210736449099906
 40
1.363041386539785
 40
1.515315729683128
 40
1.669377239148079
 40
1.721611652756566
 40
1.77319950294296
 40
1.82493379321001
 40
1.877110426487992
 40
1.982682281206755
 40
2.078781667087564
 40
2.172809640822285
 40
2.27193780737894
 40
2.378349933379333
 40
2.494131557736521
 40
2.626681683943655
 40
2.783145050796082
 40
2.890701232940942
 40
2.99313031245484
 40
3.099869730691817
 40
3.220237816691311
 40
3.352695482737601
 40
3.481732806389852
 40
3.593499473690378
 40
3.674323013331898
 40
3.817951711952791
 40
3.946167120793846
 40
4.061405053453503
 40
4.166480796003172
 40
4.262478775059209
 40
4.350736673551081
 40
4.433071991254023
 40
4.511216293814653
 40
4.564262454117979
 40
4.618474415571599
 40
4.67012848875419
 40
4.722296879126382
 40
4.81954094531425
 40
4.931194984128107
 40
5.049996040257748
 40
5.168643755415294
 40
5.283970811762506
 40
5.392260784910417
 40
5.486512254876435
 40
5.559178233949805
 40
5.591425852853476
 40
5.62621596963786
 40
5.667155838674402
 40
5.717449290214213
 40
5.738402360944828
 40
5.784499116553792
 40
5.830595872164763
 40
5.85154894289762
 40
5.873019280661734
 40
5.924217778408278
 40
5.985325662817657
 40
6.03652416056767
 40
6.0579944983342
 40
6.236847789607453
 40
6.381409928945624
 40
6.493190424178654
 40
6.574067534230453
 40
6.691018086205519
 40
6.814881554220351
 40
6.944307823240417
 40
7.071266716066041
 40
7.193488604461885
 40
7.309042773128113
 40
7.414007203170738
 40
7.505140441886495
 40
7.53115036059967
 40
7.55922164532226
 40
7.587202218920917
 40
7.612569159499131
 40
7.662550809481011
 40
7.702878875764147
 40
7.857328205230989
 40
8.010799568088691
 40
8.165256399657613
 40
8.322232698713895
 40
8.479564855016582
 40
8.635216230290785
 40
8.790882550925703
 40
8.948305154947269
 40
9.168271839032963
 40
9.38735898098723
 40
9.608047961033474
 40
9.832914234792673
 40
9.858338694963008
 40
9.925366817230016
 40
10.0201307142276
 40
10.12876249858999
 40
10.23739428295249
 40
10.33215817995191
 40
10.39918630222394
 40
10.42461076239783
 40
10.64992019336943
 40
10.87188524531189
 40
10.87188524531189
 40
10.87188524531189
 40
10.87188524531189
 10
179.9057788376618
 20
15.73923260398192
 30
0.0
 10
179.909286493354
 20
15.80616462073805
 30
0.0
 10
179.9163033987662
 20
15.9400589191586
 30
0.0
 10
179.8198027599072
 20
16.22548554971472
 30
0.0
 10
180.0510134726108
 20
16.16284386190284
 30
0.0
 10
180.1919290057156
 20
16.17001554055992
 30
0.0
 10
180.3490417757588
 20
16.16235883078246
 30
0.0
 10
180.5025913427287
 20
16.16252752283043
 30
0.0
 10
180.6545104935081
 20
16.16182040535433
 30
0.0
 10
180.8142214813232
 20
16.17210158351641
 30
0.0
 10
180.9408972601117
 20
16.15496511080752
 30
0.0
 10
181.1370821122081
 20
16.22727260107148
 30
0.0
 10
181.1034395279078
 20
16.12640699080119
 30
0.0
 10
181.1052011317184
 20
16.07619253947671
 30
0.0
 10
181.1027342073458
 20
16.02712335586467
 30
0.0
 10
181.1347076966011
 20
15.94063490846999
 30
0.0
 10
181.0010399903256
 20
15.98997438608337
 30
0.0
 10
180.9172208688056
 20
15.98430634314169
 30
0.0
 10
180.8173861139324
 20
15.99465516706299
 30
0.0
 10
180.7186576720145
 20
16.00086450411088
 30
0.0
 10
180.612153277111
 20
16.00697763816779
 30
0.0
 10
180.491051169806
 20
16.01588883484588
 30
0.0
 10
180.3703381502453
 20
16.00521605912384
 30
0.0
 10
180.1812553843437
 20
16.06468503080368
 30
0.0
 10
180.2129028505311
 20
15.9055832007754
 30
0.0
 10
180.1995563316834
 20
15.80839128339905
 30
0.0
 10
180.197495842645
 20
15.69634065110103
 30
0.0
 10
180.195818804467
 20
15.57699685629352
 30
0.0
 10
180.1973336794233
 20
15.45032592155111
 30
0.0
 10
180.195658247867
 20
15.32301588016118
 30
0.0
 10
180.2058844271658
 20
15.22451566404466
 30
0.0
 10
180.1779006596582
 20
15.08388702625633
 30
0.0
 10
180.3508029999306
 20
15.13989551134096
 30
0.0
 10
180.4645020202771
 20
15.12719951478499
 30
0.0
 10
180.5840151672239
 20
15.13448377051256
 30
0.0
 10
180.6888491425071
 20
15.13878017056756
 30
0.0
 10
180.7843084898611
 20
15.14330568258977
 30
0.0
 10
180.8763823507031
 20
15.15149201146203
 30
0.0
 10
180.9476551782438
 20
15.14643850638111
 30
0.0
 10
181.0544931705685
 20
15.18536425031676
 30
0.0
 10
181.0226603598036
 20
15.10517122005881
 30
0.0
 10
181.0266164503929
 20
15.05562936846034
 30
0.0
 10
181.0234502392013
 20
15.0055747803982
 30
0.0
 10
181.0550791490585
 20
14.92128847612025
 30
0.0
 10
180.9210133677691
 20
14.97425365495158
 30
0.0
 10
180.82923227932
 20
14.96540080890442
 30
0.0
 10
180.7079729189603
 20
14.97570049965155
 30
0.0
 10
180.5914113119771
 20
14.97748911767503
 30
0.0
 10
180.4783375745879
 20
14.97787017109695
 30
0.0
 10
180.367924630847
 20
14.98415449472181
 30
0.0
 10
180.2898124067841
 20
14.97189133255365
 30
0.0
 10
180.1913625833643
 20
15.00453887616126
 30
0.0
 10
180.2012355173562
 20
14.94769748054207
 30
0.0
 10
180.1973923244402
 20
14.91392130557984
 30
0.0
 10
180.1966789884268
 20
14.87119604709411
 30
0.0
 10
180.1963369642975
 20
14.83401607262153
 30
0.0
 10
180.1963834255345
 20
14.79487237370771
 30
0.0
 10
180.1963649429927
 20
14.75716849497686
 30
0.0
 10
180.1963703431806
 20
14.71944955232403
 30
0.0
 10
180.1963697214201
 20
14.68994324745151
 30
0.0
 10
180.1963698151545
 20
14.65873577699302
 30
0.0
 10
180.1963704287921
 20
14.61414424908086
 30
0.0
 10
180.1963671499336
 20
14.55963956508852
 30
0.0
 10
180.196375962348
 20
14.51505540201448
 30
0.0
 10
180.1963359653418
 20
14.43117808585743
 30
0.0
 10
180.1976024270255
 20
14.31737520677678
 30
0.0
 10
180.1950274117842
 20
14.1683039593371
 30
0.0
 10
180.206500938172
 20
14.06597203813907
 30
0.0
 10
180.1823506222263
 20
13.93338903885837
 30
0.0
 10
180.3332993946476
 20
13.97895732272022
 30
0.0
 10
180.4428436671555
 20
13.96427012162351
 30
0.0
 10
180.573397047392
 20
13.96920435125065
 30
0.0
 10
180.6990312209513
 20
13.97257705323362
 30
0.0
 10
180.8188730625601
 20
13.97711497498773
 30
0.0
 10
180.9391362611426
 20
13.99048536182007
 30
0.0
 10
181.0222761663515
 20
13.98068712782597
 30
0.0
 10
181.1456080421074
 20
14.0412621462332
 30
0.0
 10
181.1244269203956
 20
13.98532460134022
 30
0.0
 10
181.1235950270115
 20
13.95939249372347
 30
0.0
 10
181.1218963707558
 20
13.9319725619094
 30
0.0
 10
181.1217974888828
 20
13.89738195206386
 30
0.0
 10
181.120365930133
 20
13.86050408220768
 30
0.0
 10
181.153280419219
 20
13.76846841021807
 30
0.0
 10
180.9551306988107
 20
13.84132015974833
 30
0.0
 10
180.8300548294889
 20
13.81825726508606
 30
0.0
 10
180.6673071295156
 20
13.82454021985787
 30
0.0
 10
180.5129366450001
 20
13.82260943909926
 30
0.0
 10
180.3566670436944
 20
13.82393762599269
 30
0.0
 10
180.1970544465282
 20
13.82059872487863
 30
0.0
 10
180.0540326342236
 20
13.83265795728241
 30
0.0
 10
179.8197144881628
 20
13.76952001976919
 30
0.0
 10
179.9173810751197
 20
14.05620527466319
 30
0.0
 10
179.9006868780059
 20
14.24988308142661
 30
0.0
 10
179.9146296709683
 20
14.47848242880296
 30
0.0
 10
179.9142987846632
 20
14.63384593955049
 30
0.0
 10
179.9143078119263
 20
14.73966336444127
 30
0.0
 10
179.9143055876316
 20
14.80205784124215
 30
0.0
 10
179.9143065551889
 20
14.89220425248328
 30
0.0
 10
179.9143065473261
 20
14.99621167157439
 30
0.0
 10
179.9143053861102
 20
15.10022131375298
 30
0.0
 10
179.9143090971502
 20
15.19036243688768
 30
0.0
 10
179.9143011051052
 20
15.25276803097216
 30
0.0
 10
179.9143334275017
 20
15.35868835961119
 30
0.0
 10
179.9131440788319
 20
15.51626716544741
 30
0.0
 10
179.9082216489256
 20
15.66528219822067
 30
0.0
 10
179.9057788376618
 20
15.73923260398192
 30
0.0
 11
179.9057788376618
 21
15.73923260398192
 31
0.0
 11
179.896691822374
 21
15.95938578101019
 31
0.0
 11
179.8868249573133
 21
16.17960510387181
 31
0.0
 11
180.04115751414
 21
16.1731239146373
 31
0.0
 11
180.1946500189046
 21
16.16754892331926
 31
0.0
 11
180.3481160653366
 21
16.16367167505632
 31
0.0
 11
180.5025544554939
 21
16.16238072887609
 31
0.0
 11
180.6564835227473
 21
16.16367167505632
 31
0.0
 11
180.80873910046
 21
16.16754892331926
 31
0.0
 11
180.9609113551074
 21
16.1731239146373
 31
0.0
 11
181.1148364762483
 21
16.17960510387181
 31
0.0
 11
181.1070811703123
 21
16.1279496177736
 31
0.0
 11
181.1044991623591
 21
16.07642642334205
 31
0.0
 11
181.1070811703123
 21
16.02475660564661
 31
0.0
 11
181.1148364762483
 21
15.97315954836785
 31
0.0
 11
181.0094874054411
 21
15.98001446156058
 31
0.0
 11
180.913637570006
 21
15.98693552058658
 31
0.0
 11
180.8198593171903
 21
15.993783819196
 31
0.0
 11
180.7209679915881
 21
16.00063211780541
 31
0.0
 11
180.6147532199924
 21
16.00710999974825
 31
0.0
 11
180.4991060528038
 21
16.01268829835796
 31
0.0
 11
180.3666126447258
 21
16.01656554662089
 31
0.0
 11
180.2101546018423
 21
16.01785649280113
 31
0.0
 11
180.2062663293721
 21
15.91037061609187
 31
0.0
 11
180.20153800484
 21
15.80805072896465
 31
0.0
 11
180.1976607566749
 21
15.70138175329688
 31
0.0
 11
180.1963698105272
 21
15.58102059013251
 31
0.0
 11
180.1967799146836
 21
15.44856355891566
 31
0.0
 11
180.1980896021502
 21
15.31953288186456
 31
0.0
 11
180.1994074577049
 21
15.2077739843231
 31
0.0
 11
180.199819115366
 21
15.12695149302385
 31
0.0
 11
180.3434452935874
 21
15.12780256941251
 31
0.0
 11
180.4716343930758
 21
15.13039989580078
 31
0.0
 11
180.5868078221795
 21
15.13425509545255
 31
0.0
 11
180.691775631222
 21
15.13901649302077
 31
0.0
 11
180.7876346289421
 21
15.14418027774176
 31
0.0
 11
180.8757413374192
 21
15.14934406246269
 31
0.0
 11
180.9578881438496
 21
15.1549124391974
 31
0.0
 11
181.0357692335571
 21
15.16132086801525
 31
0.0
 11
181.0280180445185
 21
15.10884407115337
 31
0.0
 11
181.0254328449317
 21
15.05469378470858
 31
0.0
 11
181.0280180445186
 21
15.00310444444368
 31
0.0
 11
181.0357692335571
 21
14.95151510417884
 31
0.0
 11
180.9389813454014
 21
14.96092324653758
 31
0.0
 11
180.8275950722015
 21
14.96865128473013
 31
0.0
 11
180.7089261429373
 21
14.97425273438146
 31
0.0
 11
180.5903167449213
 21
14.97726788195012
 31
0.0
 11
180.4750025117521
 21
14.97898767361639
 31
0.0
 11
180.3667261950699
 21
14.98070746528258
 31
0.0
 11
180.2724839317708
 21
14.98202486979618
 31
0.0
 11
180.199819115366
 21
14.9824360763933
 31
0.0
 11
180.199407457705
 21
14.95019108508192
 31
0.0
 11
180.1980896021502
 21
14.91542593752118
 31
0.0
 11
180.1967799146836
 21
14.87450702260085
 31
0.0
 11
180.1963698105272
 21
14.82421524309952
 31
0.0
 11
180.1963698105272
 21
14.80326217235822
 31
0.0
 11
180.1963698105272
 21
14.75716541672737
 31
0.0
 11
180.1963698105272
 21
14.71106866109652
 31
0.0
 11
180.1963698105272
 21
14.69011559035522
 31
0.0
 11
180.1963698105272
 21
14.66864525258281
 31
0.0
 11
180.1963698105272
 21
14.61744675481784
 31
0.0
 11
180.1963698105272
 21
14.55633887038868
 31
0.0
 11
180.1963698105272
 21
14.50514037262372
 31
0.0
 11
180.1963698105272
 21
14.48367003485131
 31
0.0
 11
180.1967799146836
 21
14.30481721371548
 31
0.0
 11
180.1980896021502
 21
14.16026100715443
 31
0.0
 11
180.2002868589709
 21
14.0485021096129
 31
0.0
 11
180.2032586986985
 21
13.96767961831367
 31
0.0
 11
180.3202092517447
 21
13.96767961831367
 31
0.0
 11
180.4440727208745
 21
13.96767961831367
 31
0.0
 11
180.5734925526422
 21
13.96897056449391
 31
0.0
 11
180.7003922282244
 21
13.97284781275683
 31
0.0
 11
180.8224658067973
 21
13.97886708358866
 31
0.0
 11
180.9377587499463
 21
13.98663260442004
 31
0.0
 11
181.0421754573518
 21
13.99734161483403
 31
0.0
 11
181.1320599255448
 21
14.01237656274694
 31
0.0
 11
181.126425403119
 21
13.98698427976716
 31
0.0
 11
181.1234433285422
 21
13.95907184053803
 31
0.0
 11
181.1221339881199
 21
13.93112191867003
 31
0.0
 11
181.1217235369194
 21
13.90575829888473
 31
0.0
 11
181.1243087365064
 21
13.85584355063327
 31
0.0
 11
181.1320599255448
 21
13.81626739612928
 31
0.0
 11
180.9776977178344
 21
13.82145433189186
 31
0.0
 11
180.8242357818764
 21
13.82315538223863
 31
0.0
 11
180.6697789496482
 21
13.82315538223863
 31
0.0
 11
180.5128026496768
 21
13.82315538223863
 31
0.0
 11
180.3554704921536
 21
13.82315538223863
 31
0.0
 11
180.199819115366
 21
13.82315538223863
 31
0.0
 11
180.0441620874241
 21
13.82145433189186
 31
0.0
 11
179.8868249573133
 21
13.81626739612928
 31
0.0
 11
179.896691822374
 21
14.03601267385211
 31
0.0
 11
179.9057788376618
 21
14.25491128490852
 31
0.0
 11
179.91217215184
 21
14.47550763902004
 31
0.0
 11
179.9143063455009
 21
14.70036378479716
 31
0.0
 11
179.9143063455009
 21
14.72578824496875
 31
0.0
 11
179.9143063455009
 21
14.79281636723932
 31
0.0
 11
179.9143063455009
 21
14.88758026424254
 31
0.0
 11
179.9143063455009
 21
14.99621204861208
 31
0.0
 11
179.9143063455009
 21
15.10484383298163
 31
0.0
 11
179.9143063455009
 21
15.19960772998485
 31
0.0
 11
179.9143063455009
 21
15.26663585225541
 31
0.0
 11
179.9143063455009
 21
15.29206031242701
 31
0.0
 11
179.91217215184
 21
15.51735963528736
 31
0.0
 11
179.9057788376618
 21
15.73923260398192
 31
0.0
  0
SPLINE
  5
B5
102
{ACAD_REACTORS
330
D2
102
}
330
48
100
AcDbEntity
  8
_U_30EC_U_30A4_U_30E4_U_30FC_1
  6
Continuous
 62
     2
100
AcDbSpline
210
0.0
220
0.0
230
1.0
 70
    11
 71
     3
 72
    95
 73
    91
 74
    89
 42
0.000000001
 43
0.0000000001
 44
0.00000001
 40
0.0
 40
0.0
 40
0.0
 40
0.0
 40
0.6550406656911197
 40
1.308087289031881
 40
1.420803739835751
 40
1.566130759770754
 40
1.757067341888414
 40
2.006513545026414
 40
2.087328263121509
 40
2.185328872295586
 40
2.294612454748326
 40
2.408936380534768
 40
2.526802767798519
 40
2.646360524615566
 40
2.762535723971544
 40
2.870057342870115
 40
2.9668834484316
 40
3.050803243518251
 40
3.115818222436564
 40
3.156030057150203
 40
3.213914225080133
 40
3.276689026450505
 40
3.342960320981282
 40
3.404230667150531
 40
3.453822809493341
 40
3.532499827188396
 40
3.634775188507133
 40
3.75490933300813
 40
3.889736761660627
 40
4.035769602175197
 40
4.187256681197585
 40
4.338733685675927
 40
4.48847873467609
 40
4.634708317831557
 40
4.771493189921244
 40
4.892686571561181
 40
5.199775528944422
 40
5.460353566929607
 40
5.667603142345487
 40
5.814722905404463
 40
5.828990806219761
 40
5.855488336304458
 40
5.86975623711879
 40
6.189796507762795
 40
6.531890469872981
 40
6.883053637016975
 40
7.230512024911389
 40
7.566966656764552
 40
7.885203559707322
 40
8.17288743971914
 40
8.418011594062737
 40
8.443926721190659
 40
8.510760470613148
 40
8.60214539379566
 40
8.7017140416471
 40
8.793098965075334
 40
8.85993271505791
 40
8.885847842603559
 40
9.242301256612764
 40
9.589275455016718
 40
9.921808543164122
 40
10.23479624298464
 40
10.29968150889175
 40
10.35323493887754
 40
10.40154625355142
 40
10.46482922477823
 40
10.55973900668405
 40
10.69239545985618
 40
10.84920353475671
 40
11.0162632859478
 40
11.18672024367443
 40
11.3537258257721
 40
11.50257442292426
 40
11.6186649502329
 40
11.71329869152874
 40
11.82511050573907
 40
11.94464880845716
 40
12.06929242642507
 40
12.19707290435176
 40
12.32562632860528
 40
12.45034565331279
 40
12.56646595170327
 40
12.67099007414635
 40
12.76077625936782
 40
12.82703233506694
 40
12.87429132785993
 40
12.89831990323332
 40
12.9223484786002
 40
13.5398476741032
 40
14.18294284359371
 40
14.18294284359371
 40
14.18294284359371
 40
14.18294284359371
 10
177.306793564802
 20
14.70898038201725
 30
0.0
 10
177.1752019758549
 20
14.82265058603233
 30
0.0
 10
176.9124193802729
 20
15.0496449631616
 30
0.0
 10
176.399739344102
 20
15.89214462956288
 30
0.0
 10
176.4106654595363
 20
15.53423377577021
 30
0.0
 10
176.404122652799
 20
15.39267392272134
 30
0.0
 10
176.4028026631772
 20
15.19421305299282
 30
0.0
 10
176.401811760254
 20
15.02150296045984
 30
0.0
 10
176.4024101751973
 20
14.8786537325758
 30
0.0
 10
176.4038994301883
 20
14.78265005413359
 30
0.0
 10
176.4055683588472
 20
14.67545503263142
 30
0.0
 10
176.4071934954617
 20
14.56164211517583
 30
0.0
 10
176.4092429501685
 20
14.44441572604589
 30
0.0
 10
176.4123165501928
 20
14.32656411232971
 30
0.0
 10
176.4156339697042
 20
14.2122808732062
 30
0.0
 10
176.419360534028
 20
14.10521401867278
 30
0.0
 10
176.4217338161423
 20
14.01007408766922
 30
0.0
 10
176.4278718888356
 20
13.92558557205696
 30
0.0
 10
176.4239784495947
 20
13.86923087298143
 30
0.0
 10
176.4455230443077
 20
13.79825022472355
 30
0.0
 10
176.3680940058617
 20
13.82902677604483
 30
0.0
 10
176.3116353240191
 20
13.82011242517615
 30
0.0
 10
176.2540495896806
 20
13.82896218398275
 30
0.0
 10
176.1690163478472
 20
13.79738225225946
 30
0.0
 10
176.2009714146382
 20
13.88095155992191
 30
0.0
 10
176.1990705282539
 20
13.9488260896831
 30
0.0
 10
176.2107960047299
 20
14.05233256764419
 30
0.0
 10
176.2164241053
 20
14.17002125616695
 30
0.0
 10
176.223790217894
 20
14.30388609164425
 30
0.0
 10
176.2320759701611
 20
14.44764152872632
 30
0.0
 10
176.2398851897426
 20
14.59714022843446
 30
0.0
 10
176.2457571222657
 20
14.74792549402079
 30
0.0
 10
176.2503667817969
 20
14.89699943878439
 30
0.0
 10
176.2542632117542
 20
15.04122913163023
 30
0.0
 10
176.2570715126564
 20
15.17583905213018
 30
0.0
 10
176.2576698755022
 20
15.36469614347356
 30
0.0
 10
176.2616023867149
 20
15.58975494313154
 30
0.0
 10
176.2442175378499
 20
15.86367091125709
 30
0.0
 10
176.2850417342581
 20
16.02787112098595
 30
0.0
 10
176.1995153256004
 20
16.227496614651
 30
0.0
 10
176.2660558907687
 20
16.22385458403978
 30
0.0
 10
176.283872427323
 20
16.22413447160855
 30
0.0
 10
176.4056801797502
 20
16.22632927398613
 30
0.0
 10
176.5080770335463
 20
15.94675118721516
 30
0.0
 10
176.7580021509355
 20
15.74563008536002
 30
0.0
 10
176.987003533111
 20
15.47792614987921
 30
0.0
 10
177.2245151213108
 20
15.2264641386237
 30
0.0
 10
177.4486090740772
 20
14.98969974061366
 30
0.0
 10
177.6750716283008
 20
14.73218692583077
 30
0.0
 10
177.8325687886514
 20
14.61649335056922
 30
0.0
 10
178.0472129612673
 20
14.27997152538792
 30
0.0
 10
178.0422645974619
 20
14.40464754091605
 30
0.0
 10
178.0433931602546
 20
14.46327691935738
 30
0.0
 10
178.0428877841517
 20
14.55043662371978
 30
0.0
 10
178.0430475158113
 20
14.64416143182874
 30
0.0
 10
178.0430054891318
 20
14.73018971297036
 30
0.0
 10
178.0430202040373
 20
14.79153891945498
 30
0.0
 10
178.0429706255982
 20
14.94135231520993
 30
0.0
 10
178.0458811522811
 20
15.17989612510106
 30
0.0
 10
178.0259521041161
 20
15.54486509868702
 30
0.0
 10
178.0750433936247
 20
15.80799631993413
 30
0.0
 10
177.917795150918
 20
16.21928904947755
 30
0.0
 10
178.0762112872421
 20
16.16398282551751
 30
0.0
 10
178.1311680478628
 20
16.16199686500177
 30
0.0
 10
178.1827887766739
 20
16.16264778248254
 30
0.0
 10
178.2713198965366
 20
16.20369527738249
 30
0.0
 10
178.2204898303167
 20
16.05696326622988
 30
0.0
 10
178.2313389930283
 20
15.95019971954434
 30
0.0
 10
178.2166036994848
 20
15.79085705414113
 30
0.0
 10
178.2099976446204
 20
15.62853061652875
 30
0.0
 10
178.2014961399914
 20
15.45992521892397
 30
0.0
 10
178.1943227202199
 20
15.29814814703542
 30
0.0
 10
178.1889063215388
 20
15.15422331457933
 30
0.0
 10
178.1871713967648
 20
15.03437493466927
 30
0.0
 10
178.1875440672318
 20
14.92686101590516
 30
0.0
 10
178.1873656126263
 20
14.81820024645587
 30
0.0
 10
178.1877010863139
 20
14.69953570165531
 30
0.0
 10
178.1890040622184
 20
14.57555163512741
 30
0.0
 10
178.1908887351574
 20
14.44858294171106
 30
0.0
 10
178.1925004454849
 20
14.32153861551032
 30
0.0
 10
178.1941403137429
 20
14.19854884492178
 30
0.0
 10
178.1962570745752
 20
14.0830093138376
 30
0.0
 10
178.1963848422364
 20
13.98090903955838
 30
0.0
 10
178.2006514396553
 20
13.89009848838157
 30
0.0
 10
178.1908440085289
 20
13.83213621208787
 30
0.0
 10
178.2118474771689
 20
13.7651713013203
 30
0.0
 10
178.1725639739897
 20
13.77291153966689
 30
0.0
 10
177.9595307117741
 20
13.75755254145193
 30
0.0
 10
177.7636297943189
 20
14.31403058094475
 30
0.0
 10
177.4611197631543
 20
14.57556035348511
 30
0.0
 10
177.306793564802
 20
14.70898038201725
 30
0.0
 11
177.306793564802
 21
14.70898038201725
 31
0.0
 11
176.859552933851
 21
15.18757635411979
 31
0.0
 11
176.4124049070643
 21
15.66352649288971
 31
0.0
 11
176.4089664262494
 21
15.55086249986233
 31
0.0
 11
176.4055610183499
 21
15.40557538184311
 31
0.0
 11
176.4029636920274
 21
15.21465645827969
 31
0.0
 11
176.4021126156603
 21
14.96521170139758
 31
0.0
 11
176.4025239230289
 21
14.88439802954281
 31
0.0
 11
176.4038420329817
 21
14.78640628477562
 31
0.0
 11
176.4055192267718
 21
14.6771355729974
 31
0.0
 11
176.4072367127517
 21
14.5628245487204
 31
0.0
 11
176.4094007838772
 21
14.44497802965266
 31
0.0
 11
176.4124049070643
 21
14.325458021002
 31
0.0
 11
176.4158359733138
 21
14.20933349846156
 31
0.0
 11
176.4192928929998
 21
14.1018674655023
 31
0.0
 11
176.4227085253087
 21
14.00510162351265
 31
0.0
 11
176.4261896983792
 21
13.92125406276973
 31
0.0
 11
176.4296006184313
 21
13.85632862007761
 31
0.0
 11
176.4330776843148
 21
13.81626739612928
 31
0.0
 11
176.3754263821571
 21
13.82145433189186
 31
0.0
 11
176.3126746318309
 21
13.82315538223863
 31
0.0
 11
176.2464251717157
 21
13.82145433189186
 31
0.0
 11
176.1853747739675
 21
13.81626739612928
 31
0.0
 11
176.1926772737812
 21
13.86531894125591
 31
0.0
 11
176.2008793569054
 21
13.94356725720856
 31
0.0
 11
176.2090098822348
 21
14.0455189325303
 31
0.0
 11
176.2163406441397
 21
14.16542920159753
 31
0.0
 11
176.2236358280421
 21
14.3000591234389
 31
0.0
 11
176.2318444255596
 21
14.44586107652746
 31
0.0
 11
176.2395504149465
 21
14.59715203135074
 31
0.0
 11
176.2455763002093
 21
14.74850913200735
 31
0.0
 11
176.2503046247416
 21
14.89817951391436
 31
0.0
 11
176.254192897212
 21
15.04435739582223
 31
0.0
 11
176.2567527408965
 21
15.18111831592697
 31
0.0
 11
176.2576324804574
 21
15.30230850686891
 31
0.0
 11
176.257192610677
 21
15.60939715262545
 31
0.0
 11
176.2559126888347
 21
15.86997204839366
 31
0.0
 11
176.2528658717893
 21
16.07719922716127
 31
0.0
 11
176.2473049112763
 21
16.22421385386063
 31
0.0
 11
176.2615728121469
 21
16.22421385386063
 31
0.0
 11
176.2880703423352
 21
16.22421385386063
 31
0.0
 11
176.3023382432058
 21
16.22421385386063
 31
0.0
 11
176.5194743650277
 21
15.98910179662774
 31
0.0
 11
176.7512744123079
 21
15.73751281231563
 31
0.0
 11
176.9894816018839
 21
15.47949555543571
 31
0.0
 11
177.226007455752
 21
15.2249707985549
 31
0.0
 11
177.4555698717705
 21
14.97899759549139
 31
0.0
 11
177.6731797360102
 21
14.74678934034108
 31
0.0
 11
177.8713724913706
 21
14.53826680567101
 31
0.0
 11
178.0430143099086
 21
14.3632669793259
 31
0.0
 11
178.0430143099086
 21
14.38918210687044
 31
0.0
 11
178.0430143099086
 21
14.45601585685372
 31
0.0
 11
178.0430143099086
 21
14.54740078030026
 31
0.0
 11
178.0430143099086
 21
14.64696942823455
 31
0.0
 11
178.0430143099086
 21
14.73835435168108
 31
0.0
 11
178.0430143099086
 21
14.80518810166437
 31
0.0
 11
178.0430143099086
 21
14.83110322920891
 31
0.0
 11
178.0417233637609
 21
15.18755430550868
 31
0.0
 11
178.0378461155958
 21
15.53450684014416
 31
0.0
 11
178.0296197790002
 21
15.86693815950552
 31
0.0
 11
178.0154535467228
 21
16.17960510387181
 31
0.0
 11
178.0790351249618
 21
16.16666367158336
 31
0.0
 11
178.132417015961
 21
16.16238072887609
 31
0.0
 11
178.1805381084832
 21
16.16666367158336
 31
0.0
 11
178.2424836798197
 21
16.17960510387181
 31
0.0
 11
178.2351216487574
 21
16.08498128445101
 31
0.0
 11
178.2269790968817
 21
15.95257496503965
 31
0.0
 11
178.2183705364004
 21
15.79600336785657
 31
0.0
 11
178.2097547223215
 21
15.62916593734271
 31
0.0
 11
178.2016187850288
 21
15.45890325509361
 31
0.0
 11
178.1942501393835
 21
15.29206031242701
 31
0.0
 11
178.1891406931522
 21
15.14329943572811
 31
0.0
 11
178.1874503478904
 21
15.02722121527103
 31
0.0
 11
178.1874503478904
 21
14.9325874739752
 31
0.0
 11
178.1874503478904
 21
14.82077565976708
 31
0.0
 11
178.1878461204496
 21
14.7012380122275
 31
0.0
 11
178.1890819450708
 21
14.5766005209392
 31
0.0
 11
178.1908392193317
 21
14.44883212687392
 31
0.0
 11
178.1925303477607
 21
14.3202898265588
 31
0.0
 11
178.1942876220214
 21
14.19558288214556
 31
0.0
 11
178.1959787504505
 21
14.0794748960635
 31
0.0
 11
178.1972884379172
 21
13.97495896727018
 31
0.0
 11
178.1976985420735
 21
13.88517371555653
 31
0.0
 11
178.1976985420735
 21
13.81891763918417
 31
0.0
 11
178.1976985420735
 21
13.77165864614042
 31
0.0
 11
178.1736699662976
 21
13.77165864614042
 31
0.0
 11
178.1496413905217
 21
13.77165864614042
 31
0.0
 11
177.7410729200423
 21
14.23466735262191
 31
0.0
 11
177.306793564802
 21
14.70898038201725
 31
0.0
  0
SPLINE
  5
B6
102
{ACAD_REACTORS
330
D3
102
}
330
48
100
AcDbEntity
  8
_U_30EC_U_30A4_U_30E4_U_30FC_1
  6
Continuous
 62
     2
100
AcDbSpline
210
0.0
220
0.0
230
1.0
 70
    11
 71
     3
 72
    25
 73
    21
 74
    19
 42
0.000000001
 43
0.0000000001
 44
0.00000001
 40
0.0
 40
0.0
 40
0.0
 40
0.0
 40
0.0911479969064822
 40
0.1858117896203815
 40
0.2804128399733924
 40
0.3715889190713659
 40
0.4679080494218426
 40
0.5642683809229232
 40
0.6605683222644709
 40
0.756965301581026
 40
0.8561348172522728
 40
1.092615965104278
 40
1.374867658141862
 40
1.611348812011549
 40
1.710518328425207
 40
1.80940316372651
 40
2.045205463294036
 40
2.326646917622095
 40
2.562449217190577
 40
2.661334043833895
 40
2.661334043833895
 40
2.661334043833895
 40
2.661334043833895
 10
173.2683700567199
 20
14.88614538197294
 30
0.0
 10
173.2987525917923
 20
14.88598079714556
 30
0.0
 10
173.3606895889111
 20
14.88564528689923
 30
0.0
 10
173.4541356960329
 20
14.88269055452
 30
0.0
 10
173.5475095236357
 20
14.87977752877152
 30
0.0
 10
173.6417760753475
 20
14.87894201643417
 30
0.0
 10
173.7354964790967
 20
14.87996644658049
 30
0.0
 10
173.8352040303204
 20
14.87916977470972
 30
0.0
 10
173.9188949546312
 20
14.88921410235221
 30
0.0
 10
174.0637996315045
 20
14.86234617674166
 30
0.0
 10
173.9396132444801
 20
15.03665530280049
 30
0.0
 10
173.8965867286283
 20
15.19651711006095
 30
0.0
 10
173.7808922142209
 20
15.45518458550214
 30
0.0
 10
173.7017565431258
 20
15.59231052861862
 30
0.0
 10
173.6431576621816
 20
15.80937033134078
 30
0.0
 10
173.586480393944
 20
15.59266134213428
 30
0.0
 10
173.5052809900477
 20
15.45327012438239
 30
0.0
 10
173.4063701281489
 20
15.20406969370194
 30
0.0
 10
173.3253625094259
 20
15.01925830226076
 30
0.0
 10
173.2813683325838
 20
14.91650446856118
 30
0.0
 10
173.2683700567199
 20
14.88614538197294
 30
0.0
 11
173.2683700567199
 21
14.88614538197294
 31
0.0
 11
173.359513773782
 21
14.88526123266761
 31
0.0
 11
173.454142829758
 21
14.882696979196
 31
0.0
 11
173.5487082179705
 21
14.88009965280779
 31
0.0
 11
173.6398803250195
 21
14.87924857641911
 31
0.0
 11
173.7361985777706
 21
14.87965978301622
 31
0.0
 11
173.8325499034376
 21
14.88097718752972
 31
0.0
 11
173.9288262638286
 21
14.88310818579314
 31
0.0
 11
174.0251753846343
 21
14.88614538197294
 31
0.0
 11
173.9854633323141
 21
14.97701642195022
 31
0.0
 11
173.8907653613968
 21
15.19370890189604
 31
0.0
 11
173.7777387509471
 21
15.45234186183137
 31
0.0
 11
173.6830407800298
 21
15.66903434177718
 31
0.0
 11
173.6433287277096
 21
15.75990538175446
 31
0.0
 11
173.6043330259267
 21
15.66903434177719
 31
0.0
 11
173.5113432755213
 21
15.45234186183137
 31
0.0
 11
173.4003555089083
 21
15.19370890189604
 31
0.0
 11
173.3073657585028
 21
14.97701642195022
 31
0.0
 11
173.2683700567199
 21
14.88614538197294
 31
0.0
  0
SPLINE
  5
B7
102
{ACAD_REACTORS
330
D3
102
}
330
48
100
AcDbEntity
  8
_U_30EC_U_30A4_U_30E4_U_30FC_1
  6
Continuous
 62
     2
100
AcDbSpline
210
0.0
220
0.0
230
1.0
 70
    11
 71
     3
 72
    57
 73
    53
 74
    51
 42
0.000000001
 43
0.0000000001
 44
0.00000001
 40
0.0
 40
0.0
 40
0.0
 40
0.0
 40
0.0471632082809231
 40
0.091486105463215
 40
0.1357762519702386
 40
0.182652700161068
 40
0.2295203288572873
 40
0.2737751972220759
 40
0.3181310461543353
 40
0.3652607198398509
 40
0.4571007286314464
 40
0.5671851029165478
 40
0.6894623283868413
 40
0.8181758272546042
 40
0.9510087229274198
 40
1.085852229674054
 40
1.218126164475311
 40
1.343545131142381
 40
1.454537202956797
 40
1.567187607530807
 40
1.680710966642454
 40
1.79422686973679
 40
1.900009184247617
 40
2.004085860447868
 40
2.108162674451756
 40
2.214000150155301
 40
2.496038577352137
 40
2.762350745479276
 40
2.997275353279406
 40
3.185110082137731
 40
3.246407890063957
 40
3.312607550212773
 40
3.378877742711619
 40
3.440140399651444
 40
4.100501696006464
 40
4.754913085563521
 40
5.411331693423928
 40
6.077890432568708
 40
6.110575292670987
 40
6.143260152775767
 40
6.367989363395138
 40
6.610525374951556
 40
6.863389136467305
 40
7.119380025547559
 40
7.376036605091088
 40
7.631164770966263
 40
7.876722425456419
 40
8.104953735855965
 40
8.312916685924304
 40
8.497730294941308
 40
8.65101898431386
 40
8.764738853624594
 40
8.764738853624594
 40
8.764738853624594
 40
8.764738853624594
 10
174.7922649500513
 20
13.81626739612928
 30
0.0
 10
174.7766616726931
 20
13.81826231079079
 30
0.0
 10
174.7463947960302
 20
13.822132013603
 30
0.0
 10
174.7010994202252
 20
13.82341984967269
 30
0.0
 10
174.6559553129349
 20
13.82308683554052
 30
0.0
 10
174.6099017123399
 20
13.82314658674225
 30
0.0
 10
174.5640496172096
 20
13.82325813650002
 30
0.0
 10
174.5183711648164
 20
13.82277833456591
 30
0.0
 10
174.4750811541608
 20
13.82461109618722
 30
0.0
 10
174.4039947951513
 20
13.80049556814659
 30
0.0
 10
174.4057477261441
 20
13.92184693977254
 30
0.0
 10
174.3586196370568
 20
14.0072623975123
 30
0.0
 10
174.3191478251762
 20
14.12486929345137
 30
0.0
 10
174.2706635532646
 20
14.24232752540442
 30
0.0
 10
174.2201017402521
 20
14.36405935761509
 30
0.0
 10
174.1718634610478
 20
14.49075967862468
 30
0.0
 10
174.1135232947594
 20
14.59933687784952
 30
0.0
 10
174.0980892667262
 20
14.75620657134411
 30
0.0
 10
173.9566586330636
 20
14.72373446548323
 30
0.0
 10
173.8508397414903
 20
14.7351288868218
 30
0.0
 10
173.7358569725222
 20
14.73392591514616
 30
0.0
 10
173.6253142252141
 20
14.73506945347408
 30
0.0
 10
173.5176583522783
 20
14.73418350037527
 30
0.0
 10
173.4121322529242
 20
14.73416602390519
 30
0.0
 10
173.3109192682013
 20
14.72714032472416
 30
0.0
 10
173.1266804827753
 20
14.75135859859868
 30
0.0
 10
173.1157393685411
 20
14.44741691121886
 30
0.0
 10
173.008769163475
 20
14.22353177253398
 30
0.0
 10
172.9098148604347
 20
14.03895314292498
 30
0.0
 10
172.9225090524007
 20
13.79530204804208
 30
0.0
 10
172.8050091716397
 20
13.82508046753198
 30
0.0
 10
172.7422055868309
 20
13.82258089509604
 30
0.0
 10
172.67858720934
 20
13.82344075102806
 30
0.0
 10
172.3946014194071
 20
13.78098039941944
 30
0.0
 10
173.0251638499383
 20
14.50081952444789
 30
0.0
 10
173.108764528907
 20
15.0127653943573
 30
0.0
 10
173.492925278934
 20
15.53353743550045
 30
0.0
 10
173.4777208288563
 20
16.23519626253213
 30
0.0
 10
173.7239265722697
 20
16.22345633081258
 30
0.0
 10
173.8256346157561
 20
16.23225004452773
 30
0.0
 10
173.8249752035817
 20
15.98059650730344
 30
0.0
 10
173.9428317155828
 20
15.79818020733961
 30
0.0
 10
174.0315515260485
 20
15.55563740662869
 30
0.0
 10
174.1322292485257
 20
15.32340030530124
 30
0.0
 10
174.2311142712243
 20
15.08674644566918
 30
0.0
 10
174.3299676990667
 20
14.85461739170091
 30
0.0
 10
174.4256166390926
 20
14.63122222788791
 30
0.0
 10
174.5159904573271
 20
14.42272549049317
 30
0.0
 10
174.5989944568189
 20
14.2330844852932
 30
0.0
 10
174.6726088582799
 20
14.066631060681
 30
0.0
 10
174.7342815895545
 20
13.92917699626098
 30
0.0
 10
174.7749458885604
 20
13.84999239430035
 30
0.0
 10
174.7922649500513
 20
13.81626739612928
 30
0.0
 11
174.7922649500513
 21
13.81626739612928
 31
0.0
 11
174.7453878317448
 21
13.82145433189186
 31
0.0
 11
174.7010975896125
 21
13.82315538223863
 31
0.0
 11
174.6568074431729
 21
13.82315538223863
 31
0.0
 11
174.6099309947159
 21
13.82315538223863
 31
0.0
 11
174.5630633657033
 21
13.82315538223863
 31
0.0
 11
174.5188084970408
 21
13.82315538223863
 31
0.0
 11
174.4744852776853
 21
13.82145433189186
 31
0.0
 11
174.4276419021443
 21
13.81626739612928
 31
0.0
 11
174.3992532136325
 21
13.90360966173245
 31
0.0
 11
174.3622721815897
 21
14.0072965627482
 31
0.0
 11
174.3188386236701
 21
14.12159987001128
 31
0.0
 11
174.2711055866936
 21
14.24113531268971
 31
0.0
 11
174.2208160133236
 21
14.36408057307566
 31
0.0
 11
174.1696467003932
 21
14.48883822929447
 31
0.0
 11
174.1197531801326
 21
14.61134141502773
 31
0.0
 11
174.0733119111841
 21
14.72784517367918
 31
0.0
 11
173.9623611907589
 21
14.73087465284507
 31
0.0
 11
173.8497309225089
 21
14.73300454867791
 31
0.0
 11
173.7362152069449
 21
14.73432195319141
 31
0.0
 11
173.62270004768
 21
14.73473315978853
 31
0.0
 11
173.5169185312815
 21
14.73432195319141
 31
0.0
 11
173.4128501919225
 21
14.73300454867791
 31
0.0
 11
173.3087951724045
 21
14.73087465284507
 31
0.0
 11
173.2030010615596
 21
14.72784517367918
 31
0.0
 11
173.0980914750139
 21
14.46604437513352
 31
0.0
 11
173.0034868690331
 21
14.21710232658461
 31
0.0
 11
172.9252231210298
 21
13.99559756969558
 31
0.0
 11
172.8693431224555
 21
13.81626739612928
 31
0.0
 11
172.8082651639442
 21
13.82145433189186
 31
0.0
 11
172.7420873618129
 21
13.82315538223863
 31
0.0
 11
172.6758390041282
 21
13.82145433189186
 31
0.0
 11
172.6147963233938
 21
13.81626739612928
 31
0.0
 11
172.889968495193
 21
14.41656508695143
 31
0.0
 11
173.158294573417
 21
15.01343642360776
 31
0.0
 11
173.4240277350405
 21
15.61366245644382
 31
0.0
 11
173.6914740737033
 21
16.22421385386063
 31
0.0
 11
173.7241589339806
 21
16.22421385386063
 31
0.0
 11
173.7568437942579
 21
16.22421385386063
 31
0.0
 11
173.8428300681057
 21
16.01658539037085
 31
0.0
 11
173.9357285813609
 21
15.79254614563518
 31
0.0
 11
174.0328714521463
 21
15.55908663180469
 31
0.0
 11
174.131793645803
 21
15.32298128464146
 31
0.0
 11
174.2315341249926
 21
15.08649780379784
 31
0.0
 11
174.3313071129352
 21
14.85168781253711
 31
0.0
 11
174.4280608257448
 21
14.62599492196851
 31
0.0
 11
174.5188084970408
 21
14.4165805209792
 31
0.0
 11
174.6022150834546
 21
14.22607611130461
 31
0.0
 11
174.6770293263377
 21
14.05708232662468
 31
0.0
 11
174.7410729186603
 21
13.91781337700668
 31
0.0
 11
174.7922649500513
 21
13.81626739612928
 31
0.0
  0
SPLINE
  5
B8
102
{ACAD_REACTORS
330
D4
102
}
330
48
100
AcDbEntity
  8
_U_30EC_U_30A4_U_30E4_U_30FC_1
  6
Continuous
 62
     2
100
AcDbSpline
210
0.0
220
0.0
230
1.0
 70
    11
 71
     3
 72
    99
 73
    95
 74
    93
 42
0.000000001
 43
0.0000000001
 44
0.00000001
 40
0.0
 40
0.0
 40
0.0
 40
0.0
 40
0.0796417172272467
 40
0.1621768542356024
 40
0.2486489160957659
 40
0.3404969668524631
 40
0.4381912511164645
 40
0.5434463660244949
 40
0.6518115192847269
 40
0.7530190937886841
 40
0.8492196919725103
 40
0.9419290312998168
 40
1.034249663570041
 40
1.129078600620192
 40
1.226697027573239
 40
1.3272204254217
 40
1.470572134938013
 40
1.595489863371214
 40
1.719934125348397
 40
1.850576620127412
 40
1.989059629987302
 40
2.134139054226924
 40
2.280698007207209
 40
2.424529739039477
 40
2.565929576985847
 40
2.708239260773538
 40
2.861717887443654
 40
3.045168540347368
 40
3.183798301138609
 40
3.314813961455454
 40
3.442083470447303
 40
3.569912708372963
 40
3.702177512509362
 40
3.842307559659526
 40
3.992872223245931
 40
4.15675066221832
 40
4.310981861107542
 40
4.445859909322587
 40
4.57239393613158
 40
4.701656719781973
 40
4.768279086008464
 40
4.835960697898416
 40
4.912788918729354
 40
5.00628520848155
 40
5.026909478751627
 40
5.047533749021191
 40
5.101808031471269
 40
5.162325165538553
 40
5.226919745995874
 40
5.294231806596744
 40
5.364544852554892
 40
5.438319055467938
 40
5.517877651324273
 40
5.607647714861585
 40
5.700449642544432
 40
5.788251142364163
 40
5.872714706039793
 40
5.95516729257531
 40
6.0371923951904
 40
6.120669181469132
 40
6.206848616686372
 40
6.296680855416783
 40
6.44255839287262
 40
6.568190371608312
 40
6.692904567360387
 40
6.824220446557164
 40
6.963121850329401
 40
7.107843738851189
 40
7.253431663907301
 40
7.395187468036722
 40
7.533140753237756
 40
7.670550457175261
 40
7.816236511769255
 40
7.987691657359217
 40
8.142277421969252
 40
8.293662615414988
 40
8.442962460879247
 40
8.591598316185296
 40
8.743678992361763
 40
8.903725323699152
 40
9.0763070088905
 40
9.265578604680556
 40
9.45920379536073
 40
9.617619810273517
 40
9.753609671361879
 40
9.874873300004047
 40
9.95452018497775
 40
10.02416413719242
 40
10.09769764405442
 40
10.18909955924969
 40
10.20974586420131
 40
10.23039218263376
 40
10.30057101881261
 40
10.37632012987542
 40
10.37632012987542
 40
10.37632012987542
 40
10.37632012987542
 10
170.1465954835851
 20
14.13795663215995
 30
0.0
 10
170.1632217851219
 20
14.11720608845314
 30
0.0
 10
170.1970784206577
 20
14.07495111711902
 30
0.0
 10
170.2599822541036
 20
14.02029811392073
 30
0.0
 10
170.3332500940393
 20
13.97299025121052
 30
0.0
 10
170.4175969238636
 20
13.93527231437935
 30
0.0
 10
170.5132240615459
 20
13.91040619731952
 30
0.0
 10
170.6171853775346
 20
13.90309559345939
 30
0.0
 10
170.7224020220405
 20
13.91142322794054
 30
0.0
 10
170.8206626371334
 20
13.9414917965153
 30
0.0
 10
170.9058986427548
 20
13.98848822971877
 30
0.0
 10
170.9779220206102
 20
14.04952991250858
 30
0.0
 10
171.0350917709096
 20
14.12412969578584
 30
0.0
 10
171.0767868747439
 20
14.21002464660175
 30
0.0
 10
171.1026952846292
 20
14.30485850432212
 30
0.0
 10
171.1118037332653
 20
14.41854979038368
 30
0.0
 10
171.0986864796487
 20
14.54332587770779
 30
0.0
 10
171.0325330334414
 20
14.66014719171893
 30
0.0
 10
170.9369370919568
 20
14.74512539577374
 30
0.0
 10
170.8249681022369
 20
14.81416684459162
 30
0.0
 10
170.6993659583269
 20
14.87204142045891
 30
0.0
 10
170.5656691620856
 20
14.92373723284343
 30
0.0
 10
170.4313122818831
 20
14.97899092397182
 30
0.0
 10
170.3051983986877
 20
15.0493977064165
 30
0.0
 10
170.1926579987535
 20
15.13785540731251
 30
0.0
 10
170.0969963064457
 20
15.24981067868473
 30
0.0
 10
170.0334157151826
 20
15.39949910101384
 30
0.0
 10
170.0200706505015
 20
15.55932794385143
 30
0.0
 10
170.0320510987448
 20
15.71048405306846
 30
0.0
 10
170.071229892884
 20
15.83809244591539
 30
0.0
 10
170.135498775091
 20
15.95080874030846
 30
0.0
 10
170.223820499974
 20
16.04648609268687
 30
0.0
 10
170.3338091207627
 20
16.12354214985754
 30
0.0
 10
170.4632284401265
 20
16.18151396936278
 30
0.0
 10
170.6111838967794
 20
16.21739177588823
 30
0.0
 10
170.7682069455487
 20
16.22746719050565
 30
0.0
 10
170.917494046643
 20
16.21863637762591
 30
0.0
 10
171.059625361417
 20
16.19074899340353
 30
0.0
 10
171.1595922609625
 20
16.13413314701139
 30
0.0
 10
171.3125074736184
 20
16.08674602105508
 30
0.0
 10
171.2455131717168
 20
16.00197553001186
 30
0.0
 10
171.2296479120268
 20
15.93438901873484
 30
0.0
 10
171.1978750531296
 20
15.86926092793192
 30
0.0
 10
171.2150202209572
 20
15.76723453256955
 30
0.0
 10
171.1666427208231
 20
15.77493211681902
 30
0.0
 10
171.1315789440766
 20
15.76806771724808
 30
0.0
 10
171.1296697985718
 20
15.83263831158196
 30
0.0
 10
171.0985692931989
 20
15.87825639621396
 30
0.0
 10
171.0664551628455
 20
15.93561036628456
 30
0.0
 10
171.0208038475169
 20
15.9854046269256
 30
0.0
 10
170.9658508218386
 20
16.02994813718995
 30
0.0
 10
170.9010841173007
 20
16.06763988836551
 30
0.0
 10
170.8232377310597
 20
16.09283375791353
 30
0.0
 10
170.7355160553352
 20
16.09931230998111
 30
0.0
 10
170.6452903277807
 20
16.09235709285608
 30
0.0
 10
170.5594594694064
 20
16.06909190460922
 30
0.0
 10
170.4828343638596
 20
16.03131644107546
 30
0.0
 10
170.4165265636201
 20
15.98051641089575
 30
0.0
 10
170.3622560536964
 20
15.91731143407211
 30
0.0
 10
170.3224925345459
 20
15.84276455710368
 30
0.0
 10
170.2976775510588
 20
15.75917313997765
 30
0.0
 10
170.2892124262869
 20
15.65192948382286
 30
0.0
 10
170.3019697987104
 20
15.5296545726756
 30
0.0
 10
170.3681548409273
 20
15.41149724291212
 30
0.0
 10
170.4640977399832
 20
15.32606325709528
 30
0.0
 10
170.5757914963183
 20
15.25583362306724
 30
0.0
 10
170.7010863668702
 20
15.19659162305305
 30
0.0
 10
170.8349823941447
 20
15.14616708086133
 30
0.0
 10
170.968993033315
 20
15.09322516984383
 30
0.0
 10
171.0950885316915
 20
15.02750170625177
 30
0.0
 10
171.2076216638417
 20
14.9448035253732
 30
0.0
 10
171.3031370284233
 20
14.83996006310077
 30
0.0
 10
171.3672706486961
 20
14.69937117251569
 30
0.0
 10
171.3811103725278
 20
14.54065409451593
 30
0.0
 10
171.3673954712228
 20
14.38153155217878
 30
0.0
 10
171.3244739153985
 20
14.23483828819209
 30
0.0
 10
171.2545906329065
 20
14.10119796587142
 30
0.0
 10
171.1574592213829
 20
13.98532387699292
 30
0.0
 10
171.0347806023657
 20
13.89089981770089
 30
0.0
 10
170.8874408413167
 20
13.82179270651981
 30
0.0
 10
170.7177132497125
 20
13.77953210858854
 30
0.0
 10
170.5317404979596
 20
13.76781736230408
 30
0.0
 10
170.3528955926183
 20
13.77809486683438
 30
0.0
 10
170.1881733753743
 20
13.81966573769154
 30
0.0
 10
170.0834410841056
 20
13.88797642883942
 30
0.0
 10
169.9350960790366
 20
13.93675219032107
 30
0.0
 10
169.9980378194729
 20
14.02976591290842
 30
0.0
 10
170.007227443006
 20
14.10296536248281
 30
0.0
 10
170.0303711301231
 20
14.16936294501346
 30
0.0
 10
170.0034588335317
 20
14.26974809527582
 30
0.0
 10
170.0521338956339
 20
14.26234033517379
 30
0.0
 10
170.0916530580697
 20
14.26894063620896
 30
0.0
 10
170.0996204944702
 20
14.19078703218933
 30
0.0
 10
170.1305436967922
 20
14.15600927375857
 30
0.0
 10
170.1465954835851
 20
14.13795663215995
 30
0.0
 11
170.1465954835851
 21
14.13795663215995
 31
0.0
 11
170.1982038075864
 21
14.07729869814737
 31
0.0
 11
170.2601105501335
 21
14.02271295163321
 31
0.0
 11
170.3327764009802
 21
13.97583980928384
 31
0.0
 11
170.4166468655843
 21
13.93839906276538
 31
0.0
 11
170.511221073241
 21
13.91390636311879
 31
0.0
 11
170.6161603327165
 21
13.90575829888473
 31
0.0
 11
170.7240739497552
 21
13.91564048638224
 31
0.0
 11
170.8208419941616
 21
13.94528704887483
 31
0.0
 11
170.9050776083319
 21
13.99175118948819
 31
0.0
 11
170.9756144207686
 21
14.05191413218151
 31
0.0
 11
171.031944210998
 21
14.12505819466321
 31
0.0
 11
171.0736690016003
 21
14.21021434047523
 31
0.0
 11
171.0994680808032
 21
14.30436190989614
 31
0.0
 11
171.1080824729446
 21
14.40451552098221
 31
0.0
 11
171.0878517703357
 21
14.54643250879398
 31
0.0
 11
171.0272522666731
 21
14.65566684036388
 31
0.0
 11
170.9364971286285
 21
14.74081306430096
 31
0.0
 11
170.826010188474
 21
14.81052746532517
 31
0.0
 11
170.7008523531254
 21
14.86979854169923
 31
0.0
 11
170.5662951950998
 21
14.92404253474122
 31
0.0
 11
170.4316884277007
 21
14.98201274306005
 31
0.0
 11
170.3065802017258
 21
15.05297399304233
 31
0.0
 11
170.196027609828
 21
15.14113315968696
 31
0.0
 11
170.1053381235265
 21
15.25080295132618
 31
0.0
 11
170.0447055469484
 21
15.39179720476316
 31
0.0
 11
170.0245079172553
 21
15.57413260402315
 31
0.0
 11
170.0374030471347
 21
15.71216131926643
 31
0.0
 11
170.0761016659391
 21
15.8373312845129
 31
0.0
 11
170.1393141731506
 21
15.94779262129084
 31
0.0
 11
170.2257499954545
 21
16.04196885390622
 31
0.0
 11
170.3336492808962
 21
16.11846540770652
 31
0.0
 11
170.4613526283328
 21
16.17615670109488
 31
0.0
 11
170.6075393259923
 21
16.21220066809974
 31
0.0
 11
170.770976856545
 21
16.22421385386063
 31
0.0
 11
170.9248918431289
 21
16.21434269066865
 31
0.0
 11
171.0564887242607
 21
16.18477329831498
 31
0.0
 11
171.172563634494
 21
16.13439993895253
 31
0.0
 11
171.2800792741122
 21
16.06264163167879
 31
0.0
 11
171.2516994050444
 21
16.00236624106888
 31
0.0
 11
171.2284855254283
 21
15.93879017337648
 31
0.0
 11
171.20783810408
 21
15.8647884199227
 31
0.0
 11
171.1871840681487
 21
15.77360197897328
 31
0.0
 11
171.1665597978415
 21
15.77360197897328
 31
0.0
 11
171.1459355275343
 21
15.77360197897328
 31
0.0
 11
171.1256706495791
 21
15.82395108486348
 31
0.0
 11
171.0994658759421
 21
15.8785004511693
 31
0.0
 11
171.0650468924451
 21
15.93316116296116
 31
0.0
 11
171.0203554612937
 21
15.98349593725412
 31
0.0
 11
170.9657333359511
 21
16.0277717532153
 31
0.0
 11
170.9016722004326
 21
16.06436142334502
 31
0.0
 11
170.825968296114
 21
16.08882545979728
 31
0.0
 11
170.7365722046449
 21
16.09701100667023
 31
0.0
 11
170.6440937174207
 21
16.08926973931102
 31
0.0
 11
170.5594072091645
 21
16.06609003445567
 31
0.0
 11
170.483702448884
 21
16.0286349563401
 31
0.0
 11
170.4183754766516
 21
15.97832774281103
 31
0.0
 11
170.3650487887664
 21
15.91600293379881
 31
0.0
 11
170.3254809233901
 21
15.84249947895608
 31
0.0
 11
170.3009523754711
 21
15.75988443557392
 31
0.0
 11
170.2927954104108
 21
15.67042329844354
 31
0.0
 11
170.3130095765617
 21
15.52595308146574
 31
0.0
 11
170.373625616682
 21
15.41591177072937
 31
0.0
 11
170.4643479320758
 21
15.33033670130632
 31
0.0
 11
170.5748676948813
 21
15.25941954854626
 31
0.0
 11
170.7000089937719
 21
15.1991430555058
 31
0.0
 11
170.8345826882553
 21
15.14590447913022
 31
0.0
 11
170.9691729191968
 21
15.09039489581075
 31
0.0
 11
171.0942976816297
 21
15.02377281249411
 31
0.0
 11
171.204800907977
 21
14.9411886371675
 31
0.0
 11
171.2955397598288
 21
14.83800003476273
 31
0.0
 11
171.3561557999488
 21
14.70552315979585
 31
0.0
 11
171.3763699660997
 21
14.5352637848384
 31
0.0
 11
171.3621839747997
 21
14.38133030397413
 31
0.0
 11
171.3196087009193
 21
14.23605531269098
 31
0.0
 11
171.2499752884265
 21
14.10398854189069
 31
0.0
 11
171.1544992078713
 21
13.99007218775248
 31
0.0
 11
171.0341060772624
 21
13.89715272597019
 31
0.0
 11
170.8896160201846
 21
13.82832357668181
 31
0.0
 11
170.7223519532713
 21
13.78581275203968
 31
0.0
 11
170.5336103348226
 21
13.77165864614042
 31
0.0
 11
170.3405031726387
 21
13.78581275203968
 31
0.0
 11
170.1878975900911
 21
13.82832357668181
 31
0.0
 11
170.0661897942203
 21
13.88899033013891
 31
0.0
 11
169.9660261826363
 21
13.95734322942738
 31
0.0
 11
169.9922320587039
 21
14.03255545163077
 31
0.0
 11
170.0090121537618
 21
14.10014767383613
 31
0.0
 11
170.0206196447852
 21
14.17275926235963
 31
0.0
 11
170.0313606254139
 21
14.2635278821286
 31
0.0
 11
170.0520069443315
 21
14.2635278821286
 31
0.0
 11
170.0726532632492
 21
14.2635278821286
 31
0.0
 11
170.1048916391629
 21
14.20119204881085
 31
0.0
 11
170.1465954835851
 21
14.13795663215995
 31
0.0
  0
LWPOLYLINE
  5
B9
102
{ACAD_REACTORS
330
C6
102
}
330
48
100
AcDbEntity
  8
_U_30EC_U_30A4_U_30E4_U_30FC_1
  6
Continuous
 62
     2
100
AcDbPolyline
 90
        5
 70
     1
 43
0.0
 10
192.4578138032671
 20
15.39722336795626
 10
192.4578138032671
 20
15.22875434022058
 10
191.1602971697031
 20
15.22875434022058
 10
191.1602971697031
 20
15.39722336795626
 10
192.4578138032671
 20
15.39722336795626
  0
MTEXT
  5
BB
330
48
100
AcDbEntity
  8
1
 62
     2
100
AcDbMText
 10
32.5
 20
282.0000000000003
 30
0.0
 40
5.0
 41
0.0
 71
     5
 72
     1
  1
図番
  7
CONVERTER_11
 73
     1
 44
0.45454545454545
  0
MTEXT
  5
BC
330
48
100
AcDbEntity
  8
1
 62
     2
100
AcDbMText
 10
29.0
 20
34.00000000000001
 30
0.0
 40
3.5
 41
0.0
 71
     5
 72
     1
  1
備考
  7
CONVERTER_11
 73
     1
 44
0.45454545454545
  0
MTEXT
  5
BD
330
48
100
AcDbEntity
  8
1
 62
     2
100
AcDbMText
 10
29.0
 20
22.75000000000001
 30
0.0
 40
3.5
 41
0.0
 71
     5
 72
     1
  1
品名
  7
CONVERTER_11
 73
     1
 44
0.72727272727273
  0
MTEXT
  5
BE
330
48
100
AcDbEntity
  8
1
 62
     2
100
AcDbMText
 10
29.0
 20
14.25000000000001
 30
0.0
 40
3.5
 41
0.0
 71
     5
 72
     1
  1
品番
  7
CONVERTER_11
 73
     1
 44
0.72727272727273
  0
MTEXT
  5
BF
330
48
100
AcDbEntity
  8
1
 62
     2
100
AcDbMText
 10
101.5
 20
25.00000000000003
 30
0.0
 40
3.0
 41
0.0
 71
     5
 72
     1
  1
承認
  7
CONVERTER_11
 73
     1
 44
0.59090909090909
  0
MTEXT
  5
C0
330
48
100
AcDbEntity
  8
1
 62
     2
100
AcDbMText
 10
174.9999999999999
 20
23.50000000000003
 30
0.0
 40
3.5
 41
0.0
 71
     5
 72
     1
  1
第三角法
  7
CONVERTER_11
 73
     1
 44
0.54545454545455
  0
MTEXT
  5
C1
330
48
100
AcDbEntity
  8
1
 62
     2
100
AcDbMText
 10
118.5
 20
25.00000000000003
 30
0.0
 40
3.0
 41
0.0
 71
     5
 72
     1
  1
検図
  7
CONVERTER_11
 73
     1
 44
0.59090909090909
  0
MTEXT
  5
C2
330
48
100
AcDbEntity
  8
1
 62
     2
100
AcDbMText
 10
152.5
 20
25.00000000000003
 30
0.0
 40
3.0
 41
0.0
 71
     5
 72
     1
  1
設計
  7
CONVERTER_11
 73
     1
 44
0.59090909090909
  0
MTEXT
  5
C3
330
48
100
AcDbEntity
  8
1
 62
     2
100
AcDbMText
 10
135.5
 20
25.00000000000003
 30
0.0
 40
3.0
 41
0.0
 71
     5
 72
     1
  1
製図
  7
CONVERTER_11
 73
     1
 44
0.59090909090909
  0
MTEXT
  5
C4
330
48
100
AcDbEntity
  8
1
 62
     2
100
AcDbMText
 10
89.49999999999997
 20
24.00000000000003
 30
0.0
 40
3.5
 41
0.0
 71
     5
 72
     1
  1
尺度
  7
CONVERTER_11
 73
     1
 44
0.54545454545455
  0
MTEXT
  5
C5
330
48
100
AcDbEntity
  8
1
 62
   250
100
AcDbMText
 10
25.0
 20
5.00000000000001
 30
0.0
 40
3.5
 41
0.0
 71
     4
 72
     1
  1
備考欄の文字列 原点位置=4
  7
CONVERTER_11
 73
     1
 44
0.54545454545455
  0
HATCH
  5
C6
330
48
100
AcDbEntity
  8
1
  6
Continuous
 62
     2
100
AcDbHatch
 10
0.0
 20
0.0
 30
0.0
210
0.0
220
0.0
230
1.0
  2
CUSTOM0
 70
     0
 71
     1
 91
        1
 92
        1
 93
        4
 72
     1
 10
192.4578138032671
 20
15.39722336795626
 11
192.4578138032671
 21
15.22875434022058
 72
     1
 10
192.4578138032671
 20
15.22875434022058
 11
191.1602971697031
 21
15.22875434022058
 72
     1
 10
191.1602971697031
 20
15.22875434022058
 11
191.1602971697031
 21
15.39722336795626
 72
     1
 10
191.1602971697031
 20
15.39722336795626
 11
192.4578138032671
 21
15.39722336795626
 97
        1
330
B9
 75
     1
 76
     2
 52
45.0
 41
0.1
 77
     0
 78
     1
 53
45.0
 43
0.0
 44
0.0
 45
-0.282842712474619
 46
0.0
 79
     0
 98
        1
 10
0.0
 20
0.0
  0
HATCH
  5
C7
330
48
100
AcDbEntity
  8
1
  6
Continuous
 62
     2
100
AcDbHatch
 10
0.0
 20
0.0
 30
0.0
210
0.0
220
0.0
230
1.0
  2
CUSTOM1
 70
     0
 71
     1
 91
        1
 92
        1
 93
        3
 72
     4
 94
        3
 73
     0
 74
     0
 95
       24
 96
       20
 40
0.0
 40
0.0
 40
0.0
 40
0.0
 40
0.2211075008753968
 40
0.4273218586245324
 40
0.5080174679239343
 40
0.5914835907870216
 40
0.8143265690192716
 40
1.054651302686584
 40
1.295452694023173
 40
1.518109231328828
 40
1.540864321905443
 40
1.595126460622704
 40
1.659890947896017
 40
1.714153085187374
 40
1.736908174961675
 40
1.764951100735367
 40
1.801562291220956
 40
1.953914424543634
 40
2.126104167379719
 40
2.126104167379719
 40
2.126104167379719
 40
2.126104167379719
 10
185.9375369556889
 20
15.58989295113017
 10
185.9112579081811
 20
15.53097628234375
 10
185.8604698894425
 20
15.4171113967926
 10
185.8131784839111
 20
15.14441958233116
 10
185.7043482802618
 20
15.24445482575456
 10
185.5514800279637
 20
15.27118593367331
 10
185.7686155181198
 20
15.48518135017633
 10
185.7838483674381
 20
15.70332117782488
 10
185.8906889492
 20
15.88451579066427
 10
185.8305380947078
 20
16.16913226311401
 10
185.9334317395402
 20
16.14114089222452
 10
185.9779933468149
 20
16.132432516023
 10
186.0380842395397
 20
16.12139654183357
 10
186.0756619587437
 20
16.10767523055561
 10
186.1252466928607
 20
16.10756076160225
 10
186.0930158919325
 20
16.07306592398625
 10
186.0171802221882
 20
16.08404104537967
 10
186.0429447159693
 20
15.8985896958245
 10
186.005589676385
 20
15.8070231354959
 10
185.9857704961609
 20
15.75844135397706
 72
     4
 94
        3
 73
     0
 74
     0
 95
       70
 96
       66
 40
0.0
 40
0.0
 40
0.0
 40
0.0
 40
0.0241731073021472
 40
0.0846058988987013
 40
0.1631685280353284
 40
0.2417311571789756
 40
0.3021639488292751
 40
0.3263370654895541
 40
0.3533118254248899
 40
0.4228783438922111
 40
0.5179999095313402
 40
0.6216398239466102
 40
0.7167613891499706
 40
0.7863279069649863
 40
0.8133026791761836
 40
0.8372943998771674
 40
0.8945054261372869
 40
0.9627895541962639
 40
1.020000580349074
 40
1.043992300975172
 40
1.071934345522908
 40
1.113121768772919
 40
1.145225199332243
 40
1.225483775412778
 40
1.329819923771488
 40
1.434156071994378
 40
1.514414647795798
 40
1.546518078208406
 40
1.578974764260179
 40
1.662678849314174
 40
1.777131373668395
 40
1.901833377474786
 40
2.016285900500575
 40
2.099989982527942
 40
2.132446666570301
 40
2.158782354486025
 40
2.216720867907814
 40
2.274659381334239
 40
2.300995069256171
 40
2.333451754066143
 40
2.417155836543824
 40
2.531608358985263
 40
2.656310362283758
 40
2.770762886388891
 40
2.854466971340056
 40
2.886923657363862
 40
2.913597976833296
 40
2.982389642875098
 40
3.076451716946965
 40
3.178937260458577
 40
3.272999334739982
 40
3.341791001059205
 40
3.368465320663518
 40
3.396976080738739
 40
3.472140811845975
 40
3.578408190308664
 40
3.700226892456101
 40
3.822045594634318
 40
3.928312973256425
 40
4.003477705314822
 40
4.031988456866888
 40
4.058324144797686
 40
4.116262658236847
 40
4.174201171400647
 40
4.200536849608579
 40
4.200536849608579
 40
4.200536849608579
 40
4.200536849608579
 10
185.9857704961609
 20
15.75844135397706
 10
185.9938259544679
 20
15.75844359811687
 10
186.0220200663241
 20
15.75845146032799
 10
186.0765534803672
 20
15.75830754828372
 10
186.1482891808604
 20
15.75909120499899
 10
186.2236240137062
 20
15.75627570463812
 10
186.2713052366439
 20
15.76298403400959
 10
186.3195071245615
 20
15.75197563692433
 10
186.3062571799874
 20
15.80546402997035
 10
186.3151093964538
 20
15.86049583543092
 10
186.3108698036285
 20
15.9541990872611
 10
186.313348348128
 20
16.04959482218533
 10
186.309093870606
 20
16.14356821983388
 10
186.3179818665846
 20
16.19795062438013
 10
186.3046977409945
 20
16.25233997691462
 10
186.3514119277109
 20
16.23842216335359
 10
186.3943254545736
 20
16.24103877374044
 10
186.4605443456685
 20
16.23648422450756
 10
186.5013342271798
 20
16.22778162134162
 10
186.5525145690818
 20
16.23531799890196
 10
186.52537204872
 20
16.19349970223286
 10
186.4803096055706
 20
16.20284992072597
 10
186.4942065045051
 20
16.13841207371839
 10
186.4858414431653
 20
16.07378219627399
 10
186.4903632178398
 20
15.97529141193889
 10
186.4854741311167
 20
15.87595932842571
 10
186.4950258992082
 20
15.8129311555297
 10
186.47997614552
 20
15.7496401149979
 10
186.5449159457208
 20
15.7651507294427
 10
186.6116246399496
 20
15.75499387697813
 10
186.7241435470828
 20
15.75988800099369
 10
186.8390235448954
 20
15.75691204732784
 10
186.9519871999747
 20
15.76221664184992
 10
187.0176267597678
 20
15.7510730647209
 10
187.0816276691053
 20
15.76744532319858
 10
187.0703142889189
 20
15.71761689905276
 10
187.0775339871509
 20
15.67416715212124
 10
187.070314261127
 20
15.63071745587446
 10
187.0816277175994
 20
15.58088895196877
 10
187.0176263598972
 20
15.59726166091363
 10
186.9519921240459
 20
15.5861127166159
 10
186.838997431733
 20
15.59144857206855
 10
186.7242456548644
 20
15.58834345663823
 10
186.611318368686
 20
15.59364894682589
 10
186.5455220903585
 20
15.58257300019595
 10
186.4816097975358
 20
15.59887597847619
 10
186.4936015165126
 20
15.54423524395742
 10
186.4862104613005
 20
15.48854295047843
 10
186.4892684841983
 20
15.39649689140571
 10
186.4893422785683
 20
15.30179109873102
 10
186.486031357836
 20
15.20952782902266
 10
186.4939505989904
 20
15.15435768736141
 10
186.4815076611617
 20
15.10058169100137
 10
186.5389116551631
 20
15.11453768862782
 10
186.5994708140383
 20
15.10511457884227
 10
186.7048680855081
 20
15.10942885928705
 10
186.8204294070622
 20
15.10835504612032
 10
186.9359688877797
 20
15.10725965900995
 10
187.0414181130841
 20
15.11162525770633
 10
187.1018680471804
 20
15.10209426030672
 10
187.159283773911
 20
15.1161728960638
 10
187.1477773876709
 20
15.06707153265684
 10
187.153756678175
 20
15.0256465801865
 10
187.1520311050801
 20
14.97651677966696
 10
187.1521500122971
 20
14.94854428447609
 10
187.1521871691833
 20
14.93980288195951
 72
     4
 94
        3
 73
     0
 74
     0
 95
       62
 96
       58
 40
0.0
 40
0.0
 40
0.0
 40
0.0
 40
0.0598250028308769
 40
0.2024846486897616
 40
0.3727558389221315
 40
0.5154154847936923
 40
0.5752404975786192
 40
0.9332326775488206
 40
1.290451762839594
 40
1.602077253146015
 40
1.699931634112289
 40
1.799359756425191
 40
2.27012014965723
 40
2.804661928461691
 40
2.882342287383404
 40
3.076543185719252
 40
3.329004354835718
 40
3.581465524568543
 40
3.775666424543827
 40
3.853346784558447
 40
3.899120679595192
 40
3.98412934179219
 40
4.029903236817539
 40
4.105797496059694
 40
4.295533144152653
 40
4.542189486611898
 40
4.788845828875846
 40
4.978581476410231
 40
5.054475735244473
 40
5.621734664339489
 40
6.130867242037501
 40
6.225249780948762
 40
6.318913039727497
 40
6.663579954559163
 40
7.04749890022503
 40
7.435230791575965
 40
7.498943906668377
 40
7.65087518121037
 40
7.832212509001881
 40
7.984143783697267
 40
8.047856898903394
 40
8.0915546327329
 40
8.172707566964556
 40
8.21640530076828
 40
8.289021782161164
 40
8.462184160757538
 40
8.668861838005618
 40
8.84202421526421
 40
8.914640695475406
 40
8.989881580861613
 40
9.15541152882752
 40
9.320941477744302
 40
9.396182352487555
 40
9.454709011144102
 40
9.583467660171037
 40
9.712226309013316
 40
9.77075295798977
 40
9.77075295798977
 40
9.77075295798977
 40
9.77075295798977
 10
187.1521871691833
 20
14.93980288195951
 10
187.1322348171623
 20
14.93980875568672
 10
187.0647037716465
 20
14.93982863806158
 10
186.9410612161788
 20
14.93949362520326
 10
186.7863180150056
 20
14.94107673750513
 10
186.6697349482479
 20
14.93686078860496
 10
186.455094263424
 20
14.95215205331627
 10
186.8518948407228
 20
14.59198721286193
 10
186.8945656069266
 20
14.37510503397168
 10
187.3189162146612
 20
14.19325062511445
 10
187.1439821496073
 20
14.08985196568075
 10
187.0194523925085
 20
13.87831523212721
 10
186.7666277235943
 20
14.34806081001565
 10
186.4797602893626
 20
14.99511516984522
 10
186.490633592666
 20
14.68782672154695
 10
186.488289277796
 20
14.52288616971779
 10
186.4861096126411
 20
14.28879670711694
 10
186.4980774396346
 20
14.04498072421784
 10
186.4687984740631
 20
13.89855796860986
 10
186.511452262547
 20
13.75113490174539
 10
186.4239814005639
 20
13.76685797306221
 10
186.3768527606744
 20
13.76694303543456
 10
186.2898973207713
 20
13.7510942548291
 10
186.3313474021722
 20
13.89527771422764
 10
186.3029875004285
 20
14.03855052698456
 10
186.31459737753
 20
14.27674947365266
 10
186.3124175648271
 20
14.50517235240347
 10
186.3103111127994
 20
14.66705729375996
 10
186.3208035438323
 20
14.98153709333753
 10
186.0128963252891
 20
14.29229470872434
 10
185.7055258267459
 20
13.81476750243057
 10
185.5851367066273
 20
14.03741112637428
 10
185.4074607910722
 20
14.15011034955564
 10
185.8853326362893
 20
14.32548143465461
 10
185.9353959057209
 20
14.56091929252031
 10
186.3583799621717
 20
14.95322989344608
 10
186.1276754273541
 20
14.93655307029067
 10
186.004968585934
 20
14.94269518948772
 10
185.8325483095662
 20
14.93312822699575
 10
185.7213224694449
 20
14.95448818489667
 10
185.6025779627447
 20
14.92136265357421
 10
185.6183169706686
 20
15.00203900606884
 10
185.6178550933762
 20
15.04645414290855
 10
185.6027881889931
 20
15.12967081778534
 10
185.7372380935443
 20
15.09062651983884
 10
185.8619755545747
 20
15.11739729328423
 10
186.0628755237279
 20
15.10063949044053
 10
186.1921540949353
 20
15.12204225913005
 10
186.3328419928294
 20
15.08868778853421
 10
186.2980927452615
 20
15.22651875785069
 10
186.3222185666712
 20
15.34963257349482
 10
186.2967086182392
 20
15.47024055670336
 10
186.3333251146685
 20
15.60539865141496
 10
186.2211417027769
 20
15.58094545781892
 10
186.1280356457136
 20
15.59307749842024
 10
186.0191547579819
 20
15.58957630069994
 10
185.9569697640964
 20
15.58981755951604
 10
185.9375369557246
 20
15.58989295124145
 97
        3
330
AA
330
A8
330
A9
 75
     1
 76
     2
 52
45.0
 41
0.1
 77
     0
 78
     1
 53
45.0
 43
0.0
 44
0.0
 45
-0.282842712474619
 46
0.0
 79
     0
 98
        1
 10
0.0
 20
0.0
  0
HATCH
  5
C8
330
48
100
AcDbEntity
  8
1
  6
Continuous
 62
     2
100
AcDbHatch
 10
0.0
 20
0.0
 30
0.0
210
0.0
220
0.0
230
1.0
  2
CUSTOM2
 70
     0
 71
     1
 91
        1
 92
        1
 93
        1
 72
     4
 94
        3
 73
     0
 74
     0
 95
      124
 96
      120
 40
0.0
 40
0.0
 40
0.0
 40
0.0
 40
0.027818722962451
 40
0.1011590162384269
 40
0.2048470170590239
 40
0.3237088716559245
 40
0.4425707262522
 40
0.5462587270699547
 40
0.6195990203311798
 40
0.647417752257866
 40
0.6750060736115242
 40
0.7357003855242794
 40
0.7963946998054581
 40
0.8239830245571873
 40
0.8540933811102966
 40
0.9373396629409647
 40
1.063094687343246
 40
1.220731268638084
 40
1.399622220914758
 40
1.589140358637743
 40
1.778658496423909
 40
1.957549448940519
 40
2.115186030873169
 40
2.240941056914473
 40
2.324187341760543
 40
2.354297700109393
 40
2.381886024671901
 40
2.442580338710493
 40
2.503274652750519
 40
2.530862977314627
 40
2.56098394927858
 40
2.640393784452926
 40
2.752662861759149
 40
2.881361560118166
 40
3.010060258455213
 40
3.12232933570536
 40
3.201739170817974
 40
3.231860142753335
 40
3.264298024030391
 40
3.352343701778259
 40
3.482095226868782
 40
3.639650650173039
 40
3.811108022565494
 40
3.982565394928
 40
4.140120818152579
 40
4.269872343141288
 40
4.357918020802349
 40
4.390355902043976
 40
4.423256253992546
 40
4.508104530073067
 40
4.624121560636834
 40
4.750528176031591
 40
4.866545206602038
 40
4.951393482691995
 40
4.984293834645396
 40
5.011450833242315
 40
5.071196230152103
 40
5.130941627057182
 40
5.15809862564885
 40
5.190998977601541
 40
5.275847253689366
 40
5.3918642842568
 40
5.518270899648345
 40
5.634287930209385
 40
5.719136206288058
 40
5.752036558235946
 40
5.782130946282972
 40
5.862783906229143
 40
5.979550131775015
 40
6.11798431664042
 40
6.263641154587964
 40
6.402075339414171
 40
6.518841564907963
 40
6.599494524815548
 40
6.629588912848786
 40
6.654403028226362
 40
6.713575149488129
 40
6.784199939329446
 40
6.843372060493548
 40
6.868186175802794
 40
6.896246243201881
 40
6.939586233758277
 40
6.967846564564905
 40
7.043584251089843
 40
7.1532343344517
 40
7.283231855734449
 40
7.42001185603548
 40
7.550009376579828
 40
7.659659458835229
 40
7.735397144417222
 40
7.763657474851392
 40
7.796409728011049
 40
7.880876065096324
 40
7.996370852465709
 40
8.122208446418604
 40
8.237703224799198
 40
8.322169562010892
 40
8.354921815205905
 40
8.382078813307688
 40
8.441824209206997
 40
8.501569605240151
 40
8.528726603485731
 40
8.56147885669578
 40
8.64594519387783
 40
8.761439980865342
 40
8.887277580764485
 40
9.002772362001005
 40
9.087238696661226
 40
9.11999094923568
 40
9.15242883061338
 40
9.240474508638593
 40
9.370226034149542
 40
9.527781457984425
 40
9.699238830981411
 40
9.870696203978598
 40
10.02825162781402
 40
10.15800315332564
 40
10.24604883135118
 40
10.27848670378521
 40
10.27848670378521
 40
10.27848670378521
 40
10.27848670378521
 10
195.3821827564383
 20
14.01410517385759
 10
195.3914554737523
 20
14.01410498511276
 10
195.4251744536861
 20
14.01410430876716
 10
195.4934706812465
 20
14.01411807243307
 10
195.592014171158
 20
14.01403224219547
 10
195.7062066464812
 20
14.01441755612253
 10
195.818589441707
 20
14.01300835897547
 10
195.9214376600118
 20
14.01719117422245
 10
195.9806839874849
 20
14.00823089251985
 10
196.0371265937032
 20
14.02164434526063
 10
196.0246255586955
 20
13.97087198613363
 10
196.0329549635703
 20
13.92589320939069
 10
196.024817084112
 20
13.88056752990489
 10
196.0370529214456
 20
13.82931932408467
 10
195.9747773490334
 20
13.84447955365277
 10
195.9060513026867
 20
13.83359750710744
 10
195.7782756749592
 20
13.83911304747973
 10
195.6262984511643
 20
13.83700851253699
 10
195.4502695972523
 20
13.83771002588474
 10
195.2644431934287
 20
13.83745237531293
 10
195.0786167437175
 20
13.83771005144604
 10
194.9025880142168
 20
13.83700841847731
 10
194.7506104154195
 20
13.8391133222999
 10
194.6228357664554
 20
13.83359680767641
 10
194.5541077836581
 20
13.84448077125944
 10
194.4918349042883
 20
13.8293178668421
 10
194.5040616290017
 20
13.88057510805173
 10
194.4960004462596
 20
13.92582473272427
 10
194.5040675809893
 20
13.97106357955325
 10
194.4918238487083
 20
14.0223417690996
 10
194.5525017120697
 20
14.00749577363136
 10
194.6162810745736
 20
14.01756448170737
 10
194.7277314353502
 20
14.01294644212001
 10
194.8497533443824
 20
14.01413328905471
 10
194.9719538137823
 20
14.01515863900637
 10
195.0829794287392
 20
14.01092475623403
 10
195.1476517413958
 20
14.02018584521741
 10
195.2091162810501
 20
14.00604423049684
 10
195.1930065601337
 20
14.07235527884519
 10
195.2042980327358
 20
14.14447790121977
 10
195.1987400822561
 20
14.27513760888288
 10
195.200803506169
 20
14.42607323708242
 10
195.2000167127295
 20
14.59335873107887
 10
195.2007845215628
 20
14.76061110332304
 10
195.1988038785628
 20
14.91163289269915
 10
195.204130615662
 20
15.04206069552995
 10
195.1933101388425
 20
15.114654426059
 10
195.2090326429875
 20
15.18150469436799
 10
195.143270813249
 20
15.16580512490825
 10
195.0756367830763
 20
15.17609243083996
 10
194.9615885293809
 20
15.17113786847123
 10
194.8451242674902
 20
15.17414128030475
 10
194.7306554121477
 20
15.16880303143389
 10
194.6640324657812
 20
15.18001268074825
 10
194.5990769715186
 20
15.16349132665012
 10
194.6107989758707
 20
15.2147372047706
 10
194.6032830189122
 20
15.25950333784092
 10
194.6107989878835
 20
15.30426944897963
 10
194.5990769505347
 20
15.35551536129743
 10
194.6640326339199
 20
15.33899381766817
 10
194.7306533339822
 20
15.35020571373946
 10
194.8451352858063
 20
15.34485436710666
 10
194.9615454436962
 20
15.3479118877112
 10
195.0757660174641
 20
15.34278499010709
 10
195.1430150439227
 20
15.35345733355601
 10
195.2083325941438
 20
15.33742082669079
 10
195.1941391448552
 20
15.39949685750056
 10
195.2036059462995
 20
15.46586761628764
 10
195.1990269004085
 20
15.58239972741968
 10
195.2007696555948
 20
15.71426685022378
 10
195.1997551495392
 20
15.85615960150275
 10
195.2017191344372
 20
15.98769050702581
 10
195.1964668553852
 20
16.10524577283005
 10
195.2073408763474
 20
16.16947789001586
 10
195.1919536641853
 20
16.23108802545049
 10
195.24075915378
 20
16.21702407382113
 10
195.2853995564726
 20
16.21954742075316
 10
195.3538643946742
 20
16.21512797401712
 10
195.3959106169102
 20
16.20613025544036
 10
195.4487544758775
 20
16.21411714866512
 10
195.4207035002014
 20
16.17113917611675
 10
195.3749142248594
 20
16.18259552043838
 10
195.3869539073265
 20
16.12173520005138
 10
195.3796086070641
 20
16.05769299468774
 10
195.3831195826161
 20
15.94909368863912
 10
195.3819806760173
 20
15.82494319144755
 10
195.3819174780263
 20
15.69189719829879
 10
195.3832872966867
 20
15.56797381249557
 10
195.3791638801313
 20
15.4586833784934
 10
195.3877763103564
 20
15.39608580094172
 10
195.3746757454402
 20
15.33740133296367
 10
195.4393884328198
 20
15.35362113810904
 10
195.5060405953156
 20
15.34270260383313
 10
195.6198779541102
 20
15.34793740173757
 10
195.7357259122097
 20
15.34485547516916
 10
195.849692426328
 20
15.35018259812513
 10
195.9160341018099
 20
15.33904208166545
 10
195.980718852548
 20
15.3554697959318
 10
195.9689820772722
 20
15.30425925210052
 10
195.976516806304
 20
15.25950334121002
 10
195.9689820992258
 20
15.21474739010028
 10
195.9807188140736
 20
15.16353690871041
 10
195.9160344075252
 20
15.1799642779422
 10
195.8496886430824
 20
15.1688278444727
 10
195.7357459487012
 20
15.17413115893121
 10
195.6197995623054
 20
15.17114764593544
 10
195.5062756882122
 20
15.17606892268395
 10
195.4389231318804
 20
15.1658508751352
 10
195.3734285122495
 20
15.18145996138817
 10
195.3891713619218
 20
15.11463851827412
 10
195.3783275998213
 20
15.0420705781588
 10
195.3836581629792
 20
14.91162247614417
 10
195.3817136151855
 20
14.76064558185227
 10
195.3823133683214
 20
14.5932224393416
 10
195.3821506559604
 20
14.42656176118373
 10
195.3821895488136
 20
14.27360142921638
 10
195.38218164131
 20
14.14849178985707
 10
195.3821828382744
 20
14.06507890991422
 10
195.3821827716208
 20
14.02491778281978
 10
195.3821827564383
 20
14.01410517385759
 97
        1
330
AB
 75
     1
 76
     2
 52
45.0
 41
0.1
 77
     0
 78
     1
 53
45.0
 43
0.0
 44
0.0
 45
-0.282842712474619
 46
0.0
 79
     0
 98
        1
 10
0.0
 20
0.0
  0
HATCH
  5
C9
330
48
100
AcDbEntity
  8
1
  6
Continuous
 62
     2
100
AcDbHatch
 10
0.0
 20
0.0
 30
0.0
210
0.0
220
0.0
230
1.0
  2
CUSTOM3
 70
     0
 71
     1
 91
        1
 92
        1
 93
        1
 72
     4
 94
        3
 73
     0
 74
     0
 95
      131
 96
      127
 40
0.0
 40
0.0
 40
0.0
 40
0.0
 40
0.0195577029826316
 40
0.0426490537462124
 40
0.2863607575856982
 40
0.5344948436189513
 40
0.7842238845573353
 40
0.8737315789467568
 40
0.9803832810312852
 40
1.092842274517034
 40
1.199761146656769
 40
1.289788768186498
 40
1.351573580786213
 40
1.370727117561454
 40
1.416400936017865
 40
1.47091484835602
 40
1.51658866679181
 40
1.535742203552906
 40
1.63421659229321
 40
1.760283341175023
 40
1.897966686682084
 40
2.031216387368908
 40
2.049689751137902
 40
2.101115601646836
 40
2.179502577739955
 40
2.27885931831407
 40
2.393194462258727
 40
2.516516648383841
 40
2.642834515405968
 40
2.766156701983471
 40
2.880491846754586
 40
2.979848588358627
 40
3.058235565443804
 40
3.109661416668958
 40
3.128134780704134
 40
3.146783742386451
 40
3.191254343315312
 40
3.24433215731597
 40
3.288802758225874
 40
3.307451719895117
 40
3.327717853844729
 40
3.383747753580089
 40
3.46838866592448
 40
3.574487837698787
 40
3.694892515728892
 40
3.822449946852029
 40
3.95000737792042
 40
4.07041205580051
 40
4.176511227368064
 40
4.261152139501512
 40
4.317182039076704
 40
4.337448172964624
 40
4.620011002696234
 40
4.885096638397503
 40
4.945373043518334
 40
5.014107710488658
 40
5.070481727652019
 40
5.319246955636543
 40
5.584812164506014
 40
5.859000912056866
 40
6.133746937542049
 40
6.401732212968851
 40
6.420736683995442
 40
6.472845717451093
 40
6.55070274389402
 40
6.646951193874229
 40
6.754234497930553
 40
6.865196086587331
 40
6.97247939035779
 40
7.068727839771952
 40
7.14658486545096
 40
7.19869389818919
 40
7.217698368905331
 40
7.234950401630807
 40
7.276089864269854
 40
7.325191803515962
 40
7.366331266090348
 40
7.383583298769699
 40
7.402779163492077
 40
7.453386443254508
 40
7.524934666445509
 40
7.606953361405849
 40
7.688972056429001
 40
7.760520279784251
 40
7.811127559734493
 40
7.830323424546115
 40
7.847844055299745
 40
7.894799345666786
 40
7.962779392744474
 40
8.043374293560522
 40
8.12817414514943
 40
8.208769044817231
 40
8.276749090376931
 40
8.323704379669497
 40
8.341225010056228
 40
8.358497614800376
 40
8.401679126686581
 40
8.457815092185639
 40
8.513951057728043
 40
8.557132569708
 40
8.574405174505042
 40
8.602340668616408
 40
8.643455660539948
 40
8.663225271966615
 40
8.71534515656426
 40
8.789031889628598
 40
8.873502045520327
 40
8.957972194323952
 40
9.031658925567845
 40
9.083778811234533
 40
9.103548423002996
 40
9.119550083123533
 40
9.160817522379835
 40
9.2172444291102
 40
9.278724491644686
 40
9.335151398295471
 40
9.376418837357766
 40
9.392420497300554
 40
9.401196302734773
 40
9.417494229384248
 40
9.42627002774952
 40
9.440875075477553
 40
9.475702496998732
 40
9.517270709865896
 40
9.552098131994065
 40
9.566703169884272
 40
9.566703169884272
 40
9.566703169884272
 40
9.566703169884272
 10
194.6170254148479
 20
15.67015871511028
 10
194.6134345093371
 20
15.6645369070216
 10
194.6056039123624
 20
15.65227754419112
 10
194.5129968974546
 20
15.61601916040983
 10
194.4887622233247
 20
15.40148444212711
 10
194.3858709845938
 20
15.22197284509709
 10
194.1220492364306
 20
15.03615573798148
 10
194.284547156918
 20
14.95959336566083
 10
194.3607225760838
 20
14.89856693195442
 10
194.4492171072758
 20
14.83515804544762
 10
194.538993023311
 20
14.77525634219559
 10
194.5883817636046
 20
14.72102154849209
 10
194.6745708157381
 20
14.69286240541833
 10
194.6411260674229
 20
14.65713309652814
 10
194.621467116631
 20
14.62550387991906
 10
194.5919888217881
 20
14.58475872796073
 10
194.5688989446031
 20
14.55504663489644
 10
194.5380205968355
 20
14.50211422668499
 10
194.4729193365741
 20
14.62740334938903
 10
194.3796000122415
 20
14.68213900233936
 10
194.2950636285139
 20
14.73916423939344
 10
194.1722498125741
 20
14.89675287427523
 10
194.1764450847301
 20
14.82035806766837
 10
194.1751478652677
 20
14.77361280161296
 10
194.1758126448076
 20
14.69584785812602
 10
194.1755549986956
 20
14.59902068324424
 10
194.1756431239921
 20
14.4865027907881
 10
194.1756077302282
 20
14.36524085945701
 10
194.1756511758278
 20
14.24086897858962
 10
194.1755199942405
 20
14.11967683631337
 10
194.1759477562047
 20
14.00691148919744
 10
194.174667820231
 20
13.91082913768745
 10
194.1779759851044
 20
13.83113826468701
 10
194.1715197740086
 20
13.78815175788785
 10
194.1806208705556
 20
13.74955432372044
 10
194.1447910339935
 20
13.75810887724072
 10
194.1115223815252
 20
13.75342519985448
 10
194.0604562576041
 20
13.75351298759785
 10
194.0269723972812
 20
13.75794430283822
 10
193.9907585408754
 20
13.74960793842511
 10
194.0009782568666
 20
13.79145277179286
 10
193.9936487887773
 20
13.83778560820175
 10
193.9973633136103
 20
13.92374831106015
 10
193.9959480554896
 20
14.0260514270485
 10
193.9964105554638
 20
14.14453223931513
 10
193.9962773686231
 20
14.26957683153357
 10
193.9963015910045
 20
14.39475828107051
 10
193.9963354925551
 20
14.51286645379059
 10
193.9962060293132
 20
14.61628748709517
 10
193.9965507549081
 20
14.69932036153667
 10
193.995869827869
 20
14.75143368521244
 10
193.9994586600623
 20
14.87912907821361
 10
193.7826171386437
 20
14.58048716819621
 10
193.6021354921951
 20
14.35263981511518
 10
193.5490322295611
 20
14.49373443289815
 10
193.5200429133148
 20
14.54325767560942
 10
193.419664806282
 20
14.64641779790112
 10
193.7405127723261
 20
14.72695035023778
 10
193.8689897005429
 20
14.91066283036436
 10
194.0906454325359
 20
15.11931995771763
 10
194.1770224894068
 20
15.29339211228345
 10
194.4549394229074
 20
15.56967051342512
 10
194.3346247839284
 20
15.56534559551115
 10
194.2863197351348
 20
15.56614856202553
 10
194.2102377454905
 20
15.56574582146585
 10
194.116701000975
 20
15.56590275611611
 10
194.0117594788557
 20
15.56582502576224
 10
193.9033887738717
 20
15.56595464378556
 10
193.7981454235897
 20
15.56554393490692
 10
193.7056237819412
 20
15.56682073671592
 10
193.6268130800707
 20
15.5634076653485
 10
193.5839674565379
 20
15.57023350036322
 10
193.5449499586516
 20
15.56065064201124
 10
193.5526365271863
 20
15.59420779565544
 10
193.5485464404312
 20
15.62523550322234
 10
193.5485531368814
 20
15.67236529270901
 10
193.5526239724911
 20
15.70340941646779
 10
193.5449495574583
 20
15.73701861635902
 10
193.5834819405494
 20
15.72748410420873
 10
193.624122801448
 20
15.73397435498072
 10
193.6951471850463
 20
15.73100150650255
 10
193.7729318149633
 20
15.73174761399158
 10
193.8507292246474
 20
15.73247814044526
 10
193.9217232089907
 20
15.72954235514161
 10
193.962427979182
 20
15.73595468772953
 10
194.000985348991
 20
15.72650524176005
 10
193.9927342754927
 20
15.76264692158785
 10
193.9982346669359
 20
15.80129837613228
 10
193.9955754206163
 20
15.8691352856184
 10
193.9965815471533
 20
15.94591641538741
 10
193.9960178018319
 20
16.02849393582758
 10
193.9970714526593
 20
16.10517329229879
 10
193.994267586313
 20
16.17331990776701
 10
194.0000702721304
 20
16.21132399809348
 10
193.9915654551158
 20
16.24758448077647
 10
194.0255610233125
 20
16.23755723771854
 10
194.0594575683099
 20
16.24073266813707
 10
194.1126669060346
 20
16.2350896564061
 10
194.1660768574483
 20
16.23434774436426
 10
194.1995914649491
 20
16.22819223482981
 10
194.2388086183039
 20
16.23346029773594
 10
194.2120263698492
 20
16.1925338079349
 10
194.1708111001723
 20
16.20371204538112
 10
194.1782641540874
 20
16.15867056192125
 10
194.1742227952184
 20
16.11412278028145
 10
194.1761714049641
 20
16.04223572621704
 10
194.1752364849758
 20
15.96168630588772
 10
194.1765107190031
 20
15.88173995404996
 10
194.1732043793862
 20
15.80841837083183
 10
194.1802106179962
 20
15.76688643002569
 10
194.1701440380125
 20
15.72752418568114
 10
194.2029814803921
 20
15.73468063430982
 10
194.236457729648
 20
15.73027243137945
 10
194.2915053476019
 20
15.73217943347898
 10
194.3489502595314
 20
15.73185366407289
 10
194.4023026248309
 20
15.73106308733083
 10
194.4398540896638
 20
15.73313959118074
 10
194.4623172523237
 20
15.7302233816711
 10
194.4751678073731
 20
15.73572552644057
 10
194.4858255685888
 20
15.73801118197791
 10
194.4986635650143
 20
15.74494972588054
 10
194.5145991033071
 20
15.72853046313673
 10
194.5410623920891
 20
15.71709122319449
 10
194.5726805253757
 20
15.69644687835191
 10
194.5987255892151
 20
15.68116869628295
 10
194.6128517723973
 20
15.67266976323184
 10
194.6170254148479
 20
15.67015871511028
 97
        1
330
AC
 75
     1
 76
     2
 52
45.0
 41
0.1
 77
     0
 78
     1
 53
45.0
 43
0.0
 44
0.0
 45
-0.282842712474619
 46
0.0
 79
     0
 98
        1
 10
0.0
 20
0.0
  0
HATCH
  5
CA
330
48
100
AcDbEntity
  8
1
  6
Continuous
 62
     2
100
AcDbHatch
 10
0.0
 20
0.0
 30
0.0
210
0.0
220
0.0
230
1.0
  2
CUSTOM4
 70
     0
 71
     1
 91
        1
 92
        1
 93
        1
 72
     4
 94
        3
 73
     0
 74
     0
 95
       91
 96
       87
 40
0.0
 40
0.0
 40
0.0
 40
0.0
 40
0.0267532254356684
 40
0.0856103386464102
 40
0.1444674521996603
 40
0.1712206856618514
 40
0.2039416005642536
 40
0.2955601971652484
 40
0.4362601844616918
 40
0.616225284450725
 40
0.8256392189704698
 40
1.054685709844411
 40
1.293548478893531
 40
1.532411247938303
 40
1.761457738799568
 40
1.970871673298537
 40
2.150836773256732
 40
2.291536760495593
 40
2.3831553568367
 40
2.41587628410132
 40
2.442629517487963
 40
2.501486630949093
 40
2.560343744424244
 40
2.587096977826515
 40
2.617068194440942
 40
2.699247336756083
 40
2.822032643466396
 40
2.973822353257925
 40
3.143014704823368
 40
3.318007936879947
 40
3.48720028818678
 40
3.63898999754826
 40
3.761775303794759
 40
3.843954445753094
 40
3.87392566222979
 40
3.890812773500498
 40
3.907699884771676
 40
3.937960767857276
 40
3.980983618142309
 40
4.199085915228457
 40
4.439444339237248
 40
4.67758824126089
 40
5.050698317837776
 40
5.448212454763162
 40
5.855291218044687
 40
6.138575438885358
 40
6.417434507584199
 40
6.444551104393856
 40
6.504207617363156
 40
6.563864130314454
 40
6.590980727104021
 40
6.848609460381424
 40
7.109611990668423
 40
7.352910904446084
 40
7.55783022070545
 40
7.587518925913369
 40
7.652834077375815
 40
7.718149228845825
 40
7.747837934062106
 40
7.85488019030102
 40
7.97651125740356
 40
8.369487896592304
 40
8.757514959223625
 40
9.126072419331116
 40
9.460639380392179
 40
9.74669559303592
 40
9.777569943118692
 40
9.807050320931793
 40
9.830377336128926
 40
9.886003295436002
 40
9.952395569429918
 40
10.00802152870627
 40
10.0313485438822
 40
10.2135695100959
 40
10.42203479292873
 40
10.66154556731065
 40
10.91693789564304
 40
11.15832906556562
 40
11.1898267459662
 40
11.27286608520401
 40
11.39026653033346
 40
11.52484752840877
 40
11.65942852648433
 40
11.77682897161472
 40
11.85986831085668
 40
11.89136598230413
 40
11.89136598230413
 40
11.89136598230413
 40
11.89136598230413
 10
190.7027885008196
 20
14.70699600701773
 10
190.7028237765288
 20
14.71587847311986
 10
190.7029366710796
 20
14.74430237047347
 10
190.7012984568489
 20
14.79409639169804
 10
190.7069750292911
 20
14.83657564478155
 10
190.6956928731706
 20
14.88730154856848
 10
190.7632296979031
 20
14.8701290074011
 10
190.83880292107
 20
14.88290227165997
 10
190.9828357056
 20
14.87629729457383
 10
191.1569419185427
 20
14.87888462206467
 10
191.3639599611003
 20
14.87800591955554
 10
191.5894688172378
 20
14.87828207920028
 10
191.8251162293406
 20
14.87818339658663
 10
192.0607640531348
 20
14.87828184412768
 10
192.2862717580626
 20
14.8780067819079
 10
192.4932934632805
 20
14.87888186270736
 10
192.6673888915288
 20
14.87630522678447
 10
192.8114492071986
 20
14.88288290449214
 10
192.8869691915292
 20
14.87016243405605
 10
192.954577603703
 20
14.88726400191687
 10
192.9430840140676
 20
14.83674785802941
 10
192.9505104581733
 20
14.79253252226502
 10
192.9428838927986
 20
14.74867966503611
 10
192.9546489459425
 20
14.69878374479329
 10
192.8930788491982
 20
14.71393227712513
 10
192.8256791738672
 20
14.70310665350675
 10
192.7013004056221
 20
14.70852031626237
 10
192.555442823657
 20
14.70649205390786
 10
192.3893576440085
 20
14.70715777578388
 10
192.2188412621724
 20
14.70689643521243
 10
192.0519790855388
 20
14.70721553391095
 10
191.9087346827105
 20
14.70635302590763
 10
191.7773313869834
 20
14.70863300482989
 10
191.7239859134656
 20
14.70407704374203
 10
191.6485188456912
 20
14.70999914992879
 10
191.6769075779232
 20
14.70094169343353
 10
191.7033652409542
 20
14.6972591226893
 10
191.6633522907701
 20
14.66654271968276
 10
191.5713663691868
 20
14.67667591174634
 10
191.5439396207069
 20
14.43032502247786
 10
191.4478793967234
 20
14.27499558764377
 10
191.1917277964473
 20
13.9452541793157
 10
191.7627537732763
 20
14.08430022210452
 10
192.0173656320516
 20
14.08291779973364
 10
192.6279647048617
 20
13.99790569242086
 10
192.3340698578083
 20
14.29685417558207
 10
192.0133304286517
 20
14.44330856901777
 10
192.1313543360434
 20
14.50025540818289
 10
192.1724716466261
 20
14.52420099873348
 10
192.215681239441
 20
14.54599758811231
 10
192.3174574094449
 20
14.60928721253908
 10
192.4328867625247
 20
14.35147151408778
 10
192.6329591642277
 20
14.21616041113686
 10
192.7269077387228
 20
14.03792795138884
 10
192.9558829746392
 20
13.8799782102705
 10
192.8596031846708
 20
13.82915972576301
 10
192.8167959763779
 20
13.79881292523054
 10
192.7718243528778
 20
13.77466130281463
 10
192.7121720925213
 20
13.72552146747568
 10
192.6789731061324
 20
13.85997475673615
 10
192.5582013350796
 20
14.01594265286578
 10
192.1970976005979
 20
13.88569928059558
 10
191.8385061955541
 20
13.90224694409484
 10
191.457092045008
 20
13.89331229351866
 10
191.1703455282892
 20
13.8288267167241
 10
190.8592055599712
 20
13.94230668192824
 10
190.8268737818788
 20
13.83122259927769
 10
190.7896178253317
 20
13.81196313850013
 10
190.7865737632754
 20
13.85874784087298
 10
190.7679892860607
 20
13.89806853919136
 10
190.7512436616778
 20
13.95765983478233
 10
190.7383730915754
 20
14.00201969871284
 10
190.7042327806428
 20
14.09106331120202
 10
190.9482714457754
 20
14.0218104294377
 10
191.1441394486671
 20
14.00030369057745
 10
191.2395426381277
 20
14.28226484478464
 10
191.2945135769596
 20
14.44363045421122
 10
191.5159619357156
 20
14.71391177589741
 10
191.3849239381214
 20
14.70548446853735
 10
191.3110026555853
 20
14.70779008496972
 10
191.1977459876243
 20
14.70671378321659
 10
191.0694251807484
 20
14.7070763907651
 10
190.9404252030415
 20
14.70697724466088
 10
190.8287840946291
 20
14.70699932712572
 10
190.7514663970027
 20
14.70699579189672
 10
190.713287653201
 20
14.70699595845082
 10
190.7027885008196
 20
14.70699600701773
 97
        1
330
AD
 75
     1
 76
     2
 52
45.0
 41
0.1
 77
     0
 78
     1
 53
45.0
 43
0.0
 44
0.0
 45
-0.282842712474619
 46
0.0
 79
     0
 98
        1
 10
0.0
 20
0.0
  0
HATCH
  5
CB
330
48
100
AcDbEntity
  8
1
  6
Continuous
 62
     2
100
AcDbHatch
 10
0.0
 20
0.0
 30
0.0
210
0.0
220
0.0
230
1.0
  2
CUSTOM5
 70
     0
 71
     1
 91
        1
 92
        1
 93
        1
 72
     4
 94
        3
 73
     0
 74
     0
 95
       35
 96
       31
 40
0.0
 40
0.0
 40
0.0
 40
0.0
 40
0.0335231036620617
 40
0.0713218571712037
 40
0.4278866681487041
 40
0.8116865841964063
 40
1.198190238000065
 40
1.561379546812694
 40
1.659983174622077
 40
1.759315573807194
 40
2.132719617231076
 40
2.525233363588827
 40
2.910815397779693
 40
3.265244364303282
 40
3.592606723582056
 40
3.964386154604003
 40
4.359942131737826
 40
4.758154118639288
 40
4.843846538699902
 40
4.93665006554322
 40
5.2566166025373
 40
5.581707404416036
 40
5.899719158308132
 40
6.198363494280698
 40
6.466301046615714
 40
6.493895311537065
 40
6.559697020196857
 40
6.638234543442461
 40
6.704036252154243
 40
6.731630508423049
 40
6.731630508423049
 40
6.731630508423049
 40
6.731630508423049
 10
191.9736010568669
 20
16.23463843719135
 10
191.9676006097789
 20
16.22480690542324
 10
191.9548344099157
 20
16.203889885798
 10
191.7949362006554
 20
16.17127126532689
 10
192.2322025842337
 20
15.88206680336704
 10
192.4345394828262
 20
15.68041138358439
 10
192.6819564267973
 20
15.43749387603278
 10
193.1831513624607
 20
15.36047662757775
 10
193.012556219897
 20
15.21876939174659
 10
192.9383299463201
 20
15.01710366209107
 10
192.6131432248187
 20
15.36956287174728
 10
192.3277741670664
 20
15.53175212559563
 10
192.0337604077658
 20
15.7368713005305
 10
191.8084452691134
 20
16.21827488595455
 10
191.5993085055521
 20
15.75343046609226
 10
191.3207873674833
 20
15.54350952252912
 10
191.0371383177209
 20
15.37424456359988
 10
190.7078639527831
 20
15.00142360907938
 10
190.6277012318224
 20
15.19708014459002
 10
190.4759724909744
 20
15.32491104190596
 10
190.9083395826795
 20
15.40454031765937
 10
191.0962565329766
 20
15.60026634915474
 10
191.3468477420502
 20
15.81632996916754
 10
191.5714350470161
 20
15.98190992300061
 10
191.6259775409712
 20
16.26133964636829
 10
191.749466102901
 20
16.24737950408079
 10
191.8060273344519
 20
16.24521268867649
 10
191.8761870984944
 20
16.24046859881361
 10
191.9333414022105
 20
16.23709429350542
 10
191.9644190320838
 20
16.2351985471112
 10
191.9736010568669
 20
16.23463843719135
 97
        1
330
AE
 75
     1
 76
     2
 52
45.0
 41
0.1
 77
     0
 78
     1
 53
45.0
 43
0.0
 44
0.0
 45
-0.282842712474619
 46
0.0
 79
     0
 98
        1
 10
0.0
 20
0.0
  0
HATCH
  5
CC
330
48
100
AcDbEntity
  8
1
  6
Continuous
 62
     2
100
AcDbHatch
 10
0.0
 20
0.0
 30
0.0
210
0.0
220
0.0
230
1.0
  2
CUSTOM6
 70
     0
 71
     1
 91
        1
 92
        1
 93
        1
 72
     4
 94
        3
 73
     0
 74
     0
 95
       15
 96
       11
 40
0.0
 40
0.0
 40
0.0
 40
0.0
 40
0.2785535985096574
 40
0.5215624748198886
 40
0.6076917376040509
 40
0.6938210001741243
 40
0.9405019146455056
 40
1.22169140348914
 40
1.300471877081057
 40
1.379252341684822
 40
1.379252341684822
 40
1.379252341684822
 40
1.379252341684822
 10
189.5681493630999
 20
16.22930267330382
 10
189.6296017794178
 20
16.17691646592716
 10
189.7446649974113
 20
16.07882876798223
 10
190.0397348497244
 20
15.92889785897223
 10
189.9025147631857
 20
15.84343227515015
 10
189.8041227843778
 20
15.71085785201556
 10
189.7130033590649
 20
16.01616985781421
 10
189.3636839480654
 20
16.07967869465376
 10
189.5119258376571
 20
16.1789650988088
 10
189.5494081874236
 20
16.21252348402383
 10
189.5681493630999
 20
16.22930267330382
 97
        1
330
AF
 75
     1
 76
     2
 52
45.0
 41
0.1
 77
     0
 78
     1
 53
45.0
 43
0.0
 44
0.0
 45
-0.282842712474619
 46
0.0
 79
     0
 98
        1
 10
0.0
 20
0.0
  0
HATCH
  5
CD
330
48
100
AcDbEntity
  8
1
  6
Continuous
 62
     2
100
AcDbHatch
 10
0.0
 20
0.0
 30
0.0
210
0.0
220
0.0
230
1.0
  2
CUSTOM7
 70
     0
 71
     1
 91
        1
 92
        1
 93
        1
 72
     4
 94
        3
 73
     0
 74
     0
 95
       75
 96
       71
 40
0.0
 40
0.0
 40
0.0
 40
0.0
 40
0.0342546099129691
 40
0.1245622414432346
 40
0.2522385480897518
 40
0.398599192294068
 40
0.5449598364980821
 40
0.6726361431438816
 40
0.762943774673696
 40
0.7971983935297973
 40
1.101723623449661
 40
1.408591244036665
 40
1.433332471690371
 40
1.487763172450169
 40
1.542193873081996
 40
1.566935100592546
 40
1.923523931821858
 40
2.271755704953713
 40
2.5905797551009
 40
2.858943305581158
 40
2.889120339309176
 40
2.918305855191124
 40
2.941366645531247
 40
2.996357760973138
 40
3.061992318140685
 40
3.116983433626882
 40
3.140044223997561
 40
3.411273122936454
 40
3.732441619741147
 40
3.761068217532844
 40
3.837787499630406
 40
3.948858699126047
 40
4.080541049104422
 40
4.219093782625805
 40
4.350776132722356
 40
4.461847332405691
 40
4.538566614678421
 40
4.567193212544669
 40
4.594907573998928
 40
4.666381453557467
 40
4.764111044011077
 40
4.87059253812588
 40
4.968322128642331
 40
5.039796008287016
 40
5.067510369784475
 40
5.094263603185693
 40
5.153120716668331
 40
5.211977830150781
 40
5.238731063551787
 40
5.272290535139026
 40
5.363380529444887
 40
5.497618415781565
 40
5.660621563453807
 40
5.838007341749508
 40
6.015393119910859
 40
6.178396267038485
 40
6.312634151842436
 40
6.403724143059426
 40
6.437283612672521
 40
6.46403684626114
 40
6.52289396000476
 40
6.581751071484026
 40
6.608504301590976
 40
6.637253941281124
 40
6.711397748902975
 40
6.812778057283587
 40
6.923237199249364
 40
7.024617507624008
 40
7.098761315207661
 40
7.127510946007611
 40
7.127510946007611
 40
7.127510946007611
 40
7.127510946007611
 10
188.4418622390564
 20
14.95849128473265
 10
188.4418622819707
 20
14.9470731340872
 10
188.4418624481129
 20
14.9055525784263
 10
188.4418593081786
 20
14.82146922003772
 10
188.44187882798
 20
14.70004497322329
 10
188.4417912187737
 20
14.55980494047449
 10
188.442111623523
 20
14.42006556794577
 10
188.441160590974
 20
14.29745038894929
 10
188.4431978595968
 20
14.21587074438044
 10
188.4349433178744
 20
14.06271267077698
 10
188.7430797940901
 20
14.22560236054722
 10
189.0350645173736
 20
14.39482938688005
 10
189.0408354448708
 20
14.25973235781912
 10
189.0455471719891
 20
14.21617221160445
 10
189.0482535411918
 20
14.17211249350546
 10
189.0672545672958
 20
14.02272590363134
 10
188.6583942247303
 20
14.08681172241262
 10
188.3793710348832
 20
13.9729634141102
 10
188.1018081587165
 20
13.87364095811142
 10
187.8099837184401
 20
13.91630687596357
 10
187.7869144678658
 20
13.81321679744542
 10
187.7537474383333
 20
13.7869109124447
 10
187.7480653962738
 20
13.83455309036305
 10
187.7284214559044
 20
13.8718033611507
 10
187.7095089485623
 20
13.93007387847565
 10
187.6942849867707
 20
13.97385201007805
 10
187.6477246372935
 20
14.08759421046312
 10
187.989089731245
 20
14.05576301120047
 10
188.2679649367386
 20
14.0216143510648
 10
188.2617753034907
 20
14.16913976479653
 10
188.2630935452773
 20
14.24013150908834
 10
188.2624831689948
 20
14.34719767958662
 10
188.2625871570724
 20
14.47398529785998
 10
188.2629987964055
 20
14.60849243496051
 10
188.2613907841968
 20
14.73395549951185
 10
188.2659902567925
 20
14.84505246719118
 10
188.256418650221
 20
14.9076188680069
 10
188.2704001783691
 20
14.96595388295002
 10
188.2147384386704
 20
14.95289710582239
 10
188.1575655197821
 20
14.96136307749499
 10
188.0616048925648
 20
14.95729976080637
 10
187.963376752282
 20
14.95970889852475
 10
187.8672582457561
 20
14.95551600613389
 10
187.8104648525811
 20
14.96429346441163
 10
187.7550356873385
 20
14.95094936850123
 10
187.7670679427916
 20
15.00036910959257
 10
187.7592003173938
 20
15.04393988030398
 10
187.7666295563828
 20
15.08830469118526
 10
187.7551930564144
 20
15.13902297763993
 10
187.8232102370133
 20
15.12162460757745
 10
187.8968496879747
 20
15.13417450237191
 10
188.0325064058211
 20
15.12799677011099
 10
188.1884909024525
 20
15.13029203093086
 10
188.3615926358143
 20
15.12940968262532
 10
188.5346942964181
 20
15.1302920714241
 10
188.6906789811216
 20
15.12799662955552
 10
188.8263351889797
 20
15.13417486262433
 10
188.8999756705652
 20
15.12162394218337
 10
188.9679914174724
 20
15.13902373012144
 10
188.9565590885922
 20
15.08830130414557
 10
188.9639539458298
 20
15.0439706081111
 10
188.956203991227
 20
15.00028307550197
 10
188.9681203741877
 20
14.95063590098478
 10
188.9108170223616
 20
14.96461411338426
 10
188.8520145789772
 20
14.95539755673255
 10
188.7525293633199
 20
14.9595226816493
 10
188.649428009835
 20
14.95822760025889
 10
188.5537846354573
 20
14.95854077077641
 10
188.4857467971617
 20
14.95848776697146
 10
188.4514462213443
 20
14.95849051871657
 10
188.4418622390564
 20
14.95849128473265
 97
        1
330
B0
 75
     1
 76
     2
 52
45.0
 41
0.1
 77
     0
 78
     1
 53
45.0
 43
0.0
 44
0.0
 45
-0.282842712474619
 46
0.0
 79
     0
 98
        1
 10
0.0
 20
0.0
  0
HATCH
  5
CE
330
48
100
AcDbEntity
  8
1
  6
Continuous
 62
     2
100
AcDbHatch
 10
0.0
 20
0.0
 30
0.0
210
0.0
220
0.0
230
1.0
  2
CUSTOM8
 70
     0
 71
     1
 91
        1
 92
        1
 93
        1
 72
     4
 94
        3
 73
     0
 74
     0
 95
       91
 96
       87
 40
0.0
 40
0.0
 40
0.0
 40
0.0
 40
0.0345987051695718
 40
0.1258134969461369
 40
0.2547723404888987
 40
0.4026032099154125
 40
0.5504340793416704
 40
0.679392922883608
 40
0.7706077146571035
 40
0.8052064287780925
 40
1.124852390615277
 40
1.427402236308871
 40
1.706356627453509
 40
1.955541417875194
 40
2.169485938566339
 40
2.344350786664806
 40
2.480568411561957
 40
2.590440557428979
 40
2.649189927151108
 40
2.749320643306312
 40
2.91263273988001
 40
3.147745656000216
 40
3.24482749638511
 40
3.3384900569467
 40
3.583815413207127
 40
3.761423943238488
 40
3.886956104362651
 40
3.985855451886857
 40
4.091766255337769
 40
4.250186473811936
 40
4.422734315084558
 40
4.628285684838651
 40
4.872093227758471
 40
5.152549652145582
 40
5.464967135837562
 40
5.803201477852479
 40
6.160362988813953
 40
6.193449448276009
 40
6.284170385501663
 40
6.419718138764533
 40
6.587285046385783
 40
6.774063446723697
 40
6.96724567811368
 40
7.154024078817666
 40
7.321590987026052
 40
7.45713874089041
 40
7.547859678556146
 40
7.580946138182706
 40
7.608533084714758
 40
7.669224367077734
 40
7.729915649429951
 40
7.757502595950002
 40
7.790278062553456
 40
7.880146277430954
 40
8.014419963180416
 40
8.180411842397916
 40
8.365434637679385
 40
8.556801071622687
 40
8.7418238668308
 40
8.90781574591631
 40
9.042089431507463
 40
9.131957646249589
 40
9.164733112797165
 40
9.415425063140098
 40
9.667986180958563
 40
9.694169807462702
 40
9.756607686047689
 40
9.83113031532258
 40
9.893568193900045
 40
9.919751820398861
 40
9.950967964690696
 40
9.996421631210806
 40
10.22087981037469
 40
10.44341866197558
 40
10.4784797078887
 40
10.57091337438771
 40
10.70159545461245
 40
10.85140174170376
 40
11.00120802880493
 40
11.13189010907399
 40
11.22432377583027
 40
11.25938480938973
 40
11.28697175596161
 40
11.34766303835935
 40
11.40835432042085
 40
11.4359412589212
 40
11.4359412589212
 40
11.4359412589212
 40
11.4359412589212
 10
190.0818114333289
 20
15.55242795125078
 10
190.0702785844941
 20
15.55242790287916
 10
190.0283409444998
 20
15.55242773704165
 10
189.9434129719026
 20
15.5524312580091
 10
189.8207688553128
 20
15.55240926435879
 10
189.6791206916993
 20
15.55250801177055
 10
189.537975369849
 20
15.55214686232421
 10
189.4141351317905
 20
15.5532188360909
 10
189.3317217825382
 20
15.55092249091269
 10
189.1727791229692
 20
15.56048569373421
 10
189.3503402353375
 20
15.1978539431137
 10
189.3379739205452
 20
14.95243127723115
 10
189.4064519473864
 20
14.66862501324835
 10
189.4693024320969
 20
14.43250999939036
 10
189.5452253431728
 20
14.2332674039613
 10
189.6303189577015
 20
14.07745347451375
 10
189.7244607592935
 20
13.97657857781394
 10
189.8282648207728
 20
13.92465852638965
 10
189.9125872030773
 20
13.97606484379619
 10
189.9351322179451
 20
14.09144544037518
 10
189.9745730975371
 20
14.21885149702382
 10
189.9202919734942
 20
14.53622328086757
 10
190.0451218072473
 20
14.38982180140906
 10
190.2019291513603
 20
14.35795300331172
 10
190.0947720007057
 20
14.12421357767629
 10
190.0808711209867
 20
13.95972776583658
 10
190.0234709467225
 20
13.83130869122482
 10
189.9335020145007
 20
13.76018802352828
 10
189.8095274657876
 20
13.74432324142254
 10
189.663427319686
 20
13.77993797554173
 10
189.5243894320283
 20
13.90000570500279
 10
189.4102003962144
 20
14.0743568255032
 10
189.3146141301486
 20
14.29946603111242
 10
189.2318652572626
 20
14.56388246006443
 10
189.1807179256411
 20
14.88187933098544
 10
189.0770189207338
 20
15.15543728488913
 10
189.204284120852
 20
15.56005818612868
 10
189.0357890623018
 20
15.55112367849679
 10
188.9511995787077
 20
15.55315961418364
 10
188.8189876387627
 20
15.55213937388407
 10
188.6560505094104
 20
15.5525323031843
 10
188.4733759170532
 20
15.55235696313369
 10
188.2847057373383
 20
15.55260105307469
 10
188.1014469020189
 20
15.55185657906237
 10
187.9404746832718
 20
15.55416360522426
 10
187.8029808335276
 20
15.54799804883663
 10
187.728959037231
 20
15.56032838458213
 10
187.6613215186856
 20
15.54329323723556
 10
187.673237371927
 20
15.59524438447529
 10
187.6655677285694
 20
15.64071424966529
 10
187.6732592225115
 20
15.68614453703706
 10
187.6613141797762
 20
15.7380239598457
 10
187.7283588305866
 20
15.72119143490264
 10
187.8017375665676
 20
15.73335409092671
 10
187.9379128305272
 20
15.72727231074958
 10
188.0973811801512
 20
15.72954834315058
 10
188.2789173085836
 20
15.72881233998962
 10
188.4658034862179
 20
15.72905954196134
 10
188.6468012316836
 20
15.72886400799253
 10
188.8080802578878
 20
15.72932234714839
 10
188.9393882124887
 20
15.72812673751205
 10
189.0225051322596
 20
15.73051347319743
 10
189.1556236547814
 20
15.72230605725464
 10
189.0645893502659
 20
15.97752868952655
 10
188.9789633074416
 20
16.24164358328247
 10
189.0990589003455
 20
16.22904442969166
 10
189.1514264948542
 20
16.22694235763075
 10
189.2214497569716
 20
16.22535399889659
 10
189.2671922337817
 20
16.21602567538113
 10
189.3220812646934
 20
16.22545966915428
 10
189.2963574785681
 20
16.17733028655173
 10
189.1825397571453
 20
16.18266829744168
 10
189.3159346621136
 20
15.95449174576776
 10
189.1943658735472
 20
15.72156856595923
 10
189.3223188769412
 20
15.73087258884438
 10
189.4049048406461
 20
15.7280100175468
 10
189.5307214850824
 20
15.72923437412302
 10
189.6741469838057
 20
15.72932431888965
 10
189.8157420951728
 20
15.72746163183853
 10
189.9459127249967
 20
15.73333075937163
 10
190.0193452286191
 20
15.72070340823204
 10
190.0891112922096
 20
15.73877563110412
 10
190.0775772605396
 20
15.68612850546326
 10
190.0833184346682
 20
15.64221317686548
 10
190.0816615770911
 20
15.5908998267655
 10
190.081775756167
 20
15.56158792021635
 10
190.0818114333289
 20
15.55242795125078
 97
        1
330
B1
 75
     1
 76
     2
 52
45.0
 41
0.1
 77
     0
 78
     1
 53
45.0
 43
0.0
 44
0.0
 45
-0.282842712474619
 46
0.0
 79
     0
 98
        1
 10
0.0
 20
0.0
  0
HATCH
  5
CF
330
48
100
AcDbEntity
  8
1
  6
Continuous
 62
     2
100
AcDbHatch
 10
0.0
 20
0.0
 30
0.0
210
0.0
220
0.0
230
1.0
  2
CUSTOM9
 70
     0
 71
     1
 91
        1
 92
        1
 93
        1
 72
     4
 94
        3
 73
     0
 74
     0
 95
      118
 96
      114
 40
0.0
 40
0.0
 40
0.0
 40
0.0
 40
0.1054708162973237
 40
0.246609827005189
 40
0.3965912874591364
 40
0.5285525069754106
 40
0.6156245055642187
 40
0.6431434105797499
 40
0.7036850037986372
 40
0.7642265984504938
 40
0.791745505235541
 40
0.9287404319990227
 40
1.106572819088044
 40
1.287544879681045
 40
1.317578308030564
 40
1.399928030857201
 40
1.522968204799975
 40
1.675072986590596
 40
1.844616533180672
 40
2.019973001638739
 40
2.189516548880052
 40
2.341621331585388
 40
2.464661506320525
 40
2.547011229647088
 40
2.577044658168054
 40
2.603797890893125
 40
2.662655002908897
 40
2.721512114949737
 40
2.748265347702917
 40
2.774215307344994
 40
2.845959313407322
 40
2.954338556588523
 40
3.0901942275857
 40
3.244367517100667
 40
3.407699615844425
 40
3.571031714539574
 40
3.72520500392025
 40
3.86106067472975
 40
3.969439917716443
 40
4.041183923629116
 40
4.06713388321311
 40
4.311886746012278
 40
4.547897258335623
 40
4.764747083044064
 40
4.952749679951866
 40
5.045772974195993
 40
5.137862019645077
 40
5.330543169793128
 40
5.55344826524412
 40
5.795083855888283
 40
6.043293412177341
 40
6.285761695541285
 40
6.313902908752769
 40
6.384255941793358
 40
6.475714884766947
 40
6.567173827759009
 40
6.637526860839787
 40
6.665668074074151
 40
6.692018920328127
 40
6.749990782071195
 40
6.807962643790565
 40
6.834313490018038
 40
6.856393084245288
 40
6.91333519564994
 40
6.991194817302575
 40
7.07602694228378
 40
7.153886563725298
 40
7.210828674844824
 40
7.232908268931159
 40
7.25819933492368
 40
7.32487578159233
 40
7.419142481924985
 40
7.527204308841928
 40
7.635266135230505
 40
7.729532834168491
 40
7.796209279292813
 40
7.821500344594759
 40
7.844652988850858
 40
7.899863140541665
 40
7.965759128053832
 40
8.020969279771172
 40
8.044121924046639
 40
8.069356610160723
 40
8.109134395441496
 40
8.132238100191207
 40
8.19314786778657
 40
8.279261678876745
 40
8.37797751267396
 40
8.476693347146744
 40
8.562807160411795
 40
8.623716930826582
 40
8.646820636853535
 40
8.671988793774348
 40
8.73490918582826
 40
8.816705695188974
 40
8.898502204815545
 40
8.961422597378006
 40
8.986590754551118
 40
9.012941600733273
 40
9.070913462380359
 40
9.128885324081853
 40
9.155236170325175
 40
9.180404327929217
 40
9.24332472194829
 40
9.325121234212084
 40
9.406917746637738
 40
9.469838141978194
 40
9.495006288270968
 40
9.51781118437911
 40
9.572192090487109
 40
9.63709833328134
 40
9.69147923951554
 40
9.714284125643578
 40
9.714284125643578
 40
9.714284125643578
 40
9.714284125643578
 10
185.2874469028653
 20
15.2688916318772
 10
185.3090990569037
 20
15.24111869242812
 10
185.3597257109473
 20
15.17618054561234
 10
185.4349383202592
 20
15.068910603129
 10
185.5248482274346
 20
14.95377438266627
 10
185.5709169676674
 20
14.85357045748322
 10
185.6655825294654
 20
14.78434006814943
 10
185.6204439320412
 20
14.73771639678274
 10
185.5947047785789
 20
14.6966030886604
 10
185.5645196708012
 20
14.6606597172794
 10
185.519368473056
 20
14.58579782596096
 10
185.4710504458562
 20
14.80782524253603
 10
185.3968539713073
 20
14.84510677337714
 10
185.2836047324607
 20
15.11610202130603
 10
185.2885133578169
 20
15.00095328446229
 10
185.2868486556306
 20
14.92836675781628
 10
185.2876830076713
 20
14.80625588483987
 10
185.2873609540265
 20
14.65913800810462
 10
185.2875076912455
 20
14.49307063956558
 10
185.2872950092723
 20
14.32187554608603
 10
185.2879497252034
 20
14.15552828635499
 10
185.2859192461139
 20
14.00935173055694
 10
185.291346039993
 20
13.88471047474611
 10
185.2804930868708
 20
13.81718656540628
 10
185.2956739155554
 20
13.75549061417023
 10
185.2457895108133
 20
13.76727503897004
 10
185.2017150342522
 20
13.7594382277997
 10
185.1582371630199
 20
13.76760441372704
 10
185.1092346786488
 20
13.75538056738469
 10
185.1218731234824
 20
13.80960667249314
 10
185.1130182968449
 20
13.86936918907559
 10
185.1175058770312
 20
13.9792202904437
 10
185.115796013599
 20
14.1102997540568
 10
185.1163550915985
 20
14.26198011444329
 10
185.1161928768692
 20
14.42211074929954
 10
185.1162269924674
 20
14.58236865674567
 10
185.1162514960125
 20
14.7337024752044
 10
185.1161453543224
 20
14.86582156338601
 10
185.116429914193
 20
14.97294802533195
 10
185.1158675547566
 20
15.03808619579474
 10
185.1180765083687
 20
15.16618957858676
 10
185.0319435998601
 20
14.79097610391577
 10
184.95551408185
 20
14.63918193123395
 10
184.8660040767833
 20
14.47766206446306
 10
184.7640413217327
 20
14.20471848820173
 10
184.7187976491038
 20
14.36717346596512
 10
184.6102355941671
 20
14.45605432058121
 10
184.7995791751753
 20
14.6054979496141
 10
184.85653405457
 20
14.79749136974926
 10
184.9717520993352
 20
15.02899622906759
 10
184.9940151630132
 20
15.21797259759064
 10
185.177190515214
 20
15.49454089325931
 10
185.0538033597552
 20
15.48698978832095
 10
184.9925684166834
 20
15.48856772366119
 10
184.9081999617064
 20
15.48882592573673
 10
184.8204235085966
 20
15.48544845751206
 10
184.7656768696122
 20
15.49394814982021
 10
184.7104703026025
 20
15.48048561049789
 10
184.7222823035536
 20
15.52931442126765
 10
184.7142496151794
 20
15.57269004896709
 10
184.7228186104679
 20
15.61509438309575
 10
184.7102943409156
 20
15.66267796552118
 10
184.7555101538735
 20
15.6526721299511
 10
184.8014815562723
 20
15.65894105174061
 10
184.877722204771
 20
15.65593561405874
 10
184.9561296131993
 20
15.65770448278542
 10
185.0323992648932
 20
15.65464793981661
 10
185.0783009459473
 20
15.66103971376178
 10
185.1231733965399
 20
15.65093822978897
 10
185.1105552275633
 20
15.701572015819
 10
185.1191936582705
 20
15.75501261882071
 10
185.1152361595441
 20
15.84863255131681
 10
185.1162325068333
 20
15.95112606688925
 10
185.1171927413072
 20
16.05353270248165
 10
185.1133211458004
 20
16.14735929609321
 10
185.1217789814363
 20
16.20036542840354
 10
185.1093075932834
 20
16.2521143565119
 10
185.1542106389849
 20
16.23850747226757
 10
185.1955083836771
 20
16.24100480320587
 10
185.259534428105
 20
16.23648060574488
 10
185.2986111148786
 20
16.22781003043309
 10
185.3476543498742
 20
16.23515102070687
 10
185.3225080030591
 20
16.19602896051761
 10
185.2815901333723
 20
16.20563842455809
 10
185.2910109616604
 20
16.1554014816978
 10
185.2855647318746
 20
16.10385945639491
 10
185.2881699601804
 20
16.01959707584522
 10
185.2870102202154
 20
15.92559135583409
 10
185.2883591064231
 20
15.83196865395527
 10
185.2849970101509
 20
15.74679517552224
 10
185.2920959917769
 20
15.69716856072045
 10
185.2812569154545
 20
15.6499369496999
 10
185.3304010225245
 20
15.66201674936852
 10
185.3794877630146
 20
15.65447393363012
 10
185.4573714280641
 20
15.65686070361433
 10
185.5350365172896
 20
15.65899381905416
 10
185.5845393931355
 20
15.65193391922456
 10
185.6344594750639
 20
15.66360151936215
 10
185.6223198516881
 20
15.61540235371394
 10
185.6305838229143
 20
15.57249219801236
 10
185.6223198650783
 20
15.52958201851386
 10
185.6344594549855
 20
15.48138288754865
 10
185.5845395158746
 20
15.49305034471511
 10
185.5350350651203
 20
15.48599202435046
 10
185.4573784382972
 20
15.48811665228604
 10
185.379464386576
 20
15.49053389365761
 10
185.3304500352715
 20
15.48291848194486
 10
185.2813246108943
 20
15.49507952557594
 10
185.291555998857
 20
15.45073013424158
 10
185.2856677678054
 20
15.40925436202913
 10
185.2878788305569
 20
15.34915394315304
 10
185.2874109346146
 20
15.3022578276289
 10
185.2874386992913
 20
15.27650146418197
 10
185.2874469028653
 20
15.2688916318772
 97
        1
330
B2
 75
     1
 76
     2
 52
45.0
 41
0.1
 77
     0
 78
     1
 53
45.0
 43
0.0
 44
0.0
 45
-0.282842712474619
 46
0.0
 79
     0
 98
        1
 10
0.0
 20
0.0
  0
HATCH
  5
D0
330
48
100
AcDbEntity
  8
1
  6
Continuous
 62
     2
100
AcDbHatch
 10
0.0
 20
0.0
 30
0.0
210
0.0
220
0.0
230
1.0
  2
CUSTOM10
 70
     0
 71
     1
 91
        1
 92
        1
 93
        1
 72
     4
 94
        3
 73
     0
 74
     0
 95
       47
 96
       43
 40
0.0
 40
0.0
 40
0.0
 40
0.0
 40
0.2207912809957266
 40
0.4459404186303186
 40
0.4902387190459973
 40
0.5327473892722081
 40
0.5742260451226252
 40
0.6155432630561828
 40
0.6568164066316744
 40
0.6982511618781668
 40
0.7407663929318177
 40
0.7851366743176248
 40
1.01028883383643
 40
1.231080507002288
 40
1.451765243652512
 40
1.676638205891803
 40
1.720461045359773
 40
1.830018144043638
 40
1.972442372353269
 40
2.114866600677638
 40
2.224423699395263
 40
2.268246538883504
 40
2.493628801207334
 40
2.715602830286724
 40
2.934211330706486
 40
3.149502369855484
 40
3.231387784851129
 40
3.318231873854164
 40
3.405143198198152
 40
3.486970301720673
 40
3.702258172494125
 40
3.920866283534359
 40
4.14283932593214
 40
4.3682219038656
 40
4.41204474336008
 40
4.521601842096096
 40
4.664026070452576
 40
4.806450298809286
 40
4.916007397546978
 40
4.9598302370433
 40
5.184703515847336
 40
5.40538725076771
 40
5.40538725076771
 40
5.40538725076771
 40
5.40538725076771
 10
182.6507427258645
 20
15.73406440953873
 10
182.6568139420002
 20
15.79758482501212
 10
182.6690762107243
 20
15.92587938689629
 10
182.5604706879411
 20
16.2016622017408
 10
182.6761985896603
 20
16.17188133432056
 10
182.7171842509015
 20
16.16765556262821
 10
182.7591205797518
 20
16.16310446389609
 10
182.800419662571
 20
16.16201982929487
 10
182.8417032115555
 20
16.16310338195228
 10
182.8836148270647
 20
16.16766112711345
 10
182.9245983549019
 20
16.17187430209729
 10
183.0404922843489
 20
16.20177611317537
 10
182.9295652727456
 20
15.9233980660989
 10
182.9574856365266
 20
15.74283140824954
 10
182.9404267346969
 20
15.50961042346473
 10
182.9414637282101
 20
15.34906622543146
 10
182.9414099399404
 20
15.22284817558723
 10
182.9414277372479
 20
15.12428963336242
 10
182.9414188581079
 20
14.99280702442964
 10
182.9414263928033
 20
14.8613284496865
 10
182.9414129405128
 20
14.76276222694091
 10
182.9414531717491
 20
14.63639735624153
 10
182.9406746403817
 20
14.47482068822871
 10
182.9565958319265
 20
14.24361821892915
 10
182.9333468885408
 20
14.05874351972004
 10
183.0360183444366
 20
13.78935602770056
 10
182.8820238362836
 20
13.82660112685817
 10
182.8004129802833
 20
13.82137994680535
 10
182.7188192292582
 20
13.82660620378351
 10
182.5648513666842
 20
13.78937069885385
 10
182.6674183421917
 20
14.0587512986288
 10
182.6442045316088
 20
14.24361585325416
 10
182.6600444655139
 20
14.47482218565639
 10
182.6593296313426
 20
14.63639712308504
 10
182.6593664569907
 20
14.76276231210521
 10
182.659354900027
 20
14.86132756635982
 10
182.6593575019214
 20
14.99281127417221
 10
182.6593648531779
 20
15.124275480312
 10
182.6593442541351
 20
15.22287786275327
 10
182.6594082192028
 20
15.34896149354428
 10
182.6581733947591
 20
15.51210091383773
 10
182.6532040396745
 20
15.66054183777551
 10
182.6507427258645
 20
15.73406440953873
 97
        1
330
B3
 75
     1
 76
     2
 52
45.0
 41
0.1
 77
     0
 78
     1
 53
45.0
 43
0.0
 44
0.0
 45
-0.282842712474619
 46
0.0
 79
     0
 98
        1
 10
0.0
 20
0.0
  0
HATCH
  5
D1
330
48
100
AcDbEntity
  8
1
  6
Continuous
 62
     2
100
AcDbHatch
 10
0.0
 20
0.0
 30
0.0
210
0.0
220
0.0
230
1.0
  2
CUSTOM11
 70
     0
 71
     1
 91
        1
 92
        1
 93
        1
 72
     4
 94
        3
 73
     0
 74
     0
 95
      110
 96
      106
 40
0.0
 40
0.0
 40
0.0
 40
0.0
 40
0.2203406257277649
 40
0.4407808782838109
 40
0.5952494494615089
 40
0.7488431659393093
 40
0.9023581831309077
 40
1.056801968670406
 40
1.210736449099906
 40
1.363041386539785
 40
1.515315729683128
 40
1.669377239148079
 40
1.721611652756566
 40
1.77319950294296
 40
1.82493379321001
 40
1.877110426487992
 40
1.982682281206755
 40
2.078781667087564
 40
2.172809640822285
 40
2.27193780737894
 40
2.378349933379333
 40
2.494131557736521
 40
2.626681683943655
 40
2.783145050796082
 40
2.890701232940942
 40
2.99313031245484
 40
3.099869730691817
 40
3.220237816691311
 40
3.352695482737601
 40
3.481732806389852
 40
3.593499473690378
 40
3.674323013331898
 40
3.817951711952791
 40
3.946167120793846
 40
4.061405053453503
 40
4.166480796003172
 40
4.262478775059209
 40
4.350736673551081
 40
4.433071991254023
 40
4.511216293814653
 40
4.564262454117979
 40
4.618474415571599
 40
4.67012848875419
 40
4.722296879126382
 40
4.81954094531425
 40
4.931194984128107
 40
5.049996040257748
 40
5.168643755415294
 40
5.283970811762506
 40
5.392260784910417
 40
5.486512254876435
 40
5.559178233949805
 40
5.591425852853476
 40
5.62621596963786
 40
5.667155838674402
 40
5.717449290214213
 40
5.738402360944828
 40
5.784499116553792
 40
5.830595872164763
 40
5.85154894289762
 40
5.873019280661734
 40
5.924217778408278
 40
5.985325662817657
 40
6.03652416056767
 40
6.0579944983342
 40
6.236847789607453
 40
6.381409928945624
 40
6.493190424178654
 40
6.574067534230453
 40
6.691018086205519
 40
6.814881554220351
 40
6.944307823240417
 40
7.071266716066041
 40
7.193488604461885
 40
7.309042773128113
 40
7.414007203170738
 40
7.505140441886495
 40
7.53115036059967
 40
7.55922164532226
 40
7.587202218920917
 40
7.612569159499131
 40
7.662550809481011
 40
7.702878875764147
 40
7.857328205230989
 40
8.010799568088691
 40
8.165256399657613
 40
8.322232698713895
 40
8.479564855016582
 40
8.635216230290785
 40
8.790882550925703
 40
8.948305154947269
 40
9.168271839032963
 40
9.38735898098723
 40
9.608047961033474
 40
9.832914234792673
 40
9.858338694963008
 40
9.925366817230016
 40
10.0201307142276
 40
10.12876249858999
 40
10.23739428295249
 40
10.33215817995191
 40
10.39918630222394
 40
10.42461076239783
 40
10.64992019336943
 40
10.87188524531189
 40
10.87188524531189
 40
10.87188524531189
 40
10.87188524531189
 10
179.9057788376618
 20
15.73923260398192
 10
179.909286493354
 20
15.80616462073805
 10
179.9163033987662
 20
15.9400589191586
 10
179.8198027599072
 20
16.22548554971472
 10
180.0510134726108
 20
16.16284386190284
 10
180.1919290057156
 20
16.17001554055992
 10
180.3490417757588
 20
16.16235883078246
 10
180.5025913427287
 20
16.16252752283043
 10
180.6545104935081
 20
16.16182040535433
 10
180.8142214813232
 20
16.17210158351641
 10
180.9408972601117
 20
16.15496511080752
 10
181.1370821122081
 20
16.22727260107148
 10
181.1034395279078
 20
16.12640699080119
 10
181.1052011317184
 20
16.07619253947671
 10
181.1027342073458
 20
16.02712335586467
 10
181.1347076966011
 20
15.94063490846999
 10
181.0010399903256
 20
15.98997438608337
 10
180.9172208688056
 20
15.98430634314169
 10
180.8173861139324
 20
15.99465516706299
 10
180.7186576720145
 20
16.00086450411088
 10
180.612153277111
 20
16.00697763816779
 10
180.491051169806
 20
16.01588883484588
 10
180.3703381502453
 20
16.00521605912384
 10
180.1812553843437
 20
16.06468503080368
 10
180.2129028505311
 20
15.9055832007754
 10
180.1995563316834
 20
15.80839128339905
 10
180.197495842645
 20
15.69634065110103
 10
180.195818804467
 20
15.57699685629352
 10
180.1973336794233
 20
15.45032592155111
 10
180.195658247867
 20
15.32301588016118
 10
180.2058844271658
 20
15.22451566404466
 10
180.1779006596582
 20
15.08388702625633
 10
180.3508029999306
 20
15.13989551134096
 10
180.4645020202771
 20
15.12719951478499
 10
180.5840151672239
 20
15.13448377051256
 10
180.6888491425071
 20
15.13878017056756
 10
180.7843084898611
 20
15.14330568258977
 10
180.8763823507031
 20
15.15149201146203
 10
180.9476551782438
 20
15.14643850638111
 10
181.0544931705685
 20
15.18536425031676
 10
181.0226603598036
 20
15.10517122005881
 10
181.0266164503929
 20
15.05562936846034
 10
181.0234502392013
 20
15.0055747803982
 10
181.0550791490585
 20
14.92128847612025
 10
180.9210133677691
 20
14.97425365495158
 10
180.82923227932
 20
14.96540080890442
 10
180.7079729189603
 20
14.97570049965155
 10
180.5914113119771
 20
14.97748911767503
 10
180.4783375745879
 20
14.97787017109695
 10
180.367924630847
 20
14.98415449472181
 10
180.2898124067841
 20
14.97189133255365
 10
180.1913625833643
 20
15.00453887616126
 10
180.2012355173562
 20
14.94769748054207
 10
180.1973923244402
 20
14.91392130557984
 10
180.1966789884268
 20
14.87119604709411
 10
180.1963369642975
 20
14.83401607262153
 10
180.1963834255345
 20
14.79487237370771
 10
180.1963649429927
 20
14.75716849497686
 10
180.1963703431806
 20
14.71944955232403
 10
180.1963697214201
 20
14.68994324745151
 10
180.1963698151545
 20
14.65873577699302
 10
180.1963704287921
 20
14.61414424908086
 10
180.1963671499336
 20
14.55963956508852
 10
180.196375962348
 20
14.51505540201448
 10
180.1963359653418
 20
14.43117808585743
 10
180.1976024270255
 20
14.31737520677678
 10
180.1950274117842
 20
14.1683039593371
 10
180.206500938172
 20
14.06597203813907
 10
180.1823506222263
 20
13.93338903885837
 10
180.3332993946476
 20
13.97895732272022
 10
180.4428436671555
 20
13.96427012162351
 10
180.573397047392
 20
13.96920435125065
 10
180.6990312209513
 20
13.97257705323362
 10
180.8188730625601
 20
13.97711497498773
 10
180.9391362611426
 20
13.99048536182007
 10
181.0222761663515
 20
13.98068712782597
 10
181.1456080421074
 20
14.0412621462332
 10
181.1244269203956
 20
13.98532460134022
 10
181.1235950270115
 20
13.95939249372347
 10
181.1218963707558
 20
13.9319725619094
 10
181.1217974888828
 20
13.89738195206386
 10
181.120365930133
 20
13.86050408220768
 10
181.153280419219
 20
13.76846841021807
 10
180.9551306988107
 20
13.84132015974833
 10
180.8300548294889
 20
13.81825726508606
 10
180.6673071295156
 20
13.82454021985787
 10
180.5129366450001
 20
13.82260943909926
 10
180.3566670436944
 20
13.82393762599269
 10
180.1970544465282
 20
13.82059872487863
 10
180.0540326342236
 20
13.83265795728241
 10
179.8197144881628
 20
13.76952001976919
 10
179.9173810751197
 20
14.05620527466319
 10
179.9006868780059
 20
14.24988308142661
 10
179.9146296709683
 20
14.47848242880296
 10
179.9142987846632
 20
14.63384593955049
 10
179.9143078119263
 20
14.73966336444127
 10
179.9143055876316
 20
14.80205784124215
 10
179.9143065551889
 20
14.89220425248328
 10
179.9143065473261
 20
14.99621167157439
 10
179.9143053861102
 20
15.10022131375298
 10
179.9143090971502
 20
15.19036243688768
 10
179.9143011051052
 20
15.25276803097216
 10
179.9143334275017
 20
15.35868835961119
 10
179.9131440788319
 20
15.51626716544741
 10
179.9082216489256
 20
15.66528219822067
 10
179.9057788376618
 20
15.73923260398192
 97
        1
330
B4
 75
     1
 76
     2
 52
45.0
 41
0.1
 77
     0
 78
     1
 53
45.0
 43
0.0
 44
0.0
 45
-0.282842712474619
 46
0.0
 79
     0
 98
        1
 10
0.0
 20
0.0
  0
HATCH
  5
D2
330
48
100
AcDbEntity
  8
1
  6
Continuous
 62
     2
100
AcDbHatch
 10
0.0
 20
0.0
 30
0.0
210
0.0
220
0.0
230
1.0
  2
CUSTOM12
 70
     0
 71
     1
 91
        1
 92
        1
 93
        1
 72
     4
 94
        3
 73
     0
 74
     0
 95
       95
 96
       91
 40
0.0
 40
0.0
 40
0.0
 40
0.0
 40
0.6550406656911197
 40
1.308087289031881
 40
1.420803739835751
 40
1.566130759770754
 40
1.757067341888414
 40
2.006513545026414
 40
2.087328263121509
 40
2.185328872295586
 40
2.294612454748326
 40
2.408936380534768
 40
2.526802767798519
 40
2.646360524615566
 40
2.762535723971544
 40
2.870057342870115
 40
2.9668834484316
 40
3.050803243518251
 40
3.115818222436564
 40
3.156030057150203
 40
3.213914225080133
 40
3.276689026450505
 40
3.342960320981282
 40
3.404230667150531
 40
3.453822809493341
 40
3.532499827188396
 40
3.634775188507133
 40
3.75490933300813
 40
3.889736761660627
 40
4.035769602175197
 40
4.187256681197585
 40
4.338733685675927
 40
4.48847873467609
 40
4.634708317831557
 40
4.771493189921244
 40
4.892686571561181
 40
5.199775528944422
 40
5.460353566929607
 40
5.667603142345487
 40
5.814722905404463
 40
5.828990806219761
 40
5.855488336304458
 40
5.86975623711879
 40
6.189796507762795
 40
6.531890469872981
 40
6.883053637016975
 40
7.230512024911389
 40
7.566966656764552
 40
7.885203559707322
 40
8.17288743971914
 40
8.418011594062737
 40
8.443926721190659
 40
8.510760470613148
 40
8.60214539379566
 40
8.7017140416471
 40
8.793098965075334
 40
8.85993271505791
 40
8.885847842603559
 40
9.242301256612764
 40
9.589275455016718
 40
9.921808543164122
 40
10.23479624298464
 40
10.29968150889175
 40
10.35323493887754
 40
10.40154625355142
 40
10.46482922477823
 40
10.55973900668405
 40
10.69239545985618
 40
10.84920353475671
 40
11.0162632859478
 40
11.18672024367443
 40
11.3537258257721
 40
11.50257442292426
 40
11.6186649502329
 40
11.71329869152874
 40
11.82511050573907
 40
11.94464880845716
 40
12.06929242642507
 40
12.19707290435176
 40
12.32562632860528
 40
12.45034565331279
 40
12.56646595170327
 40
12.67099007414635
 40
12.76077625936782
 40
12.82703233506694
 40
12.87429132785993
 40
12.89831990323332
 40
12.9223484786002
 40
13.5398476741032
 40
14.18294284359371
 40
14.18294284359371
 40
14.18294284359371
 40
14.18294284359371
 10
177.306793564802
 20
14.70898038201725
 10
177.1752019758549
 20
14.82265058603233
 10
176.9124193802729
 20
15.0496449631616
 10
176.399739344102
 20
15.89214462956288
 10
176.4106654595363
 20
15.53423377577021
 10
176.404122652799
 20
15.39267392272134
 10
176.4028026631772
 20
15.19421305299282
 10
176.401811760254
 20
15.02150296045984
 10
176.4024101751973
 20
14.8786537325758
 10
176.4038994301883
 20
14.78265005413359
 10
176.4055683588472
 20
14.67545503263142
 10
176.4071934954617
 20
14.56164211517583
 10
176.4092429501685
 20
14.44441572604589
 10
176.4123165501928
 20
14.32656411232971
 10
176.4156339697042
 20
14.2122808732062
 10
176.419360534028
 20
14.10521401867278
 10
176.4217338161423
 20
14.01007408766922
 10
176.4278718888356
 20
13.92558557205696
 10
176.4239784495947
 20
13.86923087298143
 10
176.4455230443077
 20
13.79825022472355
 10
176.3680940058617
 20
13.82902677604483
 10
176.3116353240191
 20
13.82011242517615
 10
176.2540495896806
 20
13.82896218398275
 10
176.1690163478472
 20
13.79738225225946
 10
176.2009714146382
 20
13.88095155992191
 10
176.1990705282539
 20
13.9488260896831
 10
176.2107960047299
 20
14.05233256764419
 10
176.2164241053
 20
14.17002125616695
 10
176.223790217894
 20
14.30388609164425
 10
176.2320759701611
 20
14.44764152872632
 10
176.2398851897426
 20
14.59714022843446
 10
176.2457571222657
 20
14.74792549402079
 10
176.2503667817969
 20
14.89699943878439
 10
176.2542632117542
 20
15.04122913163023
 10
176.2570715126564
 20
15.17583905213018
 10
176.2576698755022
 20
15.36469614347356
 10
176.2616023867149
 20
15.58975494313154
 10
176.2442175378499
 20
15.86367091125709
 10
176.2850417342581
 20
16.02787112098595
 10
176.1995153256004
 20
16.227496614651
 10
176.2660558907687
 20
16.22385458403978
 10
176.283872427323
 20
16.22413447160855
 10
176.4056801797502
 20
16.22632927398613
 10
176.5080770335463
 20
15.94675118721516
 10
176.7580021509355
 20
15.74563008536002
 10
176.987003533111
 20
15.47792614987921
 10
177.2245151213108
 20
15.2264641386237
 10
177.4486090740772
 20
14.98969974061366
 10
177.6750716283008
 20
14.73218692583077
 10
177.8325687886514
 20
14.61649335056922
 10
178.0472129612673
 20
14.27997152538792
 10
178.0422645974619
 20
14.40464754091605
 10
178.0433931602546
 20
14.46327691935738
 10
178.0428877841517
 20
14.55043662371978
 10
178.0430475158113
 20
14.64416143182874
 10
178.0430054891318
 20
14.73018971297036
 10
178.0430202040373
 20
14.79153891945498
 10
178.0429706255982
 20
14.94135231520993
 10
178.0458811522811
 20
15.17989612510106
 10
178.0259521041161
 20
15.54486509868702
 10
178.0750433936247
 20
15.80799631993413
 10
177.917795150918
 20
16.21928904947755
 10
178.0762112872421
 20
16.16398282551751
 10
178.1311680478628
 20
16.16199686500177
 10
178.1827887766739
 20
16.16264778248254
 10
178.2713198965366
 20
16.20369527738249
 10
178.2204898303167
 20
16.05696326622988
 10
178.2313389930283
 20
15.95019971954434
 10
178.2166036994848
 20
15.79085705414113
 10
178.2099976446204
 20
15.62853061652875
 10
178.2014961399914
 20
15.45992521892397
 10
178.1943227202199
 20
15.29814814703542
 10
178.1889063215388
 20
15.15422331457933
 10
178.1871713967648
 20
15.03437493466927
 10
178.1875440672318
 20
14.92686101590516
 10
178.1873656126263
 20
14.81820024645587
 10
178.1877010863139
 20
14.69953570165531
 10
178.1890040622184
 20
14.57555163512741
 10
178.1908887351574
 20
14.44858294171106
 10
178.1925004454849
 20
14.32153861551032
 10
178.1941403137429
 20
14.19854884492178
 10
178.1962570745752
 20
14.0830093138376
 10
178.1963848422364
 20
13.98090903955838
 10
178.2006514396553
 20
13.89009848838157
 10
178.1908440085289
 20
13.83213621208787
 10
178.2118474771689
 20
13.7651713013203
 10
178.1725639739897
 20
13.77291153966689
 10
177.9595307117741
 20
13.75755254145193
 10
177.7636297943189
 20
14.31403058094475
 10
177.4611197631543
 20
14.57556035348511
 10
177.306793564802
 20
14.70898038201725
 97
        1
330
B5
 75
     1
 76
     2
 52
45.0
 41
0.1
 77
     0
 78
     1
 53
45.0
 43
0.0
 44
0.0
 45
-0.282842712474619
 46
0.0
 79
     0
 98
        1
 10
0.0
 20
0.0
  0
HATCH
  5
D3
330
48
100
AcDbEntity
  8
1
  6
Continuous
 62
     2
100
AcDbHatch
 10
0.0
 20
0.0
 30
0.0
210
0.0
220
0.0
230
1.0
  2
CUSTOM13
 70
     0
 71
     1
 91
        2
 92
        1
 93
        1
 72
     4
 94
        3
 73
     0
 74
     0
 95
       57
 96
       53
 40
0.0
 40
0.0
 40
0.0
 40
0.0
 40
0.0471632082809231
 40
0.091486105463215
 40
0.1357762519702386
 40
0.182652700161068
 40
0.2295203288572873
 40
0.2737751972220759
 40
0.3181310461543353
 40
0.3652607198398509
 40
0.4571007286314464
 40
0.5671851029165478
 40
0.6894623283868413
 40
0.8181758272546042
 40
0.9510087229274198
 40
1.085852229674054
 40
1.218126164475311
 40
1.343545131142381
 40
1.454537202956797
 40
1.567187607530807
 40
1.680710966642454
 40
1.79422686973679
 40
1.900009184247617
 40
2.004085860447868
 40
2.108162674451756
 40
2.214000150155301
 40
2.496038577352137
 40
2.762350745479276
 40
2.997275353279406
 40
3.185110082137731
 40
3.246407890063957
 40
3.312607550212773
 40
3.378877742711619
 40
3.440140399651444
 40
4.100501696006464
 40
4.754913085563521
 40
5.411331693423928
 40
6.077890432568708
 40
6.110575292670987
 40
6.143260152775767
 40
6.367989363395138
 40
6.610525374951556
 40
6.863389136467305
 40
7.119380025547559
 40
7.376036605091088
 40
7.631164770966263
 40
7.876722425456419
 40
8.104953735855965
 40
8.312916685924304
 40
8.497730294941308
 40
8.65101898431386
 40
8.764738853624594
 40
8.764738853624594
 40
8.764738853624594
 40
8.764738853624594
 10
174.7922649500513
 20
13.81626739612928
 10
174.7766616726931
 20
13.81826231079079
 10
174.7463947960302
 20
13.822132013603
 10
174.7010994202252
 20
13.82341984967269
 10
174.6559553129349
 20
13.82308683554052
 10
174.6099017123399
 20
13.82314658674225
 10
174.5640496172096
 20
13.82325813650002
 10
174.5183711648164
 20
13.82277833456591
 10
174.4750811541608
 20
13.82461109618722
 10
174.4039947951513
 20
13.80049556814659
 10
174.4057477261441
 20
13.92184693977254
 10
174.3586196370568
 20
14.0072623975123
 10
174.3191478251762
 20
14.12486929345137
 10
174.2706635532646
 20
14.24232752540442
 10
174.2201017402521
 20
14.36405935761509
 10
174.1718634610478
 20
14.49075967862468
 10
174.1135232947594
 20
14.59933687784952
 10
174.0980892667262
 20
14.75620657134411
 10
173.9566586330636
 20
14.72373446548323
 10
173.8508397414903
 20
14.7351288868218
 10
173.7358569725222
 20
14.73392591514616
 10
173.6253142252141
 20
14.73506945347408
 10
173.5176583522783
 20
14.73418350037527
 10
173.4121322529242
 20
14.73416602390519
 10
173.3109192682013
 20
14.72714032472416
 10
173.1266804827753
 20
14.75135859859868
 10
173.1157393685411
 20
14.44741691121886
 10
173.008769163475
 20
14.22353177253398
 10
172.9098148604347
 20
14.03895314292498
 10
172.9225090524007
 20
13.79530204804208
 10
172.8050091716397
 20
13.82508046753198
 10
172.7422055868309
 20
13.82258089509604
 10
172.67858720934
 20
13.82344075102806
 10
172.3946014194071
 20
13.78098039941944
 10
173.0251638499383
 20
14.50081952444789
 10
173.108764528907
 20
15.0127653943573
 10
173.492925278934
 20
15.53353743550045
 10
173.4777208288563
 20
16.23519626253213
 10
173.7239265722697
 20
16.22345633081258
 10
173.8256346157561
 20
16.23225004452773
 10
173.8249752035817
 20
15.98059650730344
 10
173.9428317155828
 20
15.79818020733961
 10
174.0315515260485
 20
15.55563740662869
 10
174.1322292485257
 20
15.32340030530124
 10
174.2311142712243
 20
15.08674644566918
 10
174.3299676990667
 20
14.85461739170091
 10
174.4256166390926
 20
14.63122222788791
 10
174.5159904573271
 20
14.42272549049317
 10
174.5989944568189
 20
14.2330844852932
 10
174.6726088582799
 20
14.066631060681
 10
174.7342815895545
 20
13.92917699626098
 10
174.7749458885604
 20
13.84999239430035
 10
174.7922649500513
 20
13.81626739612928
 97
        1
330
B7
 92
       16
 93
        1
 72
     4
 94
        3
 73
     0
 74
     0
 95
       25
 96
       21
 40
0.0
 40
0.0
 40
0.0
 40
0.0
 40
0.0911479969064822
 40
0.1858117896203815
 40
0.2804128399733924
 40
0.3715889190713659
 40
0.4679080494218426
 40
0.5642683809229232
 40
0.6605683222644709
 40
0.756965301581026
 40
0.8561348172522728
 40
1.092615965104278
 40
1.374867658141862
 40
1.611348812011549
 40
1.710518328425207
 40
1.80940316372651
 40
2.045205463294036
 40
2.326646917622095
 40
2.562449217190577
 40
2.661334043833895
 40
2.661334043833895
 40
2.661334043833895
 40
2.661334043833895
 10
173.2683700567199
 20
14.88614538197294
 10
173.2987525917923
 20
14.88598079714556
 10
173.3606895889111
 20
14.88564528689923
 10
173.4541356960329
 20
14.88269055452
 10
173.5475095236357
 20
14.87977752877152
 10
173.6417760753475
 20
14.87894201643417
 10
173.7354964790967
 20
14.87996644658049
 10
173.8352040303204
 20
14.87916977470972
 10
173.9188949546312
 20
14.88921410235221
 10
174.0637996315045
 20
14.86234617674166
 10
173.9396132444801
 20
15.03665530280049
 10
173.8965867286283
 20
15.19651711006095
 10
173.7808922142209
 20
15.45518458550214
 10
173.7017565431258
 20
15.59231052861862
 10
173.6431576621816
 20
15.80937033134078
 10
173.586480393944
 20
15.59266134213428
 10
173.5052809900477
 20
15.45327012438239
 10
173.4063701281489
 20
15.20406969370194
 10
173.3253625094259
 20
15.01925830226076
 10
173.2813683325838
 20
14.91650446856118
 10
173.2683700567199
 20
14.88614538197294
 97
        1
330
B6
 75
     1
 76
     2
 52
45.0
 41
0.1
 77
     0
 78
     1
 53
45.0
 43
0.0
 44
0.0
 45
-0.282842712474619
 46
0.0
 79
     0
 98
        1
 10
0.0
 20
0.0
  0
HATCH
  5
D4
330
48
100
AcDbEntity
  8
1
  6
Continuous
 62
     2
100
AcDbHatch
 10
0.0
 20
0.0
 30
0.0
210
0.0
220
0.0
230
1.0
  2
CUSTOM14
 70
     0
 71
     1
 91
        1
 92
        1
 93
        1
 72
     4
 94
        3
 73
     0
 74
     0
 95
       99
 96
       95
 40
0.0
 40
0.0
 40
0.0
 40
0.0
 40
0.0796417172272467
 40
0.1621768542356024
 40
0.2486489160957659
 40
0.3404969668524631
 40
0.4381912511164645
 40
0.5434463660244949
 40
0.6518115192847269
 40
0.7530190937886841
 40
0.8492196919725103
 40
0.9419290312998168
 40
1.034249663570041
 40
1.129078600620192
 40
1.226697027573239
 40
1.3272204254217
 40
1.470572134938013
 40
1.595489863371214
 40
1.719934125348397
 40
1.850576620127412
 40
1.989059629987302
 40
2.134139054226924
 40
2.280698007207209
 40
2.424529739039477
 40
2.565929576985847
 40
2.708239260773538
 40
2.861717887443654
 40
3.045168540347368
 40
3.183798301138609
 40
3.314813961455454
 40
3.442083470447303
 40
3.569912708372963
 40
3.702177512509362
 40
3.842307559659526
 40
3.992872223245931
 40
4.15675066221832
 40
4.310981861107542
 40
4.445859909322587
 40
4.57239393613158
 40
4.701656719781973
 40
4.768279086008464
 40
4.835960697898416
 40
4.912788918729354
 40
5.00628520848155
 40
5.026909478751627
 40
5.047533749021191
 40
5.101808031471269
 40
5.162325165538553
 40
5.226919745995874
 40
5.294231806596744
 40
5.364544852554892
 40
5.438319055467938
 40
5.517877651324273
 40
5.607647714861585
 40
5.700449642544432
 40
5.788251142364163
 40
5.872714706039793
 40
5.95516729257531
 40
6.0371923951904
 40
6.120669181469132
 40
6.206848616686372
 40
6.296680855416783
 40
6.44255839287262
 40
6.568190371608312
 40
6.692904567360387
 40
6.824220446557164
 40
6.963121850329401
 40
7.107843738851189
 40
7.253431663907301
 40
7.395187468036722
 40
7.533140753237756
 40
7.670550457175261
 40
7.816236511769255
 40
7.987691657359217
 40
8.142277421969252
 40
8.293662615414988
 40
8.442962460879247
 40
8.591598316185296
 40
8.743678992361763
 40
8.903725323699152
 40
9.0763070088905
 40
9.265578604680556
 40
9.45920379536073
 40
9.617619810273517
 40
9.753609671361879
 40
9.874873300004047
 40
9.95452018497775
 40
10.02416413719242
 40
10.09769764405442
 40
10.18909955924969
 40
10.20974586420131
 40
10.23039218263376
 40
10.30057101881261
 40
10.37632012987542
 40
10.37632012987542
 40
10.37632012987542
 40
10.37632012987542
 10
170.1465954835851
 20
14.13795663215995
 10
170.1632217851219
 20
14.11720608845314
 10
170.1970784206577
 20
14.07495111711902
 10
170.2599822541036
 20
14.02029811392073
 10
170.3332500940393
 20
13.97299025121052
 10
170.4175969238636
 20
13.93527231437935
 10
170.5132240615459
 20
13.91040619731952
 10
170.6171853775346
 20
13.90309559345939
 10
170.7224020220405
 20
13.91142322794054
 10
170.8206626371334
 20
13.9414917965153
 10
170.9058986427548
 20
13.98848822971877
 10
170.9779220206102
 20
14.04952991250858
 10
171.0350917709096
 20
14.12412969578584
 10
171.0767868747439
 20
14.21002464660175
 10
171.1026952846292
 20
14.30485850432212
 10
171.1118037332653
 20
14.41854979038368
 10
171.0986864796487
 20
14.54332587770779
 10
171.0325330334414
 20
14.66014719171893
 10
170.9369370919568
 20
14.74512539577374
 10
170.8249681022369
 20
14.81416684459162
 10
170.6993659583269
 20
14.87204142045891
 10
170.5656691620856
 20
14.92373723284343
 10
170.4313122818831
 20
14.97899092397182
 10
170.3051983986877
 20
15.0493977064165
 10
170.1926579987535
 20
15.13785540731251
 10
170.0969963064457
 20
15.24981067868473
 10
170.0334157151826
 20
15.39949910101384
 10
170.0200706505015
 20
15.55932794385143
 10
170.0320510987448
 20
15.71048405306846
 10
170.071229892884
 20
15.83809244591539
 10
170.135498775091
 20
15.95080874030846
 10
170.223820499974
 20
16.04648609268687
 10
170.3338091207627
 20
16.12354214985754
 10
170.4632284401265
 20
16.18151396936278
 10
170.6111838967794
 20
16.21739177588823
 10
170.7682069455487
 20
16.22746719050565
 10
170.917494046643
 20
16.21863637762591
 10
171.059625361417
 20
16.19074899340353
 10
171.1595922609625
 20
16.13413314701139
 10
171.3125074736184
 20
16.08674602105508
 10
171.2455131717168
 20
16.00197553001186
 10
171.2296479120268
 20
15.93438901873484
 10
171.1978750531296
 20
15.86926092793192
 10
171.2150202209572
 20
15.76723453256955
 10
171.1666427208231
 20
15.77493211681902
 10
171.1315789440766
 20
15.76806771724808
 10
171.1296697985718
 20
15.83263831158196
 10
171.0985692931989
 20
15.87825639621396
 10
171.0664551628455
 20
15.93561036628456
 10
171.0208038475169
 20
15.9854046269256
 10
170.9658508218386
 20
16.02994813718995
 10
170.9010841173007
 20
16.06763988836551
 10
170.8232377310597
 20
16.09283375791353
 10
170.7355160553352
 20
16.09931230998111
 10
170.6452903277807
 20
16.09235709285608
 10
170.5594594694064
 20
16.06909190460922
 10
170.4828343638596
 20
16.03131644107546
 10
170.4165265636201
 20
15.98051641089575
 10
170.3622560536964
 20
15.91731143407211
 10
170.3224925345459
 20
15.84276455710368
 10
170.2976775510588
 20
15.75917313997765
 10
170.2892124262869
 20
15.65192948382286
 10
170.3019697987104
 20
15.5296545726756
 10
170.3681548409273
 20
15.41149724291212
 10
170.4640977399832
 20
15.32606325709528
 10
170.5757914963183
 20
15.25583362306724
 10
170.7010863668702
 20
15.19659162305305
 10
170.8349823941447
 20
15.14616708086133
 10
170.968993033315
 20
15.09322516984383
 10
171.0950885316915
 20
15.02750170625177
 10
171.2076216638417
 20
14.9448035253732
 10
171.3031370284233
 20
14.83996006310077
 10
171.3672706486961
 20
14.69937117251569
 10
171.3811103725278
 20
14.54065409451593
 10
171.3673954712228
 20
14.38153155217878
 10
171.3244739153985
 20
14.23483828819209
 10
171.2545906329065
 20
14.10119796587142
 10
171.1574592213829
 20
13.98532387699292
 10
171.0347806023657
 20
13.89089981770089
 10
170.8874408413167
 20
13.82179270651981
 10
170.7177132497125
 20
13.77953210858854
 10
170.5317404979596
 20
13.76781736230408
 10
170.3528955926183
 20
13.77809486683438
 10
170.1881733753743
 20
13.81966573769154
 10
170.0834410841056
 20
13.88797642883942
 10
169.9350960790366
 20
13.93675219032107
 10
169.9980378194729
 20
14.02976591290842
 10
170.007227443006
 20
14.10296536248281
 10
170.0303711301231
 20
14.16936294501346
 10
170.0034588335317
 20
14.26974809527582
 10
170.0521338956339
 20
14.26234033517379
 10
170.0916530580697
 20
14.26894063620896
 10
170.0996204944702
 20
14.19078703218933
 10
170.1305436967922
 20
14.15600927375857
 10
170.1465954835851
 20
14.13795663215995
 97
        1
330
B8
 75
     1
 76
     2
 52
45.0
 41
0.1
 77
     0
 78
     1
 53
45.0
 43
0.0
 44
0.0
 45
-0.282842712474619
 46
0.0
 79
     0
 98
        1
 10
0.0
 20
0.0
  0
ENDBLK
  5
4A
330
48
100
AcDbEntity
  8
0
100
AcDbBlockEnd
  0
BLOCK
  5
4D
330
4B
100
AcDbEntity
  8
0
100
AcDbBlockBegin
  2
開示A4枠
 70
     0
 10
0.0
 20
0.00000000000001
 30
0.0
  3
開示A4枠
  1

  0
INSERT
  5
4C
330
4B
100
AcDbEntity
  8
1
100
AcDbBlockReference
  2
開示A4
 10
0.0
 20
0.00000000000001
 30
0.0
  0
ENDBLK
  5
4E
330
4B
100
AcDbEntity
  8
0
100
AcDbBlockEnd
  0
BLOCK
  5
50
330
4F
100
AcDbEntity
  8
0
100
AcDbBlockBegin
  2
P88
 70
     0
 10
109.411541080634
 20
129.0429189160282
 30
0.0
  3
P88
  1

  0
LINE
  5
D5
330
4F
100
AcDbEntity
  8
1
  6
Continuous
 62
     7
100
AcDbLine
 10
113.661541080634
 20
143.0429189160281
 30
0.0
 11
116.161541080634
 21
143.0429189160281
 31
0.0
  0
LINE
  5
D6
330
4F
100
AcDbEntity
  8
1
  6
Continuous
 62
     7
100
AcDbLine
 10
113.661541080634
 20
129.0429189160282
 30
0.0
 11
113.661541080634
 21
143.0429189160281
 31
0.0
  0
LINE
  5
D7
330
4F
100
AcDbEntity
  8
1
  6
Continuous
 62
     7
100
AcDbLine
 10
114.661541080634
 20
144.0429189160281
 30
0.0
 11
113.661541080634
 21
143.0429189160281
 31
0.0
  0
LINE
  5
D8
330
4F
100
AcDbEntity
  8
1
  6
Continuous
 62
     7
100
AcDbLine
 10
116.161541080634
 20
144.0429189160281
 30
0.0
 11
114.661541080634
 21
144.0429189160281
 31
0.0
  0
LINE
  5
D9
330
4F
100
AcDbEntity
  8
1
  6
Continuous
 62
     7
100
AcDbLine
 10
116.161541080634
 20
143.0429189160281
 30
0.0
 11
118.661541080634
 21
143.0429189160281
 31
0.0
  0
LINE
  5
DA
330
4F
100
AcDbEntity
  8
1
  6
Continuous
 62
     7
100
AcDbLine
 10
118.661541080634
 20
143.0429189160281
 30
0.0
 11
118.661541080634
 21
129.0429189160282
 31
0.0
  0
LINE
  5
DB
330
4F
100
AcDbEntity
  8
1
  6
Continuous
 62
     7
100
AcDbLine
 10
118.661541080634
 20
143.0429189160281
 30
0.0
 11
117.661541080634
 21
144.0429189160281
 31
0.0
  0
LINE
  5
DC
330
4F
100
AcDbEntity
  8
1
  6
Continuous
 62
     7
100
AcDbLine
 10
117.661541080634
 20
144.0429189160281
 30
0.0
 11
116.161541080634
 21
144.0429189160281
 31
0.0
  0
CIRCLE
  5
DD
330
4F
100
AcDbEntity
  8
1
  6
Continuous
 62
     7
100
AcDbCircle
 10
116.161541080634
 20
180.3505083383001
 30
0.0
 40
2.5
  0
CIRCLE
  5
DE
330
4F
100
AcDbEntity
  8
1
  6
Continuous
 62
     7
100
AcDbCircle
 10
116.161541080634
 20
180.3505083383001
 30
0.0
 40
1.5
  0
CIRCLE
  5
DF
330
4F
100
AcDbEntity
  8
1
  6
Continuous
 62
     7
100
AcDbCircle
 10
116.161541080634
 20
180.3505083383001
 30
0.0
 40
6.75
  0
ENDBLK
  5
51
330
4F
100
AcDbEntity
  8
0
100
AcDbBlockEnd
  0
BLOCK
  5
53
330
52
100
AcDbEntity
  8
0
100
AcDbBlockBegin
  2
GOMU
 70
     0
 10
111.161541080634
 20
71.9593033403094
 30
0.0
  3
GOMU
  1

  0
LINE
  5
E0
330
52
100
AcDbEntity
  8
1
  6
Continuous
 62
     7
100
AcDbLine
 10
109.411541080634
 20
129.0429189160282
 30
0.0
 11
116.161541080634
 21
129.0429189160282
 31
0.0
  0
LINE
  5
E1
330
52
100
AcDbEntity
  8
1
  6
Continuous
 62
     7
100
AcDbLine
 10
116.161541080634
 20
122.0429189160281
 30
0.0
 11
108.661541080634
 21
122.0429189160281
 31
0.0
  0
LINE
  5
E2
330
52
100
AcDbEntity
  8
1
  6
Continuous
 62
     7
100
AcDbLine
 10
112.561541080634
 20
121.5429189160281
 30
0.0
 11
112.561541080634
 21
122.0429189160281
 31
0.0
  0
LINE
  5
E3
330
52
100
AcDbEntity
  8
1
  6
Continuous
 62
     7
100
AcDbLine
 10
108.661541080634
 20
129.0429189160282
 30
0.0
 11
109.411541080634
 21
129.0429189160282
 31
0.0
  0
LINE
  5
E4
330
52
100
AcDbEntity
  8
1
  6
Continuous
 62
     7
100
AcDbLine
 10
108.661541080634
 20
122.0429189160281
 30
0.0
 11
108.661541080634
 21
129.0429189160282
 31
0.0
  0
LINE
  5
E5
330
52
100
AcDbEntity
  8
1
  6
Continuous
 62
     7
100
AcDbLine
 10
119.261541080634
 20
121.0429189160281
 30
0.0
 11
113.061541080634
 21
121.0429189160281
 31
0.0
  0
LINE
  5
E6
330
52
100
AcDbEntity
  8
1
  6
Continuous
 62
     7
100
AcDbLine
 10
116.161541080634
 20
129.0429189160282
 30
0.0
 11
122.911541080634
 21
129.0429189160282
 31
0.0
  0
LINE
  5
E7
330
52
100
AcDbEntity
  8
1
  6
Continuous
 62
     7
100
AcDbLine
 10
123.661541080634
 20
122.0429189160281
 30
0.0
 11
116.161541080634
 21
122.0429189160281
 31
0.0
  0
LINE
  5
E8
330
52
100
AcDbEntity
  8
1
  6
Continuous
 62
     7
100
AcDbLine
 10
119.761541080634
 20
122.0429189160281
 30
0.0
 11
119.761541080634
 21
121.5429189160281
 31
0.0
  0
LINE
  5
E9
330
52
100
AcDbEntity
  8
1
  6
Continuous
 62
     7
100
AcDbLine
 10
122.911541080634
 20
129.0429189160282
 30
0.0
 11
123.661541080634
 21
129.0429189160282
 31
0.0
  0
LINE
  5
EA
330
52
100
AcDbEntity
  8
1
  6
Continuous
 62
     7
100
AcDbLine
 10
123.661541080634
 20
129.0429189160282
 30
0.0
 11
123.661541080634
 21
122.0429189160281
 31
0.0
  0
CIRCLE
  5
EB
330
52
100
AcDbEntity
  8
1
  6
Continuous
 62
     7
100
AcDbCircle
 10
116.161541080634
 20
180.3505083383001
 30
0.0
 40
7.5
  0
CIRCLE
  5
EC
330
52
100
AcDbEntity
  8
1
  6
Continuous
 62
     7
100
AcDbCircle
 10
116.161541080634
 20
180.3505083383001
 30
0.0
 40
6.75
  0
ARC
  5
ED
330
52
100
AcDbEntity
  8
1
  6
Continuous
 62
     7
100
AcDbCircle
 10
113.061541080634
 20
121.5429189160281
 30
0.0
 40
0.5
100
AcDbArc
 50
180.0
 51
270.0
  0
ARC
  5
EE
330
52
100
AcDbEntity
  8
1
  6
Continuous
 62
     7
100
AcDbCircle
 10
119.261541080634
 20
121.5429189160281
 30
0.0
 40
0.5
100
AcDbArc
 50
270.0
 51
0.0
  0
ENDBLK
  5
54
330
52
100
AcDbEntity
  8
0
100
AcDbBlockEnd
  0
BLOCK
  5
108
330
101
100
AcDbEntity
  8
0
100
AcDbBlockBegin
  2
*D5
 70
     1
 10
0.0
 20
0.0
 30
0.0
  3
*D5
  1

  0
LINE
  5
102
330
101
100
AcDbEntity
  8
1
  6
Continuous
 62
     2
100
AcDbLine
 10
97.77861395533264
 20
129.0429189160282
 30
0.0
 11
97.77861395533264
 21
144.0429189160281
 31
0.0
  0
LINE
  5
103
330
101
100
AcDbEntity
  8
1
  6
Continuous
 62
     2
100
AcDbLine
 10
114.661541080634
 20
144.0429189160281
 30
0.0
 11
96.77861395533264
 21
144.0429189160281
 31
0.0
  0
LINE
  5
104
330
101
100
AcDbEntity
  8
1
  6
Continuous
 62
     2
100
AcDbLine
 10
108.661541080634
 20
129.0429189160282
 30
0.0
 11
96.77861395533264
 21
129.0429189160282
 31
0.0
  0
SOLID
  5
105
330
101
100
AcDbEntity
  8
1
 62
     2
100
AcDbTrace
 10
97.31783021377676
 20
132.5429189160282
 30
0.0
 11
98.23939769688853
 21
132.5429189160282
 31
0.0
 12
97.77861395533264
 22
129.0429189160282
 32
0.0
 13
97.77861395533264
 23
129.0429189160282
 33
0.0
  0
SOLID
  5
106
330
101
100
AcDbEntity
  8
1
 62
     2
100
AcDbTrace
 10
98.23939769688853
 20
140.5429189160281
 30
0.0
 11
97.31783021377676
 21
140.5429189160281
 31
0.0
 12
97.77861395533264
 22
144.0429189160281
 32
0.0
 13
97.77861395533264
 23
144.0429189160281
 33
0.0
  0
MTEXT
  5
107
330
101
100
AcDbEntity
  8
1
 62
     7
100
AcDbMText
 10
96.77861395533264
 20
134.7003625199168
 30
0.0
 40
3.5
 41
0.0
 71
     7
 72
     1
  1
15
  7
CONVERTER_12
 11
0.0
 21
1.0
 31
0.0
 73
     1
 44
0.60024009603842
  0
ENDBLK
  5
109
330
101
100
AcDbEntity
  8
0
100
AcDbBlockEnd
  0
BLOCK
  5
113
330
10C
100
AcDbEntity
  8
0
100
AcDbBlockBegin
  2
*D6
 70
     1
 10
0.0
 20
0.0
 30
0.0
  3
*D6
  1

  0
LINE
  5
10D
330
10C
100
AcDbEntity
  8
1
  6
Continuous
 62
     2
100
AcDbLine
 10
89.81908833259703
 20
144.0429189160281
 30
0.0
 11
89.81908833259703
 21
121.0429189160281
 31
0.0
  0
LINE
  5
10E
330
10C
100
AcDbEntity
  8
1
  6
Continuous
 62
     2
100
AcDbLine
 10
113.061541080634
 20
121.0429189160281
 30
0.0
 11
88.81908833259703
 21
121.0429189160281
 31
0.0
  0
LINE
  5
10F
330
10C
100
AcDbEntity
  8
1
  6
Continuous
 62
     2
100
AcDbLine
 10
114.661541080634
 20
144.0429189160281
 30
0.0
 11
88.81908833259703
 21
144.0429189160281
 31
0.0
  0
SOLID
  5
110
330
10C
100
AcDbEntity
  8
1
 62
     2
100
AcDbTrace
 10
90.27987207415292
 20
140.5429189160281
 30
0.0
 11
89.35830459104115
 21
140.5429189160281
 31
0.0
 12
89.81908833259703
 22
144.0429189160281
 32
0.0
 13
89.81908833259703
 23
144.0429189160281
 33
0.0
  0
SOLID
  5
111
330
10C
100
AcDbEntity
  8
1
 62
     2
100
AcDbTrace
 10
89.35830459104115
 20
124.5429189160281
 30
0.0
 11
90.27987207415292
 21
124.5429189160281
 31
0.0
 12
89.81908833259703
 22
121.0429189160281
 32
0.0
 13
89.81908833259703
 23
121.0429189160281
 33
0.0
  0
MTEXT
  5
112
330
10C
100
AcDbEntity
  8
1
 62
     7
100
AcDbMText
 10
88.81908833259703
 20
130.3700644753829
 30
0.0
 40
3.5
 41
0.0
 71
     7
 72
     1
  1
23
  7
CONVERTER_12
 11
0.0
 21
1.0
 31
0.0
 73
     1
 44
0.60024009603842
  0
ENDBLK
  5
114
330
10C
100
AcDbEntity
  8
0
100
AcDbBlockEnd
  0
BLOCK
  5
11C
330
117
100
AcDbEntity
  8
0
100
AcDbBlockBegin
  2
*D7
 70
     1
 10
0.0
 20
0.0
 30
0.0
  3
*D7
  1

  0
LINE
  5
118
330
117
100
AcDbEntity
  8
1
  6
Continuous
 62
     2
100
AcDbLine
 10
122.0415986519905
 20
185.3990153411211
 30
0.0
 11
105.2189243610218
 21
170.9553831260476
 31
0.0
  0
SOLID
  5
119
330
117
100
AcDbEntity
  8
1
 62
     2
100
AcDbTrace
 10
111.9094023087491
 20
176.0923822808524
 30
0.0
 11
111.3090745807411
 21
176.7915912946056
 31
0.0
 12
114.2647483156803
 22
178.7219576922288
 32
0.0
 13
114.2647483156803
 23
178.7219576922288
 33
0.0
  0
SOLID
  5
11A
330
117
100
AcDbEntity
  8
1
 62
     2
100
AcDbTrace
 10
120.4136798525189
 20
184.6086343957478
 30
0.0
 11
121.0140075805269
 21
183.9094253819946
 31
0.0
 12
118.0583338455877
 22
181.9790589843714
 32
0.0
 13
118.0583338455877
 23
181.9790589843714
 33
0.0
  0
MTEXT
  5
11B
330
117
100
AcDbEntity
  8
1
 62
     7
100
AcDbMText
 10
105.5765978535487
 20
172.580489175739
 30
0.0
 40
3.5
 41
0.0
 71
     7
 72
     1
  1
\C7;{\Fgdt;n}\C7;5
  7
CONVERTER_12
 11
0.758717105981488
 21
0.6514202584285167
 31
0.0
 73
     1
 44
0.60024009603842
  0
ENDBLK
  5
11D
330
117
100
AcDbEntity
  8
0
100
AcDbBlockEnd
  0
BLOCK
  5
126
330
11F
100
AcDbEntity
  8
0
100
AcDbBlockBegin
  2
*D8
 70
     1
 10
0.0
 20
0.0
 30
0.0
  3
*D8
  1

  0
LINE
  5
120
330
11F
100
AcDbEntity
  8
1
  6
Continuous
 62
     2
100
AcDbLine
 10
123.661541080634
 20
198.8466636563113
 30
0.0
 11
108.661541080634
 21
198.8466636563113
 31
0.0
  0
LINE
  5
121
330
11F
100
AcDbEntity
  8
1
  6
Continuous
 62
     2
100
AcDbLine
 10
108.661541080634
 20
180.3505083383001
 30
0.0
 11
108.661541080634
 21
199.8466636563113
 31
0.0
  0
LINE
  5
122
330
11F
100
AcDbEntity
  8
1
  6
Continuous
 62
     2
100
AcDbLine
 10
123.661541080634
 20
180.3505083383001
 30
0.0
 11
123.661541080634
 21
199.8466636563113
 31
0.0
  0
SOLID
  5
123
330
11F
100
AcDbEntity
  8
1
 62
     2
100
AcDbTrace
 10
120.161541080634
 20
198.3858799147554
 30
0.0
 11
120.161541080634
 21
199.3074473978672
 31
0.0
 12
123.661541080634
 22
198.8466636563113
 32
0.0
 13
123.661541080634
 23
198.8466636563113
 33
0.0
  0
SOLID
  5
124
330
11F
100
AcDbEntity
  8
1
 62
     2
100
AcDbTrace
 10
112.161541080634
 20
199.3074473978672
 30
0.0
 11
112.161541080634
 21
198.3858799147554
 31
0.0
 12
108.661541080634
 22
198.8466636563113
 32
0.0
 13
108.661541080634
 23
198.8466636563113
 33
0.0
  0
MTEXT
  5
125
330
11F
100
AcDbEntity
  8
1
 62
     7
100
AcDbMText
 10
113.1728704709728
 20
199.846656699235
 30
0.0
 40
3.5
 41
0.0
 71
     7
 72
     1
  1
\C7;{\Fgdt;n}\C7;15
  7
CONVERTER_12
 11
0.9999999999970619
 21
2.424068405545306E-6
 31
0.0
 73
     1
 44
0.60024009603842
  0
ENDBLK
  5
127
330
11F
100
AcDbEntity
  8
0
100
AcDbBlockEnd
  0
ENDSEC
  0
SECTION
  2
ENTITIES
  0
INSERT
  5
55
330
1F
100
AcDbEntity
  8
0
100
AcDbBlockReference
  2
開示A4枠
 10
0.0
 20
0.00000000000001
 30
0.0
  0
INSERT
  5
56
330
1F
100
AcDbEntity
  8
1
100
AcDbBlockReference
  2
P88
 10
109.411541080634
 20
129.0429189160282
 30
0.0
  0
INSERT
  5
57
330
1F
100
AcDbEntity
  8
1
100
AcDbBlockReference
  2
GOMU
 10
111.161541080634
 20
71.9593033403094
 30
0.0
  0
LINE
  5
EF
330
1F
100
AcDbEntity
  8
1
  6
DASH_CENTER
 62
     2
100
AcDbLine
 10
116.161541080634
 20
169.8505083383001
 30
0.0
 11
116.161541080634
 21
190.8505083383001
 31
0.0
  0
LINE
  5
F0
330
1F
100
AcDbEntity
  8
1
  6
DASH_CENTER
 62
     2
100
AcDbLine
 10
116.161541080634
 20
117.9634804508453
 30
0.0
 11
116.161541080634
 21
144.0429189160281
 31
0.0
  0
LINE
  5
F1
330
1F
100
AcDbEntity
  8
1
  6
DASH_CENTER
 62
     2
100
AcDbLine
 10
116.161541080634
 20
147.0624486201948
 30
0.0
 11
116.161541080634
 21
144.0429189160281
 31
0.0
  0
LINE
  5
F2
330
1F
100
AcDbEntity
  8
1
  6
DASH_CENTER
 62
     2
100
AcDbLine
 10
105.661541080634
 20
180.3505083383001
 30
0.0
 11
126.661541080634
 21
180.3505083383001
 31
0.0
  0
MTEXT
  5
F4
330
1F
100
AcDbEntity
  8
1
 62
     7
100
AcDbMText
 10
157.5
 20
12.50000000000001
 30
0.0
 40
2.5
 41
0.0
 71
     5
 72
     1
  1
2
  7
CONVERTER_12
 73
     1
 44
0.7202881152461
  0
MTEXT
  5
F5
330
1F
100
AcDbEntity
  8
1
 62
     7
100
AcDbMText
 10
151.75
 20
12.50000000000001
 30
0.0
 40
2.5
 41
0.0
 71
     5
 72
     1
  1
04
  7
CONVERTER_12
 73
     1
 44
0.7202881152461
  0
MTEXT
  5
F6
330
1F
100
AcDbEntity
  8
1
 62
     7
100
AcDbMText
 10
140.5
 20
12.50000000000001
 30
0.0
 40
2.5
 41
0.0
 71
     5
 72
     1
  1
2
  7
CONVERTER_12
 73
     1
 44
0.7202881152461
  0
MTEXT
  5
F7
330
1F
100
AcDbEntity
  8
1
 62
     7
100
AcDbMText
 10
134.75
 20
12.50000000000001
 30
0.0
 40
2.5
 41
0.0
 71
     5
 72
     1
  1
04
  7
CONVERTER_12
 73
     1
 44
0.7202881152461
  0
MTEXT
  5
F8
330
1F
100
AcDbEntity
  8
1
 62
     7
100
AcDbMText
 10
123.5
 20
12.50000000000001
 30
0.0
 40
2.5
 41
0.0
 71
     5
 72
     1
  1
2
  7
CONVERTER_12
 73
     1
 44
0.7202881152461
  0
MTEXT
  5
F9
330
1F
100
AcDbEntity
  8
1
 62
     7
100
AcDbMText
 10
117.75
 20
12.50000000000001
 30
0.0
 40
2.5
 41
0.0
 71
     5
 72
     1
  1
04
  7
CONVERTER_12
 73
     1
 44
0.7202881152461
  0
MTEXT
  5
FA
330
1F
100
AcDbEntity
  8
1
 62
     7
100
AcDbMText
 10
100.75
 20
12.50000000000001
 30
0.0
 40
2.5
 41
0.0
 71
     5
 72
     1
  1
04
  7
CONVERTER_12
 73
     1
 44
0.7202881152461
  0
MTEXT
  5
FB
330
1F
100
AcDbEntity
  8
1
 62
     7
100
AcDbMText
 10
106.5
 20
12.50000000000001
 30
0.0
 40
2.5
 41
0.0
 71
     5
 72
     1
  1
2
  7
CONVERTER_12
 73
     1
 44
0.7202881152461
  0
MTEXT
  5
FC
330
1F
100
AcDbEntity
  8
1
 62
     7
100
AcDbMText
 10
34.0
 20
34.00000000000001
 30
0.0
 40
3.5
 41
0.0
 71
     4
 72
     1
  1
3個入
  7
CONVERTER_11
 73
     1
 44
0.54545454545455
  0
MTEXT
  5
FD
330
1F
100
AcDbEntity
  8
1
 62
     7
100
AcDbMText
 10
85.24999999999997
 20
17.00000000000001
 30
0.0
 40
3.5
 41
0.0
 71
     5
 72
     1
  1
1
  7
CONVERTER_12
 73
     1
 44
0.7202881152461
  0
MTEXT
  5
FE
330
1F
100
AcDbEntity
  8
1
 62
     7
100
AcDbMText
 10
57.0
 20
22.75000000000003
 30
0.0
 40
3.5
 41
0.0
 71
     5
 72
     1
  1
エスコマ
  7
CONVERTER_11
 73
     1
 44
0.54545454545455
  0
MTEXT
  5
FF
330
1F
100
AcDbEntity
  8
1
 62
     7
100
AcDbMText
 10
57.0
 20
14.25000000000001
 30
0.0
 40
3.5
 41
0.0
 71
     5
 72
     1
  1
P88-1S-15
  7
CONVERTER_12
 73
     1
 44
0.7202881152461
  0
MTEXT
  5
100
330
1F
100
AcDbEntity
  8
1
 62
     7
100
AcDbMText
 10
93.74999999999997
 20
17.00000000000001
 30
0.0
 40
3.5
 41
0.0
 71
     5
 72
     1
  1
1
  7
CONVERTER_12
 73
     1
 44
0.7202881152461
  0
DIMENSION
  5
10B
330
1F
100
AcDbEntity
  8
1
100
AcDbDimension
  2
*D5
 10
97.77861395533264
 20
129.0429189160282
 30
0.0
 11
95.02861395533264
 21
136.8003625199168
 31
0.0
 70
    32
  1
<>
 71
     5
 42
-1.0
 53
90.0
  3
ME10_DIM_10
100
AcDbAlignedDimension
 13
114.661541080634
 23
144.0429189160281
 33
0.0
 14
108.661541080634
 24
129.0429189160282
 34
0.0
 50
90.0
100
AcDbRotatedDimension
  0
DIMENSION
  5
116
330
1F
100
AcDbEntity
  8
1
100
AcDbDimension
  2
*D6
 10
89.81908833259703
 20
144.0429189160281
 30
0.0
 11
87.06908833259703
 21
132.9950644753829
 31
0.0
 70
    32
  1
<>
 71
     5
 42
-1.0
 53
90.0
  3
ME10_DIM_11
100
AcDbAlignedDimension
 13
113.061541080634
 23
121.0429189160281
 33
0.0
 14
114.661541080634
 24
144.0429189160281
 34
0.0
 50
90.0
100
AcDbRotatedDimension
  0
INSERT
  5
11E
330
1F
100
AcDbEntity
  8
1
100
AcDbBlockReference
  2
*D7
 10
0.0
 20
0.0
 30
0.0
  0
INSERT
  5
128
330
1F
100
AcDbEntity
  8
1
100
AcDbBlockReference
  2
*D8
 10
0.0
 20
0.0
 30
0.0
  0
ENDSEC
  0
SECTION
  2
OBJECTS
  0
DICTIONARY
  5
C
330
0
100
AcDbDictionary
281
     1
  3
ACAD_GROUP
350
D
  3
ACAD_LAYOUT
350
1A
  3
ACAD_MATERIAL
350
3B
  3
ACAD_MLEADERSTYLE
350
12B
  3
ACAD_MLINESTYLE
350
17
  3
ACAD_PLOTSETTINGS
350
19
  3
ACAD_PLOTSTYLENAME
350
E
  3
ACAD_VISUALSTYLE
350
2A
  3
AcDbVariableDictionary
350
129
  0
DICTIONARY
  5
D
102
{ACAD_REACTORS
330
C
102
}
330
C
100
AcDbDictionary
281
     1
  0
DICTIONARY
  5
1A
102
{ACAD_REACTORS
330
C
102
}
330
C
100
AcDbDictionary
281
     1
  3
Layout1
350
1E
  3
Layout2
350
26
  3
Model
350
22
  0
DICTIONARY
  5
3B
102
{ACAD_REACTORS
330
C
102
}
330
C
100
AcDbDictionary
281
     1
  3
ByBlock
350
3D
  3
ByLayer
350
3C
  3
Global
350
3E
  0
DICTIONARY
  5
12B
102
{ACAD_REACTORS
330
C
102
}
330
C
100
AcDbDictionary
281
     1
  0
DICTIONARY
  5
17
102
{ACAD_REACTORS
330
C
102
}
330
C
100
AcDbDictionary
281
     1
  3
Standard
350
18
  0
DICTIONARY
  5
19
102
{ACAD_REACTORS
330
C
102
}
330
C
100
AcDbDictionary
281
     1
  0
ACDBDICTIONARYWDFLT
  5
E
102
{ACAD_REACTORS
330
C
102
}
330
C
100
AcDbDictionary
281
     1
  3
Normal
350
F
100
AcDbDictionaryWithDefault
340
F
  0
DICTIONARY
  5
2A
102
{ACAD_REACTORS
330
C
102
}
330
C
100
AcDbDictionary
281
     1
  3
2dWireframe
350
2F
  3
3D Hidden
350
31
  3
3dWireframe
350
30
  3
Basic
350
32
  3
Brighten
350
36
  3
ColorChange
350
3A
  3
Conceptual
350
34
  3
Dim
350
35
  3
Facepattern
350
39
  3
Flat
350
2B
  3
FlatWithEdges
350
2C
  3
Gouraud
350
2D
  3
GouraudWithEdges
350
2E
  3
Linepattern
350
38
  3
Realistic
350
33
  3
Thicken
350
37
  0
DICTIONARY
  5
129
102
{ACAD_REACTORS
330
C
102
}
330
C
100
AcDbDictionary
281
     1
  3
DIMASSOC
350
12C
  3
HIDETEXT
350
12D
  0
LAYOUT
  5
1E
102
{ACAD_REACTORS
330
1A
102
}
330
1A
100
AcDbPlotSettings
  1

  2
none_device
  4

  6

 40
0.0
 41
0.0
 42
0.0
 43
0.0
 44
0.0
 45
0.0
 46
0.0
 47
0.0
 48
0.0
 49
0.0
140
0.0
141
0.0
142
1.0
143
1.0
 70
   688
 72
     0
 73
     0
 74
     5
  7

 75
    16
147
1.0
148
0.0
149
0.0
100
AcDbLayout
  1
Layout1
 70
     1
 71
     1
 10
0.0
 20
0.0
 11
12.0
 21
9.0
 12
0.0
 22
0.0
 32
0.0
 14
1.00000000000000E+20
 24
1.00000000000000E+20
 34
1.00000000000000E+20
 15
-1.00000000000000E+20
 25
-1.00000000000000E+20
 35
-1.00000000000000E+20
146
0.0
 13
0.0
 23
0.0
 33
0.0
 16
1.0
 26
0.0
 36
0.0
 17
0.0
 27
1.0
 37
0.0
 76
     0
330
1B
  0
LAYOUT
  5
26
102
{ACAD_REACTORS
330
1A
102
}
330
1A
100
AcDbPlotSettings
  1

  2
none_device
  4

  6

 40
0.0
 41
0.0
 42
0.0
 43
0.0
 44
0.0
 45
0.0
 46
0.0
 47
0.0
 48
0.0
 49
0.0
140
0.0
141
0.0
142
1.0
143
1.0
 70
   688
 72
     0
 73
     0
 74
     5
  7

 75
    16
147
1.0
148
0.0
149
0.0
100
AcDbLayout
  1
Layout2
 70
     1
 71
     2
 10
0.0
 20
0.0
 11
0.0
 21
0.0
 12
0.0
 22
0.0
 32
0.0
 14
0.0
 24
0.0
 34
0.0
 15
0.0
 25
0.0
 35
0.0
146
0.0
 13
0.0
 23
0.0
 33
0.0
 16
1.0
 26
0.0
 36
0.0
 17
0.0
 27
1.0
 37
0.0
 76
     0
330
23
  0
LAYOUT
  5
22
102
{ACAD_REACTORS
330
1A
102
}
330
1A
100
AcDbPlotSettings
  1

  2
none_device
  4

  6

 40
0.0
 41
0.0
 42
0.0
 43
0.0
 44
0.0
 45
0.0
 46
0.0
 47
0.0
 48
0.0
 49
0.0
140
0.0
141
0.0
142
1.0
143
1.0
 70
  1712
 72
     0
 73
     0
 74
     0
  7

 75
     0
147
1.0
148
0.0
149
0.0
100
AcDbLayout
  1
Model
 70
     1
 71
     0
 10
0.0
 20
0.0
 11
12.0
 21
9.0
 12
0.0
 22
0.0
 32
0.0
 14
0.0
 24
0.00000000000001
 34
0.0
 15
209.9999999999999
 25
297.0
 35
0.0
146
0.0
 13
0.0
 23
0.0
 33
0.0
 16
1.0
 26
0.0
 36
0.0
 17
0.0
 27
1.0
 37
0.0
 76
     0
330
1F
331
29
  0
MATERIAL
  5
3D
102
{ACAD_REACTORS
330
3B
102
}
102
{ACAD_XDICTIONARY
360
150
102
}
330
3B
100
AcDbMaterial
  1
ByBlock
  0
MATERIAL
  5
3C
102
{ACAD_REACTORS
330
3B
102
}
102
{ACAD_XDICTIONARY
360
14E
102
}
330
3B
100
AcDbMaterial
  1
ByLayer
  0
MATERIAL
  5
3E
102
{ACAD_REACTORS
330
3B
102
}
102
{ACAD_XDICTIONARY
360
152
102
}
330
3B
100
AcDbMaterial
  1
Global
  0
MLINESTYLE
  5
18
102
{ACAD_REACTORS
330
17
102
}
330
17
100
AcDbMlineStyle
  2
Standard
 70
     0
  3

 62
   256
 51
90.0
 52
90.0
 71
     2
 49
0.5
 62
   256
  6
BYLAYER
 49
-0.5
 62
   256
  6
BYLAYER
  0
ACDBPLACEHOLDER
  5
F
102
{ACAD_REACTORS
330
E
102
}
330
E
  0
VISUALSTYLE
  5
2F
102
{ACAD_REACTORS
330
2A
102
}
102
{ACAD_XDICTIONARY
360
136
102
}
330
2A
100
AcDbVisualStyle
  2
2dWireframe
 70
     4
 71
     0
 72
     2
 73
     0
 90
        0
 40
-0.6
 41
-30.0
 62
     5
 63
     7
 74
     1
 91
        4
 64
     7
 65
   257
 75
     1
175
     1
 42
1.0
 92
        0
 66
   257
 43
1.0
 76
     1
 77
     6
 78
     2
 67
     7
 79
     5
170
     0
171
     0
290
     0
174
     0
 93
        1
 44
0.0
173
     0
291
     0
 45
0.0
1001
ACAD
1000
AcDbSavedByObjectVersion
1070
     0
  0
VISUALSTYLE
  5
31
102
{ACAD_REACTORS
330
2A
102
}
102
{ACAD_XDICTIONARY
360
13A
102
}
330
2A
100
AcDbVisualStyle
  2
3D Hidden
 70
     6
 71
     1
 72
     2
 73
     2
 90
        0
 40
-0.6
 41
-30.0
 62
     5
 63
     7
 74
     2
 91
        2
 64
     7
 65
   257
 75
     2
175
     1
 42
40.0
 92
        0
 66
   257
 43
1.0
 76
     1
 77
     6
 78
     2
 67
     7
 79
     3
170
     0
171
     0
290
     0
174
     0
 93
        1
 44
0.0
173
     0
291
     0
 45
0.0
1001
ACAD
1000
AcDbSavedByObjectVersion
1070
     0
  0
VISUALSTYLE
  5
30
102
{ACAD_REACTORS
330
2A
102
}
102
{ACAD_XDICTIONARY
360
138
102
}
330
2A
100
AcDbVisualStyle
  2
3dWireframe
 70
     5
 71
     0
 72
     2
 73
     0
 90
        0
 40
-0.6
 41
-30.0
 62
     5
 63
     7
 74
     1
 91
        4
 64
     7
 65
   257
 75
     1
175
     1
 42
1.0
 92
        0
 66
   257
 43
1.0
 76
     1
 77
     6
 78
     2
 67
     7
 79
     5
170
     0
171
     0
290
     0
174
     0
 93
        1
 44
0.0
173
     0
291
     0
 45
0.0
1001
ACAD
1000
AcDbSavedByObjectVersion
1070
     0
  0
VISUALSTYLE
  5
32
102
{ACAD_REACTORS
330
2A
102
}
102
{ACAD_XDICTIONARY
360
13C
102
}
330
2A
100
AcDbVisualStyle
  2
Basic
 70
     7
 71
     1
 72
     0
 73
     1
 90
        0
 40
-0.6
 41
-30.0
 62
     5
 63
     7
 74
     0
 91
        4
 64
     7
 65
   257
 75
     1
175
     1
 42
1.0
 92
        8
 66
     7
 43
1.0
 76
     1
 77
     6
 78
     2
 67
     7
 79
     5
170
     0
171
     0
290
     0
174
     0
 93
        1
 44
0.0
173
     0
291
     1
 45
0.0
1001
ACAD
1000
AcDbSavedByObjectVersion
1070
     0
  0
VISUALSTYLE
  5
36
102
{ACAD_REACTORS
330
2A
102
}
102
{ACAD_XDICTIONARY
360
144
102
}
330
2A
100
AcDbVisualStyle
  2
Brighten
 70
    12
 71
     2
 72
     2
 73
     0
 90
        0
 40
-0.6
 41
-30.0
 62
     5
 63
     7
 74
     1
 91
        4
 64
     7
 65
   257
 75
     1
175
     1
 42
1.0
 92
        8
 66
     7
 43
1.0
 76
     1
 77
     6
 78
     2
 67
     7
 79
     5
170
     0
171
     0
290
     0
174
     0
 93
        1
 44
50.0
173
     0
291
     1
 45
0.0
1001
ACAD
1000
AcDbSavedByObjectVersion
1070
     0
  0
VISUALSTYLE
  5
3A
102
{ACAD_REACTORS
330
2A
102
}
102
{ACAD_XDICTIONARY
360
14C
102
}
330
2A
100
AcDbVisualStyle
  2
ColorChange
 70
    16
 71
     2
 72
     2
 73
     3
 90
        0
 40
-0.6
 41
-30.0
 62
     5
 63
     8
 74
     1
 91
        4
 64
     7
 65
   257
 75
     1
175
     1
 42
1.0
 92
        8
 66
     8
 43
1.0
 76
     1
 77
     6
 78
     2
 67
     7
 79
     5
170
     0
171
     0
290
     0
174
     0
 93
        1
 44
0.0
173
     0
291
     1
 45
0.0
1001
ACAD
1000
AcDbSavedByObjectVersion
1070
     0
  0
VISUALSTYLE
  5
34
102
{ACAD_REACTORS
330
2A
102
}
102
{ACAD_XDICTIONARY
360
140
102
}
330
2A
100
AcDbVisualStyle
  2
Conceptual
 70
     9
 71
     3
 72
     2
 73
     0
 90
        0
 40
-0.6
 41
-30.0
 62
     5
 63
     7
 74
     2
 91
        2
 64
     7
 65
   257
 75
     1
175
     1
 42
40.0
 92
        8
 66
     7
 43
1.0
 76
     1
 77
     6
 78
     2
 67
     7
 79
     3
170
     0
171
     0
290
     0
174
     0
 93
        1
 44
0.0
173
     0
291
     0
 45
0.0
1001
ACAD
1000
AcDbSavedByObjectVersion
1070
     0
  0
VISUALSTYLE
  5
35
102
{ACAD_REACTORS
330
2A
102
}
102
{ACAD_XDICTIONARY
360
142
102
}
330
2A
100
AcDbVisualStyle
  2
Dim
 70
    11
 71
     2
 72
     2
 73
     0
 90
        0
 40
-0.6
 41
-30.0
 62
     5
 63
     7
 74
     1
 91
        4
 64
     7
 65
   257
 75
     1
175
     1
 42
1.0
 92
        8
 66
     7
 43
1.0
 76
     1
 77
     6
 78
     2
 67
     7
 79
     5
170
     0
171
     0
290
     0
174
     0
 93
        1
 44
-50.0
173
     0
291
     1
 45
0.0
1001
ACAD
1000
AcDbSavedByObjectVersion
1070
     0
  0
VISUALSTYLE
  5
39
102
{ACAD_REACTORS
330
2A
102
}
102
{ACAD_XDICTIONARY
360
14A
102
}
330
2A
100
AcDbVisualStyle
  2
Facepattern
 70
    15
 71
     2
 72
     2
 73
     0
 90
        0
 40
-0.6
 41
-30.0
 62
     5
 63
     7
 74
     1
 91
        4
 64
     7
 65
   257
 75
     1
175
     1
 42
1.0
 92
        8
 66
     7
 43
1.0
 76
     1
 77
     6
 78
     2
 67
     7
 79
     5
170
     0
171
     0
290
     0
174
     0
 93
        1
 44
0.0
173
     0
291
     1
 45
0.0
1001
ACAD
1000
AcDbSavedByObjectVersion
1070
     0
  0
VISUALSTYLE
  5
2B
102
{ACAD_REACTORS
330
2A
102
}
102
{ACAD_XDICTIONARY
360
12E
102
}
330
2A
100
AcDbVisualStyle
  2
Flat
 70
     0
 71
     2
 72
     1
 73
     1
 90
        2
 40
-0.6
 41
30.0
 62
     5
 63
     7
 74
     0
 91
        4
 64
     7
 65
   257
 75
     1
175
     1
 42
1.0
 92
        8
 66
     7
 43
1.0
 76
     1
 77
     6
 78
     2
 67
     7
 79
     5
170
     0
171
     0
290
     0
174
     0
 93
       13
 44
0.0
173
     0
291
     1
 45
0.0
1001
ACAD
1000
AcDbSavedByObjectVersion
1070
     0
  0
VISUALSTYLE
  5
2C
102
{ACAD_REACTORS
330
2A
102
}
102
{ACAD_XDICTIONARY
360
130
102
}
330
2A
100
AcDbVisualStyle
  2
FlatWithEdges
 70
     1
 71
     2
 72
     1
 73
     1
 90
        2
 40
-0.6
 41
30.0
 62
     5
 63
     7
 74
     1
 91
        4
 64
     7
 65
   257
 75
     1
175
     1
 42
1.0
 92
        0
 66
   257
 43
1.0
 76
     1
 77
     6
 78
     2
 67
     7
 79
     5
170
     0
171
     0
290
     0
174
     0
 93
       13
 44
0.0
173
     0
291
     1
 45
0.0
1001
ACAD
1000
AcDbSavedByObjectVersion
1070
     0
  0
VISUALSTYLE
  5
2D
102
{ACAD_REACTORS
330
2A
102
}
102
{ACAD_XDICTIONARY
360
132
102
}
330
2A
100
AcDbVisualStyle
  2
Gouraud
 70
     2
 71
     2
 72
     2
 73
     1
 90
        2
 40
-0.6
 41
30.0
 62
     5
 63
     7
 74
     0
 91
        4
 64
     7
 65
   257
 75
     1
175
     1
 42
1.0
 92
        0
 66
     7
 43
1.0
 76
     1
 77
     6
 78
     2
 67
     7
 79
     5
170
     0
171
     0
290
     0
174
     0
 93
       13
 44
0.0
173
     0
291
     1
 45
0.0
1001
ACAD
1000
AcDbSavedByObjectVersion
1070
     0
  0
VISUALSTYLE
  5
2E
102
{ACAD_REACTORS
330
2A
102
}
102
{ACAD_XDICTIONARY
360
134
102
}
330
2A
100
AcDbVisualStyle
  2
GouraudWithEdges
 70
     3
 71
     2
 72
     2
 73
     1
 90
        2
 40
-0.6
 41
30.0
 62
     5
 63
     7
 74
     1
 91
        4
 64
     7
 65
   257
 75
     1
175
     1
 42
1.0
 92
        0
 66
   257
 43
1.0
 76
     1
 77
     6
 78
     2
 67
     7
 79
     5
170
     0
171
     0
290
     0
174
     0
 93
       13
 44
0.0
173
     0
291
     1
 45
0.0
1001
ACAD
1000
AcDbSavedByObjectVersion
1070
     0
  0
VISUALSTYLE
  5
38
102
{ACAD_REACTORS
330
2A
102
}
102
{ACAD_XDICTIONARY
360
148
102
}
330
2A
100
AcDbVisualStyle
  2
Linepattern
 70
    14
 71
     2
 72
     2
 73
     0
 90
        0
 40
-0.6
 41
-30.0
 62
     5
 63
     7
 74
     1
 91
        4
 64
     7
 65
   257
 75
     7
175
     7
 42
1.0
 92
        8
 66
     7
 43
1.0
 76
     1
 77
     6
 78
     2
 67
     7
 79
     5
170
     0
171
     0
290
     0
174
     0
 93
        1
 44
0.0
173
     0
291
     1
 45
0.0
1001
ACAD
1000
AcDbSavedByObjectVersion
1070
     0
  0
VISUALSTYLE
  5
33
102
{ACAD_REACTORS
330
2A
102
}
102
{ACAD_XDICTIONARY
360
13E
102
}
330
2A
100
AcDbVisualStyle
  2
Realistic
 70
     8
 71
     2
 72
     2
 73
     0
 90
        0
 40
-0.6
 41
-30.0
 62
     5
 63
     7
 74
     1
 91
        0
 64
     7
 65
   257
 75
     1
175
     1
 42
1.0
 92
        8
 66
     8
 43
1.0
 76
     1
 77
     6
 78
     2
 67
     7
 79
     5
170
     0
171
     0
290
     0
174
     0
 93
       13
 44
0.0
173
     0
291
     0
 45
0.0
1001
ACAD
1000
AcDbSavedByObjectVersion
1070
     0
  0
VISUALSTYLE
  5
37
102
{ACAD_REACTORS
330
2A
102
}
102
{ACAD_XDICTIONARY
360
146
102
}
330
2A
100
AcDbVisualStyle
  2
Thicken
 70
    13
 71
     2
 72
     2
 73
     0
 90
        0
 40
-0.6
 41
-30.0
 62
     5
 63
     7
 74
     1
 91
        4
 64
     7
 65
   257
 75
     1
175
     1
 42
1.0
 92
       12
 66
     7
 43
1.0
 76
     1
 77
     6
 78
     2
 67
     7
 79
     5
170
     0
171
     0
290
     0
174
     0
 93
        1
 44
0.0
173
     0
291
     1
 45
0.0
1001
ACAD
1000
AcDbSavedByObjectVersion
1070
     0
  0
DICTIONARYVAR
  5
12C
102
{ACAD_REACTORS
330
129
102
}
330
129
100
DictionaryVariables
280
     0
  1
2
  0
DICTIONARYVAR
  5
12D
102
{ACAD_REACTORS
330
129
102
}
330
129
100
DictionaryVariables
280
     0
  1
1
  0
DICTIONARY
  5
150
330
3D
100
AcDbDictionary
280
     1
281
     1
  3
ACAD_XREC_ROUNDTRIP
360
151
  0
DICTIONARY
  5
14E
330
3C
100
AcDbDictionary
280
     1
281
     1
  3
ACAD_XREC_ROUNDTRIP
360
14F
  0
DICTIONARY
  5
152
330
3E
100
AcDbDictionary
280
     1
281
     1
  3
ACAD_XREC_ROUNDTRIP
360
153
  0
DICTIONARY
  5
136
330
2F
100
AcDbDictionary
280
     1
281
     1
  3
ACAD_XREC_ROUNDTRIP
360
137
  0
DICTIONARY
  5
13A
330
31
100
AcDbDictionary
280
     1
281
     1
  3
ACAD_XREC_ROUNDTRIP
360
13B
  0
DICTIONARY
  5
138
330
30
100
AcDbDictionary
280
     1
281
     1
  3
ACAD_XREC_ROUNDTRIP
360
139
  0
DICTIONARY
  5
13C
330
32
100
AcDbDictionary
280
     1
281
     1
  3
ACAD_XREC_ROUNDTRIP
360
13D
  0
DICTIONARY
  5
144
330
36
100
AcDbDictionary
280
     1
281
     1
  3
ACAD_XREC_ROUNDTRIP
360
145
  0
DICTIONARY
  5
14C
330
3A
100
AcDbDictionary
280
     1
281
     1
  3
ACAD_XREC_ROUNDTRIP
360
14D
  0
DICTIONARY
  5
140
330
34
100
AcDbDictionary
280
     1
281
     1
  3
ACAD_XREC_ROUNDTRIP
360
141
  0
DICTIONARY
  5
142
330
35
100
AcDbDictionary
280
     1
281
     1
  3
ACAD_XREC_ROUNDTRIP
360
143
  0
DICTIONARY
  5
14A
330
39
100
AcDbDictionary
280
     1
281
     1
  3
ACAD_XREC_ROUNDTRIP
360
14B
  0
DICTIONARY
  5
12E
330
2B
100
AcDbDictionary
280
     1
281
     1
  3
ACAD_XREC_ROUNDTRIP
360
12F
  0
DICTIONARY
  5
130
330
2C
100
AcDbDictionary
280
     1
281
     1
  3
ACAD_XREC_ROUNDTRIP
360
131
  0
DICTIONARY
  5
132
330
2D
100
AcDbDictionary
280
     1
281
     1
  3
ACAD_XREC_ROUNDTRIP
360
133
  0
DICTIONARY
  5
134
330
2E
100
AcDbDictionary
280
     1
281
     1
  3
ACAD_XREC_ROUNDTRIP
360
135
  0
DICTIONARY
  5
148
330
38
100
AcDbDictionary
280
     1
281
     1
  3
ACAD_XREC_ROUNDTRIP
360
149
  0
DICTIONARY
  5
13E
330
33
100
AcDbDictionary
280
     1
281
     1
  3
ACAD_XREC_ROUNDTRIP
360
13F
  0
DICTIONARY
  5
146
330
37
100
AcDbDictionary
280
     1
281
     1
  3
ACAD_XREC_ROUNDTRIP
360
147
  0
XRECORD
  5
151
102
{ACAD_REACTORS
330
150
102
}
330
150
100
AcDbXrecord
280
     1
102
MATERIAL
148
0.0
149
0.0
149
0.0
 93
        0
 94
      127
282
     0
 72
     1
 77
     1
171
     1
175
     1
179
     1
273
     0
  0
XRECORD
  5
14F
102
{ACAD_REACTORS
330
14E
102
}
330
14E
100
AcDbXrecord
280
     1
102
MATERIAL
148
0.0
149
0.0
149
0.0
 93
        0
 94
      127
282
     0
 72
     1
 77
     1
171
     1
175
     1
179
     1
273
     0
  0
XRECORD
  5
153
102
{ACAD_REACTORS
330
152
102
}
330
152
100
AcDbXrecord
280
     1
102
MATERIAL
148
0.0
149
0.0
149
0.0
 93
        0
 94
      127
282
     0
 72
     1
 77
     1
171
     1
175
     1
179
     1
273
     0
  0
XRECORD
  5
137
102
{ACAD_REACTORS
330
136
102
}
330
136
100
AcDbXrecord
280
     1
102
RTVSPropertyOp0
 70
     1
102
RTVSPropertyOp1
 70
     1
102
RTVSPropertyOp2
 70
     1
102
RTVSPropertyOp3
 70
     1
102
RTVSPropertyOp4
 70
     1
102
RTVSPropertyOp5
 70
     1
102
RTVSPropertyOp6
 70
     1
102
RTVSPropertyOp7
 70
     1
102
RTVSPropertyOp8
 70
     1
102
RTVSPropertyOp9
 70
     1
102
RTVSPropertyOp10
 70
     1
102
RTVSPropertyOp11
 70
     1
102
RTVSPropertyOp12
 70
     1
102
RTVSPropertyOp13
 70
     1
102
RTVSPropertyOp14
 70
     1
102
RTVSPropertyOp15
 70
     1
102
RTVSPropertyOp16
 70
     1
102
RTVSPropertyOp17
 70
     1
102
RTVSPropertyOp18
 70
     1
102
RTVSPropertyOp19
 70
     1
102
RTVSPropertyOp20
 70
     1
102
RTVSPropertyOp21
 70
     1
102
RTVSPropertyOp22
 70
     1
102
RTVSPropertyOp23
 70
     1
102
RTVSPropertyOp24
 70
     1
102
RTVSPropertyOp25
 70
     1
102
RTVSPropertyOp26
 70
     1
102
RTVSPropertyOp27
 70
     1
102
RTVSPropertyOp28
 70
     1
102
RTVSPropertyOp29
 70
     1
102
RTVSPropertyOp30
 70
     1
102
RTVSPropertyOp31
 70
     1
102
RTVSPropertyOp32
 70
     1
  0
XRECORD
  5
13B
102
{ACAD_REACTORS
330
13A
102
}
330
13A
100
AcDbXrecord
280
     1
102
RTVSPropertyOp0
 70
     1
102
RTVSPropertyOp1
 70
     1
102
RTVSPropertyOp2
 70
     1
102
RTVSPropertyOp3
 70
     1
102
RTVSPropertyOp4
 70
     1
102
RTVSPropertyOp5
 70
     1
102
RTVSPropertyOp6
 70
     1
102
RTVSPropertyOp7
 70
     1
102
RTVSPropertyOp8
 70
     1
102
RTVSPropertyOp9
 70
     1
102
RTVSPropertyOp10
 70
     1
102
RTVSPropertyOp11
 70
     1
102
RTVSPropertyOp12
 70
     1
102
RTVSPropertyOp13
 70
     1
102
RTVSPropertyOp14
 70
     1
102
RTVSPropertyOp15
 70
     1
102
RTVSPropertyOp16
 70
     1
102
RTVSPropertyOp17
 70
     1
102
RTVSPropertyOp18
 70
     1
102
RTVSPropertyOp19
 70
     1
102
RTVSPropertyOp20
 70
     1
102
RTVSPropertyOp21
 70
     1
102
RTVSPropertyOp22
 70
     1
102
RTVSPropertyOp23
 70
     1
102
RTVSPropertyOp24
 70
     1
102
RTVSPropertyOp25
 70
     1
102
RTVSPropertyOp26
 70
     1
102
RTVSPropertyOp27
 70
     1
102
RTVSPropertyOp28
 70
     1
102
RTVSPropertyOp29
 70
     1
102
RTVSPropertyOp30
 70
     1
102
RTVSPropertyOp31
 70
     1
102
RTVSPropertyOp32
 70
     1
  0
XRECORD
  5
139
102
{ACAD_REACTORS
330
138
102
}
330
138
100
AcDbXrecord
280
     1
102
RTVSPropertyOp0
 70
     1
102
RTVSPropertyOp1
 70
     1
102
RTVSPropertyOp2
 70
     1
102
RTVSPropertyOp3
 70
     1
102
RTVSPropertyOp4
 70
     1
102
RTVSPropertyOp5
 70
     1
102
RTVSPropertyOp6
 70
     1
102
RTVSPropertyOp7
 70
     1
102
RTVSPropertyOp8
 70
     1
102
RTVSPropertyOp9
 70
     1
102
RTVSPropertyOp10
 70
     1
102
RTVSPropertyOp11
 70
     1
102
RTVSPropertyOp12
 70
     1
102
RTVSPropertyOp13
 70
     1
102
RTVSPropertyOp14
 70
     1
102
RTVSPropertyOp15
 70
     1
102
RTVSPropertyOp16
 70
     1
102
RTVSPropertyOp17
 70
     1
102
RTVSPropertyOp18
 70
     1
102
RTVSPropertyOp19
 70
     1
102
RTVSPropertyOp20
 70
     1
102
RTVSPropertyOp21
 70
     1
102
RTVSPropertyOp22
 70
     1
102
RTVSPropertyOp23
 70
     1
102
RTVSPropertyOp24
 70
     1
102
RTVSPropertyOp25
 70
     1
102
RTVSPropertyOp26
 70
     1
102
RTVSPropertyOp27
 70
     1
102
RTVSPropertyOp28
 70
     1
102
RTVSPropertyOp29
 70
     1
102
RTVSPropertyOp30
 70
     1
102
RTVSPropertyOp31
 70
     1
102
RTVSPropertyOp32
 70
     1
  0
XRECORD
  5
13D
102
{ACAD_REACTORS
330
13C
102
}
330
13C
100
AcDbXrecord
280
     1
102
RTVSPropertyOp0
 70
     1
102
RTVSPropertyOp1
 70
     1
102
RTVSPropertyOp2
 70
     1
102
RTVSPropertyOp3
 70
     1
102
RTVSPropertyOp4
 70
     1
102
RTVSPropertyOp5
 70
     1
102
RTVSPropertyOp6
 70
     1
102
RTVSPropertyOp7
 70
     1
102
RTVSPropertyOp8
 70
     1
102
RTVSPropertyOp9
 70
     1
102
RTVSPropertyOp10
 70
     1
102
RTVSPropertyOp11
 70
     1
102
RTVSPropertyOp12
 70
     1
102
RTVSPropertyOp13
 70
     1
102
RTVSPropertyOp14
 70
     1
102
RTVSPropertyOp15
 70
     1
102
RTVSPropertyOp16
 70
     1
102
RTVSPropertyOp17
 70
     1
102
RTVSPropertyOp18
 70
     1
102
RTVSPropertyOp19
 70
     1
102
RTVSPropertyOp20
 70
     1
102
RTVSPropertyOp21
 70
     1
102
RTVSPropertyOp22
 70
     1
102
RTVSPropertyOp23
 70
     1
102
RTVSPropertyOp24
 70
     1
102
RTVSPropertyOp25
 70
     1
102
RTVSPropertyOp26
 70
     1
102
RTVSPropertyOp27
 70
     1
102
RTVSPropertyOp28
 70
     1
102
RTVSPropertyOp29
 70
     1
102
RTVSPropertyOp30
 70
     1
102
RTVSPropertyOp31
 70
     1
102
RTVSPropertyOp32
 70
     1
  0
XRECORD
  5
145
102
{ACAD_REACTORS
330
144
102
}
330
144
100
AcDbXrecord
280
     1
102
RTVSPropertyOp0
 70
     1
102
RTVSPropertyOp1
 70
     1
102
RTVSPropertyOp2
 70
     1
102
RTVSPropertyOp3
 70
     1
102
RTVSPropertyOp4
 70
     1
102
RTVSPropertyOp5
 70
     1
102
RTVSPropertyOp6
 70
     1
102
RTVSPropertyOp7
 70
     1
102
RTVSPropertyOp8
 70
     1
102
RTVSPropertyOp9
 70
     1
102
RTVSPropertyOp10
 70
     1
102
RTVSPropertyOp11
 70
     1
102
RTVSPropertyOp12
 70
     1
102
RTVSPropertyOp13
 70
     1
102
RTVSPropertyOp14
 70
     1
102
RTVSPropertyOp15
 70
     1
102
RTVSPropertyOp16
 70
     1
102
RTVSPropertyOp17
 70
     1
102
RTVSPropertyOp18
 70
     1
102
RTVSPropertyOp19
 70
     1
102
RTVSPropertyOp20
 70
     1
102
RTVSPropertyOp21
 70
     1
102
RTVSPropertyOp22
 70
     1
102
RTVSPropertyOp23
 70
     1
102
RTVSPropertyOp24
 70
     1
102
RTVSPropertyOp25
 70
     1
102
RTVSPropertyOp26
 70
     1
102
RTVSPropertyOp27
 70
     1
102
RTVSPropertyOp28
 70
     1
102
RTVSPropertyOp29
 70
     1
102
RTVSPropertyOp30
 70
     1
102
RTVSPropertyOp31
 70
     1
102
RTVSPropertyOp32
 70
     1
  0
XRECORD
  5
14D
102
{ACAD_REACTORS
330
14C
102
}
330
14C
100
AcDbXrecord
280
     1
102
RTVSPropertyOp0
 70
     1
102
RTVSPropertyOp1
 70
     1
102
RTVSPropertyOp2
 70
     1
102
RTVSPropertyOp3
 70
     1
102
RTVSPropertyOp4
 70
     1
102
RTVSPropertyOp5
 70
     1
102
RTVSPropertyOp6
 70
     1
102
RTVSPropertyOp7
 70
     1
102
RTVSPropertyOp8
 70
     1
102
RTVSPropertyOp9
 70
     1
102
RTVSPropertyOp10
 70
     1
102
RTVSPropertyOp11
 70
     1
102
RTVSPropertyOp12
 70
     1
102
RTVSPropertyOp13
 70
     1
102
RTVSPropertyOp14
 70
     1
102
RTVSPropertyOp15
 70
     1
102
RTVSPropertyOp16
 70
     1
102
RTVSPropertyOp17
 70
     1
102
RTVSPropertyOp18
 70
     1
102
RTVSPropertyOp19
 70
     1
102
RTVSPropertyOp20
 70
     1
102
RTVSPropertyOp21
 70
     1
102
RTVSPropertyOp22
 70
     1
102
RTVSPropertyOp23
 70
     1
102
RTVSPropertyOp24
 70
     1
102
RTVSPropertyOp25
 70
     1
102
RTVSPropertyOp26
 70
     1
102
RTVSPropertyOp27
 70
     1
102
RTVSPropertyOp28
 70
     1
102
RTVSPropertyOp29
 70
     1
102
RTVSPropertyOp30
 70
     1
102
RTVSPropertyOp31
 70
     1
102
RTVSPropertyOp32
 70
     1
  0
XRECORD
  5
141
102
{ACAD_REACTORS
330
140
102
}
330
140
100
AcDbXrecord
280
     1
102
RTVSPropertyOp0
 70
     1
102
RTVSPropertyOp1
 70
     1
102
RTVSPropertyOp2
 70
     1
102
RTVSPropertyOp3
 70
     1
102
RTVSPropertyOp4
 70
     1
102
RTVSPropertyOp5
 70
     1
102
RTVSPropertyOp6
 70
     1
102
RTVSPropertyOp7
 70
     1
102
RTVSPropertyOp8
 70
     1
102
RTVSPropertyOp9
 70
     1
102
RTVSPropertyOp10
 70
     1
102
RTVSPropertyOp11
 70
     1
102
RTVSPropertyOp12
 70
     1
102
RTVSPropertyOp13
 70
     1
102
RTVSPropertyOp14
 70
     1
102
RTVSPropertyOp15
 70
     1
102
RTVSPropertyOp16
 70
     1
102
RTVSPropertyOp17
 70
     1
102
RTVSPropertyOp18
 70
     1
102
RTVSPropertyOp19
 70
     1
102
RTVSPropertyOp20
 70
     1
102
RTVSPropertyOp21
 70
     1
102
RTVSPropertyOp22
 70
     1
102
RTVSPropertyOp23
 70
     1
102
RTVSPropertyOp24
 70
     1
102
RTVSPropertyOp25
 70
     1
102
RTVSPropertyOp26
 70
     1
102
RTVSPropertyOp27
 70
     1
102
RTVSPropertyOp28
 70
     1
102
RTVSPropertyOp29
 70
     1
102
RTVSPropertyOp30
 70
     1
102
RTVSPropertyOp31
 70
     1
102
RTVSPropertyOp32
 70
     1
  0
XRECORD
  5
143
102
{ACAD_REACTORS
330
142
102
}
330
142
100
AcDbXrecord
280
     1
102
RTVSPropertyOp0
 70
     1
102
RTVSPropertyOp1
 70
     1
102
RTVSPropertyOp2
 70
     1
102
RTVSPropertyOp3
 70
     1
102
RTVSPropertyOp4
 70
     1
102
RTVSPropertyOp5
 70
     1
102
RTVSPropertyOp6
 70
     1
102
RTVSPropertyOp7
 70
     1
102
RTVSPropertyOp8
 70
     1
102
RTVSPropertyOp9
 70
     1
102
RTVSPropertyOp10
 70
     1
102
RTVSPropertyOp11
 70
     1
102
RTVSPropertyOp12
 70
     1
102
RTVSPropertyOp13
 70
     1
102
RTVSPropertyOp14
 70
     1
102
RTVSPropertyOp15
 70
     1
102
RTVSPropertyOp16
 70
     1
102
RTVSPropertyOp17
 70
     1
102
RTVSPropertyOp18
 70
     1
102
RTVSPropertyOp19
 70
     1
102
RTVSPropertyOp20
 70
     1
102
RTVSPropertyOp21
 70
     1
102
RTVSPropertyOp22
 70
     1
102
RTVSPropertyOp23
 70
     1
102
RTVSPropertyOp24
 70
     1
102
RTVSPropertyOp25
 70
     1
102
RTVSPropertyOp26
 70
     1
102
RTVSPropertyOp27
 70
     1
102
RTVSPropertyOp28
 70
     1
102
RTVSPropertyOp29
 70
     1
102
RTVSPropertyOp30
 70
     1
102
RTVSPropertyOp31
 70
     1
102
RTVSPropertyOp32
 70
     1
  0
XRECORD
  5
14B
102
{ACAD_REACTORS
330
14A
102
}
330
14A
100
AcDbXrecord
280
     1
102
RTVSPropertyOp0
 70
     1
102
RTVSPropertyOp1
 70
     1
102
RTVSPropertyOp2
 70
     1
102
RTVSPropertyOp3
 70
     1
102
RTVSPropertyOp4
 70
     1
102
RTVSPropertyOp5
 70
     1
102
RTVSPropertyOp6
 70
     1
102
RTVSPropertyOp7
 70
     1
102
RTVSPropertyOp8
 70
     1
102
RTVSPropertyOp9
 70
     1
102
RTVSPropertyOp10
 70
     1
102
RTVSPropertyOp11
 70
     1
102
RTVSPropertyOp12
 70
     1
102
RTVSPropertyOp13
 70
     1
102
RTVSPropertyOp14
 70
     1
102
RTVSPropertyOp15
 70
     1
102
RTVSPropertyOp16
 70
     1
102
RTVSPropertyOp17
 70
     1
102
RTVSPropertyOp18
 70
     1
102
RTVSPropertyOp19
 70
     1
102
RTVSPropertyOp20
 70
     1
102
RTVSPropertyOp21
 70
     1
102
RTVSPropertyOp22
 70
     1
102
RTVSPropertyOp23
 70
     1
102
RTVSPropertyOp24
 70
     1
102
RTVSPropertyOp25
 70
     1
102
RTVSPropertyOp26
 70
     1
102
RTVSPropertyOp27
 70
     1
102
RTVSPropertyOp28
 70
     1
102
RTVSPropertyOp29
 70
     1
102
RTVSPropertyOp30
 70
     1
102
RTVSPropertyOp31
 70
     1
102
RTVSPropertyOp32
 70
     1
  0
XRECORD
  5
12F
102
{ACAD_REACTORS
330
12E
102
}
330
12E
100
AcDbXrecord
280
     1
102
RTVSPropertyOp0
 70
     1
102
RTVSPropertyOp1
 70
     1
102
RTVSPropertyOp2
 70
     1
102
RTVSPropertyOp3
 70
     1
102
RTVSPropertyOp4
 70
     1
102
RTVSPropertyOp5
 70
     1
102
RTVSPropertyOp6
 70
     1
102
RTVSPropertyOp7
 70
     1
102
RTVSPropertyOp8
 70
     1
102
RTVSPropertyOp9
 70
     1
102
RTVSPropertyOp10
 70
     1
102
RTVSPropertyOp11
 70
     1
102
RTVSPropertyOp12
 70
     1
102
RTVSPropertyOp13
 70
     1
102
RTVSPropertyOp14
 70
     1
102
RTVSPropertyOp15
 70
     1
102
RTVSPropertyOp16
 70
     1
102
RTVSPropertyOp17
 70
     1
102
RTVSPropertyOp18
 70
     1
102
RTVSPropertyOp19
 70
     1
102
RTVSPropertyOp20
 70
     1
102
RTVSPropertyOp21
 70
     1
102
RTVSPropertyOp22
 70
     1
102
RTVSPropertyOp23
 70
     1
102
RTVSPropertyOp24
 70
     1
102
RTVSPropertyOp25
 70
     1
102
RTVSPropertyOp26
 70
     1
102
RTVSPropertyOp27
 70
     1
102
RTVSPropertyOp28
 70
     1
102
RTVSPropertyOp29
 70
     1
102
RTVSPropertyOp30
 70
     1
102
RTVSPropertyOp31
 70
     1
102
RTVSPropertyOp32
 70
     1
  0
XRECORD
  5
131
102
{ACAD_REACTORS
330
130
102
}
330
130
100
AcDbXrecord
280
     1
102
RTVSPropertyOp0
 70
     1
102
RTVSPropertyOp1
 70
     1
102
RTVSPropertyOp2
 70
     1
102
RTVSPropertyOp3
 70
     1
102
RTVSPropertyOp4
 70
     1
102
RTVSPropertyOp5
 70
     1
102
RTVSPropertyOp6
 70
     1
102
RTVSPropertyOp7
 70
     1
102
RTVSPropertyOp8
 70
     1
102
RTVSPropertyOp9
 70
     1
102
RTVSPropertyOp10
 70
     1
102
RTVSPropertyOp11
 70
     1
102
RTVSPropertyOp12
 70
     1
102
RTVSPropertyOp13
 70
     1
102
RTVSPropertyOp14
 70
     1
102
RTVSPropertyOp15
 70
     1
102
RTVSPropertyOp16
 70
     1
102
RTVSPropertyOp17
 70
     1
102
RTVSPropertyOp18
 70
     1
102
RTVSPropertyOp19
 70
     1
102
RTVSPropertyOp20
 70
     1
102
RTVSPropertyOp21
 70
     1
102
RTVSPropertyOp22
 70
     1
102
RTVSPropertyOp23
 70
     1
102
RTVSPropertyOp24
 70
     1
102
RTVSPropertyOp25
 70
     1
102
RTVSPropertyOp26
 70
     1
102
RTVSPropertyOp27
 70
     1
102
RTVSPropertyOp28
 70
     1
102
RTVSPropertyOp29
 70
     1
102
RTVSPropertyOp30
 70
     1
102
RTVSPropertyOp31
 70
     1
102
RTVSPropertyOp32
 70
     1
  0
XRECORD
  5
133
102
{ACAD_REACTORS
330
132
102
}
330
132
100
AcDbXrecord
280
     1
102
RTVSPropertyOp0
 70
     1
102
RTVSPropertyOp1
 70
     1
102
RTVSPropertyOp2
 70
     1
102
RTVSPropertyOp3
 70
     1
102
RTVSPropertyOp4
 70
     1
102
RTVSPropertyOp5
 70
     1
102
RTVSPropertyOp6
 70
     1
102
RTVSPropertyOp7
 70
     1
102
RTVSPropertyOp8
 70
     1
102
RTVSPropertyOp9
 70
     1
102
RTVSPropertyOp10
 70
     1
102
RTVSPropertyOp11
 70
     1
102
RTVSPropertyOp12
 70
     1
102
RTVSPropertyOp13
 70
     1
102
RTVSPropertyOp14
 70
     1
102
RTVSPropertyOp15
 70
     1
102
RTVSPropertyOp16
 70
     1
102
RTVSPropertyOp17
 70
     1
102
RTVSPropertyOp18
 70
     1
102
RTVSPropertyOp19
 70
     1
102
RTVSPropertyOp20
 70
     1
102
RTVSPropertyOp21
 70
     1
102
RTVSPropertyOp22
 70
     1
102
RTVSPropertyOp23
 70
     1
102
RTVSPropertyOp24
 70
     1
102
RTVSPropertyOp25
 70
     1
102
RTVSPropertyOp26
 70
     1
102
RTVSPropertyOp27
 70
     1
102
RTVSPropertyOp28
 70
     1
102
RTVSPropertyOp29
 70
     1
102
RTVSPropertyOp30
 70
     1
102
RTVSPropertyOp31
 70
     1
102
RTVSPropertyOp32
 70
     1
  0
XRECORD
  5
135
102
{ACAD_REACTORS
330
134
102
}
330
134
100
AcDbXrecord
280
     1
102
RTVSPropertyOp0
 70
     1
102
RTVSPropertyOp1
 70
     1
102
RTVSPropertyOp2
 70
     1
102
RTVSPropertyOp3
 70
     1
102
RTVSPropertyOp4
 70
     1
102
RTVSPropertyOp5
 70
     1
102
RTVSPropertyOp6
 70
     1
102
RTVSPropertyOp7
 70
     1
102
RTVSPropertyOp8
 70
     1
102
RTVSPropertyOp9
 70
     1
102
RTVSPropertyOp10
 70
     1
102
RTVSPropertyOp11
 70
     1
102
RTVSPropertyOp12
 70
     1
102
RTVSPropertyOp13
 70
     1
102
RTVSPropertyOp14
 70
     1
102
RTVSPropertyOp15
 70
     1
102
RTVSPropertyOp16
 70
     1
102
RTVSPropertyOp17
 70
     1
102
RTVSPropertyOp18
 70
     1
102
RTVSPropertyOp19
 70
     1
102
RTVSPropertyOp20
 70
     1
102
RTVSPropertyOp21
 70
     1
102
RTVSPropertyOp22
 70
     1
102
RTVSPropertyOp23
 70
     1
102
RTVSPropertyOp24
 70
     1
102
RTVSPropertyOp25
 70
     1
102
RTVSPropertyOp26
 70
     1
102
RTVSPropertyOp27
 70
     1
102
RTVSPropertyOp28
 70
     1
102
RTVSPropertyOp29
 70
     1
102
RTVSPropertyOp30
 70
     1
102
RTVSPropertyOp31
 70
     1
102
RTVSPropertyOp32
 70
     1
  0
XRECORD
  5
149
102
{ACAD_REACTORS
330
148
102
}
330
148
100
AcDbXrecord
280
     1
102
RTVSPropertyOp0
 70
     1
102
RTVSPropertyOp1
 70
     1
102
RTVSPropertyOp2
 70
     1
102
RTVSPropertyOp3
 70
     1
102
RTVSPropertyOp4
 70
     1
102
RTVSPropertyOp5
 70
     1
102
RTVSPropertyOp6
 70
     1
102
RTVSPropertyOp7
 70
     1
102
RTVSPropertyOp8
 70
     1
102
RTVSPropertyOp9
 70
     1
102
RTVSPropertyOp10
 70
     1
102
RTVSPropertyOp11
 70
     1
102
RTVSPropertyOp12
 70
     1
102
RTVSPropertyOp13
 70
     1
102
RTVSPropertyOp14
 70
     1
102
RTVSPropertyOp15
 70
     1
102
RTVSPropertyOp16
 70
     1
102
RTVSPropertyOp17
 70
     1
102
RTVSPropertyOp18
 70
     1
102
RTVSPropertyOp19
 70
     1
102
RTVSPropertyOp20
 70
     1
102
RTVSPropertyOp21
 70
     1
102
RTVSPropertyOp22
 70
     1
102
RTVSPropertyOp23
 70
     1
102
RTVSPropertyOp24
 70
     1
102
RTVSPropertyOp25
 70
     1
102
RTVSPropertyOp26
 70
     1
102
RTVSPropertyOp27
 70
     1
102
RTVSPropertyOp28
 70
     1
102
RTVSPropertyOp29
 70
     1
102
RTVSPropertyOp30
 70
     1
102
RTVSPropertyOp31
 70
     1
102
RTVSPropertyOp32
 70
     1
  0
XRECORD
  5
13F
102
{ACAD_REACTORS
330
13E
102
}
330
13E
100
AcDbXrecord
280
     1
102
RTVSPropertyOp0
 70
     1
102
RTVSPropertyOp1
 70
     1
102
RTVSPropertyOp2
 70
     1
102
RTVSPropertyOp3
 70
     1
102
RTVSPropertyOp4
 70
     1
102
RTVSPropertyOp5
 70
     1
102
RTVSPropertyOp6
 70
     1
102
RTVSPropertyOp7
 70
     1
102
RTVSPropertyOp8
 70
     1
102
RTVSPropertyOp9
 70
     1
102
RTVSPropertyOp10
 70
     1
102
RTVSPropertyOp11
 70
     1
102
RTVSPropertyOp12
 70
     1
102
RTVSPropertyOp13
 70
     1
102
RTVSPropertyOp14
 70
     1
102
RTVSPropertyOp15
 70
     1
102
RTVSPropertyOp16
 70
     1
102
RTVSPropertyOp17
 70
     1
102
RTVSPropertyOp18
 70
     1
102
RTVSPropertyOp19
 70
     1
102
RTVSPropertyOp20
 70
     1
102
RTVSPropertyOp21
 70
     1
102
RTVSPropertyOp22
 70
     1
102
RTVSPropertyOp23
 70
     1
102
RTVSPropertyOp24
 70
     1
102
RTVSPropertyOp25
 70
     1
102
RTVSPropertyOp26
 70
     1
102
RTVSPropertyOp27
 70
     1
102
RTVSPropertyOp28
 70
     1
102
RTVSPropertyOp29
 70
     1
102
RTVSPropertyOp30
 70
     1
102
RTVSPropertyOp31
 70
     1
102
RTVSPropertyOp32
 70
     1
  0
XRECORD
  5
147
102
{ACAD_REACTORS
330
146
102
}
330
146
100
AcDbXrecord
280
     1
102
RTVSPropertyOp0
 70
     1
102
RTVSPropertyOp1
 70
     1
102
RTVSPropertyOp2
 70
     1
102
RTVSPropertyOp3
 70
     1
102
RTVSPropertyOp4
 70
     1
102
RTVSPropertyOp5
 70
     1
102
RTVSPropertyOp6
 70
     1
102
RTVSPropertyOp7
 70
     1
102
RTVSPropertyOp8
 70
     1
102
RTVSPropertyOp9
 70
     1
102
RTVSPropertyOp10
 70
     1
102
RTVSPropertyOp11
 70
     1
102
RTVSPropertyOp12
 70
     1
102
RTVSPropertyOp13
 70
     1
102
RTVSPropertyOp14
 70
     1
102
RTVSPropertyOp15
 70
     1
102
RTVSPropertyOp16
 70
     1
102
RTVSPropertyOp17
 70
     1
102
RTVSPropertyOp18
 70
     1
102
RTVSPropertyOp19
 70
     1
102
RTVSPropertyOp20
 70
     1
102
RTVSPropertyOp21
 70
     1
102
RTVSPropertyOp22
 70
     1
102
RTVSPropertyOp23
 70
     1
102
RTVSPropertyOp24
 70
     1
102
RTVSPropertyOp25
 70
     1
102
RTVSPropertyOp26
 70
     1
102
RTVSPropertyOp27
 70
     1
102
RTVSPropertyOp28
 70
     1
102
RTVSPropertyOp29
 70
     1
102
RTVSPropertyOp30
 70
     1
102
RTVSPropertyOp31
 70
     1
102
RTVSPropertyOp32
 70
     1
  0
ENDSEC
  0
EOF
