  0
SECTION
  2
HEADER
  9
$ACADVER
  1
AC1015
  9
$ACADMAINTVER
 70
     6
  9
$DWGCODEPAGE
  3
ANSI_932
  9
$INSBASE
 10
0.0
 20
0.0
 30
0.0
  9
$EXTMIN
 10
0.0
 20
0.0
 30
0.0
  9
$EXTMAX
 10
210.0000000000001
 20
297.0
 30
0.0
  9
$LIMMIN
 10
0.0
 20
0.0
  9
$LIMMAX
 10
12.0
 20
9.0
  9
$ORTHOMODE
 70
     0
  9
$REGENMODE
 70
     1
  9
$FILLMODE
 70
     1
  9
$QTEXTMODE
 70
     0
  9
$MIRRTEXT
 70
     1
  9
$LTSCALE
 40
1.0
  9
$ATTMODE
 70
     1
  9
$TEXTSIZE
 40
0.2
  9
$TRACEWID
 40
0.05
  9
$TEXTSTYLE
  7
Standard
  9
$CLAYER
  8
0
  9
$CELTYPE
  6
ByLayer
  9
$CECOLOR
 62
   256
  9
$CELTSCALE
 40
1.0
  9
$DISPSILH
 70
     0
  9
$DIMSCALE
 40
1.0
  9
$DIMASZ
 40
0.18
  9
$DIMEXO
 40
0.0625
  9
$DIMDLI
 40
0.38
  9
$DIMRND
 40
0.0
  9
$DIMDLE
 40
0.0
  9
$DIMEXE
 40
0.18
  9
$DIMTP
 40
0.0
  9
$DIMTM
 40
0.0
  9
$DIMTXT
 40
0.18
  9
$DIMCEN
 40
0.09
  9
$DIMTSZ
 40
0.0
  9
$DIMTOL
 70
     0
  9
$DIMLIM
 70
     0
  9
$DIMTIH
 70
     1
  9
$DIMTOH
 70
     1
  9
$DIMSE1
 70
     0
  9
$DIMSE2
 70
     0
  9
$DIMTAD
 70
     0
  9
$DIMZIN
 70
     0
  9
$DIMBLK
  1

  9
$DIMASO
 70
     1
  9
$DIMSHO
 70
     1
  9
$DIMPOST
  1

  9
$DIMAPOST
  1

  9
$DIMALT
 70
     0
  9
$DIMALTD
 70
     2
  9
$DIMALTF
 40
25.4
  9
$DIMLFAC
 40
1.0
  9
$DIMTOFL
 70
     0
  9
$DIMTVP
 40
0.0
  9
$DIMTIX
 70
     0
  9
$DIMSOXD
 70
     0
  9
$DIMSAH
 70
     0
  9
$DIMBLK1
  1

  9
$DIMBLK2
  1

  9
$DIMSTYLE
  2
Standard
  9
$DIMCLRD
 70
     0
  9
$DIMCLRE
 70
     0
  9
$DIMCLRT
 70
     0
  9
$DIMTFAC
 40
1.0
  9
$DIMGAP
 40
0.09
  9
$DIMJUST
 70
     0
  9
$DIMSD1
 70
     0
  9
$DIMSD2
 70
     0
  9
$DIMTOLJ
 70
     1
  9
$DIMTZIN
 70
     0
  9
$DIMALTZ
 70
     0
  9
$DIMALTTZ
 70
     0
  9
$DIMUPT
 70
     0
  9
$DIMDEC
 70
     4
  9
$DIMTDEC
 70
     4
  9
$DIMALTU
 70
     2
  9
$DIMALTTD
 70
     2
  9
$DIMTXSTY
  7
Standard
  9
$DIMAUNIT
 70
     0
  9
$DIMADEC
 70
     0
  9
$DIMALTRND
 40
0.0
  9
$DIMAZIN
 70
     0
  9
$DIMDSEP
 70
    46
  9
$DIMATFIT
 70
     3
  9
$DIMFRAC
 70
     0
  9
$DIMLDRBLK
  1

  9
$DIMLUNIT
 70
     2
  9
$DIMLWD
 70
    -2
  9
$DIMLWE
 70
    -2
  9
$DIMTMOVE
 70
     0
  9
$LUNITS
 70
     2
  9
$LUPREC
 70
     4
  9
$SKETCHINC
 40
0.1
  9
$FILLETRAD
 40
0.5
  9
$AUNITS
 70
     0
  9
$AUPREC
 70
     0
  9
$MENU
  1
.
  9
$ELEVATION
 40
0.0
  9
$PELEVATION
 40
0.0
  9
$THICKNESS
 40
0.0
  9
$LIMCHECK
 70
     0
  9
$CHAMFERA
 40
0.5
  9
$CHAMFERB
 40
0.5
  9
$CHAMFERC
 40
1.0
  9
$CHAMFERD
 40
0.0
  9
$SKPOLY
 70
     0
  9
$TDCREATE
 40
2459796.377992303
  9
$TDUCREATE
 40
2459796.002992303
  9
$TDUPDATE
 40
2459796.377993924
  9
$TDUUPDATE
 40
2459796.002993924
  9
$TDINDWG
 40
0.0000000116
  9
$TDUSRTIMER
 40
0.0000000116
  9
$USRTIMER
 70
     1
  9
$ANGBASE
 50
0.0
  9
$ANGDIR
 70
     0
  9
$PDMODE
 70
     0
  9
$PDSIZE
 40
0.0
  9
$PLINEWID
 40
0.0
  9
$SPLFRAME
 70
     0
  9
$SPLINETYPE
 70
     6
  9
$SPLINESEGS
 70
     8
  9
$HANDSEED
  5
1AC
  9
$SURFTAB1
 70
     6
  9
$SURFTAB2
 70
     6
  9
$SURFTYPE
 70
     6
  9
$SURFU
 70
     6
  9
$SURFV
 70
     6
  9
$UCSBASE
  2

  9
$UCSNAME
  2

  9
$UCSORG
 10
0.0
 20
0.0
 30
0.0
  9
$UCSXDIR
 10
1.0
 20
0.0
 30
0.0
  9
$UCSYDIR
 10
0.0
 20
1.0
 30
0.0
  9
$UCSORTHOREF
  2

  9
$UCSORTHOVIEW
 70
     0
  9
$UCSORGTOP
 10
0.0
 20
0.0
 30
0.0
  9
$UCSORGBOTTOM
 10
0.0
 20
0.0
 30
0.0
  9
$UCSORGLEFT
 10
0.0
 20
0.0
 30
0.0
  9
$UCSORGRIGHT
 10
0.0
 20
0.0
 30
0.0
  9
$UCSORGFRONT
 10
0.0
 20
0.0
 30
0.0
  9
$UCSORGBACK
 10
0.0
 20
0.0
 30
0.0
  9
$PUCSBASE
  2

  9
$PUCSNAME
  2

  9
$PUCSORG
 10
0.0
 20
0.0
 30
0.0
  9
$PUCSXDIR
 10
1.0
 20
0.0
 30
0.0
  9
$PUCSYDIR
 10
0.0
 20
1.0
 30
0.0
  9
$PUCSORTHOREF
  2

  9
$PUCSORTHOVIEW
 70
     0
  9
$PUCSORGTOP
 10
0.0
 20
0.0
 30
0.0
  9
$PUCSORGBOTTOM
 10
0.0
 20
0.0
 30
0.0
  9
$PUCSORGLEFT
 10
0.0
 20
0.0
 30
0.0
  9
$PUCSORGRIGHT
 10
0.0
 20
0.0
 30
0.0
  9
$PUCSORGFRONT
 10
0.0
 20
0.0
 30
0.0
  9
$PUCSORGBACK
 10
0.0
 20
0.0
 30
0.0
  9
$USERI1
 70
     0
  9
$USERI2
 70
     0
  9
$USERI3
 70
     0
  9
$USERI4
 70
     0
  9
$USERI5
 70
     0
  9
$USERR1
 40
18.1
  9
$USERR2
 40
0.0
  9
$USERR3
 40
0.0
  9
$USERR4
 40
0.0
  9
$USERR5
 40
0.0
  9
$WORLDVIEW
 70
     1
  9
$SHADEDGE
 70
     3
  9
$SHADEDIF
 70
    70
  9
$TILEMODE
 70
     1
  9
$MAXACTVP
 70
    64
  9
$PINSBASE
 10
0.0
 20
0.0
 30
0.0
  9
$PLIMCHECK
 70
     0
  9
$PEXTMIN
 10
1.00000000000000E+20
 20
1.00000000000000E+20
 30
1.00000000000000E+20
  9
$PEXTMAX
 10
-1.00000000000000E+20
 20
-1.00000000000000E+20
 30
-1.00000000000000E+20
  9
$PLIMMIN
 10
0.0
 20
0.0
  9
$PLIMMAX
 10
12.0
 20
9.0
  9
$UNITMODE
 70
     0
  9
$VISRETAIN
 70
     1
  9
$PLINEGEN
 70
     0
  9
$PSLTSCALE
 70
     1
  9
$TREEDEPTH
 70
  3020
  9
$CMLSTYLE
  2
Standard
  9
$CMLJUST
 70
     0
  9
$CMLSCALE
 40
1.0
  9
$PROXYGRAPHICS
 70
     1
  9
$MEASUREMENT
 70
     1
  9
$CELWEIGHT
370
    -1
  9
$ENDCAPS
280
     0
  9
$JOINSTYLE
280
     0
  9
$LWDISPLAY
290
     0
  9
$INSUNITS
 70
     4
  9
$HYPERLINKBASE
  1

  9
$STYLESHEET
  1

  9
$XEDIT
290
     1
  9
$CEPSNTYPE
380
     0
  9
$PSTYLEMODE
290
     1
  9
$FINGERPRINTGUID
  2
{45C7E7A2-BAA5-4885-85A9-1ACCA05D4472}
  9
$VERSIONGUID
  2
{FAEB1C32-E019-11D5-929B-00C0DF256EC4}
  9
$EXTNAMES
290
     1
  9
$PSVPSCALE
 40
0.0
  9
$OLESTARTUP
290
     0
  0
ENDSEC
  0
SECTION
  2
CLASSES
  0
CLASS
  1
ACDBDICTIONARYWDFLT
  2
AcDbDictionaryWithDefault
  3
ObjectDBX Classes
 90
        0
280
     0
281
     0
  0
CLASS
  1
VISUALSTYLE
  2
AcDbVisualStyle
  3
ObjectDBX Classes
 90
     4095
280
     0
281
     0
  0
CLASS
  1
MATERIAL
  2
AcDbMaterial
  3
ObjectDBX Classes
 90
     1153
280
     0
281
     0
  0
CLASS
  1
DICTIONARYVAR
  2
AcDbDictionaryVar
  3
ObjectDBX Classes
 90
        0
280
     0
281
     0
  0
CLASS
  1
ACDBPLACEHOLDER
  2
AcDbPlaceHolder
  3
ObjectDBX Classes
 90
        0
280
     0
281
     0
  0
CLASS
  1
LAYOUT
  2
AcDbLayout
  3
ObjectDBX Classes
 90
        0
280
     0
281
     0
  0
ENDSEC
  0
SECTION
  2
TABLES
  0
TABLE
  2
VPORT
  5
8
330
0
100
AcDbSymbolTable
 70
     1
  0
VPORT
  5
29
330
8
100
AcDbSymbolTableRecord
100
AcDbViewportTableRecord
  2
*Active
 70
     0
 10
0.0
 20
0.0
 11
1.0
 21
1.0
 12
105.0000000000001
 22
148.5
 13
0.0
 23
0.0
 14
0.5
 24
0.5
 15
0.5
 25
0.5
 16
0.0
 26
0.0
 36
1.0
 17
0.0
 27
0.0
 37
0.0
 40
326.7
 41
1.60267857142857
 42
50.0
 43
0.0
 44
0.0
 50
0.0
 51
0.0
 71
     0
 72
   100
 73
     1
 74
     3
 75
     0
 76
     0
 77
     0
 78
     0
281
     0
 65
     1
110
0.0
120
0.0
130
0.0
111
1.0
121
0.0
131
0.0
112
0.0
122
1.0
132
0.0
 79
     0
146
0.0
  0
ENDTAB
  0
TABLE
  2
LTYPE
  5
5
330
0
100
AcDbSymbolTable
 70
     8
  0
LTYPE
  5
14
330
5
100
AcDbSymbolTableRecord
100
AcDbLinetypeTableRecord
  2
ByBlock
 70
     0
  3

 72
    65
 73
     0
 40
0.0
  0
LTYPE
  5
15
330
5
100
AcDbSymbolTableRecord
100
AcDbLinetypeTableRecord
  2
ByLayer
 70
     0
  3

 72
    65
 73
     0
 40
0.0
  0
LTYPE
  5
16
330
5
100
AcDbSymbolTableRecord
100
AcDbLinetypeTableRecord
  2
Continuous
 70
     0
  3
Solid line
 72
    65
 73
     0
 40
0.0
  0
LTYPE
  5
3F
330
5
100
AcDbSymbolTableRecord
100
AcDbLinetypeTableRecord
  2
DASHED
 70
     0
  3
Dashed
 72
    65
 73
     2
 40
15.0
 49
7.0
 74
     0
 49
-8.0
 74
     0
  0
LTYPE
  5
40
330
5
100
AcDbSymbolTableRecord
100
AcDbLinetypeTableRecord
  2
DOTTED
 70
     0
  3
Dotted
 72
    65
 73
     2
 40
1.0
 49
0.0
 74
     0
 49
-1.0
 74
     0
  0
LTYPE
  5
41
330
5
100
AcDbSymbolTableRecord
100
AcDbLinetypeTableRecord
  2
DOT_CENTER
 70
     0
  3
Dot_Center
 72
    65
 73
     4
 40
14.0
 49
12.0
 74
     0
 49
-1.0
 74
     0
 49
0.0
 74
     0
 49
-1.0
 74
     0
  0
LTYPE
  5
42
330
5
100
AcDbSymbolTableRecord
100
AcDbLinetypeTableRecord
  2
LONG_DASHED
 70
     0
  3
Long_Dashed
 72
    65
 73
     2
 40
15.0
 49
10.0
 74
     0
 49
-5.0
 74
     0
  0
LTYPE
  5
43
330
5
100
AcDbSymbolTableRecord
100
AcDbLinetypeTableRecord
  2
DASH_CENTER
 70
     0
  3
Dash_Center
 72
    65
 73
     4
 40
14.0
 49
11.0
 74
     0
 49
-1.0
 74
     0
 49
1.0
 74
     0
 49
-1.0
 74
     0
  0
LTYPE
  5
44
330
5
100
AcDbSymbolTableRecord
100
AcDbLinetypeTableRecord
  2
PHANTOM
 70
     0
  3
Phantom
 72
    65
 73
     6
 40
13.0
 49
10.0
 74
     0
 49
-1.0
 74
     0
 49
0.0
 74
     0
 49
-1.0
 74
     0
 49
0.0
 74
     0
 49
-1.0
 74
     0
  0
LTYPE
  5
45
330
5
100
AcDbSymbolTableRecord
100
AcDbLinetypeTableRecord
  2
CENTER_DASH_DASH
 70
     0
  3
Center_Dash_Dash
 72
    65
 73
     6
 40
14.0
 49
9.0
 74
     0
 49
-1.0
 74
     0
 49
1.0
 74
     0
 49
-1.0
 74
     0
 49
1.0
 74
     0
 49
-1.0
 74
     0
  0
ENDTAB
  0
TABLE
  2
LAYER
  5
2
330
0
100
AcDbSymbolTable
 70
     3
  0
LAYER
  5
10
330
2
100
AcDbSymbolTableRecord
100
AcDbLayerTableRecord
  2
0
 70
     0
 62
     7
  6
Continuous
370
    -3
390
F
  0
LAYER
  5
46
330
2
100
AcDbSymbolTableRecord
100
AcDbLayerTableRecord
  2
1
 70
     0
 62
     7
  6
Continuous
370
    -3
390
F
  0
LAYER
  5
47
330
2
100
AcDbSymbolTableRecord
100
AcDbLayerTableRecord
  2
_U_30EC_U_30A4_U_30E4_U_30FC_1
 70
     0
 62
     7
  6
Continuous
370
    -3
390
F
  0
ENDTAB
  0
TABLE
  2
STYLE
  5
3
330
0
100
AcDbSymbolTable
 70
     3
  0
STYLE
  5
11
330
3
100
AcDbSymbolTableRecord
100
AcDbTextStyleTableRecord
  2
Standard
 70
     0
 40
0.0
 41
1.0
 50
0.0
 71
     0
 42
0.2
  3
txt
  4

  0
STYLE
  5
C6
330
3
100
AcDbSymbolTableRecord
100
AcDbTextStyleTableRecord
  2
CONVERTER_11
 70
     0
 40
0.0
 41
0.89
 50
0.0
 71
     0
 42
0.2
  3
msmincho.ttc
  4

1001
ACAD
1000
MS Mincho
1071
    32785
  0
STYLE
  5
14F
330
3
100
AcDbSymbolTableRecord
100
AcDbTextStyleTableRecord
  2
CONVERTER_12
 70
     0
 40
0.0
 41
0.9
 50
0.0
 71
     0
 42
0.2
  3
txt.shx
  4

  0
ENDTAB
  0
TABLE
  2
VIEW
  5
6
330
0
100
AcDbSymbolTable
 70
     0
  0
ENDTAB
  0
TABLE
  2
UCS
  5
7
330
0
100
AcDbSymbolTable
 70
     0
  0
ENDTAB
  0
TABLE
  2
APPID
  5
9
330
0
100
AcDbSymbolTable
 70
     1
  0
APPID
  5
12
330
9
100
AcDbSymbolTableRecord
100
AcDbRegAppTableRecord
  2
ACAD
 70
     0
  0
ENDTAB
  0
TABLE
  2
DIMSTYLE
  5
A
330
0
100
AcDbSymbolTable
 70
     4
100
AcDbDimStyleTable
  0
DIMSTYLE
105
27
330
A
100
AcDbSymbolTableRecord
100
AcDbDimStyleTableRecord
  2
Standard
 70
     0
178
     0
340
11
  0
DIMSTYLE
105
169
102
{ACAD_REACTORS
330
16A
102
}
330
A
100
AcDbSymbolTableRecord
100
AcDbDimStyleTableRecord
  2
ME10_DIM_10
 70
     0
 41
3.5
 42
0.0
 44
1.0
 73
     0
 74
     0
 77
     1
 78
     8
140
3.5
147
1.0
172
     1
173
     1
174
     1
175
     1
176
     2
177
     2
271
     2
178
     7
271
     2
340
14F
  0
DIMSTYLE
105
174
102
{ACAD_REACTORS
330
175
102
}
330
A
100
AcDbSymbolTableRecord
100
AcDbDimStyleTableRecord
  2
ME10_DIM_11
 70
     0
 41
3.5
 42
0.0
 44
1.0
 73
     0
 74
     0
 77
     1
 78
     8
140
3.5
147
1.0
172
     1
173
     1
174
     1
175
     1
176
     2
177
     2
271
     2
178
     7
271
     2
340
14F
  0
DIMSTYLE
105
17F
102
{ACAD_REACTORS
330
180
102
}
330
A
100
AcDbSymbolTableRecord
100
AcDbDimStyleTableRecord
  2
ME10_DIM_12
 70
     0
 41
3.5
 42
0.0
 44
1.0
 73
     0
 74
     0
 77
     1
 78
     8
140
3.5
147
1.0
172
     1
173
     1
174
     1
175
     1
176
     2
177
     2
271
     2
178
     7
271
     2
340
14F
  0
ENDTAB
  0
TABLE
  2
BLOCK_RECORD
  5
1
330
0
100
AcDbSymbolTable
 70
    11
  0
BLOCK_RECORD
  5
1F
330
1
100
AcDbSymbolTableRecord
100
AcDbBlockTableRecord
  2
*Model_Space
340
22
  0
BLOCK_RECORD
  5
1B
330
1
100
AcDbSymbolTableRecord
100
AcDbBlockTableRecord
  2
*Paper_Space
340
1E
  0
BLOCK_RECORD
  5
23
330
1
100
AcDbSymbolTableRecord
100
AcDbBlockTableRecord
  2
*Paper_Space0
340
26
  0
BLOCK_RECORD
  5
48
330
1
100
AcDbSymbolTableRecord
100
AcDbBlockTableRecord
  2
開示A4
340
0
102
{BLKREFS
331
4C
102
}
  0
BLOCK_RECORD
  5
4B
330
1
100
AcDbSymbolTableRecord
100
AcDbBlockTableRecord
  2
開示A4枠
340
0
102
{BLKREFS
331
5F
102
}
  0
BLOCK_RECORD
  5
4F
330
1
100
AcDbSymbolTableRecord
100
AcDbBlockTableRecord
  2
36-1A-13-M11
340
0
102
{BLKREFS
331
60
102
}
  0
BLOCK_RECORD
  5
52
330
1
100
AcDbSymbolTableRecord
100
AcDbBlockTableRecord
  2
84-34
340
0
102
{BLKREFS
331
56
102
}
  0
BLOCK_RECORD
  5
55
330
1
100
AcDbSymbolTableRecord
100
AcDbBlockTableRecord
  2
84-34X-B-I
340
0
102
{BLKREFS
331
61
102
}
  0
BLOCK_RECORD
  5
59
330
1
100
AcDbSymbolTableRecord
100
AcDbBlockTableRecord
  2
81-9
340
0
102
{BLKREFS
331
62
102
}
  0
BLOCK_RECORD
  5
5C
330
1
100
AcDbSymbolTableRecord
100
AcDbBlockTableRecord
  2
37-1-13-M11
340
0
102
{BLKREFS
331
63
102
}
  0
BLOCK_RECORD
  5
160
330
1
100
AcDbSymbolTableRecord
100
AcDbBlockTableRecord
  2
*D8
340
0
  0
BLOCK_RECORD
  5
16B
330
1
100
AcDbSymbolTableRecord
100
AcDbBlockTableRecord
  2
*D9
340
0
  0
BLOCK_RECORD
  5
176
330
1
100
AcDbSymbolTableRecord
100
AcDbBlockTableRecord
  2
*D10
340
0
  0
ENDTAB
  0
ENDSEC
  0
SECTION
  2
BLOCKS
  0
BLOCK
  5
20
330
1F
100
AcDbEntity
  8
0
100
AcDbBlockBegin
  2
*Model_Space
 70
     0
 10
0.0
 20
0.0
 30
0.0
  3
*Model_Space
  1

  0
ENDBLK
  5
21
330
1F
100
AcDbEntity
  8
0
100
AcDbBlockEnd
  0
BLOCK
  5
1C
330
1B
100
AcDbEntity
 67
     1
  8
0
100
AcDbBlockBegin
  2
*Paper_Space
 70
     0
 10
0.0
 20
0.0
 30
0.0
  3
*Paper_Space
  1

  0
ENDBLK
  5
1D
330
1B
100
AcDbEntity
 67
     1
  8
0
100
AcDbBlockEnd
  0
BLOCK
  5
24
330
23
100
AcDbEntity
  8
0
100
AcDbBlockBegin
  2
*Paper_Space0
 70
     0
 10
0.0
 20
0.0
 30
0.0
  3
*Paper_Space0
  1

  0
ENDBLK
  5
25
330
23
100
AcDbEntity
  8
0
100
AcDbBlockEnd
  0
BLOCK
  5
49
330
48
100
AcDbEntity
  8
0
100
AcDbBlockBegin
  2
開示A4
 70
     0
 10
0.0
 20
0.0
 30
0.0
  3
開示A4
  1

  0
POINT
  5
64
330
48
100
AcDbEntity
  8
1
 62
     4
100
AcDbPoint
 10
33.99999999999999
 20
34.00000000000001
 30
0.0
  0
POINT
  5
65
330
48
100
AcDbEntity
  8
1
 62
     4
100
AcDbPoint
 10
56.99999999999997
 20
12.25
 30
0.0
  0
POINT
  5
66
330
48
100
AcDbEntity
  8
1
 62
     4
100
AcDbPoint
 10
56.99999999999997
 20
20.75000000000001
 30
0.0
  0
POINT
  5
67
330
48
100
AcDbEntity
  8
1
 62
     4
100
AcDbPoint
 10
56.99999999999997
 20
24.75000000000001
 30
0.0
  0
POINT
  5
68
330
48
100
AcDbEntity
  8
1
 62
     4
100
AcDbPoint
 10
56.99999999999997
 20
16.25
 30
0.0
  0
POINT
  5
69
330
48
100
AcDbEntity
  8
1
 62
     4
100
AcDbPoint
 10
157.5
 20
19.00000000000001
 30
0.0
  0
POINT
  5
6A
330
48
100
AcDbEntity
  8
1
 62
     4
100
AcDbPoint
 10
47.49999999999999
 20
282.0000000000003
 30
0.0
  0
POINT
  5
6B
330
48
100
AcDbEntity
  8
1
 62
     4
100
AcDbPoint
 10
56.99999999999997
 20
22.75000000000001
 30
0.0
  0
POINT
  5
6C
330
48
100
AcDbEntity
  8
1
 62
     4
100
AcDbPoint
 10
56.99999999999997
 20
14.25
 30
0.0
  0
POINT
  5
6D
330
48
100
AcDbEntity
  8
1
 62
     4
100
AcDbPoint
 10
157.5
 20
12.5
 30
0.0
  0
POINT
  5
6E
330
48
100
AcDbEntity
  8
1
 62
     4
100
AcDbPoint
 10
163.2500000000001
 20
12.5
 30
0.0
  0
POINT
  5
6F
330
48
100
AcDbEntity
  8
1
 62
     4
100
AcDbPoint
 10
151.75
 20
12.5
 30
0.0
  0
POINT
  5
70
330
48
100
AcDbEntity
  8
1
 62
     4
100
AcDbPoint
 10
134.75
 20
12.5
 30
0.0
  0
POINT
  5
71
330
48
100
AcDbEntity
  8
1
 62
     4
100
AcDbPoint
 10
146.25
 20
12.5
 30
0.0
  0
POINT
  5
72
330
48
100
AcDbEntity
  8
1
 62
     4
100
AcDbPoint
 10
140.5
 20
12.5
 30
0.0
  0
POINT
  5
73
330
48
100
AcDbEntity
  8
1
 62
     4
100
AcDbPoint
 10
140.5
 20
19.00000000000001
 30
0.0
  0
POINT
  5
74
330
48
100
AcDbEntity
  8
1
 62
     4
100
AcDbPoint
 10
117.75
 20
12.5
 30
0.0
  0
POINT
  5
75
330
48
100
AcDbEntity
  8
1
 62
     4
100
AcDbPoint
 10
129.25
 20
12.5
 30
0.0
  0
POINT
  5
76
330
48
100
AcDbEntity
  8
1
 62
     4
100
AcDbPoint
 10
123.5
 20
12.5
 30
0.0
  0
POINT
  5
77
330
48
100
AcDbEntity
  8
1
 62
     4
100
AcDbPoint
 10
123.5
 20
19.00000000000001
 30
0.0
  0
POINT
  5
78
330
48
100
AcDbEntity
  8
1
 62
     4
100
AcDbPoint
 10
100.75
 20
12.5
 30
0.0
  0
POINT
  5
79
330
48
100
AcDbEntity
  8
1
 62
     4
100
AcDbPoint
 10
112.25
 20
12.5
 30
0.0
  0
POINT
  5
7A
330
48
100
AcDbEntity
  8
1
 62
     4
100
AcDbPoint
 10
106.5
 20
12.5
 30
0.0
  0
POINT
  5
7B
330
48
100
AcDbEntity
  8
1
 62
     4
100
AcDbPoint
 10
106.5
 20
19.00000000000001
 30
0.0
  0
POINT
  5
7C
330
48
100
AcDbEntity
  8
1
 62
     4
100
AcDbPoint
 10
85.24999999999997
 20
17.0
 30
0.0
  0
POINT
  5
7D
330
48
100
AcDbEntity
  8
1
 62
     4
100
AcDbPoint
 10
93.74999999999997
 20
17.0
 30
0.0
  0
POINT
  5
7E
330
48
100
AcDbEntity
  8
1
 62
     4
100
AcDbPoint
 10
183.0000000000001
 20
15.00000000000001
 30
0.0
  0
LINE
  5
7F
330
48
100
AcDbEntity
  8
1
  6
Continuous
 62
     2
100
AcDbLine
 10
80.99999999999997
 20
27.00000000000001
 30
0.0
 11
80.99999999999997
 21
10.0
 31
0.0
  0
LINE
  5
80
330
48
100
AcDbEntity
  8
1
  6
DOT_CENTER
 62
     2
100
AcDbLine
 10
187.0000000000001
 20
26.50000000000001
 30
0.0
 11
187.0000000000001
 21
20.50000000000001
 31
0.0
  0
LINE
  5
81
330
48
100
AcDbEntity
  8
1
  6
DOT_CENTER
 62
     2
100
AcDbLine
 10
184.0000000000001
 20
23.50000000000001
 30
0.0
 11
197.0000000000001
 21
23.50000000000001
 31
0.0
  0
LINE
  5
82
330
48
100
AcDbEntity
  8
1
  6
Continuous
 62
     7
100
AcDbLine
 10
196.0000000000001
 20
21.50000000000001
 30
0.0
 11
191.0000000000001
 21
22.30000000000001
 31
0.0
  0
LINE
  5
83
330
48
100
AcDbEntity
  8
1
  6
Continuous
 62
     7
100
AcDbLine
 10
196.0000000000001
 20
25.50000000000001
 30
0.0
 11
196.0000000000001
 21
21.50000000000001
 31
0.0
  0
LINE
  5
84
330
48
100
AcDbEntity
  8
1
  6
Continuous
 62
     7
100
AcDbLine
 10
191.0000000000001
 20
24.70000000000002
 30
0.0
 11
196.0000000000001
 21
25.50000000000001
 31
0.0
  0
LINE
  5
85
330
48
100
AcDbEntity
  8
1
  6
Continuous
 62
     7
100
AcDbLine
 10
191.0000000000001
 20
24.70000000000002
 30
0.0
 11
191.0000000000001
 21
22.30000000000001
 31
0.0
  0
LINE
  5
86
330
48
100
AcDbEntity
  8
1
  6
Continuous
 62
     2
100
AcDbLine
 10
32.99999999999999
 20
27.0
 30
0.0
 11
32.99999999999999
 21
10.0
 31
0.0
  0
LINE
  5
87
330
48
100
AcDbEntity
  8
1
  6
Continuous
 62
     2
100
AcDbLine
 10
24.99999999999999
 20
18.50000000000001
 30
0.0
 11
80.99999999999997
 21
18.50000000000001
 31
0.0
  0
LINE
  5
88
330
48
100
AcDbEntity
  8
1
  6
Continuous
 62
     7
100
AcDbLine
 10
200.0000000000001
 20
287.0000000000003
 30
0.0
 11
105.0
 21
287.0000000000003
 31
0.0
  0
LINE
  5
89
330
48
100
AcDbEntity
  8
1
  6
Continuous
 62
     7
100
AcDbLine
 10
200.0000000000001
 20
10.0
 30
0.0
 11
200.0000000000001
 21
148.5
 31
0.0
  0
LINE
  5
8A
330
48
100
AcDbEntity
  8
1
  6
Continuous
 62
     7
100
AcDbLine
 10
24.99999999999999
 20
10.0
 30
0.0
 11
105.0
 21
10.0
 31
0.0
  0
LINE
  5
8B
330
48
100
AcDbEntity
  8
1
  6
PHANTOM
 62
     4
100
AcDbLine
 10
0.0
 20
297.0
 30
0.0
 11
0.0
 21
0.0
 31
0.0
  0
LINE
  5
8C
330
48
100
AcDbEntity
  8
1
  6
PHANTOM
 62
     4
100
AcDbLine
 10
210.0000000000001
 20
297.0
 30
0.0
 11
0.0
 21
297.0
 31
0.0
  0
LINE
  5
8D
330
48
100
AcDbEntity
  8
1
  6
PHANTOM
 62
     4
100
AcDbLine
 10
210.0000000000001
 20
0.0
 30
0.0
 11
210.0000000000001
 21
297.0
 31
0.0
  0
LINE
  5
8E
330
48
100
AcDbEntity
  8
1
  6
PHANTOM
 62
     4
100
AcDbLine
 10
0.0
 20
0.0
 30
0.0
 11
210.0000000000001
 21
0.0
 31
0.0
  0
LINE
  5
8F
330
48
100
AcDbEntity
  8
1
  6
Continuous
 62
     7
100
AcDbLine
 10
24.99999999999999
 20
40.99999999999999
 30
0.0
 11
200.0000000000001
 21
40.99999999999999
 31
0.0
  0
LINE
  5
90
330
48
100
AcDbEntity
  8
1
  6
Continuous
 62
     7
100
AcDbLine
 10
200.0000000000001
 20
27.00000000000001
 30
0.0
 11
24.99999999999999
 21
27.00000000000001
 31
0.0
  0
LINE
  5
91
330
48
100
AcDbEntity
  8
1
  6
Continuous
 62
     2
100
AcDbLine
 10
32.99999999999999
 20
41.00000000000001
 30
0.0
 11
32.99999999999999
 21
27.0
 31
0.0
  0
LINE
  5
92
330
48
100
AcDbEntity
  8
1
  6
Continuous
 62
     2
100
AcDbLine
 10
54.99999999999997
 20
287.0000000000003
 30
0.0
 11
54.99999999999997
 21
277.0000000000003
 31
0.0
  0
LINE
  5
93
330
48
100
AcDbEntity
  8
1
  6
Continuous
 62
     2
100
AcDbLine
 10
39.99999999999999
 20
287.0000000000003
 30
0.0
 11
39.99999999999999
 21
277.0000000000003
 31
0.0
  0
LINE
  5
94
330
48
100
AcDbEntity
  8
1
  6
Continuous
 62
     7
100
AcDbLine
 10
24.99999999999999
 20
10.0
 30
0.0
 11
24.99999999999999
 21
148.5
 31
0.0
  0
LINE
  5
95
330
48
100
AcDbEntity
  8
1
  6
Continuous
 62
     2
100
AcDbLine
 10
54.99999999999997
 20
277.0000000000003
 30
0.0
 11
24.99999999999999
 21
277.0000000000003
 31
0.0
  0
LINE
  5
96
330
48
100
AcDbEntity
  8
1
  6
Continuous
 62
     2
100
AcDbLine
 10
166.0000000000001
 20
27.00000000000001
 30
0.0
 11
166.0000000000001
 21
10.0
 31
0.0
  0
LINE
  5
97
330
48
100
AcDbEntity
  8
1
  6
Continuous
 62
     2
100
AcDbLine
 10
132.0
 20
27.00000000000001
 30
0.0
 11
132.0
 21
10.0
 31
0.0
  0
LINE
  5
98
330
48
100
AcDbEntity
  8
1
  6
Continuous
 62
     2
100
AcDbLine
 10
149.0
 20
27.00000000000001
 30
0.0
 11
149.0
 21
10.0
 31
0.0
  0
LINE
  5
99
330
48
100
AcDbEntity
  8
1
  6
Continuous
 62
     2
100
AcDbLine
 10
115.0
 20
27.00000000000001
 30
0.0
 11
115.0
 21
10.0
 31
0.0
  0
LINE
  5
9A
330
48
100
AcDbEntity
  8
1
  6
Continuous
 62
     2
100
AcDbLine
 10
97.99999999999997
 20
27.00000000000001
 30
0.0
 11
97.99999999999997
 21
10.0
 31
0.0
  0
LINE
  5
9B
330
48
100
AcDbEntity
  8
1
  6
Continuous
 62
     2
100
AcDbLine
 10
166.0000000000001
 20
20.00000000000001
 30
0.0
 11
200.0000000000001
 21
20.00000000000001
 31
0.0
  0
LINE
  5
9C
330
48
100
AcDbEntity
  8
1
  6
Continuous
 62
     2
100
AcDbLine
 10
105.0
 20
287.0000000000003
 30
0.0
 11
105.0
 21
292.0000000000003
 31
0.0
  0
LINE
  5
9D
330
48
100
AcDbEntity
  8
1
  6
Continuous
 62
     7
100
AcDbLine
 10
105.0
 20
287.0000000000003
 30
0.0
 11
24.99999999999999
 21
287.0000000000003
 31
0.0
  0
LINE
  5
9E
330
48
100
AcDbEntity
  8
1
  6
Continuous
 62
     2
100
AcDbLine
 10
24.99999999999999
 20
148.5
 30
0.0
 11
20.0
 21
148.5
 31
0.0
  0
LINE
  5
9F
330
48
100
AcDbEntity
  8
1
  6
Continuous
 62
     7
100
AcDbLine
 10
24.99999999999999
 20
148.5
 30
0.0
 11
24.99999999999999
 21
287.0000000000003
 31
0.0
  0
LINE
  5
A0
330
48
100
AcDbEntity
  8
1
  6
Continuous
 62
     2
100
AcDbLine
 10
200.0000000000001
 20
148.5
 30
0.0
 11
205.0000000000001
 21
148.5
 31
0.0
  0
LINE
  5
A1
330
48
100
AcDbEntity
  8
1
  6
Continuous
 62
     7
100
AcDbLine
 10
200.0000000000001
 20
148.5
 30
0.0
 11
200.0000000000001
 21
287.0000000000003
 31
0.0
  0
LINE
  5
A2
330
48
100
AcDbEntity
  8
1
  6
Continuous
 62
     2
100
AcDbLine
 10
105.0
 20
10.0
 30
0.0
 11
105.0
 21
5.0
 31
0.0
  0
LINE
  5
A3
330
48
100
AcDbEntity
  8
1
  6
Continuous
 62
     7
100
AcDbLine
 10
105.0
 20
10.0
 30
0.0
 11
200.0000000000001
 21
10.0
 31
0.0
  0
CIRCLE
  5
A8
330
48
100
AcDbEntity
  8
1
  6
DOT_CENTER
 62
     7
100
AcDbCircle
 10
89.49999999999997
 20
18.0
 30
0.0
 40
0.1000000000000227
  0
CIRCLE
  5
A9
330
48
100
AcDbEntity
  8
1
  6
DOT_CENTER
 62
     7
100
AcDbCircle
 10
89.49999999999997
 20
16.0
 30
0.0
 40
0.1000000000000227
  0
CIRCLE
  5
AA
330
48
100
AcDbEntity
  8
1
  6
Continuous
 62
     7
100
AcDbCircle
 10
187.0000000000001
 20
23.50000000000001
 30
0.0
 40
2.0
  0
CIRCLE
  5
AB
330
48
100
AcDbEntity
  8
1
  6
Continuous
 62
     7
100
AcDbCircle
 10
187.0000000000001
 20
23.50000000000001
 30
0.0
 40
1.199999999999989
  0
CIRCLE
  5
AC
330
48
100
AcDbEntity
  8
1
  6
Continuous
 62
     7
100
AcDbCircle
 10
154.5
 20
12.5
 30
0.0
 40
0.3000000000000114
  0
CIRCLE
  5
AD
330
48
100
AcDbEntity
  8
1
  6
Continuous
 62
     7
100
AcDbCircle
 10
160.5000000000001
 20
12.5
 30
0.0
 40
0.2999999999998977
  0
CIRCLE
  5
AE
330
48
100
AcDbEntity
  8
1
  6
Continuous
 62
     7
100
AcDbCircle
 10
143.5
 20
12.5
 30
0.0
 40
0.3000000000000114
  0
CIRCLE
  5
AF
330
48
100
AcDbEntity
  8
1
  6
Continuous
 62
     7
100
AcDbCircle
 10
137.5
 20
12.5
 30
0.0
 40
0.3000000000000114
  0
CIRCLE
  5
B0
330
48
100
AcDbEntity
  8
1
  6
Continuous
 62
     7
100
AcDbCircle
 10
126.5
 20
12.5
 30
0.0
 40
0.2999999999999972
  0
CIRCLE
  5
B1
330
48
100
AcDbEntity
  8
1
  6
Continuous
 62
     7
100
AcDbCircle
 10
120.5
 20
12.5
 30
0.0
 40
0.2999999999999972
  0
CIRCLE
  5
B2
330
48
100
AcDbEntity
  8
1
  6
Continuous
 62
     7
100
AcDbCircle
 10
109.5
 20
12.5
 30
0.0
 40
0.2999999999999972
  0
CIRCLE
  5
B3
330
48
100
AcDbEntity
  8
1
  6
Continuous
 62
     7
100
AcDbCircle
 10
103.5
 20
12.5
 30
0.0
 40
0.2999999999999972
  0
SPLINE
  5
B4
102
{ACAD_REACTORS
330
D2
102
}
330
48
100
AcDbEntity
  8
_U_30EC_U_30A4_U_30E4_U_30FC_1
  6
Continuous
 62
     2
100
AcDbSpline
210
0.0
220
0.0
230
1.0
 70
    11
 71
     3
 72
    99
 73
    95
 74
    93
 42
0.000000001
 43
0.0000000001
 44
0.00000001
 40
0.0
 40
0.0
 40
0.0
 40
0.0
 40
0.0796417172272071
 40
0.1621768542355865
 40
0.2486489160956803
 40
0.3404969668523761
 40
0.4381912511164334
 40
0.5434463660244069
 40
0.6518115192846389
 40
0.7530190937886776
 40
0.849219691972484
 40
0.9419290312998121
 40
1.034249663570018
 40
1.129078600620136
 40
1.226697027573181
 40
1.327220425421644
 40
1.470572134937963
 40
1.595489863371168
 40
1.719934125348322
 40
1.850576620127367
 40
1.989059629987255
 40
2.134139054226872
 40
2.280698007207162
 40
2.424529739039433
 40
2.565929576985754
 40
2.708239260773432
 40
2.861717887443564
 40
3.045168540347279
 40
3.183798301138512
 40
3.31481396145534
 40
3.442083470447182
 40
3.569912708372839
 40
3.702177512509287
 40
3.842307559659399
 40
3.992872223245803
 40
4.156750662218192
 40
4.31098186110747
 40
4.445859909322458
 40
4.572393936131506
 40
4.701656719781858
 40
4.768279086008321
 40
4.835960697898275
 40
4.912788918729201
 40
5.006285208481406
 40
5.026909478751483
 40
5.047533749021047
 40
5.101808031471085
 40
5.162325165538356
 40
5.226919745995722
 40
5.294231806596619
 40
5.364544852554743
 40
5.438319055467741
 40
5.517877651324155
 40
5.607647714861467
 40
5.700449642544314
 40
5.788251142364044
 40
5.872714706039655
 40
5.955167292575101
 40
6.037192395190266
 40
6.120669181468998
 40
6.206848616686235
 40
6.296680855416659
 40
6.442558392872483
 40
6.568190371608158
 40
6.692904567360319
 40
6.824220446557076
 40
6.963121850329338
 40
7.107843738851126
 40
7.253431663907183
 40
7.395187468036558
 40
7.533140753237681
 40
7.670550457175161
 40
7.816236511769175
 40
7.987691657359133
 40
8.142277421969156
 40
8.2936626154149
 40
8.442962460879203
 40
8.59159831618525
 40
8.743678992361726
 40
8.903725323699032
 40
9.076307008890408
 40
9.265578604680435
 40
9.459203795360667
 40
9.617619810273371
 40
9.753609671361778
 40
9.874873300004001
 40
9.954520184977694
 40
10.02416413719238
 40
10.09769764405439
 40
10.18909955924966
 40
10.20974586420127
 40
10.23039218263373
 40
10.30057101881262
 40
10.37632012987544
 40
10.37632012987544
 40
10.37632012987544
 40
10.37632012987544
 10
170.1465954835852
 20
14.13795663215994
 30
0.0
 10
170.163221785122
 20
14.11720608845312
 30
0.0
 10
170.1970784206578
 20
14.07495111711899
 30
0.0
 10
170.2599822541036
 20
14.02029811392076
 30
0.0
 10
170.3332500940393
 20
13.97299025121048
 30
0.0
 10
170.4175969238636
 20
13.93527231437934
 30
0.0
 10
170.513224061546
 20
13.91040619731952
 30
0.0
 10
170.6171853775346
 20
13.90309559345936
 30
0.0
 10
170.7224020220405
 20
13.91142322794055
 30
0.0
 10
170.8206626371334
 20
13.94149179651525
 30
0.0
 10
170.9058986427548
 20
13.98848822971879
 30
0.0
 10
170.9779220206103
 20
14.04952991250856
 30
0.0
 10
171.0350917709097
 20
14.12412969578584
 30
0.0
 10
171.076786874744
 20
14.21002464660176
 30
0.0
 10
171.1026952846292
 20
14.30485850432211
 30
0.0
 10
171.1118037332653
 20
14.41854979038367
 30
0.0
 10
171.0986864796487
 20
14.54332587770779
 30
0.0
 10
171.0325330334414
 20
14.66014719171893
 30
0.0
 10
170.9369370919569
 20
14.74512539577375
 30
0.0
 10
170.8249681022369
 20
14.81416684459161
 30
0.0
 10
170.6993659583269
 20
14.87204142045891
 30
0.0
 10
170.5656691620856
 20
14.9237372328434
 30
0.0
 10
170.4313122818831
 20
14.97899092397182
 30
0.0
 10
170.3051983986877
 20
15.04939770641649
 30
0.0
 10
170.1926579987536
 20
15.13785540731251
 30
0.0
 10
170.0969963064458
 20
15.24981067868475
 30
0.0
 10
170.0334157151826
 20
15.39949910101382
 30
0.0
 10
170.0200706505016
 20
15.55932794385143
 30
0.0
 10
170.0320510987449
 20
15.71048405306844
 30
0.0
 10
170.071229892884
 20
15.83809244591541
 30
0.0
 10
170.135498775091
 20
15.95080874030844
 30
0.0
 10
170.223820499974
 20
16.04648609268688
 30
0.0
 10
170.3338091207627
 20
16.1235421498575
 30
0.0
 10
170.4632284401266
 20
16.18151396936279
 30
0.0
 10
170.6111838967793
 20
16.21739177588822
 30
0.0
 10
170.7682069455487
 20
16.22746719050564
 30
0.0
 10
170.917494046643
 20
16.21863637762592
 30
0.0
 10
171.059625361417
 20
16.19074899340352
 30
0.0
 10
171.1595922609625
 20
16.1341331470114
 30
0.0
 10
171.3125074736184
 20
16.08674602105507
 30
0.0
 10
171.2455131717169
 20
16.00197553001182
 30
0.0
 10
171.2296479120268
 20
15.93438901873487
 30
0.0
 10
171.1978750531298
 20
15.86926092793189
 30
0.0
 10
171.215020220957
 20
15.76723453256954
 30
0.0
 10
171.1666427208232
 20
15.77493211681902
 30
0.0
 10
171.1315789440766
 20
15.76806771724808
 30
0.0
 10
171.1296697985719
 20
15.83263831158197
 30
0.0
 10
171.098569293199
 20
15.87825639621398
 30
0.0
 10
171.0664551628456
 20
15.93561036628453
 30
0.0
 10
171.0208038475168
 20
15.98540462692559
 30
0.0
 10
170.9658508218387
 20
16.02994813718994
 30
0.0
 10
170.9010841173009
 20
16.06763988836555
 30
0.0
 10
170.8232377310597
 20
16.0928337579135
 30
0.0
 10
170.7355160553352
 20
16.09931230998111
 30
0.0
 10
170.6452903277806
 20
16.09235709285607
 30
0.0
 10
170.5594594694065
 20
16.06909190460923
 30
0.0
 10
170.4828343638597
 20
16.03131644107547
 30
0.0
 10
170.4165265636202
 20
15.98051641089567
 30
0.0
 10
170.3622560536963
 20
15.91731143407215
 30
0.0
 10
170.3224925345459
 20
15.84276455710366
 30
0.0
 10
170.2976775510588
 20
15.75917313997763
 30
0.0
 10
170.2892124262869
 20
15.65192948382285
 30
0.0
 10
170.3019697987104
 20
15.52965457267561
 30
0.0
 10
170.3681548409273
 20
15.41149724291206
 30
0.0
 10
170.4640977399833
 20
15.32606325709533
 30
0.0
 10
170.5757914963183
 20
15.25583362306719
 30
0.0
 10
170.7010863668704
 20
15.19659162305305
 30
0.0
 10
170.8349823941448
 20
15.14616708086132
 30
0.0
 10
170.968993033315
 20
15.09322516984384
 30
0.0
 10
171.0950885316915
 20
15.02750170625171
 30
0.0
 10
171.2076216638417
 20
14.94480352537324
 30
0.0
 10
171.3031370284234
 20
14.83996006310075
 30
0.0
 10
171.3672706486963
 20
14.69937117251569
 30
0.0
 10
171.3811103725279
 20
14.54065409451592
 30
0.0
 10
171.367395471223
 20
14.38153155217877
 30
0.0
 10
171.3244739153986
 20
14.23483828819207
 30
0.0
 10
171.2545906329065
 20
14.10119796587144
 30
0.0
 10
171.1574592213829
 20
13.98532387699292
 30
0.0
 10
171.0347806023657
 20
13.8908998177009
 30
0.0
 10
170.8874408413168
 20
13.8217927065198
 30
0.0
 10
170.7177132497125
 20
13.77953210858854
 30
0.0
 10
170.5317404979597
 20
13.76781736230408
 30
0.0
 10
170.3528955926184
 20
13.77809486683435
 30
0.0
 10
170.1881733753744
 20
13.81966573769157
 30
0.0
 10
170.0834410841057
 20
13.88797642883942
 30
0.0
 10
169.9350960790366
 20
13.93675219032105
 30
0.0
 10
169.9980378194729
 20
14.02976591290843
 30
0.0
 10
170.0072274430061
 20
14.10296536248279
 30
0.0
 10
170.0303711301233
 20
14.16936294501346
 30
0.0
 10
170.0034588335317
 20
14.26974809527581
 30
0.0
 10
170.0521338956339
 20
14.2623403351738
 30
0.0
 10
170.0916530580697
 20
14.26894063620895
 30
0.0
 10
170.0996204944703
 20
14.19078703218934
 30
0.0
 10
170.1305436967924
 20
14.15600927375857
 30
0.0
 10
170.1465954835852
 20
14.13795663215994
 30
0.0
 11
170.1465954835852
 21
14.13795663215994
 31
0.0
 11
170.1982038075864
 21
14.07729869814736
 31
0.0
 11
170.2601105501336
 21
14.0227129516332
 31
0.0
 11
170.3327764009802
 21
13.97583980928383
 31
0.0
 11
170.4166468655843
 21
13.93839906276537
 31
0.0
 11
170.511221073241
 21
13.91390636311877
 31
0.0
 11
170.6161603327165
 21
13.90575829888472
 31
0.0
 11
170.7240739497552
 21
13.91564048638223
 31
0.0
 11
170.8208419941617
 21
13.94528704887482
 31
0.0
 11
170.9050776083319
 21
13.99175118948819
 31
0.0
 11
170.9756144207687
 21
14.05191413218151
 31
0.0
 11
171.031944210998
 21
14.12505819466321
 31
0.0
 11
171.0736690016003
 21
14.21021434047522
 31
0.0
 11
171.0994680808032
 21
14.30436190989612
 31
0.0
 11
171.1080824729446
 21
14.4045155209822
 31
0.0
 11
171.0878517703357
 21
14.54643250879398
 31
0.0
 11
171.0272522666731
 21
14.65566684036388
 31
0.0
 11
170.9364971286286
 21
14.74081306430095
 31
0.0
 11
170.826010188474
 21
14.81052746532517
 31
0.0
 11
170.7008523531254
 21
14.86979854169923
 31
0.0
 11
170.5662951950998
 21
14.9240425347412
 31
0.0
 11
170.4316884277007
 21
14.98201274306004
 31
0.0
 11
170.3065802017258
 21
15.05297399304233
 31
0.0
 11
170.196027609828
 21
15.14113315968695
 31
0.0
 11
170.1053381235266
 21
15.25080295132618
 31
0.0
 11
170.0447055469484
 21
15.39179720476315
 31
0.0
 11
170.0245079172554
 21
15.57413260402315
 31
0.0
 11
170.0374030471348
 21
15.71216131926642
 31
0.0
 11
170.0761016659391
 21
15.8373312845129
 31
0.0
 11
170.1393141731506
 21
15.94779262129084
 31
0.0
 11
170.2257499954545
 21
16.04196885390621
 31
0.0
 11
170.3336492808963
 21
16.11846540770651
 31
0.0
 11
170.4613526283328
 21
16.17615670109487
 31
0.0
 11
170.6075393259923
 21
16.21220066809973
 31
0.0
 11
170.770976856545
 21
16.22421385386062
 31
0.0
 11
170.924891843129
 21
16.21434269066864
 31
0.0
 11
171.0564887242607
 21
16.18477329831498
 31
0.0
 11
171.172563634494
 21
16.13439993895252
 31
0.0
 11
171.2800792741122
 21
16.06264163167877
 31
0.0
 11
171.2516994050445
 21
16.00236624106886
 31
0.0
 11
171.2284855254283
 21
15.93879017337648
 31
0.0
 11
171.2078381040801
 21
15.86478841992269
 31
0.0
 11
171.1871840681487
 21
15.77360197897328
 31
0.0
 11
171.1665597978415
 21
15.77360197897328
 31
0.0
 11
171.1459355275343
 21
15.77360197897328
 31
0.0
 11
171.1256706495791
 21
15.82395108486347
 31
0.0
 11
171.0994658759422
 21
15.87850045116929
 31
0.0
 11
171.0650468924451
 21
15.93316116296115
 31
0.0
 11
171.0203554612937
 21
15.98349593725412
 31
0.0
 11
170.9657333359511
 21
16.02777175321529
 31
0.0
 11
170.9016722004327
 21
16.06436142334502
 31
0.0
 11
170.825968296114
 21
16.08882545979727
 31
0.0
 11
170.7365722046449
 21
16.09701100667022
 31
0.0
 11
170.6440937174207
 21
16.08926973931102
 31
0.0
 11
170.5594072091645
 21
16.06609003445567
 31
0.0
 11
170.483702448884
 21
16.02863495634008
 31
0.0
 11
170.4183754766517
 21
15.97832774281102
 31
0.0
 11
170.3650487887664
 21
15.9160029337988
 31
0.0
 11
170.3254809233901
 21
15.84249947895607
 31
0.0
 11
170.3009523754711
 21
15.75988443557391
 31
0.0
 11
170.2927954104108
 21
15.67042329844352
 31
0.0
 11
170.3130095765618
 21
15.52595308146574
 31
0.0
 11
170.373625616682
 21
15.41591177072937
 31
0.0
 11
170.4643479320759
 21
15.33033670130632
 31
0.0
 11
170.5748676948814
 21
15.25941954854625
 31
0.0
 11
170.700008993772
 21
15.19914305550579
 31
0.0
 11
170.8345826882554
 21
15.14590447913021
 31
0.0
 11
170.9691729191968
 21
15.09039489581074
 31
0.0
 11
171.0942976816297
 21
15.0237728124941
 31
0.0
 11
171.2048009079771
 21
14.9411886371675
 31
0.0
 11
171.2955397598289
 21
14.83800003476273
 31
0.0
 11
171.3561557999489
 21
14.70552315979584
 31
0.0
 11
171.3763699660998
 21
14.53526378483839
 31
0.0
 11
171.3621839747998
 21
14.38133030397413
 31
0.0
 11
171.3196087009194
 21
14.23605531269098
 31
0.0
 11
171.2499752884265
 21
14.10398854189068
 31
0.0
 11
171.1544992078713
 21
13.99007218775248
 31
0.0
 11
171.0341060772624
 21
13.89715272597018
 31
0.0
 11
170.8896160201847
 21
13.82832357668181
 31
0.0
 11
170.7223519532714
 21
13.78581275203967
 31
0.0
 11
170.5336103348227
 21
13.77165864614041
 31
0.0
 11
170.3405031726388
 21
13.78581275203967
 31
0.0
 11
170.1878975900912
 21
13.82832357668181
 31
0.0
 11
170.0661897942203
 21
13.8889903301389
 31
0.0
 11
169.9660261826363
 21
13.95734322942738
 31
0.0
 11
169.9922320587039
 21
14.03255545163076
 31
0.0
 11
170.0090121537619
 21
14.10014767383612
 31
0.0
 11
170.0206196447853
 21
14.17275926235962
 31
0.0
 11
170.0313606254139
 21
14.2635278821286
 31
0.0
 11
170.0520069443315
 21
14.2635278821286
 31
0.0
 11
170.0726532632492
 21
14.2635278821286
 31
0.0
 11
170.104891639163
 21
14.20119204881085
 31
0.0
 11
170.1465954835852
 21
14.13795663215994
 31
0.0
  0
SPLINE
  5
B5
102
{ACAD_REACTORS
330
D3
102
}
330
48
100
AcDbEntity
  8
_U_30EC_U_30A4_U_30E4_U_30FC_1
  6
Continuous
 62
     2
100
AcDbSpline
210
0.0
220
0.0
230
1.0
 70
    11
 71
     3
 72
    57
 73
    53
 74
    51
 42
0.000000001
 43
0.0000000001
 44
0.00000001
 40
0.0
 40
0.0
 40
0.0
 40
0.0
 40
0.0471632082810078
 40
0.0914861054632998
 40
0.1357762519703233
 40
0.1826527001611528
 40
0.2295203288573153
 40
0.2737751972221606
 40
0.3181310461543633
 40
0.3652607198398506
 40
0.4571007286314515
 40
0.5671851029165085
 40
0.6894623283868475
 40
0.8181758272545852
 40
0.9510087229274263
 40
1.085852229674045
 40
1.218126164475313
 40
1.343545131142372
 40
1.454537202956874
 40
1.567187607530883
 40
1.680710966642473
 40
1.794226869736866
 40
1.900009184247609
 40
2.004085860447945
 40
2.108162674451833
 40
2.214000150155292
 40
2.496038577352155
 40
2.762350745479289
 40
2.997275353279401
 40
3.185110082137742
 40
3.246407890063968
 40
3.312607550212586
 40
3.378877742711573
 40
3.440140399651455
 40
4.100501696006484
 40
4.754913085563532
 40
5.41133169342393
 40
6.077890432568709
 40
6.110575292670988
 40
6.143260152775768
 40
6.367989363395161
 40
6.61052537495159
 40
6.86338913646732
 40
7.119380025547638
 40
7.376036605091112
 40
7.631164770966332
 40
7.876722425456443
 40
8.104953735855954
 40
8.312916685924293
 40
8.49773029494133
 40
8.65101898431386
 40
8.764738853624618
 40
8.764738853624618
 40
8.764738853624618
 40
8.764738853624618
 10
174.7922649500514
 20
13.81626739612928
 30
0.0
 10
174.7766616726932
 20
13.81826231079079
 30
0.0
 10
174.7463947960302
 20
13.82213201360299
 30
0.0
 10
174.7010994202252
 20
13.82341984967269
 30
0.0
 10
174.6559553129349
 20
13.82308683554051
 30
0.0
 10
174.60990171234
 20
13.82314658674225
 30
0.0
 10
174.5640496172096
 20
13.82325813650001
 30
0.0
 10
174.5183711648165
 20
13.82277833456591
 30
0.0
 10
174.4750811541608
 20
13.82461109618722
 30
0.0
 10
174.4039947951514
 20
13.80049556814659
 30
0.0
 10
174.4057477261441
 20
13.9218469397725
 30
0.0
 10
174.3586196370571
 20
14.00726239751237
 30
0.0
 10
174.3191478251761
 20
14.12486929345131
 30
0.0
 10
174.2706635532647
 20
14.24232752540443
 30
0.0
 10
174.2201017402521
 20
14.36405935761505
 30
0.0
 10
174.1718634610478
 20
14.49075967862469
 30
0.0
 10
174.1135232947595
 20
14.59933687784951
 30
0.0
 10
174.0980892667262
 20
14.75620657134413
 30
0.0
 10
173.9566586330635
 20
14.72373446548322
 30
0.0
 10
173.8508397414904
 20
14.73512888682181
 30
0.0
 10
173.7358569725222
 20
14.73392591514615
 30
0.0
 10
173.6253142252141
 20
14.73506945347408
 30
0.0
 10
173.5176583522783
 20
14.73418350037526
 30
0.0
 10
173.4121322529243
 20
14.7341660239052
 30
0.0
 10
173.3109192682013
 20
14.72714032472415
 30
0.0
 10
173.1266804827754
 20
14.75135859859864
 30
0.0
 10
173.1157393685411
 20
14.44741691121887
 30
0.0
 10
173.008769163475
 20
14.22353177253399
 30
0.0
 10
172.9098148604347
 20
14.03895314292495
 30
0.0
 10
172.9225090524008
 20
13.79530204804207
 30
0.0
 10
172.8050091716397
 20
13.82508046753197
 30
0.0
 10
172.7422055868311
 20
13.82258089509604
 30
0.0
 10
172.67858720934
 20
13.82344075102806
 30
0.0
 10
172.3946014194076
 20
13.78098039941948
 30
0.0
 10
173.0251638499381
 20
14.50081952444784
 30
0.0
 10
173.1087645289071
 20
15.01276539435731
 30
0.0
 10
173.492925278934
 20
15.53353743550043
 30
0.0
 10
173.4777208288563
 20
16.23519626253213
 30
0.0
 10
173.7239265722697
 20
16.22345633081256
 30
0.0
 10
173.8256346157561
 20
16.23225004452773
 30
0.0
 10
173.8249752035818
 20
15.98059650730344
 30
0.0
 10
173.9428317155829
 20
15.79818020733962
 30
0.0
 10
174.0315515260484
 20
15.55563740662863
 30
0.0
 10
174.1322292485261
 20
15.32340030530132
 30
0.0
 10
174.2311142712243
 20
15.0867464456691
 30
0.0
 10
174.329967699067
 20
14.85461739170096
 30
0.0
 10
174.4256166390926
 20
14.63122222788788
 30
0.0
 10
174.5159904573271
 20
14.42272549049316
 30
0.0
 10
174.5989944568188
 20
14.23308448529317
 30
0.0
 10
174.67260885828
 20
14.06663106068104
 30
0.0
 10
174.7342815895545
 20
13.92917699626095
 30
0.0
 10
174.7749458885604
 20
13.84999239430034
 30
0.0
 10
174.7922649500514
 20
13.81626739612928
 30
0.0
 11
174.7922649500514
 21
13.81626739612928
 31
0.0
 11
174.7453878317448
 21
13.82145433189186
 31
0.0
 11
174.7010975896125
 21
13.82315538223863
 31
0.0
 11
174.6568074431729
 21
13.82315538223863
 31
0.0
 11
174.6099309947159
 21
13.82315538223863
 31
0.0
 11
174.5630633657034
 21
13.82315538223863
 31
0.0
 11
174.5188084970408
 21
13.82315538223863
 31
0.0
 11
174.4744852776854
 21
13.82145433189186
 31
0.0
 11
174.4276419021444
 21
13.81626739612928
 31
0.0
 11
174.3992532136326
 21
13.90360966173245
 31
0.0
 11
174.3622721815899
 21
14.0072965627482
 31
0.0
 11
174.3188386236701
 21
14.12159987001127
 31
0.0
 11
174.2711055866937
 21
14.24113531268969
 31
0.0
 11
174.2208160133237
 21
14.36408057307566
 31
0.0
 11
174.1696467003933
 21
14.48883822929446
 31
0.0
 11
174.1197531801326
 21
14.61134141502772
 31
0.0
 11
174.0733119111842
 21
14.72784517367917
 31
0.0
 11
173.9623611907589
 21
14.73087465284506
 31
0.0
 11
173.8497309225089
 21
14.73300454867791
 31
0.0
 11
173.7362152069449
 21
14.7343219531914
 31
0.0
 11
173.62270004768
 21
14.73473315978852
 31
0.0
 11
173.5169185312816
 21
14.7343219531914
 31
0.0
 11
173.4128501919225
 21
14.73300454867791
 31
0.0
 11
173.3087951724045
 21
14.73087465284506
 31
0.0
 11
173.2030010615597
 21
14.72784517367917
 31
0.0
 11
173.0980914750139
 21
14.46604437513351
 31
0.0
 11
173.0034868690331
 21
14.21710232658461
 31
0.0
 11
172.9252231210299
 21
13.99559756969558
 31
0.0
 11
172.8693431224555
 21
13.81626739612928
 31
0.0
 11
172.8082651639442
 21
13.82145433189186
 31
0.0
 11
172.7420873618131
 21
13.82315538223863
 31
0.0
 11
172.6758390041282
 21
13.82145433189186
 31
0.0
 11
172.6147963233938
 21
13.81626739612928
 31
0.0
 11
172.889968495193
 21
14.41656508695143
 31
0.0
 11
173.158294573417
 21
15.01343642360776
 31
0.0
 11
173.4240277350405
 21
15.61366245644382
 31
0.0
 11
173.6914740737033
 21
16.22421385386062
 31
0.0
 11
173.7241589339806
 21
16.22421385386062
 31
0.0
 11
173.7568437942579
 21
16.22421385386062
 31
0.0
 11
173.8428300681057
 21
16.01658539037084
 31
0.0
 11
173.935728581361
 21
15.79254614563517
 31
0.0
 11
174.0328714521464
 21
15.55908663180469
 31
0.0
 11
174.1317936458032
 21
15.32298128464146
 31
0.0
 11
174.2315341249927
 21
15.08649780379784
 31
0.0
 11
174.3313071129354
 21
14.85168781253711
 31
0.0
 11
174.4280608257449
 21
14.6259949219685
 31
0.0
 11
174.5188084970408
 21
14.4165805209792
 31
0.0
 11
174.6022150834546
 21
14.22607611130461
 31
0.0
 11
174.6770293263378
 21
14.05708232662468
 31
0.0
 11
174.7410729186603
 21
13.91781337700668
 31
0.0
 11
174.7922649500514
 21
13.81626739612928
 31
0.0
  0
SPLINE
  5
B6
102
{ACAD_REACTORS
330
D3
102
}
330
48
100
AcDbEntity
  8
_U_30EC_U_30A4_U_30E4_U_30FC_1
  6
Continuous
 62
     2
100
AcDbSpline
210
0.0
220
0.0
230
1.0
 70
    11
 71
     3
 72
    25
 73
    21
 74
    19
 42
0.000000001
 43
0.0000000001
 44
0.00000001
 40
0.0
 40
0.0
 40
0.0
 40
0.0
 40
0.091147996906539
 40
0.1858117896204663
 40
0.2804128399734491
 40
0.371588919071451
 40
0.4679080494218993
 40
0.564268380922923
 40
0.6605683222645559
 40
0.7569653015811106
 40
0.856134817252359
 40
1.092615965104389
 40
1.374867658141983
 40
1.61134881201172
 40
1.710518328425368
 40
1.809403163726687
 40
2.045205463294189
 40
2.326646917622249
 40
2.562449217190711
 40
2.66133404383403
 40
2.66133404383403
 40
2.66133404383403
 40
2.66133404383403
 10
173.2683700567199
 20
14.88614538197292
 30
0.0
 10
173.2987525917923
 20
14.88598079714554
 30
0.0
 10
173.3606895889112
 20
14.88564528689922
 30
0.0
 10
173.4541356960329
 20
14.88269055452001
 30
0.0
 10
173.5475095236357
 20
14.8797775287715
 30
0.0
 10
173.6417760753476
 20
14.87894201643416
 30
0.0
 10
173.7354964790967
 20
14.87996644658047
 30
0.0
 10
173.8352040303205
 20
14.87916977470972
 30
0.0
 10
173.9188949546312
 20
14.8892141023522
 30
0.0
 10
174.0637996315046
 20
14.86234617674164
 30
0.0
 10
173.9396132444802
 20
15.0366553028005
 30
0.0
 10
173.8965867286282
 20
15.1965171100609
 30
0.0
 10
173.780892214221
 20
15.45518458550216
 30
0.0
 10
173.7017565431257
 20
15.59231052861857
 30
0.0
 10
173.6431576621816
 20
15.80937033134077
 30
0.0
 10
173.5864803939438
 20
15.59266134213428
 30
0.0
 10
173.5052809900478
 20
15.45327012438236
 30
0.0
 10
173.4063701281487
 20
15.20406969370194
 30
0.0
 10
173.325362509426
 20
15.01925830226074
 30
0.0
 10
173.2813683325838
 20
14.91650446856116
 30
0.0
 10
173.2683700567199
 20
14.88614538197292
 30
0.0
 11
173.2683700567199
 21
14.88614538197292
 31
0.0
 11
173.3595137737821
 21
14.8852612326676
 31
0.0
 11
173.4541428297581
 21
14.882696979196
 31
0.0
 11
173.5487082179706
 21
14.88009965280778
 31
0.0
 11
173.6398803250196
 21
14.8792485764191
 31
0.0
 11
173.7361985777706
 21
14.87965978301622
 31
0.0
 11
173.8325499034376
 21
14.88097718752971
 31
0.0
 11
173.9288262638287
 21
14.88310818579312
 31
0.0
 11
174.0251753846344
 21
14.88614538197292
 31
0.0
 11
173.9854633323142
 21
14.9770164219502
 31
0.0
 11
173.8907653613969
 21
15.19370890189602
 31
0.0
 11
173.7777387509471
 21
15.45234186183135
 31
0.0
 11
173.6830407800297
 21
15.66903434177717
 31
0.0
 11
173.6433287277095
 21
15.75990538175445
 31
0.0
 11
173.6043330259266
 21
15.66903434177717
 31
0.0
 11
173.5113432755212
 21
15.45234186183135
 31
0.0
 11
173.4003555089082
 21
15.19370890189602
 31
0.0
 11
173.3073657585028
 21
14.9770164219502
 31
0.0
 11
173.2683700567199
 21
14.88614538197292
 31
0.0
  0
SPLINE
  5
B7
102
{ACAD_REACTORS
330
D4
102
}
330
48
100
AcDbEntity
  8
_U_30EC_U_30A4_U_30E4_U_30FC_1
  6
Continuous
 62
     2
100
AcDbSpline
210
0.0
220
0.0
230
1.0
 70
    11
 71
     3
 72
    95
 73
    91
 74
    89
 42
0.000000001
 43
0.0000000001
 44
0.00000001
 40
0.0
 40
0.0
 40
0.0
 40
0.0
 40
0.6550406656912064
 40
1.308087289032009
 40
1.420803739835881
 40
1.566130759770867
 40
1.75706734188854
 40
2.006513545026529
 40
2.087328263121633
 40
2.185328872295709
 40
2.294612454748445
 40
2.408936380534894
 40
2.526802767798641
 40
2.646360524615689
 40
2.762535723971658
 40
2.87005734287023
 40
2.966883448431731
 40
3.050803243518378
 40
3.115818222436688
 40
3.156030057150313
 40
3.213914225080158
 40
3.27668902645053
 40
3.342960320981336
 40
3.404230667150641
 40
3.453822809493457
 40
3.532499827188517
 40
3.634775188507243
 40
3.754909333008243
 40
3.889736761660746
 40
4.035769602175302
 40
4.187256681197685
 40
4.338733685676034
 40
4.488478734676201
 40
4.634708317831663
 40
4.771493189921352
 40
4.892686571561297
 40
5.199775528944533
 40
5.460353566929714
 40
5.667603142345589
 40
5.814722905404565
 40
5.828990806219892
 40
5.85548833630456
 40
5.869756237118892
 40
6.189796507762871
 40
6.531890469873018
 40
6.883053637017012
 40
7.230512024911568
 40
7.566966656764628
 40
7.885203559707495
 40
8.172887439719275
 40
8.418011594062838
 40
8.44392672119076
 40
8.510760470613247
 40
8.602145393795757
 40
8.701714041647199
 40
8.793098965075428
 40
8.859932715058001
 40
8.885847842603651
 40
9.242301256612874
 40
9.58927545501683
 40
9.921808543164232
 40
10.23479624298473
 40
10.2996815088919
 40
10.35323493887772
 40
10.4015462535516
 40
10.46482922477833
 40
10.55973900668413
 40
10.69239545985625
 40
10.84920353475679
 40
11.01626328594787
 40
11.18672024367451
 40
11.35372582577218
 40
11.50257442292434
 40
11.61866495023299
 40
11.71329869152882
 40
11.82511050573914
 40
11.94464880845723
 40
12.06929242642514
 40
12.19707290435183
 40
12.32562632860536
 40
12.45034565331287
 40
12.56646595170335
 40
12.67099007414643
 40
12.7607762593679
 40
12.82703233506702
 40
12.87429132786001
 40
12.8983199032334
 40
12.92234847860028
 40
13.53984767410326
 40
14.18294284359366
 40
14.18294284359366
 40
14.18294284359366
 40
14.18294284359366
 10
177.3067935648022
 20
14.70898038201725
 30
0.0
 10
177.1752019758551
 20
14.82265058603232
 30
0.0
 10
176.9124193802728
 20
15.04964496316154
 30
0.0
 10
176.399739344102
 20
15.89214462956289
 30
0.0
 10
176.4106654595362
 20
15.5342337757702
 30
0.0
 10
176.4041226527993
 20
15.39267392272133
 30
0.0
 10
176.4028026631772
 20
15.19421305299281
 30
0.0
 10
176.4018117602538
 20
15.02150296045983
 30
0.0
 10
176.4024101751974
 20
14.8786537325758
 30
0.0
 10
176.4038994301882
 20
14.78265005413358
 30
0.0
 10
176.4055683588473
 20
14.67545503263141
 30
0.0
 10
176.4071934954617
 20
14.56164211517582
 30
0.0
 10
176.4092429501685
 20
14.44441572604589
 30
0.0
 10
176.4123165501927
 20
14.3265641123297
 30
0.0
 10
176.4156339697043
 20
14.21228087320621
 30
0.0
 10
176.4193605340279
 20
14.10521401867277
 30
0.0
 10
176.4217338161426
 20
14.01007408766922
 30
0.0
 10
176.4278718888356
 20
13.92558557205694
 30
0.0
 10
176.4239784495948
 20
13.86923087298143
 30
0.0
 10
176.4455230443077
 20
13.79825022472358
 30
0.0
 10
176.3680940058618
 20
13.82902677604483
 30
0.0
 10
176.3116353240192
 20
13.82011242517614
 30
0.0
 10
176.2540495896808
 20
13.82896218398276
 30
0.0
 10
176.1690163478472
 20
13.79738225225944
 30
0.0
 10
176.2009714146383
 20
13.8809515599219
 30
0.0
 10
176.199070528254
 20
13.94882608968309
 30
0.0
 10
176.21079600473
 20
14.05233256764419
 30
0.0
 10
176.2164241053001
 20
14.17002125616695
 30
0.0
 10
176.2237902178941
 20
14.30388609164423
 30
0.0
 10
176.232075970161
 20
14.44764152872632
 30
0.0
 10
176.2398851897426
 20
14.59714022843445
 30
0.0
 10
176.2457571222658
 20
14.74792549402078
 30
0.0
 10
176.2503667817969
 20
14.89699943878437
 30
0.0
 10
176.2542632117542
 20
15.04122913163022
 30
0.0
 10
176.2570715126564
 20
15.17583905213018
 30
0.0
 10
176.2576698755022
 20
15.36469614347355
 30
0.0
 10
176.2616023867151
 20
15.58975494313154
 30
0.0
 10
176.2442175378497
 20
15.86367091125707
 30
0.0
 10
176.2850417342583
 20
16.02787112098597
 30
0.0
 10
176.1995153256002
 20
16.22749661465096
 30
0.0
 10
176.2660558907689
 20
16.22385458403978
 30
0.0
 10
176.2838724273231
 20
16.22413447160854
 30
0.0
 10
176.4056801797504
 20
16.22632927398612
 30
0.0
 10
176.5080770335462
 20
15.94675118721517
 30
0.0
 10
176.7580021509357
 20
15.74563008536002
 30
0.0
 10
176.987003533111
 20
15.47792614987913
 30
0.0
 10
177.224515121311
 20
15.22646413862382
 30
0.0
 10
177.4486090740772
 20
14.98969974061355
 30
0.0
 10
177.675071628301
 20
14.73218692583083
 30
0.0
 10
177.8325687886515
 20
14.6164933505692
 30
0.0
 10
178.0472129612676
 20
14.27997152538793
 30
0.0
 10
178.0422645974619
 20
14.40464754091603
 30
0.0
 10
178.0433931602547
 20
14.46327691935737
 30
0.0
 10
178.0428877841517
 20
14.55043662371977
 30
0.0
 10
178.0430475158113
 20
14.64416143182872
 30
0.0
 10
178.043005489132
 20
14.73018971297035
 30
0.0
 10
178.0430202040373
 20
14.79153891945495
 30
0.0
 10
178.0429706255985
 20
14.94135231520993
 30
0.0
 10
178.0458811522811
 20
15.17989612510105
 30
0.0
 10
178.0259521041163
 20
15.54486509868701
 30
0.0
 10
178.0750433936248
 20
15.80799631993414
 30
0.0
 10
177.917795150918
 20
16.21928904947751
 30
0.0
 10
178.0762112872421
 20
16.16398282551749
 30
0.0
 10
178.1311680478629
 20
16.16199686500175
 30
0.0
 10
178.182788776674
 20
16.16264778248251
 30
0.0
 10
178.2713198965365
 20
16.20369527738245
 30
0.0
 10
178.2204898303168
 20
16.05696326622986
 30
0.0
 10
178.2313389930284
 20
15.95019971954434
 30
0.0
 10
178.2166036994847
 20
15.79085705414113
 30
0.0
 10
178.2099976446204
 20
15.62853061652875
 30
0.0
 10
178.2014961399916
 20
15.45992521892395
 30
0.0
 10
178.19432272022
 20
15.2981481470354
 30
0.0
 10
178.1889063215389
 20
15.15422331457933
 30
0.0
 10
178.1871713967649
 20
15.03437493466925
 30
0.0
 10
178.187544067232
 20
14.92686101590515
 30
0.0
 10
178.1873656126263
 20
14.81820024645586
 30
0.0
 10
178.187701086314
 20
14.69953570165531
 30
0.0
 10
178.1890040622184
 20
14.57555163512741
 30
0.0
 10
178.1908887351574
 20
14.44858294171105
 30
0.0
 10
178.1925004454852
 20
14.32153861551033
 30
0.0
 10
178.1941403137429
 20
14.19854884492177
 30
0.0
 10
178.1962570745751
 20
14.08300931383759
 30
0.0
 10
178.1963848422363
 20
13.98090903955837
 30
0.0
 10
178.2006514396554
 20
13.89009848838156
 30
0.0
 10
178.1908440085289
 20
13.83213621208786
 30
0.0
 10
178.2118474771689
 20
13.76517130132029
 30
0.0
 10
178.1725639739897
 20
13.77291153966688
 30
0.0
 10
177.9595307117743
 20
13.75755254145192
 30
0.0
 10
177.7636297943188
 20
14.31403058094468
 30
0.0
 10
177.4611197631545
 20
14.5755603534851
 30
0.0
 10
177.3067935648022
 20
14.70898038201725
 30
0.0
 11
177.3067935648022
 21
14.70898038201725
 31
0.0
 11
176.8595529338511
 21
15.18757635411977
 31
0.0
 11
176.4124049070643
 21
15.6635264928897
 31
0.0
 11
176.4089664262494
 21
15.55086249986232
 31
0.0
 11
176.4055610183501
 21
15.40557538184311
 31
0.0
 11
176.4029636920275
 21
15.21465645827968
 31
0.0
 11
176.4021126156603
 21
14.96521170139758
 31
0.0
 11
176.4025239230289
 21
14.8843980295428
 31
0.0
 11
176.4038420329817
 21
14.78640628477561
 31
0.0
 11
176.4055192267718
 21
14.67713557299739
 31
0.0
 11
176.4072367127518
 21
14.56282454872039
 31
0.0
 11
176.4094007838772
 21
14.44497802965266
 31
0.0
 11
176.4124049070643
 21
14.32545802100199
 31
0.0
 11
176.4158359733138
 21
14.20933349846156
 31
0.0
 11
176.4192928929998
 21
14.1018674655023
 31
0.0
 11
176.4227085253089
 21
14.00510162351264
 31
0.0
 11
176.4261896983793
 21
13.92125406276972
 31
0.0
 11
176.4296006184313
 21
13.8563286200776
 31
0.0
 11
176.4330776843148
 21
13.81626739612928
 31
0.0
 11
176.3754263821572
 21
13.82145433189186
 31
0.0
 11
176.312674631831
 21
13.82315538223863
 31
0.0
 11
176.2464251717157
 21
13.82145433189186
 31
0.0
 11
176.1853747739675
 21
13.81626739612928
 31
0.0
 11
176.1926772737813
 21
13.86531894125591
 31
0.0
 11
176.2008793569055
 21
13.94356725720856
 31
0.0
 11
176.2090098822349
 21
14.04551893253029
 31
0.0
 11
176.2163406441398
 21
14.16542920159752
 31
0.0
 11
176.2236358280422
 21
14.3000591234389
 31
0.0
 11
176.2318444255596
 21
14.44586107652745
 31
0.0
 11
176.2395504149465
 21
14.59715203135073
 31
0.0
 11
176.2455763002093
 21
14.74850913200734
 31
0.0
 11
176.2503046247416
 21
14.89817951391436
 31
0.0
 11
176.254192897212
 21
15.04435739582222
 31
0.0
 11
176.2567527408965
 21
15.18111831592696
 31
0.0
 11
176.2576324804574
 21
15.30230850686891
 31
0.0
 11
176.257192610677
 21
15.60939715262545
 31
0.0
 11
176.2559126888347
 21
15.86997204839365
 31
0.0
 11
176.2528658717893
 21
16.07719922716125
 31
0.0
 11
176.2473049112764
 21
16.22421385386062
 31
0.0
 11
176.261572812147
 21
16.22421385386062
 31
0.0
 11
176.2880703423353
 21
16.22421385386062
 31
0.0
 11
176.3023382432059
 21
16.22421385386062
 31
0.0
 11
176.5194743650277
 21
15.98910179662774
 31
0.0
 11
176.7512744123079
 21
15.73751281231563
 31
0.0
 11
176.9894816018839
 21
15.47949555543571
 31
0.0
 11
177.2260074557522
 21
15.22497079855489
 31
0.0
 11
177.4555698717706
 21
14.97899759549139
 31
0.0
 11
177.6731797360104
 21
14.74678934034108
 31
0.0
 11
177.8713724913708
 21
14.53826680567101
 31
0.0
 11
178.0430143099087
 21
14.36326697932589
 31
0.0
 11
178.0430143099087
 21
14.38918210687043
 31
0.0
 11
178.0430143099087
 21
14.45601585685371
 31
0.0
 11
178.0430143099087
 21
14.54740078030025
 31
0.0
 11
178.0430143099087
 21
14.64696942823453
 31
0.0
 11
178.0430143099087
 21
14.73835435168106
 31
0.0
 11
178.0430143099087
 21
14.80518810166435
 31
0.0
 11
178.0430143099087
 21
14.83110322920889
 31
0.0
 11
178.0417233637609
 21
15.18755430550868
 31
0.0
 11
178.0378461155959
 21
15.53450684014416
 31
0.0
 11
178.0296197790003
 21
15.86693815950552
 31
0.0
 11
178.0154535467228
 21
16.17960510387179
 31
0.0
 11
178.0790351249619
 21
16.16666367158334
 31
0.0
 11
178.1324170159611
 21
16.16238072887607
 31
0.0
 11
178.1805381084833
 21
16.16666367158334
 31
0.0
 11
178.2424836798197
 21
16.17960510387179
 31
0.0
 11
178.2351216487575
 21
16.08498128445101
 31
0.0
 11
178.2269790968818
 21
15.95257496503965
 31
0.0
 11
178.2183705364004
 21
15.79600336785657
 31
0.0
 11
178.2097547223215
 21
15.62916593734271
 31
0.0
 11
178.2016187850289
 21
15.4589032550936
 31
0.0
 11
178.1942501393836
 21
15.292060312427
 31
0.0
 11
178.1891406931522
 21
15.1432994357281
 31
0.0
 11
178.1874503478905
 21
15.02722121527101
 31
0.0
 11
178.1874503478905
 21
14.93258747397519
 31
0.0
 11
178.1874503478905
 21
14.82077565976708
 31
0.0
 11
178.1878461204497
 21
14.70123801222749
 31
0.0
 11
178.1890819450708
 21
14.5766005209392
 31
0.0
 11
178.1908392193317
 21
14.44883212687392
 31
0.0
 11
178.1925303477609
 21
14.32028982655879
 31
0.0
 11
178.1942876220215
 21
14.19558288214555
 31
0.0
 11
178.1959787504505
 21
14.07947489606349
 31
0.0
 11
178.1972884379172
 21
13.97495896727017
 31
0.0
 11
178.1976985420735
 21
13.88517371555652
 31
0.0
 11
178.1976985420735
 21
13.81891763918416
 31
0.0
 11
178.1976985420735
 21
13.77165864614041
 31
0.0
 11
178.1736699662976
 21
13.77165864614041
 31
0.0
 11
178.1496413905217
 21
13.77165864614041
 31
0.0
 11
177.7410729200423
 21
14.2346673526219
 31
0.0
 11
177.3067935648022
 21
14.70898038201725
 31
0.0
  0
SPLINE
  5
B8
102
{ACAD_REACTORS
330
D5
102
}
330
48
100
AcDbEntity
  8
_U_30EC_U_30A4_U_30E4_U_30FC_1
  6
Continuous
 62
     2
100
AcDbSpline
210
0.0
220
0.0
230
1.0
 70
    11
 71
     3
 72
   110
 73
   106
 74
   104
 42
0.000000001
 43
0.0000000001
 44
0.00000001
 40
0.0
 40
0.0
 40
0.0
 40
0.0
 40
0.2203406257277714
 40
0.4407808782838093
 40
0.595249449461507
 40
0.7488431659393073
 40
0.9023581831309626
 40
1.056801968670404
 40
1.210736449099962
 40
1.363041386539783
 40
1.515315729683126
 40
1.669377239148077
 40
1.721611652756564
 40
1.773199502942947
 40
1.82493379320999
 40
1.877110426487969
 40
1.982682281206732
 40
2.078781667087541
 40
2.172809640822262
 40
2.271937807378916
 40
2.378349933379309
 40
2.494131557736497
 40
2.626681683943603
 40
2.783145050795973
 40
2.890701232940827
 40
2.993130312454725
 40
3.099869730691701
 40
3.220237816691196
 40
3.352695482737491
 40
3.481732806389747
 40
3.593499473690275
 40
3.674323013331792
 40
3.81795171195277
 40
3.946167120793739
 40
4.06140505345351
 40
4.166480796003065
 40
4.26247877505916
 40
4.350736673551059
 40
4.433071991254002
 40
4.511216293814546
 40
4.564262454117863
 40
4.618474415571479
 40
4.670128488754075
 40
4.722296879126281
 40
4.81954094531415
 40
4.931194984128007
 40
5.049996040257649
 40
5.168643755415194
 40
5.283970811762406
 40
5.392260784910118
 40
5.486512254876221
 40
5.559178233949705
 40
5.591425852853383
 40
5.62621596963776
 40
5.667155838674302
 40
5.717449290214113
 40
5.738402360944727
 40
5.784499116553691
 40
5.830595872164663
 40
5.851548942897519
 40
5.873019280661634
 40
5.924217778408181
 40
5.985325662817562
 40
6.036524160567579
 40
6.057994498334109
 40
6.236847789607358
 40
6.381409928945533
 40
6.493190424178564
 40
6.574067534230373
 40
6.691018086205467
 40
6.81488155422047
 40
6.944307823240337
 40
7.071266716065962
 40
7.193488604461806
 40
7.309042773128119
 40
7.414007203170716
 40
7.5051404418865
 40
7.531150360599662
 40
7.559221645322245
 40
7.587202218920901
 40
7.612569159499123
 40
7.662550809480992
 40
7.702878875764123
 40
7.857328205230994
 40
8.010799568088554
 40
8.16525639965759
 40
8.322232698713957
 40
8.479564855016644
 40
8.635216230290848
 40
8.790882550925765
 40
8.948305154947331
 40
9.168271839033014
 40
9.387358980987292
 40
9.608047961033531
 40
9.832914234792725
 40
9.85833869496306
 40
9.925366817230067
 40
10.02013071422765
 40
10.12876249859004
 40
10.23739428295254
 40
10.33215817995196
 40
10.39918630222399
 40
10.42461076239788
 40
10.64992019336948
 40
10.87188524531193
 40
10.87188524531193
 40
10.87188524531193
 40
10.87188524531193
 10
179.9057788376618
 20
15.7392326039819
 30
0.0
 10
179.9092864933542
 20
15.80616462073804
 30
0.0
 10
179.9163033987663
 20
15.94005891915859
 30
0.0
 10
179.8198027599073
 20
16.2254855497147
 30
0.0
 10
180.0510134726109
 20
16.16284386190284
 30
0.0
 10
180.1919290057156
 20
16.17001554055991
 30
0.0
 10
180.3490417757588
 20
16.16235883078245
 30
0.0
 10
180.5025913427287
 20
16.16252752283039
 30
0.0
 10
180.6545104935082
 20
16.16182040535433
 30
0.0
 10
180.8142214813231
 20
16.1721015835164
 30
0.0
 10
180.9408972601117
 20
16.1549651108075
 30
0.0
 10
181.137082112208
 20
16.22727260107146
 30
0.0
 10
181.1034395279078
 20
16.12640699080116
 30
0.0
 10
181.1052011317184
 20
16.07619253947671
 30
0.0
 10
181.1027342073459
 20
16.02712335586466
 30
0.0
 10
181.1347076966011
 20
15.94063490846999
 30
0.0
 10
181.0010399903256
 20
15.98997438608338
 30
0.0
 10
180.9172208688057
 20
15.98430634314167
 30
0.0
 10
180.8173861139324
 20
15.99465516706299
 30
0.0
 10
180.7186576720146
 20
16.00086450411086
 30
0.0
 10
180.612153277111
 20
16.00697763816779
 30
0.0
 10
180.491051169806
 20
16.01588883484585
 30
0.0
 10
180.3703381502454
 20
16.00521605912384
 30
0.0
 10
180.1812553843437
 20
16.06468503080365
 30
0.0
 10
180.2129028505312
 20
15.9055832007754
 30
0.0
 10
180.1995563316833
 20
15.80839128339905
 30
0.0
 10
180.197495842645
 20
15.69634065110104
 30
0.0
 10
180.1958188044671
 20
15.57699685629352
 30
0.0
 10
180.1973336794233
 20
15.4503259215511
 30
0.0
 10
180.195658247867
 20
15.32301588016118
 30
0.0
 10
180.2058844271657
 20
15.22451566404463
 30
0.0
 10
180.1779006596583
 20
15.0838870262563
 30
0.0
 10
180.3508029999306
 20
15.13989551134094
 30
0.0
 10
180.4645020202771
 20
15.12719951478499
 30
0.0
 10
180.5840151672239
 20
15.13448377051254
 30
0.0
 10
180.6888491425071
 20
15.13878017056755
 30
0.0
 10
180.7843084898612
 20
15.14330568258976
 30
0.0
 10
180.8763823507033
 20
15.151492011462
 30
0.0
 10
180.9476551782439
 20
15.14643850638111
 30
0.0
 10
181.0544931705685
 20
15.18536425031672
 30
0.0
 10
181.0226603598036
 20
15.10517122005879
 30
0.0
 10
181.0266164503929
 20
15.05562936846034
 30
0.0
 10
181.0234502392013
 20
15.00557478039819
 30
0.0
 10
181.0550791490585
 20
14.92128847612022
 30
0.0
 10
180.9210133677692
 20
14.97425365495158
 30
0.0
 10
180.82923227932
 20
14.96540080890442
 30
0.0
 10
180.7079729189603
 20
14.97570049965155
 30
0.0
 10
180.5914113119771
 20
14.97748911767502
 30
0.0
 10
180.4783375745879
 20
14.97787017109695
 30
0.0
 10
180.3679246308471
 20
14.9841544947218
 30
0.0
 10
180.2898124067841
 20
14.97189133255365
 30
0.0
 10
180.1913625833644
 20
15.00453887616129
 30
0.0
 10
180.2012355173561
 20
14.94769748054207
 30
0.0
 10
180.1973923244403
 20
14.91392130557984
 30
0.0
 10
180.1966789884268
 20
14.87119604709412
 30
0.0
 10
180.1963369642974
 20
14.83401607262154
 30
0.0
 10
180.1963834255345
 20
14.79487237370771
 30
0.0
 10
180.1963649429927
 20
14.75716849497686
 30
0.0
 10
180.1963703431806
 20
14.71944955232403
 30
0.0
 10
180.1963697214201
 20
14.6899432474515
 30
0.0
 10
180.1963698151545
 20
14.65873577699302
 30
0.0
 10
180.1963704287921
 20
14.61414424908085
 30
0.0
 10
180.1963671499336
 20
14.55963956508851
 30
0.0
 10
180.1963759623481
 20
14.51505540201448
 30
0.0
 10
180.1963359653417
 20
14.4311780858574
 30
0.0
 10
180.1976024270255
 20
14.31737520677678
 30
0.0
 10
180.1950274117842
 20
14.16830395933709
 30
0.0
 10
180.2065009381719
 20
14.06597203813905
 30
0.0
 10
180.1823506222263
 20
13.93338903885833
 30
0.0
 10
180.3332993946477
 20
13.97895732272022
 30
0.0
 10
180.4428436671556
 20
13.96427012162349
 30
0.0
 10
180.573397047392
 20
13.96920435125064
 30
0.0
 10
180.6990312209514
 20
13.97257705323362
 30
0.0
 10
180.81887306256
 20
13.97711497498773
 30
0.0
 10
180.9391362611427
 20
13.99048536182004
 30
0.0
 10
181.0222761663516
 20
13.98068712782598
 30
0.0
 10
181.1456080421076
 20
14.0412621462332
 30
0.0
 10
181.1244269203956
 20
13.98532460134021
 30
0.0
 10
181.1235950270117
 20
13.95939249372348
 30
0.0
 10
181.1218963707559
 20
13.93197256190939
 30
0.0
 10
181.1217974888831
 20
13.89738195206386
 30
0.0
 10
181.1203659301329
 20
13.86050408220767
 30
0.0
 10
181.1532804192192
 20
13.76846841021807
 30
0.0
 10
180.9551306988108
 20
13.8413201597483
 30
0.0
 10
180.8300548294891
 20
13.81825726508607
 30
0.0
 10
180.6673071295156
 20
13.82454021985787
 30
0.0
 10
180.5129366450001
 20
13.82260943909927
 30
0.0
 10
180.3566670436944
 20
13.82393762599268
 30
0.0
 10
180.1970544465282
 20
13.82059872487863
 30
0.0
 10
180.0540326342237
 20
13.83265795728241
 30
0.0
 10
179.8197144881628
 20
13.76952001976919
 30
0.0
 10
179.9173810751196
 20
14.05620527466318
 30
0.0
 10
179.9006868780059
 20
14.24988308142661
 30
0.0
 10
179.9146296709685
 20
14.47848242880295
 30
0.0
 10
179.9142987846632
 20
14.63384593955049
 30
0.0
 10
179.9143078119263
 20
14.73966336444125
 30
0.0
 10
179.9143055876316
 20
14.80205784124214
 30
0.0
 10
179.9143065551888
 20
14.89220425248327
 30
0.0
 10
179.9143065473261
 20
14.99621167157438
 30
0.0
 10
179.9143053861102
 20
15.10022131375296
 30
0.0
 10
179.9143090971502
 20
15.19036243688768
 30
0.0
 10
179.9143011051051
 20
15.25276803097215
 30
0.0
 10
179.9143334275018
 20
15.35868835961119
 30
0.0
 10
179.9131440788319
 20
15.5162671654474
 30
0.0
 10
179.9082216489256
 20
15.66528219822066
 30
0.0
 10
179.9057788376618
 20
15.7392326039819
 30
0.0
 11
179.9057788376618
 21
15.7392326039819
 31
0.0
 11
179.8966918223741
 21
15.95938578101018
 31
0.0
 11
179.8868249573133
 21
16.17960510387179
 31
0.0
 11
180.04115751414
 21
16.17312391463728
 31
0.0
 11
180.1946500189046
 21
16.16754892331925
 31
0.0
 11
180.3481160653367
 21
16.16367167505631
 31
0.0
 11
180.5025544554939
 21
16.16238072887607
 31
0.0
 11
180.6564835227474
 21
16.16367167505631
 31
0.0
 11
180.80873910046
 21
16.16754892331925
 31
0.0
 11
180.9609113551074
 21
16.17312391463728
 31
0.0
 11
181.1148364762483
 21
16.17960510387179
 31
0.0
 11
181.1070811703123
 21
16.12794961777358
 31
0.0
 11
181.1044991623591
 21
16.07642642334204
 31
0.0
 11
181.1070811703123
 21
16.0247566056466
 31
0.0
 11
181.1148364762483
 21
15.97315954836785
 31
0.0
 11
181.0094874054411
 21
15.98001446156058
 31
0.0
 11
180.913637570006
 21
15.98693552058657
 31
0.0
 11
180.8198593171903
 21
15.99378381919599
 31
0.0
 11
180.7209679915881
 21
16.0006321178054
 31
0.0
 11
180.6147532199924
 21
16.00710999974824
 31
0.0
 11
180.4991060528038
 21
16.01268829835794
 31
0.0
 11
180.3666126447258
 21
16.01656554662088
 31
0.0
 11
180.2101546018424
 21
16.01785649280112
 31
0.0
 11
180.2062663293722
 21
15.91037061609187
 31
0.0
 11
180.20153800484
 21
15.80805072896465
 31
0.0
 11
180.1976607566749
 21
15.70138175329688
 31
0.0
 11
180.1963698105272
 21
15.58102059013251
 31
0.0
 11
180.1967799146836
 21
15.44856355891565
 31
0.0
 11
180.1980896021502
 21
15.31953288186455
 31
0.0
 11
180.1994074577049
 21
15.20777398432309
 31
0.0
 11
180.199819115366
 21
15.12695149302384
 31
0.0
 11
180.3434452935875
 21
15.1278025694125
 31
0.0
 11
180.4716343930758
 21
15.13039989580078
 31
0.0
 11
180.5868078221796
 21
15.13425509545254
 31
0.0
 11
180.691775631222
 21
15.13901649302076
 31
0.0
 11
180.7876346289422
 21
15.14418027774175
 31
0.0
 11
180.8757413374193
 21
15.14934406246267
 31
0.0
 11
180.9578881438497
 21
15.1549124391974
 31
0.0
 11
181.0357692335571
 21
15.16132086801524
 31
0.0
 11
181.0280180445186
 21
15.10884407115337
 31
0.0
 11
181.0254328449317
 21
15.05469378470858
 31
0.0
 11
181.0280180445186
 21
15.00310444444367
 31
0.0
 11
181.0357692335571
 21
14.95151510417882
 31
0.0
 11
180.9389813454014
 21
14.96092324653757
 31
0.0
 11
180.8275950722015
 21
14.96865128473013
 31
0.0
 11
180.7089261429373
 21
14.97425273438146
 31
0.0
 11
180.5903167449213
 21
14.97726788195011
 31
0.0
 11
180.4750025117521
 21
14.97898767361639
 31
0.0
 11
180.3667261950701
 21
14.98070746528258
 31
0.0
 11
180.2724839317709
 21
14.98202486979618
 31
0.0
 11
180.199819115366
 21
14.9824360763933
 31
0.0
 11
180.199407457705
 21
14.95019108508191
 31
0.0
 11
180.1980896021502
 21
14.91542593752118
 31
0.0
 11
180.1967799146836
 21
14.87450702260085
 31
0.0
 11
180.1963698105272
 21
14.82421524309952
 31
0.0
 11
180.1963698105272
 21
14.80326217235822
 31
0.0
 11
180.1963698105272
 21
14.75716541672737
 31
0.0
 11
180.1963698105272
 21
14.71106866109652
 31
0.0
 11
180.1963698105272
 21
14.69011559035522
 31
0.0
 11
180.1963698105272
 21
14.66864525258281
 31
0.0
 11
180.1963698105272
 21
14.61744675481784
 31
0.0
 11
180.1963698105272
 21
14.55633887038868
 31
0.0
 11
180.1963698105272
 21
14.50514037262371
 31
0.0
 11
180.1963698105272
 21
14.4836700348513
 31
0.0
 11
180.1967799146836
 21
14.30481721371548
 31
0.0
 11
180.1980896021502
 21
14.16026100715442
 31
0.0
 11
180.2002868589709
 21
14.04850210961289
 31
0.0
 11
180.2032586986985
 21
13.96767961831365
 31
0.0
 11
180.3202092517447
 21
13.96767961831365
 31
0.0
 11
180.4440727208747
 21
13.96767961831365
 31
0.0
 11
180.5734925526422
 21
13.9689705644939
 31
0.0
 11
180.7003922282244
 21
13.97284781275683
 31
0.0
 11
180.8224658067973
 21
13.97886708358865
 31
0.0
 11
180.9377587499464
 21
13.98663260442002
 31
0.0
 11
181.0421754573519
 21
13.99734161483403
 31
0.0
 11
181.1320599255449
 21
14.01237656274692
 31
0.0
 11
181.1264254031191
 21
13.98698427976715
 31
0.0
 11
181.1234433285423
 21
13.95907184053803
 31
0.0
 11
181.12213398812
 21
13.93112191867003
 31
0.0
 11
181.1217235369196
 21
13.90575829888472
 31
0.0
 11
181.1243087365065
 21
13.85584355063326
 31
0.0
 11
181.1320599255449
 21
13.81626739612928
 31
0.0
 11
180.9776977178344
 21
13.82145433189186
 31
0.0
 11
180.8242357818766
 21
13.82315538223863
 31
0.0
 11
180.6697789496483
 21
13.82315538223863
 31
0.0
 11
180.5128026496768
 21
13.82315538223863
 31
0.0
 11
180.3554704921536
 21
13.82315538223863
 31
0.0
 11
180.199819115366
 21
13.82315538223863
 31
0.0
 11
180.0441620874241
 21
13.82145433189186
 31
0.0
 11
179.8868249573133
 21
13.81626739612928
 31
0.0
 11
179.896691822374
 21
14.0360126738521
 31
0.0
 11
179.9057788376618
 21
14.25491128490852
 31
0.0
 11
179.91217215184
 21
14.47550763902003
 31
0.0
 11
179.9143063455009
 21
14.70036378479715
 31
0.0
 11
179.9143063455009
 21
14.72578824496874
 31
0.0
 11
179.9143063455009
 21
14.79281636723931
 31
0.0
 11
179.9143063455009
 21
14.88758026424253
 31
0.0
 11
179.9143063455009
 21
14.99621204861207
 31
0.0
 11
179.9143063455009
 21
15.10484383298162
 31
0.0
 11
179.9143063455009
 21
15.19960772998484
 31
0.0
 11
179.9143063455009
 21
15.2666358522554
 31
0.0
 11
179.9143063455009
 21
15.292060312427
 31
0.0
 11
179.91217215184
 21
15.51735963528735
 31
0.0
 11
179.9057788376618
 21
15.7392326039819
 31
0.0
  0
SPLINE
  5
B9
102
{ACAD_REACTORS
330
D6
102
}
330
48
100
AcDbEntity
  8
_U_30EC_U_30A4_U_30E4_U_30FC_1
  6
Continuous
 62
     2
100
AcDbSpline
210
0.0
220
0.0
230
1.0
 70
    11
 71
     3
 72
    47
 73
    43
 74
    41
 42
0.000000001
 43
0.0000000001
 44
0.00000001
 40
0.0
 40
0.0
 40
0.0
 40
0.0
 40
0.2207912809957225
 40
0.4459404186303044
 40
0.4902387190459258
 40
0.5327473892723051
 40
0.574226045122581
 40
0.615543263056082
 40
0.6568164066316308
 40
0.6982511618781515
 40
0.7407663929317456
 40
0.7851366743175235
 40
1.010288833836319
 40
1.231080507002173
 40
1.451765243652396
 40
1.676638205891687
 40
1.720461045359656
 40
1.830018144043519
 40
1.972442372353149
 40
2.114866600677516
 40
2.224423699395137
 40
2.268246538883378
 40
2.493628801207215
 40
2.715602830286618
 40
2.934211330706366
 40
3.149502369855355
 40
3.231387784850944
 40
3.318231873854036
 40
3.405143198198024
 40
3.48697030172046
 40
3.7022581724939
 40
3.920866283534122
 40
4.142839325931917
 40
4.368221903865384
 40
4.412044743359863
 40
4.521601842095877
 40
4.664026070452354
 40
4.80645029880906
 40
4.916007397546752
 40
4.959830237043074
 40
5.184703515847114
 40
5.405387250767482
 40
5.405387250767482
 40
5.405387250767482
 40
5.405387250767482
 10
182.6507427258645
 20
15.73406440953872
 30
0.0
 10
182.6568139420003
 20
15.79758482501211
 30
0.0
 10
182.6690762107243
 20
15.92587938689626
 30
0.0
 10
182.5604706879413
 20
16.20166220174078
 30
0.0
 10
182.6761985896604
 20
16.17188133432052
 30
0.0
 10
182.7171842509016
 20
16.16765556262822
 30
0.0
 10
182.7591205797518
 20
16.16310446389607
 30
0.0
 10
182.800419662571
 20
16.16201982929485
 30
0.0
 10
182.8417032115556
 20
16.16310338195227
 30
0.0
 10
182.8836148270648
 20
16.16766112711343
 30
0.0
 10
182.9245983549019
 20
16.17187430209729
 30
0.0
 10
183.0404922843489
 20
16.20177611317533
 30
0.0
 10
182.9295652727456
 20
15.92339806609889
 30
0.0
 10
182.9574856365267
 20
15.74283140824953
 30
0.0
 10
182.9404267346969
 20
15.50961042346472
 30
0.0
 10
182.9414637282102
 20
15.34906622543145
 30
0.0
 10
182.9414099399405
 20
15.22284817558722
 30
0.0
 10
182.941427737248
 20
15.12428963336241
 30
0.0
 10
182.941418858108
 20
14.99280702442963
 30
0.0
 10
182.9414263928034
 20
14.86132844968651
 30
0.0
 10
182.9414129405128
 20
14.76276222694091
 30
0.0
 10
182.9414531717492
 20
14.63639735624153
 30
0.0
 10
182.9406746403816
 20
14.4748206882287
 30
0.0
 10
182.9565958319267
 20
14.24361821892915
 30
0.0
 10
182.9333468885407
 20
14.05874351972002
 30
0.0
 10
183.0360183444366
 20
13.78935602770058
 30
0.0
 10
182.8820238362836
 20
13.82660112685818
 30
0.0
 10
182.8004129802832
 20
13.82137994680535
 30
0.0
 10
182.7188192292582
 20
13.82660620378351
 30
0.0
 10
182.5648513666843
 20
13.78937069885387
 30
0.0
 10
182.6674183421918
 20
14.05875129862879
 30
0.0
 10
182.6442045316088
 20
14.24361585325416
 30
0.0
 10
182.6600444655139
 20
14.47482218565638
 30
0.0
 10
182.6593296313426
 20
14.63639712308504
 30
0.0
 10
182.6593664569907
 20
14.76276231210521
 30
0.0
 10
182.659354900027
 20
14.86132756635982
 30
0.0
 10
182.6593575019214
 20
14.9928112741722
 30
0.0
 10
182.6593648531779
 20
15.124275480312
 30
0.0
 10
182.6593442541351
 20
15.22287786275325
 30
0.0
 10
182.6594082192028
 20
15.34896149354428
 30
0.0
 10
182.6581733947589
 20
15.51210091383771
 30
0.0
 10
182.6532040396745
 20
15.6605418377755
 30
0.0
 10
182.6507427258645
 20
15.73406440953872
 30
0.0
 11
182.6507427258645
 21
15.73406440953872
 31
0.0
 11
182.6417328200379
 21
15.95467178795577
 31
0.0
 11
182.6318769706146
 21
16.17960510387179
 31
0.0
 11
182.6756985840801
 21
16.17312391463728
 31
0.0
 11
182.7178400934216
 21
16.16754892331925
 31
0.0
 11
182.7591371409791
 21
16.16367167505631
 31
0.0
 11
182.8004341885365
 21
16.16238072887607
 31
0.0
 11
182.8416871388731
 21
16.16367167505631
 31
0.0
 11
182.8829400892098
 21
16.16754892331925
 31
0.0
 11
182.9250882131343
 21
16.17312391463728
 31
0.0
 11
182.9689825870145
 21
16.17960510387179
 31
0.0
 11
182.9590577693891
 21
15.95467178795577
 31
0.0
 11
182.950038420831
 21
15.73406440953872
 31
0.0
 11
182.9435638463435
 21
15.51347467001055
 31
0.0
 11
182.9414218238286
 21
15.28861190965007
 31
0.0
 11
182.9414218238286
 21
15.24478907015486
 31
0.0
 11
182.9414218238286
 21
15.13523197141682
 31
0.0
 11
182.9414218238286
 21
14.99280774305737
 31
0.0
 11
182.9414218238286
 21
14.85038351469793
 31
0.0
 11
182.9414218238286
 21
14.74082641595989
 31
0.0
 11
182.9414218238286
 21
14.69700357646468
 31
0.0
 11
182.9435638463435
 21
14.47163149318767
 31
0.0
 11
182.950038420831
 21
14.2497519099098
 31
0.0
 11
182.9590577693891
 21
14.0313295488533
 31
0.0
 11
182.9689825870145
 21
13.81626739612928
 31
0.0
 11
182.8872616168771
 21
13.82145433189186
 31
0.0
 11
182.8004341885365
 21
13.82315538223863
 31
0.0
 11
182.7135395119339
 21
13.82145433189186
 31
0.0
 11
182.6318769706146
 21
13.81626739612928
 31
0.0
 11
182.641732820038
 21
14.0313295488533
 31
0.0
 11
182.6507427258645
 21
14.2497519099098
 31
0.0
 11
182.6571833838798
 21
14.47163149318767
 31
0.0
 11
182.6593583588023
 21
14.69700357646468
 31
0.0
 11
182.6593583588023
 21
14.74082641595989
 31
0.0
 11
182.6593583588023
 21
14.85038351469793
 31
0.0
 11
182.6593583588023
 21
14.99280774305737
 31
0.0
 11
182.6593583588023
 21
15.13523197141682
 31
0.0
 11
182.6593583588023
 21
15.24478907015486
 31
0.0
 11
182.6593583588023
 21
15.28861190965007
 31
0.0
 11
182.6571833838798
 21
15.51347467001055
 31
0.0
 11
182.6507427258645
 21
15.73406440953872
 31
0.0
  0
SPLINE
  5
BA
102
{ACAD_REACTORS
330
D7
102
}
330
48
100
AcDbEntity
  8
_U_30EC_U_30A4_U_30E4_U_30FC_1
  6
Continuous
 62
     2
100
AcDbSpline
210
0.0
220
0.0
230
1.0
 70
    11
 71
     3
 72
   118
 73
   114
 74
   112
 42
0.000000001
 43
0.0000000001
 44
0.00000001
 40
0.0
 40
0.0
 40
0.0
 40
0.0
 40
0.105470816297377
 40
0.2466098270052285
 40
0.3965912874591623
 40
0.5285525069754188
 40
0.6156245055642688
 40
0.6431434105798001
 40
0.7036850037986874
 40
0.764226598450544
 40
0.7917455052355912
 40
0.9287404319990514
 40
1.106572819088131
 40
1.287544879681131
 40
1.317578308030648
 40
1.399928030857286
 40
1.522968204800061
 40
1.675072986590682
 40
1.844616533180759
 40
2.019973001638823
 40
2.189516548880136
 40
2.341621331585474
 40
2.46466150632061
 40
2.547011229647174
 40
2.577044658168138
 40
2.603797890893209
 40
2.662655002908896
 40
2.721512114949708
 40
2.748265347702887
 40
2.774215307344964
 40
2.845959313407294
 40
2.954338556588493
 40
3.09019422758567
 40
3.244367517100633
 40
3.407699615844394
 40
3.571031714539544
 40
3.72520500392022
 40
3.86106067472972
 40
3.969439917716413
 40
4.041183923629085
 40
4.067133883213078
 40
4.311886746012261
 40
4.547897258335623
 40
4.764747083044051
 40
4.952749679951823
 40
5.045772974195936
 40
5.137862019645084
 40
5.33054316979313
 40
5.553448265244119
 40
5.795083855888277
 40
6.043293412177342
 40
6.285761695541293
 40
6.313902908752777
 40
6.384255941793366
 40
6.475714884766926
 40
6.56717382775896
 40
6.637526860839738
 40
6.665668074074073
 40
6.692018920328049
 40
6.749990782071118
 40
6.807962643790487
 40
6.83431349001796
 40
6.856393084245239
 40
6.913335195649863
 40
6.991194817302498
 40
7.076026942283759
 40
7.153886563725221
 40
7.210828674844775
 40
7.23290826893111
 40
7.258199334923631
 40
7.324875781592279
 40
7.419142481924935
 40
7.527204308841874
 40
7.635266135230449
 40
7.729532834168431
 40
7.796209279292754
 40
7.8215003445947
 40
7.844652988850799
 40
7.899863140541577
 40
7.965759128053772
 40
8.020969279771114
 40
8.04412192404658
 40
8.069356610160728
 40
8.109134395441497
 40
8.13223810019121
 40
8.193147867786571
 40
8.279261678876747
 40
8.377977512673962
 40
8.476693347146746
 40
8.562807160411797
 40
8.623716930826584
 40
8.646820636853537
 40
8.67198879377435
 40
8.734909185828261
 40
8.816705695188976
 40
8.898502204815546
 40
8.961422597378007
 40
8.98659075455112
 40
9.012941600733274
 40
9.07091346238036
 40
9.128885324081855
 40
9.155236170325177
 40
9.18040432792922
 40
9.243324721948293
 40
9.325121234212085
 40
9.40691774663774
 40
9.469838141978196
 40
9.49500628827097
 40
9.517811184379111
 40
9.57219209048711
 40
9.637098333281342
 40
9.691479239515541
 40
9.71428412564358
 40
9.71428412564358
 40
9.71428412564358
 40
9.71428412564358
 10
185.2874469028653
 20
15.2688916318772
 30
0.0
 10
185.3090990569037
 20
15.24111869242812
 30
0.0
 10
185.3597257109474
 20
15.17618054561238
 30
0.0
 10
185.4349383202592
 20
15.06891060312898
 30
0.0
 10
185.5248482274346
 20
14.95377438266627
 30
0.0
 10
185.5709169676673
 20
14.85357045748316
 30
0.0
 10
185.6655825294656
 20
14.78434006814945
 30
0.0
 10
185.6204439320413
 20
14.73771639678274
 30
0.0
 10
185.594704778579
 20
14.6966030886604
 30
0.0
 10
185.5645196708012
 20
14.6606597172794
 30
0.0
 10
185.5193684730561
 20
14.58579782596096
 30
0.0
 10
185.4710504458563
 20
14.80782524253608
 30
0.0
 10
185.3968539713073
 20
14.84510677337707
 30
0.0
 10
185.2836047324606
 20
15.11610202130599
 30
0.0
 10
185.288513357817
 20
15.00095328446229
 30
0.0
 10
185.2868486556306
 20
14.92836675781627
 30
0.0
 10
185.2876830076714
 20
14.80625588483986
 30
0.0
 10
185.2873609540264
 20
14.6591380081046
 30
0.0
 10
185.2875076912456
 20
14.49307063956557
 30
0.0
 10
185.2872950092722
 20
14.32187554608602
 30
0.0
 10
185.2879497252034
 20
14.15552828635498
 30
0.0
 10
185.2859192461139
 20
14.00935173055693
 30
0.0
 10
185.291346039993
 20
13.8847104747461
 30
0.0
 10
185.2804930868708
 20
13.81718656540626
 30
0.0
 10
185.2956739155555
 20
13.75549061417022
 30
0.0
 10
185.2457895108133
 20
13.76727503897002
 30
0.0
 10
185.2017150342522
 20
13.75943822779969
 30
0.0
 10
185.15823716302
 20
13.76760441372703
 30
0.0
 10
185.1092346786489
 20
13.75538056738468
 30
0.0
 10
185.1218731234824
 20
13.80960667249313
 30
0.0
 10
185.113018296845
 20
13.86936918907557
 30
0.0
 10
185.1175058770314
 20
13.97922029044371
 30
0.0
 10
185.1157960135991
 20
14.11029975405679
 30
0.0
 10
185.1163550915986
 20
14.26198011444328
 30
0.0
 10
185.1161928768694
 20
14.42211074929953
 30
0.0
 10
185.1162269924675
 20
14.58236865674566
 30
0.0
 10
185.1162514960127
 20
14.73370247520439
 30
0.0
 10
185.1161453543225
 20
14.86582156338601
 30
0.0
 10
185.1164299141931
 20
14.97294802533193
 30
0.0
 10
185.1158675547568
 20
15.03808619579474
 30
0.0
 10
185.1180765083688
 20
15.16618957858675
 30
0.0
 10
185.0319435998603
 20
14.79097610391576
 30
0.0
 10
184.9555140818499
 20
14.63918193123396
 30
0.0
 10
184.8660040767833
 20
14.47766206446308
 30
0.0
 10
184.7640413217327
 20
14.20471848820172
 30
0.0
 10
184.7187976491039
 20
14.36717346596516
 30
0.0
 10
184.610235594167
 20
14.45605432058115
 30
0.0
 10
184.7995791751753
 20
14.60549794961412
 30
0.0
 10
184.85653405457
 20
14.79749136974925
 30
0.0
 10
184.9717520993352
 20
15.02899622906757
 30
0.0
 10
184.9940151630132
 20
15.21797259759063
 30
0.0
 10
185.177190515214
 20
15.49454089325931
 30
0.0
 10
185.0538033597552
 20
15.48698978832095
 30
0.0
 10
184.9925684166834
 20
15.48856772366119
 30
0.0
 10
184.9081999617064
 20
15.48882592573673
 30
0.0
 10
184.8204235085967
 20
15.48544845751206
 30
0.0
 10
184.7656768696123
 20
15.49394814982021
 30
0.0
 10
184.7104703026025
 20
15.48048561049789
 30
0.0
 10
184.7222823035536
 20
15.52931442126765
 30
0.0
 10
184.7142496151795
 20
15.5726900489671
 30
0.0
 10
184.7228186104679
 20
15.61509438309574
 30
0.0
 10
184.7102943409158
 20
15.66267796552119
 30
0.0
 10
184.7555101538736
 20
15.6526721299511
 30
0.0
 10
184.8014815562724
 20
15.65894105174062
 30
0.0
 10
184.8777222047711
 20
15.65593561405873
 30
0.0
 10
184.9561296131994
 20
15.65770448278542
 30
0.0
 10
185.0323992648933
 20
15.65464793981661
 30
0.0
 10
185.0783009459474
 20
15.66103971376178
 30
0.0
 10
185.12317339654
 20
15.65093822978898
 30
0.0
 10
185.1105552275634
 20
15.70157201581899
 30
0.0
 10
185.1191936582707
 20
15.7550126188207
 30
0.0
 10
185.1152361595443
 20
15.84863255131681
 30
0.0
 10
185.1162325068335
 20
15.95112606688924
 30
0.0
 10
185.1171927413073
 20
16.05353270248163
 30
0.0
 10
185.1133211458005
 20
16.14735929609321
 30
0.0
 10
185.1217789814364
 20
16.20036542840353
 30
0.0
 10
185.1093075932835
 20
16.25211435651189
 30
0.0
 10
185.154210638985
 20
16.23850747226757
 30
0.0
 10
185.1955083836772
 20
16.24100480320585
 30
0.0
 10
185.2595344281051
 20
16.23648060574487
 30
0.0
 10
185.2986111148787
 20
16.2278100304331
 30
0.0
 10
185.3476543498743
 20
16.23515102070685
 30
0.0
 10
185.322508003059
 20
16.19602896051762
 30
0.0
 10
185.2815901333723
 20
16.20563842455808
 30
0.0
 10
185.2910109616604
 20
16.1554014816978
 30
0.0
 10
185.2855647318746
 20
16.10385945639491
 30
0.0
 10
185.2881699601804
 20
16.01959707584522
 30
0.0
 10
185.2870102202154
 20
15.92559135583409
 30
0.0
 10
185.2883591064231
 20
15.83196865395527
 30
0.0
 10
185.2849970101509
 20
15.74679517552224
 30
0.0
 10
185.2920959917769
 20
15.69716856072045
 30
0.0
 10
185.2812569154545
 20
15.6499369496999
 30
0.0
 10
185.3304010225245
 20
15.66201674936852
 30
0.0
 10
185.3794877630146
 20
15.65447393363012
 30
0.0
 10
185.4573714280641
 20
15.65686070361433
 30
0.0
 10
185.5350365172896
 20
15.65899381905416
 30
0.0
 10
185.5845393931355
 20
15.65193391922456
 30
0.0
 10
185.6344594750639
 20
15.66360151936215
 30
0.0
 10
185.6223198516881
 20
15.61540235371394
 30
0.0
 10
185.6305838229143
 20
15.57249219801236
 30
0.0
 10
185.6223198650783
 20
15.52958201851386
 30
0.0
 10
185.6344594549855
 20
15.48138288754865
 30
0.0
 10
185.5845395158746
 20
15.49305034471511
 30
0.0
 10
185.5350350651203
 20
15.48599202435046
 30
0.0
 10
185.4573784382972
 20
15.48811665228604
 30
0.0
 10
185.379464386576
 20
15.49053389365761
 30
0.0
 10
185.3304500352715
 20
15.48291848194486
 30
0.0
 10
185.2813246108943
 20
15.49507952557594
 30
0.0
 10
185.291555998857
 20
15.45073013424158
 30
0.0
 10
185.2856677678054
 20
15.40925436202913
 30
0.0
 10
185.2878788305569
 20
15.34915394315304
 30
0.0
 10
185.2874109346146
 20
15.3022578276289
 30
0.0
 10
185.2874386992913
 20
15.27650146418197
 30
0.0
 10
185.2874469028653
 20
15.2688916318772
 30
0.0
 11
185.2874469028653
 21
15.2688916318772
 31
0.0
 11
185.3516977534485
 21
15.18524999634257
 31
0.0
 11
185.43482588355
 21
15.07118889748221
 31
0.0
 11
185.5216831568896
 21
14.94891767195724
 31
0.0
 11
185.5971214371872
 21
14.84064565642877
 31
0.0
 11
185.6459925881627
 21
14.76858218755791
 31
0.0
 11
185.6296821285094
 21
14.746417821244
 31
0.0
 11
185.593799117272
 21
14.6976562153534
 31
0.0
 11
185.5579161060346
 21
14.64889460946281
 31
0.0
 11
185.5416056463813
 21
14.6267302431489
 31
0.0
 11
185.4763067109446
 21
14.74716139023813
 31
0.0
 11
185.3848434243234
 21
14.89966983670207
 31
0.0
 11
185.2874469028653
 21
15.05219788193142
 31
0.0
 11
185.2874469028653
 21
15.02216445328253
 31
0.0
 11
185.2874469028653
 21
14.93981472956783
 31
0.0
 11
185.2874469028653
 21
14.81677455413528
 31
0.0
 11
185.2874469028653
 21
14.66466977033283
 31
0.0
 11
185.2874469028653
 21
14.49512622150845
 31
0.0
 11
185.2874469028653
 21
14.31976975101009
 31
0.0
 11
185.2874469028653
 21
14.15022620218571
 31
0.0
 11
185.2874469028653
 21
13.99812141838326
 31
0.0
 11
185.2874469028653
 21
13.87508124295071
 31
0.0
 11
185.2874469028653
 21
13.79273151923601
 31
0.0
 11
185.2874469028653
 21
13.76269809058712
 31
0.0
 11
185.2606936700409
 21
13.76269809058712
 31
0.0
 11
185.2018365578272
 21
13.76269809058712
 31
0.0
 11
185.1429794456134
 21
13.76269809058712
 31
0.0
 11
185.116226212789
 21
13.76269809058712
 31
0.0
 11
185.116226212789
 21
13.7886480503125
 31
0.0
 11
185.116226212789
 21
13.86039205661208
 31
0.0
 11
185.116226212789
 21
13.96877130017102
 31
0.0
 11
185.116226212789
 21
14.10462697167447
 31
0.0
 11
185.116226212789
 21
14.25880026180761
 31
0.0
 11
185.116226212789
 21
14.42213236125558
 31
0.0
 11
185.116226212789
 21
14.58546446070356
 31
0.0
 11
185.116226212789
 21
14.7396377508367
 31
0.0
 11
185.116226212789
 21
14.87549342234015
 31
0.0
 11
185.116226212789
 21
14.98387266589909
 31
0.0
 11
185.116226212789
 21
15.05561667219867
 31
0.0
 11
185.116226212789
 21
15.08156663192405
 31
0.0
 11
185.0379865861721
 21
14.84965603302372
 31
0.0
 11
184.9497110789303
 21
14.63077616328679
 31
0.0
 11
184.8544106930046
 21
14.43598991333548
 31
0.0
 11
184.7550964303357
 21
14.27636017379203
 31
0.0
 11
184.7109198342407
 21
14.358224461966
 31
0.0
 11
184.658805738348
 21
14.43414885430812
 31
0.0
 11
184.7627302590299
 21
14.59640087926758
 31
0.0
 11
184.8629319864735
 21
14.79551465421781
 31
0.0
 11
184.9550446607901
 21
15.01890447916196
 31
0.0
 11
185.0347020220912
 21
15.2539846541032
 31
0.0
 11
185.097537810488
 21
15.48816947904466
 31
0.0
 11
185.0693965972142
 21
15.48816947904466
 31
0.0
 11
184.9990435640297
 21
15.48816947904466
 31
0.0
 11
184.9075846208898
 21
15.48816947904466
 31
0.0
 11
184.81612567775
 21
15.48816947904466
 31
0.0
 11
184.7457726445655
 21
15.48816947904466
 31
0.0
 11
184.7176314312917
 21
15.48816947904466
 31
0.0
 11
184.7176314312917
 21
15.51452032539224
 31
0.0
 11
184.7176314312917
 21
15.57249218735689
 31
0.0
 11
184.7176314312917
 21
15.63046404932156
 31
0.0
 11
184.7176314312917
 21
15.65681489566913
 31
0.0
 11
184.739711025602
 21
15.65681489566913
 31
0.0
 11
184.7966531372445
 21
15.65681489566913
 31
0.0
 11
184.8745127592863
 21
15.65681489566913
 31
0.0
 11
184.9593448847945
 21
15.65681489566913
 31
0.0
 11
185.0372045068362
 21
15.65681489566913
 31
0.0
 11
185.0941466184786
 21
15.65681489566913
 31
0.0
 11
185.116226212789
 21
15.65681489566913
 31
0.0
 11
185.116226212789
 21
15.68210596174354
 31
0.0
 11
185.116226212789
 21
15.74878240866698
 31
0.0
 11
185.116226212789
 21
15.84304910948977
 31
0.0
 11
185.116226212789
 21
15.95111093726225
 31
0.0
 11
185.116226212789
 21
16.05917276503472
 31
0.0
 11
185.116226212789
 21
16.15343946585751
 31
0.0
 11
185.116226212789
 21
16.22011591278095
 31
0.0
 11
185.116226212789
 21
16.24540697885536
 31
0.0
 11
185.1393181988666
 21
16.243732131078
 31
0.0
 11
185.1943837041285
 21
16.23973826330122
 31
0.0
 11
185.2601070491185
 21
16.23497138885796
 31
0.0
 11
185.3151725543804
 21
16.23097752108117
 31
0.0
 11
185.3382645404579
 21
16.22930267330381
 31
0.0
 11
185.3249012644362
 21
16.20789677921191
 31
0.0
 11
185.2874469028653
 21
16.1945011455347
 31
0.0
 11
185.2874469028653
 21
16.17139743948579
 31
0.0
 11
185.2874469028653
 21
16.11048766899321
 31
0.0
 11
185.2874469028653
 21
16.02437385553817
 31
0.0
 11
185.2874469028653
 21
15.92565802060192
 31
0.0
 11
185.2874469028653
 21
15.82694218566566
 31
0.0
 11
185.2874469028653
 21
15.74082837221063
 31
0.0
 11
185.2874469028653
 21
15.67991860171804
 31
0.0
 11
185.2874469028653
 21
15.65681489566913
 31
0.0
 11
185.3126150604809
 21
15.65681489566913
 31
0.0
 11
185.3755354545199
 21
15.65681489566913
 31
0.0
 11
185.4573319667706
 21
15.65681489566913
 31
0.0
 11
185.5391284790212
 21
15.65681489566913
 31
0.0
 11
185.6020488730602
 21
15.65681489566913
 31
0.0
 11
185.6272170306758
 21
15.65681489566913
 31
0.0
 11
185.6272170306758
 21
15.63046404932156
 31
0.0
 11
185.6272170306758
 21
15.57249218735689
 31
0.0
 11
185.6272170306758
 21
15.51452032539223
 31
0.0
 11
185.6272170306758
 21
15.48816947904466
 31
0.0
 11
185.6020488730602
 21
15.48816947904466
 31
0.0
 11
185.5391284790212
 21
15.48816947904466
 31
0.0
 11
185.4573319667705
 21
15.48816947904466
 31
0.0
 11
185.3755354545199
 21
15.48816947904466
 31
0.0
 11
185.3126150604809
 21
15.48816947904466
 31
0.0
 11
185.2874469028653
 21
15.48816947904466
 31
0.0
 11
185.2874469028653
 21
15.46536458293924
 31
0.0
 11
185.2874469028653
 21
15.41098367684171
 31
0.0
 11
185.2874469028653
 21
15.34607743408014
 31
0.0
 11
185.2874469028653
 21
15.29169652798262
 31
0.0
 11
185.2874469028653
 21
15.2688916318772
 31
0.0
  0
SPLINE
  5
BB
102
{ACAD_REACTORS
330
D8
102
}
330
48
100
AcDbEntity
  8
_U_30EC_U_30A4_U_30E4_U_30FC_1
  6
Continuous
 62
     2
100
AcDbSpline
210
0.0
220
0.0
230
1.0
 70
    11
 71
     3
 72
    91
 73
    87
 74
    85
 42
0.000000001
 43
0.0000000001
 44
0.00000001
 40
0.0
 40
0.0
 40
0.0
 40
0.0
 40
0.0345987051695434
 40
0.1258134969461369
 40
0.2547723404888987
 40
0.4026032099154409
 40
0.5504340793417273
 40
0.6793929228836932
 40
0.7706077146571888
 40
0.8052064287781777
 40
1.124852390615369
 40
1.42740223630897
 40
1.706356627453617
 40
1.955541417875294
 40
2.16948593856644
 40
2.344350786664895
 40
2.480568411562025
 40
2.59044055742902
 40
2.649189927151223
 40
2.749320643306439
 40
2.912632739880142
 40
3.147745656000341
 40
3.244827496385283
 40
3.338490056946825
 40
3.583815413207252
 40
3.761423943238606
 40
3.88695610436277
 40
3.985855451886907
 40
4.091766255337736
 40
4.250186473811929
 40
4.422734315084597
 40
4.628285684838693
 40
4.872093227758537
 40
5.152549652145648
 40
5.464967135837638
 40
5.80320147785255
 40
6.160362988814022
 40
6.193449448276105
 40
6.28417038550176
 40
6.419718138764601
 40
6.58728504638588
 40
6.774063446723765
 40
6.967245678113748
 40
7.154024078817763
 40
7.32159098702612
 40
7.457138740890478
 40
7.547859678556215
 40
7.580946138182775
 40
7.608533084714827
 40
7.669224367077803
 40
7.729915649430019
 40
7.75750259595007
 40
7.790278062553552
 40
7.880146277431022
 40
8.014419963180456
 40
8.180411842397985
 40
8.365434637679455
 40
8.556801071622727
 40
8.74182386683084
 40
8.907815745916407
 40
9.042089431507533
 40
9.131957646249658
 40
9.164733112797235
 40
9.415425063140159
 40
9.66798618095863
 40
9.69416980746277
 40
9.756607686047701
 40
9.831130315322508
 40
9.893568193899915
 40
9.919751820398732
 40
9.950967964690555
 40
9.996421631210666
 40
10.22087981037456
 40
10.44341866197544
 40
10.47847970788856
 40
10.57091337438757
 40
10.70159545461237
 40
10.85140174170365
 40
11.00120802880488
 40
11.13189010907393
 40
11.22432377583018
 40
11.25938480938967
 40
11.28697175596155
 40
11.3476630383593
 40
11.4083543204208
 40
11.43594125892114
 40
11.43594125892114
 40
11.43594125892114
 40
11.43594125892114
 10
190.081811433329
 20
15.55242795125078
 30
0.0
 10
190.0702785844941
 20
15.55242790287916
 30
0.0
 10
190.0283409445
 20
15.55242773704165
 30
0.0
 10
189.9434129719026
 20
15.5524312580091
 30
0.0
 10
189.8207688553129
 20
15.55240926435879
 30
0.0
 10
189.6791206916994
 20
15.55250801177055
 30
0.0
 10
189.537975369849
 20
15.55214686232421
 30
0.0
 10
189.4141351317904
 20
15.5532188360909
 30
0.0
 10
189.3317217825381
 20
15.55092249091269
 30
0.0
 10
189.1727791229694
 20
15.56048569373421
 30
0.0
 10
189.3503402353375
 20
15.19785394311371
 30
0.0
 10
189.3379739205453
 20
14.95243127723114
 30
0.0
 10
189.4064519473865
 20
14.66862501324836
 30
0.0
 10
189.469302432097
 20
14.43250999939035
 30
0.0
 10
189.5452253431729
 20
14.23326740396129
 30
0.0
 10
189.6303189577017
 20
14.07745347451375
 30
0.0
 10
189.7244607592936
 20
13.97657857781392
 30
0.0
 10
189.8282648207728
 20
13.92465852638966
 30
0.0
 10
189.9125872030774
 20
13.97606484379615
 30
0.0
 10
189.9351322179452
 20
14.09144544037517
 30
0.0
 10
189.9745730975371
 20
14.21885149702382
 30
0.0
 10
189.9202919734942
 20
14.53622328086756
 30
0.0
 10
190.0451218072473
 20
14.38982180140909
 30
0.0
 10
190.2019291513603
 20
14.35795300331167
 30
0.0
 10
190.0947720007057
 20
14.12421357767629
 30
0.0
 10
190.0808711209867
 20
13.95972776583656
 30
0.0
 10
190.0234709467225
 20
13.83130869122485
 30
0.0
 10
189.9335020145008
 20
13.76018802352826
 30
0.0
 10
189.8095274657878
 20
13.74432324142254
 30
0.0
 10
189.6634273196861
 20
13.77993797554173
 30
0.0
 10
189.5243894320284
 20
13.90000570500276
 30
0.0
 10
189.4102003962145
 20
14.07435682550321
 30
0.0
 10
189.3146141301486
 20
14.2994660311124
 30
0.0
 10
189.2318652572628
 20
14.56388246006444
 30
0.0
 10
189.1807179256411
 20
14.88187933098543
 30
0.0
 10
189.077018920734
 20
15.15543728488915
 30
0.0
 10
189.204284120852
 20
15.56005818612866
 30
0.0
 10
189.0357890623019
 20
15.5511236784968
 30
0.0
 10
188.9511995787077
 20
15.55315961418364
 30
0.0
 10
188.8189876387628
 20
15.55213937388407
 30
0.0
 10
188.6560505094104
 20
15.5525323031843
 30
0.0
 10
188.4733759170534
 20
15.55235696313369
 30
0.0
 10
188.2847057373383
 20
15.55260105307469
 30
0.0
 10
188.101446902019
 20
15.55185657906238
 30
0.0
 10
187.9404746832719
 20
15.55416360522426
 30
0.0
 10
187.8029808335276
 20
15.54799804883663
 30
0.0
 10
187.7289590372312
 20
15.56032838458213
 30
0.0
 10
187.6613215186857
 20
15.54329323723556
 30
0.0
 10
187.6732373719271
 20
15.59524438447529
 30
0.0
 10
187.6655677285694
 20
15.64071424966529
 30
0.0
 10
187.6732592225117
 20
15.68614453703706
 30
0.0
 10
187.6613141797762
 20
15.73802395984571
 30
0.0
 10
187.7283588305868
 20
15.72119143490264
 30
0.0
 10
187.8017375665677
 20
15.73335409092671
 30
0.0
 10
187.9379128305273
 20
15.72727231074958
 30
0.0
 10
188.0973811801513
 20
15.72954834315058
 30
0.0
 10
188.2789173085837
 20
15.72881233998961
 30
0.0
 10
188.465803486218
 20
15.72905954196134
 30
0.0
 10
188.6468012316836
 20
15.72886400799254
 30
0.0
 10
188.8080802578879
 20
15.72932234714839
 30
0.0
 10
188.9393882124888
 20
15.72812673751205
 30
0.0
 10
189.0225051322597
 20
15.73051347319743
 30
0.0
 10
189.1556236547816
 20
15.72230605725463
 30
0.0
 10
189.0645893502658
 20
15.97752868952655
 30
0.0
 10
188.978963307442
 20
16.24164358328247
 30
0.0
 10
189.0990589003456
 20
16.22904442969166
 30
0.0
 10
189.1514264948544
 20
16.22694235763076
 30
0.0
 10
189.2214497569715
 20
16.22535399889657
 30
0.0
 10
189.2671922337818
 20
16.21602567538113
 30
0.0
 10
189.3220812646933
 20
16.22545966915427
 30
0.0
 10
189.2963574785681
 20
16.17733028655174
 30
0.0
 10
189.1825397571452
 20
16.18266829744168
 30
0.0
 10
189.3159346621136
 20
15.95449174576777
 30
0.0
 10
189.1943658735471
 20
15.72156856595923
 30
0.0
 10
189.3223188769413
 20
15.73087258884439
 30
0.0
 10
189.4049048406461
 20
15.7280100175468
 30
0.0
 10
189.5307214850824
 20
15.72923437412302
 30
0.0
 10
189.6741469838059
 20
15.72932431888964
 30
0.0
 10
189.8157420951728
 20
15.72746163183853
 30
0.0
 10
189.9459127249969
 20
15.73333075937162
 30
0.0
 10
190.0193452286191
 20
15.72070340823204
 30
0.0
 10
190.0891112922097
 20
15.73877563110413
 30
0.0
 10
190.0775772605397
 20
15.68612850546326
 30
0.0
 10
190.0833184346682
 20
15.64221317686547
 30
0.0
 10
190.0816615770912
 20
15.5908998267655
 30
0.0
 10
190.081775756167
 20
15.56158792021635
 30
0.0
 10
190.081811433329
 20
15.55242795125078
 30
0.0
 11
190.081811433329
 21
15.55242795125078
 31
0.0
 11
190.0472127192052
 21
15.55242795125078
 31
0.0
 11
189.9559979274242
 21
15.55242795125078
 31
0.0
 11
189.8270390838718
 21
15.55242795125078
 31
0.0
 11
189.6792082144336
 21
15.55242795125078
 31
0.0
 11
189.5313773449955
 21
15.55242795125078
 31
0.0
 11
189.402418501443
 21
15.55242795125078
 31
0.0
 11
189.311203709662
 21
15.55242795125078
 31
0.0
 11
189.2766049955382
 21
15.55242795125078
 31
0.0
 11
189.3083140497693
 21
15.23435864930121
 31
0.0
 11
189.3527866656866
 21
14.93509522788081
 31
0.0
 11
189.409238911832
 21
14.66191269512576
 31
0.0
 11
189.4768868567479
 21
14.42208605917227
 31
0.0
 11
189.5549465689762
 21
14.22289032815655
 31
0.0
 11
189.6426341170592
 21
14.07160051021478
 31
0.0
 11
189.7391655695389
 21
13.97549161348317
 31
0.0
 11
189.8437569949575
 21
13.94183864609792
 31
0.0
 11
189.8943077302786
 21
13.97177376978835
 31
0.0
 11
189.9310588991552
 21
14.06491619815048
 31
0.0
 11
189.9562640977528
 21
14.22627151712055
 31
0.0
 11
189.9721769222368
 21
14.46084531263483
 31
0.0
 11
190.0494082682584
 21
14.40202182306618
 31
0.0
 11
190.1327184184385
 21
14.3592188543269
 31
0.0
 11
190.1066365811217
 21
14.1152838866101
 31
0.0
 11
190.0673317805105
 21
13.94207902887562
 31
0.0
 11
190.0105702596765
 21
13.83011272445917
 31
0.0
 11
189.9321182616911
 21
13.76989341669645
 31
0.0
 11
189.8277420296257
 21
13.75192954892317
 31
0.0
 11
189.6738595065098
 21
13.78957440012361
 31
0.0
 11
189.5388902376748
 21
13.89707348877403
 31
0.0
 11
189.4221739916163
 21
14.06627361744809
 31
0.0
 11
189.32305053683
 21
14.28902158871944
 31
0.0
 11
189.2408596418114
 21
14.55716420516173
 31
0.0
 11
189.1749410750559
 21
14.86254826934861
 31
0.0
 11
189.1246346050594
 21
15.19702058385374
 31
0.0
 11
189.0892800003172
 21
15.55242795125078
 31
0.0
 11
189.0561935405844
 21
15.55242795125078
 31
0.0
 11
188.9654726026075
 21
15.55242795125078
 31
0.0
 11
188.8299248482186
 21
15.55242795125078
 31
0.0
 11
188.6623579392495
 21
15.55242795125078
 31
0.0
 11
188.4755795375324
 21
15.55242795125078
 31
0.0
 11
188.2823973048993
 21
15.55242795125078
 31
0.0
 11
188.0956189031822
 21
15.55242795125078
 31
0.0
 11
187.9280519942132
 21
15.55242795125078
 31
0.0
 11
187.7925042398242
 21
15.55242795125078
 31
0.0
 11
187.7017833018473
 21
15.55242795125078
 31
0.0
 11
187.6686968421146
 21
15.55242795125078
 31
0.0
 11
187.6686968421146
 21
15.58001489785847
 31
0.0
 11
187.6686968421146
 21
15.64070618039538
 31
0.0
 11
187.6686968421146
 21
15.70139746293229
 31
0.0
 11
187.6686968421146
 21
15.72898440953998
 31
0.0
 11
187.7014723087632
 21
15.72898440953998
 31
0.0
 11
187.7913405237674
 21
15.72898440953998
 31
0.0
 11
187.9256142097149
 21
15.72898440953998
 31
0.0
 11
188.0916060891933
 21
15.72898440953998
 31
0.0
 11
188.2766288847902
 21
15.72898440953998
 31
0.0
 11
188.4679953190933
 21
15.72898440953998
 31
0.0
 11
188.6530181146902
 21
15.72898440953998
 31
0.0
 11
188.8190099941686
 21
15.72898440953998
 31
0.0
 11
188.9532836801161
 21
15.72898440953998
 31
0.0
 11
189.0431518951203
 21
15.72898440953998
 31
0.0
 11
189.0759273617689
 21
15.72898440953998
 31
0.0
 11
189.0659183950103
 21
15.97947647544958
 31
0.0
 11
189.0599112510664
 21
16.23196614552532
 31
0.0
 11
189.086057587066
 21
16.23056921608122
 31
0.0
 11
189.148406542142
 21
16.22723807663762
 31
0.0
 11
189.22282303691
 21
16.2232622005275
 31
0.0
 11
189.2851719919859
 21
16.21993106108388
 31
0.0
 11
189.3113183279855
 21
16.21853413163979
 31
0.0
 11
189.298293111304
 21
16.19016528616081
 31
0.0
 11
189.2551649266405
 21
16.17581274276165
 31
0.0
 11
189.2574991961821
 21
15.95136670115108
 31
0.0
 11
189.2658452735903
 21
15.72898440953998
 31
0.0
 11
189.3009063195165
 21
15.72898440953998
 31
0.0
 11
189.3933399860495
 21
15.72898440953998
 31
0.0
 11
189.5240220663201
 21
15.72898440953998
 31
0.0
 11
189.6738283534596
 21
15.72898440953998
 31
0.0
 11
189.8236346405992
 21
15.72898440953998
 31
0.0
 11
189.9543167208698
 21
15.72898440953998
 31
0.0
 11
190.0467503874027
 21
15.72898440953998
 31
0.0
 11
190.081811433329
 21
15.72898440953998
 31
0.0
 11
190.081811433329
 21
15.70139746293229
 31
0.0
 11
190.081811433329
 21
15.64070618039538
 31
0.0
 11
190.081811433329
 21
15.58001489785847
 31
0.0
 11
190.081811433329
 21
15.55242795125078
 31
0.0
  0
SPLINE
  5
BC
102
{ACAD_REACTORS
330
D9
102
}
330
48
100
AcDbEntity
  8
_U_30EC_U_30A4_U_30E4_U_30FC_1
  6
Continuous
 62
     2
100
AcDbSpline
210
0.0
220
0.0
230
1.0
 70
    11
 71
     3
 72
    75
 73
    71
 74
    69
 42
0.000000001
 43
0.0000000001
 44
0.00000001
 40
0.0
 40
0.0
 40
0.0
 40
0.0
 40
0.0342546099129691
 40
0.1245622414432346
 40
0.2522385480897518
 40
0.398599192294068
 40
0.5449598364980821
 40
0.6726361431438816
 40
0.762943774673696
 40
0.7971983935297973
 40
1.101723623449605
 40
1.40859124403658
 40
1.433332471690284
 40
1.487763172450079
 40
1.542193873081904
 40
1.566935100592452
 40
1.92352393182171
 40
2.271755704953538
 40
2.590579755100779
 40
2.858943305581064
 40
2.889120339309084
 40
2.918305855191036
 40
2.941366645531159
 40
2.996357760973053
 40
3.061992318140601
 40
3.116983433626802
 40
3.140044223997481
 40
3.411273122936401
 40
3.732441619741066
 40
3.761068217532764
 40
3.837787499630326
 40
3.948858699125966
 40
4.080541049104341
 40
4.219093782625724
 40
4.350776132722275
 40
4.46184733240561
 40
4.538566614678341
 40
4.567193212544589
 40
4.594907573998847
 40
4.666381453557386
 40
4.764111044010968
 40
4.870592538125771
 40
4.968322128642165
 40
5.039796008286879
 40
5.067510369784309
 40
5.094263603185522
 40
5.153120716668155
 40
5.211977830150597
 40
5.238731063551602
 40
5.272290535138869
 40
5.363380529444673
 40
5.497618415781379
 40
5.660621563453593
 40
5.838007341749294
 40
6.015393119910674
 40
6.178396267038271
 40
6.312634151842251
 40
6.40372414305924
 40
6.437283612672336
 40
6.464036846260952
 40
6.522893960004565
 40
6.581751071483825
 40
6.608504301590771
 40
6.637253941280918
 40
6.711397748902798
 40
6.812778057283382
 40
6.923237199249159
 40
7.024617507623774
 40
7.098761315207455
 40
7.127510946007406
 40
7.127510946007406
 40
7.127510946007406
 40
7.127510946007406
 10
188.4418622390565
 20
14.95849128473265
 30
0.0
 10
188.4418622819707
 20
14.9470731340872
 30
0.0
 10
188.441862448113
 20
14.9055525784263
 30
0.0
 10
188.4418593081787
 20
14.82146922003772
 30
0.0
 10
188.4418788279801
 20
14.70004497322329
 30
0.0
 10
188.4417912187738
 20
14.55980494047449
 30
0.0
 10
188.4421116235231
 20
14.42006556794577
 30
0.0
 10
188.4411605909741
 20
14.29745038894929
 30
0.0
 10
188.4431978595968
 20
14.21587074438044
 30
0.0
 10
188.4349433178746
 20
14.062712670777
 30
0.0
 10
188.7430797940901
 20
14.22560236054722
 30
0.0
 10
189.0350645173736
 20
14.39482938688003
 30
0.0
 10
189.0408354448707
 20
14.25973235781911
 30
0.0
 10
189.0455471719891
 20
14.21617221160445
 30
0.0
 10
189.0482535411918
 20
14.17211249350546
 30
0.0
 10
189.0672545672958
 20
14.02272590363135
 30
0.0
 10
188.6583942247303
 20
14.08681172241261
 30
0.0
 10
188.3793710348832
 20
13.97296341411017
 30
0.0
 10
188.1018081587167
 20
13.87364095811142
 30
0.0
 10
187.8099837184399
 20
13.91630687596356
 30
0.0
 10
187.7869144678658
 20
13.81321679744542
 30
0.0
 10
187.7537474383333
 20
13.78691091244469
 30
0.0
 10
187.7480653962739
 20
13.83455309036304
 30
0.0
 10
187.7284214559044
 20
13.8718033611507
 30
0.0
 10
187.7095089485623
 20
13.93007387847564
 30
0.0
 10
187.6942849867708
 20
13.97385201007806
 30
0.0
 10
187.6477246372935
 20
14.08759421046312
 30
0.0
 10
187.9890897312449
 20
14.05576301120047
 30
0.0
 10
188.2679649367389
 20
14.02161435106482
 30
0.0
 10
188.2617753034907
 20
14.16913976479653
 30
0.0
 10
188.2630935452773
 20
14.24013150908834
 30
0.0
 10
188.2624831689948
 20
14.34719767958663
 30
0.0
 10
188.2625871570725
 20
14.47398529785999
 30
0.0
 10
188.2629987964055
 20
14.60849243496051
 30
0.0
 10
188.2613907841968
 20
14.73395549951185
 30
0.0
 10
188.2659902567925
 20
14.84505246719118
 30
0.0
 10
188.256418650221
 20
14.9076188680069
 30
0.0
 10
188.2704001783691
 20
14.96595388295002
 30
0.0
 10
188.2147384386704
 20
14.95289710582239
 30
0.0
 10
188.1575655197822
 20
14.961363077495
 30
0.0
 10
188.0616048925647
 20
14.95729976080637
 30
0.0
 10
187.9633767522822
 20
14.95970889852475
 30
0.0
 10
187.8672582457561
 20
14.95551600613389
 30
0.0
 10
187.8104648525812
 20
14.96429346441164
 30
0.0
 10
187.7550356873385
 20
14.95094936850123
 30
0.0
 10
187.7670679427918
 20
15.00036910959257
 30
0.0
 10
187.7592003173938
 20
15.04393988030396
 30
0.0
 10
187.766629556383
 20
15.08830469118526
 30
0.0
 10
187.7551930564144
 20
15.13902297763992
 30
0.0
 10
187.8232102370134
 20
15.12162460757743
 30
0.0
 10
187.8968496879747
 20
15.13417450237189
 30
0.0
 10
188.0325064058211
 20
15.12799677011096
 30
0.0
 10
188.1884909024526
 20
15.13029203093085
 30
0.0
 10
188.3615926358144
 20
15.1294096826253
 30
0.0
 10
188.5346942964182
 20
15.13029207142408
 30
0.0
 10
188.6906789811218
 20
15.1279966295555
 30
0.0
 10
188.8263351889797
 20
15.13417486262431
 30
0.0
 10
188.8999756705654
 20
15.12162394218335
 30
0.0
 10
188.9679914174724
 20
15.13902373012143
 30
0.0
 10
188.9565590885923
 20
15.08830130414555
 30
0.0
 10
188.9639539458297
 20
15.04397060811109
 30
0.0
 10
188.9562039912271
 20
15.00028307550196
 30
0.0
 10
188.9681203741877
 20
14.95063590098478
 30
0.0
 10
188.9108170223617
 20
14.96461411338427
 30
0.0
 10
188.8520145789773
 20
14.95539755673255
 30
0.0
 10
188.75252936332
 20
14.9595226816493
 30
0.0
 10
188.6494280098349
 20
14.95822760025888
 30
0.0
 10
188.5537846354575
 20
14.95854077077642
 30
0.0
 10
188.4857467971616
 20
14.95848776697146
 30
0.0
 10
188.4514462213444
 20
14.95849051871657
 30
0.0
 10
188.4418622390565
 20
14.95849128473265
 30
0.0
 11
188.4418622390565
 21
14.95849128473265
 31
0.0
 11
188.4418622390565
 21
14.92423666587186
 31
0.0
 11
188.4418622390565
 21
14.83392903432976
 31
0.0
 11
188.4418622390565
 21
14.7062527276668
 31
0.0
 11
188.4418622390565
 21
14.5598920834434
 31
0.0
 11
188.4418622390565
 21
14.41353143922001
 31
0.0
 11
188.4418622390565
 21
14.28585513255705
 31
0.0
 11
188.4418622390565
 21
14.19554750101495
 31
0.0
 11
188.4418622390565
 21
14.16129288215416
 31
0.0
 11
188.7391932644567
 21
14.22709475713769
 31
0.0
 11
189.0384623627245
 21
14.29496038212072
 31
0.0
 11
189.0405487124976
 21
14.27030727882828
 31
0.0
 11
189.0451386819987
 21
14.2160704515849
 31
0.0
 11
189.0497286514996
 21
14.16183362434152
 31
0.0
 11
189.0518150012728
 21
14.13718052104908
 31
0.0
 11
188.705639688924
 21
14.05163370140898
 31
0.0
 11
188.3669653138838
 21
13.97060877629901
 31
0.0
 11
188.0563731516688
 21
13.89862764024929
 31
0.0
 11
187.7944444777955
 21
13.84021218778992
 31
0.0
 11
187.7817515029292
 21
13.81283442738014
 31
0.0
 11
187.7569794787513
 21
13.79740260446735
 31
0.0
 11
187.7491867589501
 21
13.81910683390636
 31
0.0
 11
187.7306041194242
 21
13.87086307333786
 31
0.0
 11
187.70842483999
 21
13.93263664943352
 31
0.0
 11
187.689842200464
 21
13.98439288886502
 31
0.0
 11
187.6820494806628
 21
14.00609711830403
 31
0.0
 11
187.9482776335931
 21
14.05794001759666
 31
0.0
 11
188.2626334936289
 21
14.12373968771911
 31
0.0
 11
188.2626334936289
 21
14.15236628569625
 31
0.0
 11
188.2626334936289
 21
14.229085568275
 31
0.0
 11
188.2626334936289
 21
14.34015676842633
 31
0.0
 11
188.2626334936289
 21
14.47183911912119
 31
0.0
 11
188.2626334936289
 21
14.61039185333057
 31
0.0
 11
188.2626334936289
 21
14.74207420402544
 31
0.0
 11
188.2626334936289
 21
14.85314540417676
 31
0.0
 11
188.2626334936289
 21
14.9298646867555
 31
0.0
 11
188.2626334936289
 21
14.95849128473265
 31
0.0
 11
188.2349191321108
 21
14.95849128473265
 31
0.0
 11
188.1634452524063
 21
14.95849128473265
 31
0.0
 11
188.0657156617901
 21
14.95849128473265
 31
0.0
 11
187.9592341675364
 21
14.95849128473265
 31
0.0
 11
187.8615045769201
 21
14.95849128473265
 31
0.0
 11
187.7900306972156
 21
14.95849128473265
 31
0.0
 11
187.7623163356976
 21
14.95849128473265
 31
0.0
 11
187.7623163356976
 21
14.9852445182329
 31
0.0
 11
187.7623163356976
 21
15.04410163193345
 31
0.0
 11
187.7623163356976
 21
15.10295874563399
 31
0.0
 11
187.7623163356976
 21
15.12971197913424
 31
0.0
 11
187.7958758072876
 21
15.12971197913424
 31
0.0
 11
187.8869658016031
 21
15.12971197913424
 31
0.0
 11
188.021203687963
 21
15.12971197913424
 31
0.0
 11
188.1842068356856
 21
15.12971197913424
 31
0.0
 11
188.3615926140897
 21
15.12971197913424
 31
0.0
 11
188.5389783924938
 21
15.12971197913424
 31
0.0
 11
188.7019815402165
 21
15.12971197913424
 31
0.0
 11
188.8362194265763
 21
15.12971197913424
 31
0.0
 11
188.9273094208919
 21
15.12971197913424
 31
0.0
 11
188.9608688924819
 21
15.12971197913424
 31
0.0
 11
188.9608688924819
 21
15.10295874563399
 31
0.0
 11
188.9608688924819
 21
15.04410163193344
 31
0.0
 11
188.9608688924819
 21
14.9852445182329
 31
0.0
 11
188.9608688924819
 21
14.95849128473265
 31
0.0
 11
188.9321192527878
 21
14.95849128473265
 31
0.0
 11
188.8579754451555
 21
14.95849128473265
 31
0.0
 11
188.7565951367605
 21
14.95849128473265
 31
0.0
 11
188.6461359947778
 21
14.95849128473265
 31
0.0
 11
188.5447556863828
 21
14.95849128473265
 31
0.0
 11
188.4706118787506
 21
14.95849128473265
 31
0.0
 11
188.4418622390565
 21
14.95849128473265
 31
0.0
  0
SPLINE
  5
BD
102
{ACAD_REACTORS
330
DA
102
}
330
48
100
AcDbEntity
  8
_U_30EC_U_30A4_U_30E4_U_30FC_1
  6
Continuous
 62
     2
100
AcDbSpline
210
0.0
220
0.0
230
1.0
 70
    11
 71
     3
 72
    15
 73
    11
 74
     9
 42
0.000000001
 43
0.0000000001
 44
0.00000001
 40
0.0
 40
0.0
 40
0.0
 40
0.0
 40
0.2785535985096574
 40
0.5215624748199497
 40
0.6076917376041546
 40
0.6938210001742487
 40
0.9405019146456326
 40
1.221691403489265
 40
1.300471877081182
 40
1.379252341684947
 40
1.379252341684947
 40
1.379252341684947
 40
1.379252341684947
 10
189.5681493630999
 20
16.22930267330381
 30
0.0
 10
189.6296017794178
 20
16.17691646592715
 30
0.0
 10
189.7446649974112
 20
16.0788287679822
 30
0.0
 10
190.0397348497246
 20
15.92889785897221
 30
0.0
 10
189.9025147631856
 20
15.84343227515015
 30
0.0
 10
189.8041227843778
 20
15.71085785201555
 30
0.0
 10
189.713003359065
 20
16.0161698578142
 30
0.0
 10
189.3636839480655
 20
16.07967869465375
 30
0.0
 10
189.511925837657
 20
16.17896509880878
 30
0.0
 10
189.5494081874236
 20
16.21252348402382
 30
0.0
 10
189.5681493630999
 20
16.22930267330381
 30
0.0
 11
189.5681493630999
 21
16.22930267330381
 31
0.0
 11
189.7919222440596
 21
16.06341774278972
 31
0.0
 11
189.9695046306384
 21
15.89753281227564
 31
0.0
 11
189.9066308127979
 21
15.83866743034592
 31
0.0
 11
189.8437569949575
 21
15.7798020484162
 31
0.0
 11
189.6688535117725
 21
15.95375677059491
 31
0.0
 11
189.447825685614
 21
16.12757920110703
 31
0.0
 11
189.507987524357
 21
16.17844093720542
 31
0.0
 11
189.5681493630999
 21
16.22930267330381
 31
0.0
  0
SPLINE
  5
BE
102
{ACAD_REACTORS
330
DB
102
}
330
48
100
AcDbEntity
  8
_U_30EC_U_30A4_U_30E4_U_30FC_1
  6
Continuous
 62
     2
100
AcDbSpline
210
0.0
220
0.0
230
1.0
 70
    11
 71
     3
 72
    35
 73
    31
 74
    29
 42
0.000000001
 43
0.0000000001
 44
0.00000001
 40
0.0
 40
0.0
 40
0.0
 40
0.0
 40
0.0335231036620645
 40
0.0713218571712011
 40
0.427886668148703
 40
0.8116865841964063
 40
1.198190238000065
 40
1.561379546812692
 40
1.65998317462204
 40
1.759315573807202
 40
2.132719617231065
 40
2.525233363588795
 40
2.910815397779705
 40
3.265244364303295
 40
3.592606723582038
 40
3.964386154603964
 40
4.359942131737784
 40
4.758154118639246
 40
4.843846538699903
 40
4.93665006554317
 40
5.256616602537226
 40
5.581707404415913
 40
5.899719158308049
 40
6.198363494280654
 40
6.466301046615717
 40
6.493895311537039
 40
6.559697020196775
 40
6.63823454344235
 40
6.704036252154074
 40
6.731630508422851
 40
6.731630508422851
 40
6.731630508422851
 40
6.731630508422851
 10
191.9736010568669
 20
16.23463843719134
 30
0.0
 10
191.9676006097789
 20
16.22480690542323
 30
0.0
 10
191.9548344099157
 20
16.20388988579798
 30
0.0
 10
191.7949362006555
 20
16.17127126532693
 30
0.0
 10
192.2322025842337
 20
15.88206680336702
 30
0.0
 10
192.4345394828262
 20
15.68041138358439
 30
0.0
 10
192.6819564267973
 20
15.43749387603276
 30
0.0
 10
193.1831513624606
 20
15.36047662757781
 30
0.0
 10
193.012556219897
 20
15.21876939174655
 30
0.0
 10
192.9383299463202
 20
15.0171036620911
 30
0.0
 10
192.6131432248188
 20
15.36956287174725
 30
0.0
 10
192.3277741670664
 20
15.53175212559565
 30
0.0
 10
192.0337604077658
 20
15.73687130053047
 30
0.0
 10
191.8084452691135
 20
16.21827488595456
 30
0.0
 10
191.5993085055521
 20
15.75343046609224
 30
0.0
 10
191.3207873674834
 20
15.54350952252912
 30
0.0
 10
191.0371383177208
 20
15.37424456359984
 30
0.0
 10
190.7078639527833
 20
15.00142360907946
 30
0.0
 10
190.6277012318224
 20
15.19708014458997
 30
0.0
 10
190.4759724909746
 20
15.32491104190603
 30
0.0
 10
190.9083395826795
 20
15.40454031765933
 30
0.0
 10
191.0962565329765
 20
15.60026634915478
 30
0.0
 10
191.3468477420504
 20
15.81632996916754
 30
0.0
 10
191.571435047016
 20
15.98190992300061
 30
0.0
 10
191.6259775409715
 20
16.26133964636827
 30
0.0
 10
191.7494661029011
 20
16.24737950408078
 30
0.0
 10
191.8060273344521
 20
16.24521268867647
 30
0.0
 10
191.8761870984945
 20
16.2404685988136
 30
0.0
 10
191.9333414022105
 20
16.23709429350542
 30
0.0
 10
191.9644190320839
 20
16.23519854711119
 30
0.0
 10
191.9736010568669
 20
16.23463843719134
 30
0.0
 11
191.9736010568669
 21
16.23463843719134
 31
0.0
 11
191.9525319069884
 21
16.20856374969785
 31
0.0
 11
191.9174464559425
 21
16.1945011455347
 31
0.0
 11
192.1512374769094
 21
15.92527961131383
 31
0.0
 11
192.4414585957566
 21
15.6741340796926
 31
0.0
 11
192.7612797483684
 21
15.45710987618784
 31
0.0
 11
193.0838708706289
 21
15.29025232631638
 31
0.0
 11
193.0213299868076
 21
15.21402035584929
 31
0.0
 11
192.9688035818975
 21
15.12971197913424
 31
0.0
 11
192.6436279095814
 21
15.3132640483158
 31
0.0
 11
192.3237227768436
 21
15.54070139743429
 31
0.0
 11
192.0354200158608
 21
15.79673855123311
 31
0.0
 11
191.8050514588095
 21
16.06609003445567
 31
0.0
 11
191.5995531719516
 21
15.81126348721036
 31
0.0
 11
191.3288301341536
 21
15.55645182277756
 31
0.0
 11
191.0119538423247
 21
15.31969466354857
 31
0.0
 11
190.6679957933742
 21
15.11903163191467
 31
0.0
 11
190.6218855341338
 21
15.19126067703554
 31
0.0
 11
190.5636970460349
 21
15.26355586798967
 31
0.0
 11
190.8433040489015
 21
15.41911456961745
 31
0.0
 11
191.1093004621154
 21
15.60601009790405
 31
0.0
 11
191.3499997459747
 21
15.81384496285209
 31
0.0
 11
191.5537153607775
 21
16.03222167446416
 31
0.0
 11
191.7087607668219
 21
16.25074274274287
 31
0.0
 11
191.7363041569866
 21
16.24906789496551
 31
0.0
 11
191.8019845489177
 21
16.24507402718873
 31
0.0
 11
191.8803772747711
 21
16.24030715274548
 31
0.0
 11
191.9460576667022
 21
16.2363132849687
 31
0.0
 11
191.9736010568669
 21
16.23463843719134
 31
0.0
  0
SPLINE
  5
BF
102
{ACAD_REACTORS
330
DC
102
}
330
48
100
AcDbEntity
  8
_U_30EC_U_30A4_U_30E4_U_30FC_1
  6
Continuous
 62
     2
100
AcDbSpline
210
0.0
220
0.0
230
1.0
 70
    11
 71
     3
 72
    91
 73
    87
 74
    85
 42
0.000000001
 43
0.0000000001
 44
0.00000001
 40
0.0
 40
0.0
 40
0.0
 40
0.0
 40
0.0267532254356701
 40
0.0856103386464102
 40
0.1444674521996621
 40
0.1712206856618514
 40
0.2039416005642536
 40
0.2955601971652484
 40
0.4362601844616918
 40
0.616225284450725
 40
0.8256392189704698
 40
1.054685709844411
 40
1.293548478893531
 40
1.532411247938303
 40
1.761457738799568
 40
1.970871673298537
 40
2.150836773256732
 40
2.291536760495593
 40
2.3831553568367
 40
2.41587628410132
 40
2.442629517487965
 40
2.501486630949095
 40
2.560343744424242
 40
2.587096977826515
 40
2.617068194440942
 40
2.699247336756083
 40
2.822032643466396
 40
2.973822353257925
 40
3.143014704823368
 40
3.318007936879947
 40
3.48720028818678
 40
3.63898999754826
 40
3.761775303794759
 40
3.843954445753094
 40
3.87392566222979
 40
3.89081277350055
 40
3.907699884771755
 40
3.937960767857408
 40
3.980983618142384
 40
4.199085915228538
 40
4.439444339237332
 40
4.677588241261004
 40
5.05069831783789
 40
5.448212454763304
 40
5.855291218044886
 40
6.138575438885602
 40
6.417434507584464
 40
6.444551104394146
 40
6.50420761736347
 40
6.563864130314865
 40
6.590980727104458
 40
6.84860946038182
 40
7.109611990668759
 40
7.352910904446424
 40
7.557830220705812
 40
7.587518925913705
 40
7.652834077376123
 40
7.718149228846082
 40
7.74783793406236
 40
7.854880190301377
 40
7.976511257403915
 40
8.369487896592716
 40
8.75751495922401
 40
9.126072419331472
 40
9.460639380392477
 40
9.746695593036161
 40
9.777569943118959
 40
9.807050320932138
 40
9.83037733612927
 40
9.886003295436346
 40
9.952395569430262
 40
10.00802152870661
 40
10.03134854388254
 40
10.21356951009624
 40
10.42203479292907
 40
10.66154556731103
 40
10.91693789564341
 40
11.15832906556601
 40
11.18982674596659
 40
11.27286608520443
 40
11.39026653033385
 40
11.52484752840921
 40
11.65942852648483
 40
11.77682897161519
 40
11.85986831085718
 40
11.89136598230464
 40
11.89136598230464
 40
11.89136598230464
 40
11.89136598230464
 10
190.7027885008196
 20
14.70699600701772
 30
0.0
 10
190.7028237765288
 20
14.71587847311985
 30
0.0
 10
190.7029366710796
 20
14.74430237047346
 30
0.0
 10
190.7012984568489
 20
14.79409639169803
 30
0.0
 10
190.7069750292911
 20
14.83657564478154
 30
0.0
 10
190.6956928731706
 20
14.88730154856847
 30
0.0
 10
190.7632296979031
 20
14.87012900740109
 30
0.0
 10
190.83880292107
 20
14.88290227165996
 30
0.0
 10
190.9828357056
 20
14.87629729457382
 30
0.0
 10
191.1569419185427
 20
14.87888462206466
 30
0.0
 10
191.3639599611003
 20
14.87800591955553
 30
0.0
 10
191.5894688172378
 20
14.87828207920027
 30
0.0
 10
191.8251162293406
 20
14.87818339658662
 30
0.0
 10
192.0607640531348
 20
14.87828184412767
 30
0.0
 10
192.2862717580626
 20
14.87800678190789
 30
0.0
 10
192.4932934632805
 20
14.87888186270735
 30
0.0
 10
192.6673888915288
 20
14.87630522678446
 30
0.0
 10
192.8114492071986
 20
14.88288290449213
 30
0.0
 10
192.8869691915293
 20
14.87016243405604
 30
0.0
 10
192.9545776037029
 20
14.88726400191686
 30
0.0
 10
192.9430840140676
 20
14.8367478580294
 30
0.0
 10
192.9505104581733
 20
14.79253252226501
 30
0.0
 10
192.9428838927986
 20
14.7486796650361
 30
0.0
 10
192.9546489459425
 20
14.69878374479327
 30
0.0
 10
192.8930788491983
 20
14.71393227712512
 30
0.0
 10
192.8256791738672
 20
14.70310665350673
 30
0.0
 10
192.7013004056221
 20
14.70852031626236
 30
0.0
 10
192.555442823657
 20
14.70649205390785
 30
0.0
 10
192.3893576440085
 20
14.70715777578387
 30
0.0
 10
192.2188412621724
 20
14.70689643521242
 30
0.0
 10
192.0519790855388
 20
14.70721553391094
 30
0.0
 10
191.9087346827105
 20
14.70635302590762
 30
0.0
 10
191.7773313869834
 20
14.70863300482987
 30
0.0
 10
191.7239859134656
 20
14.70407704374202
 30
0.0
 10
191.6485188456913
 20
14.70999914992876
 30
0.0
 10
191.6769075779233
 20
14.70094169343354
 30
0.0
 10
191.7033652409543
 20
14.6972591226893
 30
0.0
 10
191.6633522907701
 20
14.66654271968277
 30
0.0
 10
191.571366369187
 20
14.67667591174628
 30
0.0
 10
191.543939620707
 20
14.43032502247788
 30
0.0
 10
191.4478793967235
 20
14.27499558764373
 30
0.0
 10
191.1917277964473
 20
13.9452541793157
 30
0.0
 10
191.7627537732762
 20
14.08430022210451
 30
0.0
 10
192.0173656320516
 20
14.08291779973363
 30
0.0
 10
192.6279647048618
 20
13.99790569242085
 30
0.0
 10
192.3340698578083
 20
14.29685417558204
 30
0.0
 10
192.0133304286517
 20
14.44330856901782
 30
0.0
 10
192.1313543360434
 20
14.50025540818288
 30
0.0
 10
192.1724716466262
 20
14.52420099873351
 30
0.0
 10
192.2156812394412
 20
14.54599758811229
 30
0.0
 10
192.3174574094451
 20
14.60928721253904
 30
0.0
 10
192.4328867625248
 20
14.35147151408779
 30
0.0
 10
192.6329591642278
 20
14.21616041113683
 30
0.0
 10
192.7269077387229
 20
14.0379279513888
 30
0.0
 10
192.9558829746392
 20
13.87997821027051
 30
0.0
 10
192.859603184671
 20
13.82915972576299
 30
0.0
 10
192.816795976378
 20
13.79881292523054
 30
0.0
 10
192.771824352878
 20
13.77466130281461
 30
0.0
 10
192.7121720925215
 20
13.72552146747567
 30
0.0
 10
192.6789731061324
 20
13.85997475673606
 30
0.0
 10
192.5582013350797
 20
14.01594265286582
 30
0.0
 10
192.1970976005978
 20
13.88569928059555
 30
0.0
 10
191.8385061955541
 20
13.90224694409483
 30
0.0
 10
191.457092045008
 20
13.89331229351864
 30
0.0
 10
191.1703455282891
 20
13.82882671672411
 30
0.0
 10
190.8592055599715
 20
13.94230668192822
 30
0.0
 10
190.8268737818789
 20
13.83122259927766
 30
0.0
 10
190.7896178253318
 20
13.81196313850011
 30
0.0
 10
190.7865737632754
 20
13.85874784087296
 30
0.0
 10
190.7679892860607
 20
13.89806853919135
 30
0.0
 10
190.7512436616778
 20
13.95765983478232
 30
0.0
 10
190.7383730915754
 20
14.00201969871284
 30
0.0
 10
190.7042327806427
 20
14.09106331120199
 30
0.0
 10
190.9482714457754
 20
14.02181042943771
 30
0.0
 10
191.1441394486671
 20
14.00030369057745
 30
0.0
 10
191.2395426381278
 20
14.2822648447846
 30
0.0
 10
191.2945135769596
 20
14.44363045421126
 30
0.0
 10
191.5159619357157
 20
14.71391177589738
 30
0.0
 10
191.3849239381216
 20
14.70548446853735
 30
0.0
 10
191.3110026555854
 20
14.70779008496969
 30
0.0
 10
191.1977459876244
 20
14.70671378321658
 30
0.0
 10
191.0694251807484
 20
14.7070763907651
 30
0.0
 10
190.9404252030415
 20
14.70697724466086
 30
0.0
 10
190.828784094629
 20
14.70699932712572
 30
0.0
 10
190.7514663970026
 20
14.7069957918967
 30
0.0
 10
190.713287653201
 20
14.70699595845081
 30
0.0
 10
190.7027885008196
 20
14.70699600701772
 30
0.0
 11
190.7027885008196
 21
14.70699600701772
 31
0.0
 11
190.7027885008196
 21
14.73374924051797
 31
0.0
 11
190.7027885008196
 21
14.79260635421853
 31
0.0
 11
190.7027885008196
 21
14.85146346791909
 31
0.0
 11
190.7027885008196
 21
14.87821670141935
 31
0.0
 11
190.7355094280989
 21
14.87821670141935
 31
0.0
 11
190.8271280244809
 21
14.87821670141935
 31
0.0
 11
190.9678280117818
 21
14.87821670141935
 31
0.0
 11
191.1477931118179
 21
14.87821670141935
 31
0.0
 11
191.3572070464054
 21
14.87821670141935
 31
0.0
 11
191.5862535373604
 21
14.87821670141935
 31
0.0
 11
191.8251163064992
 21
14.87821670141935
 31
0.0
 11
192.0639790756381
 21
14.87821670141935
 31
0.0
 11
192.2930255665931
 21
14.87821670141935
 31
0.0
 11
192.5024395011806
 21
14.87821670141935
 31
0.0
 11
192.6824046012167
 21
14.87821670141935
 31
0.0
 11
192.8231045885176
 21
14.87821670141935
 31
0.0
 11
192.9147231848996
 21
14.87821670141935
 31
0.0
 11
192.9474441121789
 21
14.87821670141935
 31
0.0
 11
192.9474441121789
 21
14.85146346791909
 31
0.0
 11
192.9474441121789
 21
14.79260635421853
 31
0.0
 11
192.9474441121789
 21
14.73374924051797
 31
0.0
 11
192.9474441121789
 21
14.70699600701772
 31
0.0
 11
192.9174728954758
 21
14.70699600701772
 31
0.0
 11
192.8352937529027
 21
14.70699600701772
 31
0.0
 11
192.7125084457639
 21
14.70699600701772
 31
0.0
 11
192.5607187353642
 21
14.70699600701772
 31
0.0
 11
192.3915263830077
 21
14.70699600701772
 31
0.0
 11
192.2165331499991
 21
14.70699600701772
 31
0.0
 11
192.0473407976426
 21
14.70699600701772
 31
0.0
 11
191.8955510872428
 21
14.70699600701772
 31
0.0
 11
191.7727657801042
 21
14.70699600701772
 31
0.0
 11
191.690586637531
 21
14.70699600701772
 31
0.0
 11
191.6606154208279
 21
14.70699600701772
 31
0.0
 11
191.6766359412526
 21
14.70165583340794
 31
0.0
 11
191.6926564616772
 21
14.69631565979816
 31
0.0
 11
191.6706155681421
 21
14.67558114591443
 31
0.0
 11
191.6284861855364
 21
14.6668587153611
 31
0.0
 11
191.5365235541378
 21
14.46909247312657
 31
0.0
 11
191.4279078521764
 21
14.25467511978509
 31
0.0
 11
191.3127500824807
 21
14.0462255905162
 31
0.0
 11
191.685736667502
 21
14.05582441253029
 31
0.0
 11
192.083070003615
 21
14.06781232404995
 31
0.0
 11
192.4899342191146
 21
14.08102711828532
 31
0.0
 11
192.2983119496979
 21
14.28966761302481
 31
0.0
 11
192.0966752013698
 21
14.48229420151833
 31
0.0
 11
192.1204947794749
 21
14.49525327269565
 31
0.0
 11
192.1728978513062
 21
14.52376322928577
 31
0.0
 11
192.2253009231375
 21
14.55227318587588
 31
0.0
 11
192.2491205012426
 21
14.5652322570532
 31
0.0
 11
192.4387101558627
 21
14.39079508370268
 31
0.0
 11
192.6200310940436
 21
14.20305846374091
 31
0.0
 11
192.7777729231148
 21
14.01782380992436
 31
0.0
 11
192.8966252504059
 21
13.85089253500949
 31
0.0
 11
192.8715408217924
 21
13.83501202286069
 31
0.0
 11
192.8163550788427
 21
13.80007489613332
 31
0.0
 11
192.7611693358929
 21
13.76513776940596
 31
0.0
 11
192.7360849072794
 21
13.74925725725716
 31
0.0
 11
192.6775518151612
 21
13.8388782468181
 31
0.0
 11
192.6050015078457
 21
13.93650288221032
 31
0.0
 11
192.2125412924095
 21
13.91636286943759
 31
0.0
 11
191.824947406956
 21
13.89803302999773
 31
0.0
 11
191.4567378976213
 21
13.88202178722396
 31
0.0
 11
191.1224308105413
 21
13.86883756444948
 31
0.0
 11
190.8365441918519
 21
13.85898878500751
 31
0.0
 11
190.8211862321741
 21
13.83220523466695
 31
0.0
 11
190.7937434290546
 21
13.82143559057245
 31
0.0
 11
190.7867927192319
 21
13.84370299445577
 31
0.0
 11
190.7702179496548
 21
13.89680218833139
 31
0.0
 11
190.7504351601596
 21
13.96017864553777
 31
0.0
 11
190.7338603905825
 21
14.01327783941338
 31
0.0
 11
190.7269096807598
 21
14.0355452432967
 31
0.0
 11
190.9091199859153
 21
14.03751638912953
 31
0.0
 11
191.1174975848588
 21
14.04356211829472
 31
0.0
 11
191.2303203127216
 21
14.25483550301554
 31
0.0
 11
191.3407936722035
 21
14.4850981315588
 31
0.0
 11
191.4358254265627
 21
14.70699600701772
 31
0.0
 11
191.4043277461597
 21
14.70699600701772
 31
0.0
 11
191.3212884069153
 21
14.70699600701772
 31
0.0
 11
191.2038879617768
 21
14.70699600701772
 31
0.0
 11
191.0693069636912
 21
14.70699600701772
 31
0.0
 11
190.9347259656055
 21
14.70699600701772
 31
0.0
 11
190.817325520467
 21
14.70699600701772
 31
0.0
 11
190.7342861812226
 21
14.70699600701772
 31
0.0
 11
190.7027885008196
 21
14.70699600701772
 31
0.0
  0
SPLINE
  5
C0
102
{ACAD_REACTORS
330
DD
102
}
330
48
100
AcDbEntity
  8
_U_30EC_U_30A4_U_30E4_U_30FC_1
  6
Continuous
 62
     2
100
AcDbSpline
210
0.0
220
0.0
230
1.0
 70
    11
 71
     3
 72
   131
 73
   127
 74
   125
 42
0.000000001
 43
0.0000000001
 44
0.00000001
 40
0.0
 40
0.0
 40
0.0
 40
0.0
 40
0.0195577029826156
 40
0.042649053746146
 40
0.2863607575856632
 40
0.5344948436189312
 40
0.7842238845573181
 40
0.8737315789467396
 40
0.9803832810312892
 40
1.092842274517037
 40
1.199761146656796
 40
1.289788768186501
 40
1.351573580786195
 40
1.370727117561424
 40
1.416400936017833
 40
1.470914848355978
 40
1.516588666791767
 40
1.535742203552848
 40
1.634216592293199
 40
1.760283341175037
 40
1.897966686682099
 40
2.031216387368926
 40
2.049689751137919
 40
2.101115601646856
 40
2.179502577739975
 40
2.278859318314089
 40
2.393194462258748
 40
2.516516648383864
 40
2.642834515405993
 40
2.766156701983495
 40
2.880491846754611
 40
2.979848588358653
 40
3.058235565443832
 40
3.109661416668987
 40
3.128134780704162
 40
3.146783742386479
 40
3.19125434331534
 40
3.244332157315999
 40
3.288802758225903
 40
3.307451719895145
 40
3.327717853844759
 40
3.383747753580117
 40
3.468388665924508
 40
3.574487837698817
 40
3.694892515728921
 40
3.822449946852059
 40
3.950007377920449
 40
4.07041205580054
 40
4.176511227368096
 40
4.261152139501542
 40
4.317182039076735
 40
4.337448172964654
 40
4.620011002696259
 40
4.885096638397528
 40
4.945373043518334
 40
5.014107710488629
 40
5.070481727652058
 40
5.319246955636582
 40
5.584812164506053
 40
5.859000912056906
 40
6.133746937542088
 40
6.401732212968891
 40
6.420736683995481
 40
6.472845717451132
 40
6.550702743894059
 40
6.646951193874268
 40
6.754234497930592
 40
6.86519608658737
 40
6.972479390357829
 40
7.068727839771991
 40
7.146584865451
 40
7.198693898189229
 40
7.21769836890537
 40
7.234950401630846
 40
7.276089864269889
 40
7.325191803515996
 40
7.36633126609038
 40
7.38358329876973
 40
7.402779163492107
 40
7.453386443254538
 40
7.52493466644554
 40
7.606953361405879
 40
7.688972056429031
 40
7.760520279784282
 40
7.811127559734524
 40
7.830323424546145
 40
7.847844055299777
 40
7.894799345666816
 40
7.962779392744506
 40
8.043374293560557
 40
8.128174145149465
 40
8.208769044817267
 40
8.27674909037697
 40
8.323704379669536
 40
8.341225010056267
 40
8.358497614800415
 40
8.40167912668662
 40
8.457815092185678
 40
8.513951057728082
 40
8.557132569708038
 40
8.574405174505081
 40
8.602340668616442
 40
8.643455660539981
 40
8.663225271966649
 40
8.715345156564297
 40
8.789031889628635
 40
8.873502045520366
 40
8.957972194323991
 40
9.031658925567886
 40
9.083778811234577
 40
9.103548423003039
 40
9.119550083123576
 40
9.160817522379878
 40
9.217244429110243
 40
9.278724491644729
 40
9.335151398295514
 40
9.376418837357809
 40
9.392420497300597
 40
9.401196302734816
 40
9.41749422938429
 40
9.426270027749563
 40
9.440875075477596
 40
9.475702496998775
 40
9.517270709865937
 40
9.552098131994104
 40
9.566703169884311
 40
9.566703169884311
 40
9.566703169884311
 40
9.566703169884311
 10
194.6170254148479
 20
15.67015871511028
 30
0.0
 10
194.6134345093371
 20
15.6645369070216
 30
0.0
 10
194.6056039123624
 20
15.65227754419112
 30
0.0
 10
194.512996897455
 20
15.61601916040976
 30
0.0
 10
194.4887622233246
 20
15.40148444212714
 30
0.0
 10
194.3858709845939
 20
15.22197284509708
 30
0.0
 10
194.1220492364305
 20
15.03615573798146
 30
0.0
 10
194.2845471569179
 20
14.95959336566081
 30
0.0
 10
194.3607225760839
 20
14.89856693195443
 30
0.0
 10
194.4492171072758
 20
14.83515804544759
 30
0.0
 10
194.5389930233111
 20
14.77525634219561
 30
0.0
 10
194.5883817636046
 20
14.72102154849208
 30
0.0
 10
194.6745708157381
 20
14.69286240541834
 30
0.0
 10
194.641126067423
 20
14.65713309652812
 30
0.0
 10
194.621467116631
 20
14.62550387991906
 30
0.0
 10
194.5919888217882
 20
14.58475872796069
 30
0.0
 10
194.5688989446031
 20
14.55504663489643
 30
0.0
 10
194.5380205968356
 20
14.50211422668494
 30
0.0
 10
194.4729193365741
 20
14.62740334938903
 30
0.0
 10
194.3796000122415
 20
14.68213900233934
 30
0.0
 10
194.2950636285139
 20
14.73916423939344
 30
0.0
 10
194.1722498125742
 20
14.89675287427523
 30
0.0
 10
194.1764450847301
 20
14.82035806766837
 30
0.0
 10
194.1751478652677
 20
14.77361280161297
 30
0.0
 10
194.1758126448076
 20
14.69584785812602
 30
0.0
 10
194.1755549986956
 20
14.59902068324423
 30
0.0
 10
194.1756431239922
 20
14.4865027907881
 30
0.0
 10
194.1756077302281
 20
14.36524085945699
 30
0.0
 10
194.1756511758279
 20
14.24086897858962
 30
0.0
 10
194.1755199942406
 20
14.11967683631336
 30
0.0
 10
194.1759477562046
 20
14.00691148919744
 30
0.0
 10
194.174667820231
 20
13.91082913768744
 30
0.0
 10
194.1779759851044
 20
13.831138264687
 30
0.0
 10
194.1715197740085
 20
13.78815175788784
 30
0.0
 10
194.1806208705556
 20
13.74955432372043
 30
0.0
 10
194.1447910339935
 20
13.7581088772407
 30
0.0
 10
194.1115223815252
 20
13.75342519985446
 30
0.0
 10
194.060456257604
 20
13.75351298759784
 30
0.0
 10
194.0269723972813
 20
13.75794430283821
 30
0.0
 10
193.9907585408754
 20
13.74960793842509
 30
0.0
 10
194.0009782568665
 20
13.79145277179284
 30
0.0
 10
193.9936487887773
 20
13.83778560820173
 30
0.0
 10
193.9973633136103
 20
13.92374831106015
 30
0.0
 10
193.9959480554896
 20
14.02605142704849
 30
0.0
 10
193.9964105554638
 20
14.14453223931512
 30
0.0
 10
193.996277368623
 20
14.26957683153355
 30
0.0
 10
193.9963015910045
 20
14.3947582810705
 30
0.0
 10
193.9963354925551
 20
14.51286645379058
 30
0.0
 10
193.9962060293132
 20
14.61628748709516
 30
0.0
 10
193.9965507549081
 20
14.69932036153667
 30
0.0
 10
193.995869827869
 20
14.75143368521243
 30
0.0
 10
193.9994586600622
 20
14.87912907821361
 30
0.0
 10
193.7826171386438
 20
14.58048716819622
 30
0.0
 10
193.602135492195
 20
14.35263981511514
 30
0.0
 10
193.5490322295612
 20
14.49373443289815
 30
0.0
 10
193.520042913315
 20
14.54325767560947
 30
0.0
 10
193.4196648062818
 20
14.64641779790101
 30
0.0
 10
193.7405127723262
 20
14.72695035023782
 30
0.0
 10
193.8689897005429
 20
14.91066283036435
 30
0.0
 10
194.0906454325359
 20
15.11931995771763
 30
0.0
 10
194.1770224894068
 20
15.29339211228345
 30
0.0
 10
194.4549394229074
 20
15.56967051342512
 30
0.0
 10
194.3346247839284
 20
15.56534559551115
 30
0.0
 10
194.2863197351348
 20
15.56614856202553
 30
0.0
 10
194.2102377454905
 20
15.56574582146585
 30
0.0
 10
194.116701000975
 20
15.56590275611611
 30
0.0
 10
194.0117594788557
 20
15.56582502576224
 30
0.0
 10
193.9033887738717
 20
15.56595464378556
 30
0.0
 10
193.7981454235897
 20
15.56554393490692
 30
0.0
 10
193.7056237819412
 20
15.56682073671592
 30
0.0
 10
193.6268130800707
 20
15.5634076653485
 30
0.0
 10
193.5839674565379
 20
15.57023350036321
 30
0.0
 10
193.5449499586516
 20
15.56065064201124
 30
0.0
 10
193.5526365271863
 20
15.59420779565543
 30
0.0
 10
193.5485464404312
 20
15.62523550322234
 30
0.0
 10
193.5485531368814
 20
15.672365292709
 30
0.0
 10
193.5526239724911
 20
15.70340941646779
 30
0.0
 10
193.5449495574582
 20
15.73701861635901
 30
0.0
 10
193.5834819405495
 20
15.72748410420872
 30
0.0
 10
193.624122801448
 20
15.73397435498071
 30
0.0
 10
193.6951471850463
 20
15.73100150650254
 30
0.0
 10
193.7729318149633
 20
15.73174761399158
 30
0.0
 10
193.8507292246474
 20
15.73247814044525
 30
0.0
 10
193.9217232089907
 20
15.7295423551416
 30
0.0
 10
193.962427979182
 20
15.73595468772952
 30
0.0
 10
194.0009853489909
 20
15.72650524176004
 30
0.0
 10
193.9927342754928
 20
15.76264692158785
 30
0.0
 10
193.9982346669358
 20
15.80129837613226
 30
0.0
 10
193.9955754206163
 20
15.86913528561839
 30
0.0
 10
193.9965815471532
 20
15.9459164153874
 30
0.0
 10
193.9960178018319
 20
16.02849393582757
 30
0.0
 10
193.9970714526593
 20
16.10517329229879
 30
0.0
 10
193.994267586313
 20
16.173319907767
 30
0.0
 10
194.0000702721302
 20
16.21132399809347
 30
0.0
 10
193.9915654551159
 20
16.24758448077647
 30
0.0
 10
194.0255610233125
 20
16.23755723771853
 30
0.0
 10
194.0594575683099
 20
16.24073266813707
 30
0.0
 10
194.1126669060346
 20
16.2350896564061
 30
0.0
 10
194.1660768574483
 20
16.23434774436425
 30
0.0
 10
194.199591464949
 20
16.2281922348298
 30
0.0
 10
194.2388086183039
 20
16.23346029773593
 30
0.0
 10
194.2120263698492
 20
16.19253380793489
 30
0.0
 10
194.1708111001723
 20
16.20371204538111
 30
0.0
 10
194.1782641540874
 20
16.15867056192126
 30
0.0
 10
194.1742227952184
 20
16.11412278028145
 30
0.0
 10
194.176171404964
 20
16.04223572621704
 30
0.0
 10
194.1752364849758
 20
15.96168630588771
 30
0.0
 10
194.176510719003
 20
15.88173995404995
 30
0.0
 10
194.1732043793863
 20
15.80841837083183
 30
0.0
 10
194.1802106179961
 20
15.76688643002568
 30
0.0
 10
194.1701440380126
 20
15.72752418568113
 30
0.0
 10
194.2029814803921
 20
15.73468063430981
 30
0.0
 10
194.236457729648
 20
15.73027243137945
 30
0.0
 10
194.2915053476019
 20
15.73217943347897
 30
0.0
 10
194.3489502595314
 20
15.73185366407288
 30
0.0
 10
194.4023026248309
 20
15.73106308733081
 30
0.0
 10
194.4398540896638
 20
15.73313959118074
 30
0.0
 10
194.4623172523237
 20
15.73022338167109
 30
0.0
 10
194.4751678073731
 20
15.73572552644056
 30
0.0
 10
194.4858255685888
 20
15.7380111819779
 30
0.0
 10
194.4986635650143
 20
15.74494972588052
 30
0.0
 10
194.5145991033071
 20
15.72853046313672
 30
0.0
 10
194.5410623920891
 20
15.71709122319449
 30
0.0
 10
194.5726805253757
 20
15.6964468783519
 30
0.0
 10
194.5987255892151
 20
15.68116869628295
 30
0.0
 10
194.6128517723973
 20
15.67266976323184
 30
0.0
 10
194.6170254148479
 20
15.67015871511028
 30
0.0
 11
194.6170254148479
 21
15.67015871511028
 31
0.0
 11
194.6049990002243
 21
15.65473571164188
 31
0.0
 11
194.5848961795565
 21
15.64337406233918
 31
0.0
 11
194.4778986355813
 21
15.42440620231159
 31
0.0
 11
194.3477039934324
 21
15.21317201512161
 31
0.0
 11
194.1996540366071
 21
15.0120605902748
 31
0.0
 11
194.2734958253735
 21
14.96147384935379
 31
0.0
 11
194.36056643118
 21
14.89988411653739
 31
0.0
 11
194.4518003750404
 21
14.83413160594426
 31
0.0
 11
194.5381321779687
 21
14.77105653169304
 31
0.0
 11
194.6104963609787
 21
14.71749910790242
 31
0.0
 11
194.6598274450843
 21
14.68029954869104
 31
0.0
 11
194.6486940702213
 21
14.66471410869494
 31
0.0
 11
194.6221452532403
 21
14.62754882870424
 31
0.0
 11
194.5904579555533
 21
14.58319026871533
 31
0.0
 11
194.5639091385723
 21
14.54602498872462
 31
0.0
 11
194.5527757637093
 21
14.53043954872852
 31
0.0
 11
194.4807013362947
 21
14.59754008690618
 31
0.0
 11
194.385285698538
 21
14.6799335417467
 31
0.0
 11
194.279326415217
 21
14.76785017366917
 31
0.0
 11
194.175621051109
 21
14.85152024309268
 31
0.0
 11
194.175621051109
 21
14.83304687900864
 31
0.0
 11
194.175621051109
 21
14.78162102763956
 31
0.0
 11
194.175621051109
 21
14.70323405030999
 31
0.0
 11
194.175621051109
 21
14.60387730834449
 31
0.0
 11
194.175621051109
 21
14.48954216306761
 31
0.0
 11
194.175621051109
 21
14.36621997580389
 31
0.0
 11
194.175621051109
 21
14.2399021078779
 31
0.0
 11
194.175621051109
 21
14.11657992061419
 31
0.0
 11
194.175621051109
 21
14.0022447753373
 31
0.0
 11
194.175621051109
 21
13.9028880333718
 31
0.0
 11
194.175621051109
 21
13.82450105604223
 31
0.0
 11
194.175621051109
 21
13.77307520467316
 31
0.0
 11
194.175621051109
 21
13.75460184058912
 31
0.0
 11
194.1569720893626
 21
13.75460184058912
 31
0.0
 11
194.1125014882749
 21
13.75460184058912
 31
0.0
 11
194.0594236740736
 21
13.75460184058912
 31
0.0
 11
194.0149530729859
 21
13.75460184058912
 31
0.0
 11
193.9963041112395
 21
13.75460184058912
 31
0.0
 11
193.9963041112395
 21
13.77486797460219
 31
0.0
 11
193.9963041112395
 21
13.83089787452066
 31
0.0
 11
193.9963041112395
 21
13.91553878716347
 31
0.0
 11
193.9963041112395
 21
14.02163795934953
 31
0.0
 11
193.9963041112395
 21
14.14204263789775
 31
0.0
 11
193.9963041112395
 21
14.26960006962705
 31
0.0
 11
193.9963041112395
 21
14.39715750135636
 31
0.0
 11
193.9963041112395
 21
14.51756217990458
 31
0.0
 11
193.9963041112395
 21
14.62366135209064
 31
0.0
 11
193.9963041112395
 21
14.70830226473344
 31
0.0
 11
193.9963041112395
 21
14.76433216465193
 31
0.0
 11
193.9963041112395
 21
14.78459829866499
 31
0.0
 11
193.7883272849481
 21
14.59331998274057
 31
0.0
 11
193.5763486358425
 21
14.43414885430812
 31
0.0
 11
193.5495629014483
 21
14.48814671952096
 31
0.0
 11
193.5138765415025
 21
14.54689140572027
 31
0.0
 11
193.4799697494124
 21
14.59192871537977
 31
0.0
 11
193.6830287742319
 21
14.73563387201055
 31
0.0
 11
193.881853195826
 21
14.91168423529989
 31
0.0
 11
194.0677041444178
 21
15.11327514524951
 31
0.0
 11
194.2318427502303
 21
15.3336019418611
 31
0.0
 11
194.3655301434864
 21
15.56585996513636
 31
0.0
 11
194.3465256724482
 21
15.56585996513636
 31
0.0
 11
194.2944166389562
 21
15.56585996513636
 31
0.0
 11
194.2165596124447
 21
15.56585996513636
 31
0.0
 11
194.1203111623478
 21
15.56585996513636
 31
0.0
 11
194.0130278580997
 21
15.56585996513636
 31
0.0
 11
193.9020662691345
 21
15.56585996513636
 31
0.0
 11
193.7947829648864
 21
15.56585996513636
 31
0.0
 11
193.6985345147895
 21
15.56585996513636
 31
0.0
 11
193.620677488278
 21
15.56585996513636
 31
0.0
 11
193.568568454786
 21
15.56585996513636
 31
0.0
 11
193.5495639837478
 21
15.56585996513636
 31
0.0
 11
193.5495639837478
 21
15.58311199790982
 31
0.0
 11
193.5495639837478
 21
15.62425146067732
 31
0.0
 11
193.5495639837478
 21
15.67335340010949
 31
0.0
 11
193.5495639837478
 21
15.71449286287699
 31
0.0
 11
193.5495639837478
 21
15.73174489565045
 31
0.0
 11
193.5687598486009
 21
15.73174489565045
 31
0.0
 11
193.6193671286684
 21
15.73174489565045
 31
0.0
 11
193.690915352212
 21
15.73174489565045
 31
0.0
 11
193.7729340474937
 21
15.73174489565045
 31
0.0
 11
193.8549527427753
 21
15.73174489565045
 31
0.0
 11
193.9265009663189
 21
15.73174489565045
 31
0.0
 11
193.9771082463864
 21
15.73174489565045
 31
0.0
 11
193.9963041112395
 21
15.73174489565045
 31
0.0
 11
193.9963041112395
 21
15.74926552655218
 31
0.0
 11
193.9963041112395
 21
15.79622081736882
 31
0.0
 11
193.9963041112395
 21
15.86420086526753
 31
0.0
 11
193.9963041112395
 21
15.94479576741549
 31
0.0
 11
193.9963041112395
 21
16.02959562097987
 31
0.0
 11
193.9963041112395
 21
16.11019052312783
 31
0.0
 11
193.9963041112395
 21
16.17817057102654
 31
0.0
 11
193.9963041112395
 21
16.22512586184318
 31
0.0
 11
193.9963041112395
 21
16.24264649274491
 31
0.0
 11
194.0135484112111
 21
16.2416580616752
 31
0.0
 11
194.0566591611401
 21
16.23918698400092
 31
0.0
 11
194.1127031360477
 21
16.23597458302436
 31
0.0
 11
194.1687471109553
 21
16.2327621820478
 31
0.0
 11
194.2118578608843
 21
16.23029110437352
 31
0.0
 11
194.2291021608559
 21
16.22930267330381
 31
0.0
 11
194.2143774674851
 21
16.2055629337264
 31
0.0
 11
194.175621051109
 21
16.19183767331313
 31
0.0
 11
194.175621051109
 21
16.17206806177294
 31
0.0
 11
194.175621051109
 21
16.11994817680334
 31
0.0
 11
194.175621051109
 21
16.0462614428808
 31
0.0
 11
194.175621051109
 21
15.96179128448179
 31
0.0
 11
194.175621051109
 21
15.87732112608278
 31
0.0
 11
194.175621051109
 21
15.80363439216024
 31
0.0
 11
194.175621051109
 21
15.75151450719064
 31
0.0
 11
194.175621051109
 21
15.73174489565045
 31
0.0
 11
194.1916227112935
 21
15.73174489565045
 31
0.0
 11
194.232890150717
 21
15.73174489565045
 31
0.0
 11
194.2893170576837
 21
15.73174489565045
 31
0.0
 11
194.3507971204981
 21
15.73174489565045
 31
0.0
 11
194.4072240274648
 21
15.73174489565045
 31
0.0
 11
194.4484914668882
 21
15.73174489565045
 31
0.0
 11
194.4644931270728
 21
15.73174489565045
 31
0.0
 11
194.4728206422924
 21
15.73451387455921
 31
0.0
 11
194.4882860277004
 21
15.73965626396118
 31
0.0
 11
194.49661354292
 21
15.74242524286994
 31
0.0
 11
194.5091363776005
 21
15.73490952398294
 31
0.0
 11
194.5389985218386
 21
15.71698742509854
 31
0.0
 11
194.5746404359293
 21
15.69559653288168
 31
0.0
 11
194.6045025801674
 21
15.67767443399729
 31
0.0
 11
194.6170254148479
 21
15.67015871511028
 31
0.0
  0
SPLINE
  5
C1
102
{ACAD_REACTORS
330
DE
102
}
330
48
100
AcDbEntity
  8
_U_30EC_U_30A4_U_30E4_U_30FC_1
  6
Continuous
 62
     2
100
AcDbSpline
210
0.0
220
0.0
230
1.0
 70
    11
 71
     3
 72
   124
 73
   120
 74
   118
 42
0.000000001
 43
0.0000000001
 44
0.00000001
 40
0.0
 40
0.0
 40
0.0
 40
0.0
 40
0.0278187229624226
 40
0.1011590162383985
 40
0.2048470170590239
 40
0.3237088716558961
 40
0.4425707262522
 40
0.5462587270699263
 40
0.6195990203312082
 40
0.647417752257866
 40
0.6750060736115224
 40
0.7357003855242759
 40
0.7963946998054492
 40
0.8239830245571784
 40
0.8540933811103162
 40
0.9373396629409274
 40
1.063094687343237
 40
1.220731268638075
 40
1.399622220914749
 40
1.589140358637762
 40
1.778658496423843
 40
1.957549448940539
 40
2.115186030873132
 40
2.240941056914465
 40
2.324187341760534
 40
2.354297700109384
 40
2.38188602467189
 40
2.442580338710479
 40
2.503274652750503
 40
2.53086297731461
 40
2.560983949278563
 40
2.640393784452908
 40
2.752662861759132
 40
2.88136156011812
 40
3.010060258455167
 40
3.122329335705371
 40
3.201739170817928
 40
3.231860142753317
 40
3.264298024030373
 40
3.352343701778245
 40
3.482095226868769
 40
3.639650650173031
 40
3.811108022565485
 40
3.982565394927994
 40
4.140120818152575
 40
4.269872343141286
 40
4.357918020802349
 40
4.390355902043978
 40
4.423256253992547
 40
4.508104530073097
 40
4.624121560636865
 40
4.750528176031621
 40
4.866545206602097
 40
4.951393482692082
 40
4.984293834645483
 40
5.011450833242397
 40
5.07119623015218
 40
5.130941627057253
 40
5.158098625648917
 40
5.190998977601608
 40
5.275847253689434
 40
5.391864284256925
 40
5.51827089964847
 40
5.634287930209509
 40
5.719136206288183
 40
5.752036558236099
 40
5.782130946283124
 40
5.862783906229299
 40
5.979550131775166
 40
6.117984316640572
 40
6.263641154588117
 40
6.402075339414323
 40
6.518841564908118
 40
6.599494524815699
 40
6.629588912848937
 40
6.654403028226513
 40
6.713575149488252
 40
6.784199939329569
 40
6.843372060493614
 40
6.86818617580286
 40
6.896246243201906
 40
6.939586233758277
 40
6.967846564564905
 40
7.043584251089843
 40
7.153234334451701
 40
7.283231855734451
 40
7.420011856035485
 40
7.550009376579837
 40
7.659659458835236
 40
7.735397144417229
 40
7.763657474851401
 40
7.796409728011058
 40
7.880876065096333
 40
7.996370852465718
 40
8.122208446418613
 40
8.237703224799207
 40
8.322169562010929
 40
8.354921815205914
 40
8.382078813307695
 40
8.441824209206997
 40
8.501569605240144
 40
8.52872660348572
 40
8.561478856695741
 40
8.645945193877791
 40
8.761439980865331
 40
8.887277580764474
 40
9.002772362000995
 40
9.087238696661187
 40
9.11999094923567
 40
9.152428830613369
 40
9.240474508638584
 40
9.370226034149535
 40
9.527781457984421
 40
9.69923883098141
 40
9.870696203978602
 40
10.02825162781402
 40
10.15800315332564
 40
10.24604883135119
 40
10.27848670378522
 40
10.27848670378522
 40
10.27848670378522
 40
10.27848670378522
 10
195.3821827564384
 20
14.01410517385757
 30
0.0
 10
195.3914554737524
 20
14.01410498511274
 30
0.0
 10
195.4251744536861
 20
14.01410430876714
 30
0.0
 10
195.4934706812466
 20
14.01411807243305
 30
0.0
 10
195.592014171158
 20
14.01403224219544
 30
0.0
 10
195.7062066464812
 20
14.0144175561225
 30
0.0
 10
195.8185894417072
 20
14.01300835897545
 30
0.0
 10
195.9214376600118
 20
14.01719117422243
 30
0.0
 10
195.980683987485
 20
14.00823089251983
 30
0.0
 10
196.0371265937034
 20
14.0216443452606
 30
0.0
 10
196.0246255586956
 20
13.97087198613361
 30
0.0
 10
196.0329549635704
 20
13.92589320939067
 30
0.0
 10
196.0248170841121
 20
13.88056752990488
 30
0.0
 10
196.0370529214458
 20
13.82931932408465
 30
0.0
 10
195.9747773490334
 20
13.84447955365276
 30
0.0
 10
195.9060513026869
 20
13.83359750710742
 30
0.0
 10
195.7782756749592
 20
13.83911304747972
 30
0.0
 10
195.6262984511644
 20
13.83700851253698
 30
0.0
 10
195.4502695972523
 20
13.83771002588473
 30
0.0
 10
195.2644431934288
 20
13.83745237531292
 30
0.0
 10
195.0786167437176
 20
13.83771005144602
 30
0.0
 10
194.9025880142169
 20
13.83700841847731
 30
0.0
 10
194.7506104154195
 20
13.83911332229988
 30
0.0
 10
194.6228357664555
 20
13.8335968076764
 30
0.0
 10
194.5541077836581
 20
13.84448077125942
 30
0.0
 10
194.4918349042884
 20
13.82931786684209
 30
0.0
 10
194.5040616290018
 20
13.88057510805171
 30
0.0
 10
194.4960004462598
 20
13.92582473272425
 30
0.0
 10
194.5040675809893
 20
13.97106357955323
 30
0.0
 10
194.4918238487084
 20
14.02234176909958
 30
0.0
 10
194.5525017120699
 20
14.00749577363134
 30
0.0
 10
194.6162810745737
 20
14.01756448170735
 30
0.0
 10
194.7277314353503
 20
14.01294644211999
 30
0.0
 10
194.8497533443824
 20
14.01413328905469
 30
0.0
 10
194.9719538137824
 20
14.01515863900635
 30
0.0
 10
195.0829794287392
 20
14.01092475623402
 30
0.0
 10
195.1476517413959
 20
14.02018584521739
 30
0.0
 10
195.2091162810502
 20
14.00604423049682
 30
0.0
 10
195.1930065601337
 20
14.07235527884516
 30
0.0
 10
195.2042980327359
 20
14.14447790121977
 30
0.0
 10
195.1987400822561
 20
14.27513760888285
 30
0.0
 10
195.2008035061691
 20
14.42607323708242
 30
0.0
 10
195.2000167127295
 20
14.59335873107886
 30
0.0
 10
195.2007845215628
 20
14.76061110332304
 30
0.0
 10
195.1988038785629
 20
14.91163289269914
 30
0.0
 10
195.2041306156622
 20
15.04206069552996
 30
0.0
 10
195.1933101388425
 20
15.11465442605899
 30
0.0
 10
195.2090326429876
 20
15.18150469436799
 30
0.0
 10
195.143270813249
 20
15.16580512490825
 30
0.0
 10
195.0756367830764
 20
15.17609243083996
 30
0.0
 10
194.961588529381
 20
15.17113786847122
 30
0.0
 10
194.8451242674903
 20
15.17414128030476
 30
0.0
 10
194.7306554121477
 20
15.1688030314339
 30
0.0
 10
194.6640324657812
 20
15.18001268074826
 30
0.0
 10
194.5990769715186
 20
15.16349132665012
 30
0.0
 10
194.6107989758707
 20
15.21473720477059
 30
0.0
 10
194.6032830189121
 20
15.25950333784091
 30
0.0
 10
194.6107989878835
 20
15.30426944897962
 30
0.0
 10
194.5990769505347
 20
15.35551536129741
 30
0.0
 10
194.66403263392
 20
15.33899381766815
 30
0.0
 10
194.7306533339821
 20
15.35020571373943
 30
0.0
 10
194.8451352858064
 20
15.34485436710665
 30
0.0
 10
194.9615454436963
 20
15.34791188771117
 30
0.0
 10
195.0757660174641
 20
15.34278499010708
 30
0.0
 10
195.1430150439228
 20
15.35345733355599
 30
0.0
 10
195.2083325941439
 20
15.33742082669076
 30
0.0
 10
195.1941391448553
 20
15.39949685750053
 30
0.0
 10
195.2036059462996
 20
15.46586761628763
 30
0.0
 10
195.1990269004085
 20
15.58239972741966
 30
0.0
 10
195.2007696555949
 20
15.71426685022376
 30
0.0
 10
195.1997551495392
 20
15.85615960150273
 30
0.0
 10
195.2017191344372
 20
15.9876905070258
 30
0.0
 10
195.1964668553852
 20
16.10524577283002
 30
0.0
 10
195.2073408763475
 20
16.16947789001584
 30
0.0
 10
195.1919536641854
 20
16.23108802545047
 30
0.0
 10
195.2407591537801
 20
16.21702407382112
 30
0.0
 10
195.2853995564726
 20
16.21954742075313
 30
0.0
 10
195.3538643946741
 20
16.2151279740171
 30
0.0
 10
195.3959106169103
 20
16.20613025544035
 30
0.0
 10
195.4487544758775
 20
16.21411714866512
 30
0.0
 10
195.4207035002015
 20
16.17113917611673
 30
0.0
 10
195.3749142248595
 20
16.18259552043836
 30
0.0
 10
195.3869539073265
 20
16.12173520005137
 30
0.0
 10
195.3796086070643
 20
16.05769299468773
 30
0.0
 10
195.3831195826162
 20
15.94909368863911
 30
0.0
 10
195.3819806760175
 20
15.82494319144753
 30
0.0
 10
195.3819174780263
 20
15.69189719829878
 30
0.0
 10
195.3832872966868
 20
15.56797381249555
 30
0.0
 10
195.3791638801314
 20
15.45868337849339
 30
0.0
 10
195.3877763103565
 20
15.3960858009417
 30
0.0
 10
195.3746757454402
 20
15.33740133296365
 30
0.0
 10
195.4393884328199
 20
15.35362113810902
 30
0.0
 10
195.5060405953157
 20
15.34270260383311
 30
0.0
 10
195.6198779541103
 20
15.34793740173756
 30
0.0
 10
195.7357259122097
 20
15.34485547516913
 30
0.0
 10
195.8496924263281
 20
15.35018259812513
 30
0.0
 10
195.9160341018099
 20
15.33904208166542
 30
0.0
 10
195.9807188525481
 20
15.35546979593177
 30
0.0
 10
195.9689820772722
 20
15.3042592521005
 30
0.0
 10
195.9765168063042
 20
15.25950334121001
 30
0.0
 10
195.9689820992259
 20
15.21474739010028
 30
0.0
 10
195.9807188140737
 20
15.16353690871042
 30
0.0
 10
195.9160344075253
 20
15.1799642779422
 30
0.0
 10
195.8496886430826
 20
15.16882784447271
 30
0.0
 10
195.7357459487013
 20
15.17413115893121
 30
0.0
 10
195.6197995623055
 20
15.17114764593545
 30
0.0
 10
195.5062756882124
 20
15.17606892268394
 30
0.0
 10
195.4389231318805
 20
15.16585087513521
 30
0.0
 10
195.3734285122496
 20
15.18145996138817
 30
0.0
 10
195.3891713619218
 20
15.11463851827412
 30
0.0
 10
195.3783275998215
 20
15.04207057815879
 30
0.0
 10
195.3836581629793
 20
14.91162247614417
 30
0.0
 10
195.3817136151856
 20
14.76064558185226
 30
0.0
 10
195.3823133683214
 20
14.59322243934158
 30
0.0
 10
195.3821506559606
 20
14.42656176118372
 30
0.0
 10
195.3821895488136
 20
14.27360142921636
 30
0.0
 10
195.38218164131
 20
14.14849178985705
 30
0.0
 10
195.3821828382745
 20
14.0650789099142
 30
0.0
 10
195.3821827716209
 20
14.02491778281976
 30
0.0
 10
195.3821827564384
 20
14.01410517385757
 30
0.0
 11
195.3821827564384
 21
14.01410517385757
 31
0.0
 11
195.4100014883675
 21
14.01410517385757
 31
0.0
 11
195.4833417816353
 21
14.01410517385757
 31
0.0
 11
195.5870297824623
 21
14.01410517385757
 31
0.0
 11
195.7058916370687
 21
14.01410517385757
 31
0.0
 11
195.8247534916752
 21
14.01410517385757
 31
0.0
 11
195.9284414925021
 21
14.01410517385757
 31
0.0
 11
196.0017817857699
 21
14.01410517385757
 31
0.0
 11
196.0296005176991
 21
14.01410517385757
 31
0.0
 11
196.0296005176991
 21
13.9865168492117
 31
0.0
 11
196.0296005176991
 21
13.92582253499077
 31
0.0
 11
196.0296005176991
 21
13.86512822076984
 31
0.0
 11
196.0296005176991
 21
13.83753989612397
 31
0.0
 11
195.9994901593494
 21
13.83753989612397
 31
0.0
 11
195.9162438745005
 21
13.83753989612397
 31
0.0
 11
195.7904888484522
 21
13.83753989612397
 31
0.0
 11
195.6328522665042
 21
13.83753989612397
 31
0.0
 11
195.4539613139565
 21
13.83753989612397
 31
0.0
 11
195.2644431761089
 21
13.83753989612397
 31
0.0
 11
195.0749250382614
 21
13.83753989612397
 31
0.0
 11
194.8960340857137
 21
13.83753989612397
 31
0.0
 11
194.7383975037657
 21
13.83753989612397
 31
0.0
 11
194.6126424777173
 21
13.83753989612397
 31
0.0
 11
194.5293961928684
 21
13.83753989612397
 31
0.0
 11
194.4992858345188
 21
13.83753989612397
 31
0.0
 11
194.4992858345188
 21
13.86512822076984
 31
0.0
 11
194.4992858345188
 21
13.92582253499077
 31
0.0
 11
194.4992858345188
 21
13.9865168492117
 31
0.0
 11
194.4992858345188
 21
14.01410517385757
 31
0.0
 11
194.5294068064948
 21
14.01410517385757
 31
0.0
 11
194.6088166417041
 21
14.01410517385757
 31
0.0
 11
194.7210857190691
 21
14.01410517385757
 31
0.0
 11
194.8497844175118
 21
14.01410517385757
 31
0.0
 11
194.9784831159546
 21
14.01410517385757
 31
0.0
 11
195.0907521933196
 21
14.01410517385757
 31
0.0
 11
195.1701620285289
 21
14.01410517385757
 31
0.0
 11
195.2002830005049
 21
14.01410517385757
 31
0.0
 11
195.2002830005049
 21
14.04654305523835
 31
0.0
 11
195.2002830005049
 21
14.1345887332719
 31
0.0
 11
195.2002830005049
 21
14.26434025879503
 31
0.0
 11
195.2002830005049
 21
14.42189568264454
 31
0.0
 11
195.2002830005049
 21
14.59335305565724
 31
0.0
 11
195.2002830005049
 21
14.76481042866994
 31
0.0
 11
195.2002830005049
 21
14.92236585251945
 31
0.0
 11
195.2002830005049
 21
15.05211737804258
 31
0.0
 11
195.2002830005049
 21
15.14016305607613
 31
0.0
 11
195.2002830005049
 21
15.17260093745691
 31
0.0
 11
195.1673826485529
 21
15.17260093745691
 31
0.0
 11
195.0825343724663
 21
15.17260093745691
 31
0.0
 11
194.9665173418989
 21
15.17260093745691
 31
0.0
 11
194.8401107265045
 21
15.17260093745691
 31
0.0
 11
194.724093695937
 21
15.17260093745691
 31
0.0
 11
194.6392454198503
 21
15.17260093745691
 31
0.0
 11
194.6063450678984
 21
15.17260093745691
 31
0.0
 11
194.6063450678984
 21
15.19975793614803
 31
0.0
 11
194.6063450678984
 21
15.2595033332685
 31
0.0
 11
194.6063450678984
 21
15.31924873038898
 31
0.0
 11
194.6063450678984
 21
15.3464057290801
 31
0.0
 11
194.6392454198504
 21
15.3464057290801
 31
0.0
 11
194.724093695937
 21
15.3464057290801
 31
0.0
 11
194.8401107265045
 21
15.3464057290801
 31
0.0
 11
194.9665173418989
 21
15.3464057290801
 31
0.0
 11
195.0825343724663
 21
15.3464057290801
 31
0.0
 11
195.1673826485529
 21
15.3464057290801
 31
0.0
 11
195.2002830005049
 21
15.3464057290801
 31
0.0
 11
195.2002830005049
 21
15.3765001173137
 31
0.0
 11
195.2002830005049
 21
15.45715307777974
 31
0.0
 11
195.2002830005049
 21
15.57391930412609
 31
0.0
 11
195.2002830005049
 21
15.71235349000063
 31
0.0
 11
195.2002830005049
 21
15.85801032905124
 31
0.0
 11
195.2002830005049
 21
15.99644451492578
 31
0.0
 11
195.2002830005049
 21
16.11321074127214
 31
0.0
 11
195.2002830005049
 21
16.19386370173817
 31
0.0
 11
195.2002830005049
 21
16.22395808997177
 31
0.0
 11
195.2250405288619
 21
16.22228324219442
 31
0.0
 11
195.284077711867
 21
16.21828937441765
 31
0.0
 11
195.3545414464215
 21
16.21352249997441
 31
0.0
 11
195.4135786294265
 21
16.20952863219765
 31
0.0
 11
195.4383361577835
 21
16.20785378442029
 31
0.0
 11
195.4233067224031
 21
16.1841581420651
 31
0.0
 11
195.3821827564384
 21
16.17047697887404
 31
0.0
 11
195.3821827564384
 21
16.14221664794832
 31
0.0
 11
195.3821827564384
 21
16.0664789610674
 31
0.0
 11
195.3821827564384
 21
15.95682887707561
 31
0.0
 11
195.3821827564384
 21
15.82683135481731
 31
0.0
 11
195.3821827564384
 21
15.69005135313683
 31
0.0
 11
195.3821827564384
 21
15.56005383087853
 31
0.0
 11
195.3821827564384
 21
15.45040374688674
 31
0.0
 11
195.3821827564384
 21
15.37466606000582
 31
0.0
 11
195.3821827564384
 21
15.3464057290801
 31
0.0
 11
195.4149350096116
 21
15.3464057290801
 31
0.0
 11
195.4994013467423
 21
15.3464057290801
 31
0.0
 11
195.6148961342477
 21
15.3464057290801
 31
0.0
 11
195.7407337385446
 21
15.3464057290801
 31
0.0
 11
195.8562285260499
 21
15.3464057290801
 31
0.0
 11
195.9406948631807
 21
15.3464057290801
 31
0.0
 11
195.9734471163539
 21
15.3464057290801
 31
0.0
 11
195.9734471163539
 21
15.31924873038898
 31
0.0
 11
195.9734471163539
 21
15.2595033332685
 31
0.0
 11
195.9734471163539
 21
15.19975793614803
 31
0.0
 11
195.9734471163539
 21
15.17260093745691
 31
0.0
 11
195.9406948631807
 21
15.17260093745691
 31
0.0
 11
195.85622852605
 21
15.17260093745691
 31
0.0
 11
195.7407337385446
 21
15.17260093745691
 31
0.0
 11
195.6148961342477
 21
15.17260093745691
 31
0.0
 11
195.4994013467423
 21
15.17260093745691
 31
0.0
 11
195.4149350096116
 21
15.17260093745691
 31
0.0
 11
195.3821827564384
 21
15.17260093745691
 31
0.0
 11
195.3821827564384
 21
15.14016305607613
 31
0.0
 11
195.3821827564384
 21
15.05211737804258
 31
0.0
 11
195.3821827564384
 21
14.92236585251945
 31
0.0
 11
195.3821827564384
 21
14.76481042866994
 31
0.0
 11
195.3821827564384
 21
14.59335305565724
 31
0.0
 11
195.3821827564384
 21
14.42189568264454
 31
0.0
 11
195.3821827564384
 21
14.26434025879503
 31
0.0
 11
195.3821827564384
 21
14.1345887332719
 31
0.0
 11
195.3821827564384
 21
14.04654305523835
 31
0.0
 11
195.3821827564384
 21
14.01410517385757
 31
0.0
  0
SPLINE
  5
C2
102
{ACAD_REACTORS
330
DF
102
}
330
48
100
AcDbEntity
  8
_U_30EC_U_30A4_U_30E4_U_30FC_1
  6
Continuous
 62
     2
100
AcDbSpline
210
0.0
220
0.0
230
1.0
 70
     8
 71
     3
 72
    62
 73
    58
 74
    56
 42
0.000000001
 43
0.0000000001
 44
0.00000001
 40
0.0
 40
0.0
 40
0.0
 40
0.0
 40
0.0598250028308485
 40
0.2024846486897331
 40
0.3727558389221031
 40
0.515415484793607
 40
0.5752404975785339
 40
0.9332326775487322
 40
1.290451762839502
 40
1.602077253145945
 40
1.699931634112235
 40
1.799359756425171
 40
2.270120149657207
 40
2.804661928461671
 40
2.882342287383384
 40
3.076543185719235
 40
3.329004354835702
 40
3.581465524568529
 40
3.775666424543816
 40
3.853346784558436
 40
3.899120679595182
 40
3.98412934179218
 40
4.029903236817528
 40
4.105797496059685
 40
4.295533144152644
 40
4.542189486611885
 40
4.788845828875832
 40
4.978581476410218
 40
5.054475735244461
 40
5.621734664339479
 40
6.130867242037429
 40
6.225249780948694
 40
6.318913039727432
 40
6.66357995455905
 40
7.047498900224902
 40
7.43523079157584
 40
7.498943906668252
 40
7.650875181210189
 40
7.832212509001671
 40
7.984143783697057
 40
8.047856898903184
 40
8.09155463273269
 40
8.172707566964347
 40
8.21640530076807
 40
8.289021782160926
 40
8.462184160757271
 40
8.66886183800538
 40
8.842024215263915
 40
8.91464069547511
 40
8.989881580861317
 40
9.15541152882722
 40
9.320941477744
 40
9.39618235248725
 40
9.454709011143796
 40
9.583467660170731
 40
9.71222630901301
 40
9.770752957989464
 40
9.770752957989464
 40
9.770752957989464
 40
9.770752957989464
 10
187.1521871691833
 20
14.93980288195951
 30
0.0
 10
187.1322348171623
 20
14.93980875568673
 30
0.0
 10
187.0647037716466
 20
14.93982863806158
 30
0.0
 10
186.9410612161788
 20
14.93949362520326
 30
0.0
 10
186.7863180150056
 20
14.94107673750513
 30
0.0
 10
186.669734948248
 20
14.93686078860496
 30
0.0
 10
186.4550942634239
 20
14.95215205331627
 30
0.0
 10
186.8518948407228
 20
14.59198721286191
 30
0.0
 10
186.8945656069267
 20
14.37510503397167
 30
0.0
 10
187.3189162146613
 20
14.19325062511443
 30
0.0
 10
187.1439821496074
 20
14.08985196568074
 30
0.0
 10
187.0194523925084
 20
13.87831523212726
 30
0.0
 10
186.7666277235942
 20
14.34806081001562
 30
0.0
 10
186.4797602893628
 20
14.99511516984523
 30
0.0
 10
186.4906335926659
 20
14.68782672154695
 30
0.0
 10
186.488289277796
 20
14.5228861697178
 30
0.0
 10
186.4861096126411
 20
14.28879670711694
 30
0.0
 10
186.4980774396346
 20
14.04498072421783
 30
0.0
 10
186.4687984740631
 20
13.89855796860985
 30
0.0
 10
186.511452262547
 20
13.75113490174538
 30
0.0
 10
186.423981400564
 20
13.7668579730622
 30
0.0
 10
186.3768527606744
 20
13.76694303543455
 30
0.0
 10
186.2898973207713
 20
13.75109425482909
 30
0.0
 10
186.3313474021722
 20
13.89527771422762
 30
0.0
 10
186.3029875004285
 20
14.03855052698456
 30
0.0
 10
186.3145973775299
 20
14.27674947365264
 30
0.0
 10
186.3124175648272
 20
14.50517235240346
 30
0.0
 10
186.3103111127993
 20
14.66705729375994
 30
0.0
 10
186.3208035438325
 20
14.98153709333752
 30
0.0
 10
186.0128963252893
 20
14.2922947087244
 30
0.0
 10
185.7055258267455
 20
13.81476750243055
 30
0.0
 10
185.5851367066275
 20
14.03741112637428
 30
0.0
 10
185.4074607910721
 20
14.15011034955563
 30
0.0
 10
185.8853326362894
 20
14.32548143465462
 30
0.0
 10
185.9353959057208
 20
14.5609192925203
 30
0.0
 10
186.3583799621717
 20
14.95322989344609
 30
0.0
 10
186.127675427354
 20
14.93655307029067
 30
0.0
 10
186.0049685859341
 20
14.94269518948772
 30
0.0
 10
185.8325483095662
 20
14.93312822699575
 30
0.0
 10
185.721322469445
 20
14.95448818489667
 30
0.0
 10
185.6025779627449
 20
14.92136265357421
 30
0.0
 10
185.6183169706686
 20
15.00203900606884
 30
0.0
 10
185.6178550933763
 20
15.04645414290854
 30
0.0
 10
185.6027881889932
 20
15.12967081778534
 30
0.0
 10
185.7372380935444
 20
15.09062651983884
 30
0.0
 10
185.8619755545747
 20
15.11739729328423
 30
0.0
 10
186.062875523728
 20
15.10063949044053
 30
0.0
 10
186.1921540949353
 20
15.12204225913005
 30
0.0
 10
186.3328419928294
 20
15.08868778853421
 30
0.0
 10
186.2980927452615
 20
15.22651875785069
 30
0.0
 10
186.3222185666713
 20
15.34963257349481
 30
0.0
 10
186.2967086182393
 20
15.47024055670336
 30
0.0
 10
186.3333251146684
 20
15.60539865141495
 30
0.0
 10
186.2211417027769
 20
15.58094545781891
 30
0.0
 10
186.1280356457136
 20
15.59307749842022
 30
0.0
 10
186.0191547579819
 20
15.58957630069994
 30
0.0
 10
185.9569697640964
 20
15.58981755951603
 30
0.0
 10
185.9375369557246
 20
15.58989295124144
 30
0.0
 11
187.1521871691833
 21
14.93980288195951
 31
0.0
 11
187.0923621563982
 21
14.93980288195951
 31
0.0
 11
186.949702510526
 21
14.93980288195951
 31
0.0
 11
186.7794313202913
 21
14.93980288195951
 31
0.0
 11
186.6367716744191
 21
14.93980288195951
 31
0.0
 11
186.576946661634
 21
14.93980288195951
 31
0.0
 11
186.7679960754842
 21
14.63705127966891
 31
0.0
 11
186.994127278563
 21
14.36051890576684
 31
0.0
 11
187.2244526173372
 21
14.15061253493457
 31
0.0
 11
187.1521596330704
 21
14.08466403668717
 31
0.0
 11
187.0879364402643
 21
14.00876059052561
 31
0.0
 11
186.7732818215558
 21
14.35891458349363
 31
0.0
 11
186.4886640249976
 21
14.81138295143602
 31
0.0
 11
186.4886640249976
 21
14.73370259137314
 31
0.0
 11
186.4886640249976
 21
14.53950169121594
 31
0.0
 11
186.4886640249976
 21
14.28704052101157
 31
0.0
 11
186.4886640249976
 21
14.03457935080721
 31
0.0
 11
186.4886640249976
 21
13.84037845065
 31
0.0
 11
186.4886640249976
 21
13.76269809058712
 31
0.0
 11
186.4428901295605
 21
13.76269809058712
 31
0.0
 11
186.3578814666058
 21
13.76269809058712
 31
0.0
 11
186.3121075711687
 21
13.76269809058712
 31
0.0
 11
186.3121075711687
 21
13.8385923498274
 31
0.0
 11
186.3121075711687
 21
14.02832799792811
 31
0.0
 11
186.3121075711687
 21
14.27498434045904
 31
0.0
 11
186.3121075711687
 21
14.52164068298996
 31
0.0
 11
186.3121075711687
 21
14.71137633109067
 31
0.0
 11
186.3121075711687
 21
14.78727059033095
 31
0.0
 11
185.9987626399266
 21
14.31440946197693
 31
0.0
 11
185.6352328662149
 21
13.95795177109382
 31
0.0
 11
185.5773927461628
 21
14.03253450545022
 31
0.0
 11
185.5094852305341
 21
14.09704322939243
 31
0.0
 11
185.7750721898319
 21
14.3167221979589
 31
0.0
 11
186.0233764972061
 21
14.60953395971698
 31
0.0
 11
186.226498280526
 21
14.93980288195951
 31
0.0
 11
186.1627851652721
 21
14.93980288195951
 31
0.0
 11
186.0108538904359
 21
14.93980288195951
 31
0.0
 11
185.8295165624056
 21
14.93980288195951
 31
0.0
 11
185.6775852875694
 21
14.93980288195951
 31
0.0
 11
185.6138721723155
 21
14.93980288195951
 31
0.0
 11
185.6138721723155
 21
14.98350061600209
 31
0.0
 11
185.6138721723155
 21
15.0646535506526
 31
0.0
 11
185.6138721723155
 21
15.10835128469518
 31
0.0
 11
185.6864886537962
 21
15.10835128469518
 31
0.0
 11
185.8596510327118
 21
15.10835128469518
 31
0.0
 11
186.0663287107724
 21
15.10835128469518
 31
0.0
 11
186.239491089688
 21
15.10835128469518
 31
0.0
 11
186.3121075711687
 21
15.10835128469518
 31
0.0
 11
186.3121075711687
 21
15.18359217009304
 31
0.0
 11
186.3121075711687
 21
15.34912211796831
 31
0.0
 11
186.3121075711687
 21
15.51465206584359
 31
0.0
 11
186.3121075711687
 21
15.58989295124144
 31
0.0
 11
186.2535809125055
 21
15.58989295124144
 31
0.0
 11
186.1248222634467
 21
15.58989295124144
 31
0.0
 11
185.9960636143877
 21
15.58989295124144
 31
0.0
 11
185.9375369557246
 21
15.58989295124144
 31
0.0
  0
SPLINE
  5
C3
102
{ACAD_REACTORS
330
DF
102
}
330
48
100
AcDbEntity
  8
_U_30EC_U_30A4_U_30E4_U_30FC_1
  6
Continuous
 62
     2
100
AcDbSpline
210
0.0
220
0.0
230
1.0
 70
     8
 71
     3
 72
    70
 73
    66
 74
    64
 42
0.000000001
 43
0.0000000001
 44
0.00000001
 40
0.0
 40
0.0
 40
0.0
 40
0.0
 40
0.0241731073021472
 40
0.0846058988987013
 40
0.1631685280353284
 40
0.2417311571789756
 40
0.3021639488292751
 40
0.3263370654895541
 40
0.3533118254248881
 40
0.4228783438922111
 40
0.5179999095313402
 40
0.6216398239466102
 40
0.7167613891499706
 40
0.7863279069649863
 40
0.8133026791761836
 40
0.8372943998771674
 40
0.8945054261372869
 40
0.9627895541962639
 40
1.020000580349074
 40
1.043992300975172
 40
1.071934345522887
 40
1.113121768772923
 40
1.145225199332248
 40
1.225483775412786
 40
1.329819923771498
 40
1.434156071994388
 40
1.514414647795813
 40
1.546518078208421
 40
1.578974764260195
 40
1.66267884931419
 40
1.777131373668438
 40
1.901833377474858
 40
2.016285900500676
 40
2.099989982528043
 40
2.132446666570402
 40
2.158782354486124
 40
2.216720867907914
 40
2.274659381334338
 40
2.300995069256272
 40
2.333451754066244
 40
2.417155836543953
 40
2.531608358985392
 40
2.656310362283916
 40
2.770762886389048
 40
2.854466971340242
 40
2.886923657364048
 40
2.913597976833482
 40
2.982389642875285
 40
3.076451716947147
 40
3.178937260458759
 40
3.272999334740161
 40
3.34179100105938
 40
3.368465320663693
 40
3.396976080738914
 40
3.47214081184615
 40
3.57840819030884
 40
3.700226892456276
 40
3.822045594634493
 40
3.9283129732566
 40
4.003477705314998
 40
4.031988456867063
 40
4.058324144797862
 40
4.116262658237023
 40
4.174201171400822
 40
4.200536849608755
 40
4.200536849608755
 40
4.200536849608755
 40
4.200536849608755
 10
185.9857704961609
 20
15.75844135397705
 30
0.0
 10
185.9938259544679
 20
15.75844359811686
 30
0.0
 10
186.0220200663241
 20
15.75845146032798
 30
0.0
 10
186.0765534803672
 20
15.75830754828372
 30
0.0
 10
186.1482891808604
 20
15.75909120499898
 30
0.0
 10
186.2236240137062
 20
15.75627570463811
 30
0.0
 10
186.2713052366438
 20
15.76298403400957
 30
0.0
 10
186.3195071245616
 20
15.75197563692433
 30
0.0
 10
186.3062571799873
 20
15.80546402997033
 30
0.0
 10
186.3151093964539
 20
15.86049583543092
 30
0.0
 10
186.3108698036285
 20
15.95419908726109
 30
0.0
 10
186.313348348128
 20
16.04959482218532
 30
0.0
 10
186.309093870606
 20
16.14356821983387
 30
0.0
 10
186.3179818665846
 20
16.19795062438012
 30
0.0
 10
186.3046977409945
 20
16.25233997691461
 30
0.0
 10
186.3514119277109
 20
16.23842216335358
 30
0.0
 10
186.3943254545736
 20
16.24103877374043
 30
0.0
 10
186.4605443456685
 20
16.23648422450755
 30
0.0
 10
186.5013342271798
 20
16.22778162134161
 30
0.0
 10
186.5525145690819
 20
16.23531799890196
 30
0.0
 10
186.5253720487201
 20
16.19349970223283
 30
0.0
 10
186.4803096055706
 20
16.20284992072599
 30
0.0
 10
186.4942065045051
 20
16.13841207371838
 30
0.0
 10
186.4858414431653
 20
16.073782196274
 30
0.0
 10
186.4903632178399
 20
15.97529141193888
 30
0.0
 10
186.4854741311167
 20
15.87595932842571
 30
0.0
 10
186.4950258992081
 20
15.81293115552969
 30
0.0
 10
186.4799761455201
 20
15.74964011499789
 30
0.0
 10
186.5449159457208
 20
15.76515072944269
 30
0.0
 10
186.6116246399497
 20
15.75499387697812
 30
0.0
 10
186.7241435470828
 20
15.75988800099367
 30
0.0
 10
186.8390235448954
 20
15.75691204732784
 30
0.0
 10
186.9519871999747
 20
15.76221664184991
 30
0.0
 10
187.0176267597679
 20
15.7510730647209
 30
0.0
 10
187.0816276691054
 20
15.76744532319857
 30
0.0
 10
187.070314288919
 20
15.71761689905275
 30
0.0
 10
187.0775339871511
 20
15.67416715212123
 30
0.0
 10
187.070314261127
 20
15.63071745587445
 30
0.0
 10
187.0816277175995
 20
15.58088895196876
 30
0.0
 10
187.0176263598972
 20
15.59726166091362
 30
0.0
 10
186.951992124046
 20
15.58611271661587
 30
0.0
 10
186.8389974317332
 20
15.59144857206855
 30
0.0
 10
186.7242456548643
 20
15.58834345663821
 30
0.0
 10
186.6113183686861
 20
15.59364894682589
 30
0.0
 10
186.5455220903584
 20
15.58257300019593
 30
0.0
 10
186.4816097975358
 20
15.59887597847618
 30
0.0
 10
186.4936015165125
 20
15.54423524395741
 30
0.0
 10
186.4862104613006
 20
15.48854295047843
 30
0.0
 10
186.4892684841982
 20
15.39649689140569
 30
0.0
 10
186.4893422785683
 20
15.30179109873102
 30
0.0
 10
186.4860313578359
 20
15.20952782902266
 30
0.0
 10
186.4939505989903
 20
15.1543576873614
 30
0.0
 10
186.4815076611617
 20
15.10058169100137
 30
0.0
 10
186.5389116551632
 20
15.11453768862782
 30
0.0
 10
186.5994708140382
 20
15.10511457884227
 30
0.0
 10
186.7048680855081
 20
15.10942885928705
 30
0.0
 10
186.8204294070622
 20
15.10835504612032
 30
0.0
 10
186.9359688877797
 20
15.10725965900995
 30
0.0
 10
187.0414181130841
 20
15.11162525770633
 30
0.0
 10
187.1018680471803
 20
15.10209426030672
 30
0.0
 10
187.159283773911
 20
15.11617289606381
 30
0.0
 10
187.1477773876709
 20
15.06707153265683
 30
0.0
 10
187.153756678175
 20
15.0256465801865
 30
0.0
 10
187.1520311050801
 20
14.97651677966696
 30
0.0
 10
187.1521500122971
 20
14.94854428447609
 30
0.0
 10
187.1521871691833
 20
14.93980288195951
 30
0.0
 11
185.9857704961609
 21
15.75844135397705
 31
0.0
 11
186.0099436128282
 21
15.75844135397705
 31
0.0
 11
186.0703764044962
 21
15.75844135397705
 31
0.0
 11
186.1489390336648
 21
15.75844135397705
 31
0.0
 11
186.2275016628334
 21
15.75844135397705
 31
0.0
 11
186.2879344545015
 21
15.75844135397705
 31
0.0
 11
186.3121075711687
 21
15.75844135397705
 31
0.0
 11
186.3121075711687
 21
15.78541612620063
 31
0.0
 11
186.3121075711687
 21
15.85498264404039
 31
0.0
 11
186.3121075711687
 21
15.95010420924985
 31
0.0
 11
186.3121075711687
 21
16.05374412358256
 31
0.0
 11
186.3121075711687
 21
16.14886568879202
 31
0.0
 11
186.3121075711687
 21
16.21843220663178
 31
0.0
 11
186.3121075711687
 21
16.24540697885536
 31
0.0
 11
186.3360407604892
 21
16.243732131078
 31
0.0
 11
186.3931122119458
 21
16.23973826330121
 31
0.0
 11
186.461229750781
 21
16.23497138885795
 31
0.0
 11
186.5183012022376
 21
16.23097752108117
 31
0.0
 11
186.5422343915581
 21
16.22930267330381
 31
0.0
 11
186.527497273123
 21
16.2055629337264
 31
0.0
 11
186.4886640249976
 21
16.19183767331313
 31
0.0
 11
186.4886640249976
 21
16.1597342422512
 31
0.0
 11
186.4886640249976
 21
16.07947566459637
 31
0.0
 11
186.4886640249976
 21
15.97513951364509
 31
0.0
 11
186.4886640249976
 21
15.87080336269381
 31
0.0
 11
186.4886640249976
 21
15.79054478503898
 31
0.0
 11
186.4886640249976
 21
15.75844135397705
 31
0.0
 11
186.5211207110824
 21
15.75844135397705
 31
0.0
 11
186.6048247962486
 21
15.75844135397705
 31
0.0
 11
186.7192773208635
 21
15.75844135397705
 31
0.0
 11
186.8439793252946
 21
15.75844135397705
 31
0.0
 11
186.9584318499095
 21
15.75844135397705
 31
0.0
 11
187.0421359350757
 21
15.75844135397705
 31
0.0
 11
187.0745926211605
 21
15.75844135397705
 31
0.0
 11
187.0745926211605
 21
15.73210566604961
 31
0.0
 11
187.0745926211605
 21
15.67416715260924
 31
0.0
 11
187.0745926211605
 21
15.61622863916888
 31
0.0
 11
187.0745926211605
 21
15.58989295124144
 31
0.0
 11
187.0421359350757
 21
15.58989295124144
 31
0.0
 11
186.9584318499095
 21
15.58989295124144
 31
0.0
 11
186.8439793252946
 21
15.58989295124144
 31
0.0
 11
186.7192773208635
 21
15.58989295124144
 31
0.0
 11
186.6048247962486
 21
15.58989295124144
 31
0.0
 11
186.5211207110824
 21
15.58989295124144
 31
0.0
 11
186.4886640249976
 21
15.58989295124144
 31
0.0
 11
186.4886640249976
 21
15.56321863152022
 31
0.0
 11
186.4886640249976
 21
15.49442696487075
 31
0.0
 11
186.4886640249976
 21
15.40036489006434
 31
0.0
 11
186.4886640249976
 21
15.29787934587228
 31
0.0
 11
186.4886640249976
 21
15.20381727106587
 31
0.0
 11
186.4886640249976
 21
15.1350256044164
 31
0.0
 11
186.4886640249976
 21
15.10835128469518
 31
0.0
 11
186.5171747850993
 21
15.10835128469518
 31
0.0
 11
186.5923395162766
 21
15.10835128469518
 31
0.0
 11
186.6986068948376
 21
15.10835128469518
 31
0.0
 11
186.8204255970904
 21
15.10835128469518
 31
0.0
 11
186.9422442993433
 21
15.10835128469518
 31
0.0
 11
187.0485116779043
 21
15.10835128469518
 31
0.0
 11
187.1236764090816
 21
15.10835128469518
 31
0.0
 11
187.1521871691833
 21
15.10835128469518
 31
0.0
 11
187.1521871691833
 21
15.08201559676773
 31
0.0
 11
187.1521871691833
 21
15.02407708332735
 31
0.0
 11
187.1521871691833
 21
14.96613856988696
 31
0.0
 11
187.1521871691833
 21
14.93980288195951
 31
0.0
  0
SPLINE
  5
C4
102
{ACAD_REACTORS
330
DF
102
}
330
48
100
AcDbEntity
  8
_U_30EC_U_30A4_U_30E4_U_30FC_1
  6
Continuous
 62
     2
100
AcDbSpline
210
0.0
220
0.0
230
1.0
 70
     8
 71
     3
 72
    24
 73
    20
 74
    18
 42
0.000000001
 43
0.0000000001
 44
0.00000001
 40
0.0
 40
0.0
 40
0.0
 40
0.0
 40
0.2211075008754132
 40
0.4273218586245875
 40
0.508017467923914
 40
0.5914835907870055
 40
0.8143265690192399
 40
1.05465130268654
 40
1.295452694023134
 40
1.518109231328793
 40
1.540864321905408
 40
1.595126460622669
 40
1.659890947895983
 40
1.714153085187369
 40
1.736908174961641
 40
1.764951100735346
 40
1.801562291220908
 40
1.953914424543591
 40
2.126104167379683
 40
2.126104167379683
 40
2.126104167379683
 40
2.126104167379683
 10
185.937536955689
 20
15.58989295113017
 30
0.0
 10
185.9112579081812
 20
15.53097628234375
 30
0.0
 10
185.8604698894427
 20
15.4171113967926
 30
0.0
 10
185.813178483911
 20
15.14441958233113
 30
0.0
 10
185.7043482802619
 20
15.24445482575456
 30
0.0
 10
185.5514800279638
 20
15.2711859336733
 30
0.0
 10
185.7686155181199
 20
15.48518135017633
 30
0.0
 10
185.7838483674382
 20
15.70332117782489
 30
0.0
 10
185.8906889492
 20
15.88451579066425
 30
0.0
 10
185.8305380947079
 20
16.16913226311403
 30
0.0
 10
185.9334317395403
 20
16.1411408922245
 30
0.0
 10
185.9779933468151
 20
16.13243251602299
 30
0.0
 10
186.0380842395397
 20
16.12139654183354
 30
0.0
 10
186.0756619587439
 20
16.10767523055561
 30
0.0
 10
186.1252466928606
 20
16.1075607616022
 30
0.0
 10
186.0930158919325
 20
16.07306592398625
 30
0.0
 10
186.0171802221882
 20
16.0840410453796
 30
0.0
 10
186.0429447159694
 20
15.89858969582451
 30
0.0
 10
186.005589676385
 20
15.8070231354959
 30
0.0
 10
185.9857704961609
 20
15.75844135397705
 30
0.0
 11
185.937536955689
 21
15.58989295113017
 31
0.0
 11
185.8616471328552
 21
15.3822170831856
 31
0.0
 11
185.7717402238433
 21
15.19663392356192
 31
0.0
 11
185.701149392311
 21
15.23573272563551
 31
0.0
 11
185.6245525192652
 21
15.2688916318772
 31
0.0
 11
185.7214026947456
 21
15.46958801203538
 31
0.0
 11
185.7994641467471
 21
15.69688163177024
 31
0.0
 11
185.8589716929721
 21
15.93021436608691
 31
0.0
 11
185.9001601511227
 21
16.14902808999054
 31
0.0
 11
185.9224183822215
 21
16.14429889221395
 31
0.0
 11
185.9754957025341
 21
16.13302157443899
 31
0.0
 11
186.0388460525845
 21
16.11956154999792
 31
0.0
 11
186.0919233728971
 21
16.10828423222296
 31
0.0
 11
186.1141816039959
 21
16.10355503444637
 31
0.0
 11
186.0964097157461
 21
16.0818625084101
 31
0.0
 11
186.0606122998072
 21
16.07418628445367
 31
0.0
 11
186.028195330148
 21
15.92532288171314
 31
0.0
 11
185.9857704961609
 21
15.75844135397705
 31
0.0
  0
LWPOLYLINE
  5
C5
102
{ACAD_REACTORS
330
E0
102
}
330
48
100
AcDbEntity
  8
_U_30EC_U_30A4_U_30E4_U_30FC_1
  6
Continuous
 62
     2
100
AcDbPolyline
 90
        5
 70
     1
 43
0.0
 10
191.1602971697032
 20
15.39722336795626
 10
192.4578138032672
 20
15.39722336795626
 10
192.4578138032672
 20
15.22875434022058
 10
191.1602971697032
 20
15.22875434022058
 10
191.1602971697032
 20
15.39722336795626
  0
MTEXT
  5
C7
330
48
100
AcDbEntity
  8
1
 62
   250
100
AcDbMText
 10
24.99999999999999
 20
5.0
 30
0.0
 40
3.5
 41
0.0
 71
     4
 72
     1
  1
備考欄の文字列 原点位置=4
  7
CONVERTER_11
 73
     1
 44
0.54545454545455
  0
MTEXT
  5
C8
330
48
100
AcDbEntity
  8
1
 62
     2
100
AcDbMText
 10
89.49999999999997
 20
24.00000000000001
 30
0.0
 40
3.5
 41
0.0
 71
     5
 72
     1
  1
尺度
  7
CONVERTER_11
 73
     1
 44
0.54545454545455
  0
MTEXT
  5
C9
330
48
100
AcDbEntity
  8
1
 62
     2
100
AcDbMText
 10
135.5
 20
25.00000000000001
 30
0.0
 40
3.0
 41
0.0
 71
     5
 72
     1
  1
製図
  7
CONVERTER_11
 73
     1
 44
0.59090909090909
  0
MTEXT
  5
CA
330
48
100
AcDbEntity
  8
1
 62
     2
100
AcDbMText
 10
152.5
 20
25.00000000000001
 30
0.0
 40
3.0
 41
0.0
 71
     5
 72
     1
  1
設計
  7
CONVERTER_11
 73
     1
 44
0.59090909090909
  0
MTEXT
  5
CB
330
48
100
AcDbEntity
  8
1
 62
     2
100
AcDbMText
 10
118.5
 20
25.00000000000001
 30
0.0
 40
3.0
 41
0.0
 71
     5
 72
     1
  1
検図
  7
CONVERTER_11
 73
     1
 44
0.59090909090909
  0
MTEXT
  5
CC
330
48
100
AcDbEntity
  8
1
 62
     2
100
AcDbMText
 10
175.0000000000001
 20
23.50000000000001
 30
0.0
 40
3.5
 41
0.0
 71
     5
 72
     1
  1
第三角法
  7
CONVERTER_11
 73
     1
 44
0.54545454545455
  0
MTEXT
  5
CD
330
48
100
AcDbEntity
  8
1
 62
     2
100
AcDbMText
 10
101.5
 20
25.00000000000001
 30
0.0
 40
3.0
 41
0.0
 71
     5
 72
     1
  1
承認
  7
CONVERTER_11
 73
     1
 44
0.59090909090909
  0
MTEXT
  5
CE
330
48
100
AcDbEntity
  8
1
 62
     2
100
AcDbMText
 10
28.99999999999999
 20
14.25
 30
0.0
 40
3.5
 41
0.0
 71
     5
 72
     1
  1
品番
  7
CONVERTER_11
 73
     1
 44
0.72727272727273
  0
MTEXT
  5
CF
330
48
100
AcDbEntity
  8
1
 62
     2
100
AcDbMText
 10
28.99999999999999
 20
22.75
 30
0.0
 40
3.5
 41
0.0
 71
     5
 72
     1
  1
品名
  7
CONVERTER_11
 73
     1
 44
0.72727272727273
  0
MTEXT
  5
D0
330
48
100
AcDbEntity
  8
1
 62
     2
100
AcDbMText
 10
28.99999999999999
 20
34.00000000000001
 30
0.0
 40
3.5
 41
0.0
 71
     5
 72
     1
  1
備考
  7
CONVERTER_11
 73
     1
 44
0.45454545454545
  0
MTEXT
  5
D1
330
48
100
AcDbEntity
  8
1
 62
     2
100
AcDbMText
 10
32.49999999999999
 20
282.0000000000003
 30
0.0
 40
5.0
 41
0.0
 71
     5
 72
     1
  1
図番
  7
CONVERTER_11
 73
     1
 44
0.45454545454545
  0
HATCH
  5
D2
330
48
100
AcDbEntity
  8
1
  6
Continuous
 62
     2
100
AcDbHatch
 10
0.0
 20
0.0
 30
0.0
210
0.0
220
0.0
230
1.0
  2
CUSTOM0
 70
     0
 71
     1
 91
        1
 92
        1
 93
        1
 72
     4
 94
        3
 73
     0
 74
     0
 95
       99
 96
       95
 40
0.0
 40
0.0
 40
0.0
 40
0.0
 40
0.0796417172272071
 40
0.1621768542355865
 40
0.2486489160956803
 40
0.3404969668523761
 40
0.4381912511164334
 40
0.5434463660244069
 40
0.6518115192846389
 40
0.7530190937886776
 40
0.849219691972484
 40
0.9419290312998121
 40
1.034249663570018
 40
1.129078600620136
 40
1.226697027573181
 40
1.327220425421644
 40
1.470572134937963
 40
1.595489863371168
 40
1.719934125348322
 40
1.850576620127367
 40
1.989059629987255
 40
2.134139054226872
 40
2.280698007207162
 40
2.424529739039433
 40
2.565929576985754
 40
2.708239260773432
 40
2.861717887443564
 40
3.045168540347279
 40
3.183798301138512
 40
3.31481396145534
 40
3.442083470447182
 40
3.569912708372839
 40
3.702177512509287
 40
3.842307559659399
 40
3.992872223245803
 40
4.156750662218192
 40
4.31098186110747
 40
4.445859909322458
 40
4.572393936131506
 40
4.701656719781858
 40
4.768279086008321
 40
4.835960697898275
 40
4.912788918729201
 40
5.006285208481406
 40
5.026909478751483
 40
5.047533749021047
 40
5.101808031471085
 40
5.162325165538356
 40
5.226919745995722
 40
5.294231806596619
 40
5.364544852554743
 40
5.438319055467741
 40
5.517877651324155
 40
5.607647714861467
 40
5.700449642544314
 40
5.788251142364044
 40
5.872714706039655
 40
5.955167292575101
 40
6.037192395190266
 40
6.120669181468998
 40
6.206848616686235
 40
6.296680855416659
 40
6.442558392872483
 40
6.568190371608158
 40
6.692904567360319
 40
6.824220446557076
 40
6.963121850329338
 40
7.107843738851126
 40
7.253431663907183
 40
7.395187468036558
 40
7.533140753237681
 40
7.670550457175161
 40
7.816236511769175
 40
7.987691657359133
 40
8.142277421969156
 40
8.2936626154149
 40
8.442962460879203
 40
8.59159831618525
 40
8.743678992361726
 40
8.903725323699032
 40
9.076307008890408
 40
9.265578604680435
 40
9.459203795360667
 40
9.617619810273371
 40
9.753609671361778
 40
9.874873300004001
 40
9.954520184977694
 40
10.02416413719238
 40
10.09769764405439
 40
10.18909955924966
 40
10.20974586420127
 40
10.23039218263373
 40
10.30057101881262
 40
10.37632012987544
 40
10.37632012987544
 40
10.37632012987544
 40
10.37632012987544
 10
170.1465954835852
 20
14.13795663215994
 10
170.163221785122
 20
14.11720608845312
 10
170.1970784206578
 20
14.07495111711899
 10
170.2599822541036
 20
14.02029811392076
 10
170.3332500940393
 20
13.97299025121048
 10
170.4175969238636
 20
13.93527231437934
 10
170.513224061546
 20
13.91040619731952
 10
170.6171853775346
 20
13.90309559345936
 10
170.7224020220405
 20
13.91142322794055
 10
170.8206626371334
 20
13.94149179651525
 10
170.9058986427548
 20
13.98848822971879
 10
170.9779220206103
 20
14.04952991250856
 10
171.0350917709097
 20
14.12412969578584
 10
171.076786874744
 20
14.21002464660176
 10
171.1026952846292
 20
14.30485850432211
 10
171.1118037332653
 20
14.41854979038367
 10
171.0986864796487
 20
14.54332587770779
 10
171.0325330334414
 20
14.66014719171893
 10
170.9369370919569
 20
14.74512539577375
 10
170.8249681022369
 20
14.81416684459161
 10
170.6993659583269
 20
14.87204142045891
 10
170.5656691620856
 20
14.9237372328434
 10
170.4313122818831
 20
14.97899092397182
 10
170.3051983986877
 20
15.04939770641649
 10
170.1926579987536
 20
15.13785540731251
 10
170.0969963064458
 20
15.24981067868475
 10
170.0334157151826
 20
15.39949910101382
 10
170.0200706505016
 20
15.55932794385143
 10
170.0320510987449
 20
15.71048405306844
 10
170.071229892884
 20
15.83809244591541
 10
170.135498775091
 20
15.95080874030844
 10
170.223820499974
 20
16.04648609268688
 10
170.3338091207627
 20
16.1235421498575
 10
170.4632284401266
 20
16.18151396936279
 10
170.6111838967793
 20
16.21739177588822
 10
170.7682069455487
 20
16.22746719050564
 10
170.917494046643
 20
16.21863637762592
 10
171.059625361417
 20
16.19074899340352
 10
171.1595922609625
 20
16.1341331470114
 10
171.3125074736184
 20
16.08674602105507
 10
171.2455131717169
 20
16.00197553001182
 10
171.2296479120268
 20
15.93438901873487
 10
171.1978750531298
 20
15.86926092793189
 10
171.215020220957
 20
15.76723453256954
 10
171.1666427208232
 20
15.77493211681902
 10
171.1315789440766
 20
15.76806771724808
 10
171.1296697985719
 20
15.83263831158197
 10
171.098569293199
 20
15.87825639621398
 10
171.0664551628456
 20
15.93561036628453
 10
171.0208038475168
 20
15.98540462692559
 10
170.9658508218387
 20
16.02994813718994
 10
170.9010841173009
 20
16.06763988836555
 10
170.8232377310597
 20
16.0928337579135
 10
170.7355160553352
 20
16.09931230998111
 10
170.6452903277806
 20
16.09235709285607
 10
170.5594594694065
 20
16.06909190460923
 10
170.4828343638597
 20
16.03131644107547
 10
170.4165265636202
 20
15.98051641089567
 10
170.3622560536963
 20
15.91731143407215
 10
170.3224925345459
 20
15.84276455710366
 10
170.2976775510588
 20
15.75917313997763
 10
170.2892124262869
 20
15.65192948382285
 10
170.3019697987104
 20
15.52965457267561
 10
170.3681548409273
 20
15.41149724291206
 10
170.4640977399833
 20
15.32606325709533
 10
170.5757914963183
 20
15.25583362306719
 10
170.7010863668704
 20
15.19659162305305
 10
170.8349823941448
 20
15.14616708086132
 10
170.968993033315
 20
15.09322516984384
 10
171.0950885316915
 20
15.02750170625171
 10
171.2076216638417
 20
14.94480352537324
 10
171.3031370284234
 20
14.83996006310075
 10
171.3672706486963
 20
14.69937117251569
 10
171.3811103725279
 20
14.54065409451592
 10
171.367395471223
 20
14.38153155217877
 10
171.3244739153986
 20
14.23483828819207
 10
171.2545906329065
 20
14.10119796587144
 10
171.1574592213829
 20
13.98532387699292
 10
171.0347806023657
 20
13.8908998177009
 10
170.8874408413168
 20
13.8217927065198
 10
170.7177132497125
 20
13.77953210858854
 10
170.5317404979597
 20
13.76781736230408
 10
170.3528955926184
 20
13.77809486683435
 10
170.1881733753744
 20
13.81966573769157
 10
170.0834410841057
 20
13.88797642883942
 10
169.9350960790366
 20
13.93675219032105
 10
169.9980378194729
 20
14.02976591290843
 10
170.0072274430061
 20
14.10296536248279
 10
170.0303711301233
 20
14.16936294501346
 10
170.0034588335317
 20
14.26974809527581
 10
170.0521338956339
 20
14.2623403351738
 10
170.0916530580697
 20
14.26894063620895
 10
170.0996204944703
 20
14.19078703218934
 10
170.1305436967924
 20
14.15600927375857
 10
170.1465954835852
 20
14.13795663215994
 97
        1
330
B4
 75
     1
 76
     2
 52
45.0
 41
0.1
 77
     0
 78
     1
 53
45.0
 43
0.0
 44
0.0
 45
-0.282842712474619
 46
0.0
 79
     0
 98
        1
 10
0.0
 20
0.0
  0
HATCH
  5
D3
330
48
100
AcDbEntity
  8
1
  6
Continuous
 62
     2
100
AcDbHatch
 10
0.0
 20
0.0
 30
0.0
210
0.0
220
0.0
230
1.0
  2
CUSTOM1
 70
     0
 71
     1
 91
        2
 92
        1
 93
        1
 72
     4
 94
        3
 73
     0
 74
     0
 95
       57
 96
       53
 40
0.0
 40
0.0
 40
0.0
 40
0.0
 40
0.0471632082810078
 40
0.0914861054632998
 40
0.1357762519703233
 40
0.1826527001611528
 40
0.2295203288573153
 40
0.2737751972221606
 40
0.3181310461543633
 40
0.3652607198398506
 40
0.4571007286314515
 40
0.5671851029165085
 40
0.6894623283868475
 40
0.8181758272545852
 40
0.9510087229274263
 40
1.085852229674045
 40
1.218126164475313
 40
1.343545131142372
 40
1.454537202956874
 40
1.567187607530883
 40
1.680710966642473
 40
1.794226869736866
 40
1.900009184247609
 40
2.004085860447945
 40
2.108162674451833
 40
2.214000150155292
 40
2.496038577352155
 40
2.762350745479289
 40
2.997275353279401
 40
3.185110082137742
 40
3.246407890063968
 40
3.312607550212586
 40
3.378877742711573
 40
3.440140399651455
 40
4.100501696006484
 40
4.754913085563532
 40
5.41133169342393
 40
6.077890432568709
 40
6.110575292670988
 40
6.143260152775768
 40
6.367989363395161
 40
6.61052537495159
 40
6.86338913646732
 40
7.119380025547638
 40
7.376036605091112
 40
7.631164770966332
 40
7.876722425456443
 40
8.104953735855954
 40
8.312916685924293
 40
8.49773029494133
 40
8.65101898431386
 40
8.764738853624618
 40
8.764738853624618
 40
8.764738853624618
 40
8.764738853624618
 10
174.7922649500514
 20
13.81626739612928
 10
174.7766616726932
 20
13.81826231079079
 10
174.7463947960302
 20
13.82213201360299
 10
174.7010994202252
 20
13.82341984967269
 10
174.6559553129349
 20
13.82308683554051
 10
174.60990171234
 20
13.82314658674225
 10
174.5640496172096
 20
13.82325813650001
 10
174.5183711648165
 20
13.82277833456591
 10
174.4750811541608
 20
13.82461109618722
 10
174.4039947951514
 20
13.80049556814659
 10
174.4057477261441
 20
13.9218469397725
 10
174.3586196370571
 20
14.00726239751237
 10
174.3191478251761
 20
14.12486929345131
 10
174.2706635532647
 20
14.24232752540443
 10
174.2201017402521
 20
14.36405935761505
 10
174.1718634610478
 20
14.49075967862469
 10
174.1135232947595
 20
14.59933687784951
 10
174.0980892667262
 20
14.75620657134413
 10
173.9566586330635
 20
14.72373446548322
 10
173.8508397414904
 20
14.73512888682181
 10
173.7358569725222
 20
14.73392591514615
 10
173.6253142252141
 20
14.73506945347408
 10
173.5176583522783
 20
14.73418350037526
 10
173.4121322529243
 20
14.7341660239052
 10
173.3109192682013
 20
14.72714032472415
 10
173.1266804827754
 20
14.75135859859864
 10
173.1157393685411
 20
14.44741691121887
 10
173.008769163475
 20
14.22353177253399
 10
172.9098148604347
 20
14.03895314292495
 10
172.9225090524008
 20
13.79530204804207
 10
172.8050091716397
 20
13.82508046753197
 10
172.7422055868311
 20
13.82258089509604
 10
172.67858720934
 20
13.82344075102806
 10
172.3946014194076
 20
13.78098039941948
 10
173.0251638499381
 20
14.50081952444784
 10
173.1087645289071
 20
15.01276539435731
 10
173.492925278934
 20
15.53353743550043
 10
173.4777208288563
 20
16.23519626253213
 10
173.7239265722697
 20
16.22345633081256
 10
173.8256346157561
 20
16.23225004452773
 10
173.8249752035818
 20
15.98059650730344
 10
173.9428317155829
 20
15.79818020733962
 10
174.0315515260484
 20
15.55563740662863
 10
174.1322292485261
 20
15.32340030530132
 10
174.2311142712243
 20
15.0867464456691
 10
174.329967699067
 20
14.85461739170096
 10
174.4256166390926
 20
14.63122222788788
 10
174.5159904573271
 20
14.42272549049316
 10
174.5989944568188
 20
14.23308448529317
 10
174.67260885828
 20
14.06663106068104
 10
174.7342815895545
 20
13.92917699626095
 10
174.7749458885604
 20
13.84999239430034
 10
174.7922649500514
 20
13.81626739612928
 97
        1
330
B5
 92
       16
 93
        1
 72
     4
 94
        3
 73
     0
 74
     0
 95
       25
 96
       21
 40
0.0
 40
0.0
 40
0.0
 40
0.0
 40
0.091147996906539
 40
0.1858117896204663
 40
0.2804128399734491
 40
0.371588919071451
 40
0.4679080494218993
 40
0.564268380922923
 40
0.6605683222645559
 40
0.7569653015811106
 40
0.856134817252359
 40
1.092615965104389
 40
1.374867658141983
 40
1.61134881201172
 40
1.710518328425368
 40
1.809403163726687
 40
2.045205463294189
 40
2.326646917622249
 40
2.562449217190711
 40
2.66133404383403
 40
2.66133404383403
 40
2.66133404383403
 40
2.66133404383403
 10
173.2683700567199
 20
14.88614538197292
 10
173.2987525917923
 20
14.88598079714554
 10
173.3606895889112
 20
14.88564528689922
 10
173.4541356960329
 20
14.88269055452001
 10
173.5475095236357
 20
14.8797775287715
 10
173.6417760753476
 20
14.87894201643416
 10
173.7354964790967
 20
14.87996644658047
 10
173.8352040303205
 20
14.87916977470972
 10
173.9188949546312
 20
14.8892141023522
 10
174.0637996315046
 20
14.86234617674164
 10
173.9396132444802
 20
15.0366553028005
 10
173.8965867286282
 20
15.1965171100609
 10
173.780892214221
 20
15.45518458550216
 10
173.7017565431257
 20
15.59231052861857
 10
173.6431576621816
 20
15.80937033134077
 10
173.5864803939438
 20
15.59266134213428
 10
173.5052809900478
 20
15.45327012438236
 10
173.4063701281487
 20
15.20406969370194
 10
173.325362509426
 20
15.01925830226074
 10
173.2813683325838
 20
14.91650446856116
 10
173.2683700567199
 20
14.88614538197292
 97
        1
330
B6
 75
     1
 76
     2
 52
45.0
 41
0.1
 77
     0
 78
     1
 53
45.0
 43
0.0
 44
0.0
 45
-0.282842712474619
 46
0.0
 79
     0
 98
        1
 10
0.0
 20
0.0
  0
HATCH
  5
D4
330
48
100
AcDbEntity
  8
1
  6
Continuous
 62
     2
100
AcDbHatch
 10
0.0
 20
0.0
 30
0.0
210
0.0
220
0.0
230
1.0
  2
CUSTOM2
 70
     0
 71
     1
 91
        1
 92
        1
 93
        1
 72
     4
 94
        3
 73
     0
 74
     0
 95
       95
 96
       91
 40
0.0
 40
0.0
 40
0.0
 40
0.0
 40
0.6550406656912064
 40
1.308087289032009
 40
1.420803739835881
 40
1.566130759770867
 40
1.75706734188854
 40
2.006513545026529
 40
2.087328263121633
 40
2.185328872295709
 40
2.294612454748445
 40
2.408936380534894
 40
2.526802767798641
 40
2.646360524615689
 40
2.762535723971658
 40
2.87005734287023
 40
2.966883448431731
 40
3.050803243518378
 40
3.115818222436688
 40
3.156030057150313
 40
3.213914225080158
 40
3.27668902645053
 40
3.342960320981336
 40
3.404230667150641
 40
3.453822809493457
 40
3.532499827188517
 40
3.634775188507243
 40
3.754909333008243
 40
3.889736761660746
 40
4.035769602175302
 40
4.187256681197685
 40
4.338733685676034
 40
4.488478734676201
 40
4.634708317831663
 40
4.771493189921352
 40
4.892686571561297
 40
5.199775528944533
 40
5.460353566929714
 40
5.667603142345589
 40
5.814722905404565
 40
5.828990806219892
 40
5.85548833630456
 40
5.869756237118892
 40
6.189796507762871
 40
6.531890469873018
 40
6.883053637017012
 40
7.230512024911568
 40
7.566966656764628
 40
7.885203559707495
 40
8.172887439719275
 40
8.418011594062838
 40
8.44392672119076
 40
8.510760470613247
 40
8.602145393795757
 40
8.701714041647199
 40
8.793098965075428
 40
8.859932715058001
 40
8.885847842603651
 40
9.242301256612874
 40
9.58927545501683
 40
9.921808543164232
 40
10.23479624298473
 40
10.2996815088919
 40
10.35323493887772
 40
10.4015462535516
 40
10.46482922477833
 40
10.55973900668413
 40
10.69239545985625
 40
10.84920353475679
 40
11.01626328594787
 40
11.18672024367451
 40
11.35372582577218
 40
11.50257442292434
 40
11.61866495023299
 40
11.71329869152882
 40
11.82511050573914
 40
11.94464880845723
 40
12.06929242642514
 40
12.19707290435183
 40
12.32562632860536
 40
12.45034565331287
 40
12.56646595170335
 40
12.67099007414643
 40
12.7607762593679
 40
12.82703233506702
 40
12.87429132786001
 40
12.8983199032334
 40
12.92234847860028
 40
13.53984767410326
 40
14.18294284359366
 40
14.18294284359366
 40
14.18294284359366
 40
14.18294284359366
 10
177.3067935648022
 20
14.70898038201725
 10
177.1752019758551
 20
14.82265058603232
 10
176.9124193802728
 20
15.04964496316154
 10
176.399739344102
 20
15.89214462956289
 10
176.4106654595362
 20
15.5342337757702
 10
176.4041226527993
 20
15.39267392272133
 10
176.4028026631772
 20
15.19421305299281
 10
176.4018117602538
 20
15.02150296045983
 10
176.4024101751974
 20
14.8786537325758
 10
176.4038994301882
 20
14.78265005413358
 10
176.4055683588473
 20
14.67545503263141
 10
176.4071934954617
 20
14.56164211517582
 10
176.4092429501685
 20
14.44441572604589
 10
176.4123165501927
 20
14.3265641123297
 10
176.4156339697043
 20
14.21228087320621
 10
176.4193605340279
 20
14.10521401867277
 10
176.4217338161426
 20
14.01007408766922
 10
176.4278718888356
 20
13.92558557205694
 10
176.4239784495948
 20
13.86923087298143
 10
176.4455230443077
 20
13.79825022472358
 10
176.3680940058618
 20
13.82902677604483
 10
176.3116353240192
 20
13.82011242517614
 10
176.2540495896808
 20
13.82896218398276
 10
176.1690163478472
 20
13.79738225225944
 10
176.2009714146383
 20
13.8809515599219
 10
176.199070528254
 20
13.94882608968309
 10
176.21079600473
 20
14.05233256764419
 10
176.2164241053001
 20
14.17002125616695
 10
176.2237902178941
 20
14.30388609164423
 10
176.232075970161
 20
14.44764152872632
 10
176.2398851897426
 20
14.59714022843445
 10
176.2457571222658
 20
14.74792549402078
 10
176.2503667817969
 20
14.89699943878437
 10
176.2542632117542
 20
15.04122913163022
 10
176.2570715126564
 20
15.17583905213018
 10
176.2576698755022
 20
15.36469614347355
 10
176.2616023867151
 20
15.58975494313154
 10
176.2442175378497
 20
15.86367091125707
 10
176.2850417342583
 20
16.02787112098597
 10
176.1995153256002
 20
16.22749661465096
 10
176.2660558907689
 20
16.22385458403978
 10
176.2838724273231
 20
16.22413447160854
 10
176.4056801797504
 20
16.22632927398612
 10
176.5080770335462
 20
15.94675118721517
 10
176.7580021509357
 20
15.74563008536002
 10
176.987003533111
 20
15.47792614987913
 10
177.224515121311
 20
15.22646413862382
 10
177.4486090740772
 20
14.98969974061355
 10
177.675071628301
 20
14.73218692583083
 10
177.8325687886515
 20
14.6164933505692
 10
178.0472129612676
 20
14.27997152538793
 10
178.0422645974619
 20
14.40464754091603
 10
178.0433931602547
 20
14.46327691935737
 10
178.0428877841517
 20
14.55043662371977
 10
178.0430475158113
 20
14.64416143182872
 10
178.043005489132
 20
14.73018971297035
 10
178.0430202040373
 20
14.79153891945495
 10
178.0429706255985
 20
14.94135231520993
 10
178.0458811522811
 20
15.17989612510105
 10
178.0259521041163
 20
15.54486509868701
 10
178.0750433936248
 20
15.80799631993414
 10
177.917795150918
 20
16.21928904947751
 10
178.0762112872421
 20
16.16398282551749
 10
178.1311680478629
 20
16.16199686500175
 10
178.182788776674
 20
16.16264778248251
 10
178.2713198965365
 20
16.20369527738245
 10
178.2204898303168
 20
16.05696326622986
 10
178.2313389930284
 20
15.95019971954434
 10
178.2166036994847
 20
15.79085705414113
 10
178.2099976446204
 20
15.62853061652875
 10
178.2014961399916
 20
15.45992521892395
 10
178.19432272022
 20
15.2981481470354
 10
178.1889063215389
 20
15.15422331457933
 10
178.1871713967649
 20
15.03437493466925
 10
178.187544067232
 20
14.92686101590515
 10
178.1873656126263
 20
14.81820024645586
 10
178.187701086314
 20
14.69953570165531
 10
178.1890040622184
 20
14.57555163512741
 10
178.1908887351574
 20
14.44858294171105
 10
178.1925004454852
 20
14.32153861551033
 10
178.1941403137429
 20
14.19854884492177
 10
178.1962570745751
 20
14.08300931383759
 10
178.1963848422363
 20
13.98090903955837
 10
178.2006514396554
 20
13.89009848838156
 10
178.1908440085289
 20
13.83213621208786
 10
178.2118474771689
 20
13.76517130132029
 10
178.1725639739897
 20
13.77291153966688
 10
177.9595307117743
 20
13.75755254145192
 10
177.7636297943188
 20
14.31403058094468
 10
177.4611197631545
 20
14.5755603534851
 10
177.3067935648022
 20
14.70898038201725
 97
        1
330
B7
 75
     1
 76
     2
 52
45.0
 41
0.1
 77
     0
 78
     1
 53
45.0
 43
0.0
 44
0.0
 45
-0.282842712474619
 46
0.0
 79
     0
 98
        1
 10
0.0
 20
0.0
  0
HATCH
  5
D5
330
48
100
AcDbEntity
  8
1
  6
Continuous
 62
     2
100
AcDbHatch
 10
0.0
 20
0.0
 30
0.0
210
0.0
220
0.0
230
1.0
  2
CUSTOM3
 70
     0
 71
     1
 91
        1
 92
        1
 93
        1
 72
     4
 94
        3
 73
     0
 74
     0
 95
      110
 96
      106
 40
0.0
 40
0.0
 40
0.0
 40
0.0
 40
0.2203406257277714
 40
0.4407808782838093
 40
0.595249449461507
 40
0.7488431659393073
 40
0.9023581831309626
 40
1.056801968670404
 40
1.210736449099962
 40
1.363041386539783
 40
1.515315729683126
 40
1.669377239148077
 40
1.721611652756564
 40
1.773199502942947
 40
1.82493379320999
 40
1.877110426487969
 40
1.982682281206732
 40
2.078781667087541
 40
2.172809640822262
 40
2.271937807378916
 40
2.378349933379309
 40
2.494131557736497
 40
2.626681683943603
 40
2.783145050795973
 40
2.890701232940827
 40
2.993130312454725
 40
3.099869730691701
 40
3.220237816691196
 40
3.352695482737491
 40
3.481732806389747
 40
3.593499473690275
 40
3.674323013331792
 40
3.81795171195277
 40
3.946167120793739
 40
4.06140505345351
 40
4.166480796003065
 40
4.26247877505916
 40
4.350736673551059
 40
4.433071991254002
 40
4.511216293814546
 40
4.564262454117863
 40
4.618474415571479
 40
4.670128488754075
 40
4.722296879126281
 40
4.81954094531415
 40
4.931194984128007
 40
5.049996040257649
 40
5.168643755415194
 40
5.283970811762406
 40
5.392260784910118
 40
5.486512254876221
 40
5.559178233949705
 40
5.591425852853383
 40
5.62621596963776
 40
5.667155838674302
 40
5.717449290214113
 40
5.738402360944727
 40
5.784499116553691
 40
5.830595872164663
 40
5.851548942897519
 40
5.873019280661634
 40
5.924217778408181
 40
5.985325662817562
 40
6.036524160567579
 40
6.057994498334109
 40
6.236847789607358
 40
6.381409928945533
 40
6.493190424178564
 40
6.574067534230373
 40
6.691018086205467
 40
6.81488155422047
 40
6.944307823240337
 40
7.071266716065962
 40
7.193488604461806
 40
7.309042773128119
 40
7.414007203170716
 40
7.5051404418865
 40
7.531150360599662
 40
7.559221645322245
 40
7.587202218920901
 40
7.612569159499123
 40
7.662550809480992
 40
7.702878875764123
 40
7.857328205230994
 40
8.010799568088554
 40
8.16525639965759
 40
8.322232698713957
 40
8.479564855016644
 40
8.635216230290848
 40
8.790882550925765
 40
8.948305154947331
 40
9.168271839033014
 40
9.387358980987292
 40
9.608047961033531
 40
9.832914234792725
 40
9.85833869496306
 40
9.925366817230067
 40
10.02013071422765
 40
10.12876249859004
 40
10.23739428295254
 40
10.33215817995196
 40
10.39918630222399
 40
10.42461076239788
 40
10.64992019336948
 40
10.87188524531193
 40
10.87188524531193
 40
10.87188524531193
 40
10.87188524531193
 10
179.9057788376618
 20
15.7392326039819
 10
179.9092864933542
 20
15.80616462073804
 10
179.9163033987663
 20
15.94005891915859
 10
179.8198027599073
 20
16.2254855497147
 10
180.0510134726109
 20
16.16284386190284
 10
180.1919290057156
 20
16.17001554055991
 10
180.3490417757588
 20
16.16235883078245
 10
180.5025913427287
 20
16.16252752283039
 10
180.6545104935082
 20
16.16182040535433
 10
180.8142214813231
 20
16.1721015835164
 10
180.9408972601117
 20
16.1549651108075
 10
181.137082112208
 20
16.22727260107146
 10
181.1034395279078
 20
16.12640699080116
 10
181.1052011317184
 20
16.07619253947671
 10
181.1027342073459
 20
16.02712335586466
 10
181.1347076966011
 20
15.94063490846999
 10
181.0010399903256
 20
15.98997438608338
 10
180.9172208688057
 20
15.98430634314167
 10
180.8173861139324
 20
15.99465516706299
 10
180.7186576720146
 20
16.00086450411086
 10
180.612153277111
 20
16.00697763816779
 10
180.491051169806
 20
16.01588883484585
 10
180.3703381502454
 20
16.00521605912384
 10
180.1812553843437
 20
16.06468503080365
 10
180.2129028505312
 20
15.9055832007754
 10
180.1995563316833
 20
15.80839128339905
 10
180.197495842645
 20
15.69634065110104
 10
180.1958188044671
 20
15.57699685629352
 10
180.1973336794233
 20
15.4503259215511
 10
180.195658247867
 20
15.32301588016118
 10
180.2058844271657
 20
15.22451566404463
 10
180.1779006596583
 20
15.0838870262563
 10
180.3508029999306
 20
15.13989551134094
 10
180.4645020202771
 20
15.12719951478499
 10
180.5840151672239
 20
15.13448377051254
 10
180.6888491425071
 20
15.13878017056755
 10
180.7843084898612
 20
15.14330568258976
 10
180.8763823507033
 20
15.151492011462
 10
180.9476551782439
 20
15.14643850638111
 10
181.0544931705685
 20
15.18536425031672
 10
181.0226603598036
 20
15.10517122005879
 10
181.0266164503929
 20
15.05562936846034
 10
181.0234502392013
 20
15.00557478039819
 10
181.0550791490585
 20
14.92128847612022
 10
180.9210133677692
 20
14.97425365495158
 10
180.82923227932
 20
14.96540080890442
 10
180.7079729189603
 20
14.97570049965155
 10
180.5914113119771
 20
14.97748911767502
 10
180.4783375745879
 20
14.97787017109695
 10
180.3679246308471
 20
14.9841544947218
 10
180.2898124067841
 20
14.97189133255365
 10
180.1913625833644
 20
15.00453887616129
 10
180.2012355173561
 20
14.94769748054207
 10
180.1973923244403
 20
14.91392130557984
 10
180.1966789884268
 20
14.87119604709412
 10
180.1963369642974
 20
14.83401607262154
 10
180.1963834255345
 20
14.79487237370771
 10
180.1963649429927
 20
14.75716849497686
 10
180.1963703431806
 20
14.71944955232403
 10
180.1963697214201
 20
14.6899432474515
 10
180.1963698151545
 20
14.65873577699302
 10
180.1963704287921
 20
14.61414424908085
 10
180.1963671499336
 20
14.55963956508851
 10
180.1963759623481
 20
14.51505540201448
 10
180.1963359653417
 20
14.4311780858574
 10
180.1976024270255
 20
14.31737520677678
 10
180.1950274117842
 20
14.16830395933709
 10
180.2065009381719
 20
14.06597203813905
 10
180.1823506222263
 20
13.93338903885833
 10
180.3332993946477
 20
13.97895732272022
 10
180.4428436671556
 20
13.96427012162349
 10
180.573397047392
 20
13.96920435125064
 10
180.6990312209514
 20
13.97257705323362
 10
180.81887306256
 20
13.97711497498773
 10
180.9391362611427
 20
13.99048536182004
 10
181.0222761663516
 20
13.98068712782598
 10
181.1456080421076
 20
14.0412621462332
 10
181.1244269203956
 20
13.98532460134021
 10
181.1235950270117
 20
13.95939249372348
 10
181.1218963707559
 20
13.93197256190939
 10
181.1217974888831
 20
13.89738195206386
 10
181.1203659301329
 20
13.86050408220767
 10
181.1532804192192
 20
13.76846841021807
 10
180.9551306988108
 20
13.8413201597483
 10
180.8300548294891
 20
13.81825726508607
 10
180.6673071295156
 20
13.82454021985787
 10
180.5129366450001
 20
13.82260943909927
 10
180.3566670436944
 20
13.82393762599268
 10
180.1970544465282
 20
13.82059872487863
 10
180.0540326342237
 20
13.83265795728241
 10
179.8197144881628
 20
13.76952001976919
 10
179.9173810751196
 20
14.05620527466318
 10
179.9006868780059
 20
14.24988308142661
 10
179.9146296709685
 20
14.47848242880295
 10
179.9142987846632
 20
14.63384593955049
 10
179.9143078119263
 20
14.73966336444125
 10
179.9143055876316
 20
14.80205784124214
 10
179.9143065551888
 20
14.89220425248327
 10
179.9143065473261
 20
14.99621167157438
 10
179.9143053861102
 20
15.10022131375296
 10
179.9143090971502
 20
15.19036243688768
 10
179.9143011051051
 20
15.25276803097215
 10
179.9143334275018
 20
15.35868835961119
 10
179.9131440788319
 20
15.5162671654474
 10
179.9082216489256
 20
15.66528219822066
 10
179.9057788376618
 20
15.7392326039819
 97
        1
330
B8
 75
     1
 76
     2
 52
45.0
 41
0.1
 77
     0
 78
     1
 53
45.0
 43
0.0
 44
0.0
 45
-0.282842712474619
 46
0.0
 79
     0
 98
        1
 10
0.0
 20
0.0
  0
HATCH
  5
D6
330
48
100
AcDbEntity
  8
1
  6
Continuous
 62
     2
100
AcDbHatch
 10
0.0
 20
0.0
 30
0.0
210
0.0
220
0.0
230
1.0
  2
CUSTOM4
 70
     0
 71
     1
 91
        1
 92
        1
 93
        1
 72
     4
 94
        3
 73
     0
 74
     0
 95
       47
 96
       43
 40
0.0
 40
0.0
 40
0.0
 40
0.0
 40
0.2207912809957225
 40
0.4459404186303044
 40
0.4902387190459258
 40
0.5327473892723051
 40
0.574226045122581
 40
0.615543263056082
 40
0.6568164066316308
 40
0.6982511618781515
 40
0.7407663929317456
 40
0.7851366743175235
 40
1.010288833836319
 40
1.231080507002173
 40
1.451765243652396
 40
1.676638205891687
 40
1.720461045359656
 40
1.830018144043519
 40
1.972442372353149
 40
2.114866600677516
 40
2.224423699395137
 40
2.268246538883378
 40
2.493628801207215
 40
2.715602830286618
 40
2.934211330706366
 40
3.149502369855355
 40
3.231387784850944
 40
3.318231873854036
 40
3.405143198198024
 40
3.48697030172046
 40
3.7022581724939
 40
3.920866283534122
 40
4.142839325931917
 40
4.368221903865384
 40
4.412044743359863
 40
4.521601842095877
 40
4.664026070452354
 40
4.80645029880906
 40
4.916007397546752
 40
4.959830237043074
 40
5.184703515847114
 40
5.405387250767482
 40
5.405387250767482
 40
5.405387250767482
 40
5.405387250767482
 10
182.6507427258645
 20
15.73406440953872
 10
182.6568139420003
 20
15.79758482501211
 10
182.6690762107243
 20
15.92587938689626
 10
182.5604706879413
 20
16.20166220174078
 10
182.6761985896604
 20
16.17188133432052
 10
182.7171842509016
 20
16.16765556262822
 10
182.7591205797518
 20
16.16310446389607
 10
182.800419662571
 20
16.16201982929485
 10
182.8417032115556
 20
16.16310338195227
 10
182.8836148270648
 20
16.16766112711343
 10
182.9245983549019
 20
16.17187430209729
 10
183.0404922843489
 20
16.20177611317533
 10
182.9295652727456
 20
15.92339806609889
 10
182.9574856365267
 20
15.74283140824953
 10
182.9404267346969
 20
15.50961042346472
 10
182.9414637282102
 20
15.34906622543145
 10
182.9414099399405
 20
15.22284817558722
 10
182.941427737248
 20
15.12428963336241
 10
182.941418858108
 20
14.99280702442963
 10
182.9414263928034
 20
14.86132844968651
 10
182.9414129405128
 20
14.76276222694091
 10
182.9414531717492
 20
14.63639735624153
 10
182.9406746403816
 20
14.4748206882287
 10
182.9565958319267
 20
14.24361821892915
 10
182.9333468885407
 20
14.05874351972002
 10
183.0360183444366
 20
13.78935602770058
 10
182.8820238362836
 20
13.82660112685818
 10
182.8004129802832
 20
13.82137994680535
 10
182.7188192292582
 20
13.82660620378351
 10
182.5648513666843
 20
13.78937069885387
 10
182.6674183421918
 20
14.05875129862879
 10
182.6442045316088
 20
14.24361585325416
 10
182.6600444655139
 20
14.47482218565638
 10
182.6593296313426
 20
14.63639712308504
 10
182.6593664569907
 20
14.76276231210521
 10
182.659354900027
 20
14.86132756635982
 10
182.6593575019214
 20
14.9928112741722
 10
182.6593648531779
 20
15.124275480312
 10
182.6593442541351
 20
15.22287786275325
 10
182.6594082192028
 20
15.34896149354428
 10
182.6581733947589
 20
15.51210091383771
 10
182.6532040396745
 20
15.6605418377755
 10
182.6507427258645
 20
15.73406440953872
 97
        1
330
B9
 75
     1
 76
     2
 52
45.0
 41
0.1
 77
     0
 78
     1
 53
45.0
 43
0.0
 44
0.0
 45
-0.282842712474619
 46
0.0
 79
     0
 98
        1
 10
0.0
 20
0.0
  0
HATCH
  5
D7
330
48
100
AcDbEntity
  8
1
  6
Continuous
 62
     2
100
AcDbHatch
 10
0.0
 20
0.0
 30
0.0
210
0.0
220
0.0
230
1.0
  2
CUSTOM5
 70
     0
 71
     1
 91
        1
 92
        1
 93
        1
 72
     4
 94
        3
 73
     0
 74
     0
 95
      118
 96
      114
 40
0.0
 40
0.0
 40
0.0
 40
0.0
 40
0.105470816297377
 40
0.2466098270052285
 40
0.3965912874591623
 40
0.5285525069754188
 40
0.6156245055642688
 40
0.6431434105798001
 40
0.7036850037986874
 40
0.764226598450544
 40
0.7917455052355912
 40
0.9287404319990514
 40
1.106572819088131
 40
1.287544879681131
 40
1.317578308030648
 40
1.399928030857286
 40
1.522968204800061
 40
1.675072986590682
 40
1.844616533180759
 40
2.019973001638823
 40
2.189516548880136
 40
2.341621331585474
 40
2.46466150632061
 40
2.547011229647174
 40
2.577044658168138
 40
2.603797890893209
 40
2.662655002908896
 40
2.721512114949708
 40
2.748265347702887
 40
2.774215307344964
 40
2.845959313407294
 40
2.954338556588493
 40
3.09019422758567
 40
3.244367517100633
 40
3.407699615844394
 40
3.571031714539544
 40
3.72520500392022
 40
3.86106067472972
 40
3.969439917716413
 40
4.041183923629085
 40
4.067133883213078
 40
4.311886746012261
 40
4.547897258335623
 40
4.764747083044051
 40
4.952749679951823
 40
5.045772974195936
 40
5.137862019645084
 40
5.33054316979313
 40
5.553448265244119
 40
5.795083855888277
 40
6.043293412177342
 40
6.285761695541293
 40
6.313902908752777
 40
6.384255941793366
 40
6.475714884766926
 40
6.56717382775896
 40
6.637526860839738
 40
6.665668074074073
 40
6.692018920328049
 40
6.749990782071118
 40
6.807962643790487
 40
6.83431349001796
 40
6.856393084245239
 40
6.913335195649863
 40
6.991194817302498
 40
7.076026942283759
 40
7.153886563725221
 40
7.210828674844775
 40
7.23290826893111
 40
7.258199334923631
 40
7.324875781592279
 40
7.419142481924935
 40
7.527204308841874
 40
7.635266135230449
 40
7.729532834168431
 40
7.796209279292754
 40
7.8215003445947
 40
7.844652988850799
 40
7.899863140541577
 40
7.965759128053772
 40
8.020969279771114
 40
8.04412192404658
 40
8.069356610160728
 40
8.109134395441497
 40
8.13223810019121
 40
8.193147867786571
 40
8.279261678876747
 40
8.377977512673962
 40
8.476693347146746
 40
8.562807160411797
 40
8.623716930826584
 40
8.646820636853537
 40
8.67198879377435
 40
8.734909185828261
 40
8.816705695188976
 40
8.898502204815546
 40
8.961422597378007
 40
8.98659075455112
 40
9.012941600733274
 40
9.07091346238036
 40
9.128885324081855
 40
9.155236170325177
 40
9.18040432792922
 40
9.243324721948293
 40
9.325121234212085
 40
9.40691774663774
 40
9.469838141978196
 40
9.49500628827097
 40
9.517811184379111
 40
9.57219209048711
 40
9.637098333281342
 40
9.691479239515541
 40
9.71428412564358
 40
9.71428412564358
 40
9.71428412564358
 40
9.71428412564358
 10
185.2874469028653
 20
15.2688916318772
 10
185.3090990569037
 20
15.24111869242812
 10
185.3597257109474
 20
15.17618054561238
 10
185.4349383202592
 20
15.06891060312898
 10
185.5248482274346
 20
14.95377438266627
 10
185.5709169676673
 20
14.85357045748316
 10
185.6655825294656
 20
14.78434006814945
 10
185.6204439320413
 20
14.73771639678274
 10
185.594704778579
 20
14.6966030886604
 10
185.5645196708012
 20
14.6606597172794
 10
185.5193684730561
 20
14.58579782596096
 10
185.4710504458563
 20
14.80782524253608
 10
185.3968539713073
 20
14.84510677337707
 10
185.2836047324606
 20
15.11610202130599
 10
185.288513357817
 20
15.00095328446229
 10
185.2868486556306
 20
14.92836675781627
 10
185.2876830076714
 20
14.80625588483986
 10
185.2873609540264
 20
14.6591380081046
 10
185.2875076912456
 20
14.49307063956557
 10
185.2872950092722
 20
14.32187554608602
 10
185.2879497252034
 20
14.15552828635498
 10
185.2859192461139
 20
14.00935173055693
 10
185.291346039993
 20
13.8847104747461
 10
185.2804930868708
 20
13.81718656540626
 10
185.2956739155555
 20
13.75549061417022
 10
185.2457895108133
 20
13.76727503897002
 10
185.2017150342522
 20
13.75943822779969
 10
185.15823716302
 20
13.76760441372703
 10
185.1092346786489
 20
13.75538056738468
 10
185.1218731234824
 20
13.80960667249313
 10
185.113018296845
 20
13.86936918907557
 10
185.1175058770314
 20
13.97922029044371
 10
185.1157960135991
 20
14.11029975405679
 10
185.1163550915986
 20
14.26198011444328
 10
185.1161928768694
 20
14.42211074929953
 10
185.1162269924675
 20
14.58236865674566
 10
185.1162514960127
 20
14.73370247520439
 10
185.1161453543225
 20
14.86582156338601
 10
185.1164299141931
 20
14.97294802533193
 10
185.1158675547568
 20
15.03808619579474
 10
185.1180765083688
 20
15.16618957858675
 10
185.0319435998603
 20
14.79097610391576
 10
184.9555140818499
 20
14.63918193123396
 10
184.8660040767833
 20
14.47766206446308
 10
184.7640413217327
 20
14.20471848820172
 10
184.7187976491039
 20
14.36717346596516
 10
184.610235594167
 20
14.45605432058115
 10
184.7995791751753
 20
14.60549794961412
 10
184.85653405457
 20
14.79749136974925
 10
184.9717520993352
 20
15.02899622906757
 10
184.9940151630132
 20
15.21797259759063
 10
185.177190515214
 20
15.49454089325931
 10
185.0538033597552
 20
15.48698978832095
 10
184.9925684166834
 20
15.48856772366119
 10
184.9081999617064
 20
15.48882592573673
 10
184.8204235085967
 20
15.48544845751206
 10
184.7656768696123
 20
15.49394814982021
 10
184.7104703026025
 20
15.48048561049789
 10
184.7222823035536
 20
15.52931442126765
 10
184.7142496151795
 20
15.5726900489671
 10
184.7228186104679
 20
15.61509438309574
 10
184.7102943409158
 20
15.66267796552119
 10
184.7555101538736
 20
15.6526721299511
 10
184.8014815562724
 20
15.65894105174062
 10
184.8777222047711
 20
15.65593561405873
 10
184.9561296131994
 20
15.65770448278542
 10
185.0323992648933
 20
15.65464793981661
 10
185.0783009459474
 20
15.66103971376178
 10
185.12317339654
 20
15.65093822978898
 10
185.1105552275634
 20
15.70157201581899
 10
185.1191936582707
 20
15.7550126188207
 10
185.1152361595443
 20
15.84863255131681
 10
185.1162325068335
 20
15.95112606688924
 10
185.1171927413073
 20
16.05353270248163
 10
185.1133211458005
 20
16.14735929609321
 10
185.1217789814364
 20
16.20036542840353
 10
185.1093075932835
 20
16.25211435651189
 10
185.154210638985
 20
16.23850747226757
 10
185.1955083836772
 20
16.24100480320585
 10
185.2595344281051
 20
16.23648060574487
 10
185.2986111148787
 20
16.2278100304331
 10
185.3476543498743
 20
16.23515102070685
 10
185.322508003059
 20
16.19602896051762
 10
185.2815901333723
 20
16.20563842455808
 10
185.2910109616604
 20
16.1554014816978
 10
185.2855647318746
 20
16.10385945639491
 10
185.2881699601804
 20
16.01959707584522
 10
185.2870102202154
 20
15.92559135583409
 10
185.2883591064231
 20
15.83196865395527
 10
185.2849970101509
 20
15.74679517552224
 10
185.2920959917769
 20
15.69716856072045
 10
185.2812569154545
 20
15.6499369496999
 10
185.3304010225245
 20
15.66201674936852
 10
185.3794877630146
 20
15.65447393363012
 10
185.4573714280641
 20
15.65686070361433
 10
185.5350365172896
 20
15.65899381905416
 10
185.5845393931355
 20
15.65193391922456
 10
185.6344594750639
 20
15.66360151936215
 10
185.6223198516881
 20
15.61540235371394
 10
185.6305838229143
 20
15.57249219801236
 10
185.6223198650783
 20
15.52958201851386
 10
185.6344594549855
 20
15.48138288754865
 10
185.5845395158746
 20
15.49305034471511
 10
185.5350350651203
 20
15.48599202435046
 10
185.4573784382972
 20
15.48811665228604
 10
185.379464386576
 20
15.49053389365761
 10
185.3304500352715
 20
15.48291848194486
 10
185.2813246108943
 20
15.49507952557594
 10
185.291555998857
 20
15.45073013424158
 10
185.2856677678054
 20
15.40925436202913
 10
185.2878788305569
 20
15.34915394315304
 10
185.2874109346146
 20
15.3022578276289
 10
185.2874386992913
 20
15.27650146418197
 10
185.2874469028653
 20
15.2688916318772
 97
        1
330
BA
 75
     1
 76
     2
 52
45.0
 41
0.1
 77
     0
 78
     1
 53
45.0
 43
0.0
 44
0.0
 45
-0.282842712474619
 46
0.0
 79
     0
 98
        1
 10
0.0
 20
0.0
  0
HATCH
  5
D8
330
48
100
AcDbEntity
  8
1
  6
Continuous
 62
     2
100
AcDbHatch
 10
0.0
 20
0.0
 30
0.0
210
0.0
220
0.0
230
1.0
  2
CUSTOM6
 70
     0
 71
     1
 91
        1
 92
        1
 93
        1
 72
     4
 94
        3
 73
     0
 74
     0
 95
       91
 96
       87
 40
0.0
 40
0.0
 40
0.0
 40
0.0
 40
0.0345987051695434
 40
0.1258134969461369
 40
0.2547723404888987
 40
0.4026032099154409
 40
0.5504340793417273
 40
0.6793929228836932
 40
0.7706077146571888
 40
0.8052064287781777
 40
1.124852390615369
 40
1.42740223630897
 40
1.706356627453617
 40
1.955541417875294
 40
2.16948593856644
 40
2.344350786664895
 40
2.480568411562025
 40
2.59044055742902
 40
2.649189927151223
 40
2.749320643306439
 40
2.912632739880142
 40
3.147745656000341
 40
3.244827496385283
 40
3.338490056946825
 40
3.583815413207252
 40
3.761423943238606
 40
3.88695610436277
 40
3.985855451886907
 40
4.091766255337736
 40
4.250186473811929
 40
4.422734315084597
 40
4.628285684838693
 40
4.872093227758537
 40
5.152549652145648
 40
5.464967135837638
 40
5.80320147785255
 40
6.160362988814022
 40
6.193449448276105
 40
6.28417038550176
 40
6.419718138764601
 40
6.58728504638588
 40
6.774063446723765
 40
6.967245678113748
 40
7.154024078817763
 40
7.32159098702612
 40
7.457138740890478
 40
7.547859678556215
 40
7.580946138182775
 40
7.608533084714827
 40
7.669224367077803
 40
7.729915649430019
 40
7.75750259595007
 40
7.790278062553552
 40
7.880146277431022
 40
8.014419963180456
 40
8.180411842397985
 40
8.365434637679455
 40
8.556801071622727
 40
8.74182386683084
 40
8.907815745916407
 40
9.042089431507533
 40
9.131957646249658
 40
9.164733112797235
 40
9.415425063140159
 40
9.66798618095863
 40
9.69416980746277
 40
9.756607686047701
 40
9.831130315322508
 40
9.893568193899915
 40
9.919751820398732
 40
9.950967964690555
 40
9.996421631210666
 40
10.22087981037456
 40
10.44341866197544
 40
10.47847970788856
 40
10.57091337438757
 40
10.70159545461237
 40
10.85140174170365
 40
11.00120802880488
 40
11.13189010907393
 40
11.22432377583018
 40
11.25938480938967
 40
11.28697175596155
 40
11.3476630383593
 40
11.4083543204208
 40
11.43594125892114
 40
11.43594125892114
 40
11.43594125892114
 40
11.43594125892114
 10
190.081811433329
 20
15.55242795125078
 10
190.0702785844941
 20
15.55242790287916
 10
190.0283409445
 20
15.55242773704165
 10
189.9434129719026
 20
15.5524312580091
 10
189.8207688553129
 20
15.55240926435879
 10
189.6791206916994
 20
15.55250801177055
 10
189.537975369849
 20
15.55214686232421
 10
189.4141351317904
 20
15.5532188360909
 10
189.3317217825381
 20
15.55092249091269
 10
189.1727791229694
 20
15.56048569373421
 10
189.3503402353375
 20
15.19785394311371
 10
189.3379739205453
 20
14.95243127723114
 10
189.4064519473865
 20
14.66862501324836
 10
189.469302432097
 20
14.43250999939035
 10
189.5452253431729
 20
14.23326740396129
 10
189.6303189577017
 20
14.07745347451375
 10
189.7244607592936
 20
13.97657857781392
 10
189.8282648207728
 20
13.92465852638966
 10
189.9125872030774
 20
13.97606484379615
 10
189.9351322179452
 20
14.09144544037517
 10
189.9745730975371
 20
14.21885149702382
 10
189.9202919734942
 20
14.53622328086756
 10
190.0451218072473
 20
14.38982180140909
 10
190.2019291513603
 20
14.35795300331167
 10
190.0947720007057
 20
14.12421357767629
 10
190.0808711209867
 20
13.95972776583656
 10
190.0234709467225
 20
13.83130869122485
 10
189.9335020145008
 20
13.76018802352826
 10
189.8095274657878
 20
13.74432324142254
 10
189.6634273196861
 20
13.77993797554173
 10
189.5243894320284
 20
13.90000570500276
 10
189.4102003962145
 20
14.07435682550321
 10
189.3146141301486
 20
14.2994660311124
 10
189.2318652572628
 20
14.56388246006444
 10
189.1807179256411
 20
14.88187933098543
 10
189.077018920734
 20
15.15543728488915
 10
189.204284120852
 20
15.56005818612866
 10
189.0357890623019
 20
15.5511236784968
 10
188.9511995787077
 20
15.55315961418364
 10
188.8189876387628
 20
15.55213937388407
 10
188.6560505094104
 20
15.5525323031843
 10
188.4733759170534
 20
15.55235696313369
 10
188.2847057373383
 20
15.55260105307469
 10
188.101446902019
 20
15.55185657906238
 10
187.9404746832719
 20
15.55416360522426
 10
187.8029808335276
 20
15.54799804883663
 10
187.7289590372312
 20
15.56032838458213
 10
187.6613215186857
 20
15.54329323723556
 10
187.6732373719271
 20
15.59524438447529
 10
187.6655677285694
 20
15.64071424966529
 10
187.6732592225117
 20
15.68614453703706
 10
187.6613141797762
 20
15.73802395984571
 10
187.7283588305868
 20
15.72119143490264
 10
187.8017375665677
 20
15.73335409092671
 10
187.9379128305273
 20
15.72727231074958
 10
188.0973811801513
 20
15.72954834315058
 10
188.2789173085837
 20
15.72881233998961
 10
188.465803486218
 20
15.72905954196134
 10
188.6468012316836
 20
15.72886400799254
 10
188.8080802578879
 20
15.72932234714839
 10
188.9393882124888
 20
15.72812673751205
 10
189.0225051322597
 20
15.73051347319743
 10
189.1556236547816
 20
15.72230605725463
 10
189.0645893502658
 20
15.97752868952655
 10
188.978963307442
 20
16.24164358328247
 10
189.0990589003456
 20
16.22904442969166
 10
189.1514264948544
 20
16.22694235763076
 10
189.2214497569715
 20
16.22535399889657
 10
189.2671922337818
 20
16.21602567538113
 10
189.3220812646933
 20
16.22545966915427
 10
189.2963574785681
 20
16.17733028655174
 10
189.1825397571452
 20
16.18266829744168
 10
189.3159346621136
 20
15.95449174576777
 10
189.1943658735471
 20
15.72156856595923
 10
189.3223188769413
 20
15.73087258884439
 10
189.4049048406461
 20
15.7280100175468
 10
189.5307214850824
 20
15.72923437412302
 10
189.6741469838059
 20
15.72932431888964
 10
189.8157420951728
 20
15.72746163183853
 10
189.9459127249969
 20
15.73333075937162
 10
190.0193452286191
 20
15.72070340823204
 10
190.0891112922097
 20
15.73877563110413
 10
190.0775772605397
 20
15.68612850546326
 10
190.0833184346682
 20
15.64221317686547
 10
190.0816615770912
 20
15.5908998267655
 10
190.081775756167
 20
15.56158792021635
 10
190.081811433329
 20
15.55242795125078
 97
        1
330
BB
 75
     1
 76
     2
 52
45.0
 41
0.1
 77
     0
 78
     1
 53
45.0
 43
0.0
 44
0.0
 45
-0.282842712474619
 46
0.0
 79
     0
 98
        1
 10
0.0
 20
0.0
  0
HATCH
  5
D9
330
48
100
AcDbEntity
  8
1
  6
Continuous
 62
     2
100
AcDbHatch
 10
0.0
 20
0.0
 30
0.0
210
0.0
220
0.0
230
1.0
  2
CUSTOM7
 70
     0
 71
     1
 91
        1
 92
        1
 93
        1
 72
     4
 94
        3
 73
     0
 74
     0
 95
       75
 96
       71
 40
0.0
 40
0.0
 40
0.0
 40
0.0
 40
0.0342546099129691
 40
0.1245622414432346
 40
0.2522385480897518
 40
0.398599192294068
 40
0.5449598364980821
 40
0.6726361431438816
 40
0.762943774673696
 40
0.7971983935297973
 40
1.101723623449605
 40
1.40859124403658
 40
1.433332471690284
 40
1.487763172450079
 40
1.542193873081904
 40
1.566935100592452
 40
1.92352393182171
 40
2.271755704953538
 40
2.590579755100779
 40
2.858943305581064
 40
2.889120339309084
 40
2.918305855191036
 40
2.941366645531159
 40
2.996357760973053
 40
3.061992318140601
 40
3.116983433626802
 40
3.140044223997481
 40
3.411273122936401
 40
3.732441619741066
 40
3.761068217532764
 40
3.837787499630326
 40
3.948858699125966
 40
4.080541049104341
 40
4.219093782625724
 40
4.350776132722275
 40
4.46184733240561
 40
4.538566614678341
 40
4.567193212544589
 40
4.594907573998847
 40
4.666381453557386
 40
4.764111044010968
 40
4.870592538125771
 40
4.968322128642165
 40
5.039796008286879
 40
5.067510369784309
 40
5.094263603185522
 40
5.153120716668155
 40
5.211977830150597
 40
5.238731063551602
 40
5.272290535138869
 40
5.363380529444673
 40
5.497618415781379
 40
5.660621563453593
 40
5.838007341749294
 40
6.015393119910674
 40
6.178396267038271
 40
6.312634151842251
 40
6.40372414305924
 40
6.437283612672336
 40
6.464036846260952
 40
6.522893960004565
 40
6.581751071483825
 40
6.608504301590771
 40
6.637253941280918
 40
6.711397748902798
 40
6.812778057283382
 40
6.923237199249159
 40
7.024617507623774
 40
7.098761315207455
 40
7.127510946007406
 40
7.127510946007406
 40
7.127510946007406
 40
7.127510946007406
 10
188.4418622390565
 20
14.95849128473265
 10
188.4418622819707
 20
14.9470731340872
 10
188.441862448113
 20
14.9055525784263
 10
188.4418593081787
 20
14.82146922003772
 10
188.4418788279801
 20
14.70004497322329
 10
188.4417912187738
 20
14.55980494047449
 10
188.4421116235231
 20
14.42006556794577
 10
188.4411605909741
 20
14.29745038894929
 10
188.4431978595968
 20
14.21587074438044
 10
188.4349433178746
 20
14.062712670777
 10
188.7430797940901
 20
14.22560236054722
 10
189.0350645173736
 20
14.39482938688003
 10
189.0408354448707
 20
14.25973235781911
 10
189.0455471719891
 20
14.21617221160445
 10
189.0482535411918
 20
14.17211249350546
 10
189.0672545672958
 20
14.02272590363135
 10
188.6583942247303
 20
14.08681172241261
 10
188.3793710348832
 20
13.97296341411017
 10
188.1018081587167
 20
13.87364095811142
 10
187.8099837184399
 20
13.91630687596356
 10
187.7869144678658
 20
13.81321679744542
 10
187.7537474383333
 20
13.78691091244469
 10
187.7480653962739
 20
13.83455309036304
 10
187.7284214559044
 20
13.8718033611507
 10
187.7095089485623
 20
13.93007387847564
 10
187.6942849867708
 20
13.97385201007806
 10
187.6477246372935
 20
14.08759421046312
 10
187.9890897312449
 20
14.05576301120047
 10
188.2679649367389
 20
14.02161435106482
 10
188.2617753034907
 20
14.16913976479653
 10
188.2630935452773
 20
14.24013150908834
 10
188.2624831689948
 20
14.34719767958663
 10
188.2625871570725
 20
14.47398529785999
 10
188.2629987964055
 20
14.60849243496051
 10
188.2613907841968
 20
14.73395549951185
 10
188.2659902567925
 20
14.84505246719118
 10
188.256418650221
 20
14.9076188680069
 10
188.2704001783691
 20
14.96595388295002
 10
188.2147384386704
 20
14.95289710582239
 10
188.1575655197822
 20
14.961363077495
 10
188.0616048925647
 20
14.95729976080637
 10
187.9633767522822
 20
14.95970889852475
 10
187.8672582457561
 20
14.95551600613389
 10
187.8104648525812
 20
14.96429346441164
 10
187.7550356873385
 20
14.95094936850123
 10
187.7670679427918
 20
15.00036910959257
 10
187.7592003173938
 20
15.04393988030396
 10
187.766629556383
 20
15.08830469118526
 10
187.7551930564144
 20
15.13902297763992
 10
187.8232102370134
 20
15.12162460757743
 10
187.8968496879747
 20
15.13417450237189
 10
188.0325064058211
 20
15.12799677011096
 10
188.1884909024526
 20
15.13029203093085
 10
188.3615926358144
 20
15.1294096826253
 10
188.5346942964182
 20
15.13029207142408
 10
188.6906789811218
 20
15.1279966295555
 10
188.8263351889797
 20
15.13417486262431
 10
188.8999756705654
 20
15.12162394218335
 10
188.9679914174724
 20
15.13902373012143
 10
188.9565590885923
 20
15.08830130414555
 10
188.9639539458297
 20
15.04397060811109
 10
188.9562039912271
 20
15.00028307550196
 10
188.9681203741877
 20
14.95063590098478
 10
188.9108170223617
 20
14.96461411338427
 10
188.8520145789773
 20
14.95539755673255
 10
188.75252936332
 20
14.9595226816493
 10
188.6494280098349
 20
14.95822760025888
 10
188.5537846354575
 20
14.95854077077642
 10
188.4857467971616
 20
14.95848776697146
 10
188.4514462213444
 20
14.95849051871657
 10
188.4418622390565
 20
14.95849128473265
 97
        1
330
BC
 75
     1
 76
     2
 52
45.0
 41
0.1
 77
     0
 78
     1
 53
45.0
 43
0.0
 44
0.0
 45
-0.282842712474619
 46
0.0
 79
     0
 98
        1
 10
0.0
 20
0.0
  0
HATCH
  5
DA
330
48
100
AcDbEntity
  8
1
  6
Continuous
 62
     2
100
AcDbHatch
 10
0.0
 20
0.0
 30
0.0
210
0.0
220
0.0
230
1.0
  2
CUSTOM8
 70
     0
 71
     1
 91
        1
 92
        1
 93
        1
 72
     4
 94
        3
 73
     0
 74
     0
 95
       15
 96
       11
 40
0.0
 40
0.0
 40
0.0
 40
0.0
 40
0.2785535985096574
 40
0.5215624748199497
 40
0.6076917376041546
 40
0.6938210001742487
 40
0.9405019146456326
 40
1.221691403489265
 40
1.300471877081182
 40
1.379252341684947
 40
1.379252341684947
 40
1.379252341684947
 40
1.379252341684947
 10
189.5681493630999
 20
16.22930267330381
 10
189.6296017794178
 20
16.17691646592715
 10
189.7446649974112
 20
16.0788287679822
 10
190.0397348497246
 20
15.92889785897221
 10
189.9025147631856
 20
15.84343227515015
 10
189.8041227843778
 20
15.71085785201555
 10
189.713003359065
 20
16.0161698578142
 10
189.3636839480655
 20
16.07967869465375
 10
189.511925837657
 20
16.17896509880878
 10
189.5494081874236
 20
16.21252348402382
 10
189.5681493630999
 20
16.22930267330381
 97
        1
330
BD
 75
     1
 76
     2
 52
45.0
 41
0.1
 77
     0
 78
     1
 53
45.0
 43
0.0
 44
0.0
 45
-0.282842712474619
 46
0.0
 79
     0
 98
        1
 10
0.0
 20
0.0
  0
HATCH
  5
DB
330
48
100
AcDbEntity
  8
1
  6
Continuous
 62
     2
100
AcDbHatch
 10
0.0
 20
0.0
 30
0.0
210
0.0
220
0.0
230
1.0
  2
CUSTOM9
 70
     0
 71
     1
 91
        1
 92
        1
 93
        1
 72
     4
 94
        3
 73
     0
 74
     0
 95
       35
 96
       31
 40
0.0
 40
0.0
 40
0.0
 40
0.0
 40
0.0335231036620645
 40
0.0713218571712011
 40
0.427886668148703
 40
0.8116865841964063
 40
1.198190238000065
 40
1.561379546812692
 40
1.65998317462204
 40
1.759315573807202
 40
2.132719617231065
 40
2.525233363588795
 40
2.910815397779705
 40
3.265244364303295
 40
3.592606723582038
 40
3.964386154603964
 40
4.359942131737784
 40
4.758154118639246
 40
4.843846538699903
 40
4.93665006554317
 40
5.256616602537226
 40
5.581707404415913
 40
5.899719158308049
 40
6.198363494280654
 40
6.466301046615717
 40
6.493895311537039
 40
6.559697020196775
 40
6.63823454344235
 40
6.704036252154074
 40
6.731630508422851
 40
6.731630508422851
 40
6.731630508422851
 40
6.731630508422851
 10
191.9736010568669
 20
16.23463843719134
 10
191.9676006097789
 20
16.22480690542323
 10
191.9548344099157
 20
16.20388988579798
 10
191.7949362006555
 20
16.17127126532693
 10
192.2322025842337
 20
15.88206680336702
 10
192.4345394828262
 20
15.68041138358439
 10
192.6819564267973
 20
15.43749387603276
 10
193.1831513624606
 20
15.36047662757781
 10
193.012556219897
 20
15.21876939174655
 10
192.9383299463202
 20
15.0171036620911
 10
192.6131432248188
 20
15.36956287174725
 10
192.3277741670664
 20
15.53175212559565
 10
192.0337604077658
 20
15.73687130053047
 10
191.8084452691135
 20
16.21827488595456
 10
191.5993085055521
 20
15.75343046609224
 10
191.3207873674834
 20
15.54350952252912
 10
191.0371383177208
 20
15.37424456359984
 10
190.7078639527833
 20
15.00142360907946
 10
190.6277012318224
 20
15.19708014458997
 10
190.4759724909746
 20
15.32491104190603
 10
190.9083395826795
 20
15.40454031765933
 10
191.0962565329765
 20
15.60026634915478
 10
191.3468477420504
 20
15.81632996916754
 10
191.571435047016
 20
15.98190992300061
 10
191.6259775409715
 20
16.26133964636827
 10
191.7494661029011
 20
16.24737950408078
 10
191.8060273344521
 20
16.24521268867647
 10
191.8761870984945
 20
16.2404685988136
 10
191.9333414022105
 20
16.23709429350542
 10
191.9644190320839
 20
16.23519854711119
 10
191.9736010568669
 20
16.23463843719134
 97
        1
330
BE
 75
     1
 76
     2
 52
45.0
 41
0.1
 77
     0
 78
     1
 53
45.0
 43
0.0
 44
0.0
 45
-0.282842712474619
 46
0.0
 79
     0
 98
        1
 10
0.0
 20
0.0
  0
HATCH
  5
DC
330
48
100
AcDbEntity
  8
1
  6
Continuous
 62
     2
100
AcDbHatch
 10
0.0
 20
0.0
 30
0.0
210
0.0
220
0.0
230
1.0
  2
CUSTOM10
 70
     0
 71
     1
 91
        1
 92
        1
 93
        1
 72
     4
 94
        3
 73
     0
 74
     0
 95
       91
 96
       87
 40
0.0
 40
0.0
 40
0.0
 40
0.0
 40
0.0267532254356701
 40
0.0856103386464102
 40
0.1444674521996621
 40
0.1712206856618514
 40
0.2039416005642536
 40
0.2955601971652484
 40
0.4362601844616918
 40
0.616225284450725
 40
0.8256392189704698
 40
1.054685709844411
 40
1.293548478893531
 40
1.532411247938303
 40
1.761457738799568
 40
1.970871673298537
 40
2.150836773256732
 40
2.291536760495593
 40
2.3831553568367
 40
2.41587628410132
 40
2.442629517487965
 40
2.501486630949095
 40
2.560343744424242
 40
2.587096977826515
 40
2.617068194440942
 40
2.699247336756083
 40
2.822032643466396
 40
2.973822353257925
 40
3.143014704823368
 40
3.318007936879947
 40
3.48720028818678
 40
3.63898999754826
 40
3.761775303794759
 40
3.843954445753094
 40
3.87392566222979
 40
3.89081277350055
 40
3.907699884771755
 40
3.937960767857408
 40
3.980983618142384
 40
4.199085915228538
 40
4.439444339237332
 40
4.677588241261004
 40
5.05069831783789
 40
5.448212454763304
 40
5.855291218044886
 40
6.138575438885602
 40
6.417434507584464
 40
6.444551104394146
 40
6.50420761736347
 40
6.563864130314865
 40
6.590980727104458
 40
6.84860946038182
 40
7.109611990668759
 40
7.352910904446424
 40
7.557830220705812
 40
7.587518925913705
 40
7.652834077376123
 40
7.718149228846082
 40
7.74783793406236
 40
7.854880190301377
 40
7.976511257403915
 40
8.369487896592716
 40
8.75751495922401
 40
9.126072419331472
 40
9.460639380392477
 40
9.746695593036161
 40
9.777569943118959
 40
9.807050320932138
 40
9.83037733612927
 40
9.886003295436346
 40
9.952395569430262
 40
10.00802152870661
 40
10.03134854388254
 40
10.21356951009624
 40
10.42203479292907
 40
10.66154556731103
 40
10.91693789564341
 40
11.15832906556601
 40
11.18982674596659
 40
11.27286608520443
 40
11.39026653033385
 40
11.52484752840921
 40
11.65942852648483
 40
11.77682897161519
 40
11.85986831085718
 40
11.89136598230464
 40
11.89136598230464
 40
11.89136598230464
 40
11.89136598230464
 10
190.7027885008196
 20
14.70699600701772
 10
190.7028237765288
 20
14.71587847311985
 10
190.7029366710796
 20
14.74430237047346
 10
190.7012984568489
 20
14.79409639169803
 10
190.7069750292911
 20
14.83657564478154
 10
190.6956928731706
 20
14.88730154856847
 10
190.7632296979031
 20
14.87012900740109
 10
190.83880292107
 20
14.88290227165996
 10
190.9828357056
 20
14.87629729457382
 10
191.1569419185427
 20
14.87888462206466
 10
191.3639599611003
 20
14.87800591955553
 10
191.5894688172378
 20
14.87828207920027
 10
191.8251162293406
 20
14.87818339658662
 10
192.0607640531348
 20
14.87828184412767
 10
192.2862717580626
 20
14.87800678190789
 10
192.4932934632805
 20
14.87888186270735
 10
192.6673888915288
 20
14.87630522678446
 10
192.8114492071986
 20
14.88288290449213
 10
192.8869691915293
 20
14.87016243405604
 10
192.9545776037029
 20
14.88726400191686
 10
192.9430840140676
 20
14.8367478580294
 10
192.9505104581733
 20
14.79253252226501
 10
192.9428838927986
 20
14.7486796650361
 10
192.9546489459425
 20
14.69878374479327
 10
192.8930788491983
 20
14.71393227712512
 10
192.8256791738672
 20
14.70310665350673
 10
192.7013004056221
 20
14.70852031626236
 10
192.555442823657
 20
14.70649205390785
 10
192.3893576440085
 20
14.70715777578387
 10
192.2188412621724
 20
14.70689643521242
 10
192.0519790855388
 20
14.70721553391094
 10
191.9087346827105
 20
14.70635302590762
 10
191.7773313869834
 20
14.70863300482987
 10
191.7239859134656
 20
14.70407704374202
 10
191.6485188456913
 20
14.70999914992876
 10
191.6769075779233
 20
14.70094169343354
 10
191.7033652409543
 20
14.6972591226893
 10
191.6633522907701
 20
14.66654271968277
 10
191.571366369187
 20
14.67667591174628
 10
191.543939620707
 20
14.43032502247788
 10
191.4478793967235
 20
14.27499558764373
 10
191.1917277964473
 20
13.9452541793157
 10
191.7627537732762
 20
14.08430022210451
 10
192.0173656320516
 20
14.08291779973363
 10
192.6279647048618
 20
13.99790569242085
 10
192.3340698578083
 20
14.29685417558204
 10
192.0133304286517
 20
14.44330856901782
 10
192.1313543360434
 20
14.50025540818288
 10
192.1724716466262
 20
14.52420099873351
 10
192.2156812394412
 20
14.54599758811229
 10
192.3174574094451
 20
14.60928721253904
 10
192.4328867625248
 20
14.35147151408779
 10
192.6329591642278
 20
14.21616041113683
 10
192.7269077387229
 20
14.0379279513888
 10
192.9558829746392
 20
13.87997821027051
 10
192.859603184671
 20
13.82915972576299
 10
192.816795976378
 20
13.79881292523054
 10
192.771824352878
 20
13.77466130281461
 10
192.7121720925215
 20
13.72552146747567
 10
192.6789731061324
 20
13.85997475673606
 10
192.5582013350797
 20
14.01594265286582
 10
192.1970976005978
 20
13.88569928059555
 10
191.8385061955541
 20
13.90224694409483
 10
191.457092045008
 20
13.89331229351864
 10
191.1703455282891
 20
13.82882671672411
 10
190.8592055599715
 20
13.94230668192822
 10
190.8268737818789
 20
13.83122259927766
 10
190.7896178253318
 20
13.81196313850011
 10
190.7865737632754
 20
13.85874784087296
 10
190.7679892860607
 20
13.89806853919135
 10
190.7512436616778
 20
13.95765983478232
 10
190.7383730915754
 20
14.00201969871284
 10
190.7042327806427
 20
14.09106331120199
 10
190.9482714457754
 20
14.02181042943771
 10
191.1441394486671
 20
14.00030369057745
 10
191.2395426381278
 20
14.2822648447846
 10
191.2945135769596
 20
14.44363045421126
 10
191.5159619357157
 20
14.71391177589738
 10
191.3849239381216
 20
14.70548446853735
 10
191.3110026555854
 20
14.70779008496969
 10
191.1977459876244
 20
14.70671378321658
 10
191.0694251807484
 20
14.7070763907651
 10
190.9404252030415
 20
14.70697724466086
 10
190.828784094629
 20
14.70699932712572
 10
190.7514663970026
 20
14.7069957918967
 10
190.713287653201
 20
14.70699595845081
 10
190.7027885008196
 20
14.70699600701772
 97
        1
330
BF
 75
     1
 76
     2
 52
45.0
 41
0.1
 77
     0
 78
     1
 53
45.0
 43
0.0
 44
0.0
 45
-0.282842712474619
 46
0.0
 79
     0
 98
        1
 10
0.0
 20
0.0
  0
HATCH
  5
DD
330
48
100
AcDbEntity
  8
1
  6
Continuous
 62
     2
100
AcDbHatch
 10
0.0
 20
0.0
 30
0.0
210
0.0
220
0.0
230
1.0
  2
CUSTOM11
 70
     0
 71
     1
 91
        1
 92
        1
 93
        1
 72
     4
 94
        3
 73
     0
 74
     0
 95
      131
 96
      127
 40
0.0
 40
0.0
 40
0.0
 40
0.0
 40
0.0195577029826156
 40
0.042649053746146
 40
0.2863607575856632
 40
0.5344948436189312
 40
0.7842238845573181
 40
0.8737315789467396
 40
0.9803832810312892
 40
1.092842274517037
 40
1.199761146656796
 40
1.289788768186501
 40
1.351573580786195
 40
1.370727117561424
 40
1.416400936017833
 40
1.470914848355978
 40
1.516588666791767
 40
1.535742203552848
 40
1.634216592293199
 40
1.760283341175037
 40
1.897966686682099
 40
2.031216387368926
 40
2.049689751137919
 40
2.101115601646856
 40
2.179502577739975
 40
2.278859318314089
 40
2.393194462258748
 40
2.516516648383864
 40
2.642834515405993
 40
2.766156701983495
 40
2.880491846754611
 40
2.979848588358653
 40
3.058235565443832
 40
3.109661416668987
 40
3.128134780704162
 40
3.146783742386479
 40
3.19125434331534
 40
3.244332157315999
 40
3.288802758225903
 40
3.307451719895145
 40
3.327717853844759
 40
3.383747753580117
 40
3.468388665924508
 40
3.574487837698817
 40
3.694892515728921
 40
3.822449946852059
 40
3.950007377920449
 40
4.07041205580054
 40
4.176511227368096
 40
4.261152139501542
 40
4.317182039076735
 40
4.337448172964654
 40
4.620011002696259
 40
4.885096638397528
 40
4.945373043518334
 40
5.014107710488629
 40
5.070481727652058
 40
5.319246955636582
 40
5.584812164506053
 40
5.859000912056906
 40
6.133746937542088
 40
6.401732212968891
 40
6.420736683995481
 40
6.472845717451132
 40
6.550702743894059
 40
6.646951193874268
 40
6.754234497930592
 40
6.86519608658737
 40
6.972479390357829
 40
7.068727839771991
 40
7.146584865451
 40
7.198693898189229
 40
7.21769836890537
 40
7.234950401630846
 40
7.276089864269889
 40
7.325191803515996
 40
7.36633126609038
 40
7.38358329876973
 40
7.402779163492107
 40
7.453386443254538
 40
7.52493466644554
 40
7.606953361405879
 40
7.688972056429031
 40
7.760520279784282
 40
7.811127559734524
 40
7.830323424546145
 40
7.847844055299777
 40
7.894799345666816
 40
7.962779392744506
 40
8.043374293560557
 40
8.128174145149465
 40
8.208769044817267
 40
8.27674909037697
 40
8.323704379669536
 40
8.341225010056267
 40
8.358497614800415
 40
8.40167912668662
 40
8.457815092185678
 40
8.513951057728082
 40
8.557132569708038
 40
8.574405174505081
 40
8.602340668616442
 40
8.643455660539981
 40
8.663225271966649
 40
8.715345156564297
 40
8.789031889628635
 40
8.873502045520366
 40
8.957972194323991
 40
9.031658925567886
 40
9.083778811234577
 40
9.103548423003039
 40
9.119550083123576
 40
9.160817522379878
 40
9.217244429110243
 40
9.278724491644729
 40
9.335151398295514
 40
9.376418837357809
 40
9.392420497300597
 40
9.401196302734816
 40
9.41749422938429
 40
9.426270027749563
 40
9.440875075477596
 40
9.475702496998775
 40
9.517270709865937
 40
9.552098131994104
 40
9.566703169884311
 40
9.566703169884311
 40
9.566703169884311
 40
9.566703169884311
 10
194.6170254148479
 20
15.67015871511028
 10
194.6134345093371
 20
15.6645369070216
 10
194.6056039123624
 20
15.65227754419112
 10
194.512996897455
 20
15.61601916040976
 10
194.4887622233246
 20
15.40148444212714
 10
194.3858709845939
 20
15.22197284509708
 10
194.1220492364305
 20
15.03615573798146
 10
194.2845471569179
 20
14.95959336566081
 10
194.3607225760839
 20
14.89856693195443
 10
194.4492171072758
 20
14.83515804544759
 10
194.5389930233111
 20
14.77525634219561
 10
194.5883817636046
 20
14.72102154849208
 10
194.6745708157381
 20
14.69286240541834
 10
194.641126067423
 20
14.65713309652812
 10
194.621467116631
 20
14.62550387991906
 10
194.5919888217882
 20
14.58475872796069
 10
194.5688989446031
 20
14.55504663489643
 10
194.5380205968356
 20
14.50211422668494
 10
194.4729193365741
 20
14.62740334938903
 10
194.3796000122415
 20
14.68213900233934
 10
194.2950636285139
 20
14.73916423939344
 10
194.1722498125742
 20
14.89675287427523
 10
194.1764450847301
 20
14.82035806766837
 10
194.1751478652677
 20
14.77361280161297
 10
194.1758126448076
 20
14.69584785812602
 10
194.1755549986956
 20
14.59902068324423
 10
194.1756431239922
 20
14.4865027907881
 10
194.1756077302281
 20
14.36524085945699
 10
194.1756511758279
 20
14.24086897858962
 10
194.1755199942406
 20
14.11967683631336
 10
194.1759477562046
 20
14.00691148919744
 10
194.174667820231
 20
13.91082913768744
 10
194.1779759851044
 20
13.831138264687
 10
194.1715197740085
 20
13.78815175788784
 10
194.1806208705556
 20
13.74955432372043
 10
194.1447910339935
 20
13.7581088772407
 10
194.1115223815252
 20
13.75342519985446
 10
194.060456257604
 20
13.75351298759784
 10
194.0269723972813
 20
13.75794430283821
 10
193.9907585408754
 20
13.74960793842509
 10
194.0009782568665
 20
13.79145277179284
 10
193.9936487887773
 20
13.83778560820173
 10
193.9973633136103
 20
13.92374831106015
 10
193.9959480554896
 20
14.02605142704849
 10
193.9964105554638
 20
14.14453223931512
 10
193.996277368623
 20
14.26957683153355
 10
193.9963015910045
 20
14.3947582810705
 10
193.9963354925551
 20
14.51286645379058
 10
193.9962060293132
 20
14.61628748709516
 10
193.9965507549081
 20
14.69932036153667
 10
193.995869827869
 20
14.75143368521243
 10
193.9994586600622
 20
14.87912907821361
 10
193.7826171386438
 20
14.58048716819622
 10
193.602135492195
 20
14.35263981511514
 10
193.5490322295612
 20
14.49373443289815
 10
193.520042913315
 20
14.54325767560947
 10
193.4196648062818
 20
14.64641779790101
 10
193.7405127723262
 20
14.72695035023782
 10
193.8689897005429
 20
14.91066283036435
 10
194.0906454325359
 20
15.11931995771763
 10
194.1770224894068
 20
15.29339211228345
 10
194.4549394229074
 20
15.56967051342512
 10
194.3346247839284
 20
15.56534559551115
 10
194.2863197351348
 20
15.56614856202553
 10
194.2102377454905
 20
15.56574582146585
 10
194.116701000975
 20
15.56590275611611
 10
194.0117594788557
 20
15.56582502576224
 10
193.9033887738717
 20
15.56595464378556
 10
193.7981454235897
 20
15.56554393490692
 10
193.7056237819412
 20
15.56682073671592
 10
193.6268130800707
 20
15.5634076653485
 10
193.5839674565379
 20
15.57023350036321
 10
193.5449499586516
 20
15.56065064201124
 10
193.5526365271863
 20
15.59420779565543
 10
193.5485464404312
 20
15.62523550322234
 10
193.5485531368814
 20
15.672365292709
 10
193.5526239724911
 20
15.70340941646779
 10
193.5449495574582
 20
15.73701861635901
 10
193.5834819405495
 20
15.72748410420872
 10
193.624122801448
 20
15.73397435498071
 10
193.6951471850463
 20
15.73100150650254
 10
193.7729318149633
 20
15.73174761399158
 10
193.8507292246474
 20
15.73247814044525
 10
193.9217232089907
 20
15.7295423551416
 10
193.962427979182
 20
15.73595468772952
 10
194.0009853489909
 20
15.72650524176004
 10
193.9927342754928
 20
15.76264692158785
 10
193.9982346669358
 20
15.80129837613226
 10
193.9955754206163
 20
15.86913528561839
 10
193.9965815471532
 20
15.9459164153874
 10
193.9960178018319
 20
16.02849393582757
 10
193.9970714526593
 20
16.10517329229879
 10
193.994267586313
 20
16.173319907767
 10
194.0000702721302
 20
16.21132399809347
 10
193.9915654551159
 20
16.24758448077647
 10
194.0255610233125
 20
16.23755723771853
 10
194.0594575683099
 20
16.24073266813707
 10
194.1126669060346
 20
16.2350896564061
 10
194.1660768574483
 20
16.23434774436425
 10
194.199591464949
 20
16.2281922348298
 10
194.2388086183039
 20
16.23346029773593
 10
194.2120263698492
 20
16.19253380793489
 10
194.1708111001723
 20
16.20371204538111
 10
194.1782641540874
 20
16.15867056192126
 10
194.1742227952184
 20
16.11412278028145
 10
194.176171404964
 20
16.04223572621704
 10
194.1752364849758
 20
15.96168630588771
 10
194.176510719003
 20
15.88173995404995
 10
194.1732043793863
 20
15.80841837083183
 10
194.1802106179961
 20
15.76688643002568
 10
194.1701440380126
 20
15.72752418568113
 10
194.2029814803921
 20
15.73468063430981
 10
194.236457729648
 20
15.73027243137945
 10
194.2915053476019
 20
15.73217943347897
 10
194.3489502595314
 20
15.73185366407288
 10
194.4023026248309
 20
15.73106308733081
 10
194.4398540896638
 20
15.73313959118074
 10
194.4623172523237
 20
15.73022338167109
 10
194.4751678073731
 20
15.73572552644056
 10
194.4858255685888
 20
15.7380111819779
 10
194.4986635650143
 20
15.74494972588052
 10
194.5145991033071
 20
15.72853046313672
 10
194.5410623920891
 20
15.71709122319449
 10
194.5726805253757
 20
15.6964468783519
 10
194.5987255892151
 20
15.68116869628295
 10
194.6128517723973
 20
15.67266976323184
 10
194.6170254148479
 20
15.67015871511028
 97
        1
330
C0
 75
     1
 76
     2
 52
45.0
 41
0.1
 77
     0
 78
     1
 53
45.0
 43
0.0
 44
0.0
 45
-0.282842712474619
 46
0.0
 79
     0
 98
        1
 10
0.0
 20
0.0
  0
HATCH
  5
DE
330
48
100
AcDbEntity
  8
1
  6
Continuous
 62
     2
100
AcDbHatch
 10
0.0
 20
0.0
 30
0.0
210
0.0
220
0.0
230
1.0
  2
CUSTOM12
 70
     0
 71
     1
 91
        1
 92
        1
 93
        1
 72
     4
 94
        3
 73
     0
 74
     0
 95
      124
 96
      120
 40
0.0
 40
0.0
 40
0.0
 40
0.0
 40
0.0278187229624226
 40
0.1011590162383985
 40
0.2048470170590239
 40
0.3237088716558961
 40
0.4425707262522
 40
0.5462587270699263
 40
0.6195990203312082
 40
0.647417752257866
 40
0.6750060736115224
 40
0.7357003855242759
 40
0.7963946998054492
 40
0.8239830245571784
 40
0.8540933811103162
 40
0.9373396629409274
 40
1.063094687343237
 40
1.220731268638075
 40
1.399622220914749
 40
1.589140358637762
 40
1.778658496423843
 40
1.957549448940539
 40
2.115186030873132
 40
2.240941056914465
 40
2.324187341760534
 40
2.354297700109384
 40
2.38188602467189
 40
2.442580338710479
 40
2.503274652750503
 40
2.53086297731461
 40
2.560983949278563
 40
2.640393784452908
 40
2.752662861759132
 40
2.88136156011812
 40
3.010060258455167
 40
3.122329335705371
 40
3.201739170817928
 40
3.231860142753317
 40
3.264298024030373
 40
3.352343701778245
 40
3.482095226868769
 40
3.639650650173031
 40
3.811108022565485
 40
3.982565394927994
 40
4.140120818152575
 40
4.269872343141286
 40
4.357918020802349
 40
4.390355902043978
 40
4.423256253992547
 40
4.508104530073097
 40
4.624121560636865
 40
4.750528176031621
 40
4.866545206602097
 40
4.951393482692082
 40
4.984293834645483
 40
5.011450833242397
 40
5.07119623015218
 40
5.130941627057253
 40
5.158098625648917
 40
5.190998977601608
 40
5.275847253689434
 40
5.391864284256925
 40
5.51827089964847
 40
5.634287930209509
 40
5.719136206288183
 40
5.752036558236099
 40
5.782130946283124
 40
5.862783906229299
 40
5.979550131775166
 40
6.117984316640572
 40
6.263641154588117
 40
6.402075339414323
 40
6.518841564908118
 40
6.599494524815699
 40
6.629588912848937
 40
6.654403028226513
 40
6.713575149488252
 40
6.784199939329569
 40
6.843372060493614
 40
6.86818617580286
 40
6.896246243201906
 40
6.939586233758277
 40
6.967846564564905
 40
7.043584251089843
 40
7.153234334451701
 40
7.283231855734451
 40
7.420011856035485
 40
7.550009376579837
 40
7.659659458835236
 40
7.735397144417229
 40
7.763657474851401
 40
7.796409728011058
 40
7.880876065096333
 40
7.996370852465718
 40
8.122208446418613
 40
8.237703224799207
 40
8.322169562010929
 40
8.354921815205914
 40
8.382078813307695
 40
8.441824209206997
 40
8.501569605240144
 40
8.52872660348572
 40
8.561478856695741
 40
8.645945193877791
 40
8.761439980865331
 40
8.887277580764474
 40
9.002772362000995
 40
9.087238696661187
 40
9.11999094923567
 40
9.152428830613369
 40
9.240474508638584
 40
9.370226034149535
 40
9.527781457984421
 40
9.69923883098141
 40
9.870696203978602
 40
10.02825162781402
 40
10.15800315332564
 40
10.24604883135119
 40
10.27848670378522
 40
10.27848670378522
 40
10.27848670378522
 40
10.27848670378522
 10
195.3821827564384
 20
14.01410517385757
 10
195.3914554737524
 20
14.01410498511274
 10
195.4251744536861
 20
14.01410430876714
 10
195.4934706812466
 20
14.01411807243305
 10
195.592014171158
 20
14.01403224219544
 10
195.7062066464812
 20
14.0144175561225
 10
195.8185894417072
 20
14.01300835897545
 10
195.9214376600118
 20
14.01719117422243
 10
195.980683987485
 20
14.00823089251983
 10
196.0371265937034
 20
14.0216443452606
 10
196.0246255586956
 20
13.97087198613361
 10
196.0329549635704
 20
13.92589320939067
 10
196.0248170841121
 20
13.88056752990488
 10
196.0370529214458
 20
13.82931932408465
 10
195.9747773490334
 20
13.84447955365276
 10
195.9060513026869
 20
13.83359750710742
 10
195.7782756749592
 20
13.83911304747972
 10
195.6262984511644
 20
13.83700851253698
 10
195.4502695972523
 20
13.83771002588473
 10
195.2644431934288
 20
13.83745237531292
 10
195.0786167437176
 20
13.83771005144602
 10
194.9025880142169
 20
13.83700841847731
 10
194.7506104154195
 20
13.83911332229988
 10
194.6228357664555
 20
13.8335968076764
 10
194.5541077836581
 20
13.84448077125942
 10
194.4918349042884
 20
13.82931786684209
 10
194.5040616290018
 20
13.88057510805171
 10
194.4960004462598
 20
13.92582473272425
 10
194.5040675809893
 20
13.97106357955323
 10
194.4918238487084
 20
14.02234176909958
 10
194.5525017120699
 20
14.00749577363134
 10
194.6162810745737
 20
14.01756448170735
 10
194.7277314353503
 20
14.01294644211999
 10
194.8497533443824
 20
14.01413328905469
 10
194.9719538137824
 20
14.01515863900635
 10
195.0829794287392
 20
14.01092475623402
 10
195.1476517413959
 20
14.02018584521739
 10
195.2091162810502
 20
14.00604423049682
 10
195.1930065601337
 20
14.07235527884516
 10
195.2042980327359
 20
14.14447790121977
 10
195.1987400822561
 20
14.27513760888285
 10
195.2008035061691
 20
14.42607323708242
 10
195.2000167127295
 20
14.59335873107886
 10
195.2007845215628
 20
14.76061110332304
 10
195.1988038785629
 20
14.91163289269914
 10
195.2041306156622
 20
15.04206069552996
 10
195.1933101388425
 20
15.11465442605899
 10
195.2090326429876
 20
15.18150469436799
 10
195.143270813249
 20
15.16580512490825
 10
195.0756367830764
 20
15.17609243083996
 10
194.961588529381
 20
15.17113786847122
 10
194.8451242674903
 20
15.17414128030476
 10
194.7306554121477
 20
15.1688030314339
 10
194.6640324657812
 20
15.18001268074826
 10
194.5990769715186
 20
15.16349132665012
 10
194.6107989758707
 20
15.21473720477059
 10
194.6032830189121
 20
15.25950333784091
 10
194.6107989878835
 20
15.30426944897962
 10
194.5990769505347
 20
15.35551536129741
 10
194.66403263392
 20
15.33899381766815
 10
194.7306533339821
 20
15.35020571373943
 10
194.8451352858064
 20
15.34485436710665
 10
194.9615454436963
 20
15.34791188771117
 10
195.0757660174641
 20
15.34278499010708
 10
195.1430150439228
 20
15.35345733355599
 10
195.2083325941439
 20
15.33742082669076
 10
195.1941391448553
 20
15.39949685750053
 10
195.2036059462996
 20
15.46586761628763
 10
195.1990269004085
 20
15.58239972741966
 10
195.2007696555949
 20
15.71426685022376
 10
195.1997551495392
 20
15.85615960150273
 10
195.2017191344372
 20
15.9876905070258
 10
195.1964668553852
 20
16.10524577283002
 10
195.2073408763475
 20
16.16947789001584
 10
195.1919536641854
 20
16.23108802545047
 10
195.2407591537801
 20
16.21702407382112
 10
195.2853995564726
 20
16.21954742075313
 10
195.3538643946741
 20
16.2151279740171
 10
195.3959106169103
 20
16.20613025544035
 10
195.4487544758775
 20
16.21411714866512
 10
195.4207035002015
 20
16.17113917611673
 10
195.3749142248595
 20
16.18259552043836
 10
195.3869539073265
 20
16.12173520005137
 10
195.3796086070643
 20
16.05769299468773
 10
195.3831195826162
 20
15.94909368863911
 10
195.3819806760175
 20
15.82494319144753
 10
195.3819174780263
 20
15.69189719829878
 10
195.3832872966868
 20
15.56797381249555
 10
195.3791638801314
 20
15.45868337849339
 10
195.3877763103565
 20
15.3960858009417
 10
195.3746757454402
 20
15.33740133296365
 10
195.4393884328199
 20
15.35362113810902
 10
195.5060405953157
 20
15.34270260383311
 10
195.6198779541103
 20
15.34793740173756
 10
195.7357259122097
 20
15.34485547516913
 10
195.8496924263281
 20
15.35018259812513
 10
195.9160341018099
 20
15.33904208166542
 10
195.9807188525481
 20
15.35546979593177
 10
195.9689820772722
 20
15.3042592521005
 10
195.9765168063042
 20
15.25950334121001
 10
195.9689820992259
 20
15.21474739010028
 10
195.9807188140737
 20
15.16353690871042
 10
195.9160344075253
 20
15.1799642779422
 10
195.8496886430826
 20
15.16882784447271
 10
195.7357459487013
 20
15.17413115893121
 10
195.6197995623055
 20
15.17114764593545
 10
195.5062756882124
 20
15.17606892268394
 10
195.4389231318805
 20
15.16585087513521
 10
195.3734285122496
 20
15.18145996138817
 10
195.3891713619218
 20
15.11463851827412
 10
195.3783275998215
 20
15.04207057815879
 10
195.3836581629793
 20
14.91162247614417
 10
195.3817136151856
 20
14.76064558185226
 10
195.3823133683214
 20
14.59322243934158
 10
195.3821506559606
 20
14.42656176118372
 10
195.3821895488136
 20
14.27360142921636
 10
195.38218164131
 20
14.14849178985705
 10
195.3821828382745
 20
14.0650789099142
 10
195.3821827716209
 20
14.02491778281976
 10
195.3821827564384
 20
14.01410517385757
 97
        1
330
C1
 75
     1
 76
     2
 52
45.0
 41
0.1
 77
     0
 78
     1
 53
45.0
 43
0.0
 44
0.0
 45
-0.282842712474619
 46
0.0
 79
     0
 98
        1
 10
0.0
 20
0.0
  0
HATCH
  5
DF
330
48
100
AcDbEntity
  8
1
  6
Continuous
 62
     2
100
AcDbHatch
 10
0.0
 20
0.0
 30
0.0
210
0.0
220
0.0
230
1.0
  2
CUSTOM13
 70
     0
 71
     1
 91
        1
 92
        1
 93
        3
 72
     4
 94
        3
 73
     0
 74
     0
 95
       24
 96
       20
 40
0.0
 40
0.0
 40
0.0
 40
0.0
 40
0.2211075008754132
 40
0.4273218586245875
 40
0.508017467923914
 40
0.5914835907870055
 40
0.8143265690192399
 40
1.05465130268654
 40
1.295452694023134
 40
1.518109231328793
 40
1.540864321905408
 40
1.595126460622669
 40
1.659890947895983
 40
1.714153085187369
 40
1.736908174961641
 40
1.764951100735346
 40
1.801562291220908
 40
1.953914424543591
 40
2.126104167379683
 40
2.126104167379683
 40
2.126104167379683
 40
2.126104167379683
 10
185.937536955689
 20
15.58989295113017
 10
185.9112579081812
 20
15.53097628234375
 10
185.8604698894427
 20
15.4171113967926
 10
185.813178483911
 20
15.14441958233113
 10
185.7043482802619
 20
15.24445482575456
 10
185.5514800279638
 20
15.2711859336733
 10
185.7686155181199
 20
15.48518135017633
 10
185.7838483674382
 20
15.70332117782489
 10
185.8906889492
 20
15.88451579066425
 10
185.8305380947079
 20
16.16913226311403
 10
185.9334317395403
 20
16.1411408922245
 10
185.9779933468151
 20
16.13243251602299
 10
186.0380842395397
 20
16.12139654183354
 10
186.0756619587439
 20
16.10767523055561
 10
186.1252466928606
 20
16.1075607616022
 10
186.0930158919325
 20
16.07306592398625
 10
186.0171802221882
 20
16.0840410453796
 10
186.0429447159694
 20
15.89858969582451
 10
186.005589676385
 20
15.8070231354959
 10
185.9857704961609
 20
15.75844135397705
 72
     4
 94
        3
 73
     0
 74
     0
 95
       70
 96
       66
 40
0.0
 40
0.0
 40
0.0
 40
0.0
 40
0.0241731073021472
 40
0.0846058988987013
 40
0.1631685280353284
 40
0.2417311571789756
 40
0.3021639488292751
 40
0.3263370654895541
 40
0.3533118254248881
 40
0.4228783438922111
 40
0.5179999095313402
 40
0.6216398239466102
 40
0.7167613891499706
 40
0.7863279069649863
 40
0.8133026791761836
 40
0.8372943998771674
 40
0.8945054261372869
 40
0.9627895541962639
 40
1.020000580349074
 40
1.043992300975172
 40
1.071934345522887
 40
1.113121768772923
 40
1.145225199332248
 40
1.225483775412786
 40
1.329819923771498
 40
1.434156071994388
 40
1.514414647795813
 40
1.546518078208421
 40
1.578974764260195
 40
1.66267884931419
 40
1.777131373668438
 40
1.901833377474858
 40
2.016285900500676
 40
2.099989982528043
 40
2.132446666570402
 40
2.158782354486124
 40
2.216720867907914
 40
2.274659381334338
 40
2.300995069256272
 40
2.333451754066244
 40
2.417155836543953
 40
2.531608358985392
 40
2.656310362283916
 40
2.770762886389048
 40
2.854466971340242
 40
2.886923657364048
 40
2.913597976833482
 40
2.982389642875285
 40
3.076451716947147
 40
3.178937260458759
 40
3.272999334740161
 40
3.34179100105938
 40
3.368465320663693
 40
3.396976080738914
 40
3.47214081184615
 40
3.57840819030884
 40
3.700226892456276
 40
3.822045594634493
 40
3.9283129732566
 40
4.003477705314998
 40
4.031988456867063
 40
4.058324144797862
 40
4.116262658237023
 40
4.174201171400822
 40
4.200536849608755
 40
4.200536849608755
 40
4.200536849608755
 40
4.200536849608755
 10
185.9857704961609
 20
15.75844135397705
 10
185.9938259544679
 20
15.75844359811686
 10
186.0220200663241
 20
15.75845146032798
 10
186.0765534803672
 20
15.75830754828372
 10
186.1482891808604
 20
15.75909120499898
 10
186.2236240137062
 20
15.75627570463811
 10
186.2713052366438
 20
15.76298403400957
 10
186.3195071245616
 20
15.75197563692433
 10
186.3062571799873
 20
15.80546402997033
 10
186.3151093964539
 20
15.86049583543092
 10
186.3108698036285
 20
15.95419908726109
 10
186.313348348128
 20
16.04959482218532
 10
186.309093870606
 20
16.14356821983387
 10
186.3179818665846
 20
16.19795062438012
 10
186.3046977409945
 20
16.25233997691461
 10
186.3514119277109
 20
16.23842216335358
 10
186.3943254545736
 20
16.24103877374043
 10
186.4605443456685
 20
16.23648422450755
 10
186.5013342271798
 20
16.22778162134161
 10
186.5525145690819
 20
16.23531799890196
 10
186.5253720487201
 20
16.19349970223283
 10
186.4803096055706
 20
16.20284992072599
 10
186.4942065045051
 20
16.13841207371838
 10
186.4858414431653
 20
16.073782196274
 10
186.4903632178399
 20
15.97529141193888
 10
186.4854741311167
 20
15.87595932842571
 10
186.4950258992081
 20
15.81293115552969
 10
186.4799761455201
 20
15.74964011499789
 10
186.5449159457208
 20
15.76515072944269
 10
186.6116246399497
 20
15.75499387697812
 10
186.7241435470828
 20
15.75988800099367
 10
186.8390235448954
 20
15.75691204732784
 10
186.9519871999747
 20
15.76221664184991
 10
187.0176267597679
 20
15.7510730647209
 10
187.0816276691054
 20
15.76744532319857
 10
187.070314288919
 20
15.71761689905275
 10
187.0775339871511
 20
15.67416715212123
 10
187.070314261127
 20
15.63071745587445
 10
187.0816277175995
 20
15.58088895196876
 10
187.0176263598972
 20
15.59726166091362
 10
186.951992124046
 20
15.58611271661587
 10
186.8389974317332
 20
15.59144857206855
 10
186.7242456548643
 20
15.58834345663821
 10
186.6113183686861
 20
15.59364894682589
 10
186.5455220903584
 20
15.58257300019593
 10
186.4816097975358
 20
15.59887597847618
 10
186.4936015165125
 20
15.54423524395741
 10
186.4862104613006
 20
15.48854295047843
 10
186.4892684841982
 20
15.39649689140569
 10
186.4893422785683
 20
15.30179109873102
 10
186.4860313578359
 20
15.20952782902266
 10
186.4939505989903
 20
15.1543576873614
 10
186.4815076611617
 20
15.10058169100137
 10
186.5389116551632
 20
15.11453768862782
 10
186.5994708140382
 20
15.10511457884227
 10
186.7048680855081
 20
15.10942885928705
 10
186.8204294070622
 20
15.10835504612032
 10
186.9359688877797
 20
15.10725965900995
 10
187.0414181130841
 20
15.11162525770633
 10
187.1018680471803
 20
15.10209426030672
 10
187.159283773911
 20
15.11617289606381
 10
187.1477773876709
 20
15.06707153265683
 10
187.153756678175
 20
15.0256465801865
 10
187.1520311050801
 20
14.97651677966696
 10
187.1521500122971
 20
14.94854428447609
 10
187.1521871691833
 20
14.93980288195951
 72
     4
 94
        3
 73
     0
 74
     0
 95
       62
 96
       58
 40
0.0
 40
0.0
 40
0.0
 40
0.0
 40
0.0598250028308485
 40
0.2024846486897331
 40
0.3727558389221031
 40
0.515415484793607
 40
0.5752404975785339
 40
0.9332326775487322
 40
1.290451762839502
 40
1.602077253145945
 40
1.699931634112235
 40
1.799359756425171
 40
2.270120149657207
 40
2.804661928461671
 40
2.882342287383384
 40
3.076543185719235
 40
3.329004354835702
 40
3.581465524568529
 40
3.775666424543816
 40
3.853346784558436
 40
3.899120679595182
 40
3.98412934179218
 40
4.029903236817528
 40
4.105797496059685
 40
4.295533144152644
 40
4.542189486611885
 40
4.788845828875832
 40
4.978581476410218
 40
5.054475735244461
 40
5.621734664339479
 40
6.130867242037429
 40
6.225249780948694
 40
6.318913039727432
 40
6.66357995455905
 40
7.047498900224902
 40
7.43523079157584
 40
7.498943906668252
 40
7.650875181210189
 40
7.832212509001671
 40
7.984143783697057
 40
8.047856898903184
 40
8.09155463273269
 40
8.172707566964347
 40
8.21640530076807
 40
8.289021782160926
 40
8.462184160757271
 40
8.66886183800538
 40
8.842024215263915
 40
8.91464069547511
 40
8.989881580861317
 40
9.15541152882722
 40
9.320941477744
 40
9.39618235248725
 40
9.454709011143796
 40
9.583467660170731
 40
9.71222630901301
 40
9.770752957989464
 40
9.770752957989464
 40
9.770752957989464
 40
9.770752957989464
 10
187.1521871691833
 20
14.93980288195951
 10
187.1322348171623
 20
14.93980875568673
 10
187.0647037716466
 20
14.93982863806158
 10
186.9410612161788
 20
14.93949362520326
 10
186.7863180150056
 20
14.94107673750513
 10
186.669734948248
 20
14.93686078860496
 10
186.4550942634239
 20
14.95215205331627
 10
186.8518948407228
 20
14.59198721286191
 10
186.8945656069267
 20
14.37510503397167
 10
187.3189162146613
 20
14.19325062511443
 10
187.1439821496074
 20
14.08985196568074
 10
187.0194523925084
 20
13.87831523212726
 10
186.7666277235942
 20
14.34806081001562
 10
186.4797602893628
 20
14.99511516984523
 10
186.4906335926659
 20
14.68782672154695
 10
186.488289277796
 20
14.5228861697178
 10
186.4861096126411
 20
14.28879670711694
 10
186.4980774396346
 20
14.04498072421783
 10
186.4687984740631
 20
13.89855796860985
 10
186.511452262547
 20
13.75113490174538
 10
186.423981400564
 20
13.7668579730622
 10
186.3768527606744
 20
13.76694303543455
 10
186.2898973207713
 20
13.75109425482909
 10
186.3313474021722
 20
13.89527771422762
 10
186.3029875004285
 20
14.03855052698456
 10
186.3145973775299
 20
14.27674947365264
 10
186.3124175648272
 20
14.50517235240346
 10
186.3103111127993
 20
14.66705729375994
 10
186.3208035438325
 20
14.98153709333752
 10
186.0128963252893
 20
14.2922947087244
 10
185.7055258267455
 20
13.81476750243055
 10
185.5851367066275
 20
14.03741112637428
 10
185.4074607910721
 20
14.15011034955563
 10
185.8853326362894
 20
14.32548143465462
 10
185.9353959057208
 20
14.5609192925203
 10
186.3583799621717
 20
14.95322989344609
 10
186.127675427354
 20
14.93655307029067
 10
186.0049685859341
 20
14.94269518948772
 10
185.8325483095662
 20
14.93312822699575
 10
185.721322469445
 20
14.95448818489667
 10
185.6025779627449
 20
14.92136265357421
 10
185.6183169706686
 20
15.00203900606884
 10
185.6178550933763
 20
15.04645414290854
 10
185.6027881889932
 20
15.12967081778534
 10
185.7372380935444
 20
15.09062651983884
 10
185.8619755545747
 20
15.11739729328423
 10
186.062875523728
 20
15.10063949044053
 10
186.1921540949353
 20
15.12204225913005
 10
186.3328419928294
 20
15.08868778853421
 10
186.2980927452615
 20
15.22651875785069
 10
186.3222185666713
 20
15.34963257349481
 10
186.2967086182393
 20
15.47024055670336
 10
186.3333251146684
 20
15.60539865141495
 10
186.2211417027769
 20
15.58094545781891
 10
186.1280356457136
 20
15.59307749842022
 10
186.0191547579819
 20
15.58957630069994
 10
185.9569697640964
 20
15.58981755951603
 10
185.9375369557246
 20
15.58989295124144
 97
        3
330
C3
330
C4
330
C2
 75
     1
 76
     2
 52
45.0
 41
0.1
 77
     0
 78
     1
 53
45.0
 43
0.0
 44
0.0
 45
-0.282842712474619
 46
0.0
 79
     0
 98
        1
 10
0.0
 20
0.0
  0
HATCH
  5
E0
330
48
100
AcDbEntity
  8
1
  6
Continuous
 62
     2
100
AcDbHatch
 10
0.0
 20
0.0
 30
0.0
210
0.0
220
0.0
230
1.0
  2
CUSTOM14
 70
     0
 71
     1
 91
        1
 92
        1
 93
        4
 72
     1
 10
192.4578138032672
 20
15.22875434022058
 11
191.1602971697032
 21
15.22875434022058
 72
     1
 10
191.1602971697032
 20
15.22875434022058
 11
191.1602971697032
 21
15.39722336795626
 72
     1
 10
191.1602971697032
 20
15.39722336795626
 11
192.4578138032672
 21
15.39722336795626
 72
     1
 10
192.4578138032672
 20
15.39722336795626
 11
192.4578138032672
 21
15.22875434022058
 97
        1
330
C5
 75
     1
 76
     2
 52
45.0
 41
0.1
 77
     0
 78
     1
 53
45.0
 43
0.0
 44
0.0
 45
-0.282842712474619
 46
0.0
 79
     0
 98
        1
 10
0.0
 20
0.0
  0
ENDBLK
  5
4A
330
48
100
AcDbEntity
  8
0
100
AcDbBlockEnd
  0
BLOCK
  5
4D
330
4B
100
AcDbEntity
  8
0
100
AcDbBlockBegin
  2
開示A4枠
 70
     0
 10
0.0
 20
0.0
 30
0.0
  3
開示A4枠
  1

  0
INSERT
  5
4C
330
4B
100
AcDbEntity
  8
1
100
AcDbBlockReference
  2
開示A4
 10
0.0
 20
0.0
 30
0.0
  0
ENDBLK
  5
4E
330
4B
100
AcDbEntity
  8
0
100
AcDbBlockEnd
  0
BLOCK
  5
50
330
4F
100
AcDbEntity
  8
0
100
AcDbBlockBegin
  2
36-1A-13-M11
 70
     0
 10
-23.65596387160903
 20
43.92307338743191
 30
0.0
  3
36-1A-13-M11
  1

  0
LINE
  5
E1
330
4F
100
AcDbEntity
  8
0
  6
Continuous
 62
     7
100
AcDbLine
 10
110.1806469922
 20
80.42307338743191
 30
0.0
 11
115.4806469922002
 21
80.42307338743191
 31
0.0
  0
LINE
  5
E2
330
4F
100
AcDbEntity
  8
1
  6
Continuous
 62
     7
100
AcDbLine
 10
103.3306469922001
 20
86.37570133159471
 30
0.0
 11
103.3306469922001
 21
92.42307338743191
 31
0.0
  0
LINE
  5
E3
330
4F
100
AcDbEntity
  8
1
  6
Continuous
 62
     7
100
AcDbLine
 10
117.5806469922001
 20
80.72307338743181
 30
0.0
 11
117.5806469922001
 21
85.42307338743191
 31
0.0
  0
LINE
  5
E4
330
4F
100
AcDbEntity
  8
1
  6
Continuous
 62
     7
100
AcDbLine
 10
117.2806469922
 20
80.42307338743191
 30
0.0
 11
117.5806469922001
 21
80.72307338743181
 31
0.0
  0
LINE
  5
E5
330
4F
100
AcDbEntity
  8
1
  6
Continuous
 62
     7
100
AcDbLine
 10
115.4806469922002
 20
80.42307338743191
 30
0.0
 11
117.2806469922
 21
80.42307338743191
 31
0.0
  0
LINE
  5
E6
330
4F
100
AcDbEntity
  8
1
  6
Continuous
 62
     7
100
AcDbLine
 10
108.3806469922
 20
80.42307338743191
 30
0.0
 11
110.1806469922
 21
80.42307338743191
 31
0.0
  0
LINE
  5
E7
330
4F
100
AcDbEntity
  8
1
  6
Continuous
 62
     7
100
AcDbLine
 10
108.0806469922001
 20
80.72307338743181
 30
0.0
 11
108.3806469922
 21
80.42307338743191
 31
0.0
  0
LINE
  5
E8
330
4F
100
AcDbEntity
  8
1
  6
Continuous
 62
     7
100
AcDbLine
 10
108.0806469922001
 20
80.72307338743181
 30
0.0
 11
108.0806469922001
 21
85.42307338743191
 31
0.0
  0
LINE
  5
E9
330
4F
100
AcDbEntity
  8
1
  6
Continuous
 62
     7
100
AcDbLine
 10
122.3306469922001
 20
86.37570133159471
 30
0.0
 11
120.6806469922
 21
86.37570133159471
 31
0.0
  0
LINE
  5
EA
330
4F
100
AcDbEntity
  8
1
  6
Continuous
 62
     7
100
AcDbLine
 10
120.6806469922
 20
85.42307338743191
 30
0.0
 11
122.3306469922001
 21
86.37570133159471
 31
0.0
  0
LINE
  5
EB
330
4F
100
AcDbEntity
  8
1
  6
Continuous
 62
     7
100
AcDbLine
 10
120.2306469922002
 20
85.42307338743191
 30
0.0
 11
117.5806469922001
 21
85.42307338743191
 31
0.0
  0
LINE
  5
EC
330
4F
100
AcDbEntity
  8
1
  6
Continuous
 62
     7
100
AcDbLine
 10
120.2306469922002
 20
85.42307338743191
 30
0.0
 11
120.6806469922
 21
85.42307338743191
 31
0.0
  0
LINE
  5
ED
330
4F
100
AcDbEntity
  8
1
  6
Continuous
 62
     2
100
AcDbLine
 10
120.6806469922
 20
86.37570133159471
 30
0.0
 11
120.6806469922
 21
85.42307338743191
 31
0.0
  0
LINE
  5
EE
330
4F
100
AcDbEntity
  8
1
  6
Continuous
 62
     2
100
AcDbLine
 10
104.9806469922002
 20
86.37570133159471
 30
0.0
 11
104.9806469922002
 21
92.42307338743191
 31
0.0
  0
LINE
  5
EF
330
4F
100
AcDbEntity
  8
1
  6
Continuous
 62
     2
100
AcDbLine
 10
104.9806469922002
 20
85.42307338743191
 30
0.0
 11
104.9806469922002
 21
86.37570133159471
 31
0.0
  0
LINE
  5
F0
330
4F
100
AcDbEntity
  8
1
  6
Continuous
 62
     7
100
AcDbLine
 10
104.9806469922002
 20
85.42307338743191
 30
0.0
 11
105.4306469922
 21
85.42307338743191
 31
0.0
  0
LINE
  5
F1
330
4F
100
AcDbEntity
  8
1
  6
Continuous
 62
     7
100
AcDbLine
 10
108.0806469922001
 20
85.42307338743191
 30
0.0
 11
105.4306469922
 21
85.42307338743191
 31
0.0
  0
LINE
  5
F2
330
4F
100
AcDbEntity
  8
1
  6
Continuous
 62
     7
100
AcDbLine
 10
103.3306469922001
 20
86.37570133159471
 30
0.0
 11
104.9806469922002
 21
85.42307338743191
 31
0.0
  0
LINE
  5
F3
330
4F
100
AcDbEntity
  8
1
  6
Continuous
 62
     7
100
AcDbLine
 10
104.9806469922002
 20
86.37570133159471
 30
0.0
 11
103.3306469922001
 21
86.37570133159471
 31
0.0
  0
LINE
  5
F4
330
4F
100
AcDbEntity
  8
1
  6
Continuous
 62
     2
100
AcDbLine
 10
120.6806469922
 20
92.42307338743191
 30
0.0
 11
120.6806469922
 21
86.37570133159471
 31
0.0
  0
LINE
  5
F5
330
4F
100
AcDbEntity
  8
1
  6
Continuous
 62
     7
100
AcDbLine
 10
122.3306469922001
 20
92.42307338743191
 30
0.0
 11
122.3306469922001
 21
86.37570133159471
 31
0.0
  0
LINE
  5
F6
330
4F
100
AcDbEntity
  8
0
  6
Continuous
 62
     7
100
AcDbLine
 10
104.9806469922002
 20
86.37570133159471
 30
0.0
 11
120.6806469922
 21
86.37570133159471
 31
0.0
  0
LINE
  5
F7
330
4F
100
AcDbEntity
  8
0
  6
Continuous
 62
     7
100
AcDbLine
 10
108.0806469922001
 20
85.42307338743191
 30
0.0
 11
117.5806469922001
 21
85.42307338743191
 31
0.0
  0
LINE
  5
F8
330
4F
100
AcDbEntity
  8
0
  6
Continuous
 62
     7
100
AcDbLine
 10
108.0806469922001
 20
80.72307338743181
 30
0.0
 11
117.5806469922001
 21
80.72307338743181
 31
0.0
  0
ENDBLK
  5
51
330
4F
100
AcDbEntity
  8
0
100
AcDbBlockEnd
  0
BLOCK
  5
53
330
52
100
AcDbEntity
  8
0
100
AcDbBlockBegin
  2
84-34
 70
     0
 10
-30.25921319969845
 20
-2.00042140563994
 30
0.0
  3
84-34
  1

  0
LINE
  5
F9
330
52
100
AcDbEntity
  8
1
  6
Continuous
 62
     7
100
AcDbLine
 10
102.8306469922001
 20
137.2230733874318
 30
0.0
 11
112.8306469922001
 21
137.2230733874318
 31
0.0
  0
LINE
  5
FA
330
52
100
AcDbEntity
  8
1
  6
Continuous
 62
     7
100
AcDbLine
 10
100.3306469922001
 20
135.7230733874318
 30
0.0
 11
100.3306469922001
 21
137.1527327177746
 31
0.0
  0
LINE
  5
FB
330
52
100
AcDbEntity
  8
1
  6
Continuous
 62
     7
100
AcDbLine
 10
112.8306469922001
 20
137.2230733874318
 30
0.0
 11
122.8306469922001
 21
137.2230733874318
 31
0.0
  0
LINE
  5
FC
330
52
100
AcDbEntity
  8
1
  6
Continuous
 62
     7
100
AcDbLine
 10
125.3306469922001
 20
137.1527327177746
 30
0.0
 11
125.3306469922001
 21
135.7230733874318
 31
0.0
  0
ARC
  5
FD
330
52
100
AcDbEntity
  8
1
  6
Continuous
 62
     7
100
AcDbCircle
 10
112.8306469922001
 20
-262.6519070752123
 30
0.0
 40
400.0
100
AcDbArc
 50
91.43254373756652
 51
91.79078465932896
  0
ARC
  5
FE
330
52
100
AcDbEntity
  8
1
  6
Continuous
 62
     7
100
AcDbCircle
 10
112.8306469922001
 20
-262.6519070752123
 30
0.0
 40
400.0
100
AcDbArc
 50
88.20921534067105
 51
88.5674562624335
  0
CIRCLE
  5
FF
330
52
100
AcDbEntity
  8
1
  6
Continuous
 62
     7
100
AcDbCircle
 10
112.8306469922001
 20
196.3569404856974
 30
0.0
 40
12.5
  0
CIRCLE
  5
100
330
52
100
AcDbEntity
  8
1
  6
Continuous
 62
     7
100
AcDbCircle
 10
112.8306469922001
 20
196.3569404856974
 30
0.0
 40
10.0
  0
ENDBLK
  5
54
330
52
100
AcDbEntity
  8
0
100
AcDbBlockEnd
  0
BLOCK
  5
57
330
55
100
AcDbEntity
  8
0
100
AcDbBlockBegin
  2
84-34X-B-I
 70
     0
 10
19.3306469922002
 20
130.2230733874318
 30
0.0
  3
84-34X-B-I
  1

  0
INSERT
  5
56
330
55
100
AcDbEntity
  8
0
100
AcDbBlockReference
  2
84-34
 10
-30.25921319969845
 20
-2.00042140563994
 30
0.0
  0
ENDBLK
  5
58
330
55
100
AcDbEntity
  8
0
100
AcDbBlockEnd
  0
BLOCK
  5
5A
330
59
100
AcDbEntity
  8
0
100
AcDbBlockBegin
  2
81-9
 70
     0
 10
52.83064699220017
 20
85.22307338743181
 30
0.0
  3
81-9
  1

  0
LINE
  5
101
330
59
100
AcDbEntity
  8
1
  6
Continuous
 62
     7
100
AcDbLine
 10
100.0519579104509
 20
177.2335227641712
 30
0.0
 11
99.3691114439219
 21
175.8865457488479
 31
0.0
  0
LINE
  5
102
330
59
100
AcDbEntity
  8
1
  6
Continuous
 62
     7
100
AcDbLine
 10
93.70722927067388
 20
183.5782514039483
 30
0.0
 11
92.36025225535047
 21
182.8954049374192
 31
0.0
  0
LINE
  5
103
330
59
100
AcDbEntity
  8
1
  6
Continuous
 62
     7
100
AcDbLine
 10
131.9540647137263
 20
183.5782514039483
 30
0.0
 11
133.3010417290497
 21
182.8954049374192
 31
0.0
  0
LINE
  5
104
330
59
100
AcDbEntity
  8
1
  6
Continuous
 62
     7
100
AcDbLine
 10
125.6093360739493
 20
177.2335227641712
 30
0.0
 11
126.2921825404784
 21
175.8865457488479
 31
0.0
  0
LINE
  5
105
330
59
100
AcDbEntity
  8
1
  6
Continuous
 62
     7
100
AcDbLine
 10
131.9540647137263
 20
209.1356295674467
 30
0.0
 11
133.3010417290497
 21
209.8184760339758
 31
0.0
  0
LINE
  5
106
330
59
100
AcDbEntity
  8
1
  6
Continuous
 62
     7
100
AcDbLine
 10
93.70722927067388
 20
209.1356295674467
 30
0.0
 11
92.36025225535047
 21
209.8184760339758
 31
0.0
  0
LINE
  5
107
330
59
100
AcDbEntity
  8
1
  6
Continuous
 62
     7
100
AcDbLine
 10
100.0519579104509
 20
215.4803582072238
 30
0.0
 11
99.3691114439219
 21
216.8273352225471
 31
0.0
  0
LINE
  5
108
330
59
100
AcDbEntity
  8
1
  6
Continuous
 62
     7
100
AcDbLine
 10
125.6093360739493
 20
215.4803582072238
 30
0.0
 11
126.2921825404784
 21
216.8273352225471
 31
0.0
  0
LINE
  5
109
330
59
100
AcDbEntity
  8
1
  6
Continuous
 62
     2
100
AcDbLine
 10
132.7550666587919
 20
94.72307338743181
 30
0.0
 11
134.8229359149656
 21
94.72307338743181
 31
0.0
  0
LINE
  5
10A
330
59
100
AcDbEntity
  8
1
  6
Continuous
 62
     7
100
AcDbLine
 10
133.2288997466451
 20
96.72307338743181
 30
0.0
 11
131.9540647137314
 21
130.7230733874318
 31
0.0
  0
LINE
  5
10B
330
59
100
AcDbEntity
  8
1
  6
Continuous
 62
     7
100
AcDbLine
 10
92.90622732560828
 20
94.72307338743181
 30
0.0
 11
125.6093360739542
 21
94.72307338743181
 31
0.0
  0
LINE
  5
10C
330
59
100
AcDbEntity
  8
1
  6
Continuous
 62
     7
100
AcDbLine
 10
131.9540647137314
 20
94.72307338743181
 30
0.0
 11
125.6093360739542
 21
94.72307338743181
 31
0.0
  0
LINE
  5
10D
330
59
100
AcDbEntity
  8
1
  6
Continuous
 62
     7
100
AcDbLine
 10
125.6278648093402
 20
129.7462293872158
 30
0.0
 11
126.2542466256762
 21
96.72307338743181
 31
0.0
  0
LINE
  5
10E
330
59
100
AcDbEntity
  8
1
  6
Continuous
 62
     7
100
AcDbLine
 10
93.70722927066907
 20
94.72307338743181
 30
0.0
 11
92.90622732560828
 21
94.72307338743181
 31
0.0
  0
LINE
  5
10F
330
59
100
AcDbEntity
  8
1
  6
Continuous
 62
     7
100
AcDbLine
 10
93.70722927066907
 20
130.7230733874318
 30
0.0
 11
92.43239423775509
 21
96.72307338743181
 31
0.0
  0
LINE
  5
110
330
59
100
AcDbEntity
  8
1
  6
Continuous
 62
     7
100
AcDbLine
 10
99.40704735872407
 20
96.72307338743181
 30
0.0
 11
100.03342917506
 21
129.7462293872158
 31
0.0
  0
LINE
  5
111
330
59
100
AcDbEntity
  8
1
  6
Continuous
 62
     7
100
AcDbLine
 10
133.3306469922001
 20
135.1520302660368
 30
0.0
 11
134.7536915110758
 21
96.7972266060624
 31
0.0
  0
LINE
  5
112
330
59
100
AcDbEntity
  8
1
  6
Continuous
 62
     7
100
AcDbLine
 10
92.33064699220009
 20
135.1520302660368
 30
0.0
 11
90.90760247332449
 21
96.79722660606241
 31
0.0
  0
LINE
  5
113
330
59
100
AcDbEntity
  8
1
  6
Continuous
 62
     7
100
AcDbLine
 10
112.8306469922001
 20
135.7230733874318
 30
0.0
 11
94.65106526644678
 21
135.7230733874318
 31
0.0
  0
LINE
  5
114
330
59
100
AcDbEntity
  8
1
  6
Continuous
 62
     7
100
AcDbLine
 10
112.8306469922001
 20
135.7230733874318
 30
0.0
 11
131.0102287179536
 21
135.7230733874318
 31
0.0
  0
LINE
  5
115
330
59
100
AcDbEntity
  8
1
  6
Continuous
 62
     7
100
AcDbLine
 10
132.7550666587919
 20
94.72307338743181
 30
0.0
 11
131.9540647137314
 21
94.72307338743181
 31
0.0
  0
ARC
  5
116
330
59
100
AcDbEntity
  8
1
  6
Continuous
 62
     7
100
AcDbCircle
 10
112.8306469922001
 20
196.3569404856974
 30
0.0
 40
22.99999999999994
100
AcDbArc
 50
213.7517189153789
 51
236.2482810846209
  0
ARC
  5
117
330
59
100
AcDbEntity
  8
1
  6
Continuous
 62
     7
100
AcDbCircle
 10
112.8306469922001
 20
196.3569404856974
 30
0.0
 40
24.49999999999998
100
AcDbArc
 50
213.3293183746955
 51
236.6706816253043
  0
ARC
  5
118
330
59
100
AcDbEntity
  8
1
  6
Continuous
 62
     7
100
AcDbCircle
 10
112.8306469922001
 20
196.3569404856974
 30
0.0
 40
22.99999999999997
100
AcDbArc
 50
303.7517189153791
 51
326.2482810846209
  0
ARC
  5
119
330
59
100
AcDbEntity
  8
1
  6
Continuous
 62
     7
100
AcDbCircle
 10
112.8306469922001
 20
196.3569404856974
 30
0.0
 40
24.49999999999991
100
AcDbArc
 50
303.3293183746959
 51
326.6706816253044
  0
ARC
  5
11A
330
59
100
AcDbEntity
  8
1
  6
Continuous
 62
     7
100
AcDbCircle
 10
112.8306469922001
 20
234.3569404856925
 30
0.0
 40
59.99999999999984
100
AcDbArc
 50
257.0348164316014
 51
270.0
  0
ARC
  5
11B
330
59
100
AcDbEntity
  8
1
  6
Continuous
 62
     7
100
AcDbCircle
 10
112.8306469922001
 20
234.3569404856925
 30
0.0
 40
59.99999999999989
100
AcDbArc
 50
270.0
 51
282.9651835683987
  0
ARC
  5
11C
330
59
100
AcDbEntity
  8
1
  6
Continuous
 62
     7
100
AcDbCircle
 10
112.8306469922001
 20
235.8569404856925
 30
0.0
 40
59.99999999999989
100
AcDbArc
 50
270.0
 51
282.2969368649062
  0
ARC
  5
11D
330
59
100
AcDbEntity
  8
1
  6
Continuous
 62
     7
100
AcDbCircle
 10
112.8306469922001
 20
235.8569404856925
 30
0.0
 40
59.99999999999994
100
AcDbArc
 50
257.7030631350938
 51
270.0
  0
ARC
  5
11E
330
59
100
AcDbEntity
  8
1
  6
Continuous
 62
     7
100
AcDbCircle
 10
74.83064699220498
 20
196.3569404856974
 30
0.0
 40
60.00000000000003
100
AcDbArc
 50
0.0
 51
12.96518356839875
  0
ARC
  5
11F
330
59
100
AcDbEntity
  8
1
  6
Continuous
 62
     7
100
AcDbCircle
 10
73.33064699220498
 20
196.3569404856974
 30
0.0
 40
60.00000000000003
100
AcDbArc
 50
0.0
 51
12.29693686490625
  0
ARC
  5
120
330
59
100
AcDbEntity
  8
1
  6
Continuous
 62
     7
100
AcDbCircle
 10
73.33064699220498
 20
196.3569404856974
 30
0.0
 40
59.99999999999995
100
AcDbArc
 50
347.7030631350939
 51
0.0
  0
ARC
  5
121
330
59
100
AcDbEntity
  8
1
  6
Continuous
 62
     7
100
AcDbCircle
 10
74.83064699220498
 20
196.3569404856974
 30
0.0
 40
59.99999999999998
100
AcDbArc
 50
347.0348164316014
 51
0.0
  0
ARC
  5
122
330
59
100
AcDbEntity
  8
1
  6
Continuous
 62
     7
100
AcDbCircle
 10
112.8306469922001
 20
196.3569404856974
 30
0.0
 40
24.50000000000005
100
AcDbArc
 50
33.32931837469593
 51
56.6706816253044
  0
ARC
  5
123
330
59
100
AcDbEntity
  8
1
  6
Continuous
 62
     7
100
AcDbCircle
 10
112.8306469922001
 20
196.3569404856974
 30
0.0
 40
23.00000000000001
100
AcDbArc
 50
33.75171891537936
 51
56.24828108462111
  0
ARC
  5
124
330
59
100
AcDbEntity
  8
1
  6
Continuous
 62
     7
100
AcDbCircle
 10
112.8306469922001
 20
196.3569404856974
 30
0.0
 40
23.00000000000012
100
AcDbArc
 50
123.7517189153789
 51
146.2482810846207
  0
ARC
  5
125
330
59
100
AcDbEntity
  8
1
  6
Continuous
 62
     7
100
AcDbCircle
 10
112.8306469922001
 20
196.3569404856974
 30
0.0
 40
24.50000000000004
100
AcDbArc
 50
123.3293183746954
 51
146.6706816253041
  0
ARC
  5
126
330
59
100
AcDbEntity
  8
1
  6
Continuous
 62
     7
100
AcDbCircle
 10
112.8306469922001
 20
156.8569404857024
 30
0.0
 40
59.99999999999989
100
AcDbArc
 50
90.0
 51
102.2969368649062
  0
ARC
  5
127
330
59
100
AcDbEntity
  8
1
  6
Continuous
 62
     7
100
AcDbCircle
 10
112.8306469922001
 20
158.3569404857024
 30
0.0
 40
59.99999999999989
100
AcDbArc
 50
90.0
 51
102.9651835683986
  0
ARC
  5
128
330
59
100
AcDbEntity
  8
1
  6
Continuous
 62
     7
100
AcDbCircle
 10
112.8306469922001
 20
158.3569404857024
 30
0.0
 40
59.99999999999996
100
AcDbArc
 50
77.03481643160136
 51
90.0
  0
ARC
  5
129
330
59
100
AcDbEntity
  8
1
  6
Continuous
 62
     7
100
AcDbCircle
 10
112.8306469922001
 20
156.8569404857024
 30
0.0
 40
60.00000000000002
100
AcDbArc
 50
77.70306313509386
 51
90.0
  0
ARC
  5
12A
330
59
100
AcDbEntity
  8
1
  6
Continuous
 62
     7
100
AcDbCircle
 10
150.8306469921952
 20
196.3569404856974
 30
0.0
 40
60.00000000000002
100
AcDbArc
 50
167.0348164316013
 51
180.0
  0
ARC
  5
12B
330
59
100
AcDbEntity
  8
1
  6
Continuous
 62
     7
100
AcDbCircle
 10
150.8306469921952
 20
196.3569404856974
 30
0.0
 40
60.00000000000003
100
AcDbArc
 50
180.0
 51
192.9651835683986
  0
ARC
  5
12C
330
59
100
AcDbEntity
  8
1
  6
Continuous
 62
     7
100
AcDbCircle
 10
152.3306469921952
 20
196.3569404856974
 30
0.0
 40
60.00000000000003
100
AcDbArc
 50
180.0
 51
192.2969368649061
  0
ARC
  5
12D
330
59
100
AcDbEntity
  8
1
  6
Continuous
 62
     7
100
AcDbCircle
 10
152.3306469921952
 20
196.3569404856974
 30
0.0
 40
59.99999999999999
100
AcDbArc
 50
167.7030631350937
 51
180.0
  0
ARC
  5
12E
330
59
100
AcDbEntity
  8
1
  6
Continuous
 62
     7
100
AcDbCircle
 10
139.9811842382526
 20
130.6565404335748
 30
0.0
 40
8.027395249699685
100
AcDbArc
 50
145.9429229717924
 51
179.5251135664665
  0
ARC
  5
12F
330
59
100
AcDbEntity
  8
1
  6
Continuous
 62
     7
100
AcDbCircle
 10
131.3732097660971
 20
96.49962159586067
 30
0.0
 40
1.869094970049161
100
AcDbArc
 50
288.1055211766596
 51
6.86617846155616
  0
ARC
  5
130
330
59
100
AcDbEntity
  8
1
  6
Continuous
 62
     7
100
AcDbCircle
 10
120.1223913810176
 20
97.59634505695698
 30
0.0
 40
6.193726838523079
100
AcDbArc
 50
332.3609261738147
 51
351.8946933441861
  0
ARC
  5
131
330
59
100
AcDbEntity
  8
1
  6
Continuous
 62
     7
100
AcDbCircle
 10
112.8306469922001
 20
114.5026359849285
 30
0.0
 40
20.64939428110829
100
AcDbArc
 50
54.62135066237352
 51
90.0
  0
ARC
  5
132
330
59
100
AcDbEntity
  8
1
  6
Continuous
 62
     7
100
AcDbCircle
 10
94.28808421830317
 20
96.49962159586067
 30
0.0
 40
1.869094970049108
100
AcDbArc
 50
173.133821538444
 51
251.894478823347
  0
ARC
  5
133
330
59
100
AcDbEntity
  8
1
  6
Continuous
 62
     7
100
AcDbCircle
 10
105.5389026033826
 20
97.59634505695698
 30
0.0
 40
6.193726838523114
100
AcDbArc
 50
188.105306655814
 51
207.6390738261853
  0
ARC
  5
134
330
59
100
AcDbEntity
  8
1
  6
Continuous
 62
     7
100
AcDbCircle
 10
85.6801097461476
 20
130.6565404335748
 30
0.0
 40
8.0273952496998
100
AcDbArc
 50
0.47488643353353
 51
34.05707702820769
  0
ARC
  5
135
330
59
100
AcDbEntity
  8
1
  6
Continuous
 62
     7
100
AcDbCircle
 10
112.8306469922001
 20
114.5026359849285
 30
0.0
 40
20.6493942811083
100
AcDbArc
 50
90.0
 51
125.3786493376265
  0
ARC
  5
136
330
59
100
AcDbEntity
  8
1
  6
Continuous
 62
     7
100
AcDbCircle
 10
123.6282244956944
 20
129.708300294924
 30
0.0
 40
1.999999999999887
100
AcDbArc
 50
1.08665359773461
 51
54.62135066237668
  0
ARC
  5
137
330
59
100
AcDbEntity
  8
1
  6
Continuous
 62
     7
100
AcDbCircle
 10
102.033069488706
 20
129.708300294924
 30
0.0
 40
2.000000000000061
100
AcDbArc
 50
125.378649337628
 51
178.9133464022655
  0
ARC
  5
138
330
59
100
AcDbEntity
  8
1
  6
Continuous
 62
     7
100
AcDbCircle
 10
92.90622732560828
 20
96.72307338743181
 30
0.0
 40
1.999999999999927
100
AcDbArc
 50
177.8751797549669
 51
270.0
  0
ARC
  5
139
330
59
100
AcDbEntity
  8
1
  6
Continuous
 62
     7
100
AcDbCircle
 10
132.7550666587919
 20
96.72307338743181
 30
0.0
 40
2.0
100
AcDbArc
 50
270.0
 51
2.12482024503261
  0
ARC
  5
13A
330
59
100
AcDbEntity
  8
1
  6
Continuous
 62
     7
100
AcDbCircle
 10
94.65106526644678
 20
130.7230733874318
 30
0.0
 40
5.0
100
AcDbArc
 50
90.0
 51
117.6509338734425
  0
ARC
  5
13B
330
59
100
AcDbEntity
  8
1
  6
Continuous
 62
     7
100
AcDbCircle
 10
131.0102287179536
 20
130.7230733874318
 30
0.0
 40
4.999999999999955
100
AcDbArc
 50
62.34906612655953
 51
90.0
  0
ENDBLK
  5
5B
330
59
100
AcDbEntity
  8
0
100
AcDbBlockEnd
  0
BLOCK
  5
5D
330
5C
100
AcDbEntity
  8
0
100
AcDbBlockBegin
  2
37-1-13-M11
 70
     0
 10
17.33064699220014
 20
96.42307338743191
 30
0.0
  3
37-1-13-M11
  1

  0
LINE
  5
13C
330
5C
100
AcDbEntity
  8
1
  6
Continuous
 62
     7
100
AcDbLine
 10
125.9013612064716
 20
92.42307338743191
 30
0.0
 11
99.75993277792867
 21
92.42307338743191
 31
0.0
  0
ARC
  5
13D
330
5C
100
AcDbEntity
  8
1
  6
Continuous
 62
     7
100
AcDbCircle
 10
103.3306469922001
 20
95.92307338743191
 30
0.0
 40
4.999999999999996
100
AcDbArc
 50
193.8865403626302
 51
224.4270040008057
  0
ARC
  5
13E
330
5C
100
AcDbEntity
  8
1
  6
Continuous
 62
     7
100
AcDbCircle
 10
122.3306469922001
 20
95.92307338743191
 30
0.0
 40
5.000000000000057
100
AcDbArc
 50
315.572995999195
 51
346.1134596373697
  0
SPLINE
  5
13F
330
5C
100
AcDbEntity
  8
1
  6
Continuous
 62
     7
100
AcDbSpline
210
0.0
220
0.0
230
1.0
 70
     8
 71
     3
 72
    19
 73
    15
 74
    13
 42
0.000000001
 43
0.0000000001
 44
0.00000001
 40
0.0
 40
0.0
 40
0.0
 40
0.0
 40
0.2812061117497787
 40
0.5623940443152211
 40
0.8463649112957089
 40
1.130303264748238
 40
1.418454228739081
 40
1.706564360772484
 40
1.999760017395088
 40
2.292913308093565
 40
2.591384354163524
 40
2.889816792606328
 40
3.193105185805631
 40
3.496361910988658
 40
3.496361910988658
 40
3.496361910988658
 40
3.496361910988658
 10
102.1430373472173
 20
92.46890304175922
 30
0.0
 10
102.2348444406404
 20
92.4881847259144
 30
0.0
 10
102.4184526891348
 20
92.52674686186884
 30
0.0
 10
102.6859686855581
 20
92.61839698663843
 30
0.0
 10
102.9449422173128
 20
92.73340729235427
 30
0.0
 10
103.1936685293862
 20
92.87419231767343
 30
0.0
 10
103.4295133367126
 20
93.0379675700962
 30
0.0
 10
103.6515930464489
 20
93.22480074993764
 30
0.0
 10
103.857278621037
 20
93.43189191269607
 30
0.0
 10
104.0459302504185
 20
93.65908154063732
 30
0.0
 10
104.215402074929
 20
93.9030845180635
 30
0.0
 10
104.3646403967903
 20
94.16372530802597
 30
0.0
 10
104.4939882297443
 20
94.43682407811914
 30
0.0
 10
104.5611048703558
 20
94.62766027051346
 30
0.0
 10
104.5946614317068
 20
94.72307338743181
 30
0.0
 11
102.1430373472173
 21
92.46890304175922
 31
0.0
 11
102.4169963462159
 21
92.53233288516475
 31
0.0
 11
102.6835392791755
 21
92.62189581953928
 31
0.0
 11
102.9429001896161
 21
92.73753046898801
 31
0.0
 11
103.1901372086157
 21
92.87715441245868
 31
0.0
 11
103.4268227835354
 21
93.04150439627654
 31
0.0
 11
103.6474083674575
 21
93.22684043913186
 31
0.0
 11
103.8540623902067
 21
93.43482555478508
 31
0.0
 11
104.0414840608297
 21
93.66024065980464
 31
0.0
 11
104.2117349261514
 21
93.90539287478957
 31
0.0
 11
104.3604524451
 21
94.16413023225826
 31
0.0
 11
104.4890981431572
 21
94.43878298406108
 31
0.0
 11
104.5946614317068
 21
94.72307338743181
 31
0.0
  0
SPLINE
  5
140
330
5C
100
AcDbEntity
  8
1
  6
Continuous
 62
     7
100
AcDbSpline
210
0.0
220
0.0
230
1.0
 70
     8
 71
     3
 72
    21
 73
    17
 74
    15
 42
0.000000001
 43
0.0000000001
 44
0.00000001
 40
0.0
 40
0.0
 40
0.0
 40
0.0
 40
0.2811777238367127
 40
0.5623412526664836
 40
0.8457475978718266
 40
1.129128335572144
 40
1.415911574789084
 40
1.702662371465563
 40
1.99353313873865
 40
2.284369629210592
 40
2.579527978658141
 40
2.874654559897365
 40
3.173786034033732
 40
3.472891444430712
 40
3.622103604842533
 40
3.771063363445951
 40
3.771063363445951
 40
3.771063363445951
 40
3.771063363445951
 10
124.3687672966515
 20
92.43643257203493
 30
0.0
 10
124.4618643501005
 20
92.44787625016917
 30
0.0
 10
124.6480537550074
 20
92.47076304311526
 30
0.0
 10
124.9222968587168
 20
92.53877891678565
 30
0.0
 10
125.1900310403903
 20
92.63038047611359
 30
0.0
 10
125.4496012112786
 20
92.74797197470009
 30
0.0
 10
125.6983470424745
 20
92.88917196597511
 30
0.0
 10
125.9351745977039
 20
93.05397700803854
 30
0.0
 10
126.1574483663935
 20
93.24003863119934
 30
0.0
 10
126.3643197447265
 20
93.4470500215122
 30
0.0
 10
126.553455462015
 20
93.67223471670451
 30
0.0
 10
126.7241102337332
 20
93.91509584222953
 30
0.0
 10
126.8744993989224
 20
94.17253038283438
 30
0.0
 10
126.9816943358324
 20
94.39775771421469
 30
0.0
 10
127.0565961301284
 20
94.58229779826877
 30
0.0
 10
127.0892833975513
 20
94.67617467826562
 30
0.0
 10
127.1056131895835
 20
94.72307338743181
 30
0.0
 11
124.3687672966515
 21
92.43643257203493
 31
0.0
 11
124.6470974157774
 21
92.47634820741018
 31
0.0
 11
124.9203768151523
 21
92.54246401977966
 31
0.0
 11
125.1883891609428
 21
92.63459729104223
 31
0.0
 11
125.4466202368939
 21
92.75130784954791
 31
0.0
 11
125.696018604939
 21
92.89288850074189
 31
0.0
 11
125.9314782236368
 21
93.0565490878651
 31
0.0
 11
126.1545454624591
 21
93.24322209234602
 31
0.0
 11
126.3602301869054
 21
93.44884227294372
 31
0.0
 11
126.5501001576994
 21
93.67482423189969
 31
0.0
 11
126.7198927042099
 21
93.9162164240375
 31
0.0
 11
126.8707755532175
 21
94.17450696786644
 31
0.0
 11
126.9995974067747
 21
94.44444951170101
 31
0.0
 11
127.0554495254143
 21
94.58281428237976
 31
0.0
 11
127.1056131895835
 21
94.72307338743181
 31
0.0
  0
SPLINE
  5
141
330
5C
100
AcDbEntity
  8
1
  6
Continuous
 62
     7
100
AcDbSpline
210
0.0
220
0.0
230
1.0
 70
     8
 71
     3
 72
    25
 73
    21
 74
    19
 42
0.000000001
 43
0.0000000001
 44
0.00000001
 40
0.0
 40
0.0
 40
0.0
 40
0.0
 40
0.2606767837483098
 40
0.5215851356915748
 40
0.8248992716165986
 40
1.128244635262162
 40
1.426677047576356
 40
1.725148086356356
 40
2.018301385318644
 40
2.311497054862167
 40
2.599607174548143
 40
2.887758072282121
 40
3.171696490570146
 40
3.455667728968725
 40
3.663821015601298
 40
3.871609509155197
 40
4.011763048534556
 40
4.151932096324389
 40
4.365160543712606
 40
4.578753329305795
 40
4.578753329305795
 40
4.578753329305795
 40
4.578753329305795
 10
98.58914701257657
 20
94.72307338743181
 30
0.0
 10
98.61996326253872
 20
94.64179312814987
 30
0.0
 10
98.68162315118947
 20
94.479160410898
 30
0.0
 10
98.80098220891551
 20
94.23110013542882
 30
0.0
 10
98.94446764405453
 20
93.9797032052968
 30
0.0
 10
99.11567761871856
 20
93.73084183004931
 30
0.0
 10
99.30590479959099
 20
93.49830985261086
 30
0.0
 10
99.51297371611807
 20
93.2853179197822
 30
0.0
 10
99.73631059698306
 20
93.09210799871317
 30
0.0
 10
99.97313285486354
 20
92.92149830384894
 30
0.0
 10
100.2228162645409
 20
92.7735719912923
 30
0.0
 10
100.4823022073208
 20
92.65060887071004
 30
0.0
 10
100.7507236775373
 20
92.55257180339127
 30
0.0
 10
101.0014613438573
 20
92.48727993681533
 30
0.0
 10
101.2314754848732
 20
92.4471745536024
 30
0.0
 10
101.4160723573665
 20
92.42855807429234
 30
0.0
 10
101.5787037810502
 20
92.42186340021463
 30
0.0
 10
101.7432497530245
 20
92.42317375518066
 30
0.0
 10
101.9321391884242
 20
92.43524200125947
 30
0.0
 10
102.0726979675804
 20
92.45767630678878
 30
0.0
 10
102.1430373472173
 20
92.46890304175922
 30
0.0
 11
98.58914701257657
 21
94.72307338743181
 31
0.0
 11
98.68504546042539
 21
94.4806772792589
 31
0.0
 11
98.79734286137895
 21
94.24517258291354
 31
0.0
 11
98.94806792221324
 21
93.9819589409806
 31
0.0
 11
99.11999271846707
 21
93.73203840501358
 31
0.0
 11
99.3090809581937
 21
93.50115414278552
 31
0.0
 11
99.51718664272076
 21
93.28719857425992
 31
0.0
 11
99.73899847319873
 21
93.09552601803277
 31
0.0
 11
99.97692801613778
 21
92.92419816414672
 31
0.0
 11
100.224891198174
 21
92.77749539756643
 31
0.0
 11
100.4852995300428
 21
92.65413235246909
 31
0.0
 11
100.7520669838574
 21
92.55688960803144
 31
0.0
 11
101.0268656077583
 21
92.48529784181011
 31
0.0
 11
101.2319411361996
 21
92.44963527507475
 31
0.0
 11
101.438676955982
 21
92.42874606180338
 31
0.0
 11
101.5787130967928
 21
92.42301072676824
 31
0.0
 11
101.7188785440827
 21
92.4240155118689
 31
0.0
 11
101.9316099642841
 21
92.43856592189339
 31
0.0
 11
102.1430373472173
 21
92.46890304175922
 31
0.0
  0
SPLINE
  5
142
330
5C
100
AcDbEntity
  8
1
  6
Continuous
 62
     7
100
AcDbSpline
210
0.0
220
0.0
230
1.0
 70
     8
 71
     3
 72
    37
 73
    33
 74
    31
 42
0.000000001
 43
0.0000000001
 44
0.00000001
 40
0.0
 40
0.0
 40
0.0
 40
0.0
 40
0.1437649004588551
 40
0.2879253040680474
 40
0.6348220327675589
 40
0.9815169522805842
 40
1.349362257803211
 40
1.71703881872251
 40
2.105975341646766
 40
2.494785618471817
 40
2.902575075075363
 40
3.31027756895606
 40
3.732827602443928
 40
4.155323845640704
 40
4.587238262352
 40
5.019127089575627
 40
5.454239505430935
 40
5.889351921286242
 40
6.321240748509855
 40
6.753155165221165
 40
7.175651408417941
 40
7.598201441905809
 40
8.005903935786506
 40
8.413693392390053
 40
8.802503669215072
 40
9.19144019213936
 40
9.55911675305865
 40
9.926962058581276
 40
10.27365697809432
 40
10.62055370679379
 40
10.76471411040287
 40
10.90847901086191
 40
10.90847901086191
 40
10.90847901086191
 40
10.90847901086191
 10
108.1554187975863
 20
94.72307338743181
 30
0.0
 10
108.1784480901462
 20
94.681035282614
 30
0.0
 10
108.2245700430801
 20
94.59684343194435
 30
0.0
 10
108.3376657517718
 20
94.41787915169988
 30
0.0
 10
108.5029868844835
 20
94.19221321153199
 30
0.0
 10
108.7403227670792
 20
93.92908328764923
 30
0.0
 10
109.0058205887174
 20
93.68413593247335
 30
0.0
 10
109.3027853336535
 20
93.45472881936426
 30
0.0
 10
109.6234414952982
 20
93.24669631511964
 30
0.0
 10
109.970945408064
 20
93.0577635007588
 30
0.0
 10
110.3371838218967
 20
92.89251294861859
 30
0.0
 10
110.7246357518745
 20
92.74950955706893
 30
0.0
 10
111.125629178768
 20
92.63184462386167
 30
0.0
 10
111.5413031408969
 20
92.53886802632513
 30
0.0
 10
111.9651669487434
 20
92.47231014107084
 30
0.0
 10
112.3965364805964
 20
92.43198001760487
 30
0.0
 10
112.8306469922001
 20
92.41860349950065
 30
0.0
 10
113.2647575038038
 20
92.43198001760484
 30
0.0
 10
113.6961270356568
 20
92.47231014107084
 30
0.0
 10
114.1199908435033
 20
92.53886802632513
 30
0.0
 10
114.5356648056322
 20
92.63184462386167
 30
0.0
 10
114.9366582325257
 20
92.7495095570689
 30
0.0
 10
115.3241101625035
 20
92.8925129486186
 30
0.0
 10
115.6903485763362
 20
93.0577635007588
 30
0.0
 10
116.037852489102
 20
93.24669631511964
 30
0.0
 10
116.3585086507466
 20
93.4547288193643
 30
0.0
 10
116.6554733956828
 20
93.68413593247331
 30
0.0
 10
116.920971217321
 20
93.92908328764926
 30
0.0
 10
117.1583070999167
 20
94.19221321153196
 30
0.0
 10
117.3236282326284
 20
94.41787915169986
 30
0.0
 10
117.43672394132
 20
94.59684343194434
 30
0.0
 10
117.482845894254
 20
94.68103528261396
 30
0.0
 10
117.505875186814
 20
94.72307338743181
 30
0.0
 11
108.1554187975863
 21
94.72307338743181
 31
0.0
 11
108.2257963616927
 21
94.59771252442972
 31
0.0
 11
108.3023595453696
 21
94.47556383359138
 31
0.0
 11
108.5075827433057
 21
94.19588405359904
 31
0.0
 11
108.7392487694261
 21
93.93795340705448
 31
0.0
 11
109.0093146569229
 21
93.68820436418795
 31
0.0
 11
109.3000025904154
 21
93.4630675654754
 31
0.0
 11
109.6260391991101
 21
93.25100213217927
 31
0.0
 11
109.9674676279945
 21
93.06499122212509
 31
0.0
 11
110.3390143281505
 21
92.8969278717104
 31
0.0
 11
110.7214177003993
 21
92.75554546983994
 31
0.0
 11
111.1267931411106
 21
92.63630083969497
 31
0.0
 11
111.5390738010546
 21
92.54395512118319
 31
0.0
 11
111.9657321084066
 21
92.47677811142252
 31
0.0
 11
112.3957433299285
 21
92.43654992775973
 31
0.0
 11
112.8306469922001
 21
92.42307338743191
 31
0.0
 11
113.2655506544717
 21
92.43654992775973
 31
0.0
 11
113.6955618759936
 21
92.47677811142252
 31
0.0
 11
114.1222201833456
 21
92.54395512118319
 31
0.0
 11
114.5345008432896
 21
92.63630083969497
 31
0.0
 11
114.9398762840009
 21
92.75554546983994
 31
0.0
 11
115.3222796562497
 21
92.8969278717104
 31
0.0
 11
115.6938263564057
 21
93.06499122212509
 31
0.0
 11
116.03525478529
 21
93.25100213217925
 31
0.0
 11
116.3612913939848
 21
93.4630675654754
 31
0.0
 11
116.6519793274773
 21
93.68820436418795
 31
0.0
 11
116.9220452149741
 21
93.93795340705447
 31
0.0
 11
117.1537112410945
 21
94.19588405359906
 31
0.0
 11
117.3589344390305
 21
94.47556383359138
 31
0.0
 11
117.4354976227074
 21
94.59771252442962
 31
0.0
 11
117.505875186814
 21
94.72307338743181
 31
0.0
  0
SPLINE
  5
143
330
5C
100
AcDbEntity
  8
1
  6
Continuous
 62
     7
100
AcDbSpline
210
0.0
220
0.0
230
1.0
 70
     8
 71
     3
 72
    23
 73
    19
 74
    17
 42
0.000000001
 43
0.0000000001
 44
0.00000001
 40
0.0
 40
0.0
 40
0.0
 40
0.0
 40
0.1486999188364689
 40
0.2976517777302097
 40
0.5967571880816054
 40
0.895888662231414
 40
1.191015243515464
 40
1.486173593031627
 40
1.777010083595857
 40
2.067880850989127
 40
2.35463164782058
 40
2.641414887239635
 40
2.924795625206362
 40
3.208201970768835
 40
3.489365500080988
 40
3.770543224072177
 40
4.050937868608179
 40
4.3313325129733
 40
4.3313325129733
 40
4.3313325129733
 40
4.3313325129733
 10
121.0723103579135
 20
94.72307338743289
 30
0.0
 10
121.0886096333291
 20
94.67625580379774
 30
0.0
 10
121.1212358134523
 20
94.58254131908208
 30
0.0
 10
121.1960478446158
 20
94.3981522904604
 30
0.0
 10
121.3031689397795
 20
94.1729859094072
 30
0.0
 10
121.4535159071255
 20
93.91552675951488
 30
0.0
 10
121.6241309940308
 20
93.67263777395189
 30
0.0
 10
121.8132298630789
 20
93.44742200577498
 30
0.0
 10
122.0200674496293
 20
93.24037733312632
 30
0.0
 10
122.2423105680279
 20
93.05427735596332
 30
0.0
 10
122.4791119879479
 20
92.88944098917656
 30
0.0
 10
122.7278316992992
 20
92.74817289730068
 30
0.0
 10
122.9873938092811
 20
92.63064015928356
 30
0.0
 10
123.2550715282103
 20
92.53861902507924
 30
0.0
 10
123.5294571524759
 20
92.47195026805
 30
0.0
 10
123.8079067627653
 20
92.43242434464102
 30
0.0
 10
124.0888027866692
 20
92.41739937642913
 30
0.0
 10
124.2754457935709
 20
92.43008816867787
 30
0.0
 10
124.3687672966515
 20
92.43643257203493
 30
0.0
 11
121.0723103579135
 21
94.72307338743289
 31
0.0
 11
121.1223783847305
 21
94.5830560360985
 31
0.0
 11
121.1781153201221
 21
94.44492548034906
 31
0.0
 11
121.3068930305563
 21
94.17496187498506
 31
0.0
 11
121.457733641498
 21
93.91664666202459
 31
0.0
 11
121.6274867129331
 21
93.67522670838785
 31
0.0
 11
121.8173197282871
 21
93.44921370463705
 31
0.0
 11
122.02297082667
 21
93.24355989292056
 31
0.0
 11
122.2460075374665
 21
93.05685041465333
 31
0.0
 11
122.4814403909969
 21
92.89315132701597
 31
0.0
 11
122.730815604232
 21
92.75152989572794
 31
0.0
 11
122.989027592049
 21
92.63477711245831
 31
0.0
 11
123.2570248684886
 21
92.54260001665563
 31
0.0
 11
123.5302934528552
 21
92.47643951812186
 31
0.0
 11
123.8086170411968
 21
92.43647837033093
 31
0.0
 11
124.0886910747959
 21
92.4230733969322
 31
0.0
 11
124.3687672966515
 21
92.43643257203493
 31
0.0
  0
ENDBLK
  5
5E
330
5C
100
AcDbEntity
  8
0
100
AcDbBlockEnd
  0
BLOCK
  5
167
330
160
100
AcDbEntity
  8
0
100
AcDbBlockBegin
  2
*D8
 70
     1
 10
0.0
 20
0.0
 30
0.0
  3
*D8
  1

  0
LINE
  5
161
330
160
100
AcDbEntity
  8
1
  6
Continuous
 62
     2
100
AcDbLine
 10
71.90760247332449
 20
80.42307338743191
 30
0.0
 11
71.90760247332449
 21
137.2230733874318
 31
0.0
  0
LINE
  5
162
330
160
100
AcDbEntity
  8
1
  6
Continuous
 62
     2
100
AcDbLine
 10
112.8306469922001
 20
137.2230733874318
 30
0.0
 11
70.90760247332449
 21
137.2230733874318
 31
0.0
  0
LINE
  5
163
330
160
100
AcDbEntity
  8
1
  6
Continuous
 62
     2
100
AcDbLine
 10
110.1806469922
 20
80.42307338743191
 30
0.0
 11
70.90760247332449
 21
80.42307338743191
 31
0.0
  0
SOLID
  5
164
330
160
100
AcDbEntity
  8
1
 62
     2
100
AcDbTrace
 10
71.4468187317686
 20
83.92307338743191
 30
0.0
 11
72.36838621488037
 21
83.92307338743191
 31
0.0
 12
71.90760247332449
 22
80.42307338743191
 32
0.0
 13
71.90760247332449
 23
80.42307338743191
 33
0.0
  0
SOLID
  5
165
330
160
100
AcDbEntity
  8
1
 62
     2
100
AcDbTrace
 10
72.36838621488037
 20
133.7230733874318
 30
0.0
 11
71.4468187317686
 21
133.7230733874318
 31
0.0
 12
71.90760247332449
 22
137.2230733874318
 32
0.0
 13
71.90760247332449
 23
137.2230733874318
 33
0.0
  0
MTEXT
  5
166
330
160
100
AcDbEntity
  8
1
 62
     7
100
AcDbMText
 10
70.90760247332449
 20
105.2793537428181
 30
0.0
 40
3.5
 41
0.0
 71
     7
 72
     1
  1
57
  7
CONVERTER_12
 11
0.0
 21
1.0
 31
0.0
 73
     1
 44
0.60024009603842
  0
ENDBLK
  5
168
330
160
100
AcDbEntity
  8
0
100
AcDbBlockEnd
  0
BLOCK
  5
172
330
16B
100
AcDbEntity
  8
0
100
AcDbBlockBegin
  2
*D9
 70
     1
 10
0.0
 20
0.0
 30
0.0
  3
*D9
  1

  0
LINE
  5
16C
330
16B
100
AcDbEntity
  8
1
  6
Continuous
 62
     2
100
AcDbLine
 10
79.90760247332449
 20
80.42307338743191
 30
0.0
 11
79.90760247332449
 21
94.72307338743181
 31
0.0
  0
LINE
  5
16D
330
16B
100
AcDbEntity
  8
1
  6
Continuous
 62
     2
100
AcDbLine
 10
92.90622732560828
 20
94.72307338743181
 30
0.0
 11
78.90760247332449
 21
94.72307338743181
 31
0.0
  0
LINE
  5
16E
330
16B
100
AcDbEntity
  8
1
  6
Continuous
 62
     2
100
AcDbLine
 10
108.3806469922
 20
80.42307338743191
 30
0.0
 11
78.90760247332449
 21
80.42307338743191
 31
0.0
  0
SOLID
  5
16F
330
16B
100
AcDbEntity
  8
1
 62
     2
100
AcDbTrace
 10
79.4468187317686
 20
83.92307338743191
 30
0.0
 11
80.36838621488037
 21
83.92307338743191
 31
0.0
 12
79.90760247332449
 22
80.42307338743191
 32
0.0
 13
79.90760247332449
 23
80.42307338743191
 33
0.0
  0
SOLID
  5
170
330
16B
100
AcDbEntity
  8
1
 62
     2
100
AcDbTrace
 10
80.36838621488037
 20
91.22307338743181
 30
0.0
 11
79.4468187317686
 21
91.22307338743181
 31
0.0
 12
79.90760247332449
 22
94.72307338743181
 32
0.0
 13
79.90760247332449
 23
94.72307338743181
 33
0.0
  0
MTEXT
  5
171
330
16B
100
AcDbEntity
  8
1
 62
     7
100
AcDbMText
 10
78.90760247332449
 20
85.74334253423692
 30
0.0
 40
3.5
 41
0.0
 71
     7
 72
     1
  1
15
  7
CONVERTER_12
 11
0.0
 21
1.0
 31
0.0
 73
     1
 44
0.60024009603842
  0
ENDBLK
  5
173
330
16B
100
AcDbEntity
  8
0
100
AcDbBlockEnd
  0
BLOCK
  5
17D
330
176
100
AcDbEntity
  8
0
100
AcDbBlockBegin
  2
*D10
 70
     1
 10
0.0
 20
0.0
 30
0.0
  3
*D10
  1

  0
LINE
  5
177
330
176
100
AcDbEntity
  8
1
  6
Continuous
 62
     2
100
AcDbLine
 10
90.83064699219517
 20
229.054732589608
 30
0.0
 11
134.830646992205
 21
229.054732589608
 31
0.0
  0
LINE
  5
178
330
176
100
AcDbEntity
  8
1
  6
Continuous
 62
     2
100
AcDbLine
 10
134.830646992205
 20
196.3569404856974
 30
0.0
 11
134.830646992205
 21
230.054732589608
 31
0.0
  0
LINE
  5
179
330
176
100
AcDbEntity
  8
1
  6
Continuous
 62
     2
100
AcDbLine
 10
90.83064699219517
 20
196.3569404856974
 30
0.0
 11
90.83064699219517
 21
230.054732589608
 31
0.0
  0
SOLID
  5
17A
330
176
100
AcDbEntity
  8
1
 62
     2
100
AcDbTrace
 10
94.33064699219517
 20
229.5155163311639
 30
0.0
 11
94.33064699219517
 21
228.5939488480521
 31
0.0
 12
90.83064699219517
 22
229.054732589608
 32
0.0
 13
90.83064699219517
 23
229.054732589608
 33
0.0
  0
SOLID
  5
17B
330
176
100
AcDbEntity
  8
1
 62
     2
100
AcDbTrace
 10
131.330646992205
 20
228.5939488480521
 30
0.0
 11
131.330646992205
 21
229.5155163311639
 31
0.0
 12
134.830646992205
 22
229.054732589608
 32
0.0
 13
134.830646992205
 23
229.054732589608
 33
0.0
  0
MTEXT
  5
17C
330
176
100
AcDbEntity
  8
1
 62
     7
100
AcDbMText
 10
110.272492314707
 20
230.054732589608
 30
0.0
 40
3.5
 41
0.0
 71
     7
 72
     1
  1
44
  7
CONVERTER_12
 11
0.9999999999970619
 21
2.424068405545306E-6
 31
0.0
 73
     1
 44
0.60024009603842
  0
ENDBLK
  5
17E
330
176
100
AcDbEntity
  8
0
100
AcDbBlockEnd
  0
ENDSEC
  0
SECTION
  2
ENTITIES
  0
INSERT
  5
5F
330
1F
100
AcDbEntity
  8
0
100
AcDbBlockReference
  2
開示A4枠
 10
0.0
 20
0.0
 30
0.0
  0
INSERT
  5
60
330
1F
100
AcDbEntity
  8
1
100
AcDbBlockReference
  2
36-1A-13-M11
 10
-23.65596387160903
 20
43.92307338743191
 30
0.0
  0
INSERT
  5
61
330
1F
100
AcDbEntity
  8
0
100
AcDbBlockReference
  2
84-34X-B-I
 10
19.3306469922002
 20
130.2230733874318
 30
0.0
  0
INSERT
  5
62
330
1F
100
AcDbEntity
  8
0
100
AcDbBlockReference
  2
81-9
 10
52.83064699220017
 20
85.22307338743181
 30
0.0
  0
INSERT
  5
63
330
1F
100
AcDbEntity
  8
0
100
AcDbBlockReference
  2
37-1-13-M11
 10
17.33064699220014
 20
96.42307338743191
 30
0.0
  0
LINE
  5
144
330
1F
100
AcDbEntity
  8
1
  6
DASH_CENTER
 62
     2
100
AcDbLine
 10
112.8306469922001
 20
140.7230733874318
 30
0.0
 11
112.8306469922001
 21
77.42307338743191
 31
0.0
  0
LINE
  5
145
330
1F
100
AcDbEntity
  8
1
  6
DASH_CENTER
 62
     2
100
AcDbLine
 10
137.6003608454592
 20
196.3569404856974
 30
0.0
 11
137.830646992205
 21
196.3569404856974
 31
0.0
  0
LINE
  5
146
330
1F
100
AcDbEntity
  8
1
  6
DASH_CENTER
 62
     2
100
AcDbLine
 10
136.330646992205
 20
196.3569404856974
 30
0.0
 11
87.69816772418167
 21
196.3569404856974
 31
0.0
  0
LINE
  5
147
330
1F
100
AcDbEntity
  8
1
  6
DASH_CENTER
 62
     2
100
AcDbLine
 10
112.8306469922001
 20
221.3498581581165
 30
0.0
 11
112.8306469922001
 21
171.3569404856925
 31
0.0
  0
LINE
  5
148
330
1F
100
AcDbEntity
  8
1
  6
DASH_CENTER
 62
     2
100
AcDbLine
 10
137.830646992205
 20
196.3569404856974
 30
0.0
 11
136.330646992205
 21
196.3569404856974
 31
0.0
  0
SOLID
  5
149
330
1F
100
AcDbEntity
  8
1
 62
     2
100
AcDbTrace
 10
121.5732137769728
 20
140.4845541714553
 30
0.0
 11
122.3713146286492
 21
140.0237704298994
 31
0.0
 12
120.222264202811
 22
137.2230733874318
 32
0.0
 13
120.222264202811
 23
137.2230733874318
 33
0.0
  0
LEADER
  5
14A
330
1F
100
AcDbEntity
  8
1
  6
Continuous
 62
     2
100
AcDbLeader
  3
Standard
 71
     0
 76
     3
 10
120.222264202811
 20
137.2230733874318
 30
0.0
 10
128.4389638295568
 20
151.4548146114879
 30
0.0
 10
141.420395866016
 20
151.4548146114879
 30
0.0
  0
SOLID
  5
14B
330
1F
100
AcDbEntity
  8
1
 62
     2
100
AcDbTrace
 10
124.6280977127475
 20
87.03123415936385
 30
0.0
 11
123.8299968610711
 21
86.57045041780796
 31
0.0
 12
122.4790472869093
 22
89.83193120183144
 32
0.0
 13
122.4790472869093
 23
89.83193120183144
 33
0.0
  0
LEADER
  5
14C
330
1F
100
AcDbEntity
  8
1
  6
Continuous
 62
     2
100
AcDbLeader
  3
Standard
 71
     0
 76
     3
 10
122.4790472869093
 20
89.83193120183144
 30
0.0
 10
131.3446344058703
 20
74.47628387286267
 30
0.0
 10
149.3462231847001
 20
74.47628387286267
 30
0.0
  0
SOLID
  5
14D
330
1F
100
AcDbEntity
  8
1
 62
     2
100
AcDbTrace
 10
99.49728585904023
 20
89.16159260340844
 30
0.0
 11
98.69918500736377
 21
89.62237634496432
 31
0.0
 12
100.848235433202
 22
92.42307338743191
 32
0.0
 13
100.848235433202
 23
92.42307338743191
 33
0.0
  0
LEADER
  5
14E
330
1F
100
AcDbEntity
  8
1
  6
Continuous
 62
     2
100
AcDbLeader
  3
Standard
 71
     0
 76
     3
 10
100.848235433202
 20
92.42307338743191
 30
0.0
 10
89.72681197153128
 20
73.16020289932975
 30
0.0
 10
70.67278791247148
 20
73.16020289932975
 30
0.0
  0
MTEXT
  5
150
330
1F
100
AcDbEntity
  8
1
 62
     7
100
AcDbMText
 10
157.5
 20
12.5
 30
0.0
 40
2.5
 41
0.0
 71
     5
 72
     1
  1
2
  7
CONVERTER_12
 73
     1
 44
0.7202881152461
  0
MTEXT
  5
151
330
1F
100
AcDbEntity
  8
1
 62
     7
100
AcDbMText
 10
151.75
 20
12.5
 30
0.0
 40
2.5
 41
0.0
 71
     5
 72
     1
  1
04
  7
CONVERTER_12
 73
     1
 44
0.7202881152461
  0
MTEXT
  5
152
330
1F
100
AcDbEntity
  8
1
 62
     7
100
AcDbMText
 10
140.5
 20
12.5
 30
0.0
 40
2.5
 41
0.0
 71
     5
 72
     1
  1
2
  7
CONVERTER_12
 73
     1
 44
0.7202881152461
  0
MTEXT
  5
153
330
1F
100
AcDbEntity
  8
1
 62
     7
100
AcDbMText
 10
134.75
 20
12.5
 30
0.0
 40
2.5
 41
0.0
 71
     5
 72
     1
  1
04
  7
CONVERTER_12
 73
     1
 44
0.7202881152461
  0
MTEXT
  5
154
330
1F
100
AcDbEntity
  8
1
 62
     7
100
AcDbMText
 10
123.5
 20
12.5
 30
0.0
 40
2.5
 41
0.0
 71
     5
 72
     1
  1
2
  7
CONVERTER_12
 73
     1
 44
0.7202881152461
  0
MTEXT
  5
155
330
1F
100
AcDbEntity
  8
1
 62
     7
100
AcDbMText
 10
117.75
 20
12.5
 30
0.0
 40
2.5
 41
0.0
 71
     5
 72
     1
  1
04
  7
CONVERTER_12
 73
     1
 44
0.7202881152461
  0
MTEXT
  5
156
330
1F
100
AcDbEntity
  8
1
 62
     7
100
AcDbMText
 10
100.75
 20
12.5
 30
0.0
 40
2.5
 41
0.0
 71
     5
 72
     1
  1
04
  7
CONVERTER_12
 73
     1
 44
0.7202881152461
  0
MTEXT
  5
157
330
1F
100
AcDbEntity
  8
1
 62
     7
100
AcDbMText
 10
106.5
 20
12.5
 30
0.0
 40
2.5
 41
0.0
 71
     5
 72
     1
  1
2
  7
CONVERTER_12
 73
     1
 44
0.7202881152461
  0
MTEXT
  5
158
330
1F
100
AcDbEntity
  8
1
 62
     7
100
AcDbMText
 10
135.039567365551
 20
153.5383319082567
 30
0.0
 40
3.0
 41
0.0
 71
     5
 72
     1
  1
キャップ
  7
CONVERTER_11
 73
     1
 44
0.54545454545455
  0
TEXT
  5
159
330
1F
100
AcDbEntity
  8
1
 62
     7
100
AcDbText
 10
132.8899464961761
 20
76.03201583352129
 30
0.0
 40
3.0
  1
TW19山8
 41
0.89
  7
CONVERTER_11
100
AcDbText
  0
MTEXT
  5
15A
330
1F
100
AcDbEntity
  8
1
 62
     7
100
AcDbMText
 10
88.18713473076289
 20
74.89744921629261
 30
0.0
 40
3.0
 41
0.0
 71
     9
 72
     1
  1
W24山20
  7
CONVERTER_11
 73
     1
 44
1.0
  0
MTEXT
  5
15B
330
1F
100
AcDbEntity
  8
1
 62
     7
100
AcDbMText
 10
93.74999999999997
 20
17.0
 30
0.0
 40
3.5
 41
0.0
 71
     5
 72
     1
  1
1
  7
CONVERTER_12
 73
     1
 44
0.7202881152461
  0
MTEXT
  5
15C
330
1F
100
AcDbEntity
  8
1
 62
     7
100
AcDbMText
 10
56.99999999999997
 20
14.25
 30
0.0
 40
3.5
 41
0.0
 71
     5
 72
     1
  1
R19A-13
  7
CONVERTER_12
 73
     1
 44
0.7202881152461
  0
MTEXT
  5
15D
330
1F
100
AcDbEntity
  8
1
 62
     7
100
AcDbMText
 10
56.99999999999997
 20
22.75000000000001
 30
0.0
 40
3.5
 41
0.0
 71
     5
 72
     1
  1
給水栓上部
  7
CONVERTER_11
 73
     1
 44
0.54545454545455
  0
MTEXT
  5
15E
330
1F
100
AcDbEntity
  8
1
 62
     7
100
AcDbMText
 10
85.24999999999997
 20
17.0
 30
0.0
 40
3.5
 41
0.0
 71
     5
 72
     1
  1
1
  7
CONVERTER_12
 73
     1
 44
0.7202881152461
  0
MTEXT
  5
15F
330
1F
100
AcDbEntity
  8
0
 62
     7
100
AcDbMText
 10
33.99999999999999
 20
34.00000000000001
 30
0.0
 40
3.5
 41
0.0
 71
     4
 72
     1
  1
湯,水用キャップ付
  7
CONVERTER_11
 73
     1
 44
0.63636363636364
  0
DIMENSION
  5
16A
330
1F
100
AcDbEntity
  8
1
100
AcDbDimension
  2
*D8
 10
71.90760247332449
 20
80.42307338743191
 30
0.0
 11
69.15760247332449
 21
107.9043537428181
 31
0.0
 70
    32
  1
57
 71
     5
 42
-1.0
 53
90.0
  3
ME10_DIM_10
100
AcDbAlignedDimension
 13
112.8306469922001
 23
137.2230733874318
 33
0.0
 14
110.1806469922
 24
80.42307338743191
 34
0.0
 50
90.0
100
AcDbRotatedDimension
  0
DIMENSION
  5
175
330
1F
100
AcDbEntity
  8
1
100
AcDbDimension
  2
*D9
 10
79.90760247332449
 20
80.42307338743191
 30
0.0
 11
77.15760247332449
 21
87.84334253423691
 31
0.0
 70
    32
  1
15
 71
     5
 42
-1.0
 53
90.0
  3
ME10_DIM_11
100
AcDbAlignedDimension
 13
92.90622732560828
 23
94.72307338743181
 33
0.0
 14
108.3806469922
 24
80.42307338743191
 34
0.0
 50
90.0
100
AcDbRotatedDimension
  0
DIMENSION
  5
180
330
1F
100
AcDbEntity
  8
1
100
AcDbDimension
  2
*D10
 10
90.83064699219517
 20
229.054732589608
 30
0.0
 11
112.897492314707
 21
231.804732589608
 31
0.0
 70
    32
  1
<>
 71
     5
 42
-1.0
 53
0.00013888888889
  3
ME10_DIM_12
100
AcDbAlignedDimension
 13
134.830646992205
 23
196.3569404856974
 33
0.0
 14
90.83064699219517
 24
196.3569404856974
 34
0.0
100
AcDbRotatedDimension
  0
ENDSEC
  0
SECTION
  2
OBJECTS
  0
DICTIONARY
  5
C
330
0
100
AcDbDictionary
281
     1
  3
ACAD_GROUP
350
D
  3
ACAD_LAYOUT
350
1A
  3
ACAD_MATERIAL
350
3B
  3
ACAD_MLEADERSTYLE
350
183
  3
ACAD_MLINESTYLE
350
17
  3
ACAD_PLOTSETTINGS
350
19
  3
ACAD_PLOTSTYLENAME
350
E
  3
ACAD_VISUALSTYLE
350
2A
  3
AcDbVariableDictionary
350
181
  0
DICTIONARY
  5
D
102
{ACAD_REACTORS
330
C
102
}
330
C
100
AcDbDictionary
281
     1
  0
DICTIONARY
  5
1A
102
{ACAD_REACTORS
330
C
102
}
330
C
100
AcDbDictionary
281
     1
  3
Layout1
350
1E
  3
Layout2
350
26
  3
Model
350
22
  0
DICTIONARY
  5
3B
102
{ACAD_REACTORS
330
C
102
}
330
C
100
AcDbDictionary
281
     1
  3
ByBlock
350
3D
  3
ByLayer
350
3C
  3
Global
350
3E
  0
DICTIONARY
  5
183
102
{ACAD_REACTORS
330
C
102
}
330
C
100
AcDbDictionary
281
     1
  0
DICTIONARY
  5
17
102
{ACAD_REACTORS
330
C
102
}
330
C
100
AcDbDictionary
281
     1
  3
Standard
350
18
  0
DICTIONARY
  5
19
102
{ACAD_REACTORS
330
C
102
}
330
C
100
AcDbDictionary
281
     1
  0
ACDBDICTIONARYWDFLT
  5
E
102
{ACAD_REACTORS
330
C
102
}
330
C
100
AcDbDictionary
281
     1
  3
Normal
350
F
100
AcDbDictionaryWithDefault
340
F
  0
DICTIONARY
  5
2A
102
{ACAD_REACTORS
330
C
102
}
330
C
100
AcDbDictionary
281
     1
  3
2dWireframe
350
2F
  3
3D Hidden
350
31
  3
3dWireframe
350
30
  3
Basic
350
32
  3
Brighten
350
36
  3
ColorChange
350
3A
  3
Conceptual
350
34
  3
Dim
350
35
  3
Facepattern
350
39
  3
Flat
350
2B
  3
FlatWithEdges
350
2C
  3
Gouraud
350
2D
  3
GouraudWithEdges
350
2E
  3
Linepattern
350
38
  3
Realistic
350
33
  3
Thicken
350
37
  0
DICTIONARY
  5
181
102
{ACAD_REACTORS
330
C
102
}
330
C
100
AcDbDictionary
281
     1
  3
DIMASSOC
350
184
  3
HIDETEXT
350
185
  0
LAYOUT
  5
1E
102
{ACAD_REACTORS
330
1A
102
}
330
1A
100
AcDbPlotSettings
  1

  2
none_device
  4

  6

 40
0.0
 41
0.0
 42
0.0
 43
0.0
 44
0.0
 45
0.0
 46
0.0
 47
0.0
 48
0.0
 49
0.0
140
0.0
141
0.0
142
1.0
143
1.0
 70
   688
 72
     0
 73
     0
 74
     5
  7

 75
    16
147
1.0
148
0.0
149
0.0
100
AcDbLayout
  1
Layout1
 70
     1
 71
     1
 10
0.0
 20
0.0
 11
12.0
 21
9.0
 12
0.0
 22
0.0
 32
0.0
 14
1.00000000000000E+20
 24
1.00000000000000E+20
 34
1.00000000000000E+20
 15
-1.00000000000000E+20
 25
-1.00000000000000E+20
 35
-1.00000000000000E+20
146
0.0
 13
0.0
 23
0.0
 33
0.0
 16
1.0
 26
0.0
 36
0.0
 17
0.0
 27
1.0
 37
0.0
 76
     0
330
1B
  0
LAYOUT
  5
26
102
{ACAD_REACTORS
330
1A
102
}
330
1A
100
AcDbPlotSettings
  1

  2
none_device
  4

  6

 40
0.0
 41
0.0
 42
0.0
 43
0.0
 44
0.0
 45
0.0
 46
0.0
 47
0.0
 48
0.0
 49
0.0
140
0.0
141
0.0
142
1.0
143
1.0
 70
   688
 72
     0
 73
     0
 74
     5
  7

 75
    16
147
1.0
148
0.0
149
0.0
100
AcDbLayout
  1
Layout2
 70
     1
 71
     2
 10
0.0
 20
0.0
 11
0.0
 21
0.0
 12
0.0
 22
0.0
 32
0.0
 14
0.0
 24
0.0
 34
0.0
 15
0.0
 25
0.0
 35
0.0
146
0.0
 13
0.0
 23
0.0
 33
0.0
 16
1.0
 26
0.0
 36
0.0
 17
0.0
 27
1.0
 37
0.0
 76
     0
330
23
  0
LAYOUT
  5
22
102
{ACAD_REACTORS
330
1A
102
}
330
1A
100
AcDbPlotSettings
  1

  2
none_device
  4

  6

 40
0.0
 41
0.0
 42
0.0
 43
0.0
 44
0.0
 45
0.0
 46
0.0
 47
0.0
 48
0.0
 49
0.0
140
0.0
141
0.0
142
1.0
143
1.0
 70
  1712
 72
     0
 73
     0
 74
     0
  7

 75
     0
147
1.0
148
0.0
149
0.0
100
AcDbLayout
  1
Model
 70
     1
 71
     0
 10
0.0
 20
0.0
 11
12.0
 21
9.0
 12
0.0
 22
0.0
 32
0.0
 14
0.0
 24
0.0
 34
0.0
 15
210.0000000000001
 25
297.0
 35
0.0
146
0.0
 13
0.0
 23
0.0
 33
0.0
 16
1.0
 26
0.0
 36
0.0
 17
0.0
 27
1.0
 37
0.0
 76
     0
330
1F
331
29
  0
MATERIAL
  5
3D
102
{ACAD_REACTORS
330
3B
102
}
102
{ACAD_XDICTIONARY
360
1A8
102
}
330
3B
100
AcDbMaterial
  1
ByBlock
  0
MATERIAL
  5
3C
102
{ACAD_REACTORS
330
3B
102
}
102
{ACAD_XDICTIONARY
360
1A6
102
}
330
3B
100
AcDbMaterial
  1
ByLayer
  0
MATERIAL
  5
3E
102
{ACAD_REACTORS
330
3B
102
}
102
{ACAD_XDICTIONARY
360
1AA
102
}
330
3B
100
AcDbMaterial
  1
Global
  0
MLINESTYLE
  5
18
102
{ACAD_REACTORS
330
17
102
}
330
17
100
AcDbMlineStyle
  2
Standard
 70
     0
  3

 62
   256
 51
90.0
 52
90.0
 71
     2
 49
0.5
 62
   256
  6
BYLAYER
 49
-0.5
 62
   256
  6
BYLAYER
  0
ACDBPLACEHOLDER
  5
F
102
{ACAD_REACTORS
330
E
102
}
330
E
  0
VISUALSTYLE
  5
2F
102
{ACAD_REACTORS
330
2A
102
}
102
{ACAD_XDICTIONARY
360
18E
102
}
330
2A
100
AcDbVisualStyle
  2
2dWireframe
 70
     4
 71
     0
 72
     2
 73
     0
 90
        0
 40
-0.6
 41
-30.0
 62
     5
 63
     7
 74
     1
 91
        4
 64
     7
 65
   257
 75
     1
175
     1
 42
1.0
 92
        0
 66
   257
 43
1.0
 76
     1
 77
     6
 78
     2
 67
     7
 79
     5
170
     0
171
     0
290
     0
174
     0
 93
        1
 44
0.0
173
     0
291
     0
 45
0.0
1001
ACAD
1000
AcDbSavedByObjectVersion
1070
     0
  0
VISUALSTYLE
  5
31
102
{ACAD_REACTORS
330
2A
102
}
102
{ACAD_XDICTIONARY
360
192
102
}
330
2A
100
AcDbVisualStyle
  2
3D Hidden
 70
     6
 71
     1
 72
     2
 73
     2
 90
        0
 40
-0.6
 41
-30.0
 62
     5
 63
     7
 74
     2
 91
        2
 64
     7
 65
   257
 75
     2
175
     1
 42
40.0
 92
        0
 66
   257
 43
1.0
 76
     1
 77
     6
 78
     2
 67
     7
 79
     3
170
     0
171
     0
290
     0
174
     0
 93
        1
 44
0.0
173
     0
291
     0
 45
0.0
1001
ACAD
1000
AcDbSavedByObjectVersion
1070
     0
  0
VISUALSTYLE
  5
30
102
{ACAD_REACTORS
330
2A
102
}
102
{ACAD_XDICTIONARY
360
190
102
}
330
2A
100
AcDbVisualStyle
  2
3dWireframe
 70
     5
 71
     0
 72
     2
 73
     0
 90
        0
 40
-0.6
 41
-30.0
 62
     5
 63
     7
 74
     1
 91
        4
 64
     7
 65
   257
 75
     1
175
     1
 42
1.0
 92
        0
 66
   257
 43
1.0
 76
     1
 77
     6
 78
     2
 67
     7
 79
     5
170
     0
171
     0
290
     0
174
     0
 93
        1
 44
0.0
173
     0
291
     0
 45
0.0
1001
ACAD
1000
AcDbSavedByObjectVersion
1070
     0
  0
VISUALSTYLE
  5
32
102
{ACAD_REACTORS
330
2A
102
}
102
{ACAD_XDICTIONARY
360
194
102
}
330
2A
100
AcDbVisualStyle
  2
Basic
 70
     7
 71
     1
 72
     0
 73
     1
 90
        0
 40
-0.6
 41
-30.0
 62
     5
 63
     7
 74
     0
 91
        4
 64
     7
 65
   257
 75
     1
175
     1
 42
1.0
 92
        8
 66
     7
 43
1.0
 76
     1
 77
     6
 78
     2
 67
     7
 79
     5
170
     0
171
     0
290
     0
174
     0
 93
        1
 44
0.0
173
     0
291
     1
 45
0.0
1001
ACAD
1000
AcDbSavedByObjectVersion
1070
     0
  0
VISUALSTYLE
  5
36
102
{ACAD_REACTORS
330
2A
102
}
102
{ACAD_XDICTIONARY
360
19C
102
}
330
2A
100
AcDbVisualStyle
  2
Brighten
 70
    12
 71
     2
 72
     2
 73
     0
 90
        0
 40
-0.6
 41
-30.0
 62
     5
 63
     7
 74
     1
 91
        4
 64
     7
 65
   257
 75
     1
175
     1
 42
1.0
 92
        8
 66
     7
 43
1.0
 76
     1
 77
     6
 78
     2
 67
     7
 79
     5
170
     0
171
     0
290
     0
174
     0
 93
        1
 44
50.0
173
     0
291
     1
 45
0.0
1001
ACAD
1000
AcDbSavedByObjectVersion
1070
     0
  0
VISUALSTYLE
  5
3A
102
{ACAD_REACTORS
330
2A
102
}
102
{ACAD_XDICTIONARY
360
1A4
102
}
330
2A
100
AcDbVisualStyle
  2
ColorChange
 70
    16
 71
     2
 72
     2
 73
     3
 90
        0
 40
-0.6
 41
-30.0
 62
     5
 63
     8
 74
     1
 91
        4
 64
     7
 65
   257
 75
     1
175
     1
 42
1.0
 92
        8
 66
     8
 43
1.0
 76
     1
 77
     6
 78
     2
 67
     7
 79
     5
170
     0
171
     0
290
     0
174
     0
 93
        1
 44
0.0
173
     0
291
     1
 45
0.0
1001
ACAD
1000
AcDbSavedByObjectVersion
1070
     0
  0
VISUALSTYLE
  5
34
102
{ACAD_REACTORS
330
2A
102
}
102
{ACAD_XDICTIONARY
360
198
102
}
330
2A
100
AcDbVisualStyle
  2
Conceptual
 70
     9
 71
     3
 72
     2
 73
     0
 90
        0
 40
-0.6
 41
-30.0
 62
     5
 63
     7
 74
     2
 91
        2
 64
     7
 65
   257
 75
     1
175
     1
 42
40.0
 92
        8
 66
     7
 43
1.0
 76
     1
 77
     6
 78
     2
 67
     7
 79
     3
170
     0
171
     0
290
     0
174
     0
 93
        1
 44
0.0
173
     0
291
     0
 45
0.0
1001
ACAD
1000
AcDbSavedByObjectVersion
1070
     0
  0
VISUALSTYLE
  5
35
102
{ACAD_REACTORS
330
2A
102
}
102
{ACAD_XDICTIONARY
360
19A
102
}
330
2A
100
AcDbVisualStyle
  2
Dim
 70
    11
 71
     2
 72
     2
 73
     0
 90
        0
 40
-0.6
 41
-30.0
 62
     5
 63
     7
 74
     1
 91
        4
 64
     7
 65
   257
 75
     1
175
     1
 42
1.0
 92
        8
 66
     7
 43
1.0
 76
     1
 77
     6
 78
     2
 67
     7
 79
     5
170
     0
171
     0
290
     0
174
     0
 93
        1
 44
-50.0
173
     0
291
     1
 45
0.0
1001
ACAD
1000
AcDbSavedByObjectVersion
1070
     0
  0
VISUALSTYLE
  5
39
102
{ACAD_REACTORS
330
2A
102
}
102
{ACAD_XDICTIONARY
360
1A2
102
}
330
2A
100
AcDbVisualStyle
  2
Facepattern
 70
    15
 71
     2
 72
     2
 73
     0
 90
        0
 40
-0.6
 41
-30.0
 62
     5
 63
     7
 74
     1
 91
        4
 64
     7
 65
   257
 75
     1
175
     1
 42
1.0
 92
        8
 66
     7
 43
1.0
 76
     1
 77
     6
 78
     2
 67
     7
 79
     5
170
     0
171
     0
290
     0
174
     0
 93
        1
 44
0.0
173
     0
291
     1
 45
0.0
1001
ACAD
1000
AcDbSavedByObjectVersion
1070
     0
  0
VISUALSTYLE
  5
2B
102
{ACAD_REACTORS
330
2A
102
}
102
{ACAD_XDICTIONARY
360
186
102
}
330
2A
100
AcDbVisualStyle
  2
Flat
 70
     0
 71
     2
 72
     1
 73
     1
 90
        2
 40
-0.6
 41
30.0
 62
     5
 63
     7
 74
     0
 91
        4
 64
     7
 65
   257
 75
     1
175
     1
 42
1.0
 92
        8
 66
     7
 43
1.0
 76
     1
 77
     6
 78
     2
 67
     7
 79
     5
170
     0
171
     0
290
     0
174
     0
 93
       13
 44
0.0
173
     0
291
     1
 45
0.0
1001
ACAD
1000
AcDbSavedByObjectVersion
1070
     0
  0
VISUALSTYLE
  5
2C
102
{ACAD_REACTORS
330
2A
102
}
102
{ACAD_XDICTIONARY
360
188
102
}
330
2A
100
AcDbVisualStyle
  2
FlatWithEdges
 70
     1
 71
     2
 72
     1
 73
     1
 90
        2
 40
-0.6
 41
30.0
 62
     5
 63
     7
 74
     1
 91
        4
 64
     7
 65
   257
 75
     1
175
     1
 42
1.0
 92
        0
 66
   257
 43
1.0
 76
     1
 77
     6
 78
     2
 67
     7
 79
     5
170
     0
171
     0
290
     0
174
     0
 93
       13
 44
0.0
173
     0
291
     1
 45
0.0
1001
ACAD
1000
AcDbSavedByObjectVersion
1070
     0
  0
VISUALSTYLE
  5
2D
102
{ACAD_REACTORS
330
2A
102
}
102
{ACAD_XDICTIONARY
360
18A
102
}
330
2A
100
AcDbVisualStyle
  2
Gouraud
 70
     2
 71
     2
 72
     2
 73
     1
 90
        2
 40
-0.6
 41
30.0
 62
     5
 63
     7
 74
     0
 91
        4
 64
     7
 65
   257
 75
     1
175
     1
 42
1.0
 92
        0
 66
     7
 43
1.0
 76
     1
 77
     6
 78
     2
 67
     7
 79
     5
170
     0
171
     0
290
     0
174
     0
 93
       13
 44
0.0
173
     0
291
     1
 45
0.0
1001
ACAD
1000
AcDbSavedByObjectVersion
1070
     0
  0
VISUALSTYLE
  5
2E
102
{ACAD_REACTORS
330
2A
102
}
102
{ACAD_XDICTIONARY
360
18C
102
}
330
2A
100
AcDbVisualStyle
  2
GouraudWithEdges
 70
     3
 71
     2
 72
     2
 73
     1
 90
        2
 40
-0.6
 41
30.0
 62
     5
 63
     7
 74
     1
 91
        4
 64
     7
 65
   257
 75
     1
175
     1
 42
1.0
 92
        0
 66
   257
 43
1.0
 76
     1
 77
     6
 78
     2
 67
     7
 79
     5
170
     0
171
     0
290
     0
174
     0
 93
       13
 44
0.0
173
     0
291
     1
 45
0.0
1001
ACAD
1000
AcDbSavedByObjectVersion
1070
     0
  0
VISUALSTYLE
  5
38
102
{ACAD_REACTORS
330
2A
102
}
102
{ACAD_XDICTIONARY
360
1A0
102
}
330
2A
100
AcDbVisualStyle
  2
Linepattern
 70
    14
 71
     2
 72
     2
 73
     0
 90
        0
 40
-0.6
 41
-30.0
 62
     5
 63
     7
 74
     1
 91
        4
 64
     7
 65
   257
 75
     7
175
     7
 42
1.0
 92
        8
 66
     7
 43
1.0
 76
     1
 77
     6
 78
     2
 67
     7
 79
     5
170
     0
171
     0
290
     0
174
     0
 93
        1
 44
0.0
173
     0
291
     1
 45
0.0
1001
ACAD
1000
AcDbSavedByObjectVersion
1070
     0
  0
VISUALSTYLE
  5
33
102
{ACAD_REACTORS
330
2A
102
}
102
{ACAD_XDICTIONARY
360
196
102
}
330
2A
100
AcDbVisualStyle
  2
Realistic
 70
     8
 71
     2
 72
     2
 73
     0
 90
        0
 40
-0.6
 41
-30.0
 62
     5
 63
     7
 74
     1
 91
        0
 64
     7
 65
   257
 75
     1
175
     1
 42
1.0
 92
        8
 66
     8
 43
1.0
 76
     1
 77
     6
 78
     2
 67
     7
 79
     5
170
     0
171
     0
290
     0
174
     0
 93
       13
 44
0.0
173
     0
291
     0
 45
0.0
1001
ACAD
1000
AcDbSavedByObjectVersion
1070
     0
  0
VISUALSTYLE
  5
37
102
{ACAD_REACTORS
330
2A
102
}
102
{ACAD_XDICTIONARY
360
19E
102
}
330
2A
100
AcDbVisualStyle
  2
Thicken
 70
    13
 71
     2
 72
     2
 73
     0
 90
        0
 40
-0.6
 41
-30.0
 62
     5
 63
     7
 74
     1
 91
        4
 64
     7
 65
   257
 75
     1
175
     1
 42
1.0
 92
       12
 66
     7
 43
1.0
 76
     1
 77
     6
 78
     2
 67
     7
 79
     5
170
     0
171
     0
290
     0
174
     0
 93
        1
 44
0.0
173
     0
291
     1
 45
0.0
1001
ACAD
1000
AcDbSavedByObjectVersion
1070
     0
  0
DICTIONARYVAR
  5
184
102
{ACAD_REACTORS
330
181
102
}
330
181
100
DictionaryVariables
280
     0
  1
2
  0
DICTIONARYVAR
  5
185
102
{ACAD_REACTORS
330
181
102
}
330
181
100
DictionaryVariables
280
     0
  1
1
  0
DICTIONARY
  5
1A8
330
3D
100
AcDbDictionary
280
     1
281
     1
  3
ACAD_XREC_ROUNDTRIP
360
1A9
  0
DICTIONARY
  5
1A6
330
3C
100
AcDbDictionary
280
     1
281
     1
  3
ACAD_XREC_ROUNDTRIP
360
1A7
  0
DICTIONARY
  5
1AA
330
3E
100
AcDbDictionary
280
     1
281
     1
  3
ACAD_XREC_ROUNDTRIP
360
1AB
  0
DICTIONARY
  5
18E
330
2F
100
AcDbDictionary
280
     1
281
     1
  3
ACAD_XREC_ROUNDTRIP
360
18F
  0
DICTIONARY
  5
192
330
31
100
AcDbDictionary
280
     1
281
     1
  3
ACAD_XREC_ROUNDTRIP
360
193
  0
DICTIONARY
  5
190
330
30
100
AcDbDictionary
280
     1
281
     1
  3
ACAD_XREC_ROUNDTRIP
360
191
  0
DICTIONARY
  5
194
330
32
100
AcDbDictionary
280
     1
281
     1
  3
ACAD_XREC_ROUNDTRIP
360
195
  0
DICTIONARY
  5
19C
330
36
100
AcDbDictionary
280
     1
281
     1
  3
ACAD_XREC_ROUNDTRIP
360
19D
  0
DICTIONARY
  5
1A4
330
3A
100
AcDbDictionary
280
     1
281
     1
  3
ACAD_XREC_ROUNDTRIP
360
1A5
  0
DICTIONARY
  5
198
330
34
100
AcDbDictionary
280
     1
281
     1
  3
ACAD_XREC_ROUNDTRIP
360
199
  0
DICTIONARY
  5
19A
330
35
100
AcDbDictionary
280
     1
281
     1
  3
ACAD_XREC_ROUNDTRIP
360
19B
  0
DICTIONARY
  5
1A2
330
39
100
AcDbDictionary
280
     1
281
     1
  3
ACAD_XREC_ROUNDTRIP
360
1A3
  0
DICTIONARY
  5
186
330
2B
100
AcDbDictionary
280
     1
281
     1
  3
ACAD_XREC_ROUNDTRIP
360
187
  0
DICTIONARY
  5
188
330
2C
100
AcDbDictionary
280
     1
281
     1
  3
ACAD_XREC_ROUNDTRIP
360
189
  0
DICTIONARY
  5
18A
330
2D
100
AcDbDictionary
280
     1
281
     1
  3
ACAD_XREC_ROUNDTRIP
360
18B
  0
DICTIONARY
  5
18C
330
2E
100
AcDbDictionary
280
     1
281
     1
  3
ACAD_XREC_ROUNDTRIP
360
18D
  0
DICTIONARY
  5
1A0
330
38
100
AcDbDictionary
280
     1
281
     1
  3
ACAD_XREC_ROUNDTRIP
360
1A1
  0
DICTIONARY
  5
196
330
33
100
AcDbDictionary
280
     1
281
     1
  3
ACAD_XREC_ROUNDTRIP
360
197
  0
DICTIONARY
  5
19E
330
37
100
AcDbDictionary
280
     1
281
     1
  3
ACAD_XREC_ROUNDTRIP
360
19F
  0
XRECORD
  5
1A9
102
{ACAD_REACTORS
330
1A8
102
}
330
1A8
100
AcDbXrecord
280
     1
102
MATERIAL
148
0.0
149
0.0
149
0.0
 93
        0
 94
      127
282
     0
 72
     1
 77
     1
171
     1
175
     1
179
     1
273
     0
  0
XRECORD
  5
1A7
102
{ACAD_REACTORS
330
1A6
102
}
330
1A6
100
AcDbXrecord
280
     1
102
MATERIAL
148
0.0
149
0.0
149
0.0
 93
        0
 94
      127
282
     0
 72
     1
 77
     1
171
     1
175
     1
179
     1
273
     0
  0
XRECORD
  5
1AB
102
{ACAD_REACTORS
330
1AA
102
}
330
1AA
100
AcDbXrecord
280
     1
102
MATERIAL
148
0.0
149
0.0
149
0.0
 93
        0
 94
      127
282
     0
 72
     1
 77
     1
171
     1
175
     1
179
     1
273
     0
  0
XRECORD
  5
18F
102
{ACAD_REACTORS
330
18E
102
}
330
18E
100
AcDbXrecord
280
     1
102
RTVSPropertyOp0
 70
     1
102
RTVSPropertyOp1
 70
     1
102
RTVSPropertyOp2
 70
     1
102
RTVSPropertyOp3
 70
     1
102
RTVSPropertyOp4
 70
     1
102
RTVSPropertyOp5
 70
     1
102
RTVSPropertyOp6
 70
     1
102
RTVSPropertyOp7
 70
     1
102
RTVSPropertyOp8
 70
     1
102
RTVSPropertyOp9
 70
     1
102
RTVSPropertyOp10
 70
     1
102
RTVSPropertyOp11
 70
     1
102
RTVSPropertyOp12
 70
     1
102
RTVSPropertyOp13
 70
     1
102
RTVSPropertyOp14
 70
     1
102
RTVSPropertyOp15
 70
     1
102
RTVSPropertyOp16
 70
     1
102
RTVSPropertyOp17
 70
     1
102
RTVSPropertyOp18
 70
     1
102
RTVSPropertyOp19
 70
     1
102
RTVSPropertyOp20
 70
     1
102
RTVSPropertyOp21
 70
     1
102
RTVSPropertyOp22
 70
     1
102
RTVSPropertyOp23
 70
     1
102
RTVSPropertyOp24
 70
     1
102
RTVSPropertyOp25
 70
     1
102
RTVSPropertyOp26
 70
     1
102
RTVSPropertyOp27
 70
     1
102
RTVSPropertyOp28
 70
     1
102
RTVSPropertyOp29
 70
     1
102
RTVSPropertyOp30
 70
     1
102
RTVSPropertyOp31
 70
     1
102
RTVSPropertyOp32
 70
     1
  0
XRECORD
  5
193
102
{ACAD_REACTORS
330
192
102
}
330
192
100
AcDbXrecord
280
     1
102
RTVSPropertyOp0
 70
     1
102
RTVSPropertyOp1
 70
     1
102
RTVSPropertyOp2
 70
     1
102
RTVSPropertyOp3
 70
     1
102
RTVSPropertyOp4
 70
     1
102
RTVSPropertyOp5
 70
     1
102
RTVSPropertyOp6
 70
     1
102
RTVSPropertyOp7
 70
     1
102
RTVSPropertyOp8
 70
     1
102
RTVSPropertyOp9
 70
     1
102
RTVSPropertyOp10
 70
     1
102
RTVSPropertyOp11
 70
     1
102
RTVSPropertyOp12
 70
     1
102
RTVSPropertyOp13
 70
     1
102
RTVSPropertyOp14
 70
     1
102
RTVSPropertyOp15
 70
     1
102
RTVSPropertyOp16
 70
     1
102
RTVSPropertyOp17
 70
     1
102
RTVSPropertyOp18
 70
     1
102
RTVSPropertyOp19
 70
     1
102
RTVSPropertyOp20
 70
     1
102
RTVSPropertyOp21
 70
     1
102
RTVSPropertyOp22
 70
     1
102
RTVSPropertyOp23
 70
     1
102
RTVSPropertyOp24
 70
     1
102
RTVSPropertyOp25
 70
     1
102
RTVSPropertyOp26
 70
     1
102
RTVSPropertyOp27
 70
     1
102
RTVSPropertyOp28
 70
     1
102
RTVSPropertyOp29
 70
     1
102
RTVSPropertyOp30
 70
     1
102
RTVSPropertyOp31
 70
     1
102
RTVSPropertyOp32
 70
     1
  0
XRECORD
  5
191
102
{ACAD_REACTORS
330
190
102
}
330
190
100
AcDbXrecord
280
     1
102
RTVSPropertyOp0
 70
     1
102
RTVSPropertyOp1
 70
     1
102
RTVSPropertyOp2
 70
     1
102
RTVSPropertyOp3
 70
     1
102
RTVSPropertyOp4
 70
     1
102
RTVSPropertyOp5
 70
     1
102
RTVSPropertyOp6
 70
     1
102
RTVSPropertyOp7
 70
     1
102
RTVSPropertyOp8
 70
     1
102
RTVSPropertyOp9
 70
     1
102
RTVSPropertyOp10
 70
     1
102
RTVSPropertyOp11
 70
     1
102
RTVSPropertyOp12
 70
     1
102
RTVSPropertyOp13
 70
     1
102
RTVSPropertyOp14
 70
     1
102
RTVSPropertyOp15
 70
     1
102
RTVSPropertyOp16
 70
     1
102
RTVSPropertyOp17
 70
     1
102
RTVSPropertyOp18
 70
     1
102
RTVSPropertyOp19
 70
     1
102
RTVSPropertyOp20
 70
     1
102
RTVSPropertyOp21
 70
     1
102
RTVSPropertyOp22
 70
     1
102
RTVSPropertyOp23
 70
     1
102
RTVSPropertyOp24
 70
     1
102
RTVSPropertyOp25
 70
     1
102
RTVSPropertyOp26
 70
     1
102
RTVSPropertyOp27
 70
     1
102
RTVSPropertyOp28
 70
     1
102
RTVSPropertyOp29
 70
     1
102
RTVSPropertyOp30
 70
     1
102
RTVSPropertyOp31
 70
     1
102
RTVSPropertyOp32
 70
     1
  0
XRECORD
  5
195
102
{ACAD_REACTORS
330
194
102
}
330
194
100
AcDbXrecord
280
     1
102
RTVSPropertyOp0
 70
     1
102
RTVSPropertyOp1
 70
     1
102
RTVSPropertyOp2
 70
     1
102
RTVSPropertyOp3
 70
     1
102
RTVSPropertyOp4
 70
     1
102
RTVSPropertyOp5
 70
     1
102
RTVSPropertyOp6
 70
     1
102
RTVSPropertyOp7
 70
     1
102
RTVSPropertyOp8
 70
     1
102
RTVSPropertyOp9
 70
     1
102
RTVSPropertyOp10
 70
     1
102
RTVSPropertyOp11
 70
     1
102
RTVSPropertyOp12
 70
     1
102
RTVSPropertyOp13
 70
     1
102
RTVSPropertyOp14
 70
     1
102
RTVSPropertyOp15
 70
     1
102
RTVSPropertyOp16
 70
     1
102
RTVSPropertyOp17
 70
     1
102
RTVSPropertyOp18
 70
     1
102
RTVSPropertyOp19
 70
     1
102
RTVSPropertyOp20
 70
     1
102
RTVSPropertyOp21
 70
     1
102
RTVSPropertyOp22
 70
     1
102
RTVSPropertyOp23
 70
     1
102
RTVSPropertyOp24
 70
     1
102
RTVSPropertyOp25
 70
     1
102
RTVSPropertyOp26
 70
     1
102
RTVSPropertyOp27
 70
     1
102
RTVSPropertyOp28
 70
     1
102
RTVSPropertyOp29
 70
     1
102
RTVSPropertyOp30
 70
     1
102
RTVSPropertyOp31
 70
     1
102
RTVSPropertyOp32
 70
     1
  0
XRECORD
  5
19D
102
{ACAD_REACTORS
330
19C
102
}
330
19C
100
AcDbXrecord
280
     1
102
RTVSPropertyOp0
 70
     1
102
RTVSPropertyOp1
 70
     1
102
RTVSPropertyOp2
 70
     1
102
RTVSPropertyOp3
 70
     1
102
RTVSPropertyOp4
 70
     1
102
RTVSPropertyOp5
 70
     1
102
RTVSPropertyOp6
 70
     1
102
RTVSPropertyOp7
 70
     1
102
RTVSPropertyOp8
 70
     1
102
RTVSPropertyOp9
 70
     1
102
RTVSPropertyOp10
 70
     1
102
RTVSPropertyOp11
 70
     1
102
RTVSPropertyOp12
 70
     1
102
RTVSPropertyOp13
 70
     1
102
RTVSPropertyOp14
 70
     1
102
RTVSPropertyOp15
 70
     1
102
RTVSPropertyOp16
 70
     1
102
RTVSPropertyOp17
 70
     1
102
RTVSPropertyOp18
 70
     1
102
RTVSPropertyOp19
 70
     1
102
RTVSPropertyOp20
 70
     1
102
RTVSPropertyOp21
 70
     1
102
RTVSPropertyOp22
 70
     1
102
RTVSPropertyOp23
 70
     1
102
RTVSPropertyOp24
 70
     1
102
RTVSPropertyOp25
 70
     1
102
RTVSPropertyOp26
 70
     1
102
RTVSPropertyOp27
 70
     1
102
RTVSPropertyOp28
 70
     1
102
RTVSPropertyOp29
 70
     1
102
RTVSPropertyOp30
 70
     1
102
RTVSPropertyOp31
 70
     1
102
RTVSPropertyOp32
 70
     1
  0
XRECORD
  5
1A5
102
{ACAD_REACTORS
330
1A4
102
}
330
1A4
100
AcDbXrecord
280
     1
102
RTVSPropertyOp0
 70
     1
102
RTVSPropertyOp1
 70
     1
102
RTVSPropertyOp2
 70
     1
102
RTVSPropertyOp3
 70
     1
102
RTVSPropertyOp4
 70
     1
102
RTVSPropertyOp5
 70
     1
102
RTVSPropertyOp6
 70
     1
102
RTVSPropertyOp7
 70
     1
102
RTVSPropertyOp8
 70
     1
102
RTVSPropertyOp9
 70
     1
102
RTVSPropertyOp10
 70
     1
102
RTVSPropertyOp11
 70
     1
102
RTVSPropertyOp12
 70
     1
102
RTVSPropertyOp13
 70
     1
102
RTVSPropertyOp14
 70
     1
102
RTVSPropertyOp15
 70
     1
102
RTVSPropertyOp16
 70
     1
102
RTVSPropertyOp17
 70
     1
102
RTVSPropertyOp18
 70
     1
102
RTVSPropertyOp19
 70
     1
102
RTVSPropertyOp20
 70
     1
102
RTVSPropertyOp21
 70
     1
102
RTVSPropertyOp22
 70
     1
102
RTVSPropertyOp23
 70
     1
102
RTVSPropertyOp24
 70
     1
102
RTVSPropertyOp25
 70
     1
102
RTVSPropertyOp26
 70
     1
102
RTVSPropertyOp27
 70
     1
102
RTVSPropertyOp28
 70
     1
102
RTVSPropertyOp29
 70
     1
102
RTVSPropertyOp30
 70
     1
102
RTVSPropertyOp31
 70
     1
102
RTVSPropertyOp32
 70
     1
  0
XRECORD
  5
199
102
{ACAD_REACTORS
330
198
102
}
330
198
100
AcDbXrecord
280
     1
102
RTVSPropertyOp0
 70
     1
102
RTVSPropertyOp1
 70
     1
102
RTVSPropertyOp2
 70
     1
102
RTVSPropertyOp3
 70
     1
102
RTVSPropertyOp4
 70
     1
102
RTVSPropertyOp5
 70
     1
102
RTVSPropertyOp6
 70
     1
102
RTVSPropertyOp7
 70
     1
102
RTVSPropertyOp8
 70
     1
102
RTVSPropertyOp9
 70
     1
102
RTVSPropertyOp10
 70
     1
102
RTVSPropertyOp11
 70
     1
102
RTVSPropertyOp12
 70
     1
102
RTVSPropertyOp13
 70
     1
102
RTVSPropertyOp14
 70
     1
102
RTVSPropertyOp15
 70
     1
102
RTVSPropertyOp16
 70
     1
102
RTVSPropertyOp17
 70
     1
102
RTVSPropertyOp18
 70
     1
102
RTVSPropertyOp19
 70
     1
102
RTVSPropertyOp20
 70
     1
102
RTVSPropertyOp21
 70
     1
102
RTVSPropertyOp22
 70
     1
102
RTVSPropertyOp23
 70
     1
102
RTVSPropertyOp24
 70
     1
102
RTVSPropertyOp25
 70
     1
102
RTVSPropertyOp26
 70
     1
102
RTVSPropertyOp27
 70
     1
102
RTVSPropertyOp28
 70
     1
102
RTVSPropertyOp29
 70
     1
102
RTVSPropertyOp30
 70
     1
102
RTVSPropertyOp31
 70
     1
102
RTVSPropertyOp32
 70
     1
  0
XRECORD
  5
19B
102
{ACAD_REACTORS
330
19A
102
}
330
19A
100
AcDbXrecord
280
     1
102
RTVSPropertyOp0
 70
     1
102
RTVSPropertyOp1
 70
     1
102
RTVSPropertyOp2
 70
     1
102
RTVSPropertyOp3
 70
     1
102
RTVSPropertyOp4
 70
     1
102
RTVSPropertyOp5
 70
     1
102
RTVSPropertyOp6
 70
     1
102
RTVSPropertyOp7
 70
     1
102
RTVSPropertyOp8
 70
     1
102
RTVSPropertyOp9
 70
     1
102
RTVSPropertyOp10
 70
     1
102
RTVSPropertyOp11
 70
     1
102
RTVSPropertyOp12
 70
     1
102
RTVSPropertyOp13
 70
     1
102
RTVSPropertyOp14
 70
     1
102
RTVSPropertyOp15
 70
     1
102
RTVSPropertyOp16
 70
     1
102
RTVSPropertyOp17
 70
     1
102
RTVSPropertyOp18
 70
     1
102
RTVSPropertyOp19
 70
     1
102
RTVSPropertyOp20
 70
     1
102
RTVSPropertyOp21
 70
     1
102
RTVSPropertyOp22
 70
     1
102
RTVSPropertyOp23
 70
     1
102
RTVSPropertyOp24
 70
     1
102
RTVSPropertyOp25
 70
     1
102
RTVSPropertyOp26
 70
     1
102
RTVSPropertyOp27
 70
     1
102
RTVSPropertyOp28
 70
     1
102
RTVSPropertyOp29
 70
     1
102
RTVSPropertyOp30
 70
     1
102
RTVSPropertyOp31
 70
     1
102
RTVSPropertyOp32
 70
     1
  0
XRECORD
  5
1A3
102
{ACAD_REACTORS
330
1A2
102
}
330
1A2
100
AcDbXrecord
280
     1
102
RTVSPropertyOp0
 70
     1
102
RTVSPropertyOp1
 70
     1
102
RTVSPropertyOp2
 70
     1
102
RTVSPropertyOp3
 70
     1
102
RTVSPropertyOp4
 70
     1
102
RTVSPropertyOp5
 70
     1
102
RTVSPropertyOp6
 70
     1
102
RTVSPropertyOp7
 70
     1
102
RTVSPropertyOp8
 70
     1
102
RTVSPropertyOp9
 70
     1
102
RTVSPropertyOp10
 70
     1
102
RTVSPropertyOp11
 70
     1
102
RTVSPropertyOp12
 70
     1
102
RTVSPropertyOp13
 70
     1
102
RTVSPropertyOp14
 70
     1
102
RTVSPropertyOp15
 70
     1
102
RTVSPropertyOp16
 70
     1
102
RTVSPropertyOp17
 70
     1
102
RTVSPropertyOp18
 70
     1
102
RTVSPropertyOp19
 70
     1
102
RTVSPropertyOp20
 70
     1
102
RTVSPropertyOp21
 70
     1
102
RTVSPropertyOp22
 70
     1
102
RTVSPropertyOp23
 70
     1
102
RTVSPropertyOp24
 70
     1
102
RTVSPropertyOp25
 70
     1
102
RTVSPropertyOp26
 70
     1
102
RTVSPropertyOp27
 70
     1
102
RTVSPropertyOp28
 70
     1
102
RTVSPropertyOp29
 70
     1
102
RTVSPropertyOp30
 70
     1
102
RTVSPropertyOp31
 70
     1
102
RTVSPropertyOp32
 70
     1
  0
XRECORD
  5
187
102
{ACAD_REACTORS
330
186
102
}
330
186
100
AcDbXrecord
280
     1
102
RTVSPropertyOp0
 70
     1
102
RTVSPropertyOp1
 70
     1
102
RTVSPropertyOp2
 70
     1
102
RTVSPropertyOp3
 70
     1
102
RTVSPropertyOp4
 70
     1
102
RTVSPropertyOp5
 70
     1
102
RTVSPropertyOp6
 70
     1
102
RTVSPropertyOp7
 70
     1
102
RTVSPropertyOp8
 70
     1
102
RTVSPropertyOp9
 70
     1
102
RTVSPropertyOp10
 70
     1
102
RTVSPropertyOp11
 70
     1
102
RTVSPropertyOp12
 70
     1
102
RTVSPropertyOp13
 70
     1
102
RTVSPropertyOp14
 70
     1
102
RTVSPropertyOp15
 70
     1
102
RTVSPropertyOp16
 70
     1
102
RTVSPropertyOp17
 70
     1
102
RTVSPropertyOp18
 70
     1
102
RTVSPropertyOp19
 70
     1
102
RTVSPropertyOp20
 70
     1
102
RTVSPropertyOp21
 70
     1
102
RTVSPropertyOp22
 70
     1
102
RTVSPropertyOp23
 70
     1
102
RTVSPropertyOp24
 70
     1
102
RTVSPropertyOp25
 70
     1
102
RTVSPropertyOp26
 70
     1
102
RTVSPropertyOp27
 70
     1
102
RTVSPropertyOp28
 70
     1
102
RTVSPropertyOp29
 70
     1
102
RTVSPropertyOp30
 70
     1
102
RTVSPropertyOp31
 70
     1
102
RTVSPropertyOp32
 70
     1
  0
XRECORD
  5
189
102
{ACAD_REACTORS
330
188
102
}
330
188
100
AcDbXrecord
280
     1
102
RTVSPropertyOp0
 70
     1
102
RTVSPropertyOp1
 70
     1
102
RTVSPropertyOp2
 70
     1
102
RTVSPropertyOp3
 70
     1
102
RTVSPropertyOp4
 70
     1
102
RTVSPropertyOp5
 70
     1
102
RTVSPropertyOp6
 70
     1
102
RTVSPropertyOp7
 70
     1
102
RTVSPropertyOp8
 70
     1
102
RTVSPropertyOp9
 70
     1
102
RTVSPropertyOp10
 70
     1
102
RTVSPropertyOp11
 70
     1
102
RTVSPropertyOp12
 70
     1
102
RTVSPropertyOp13
 70
     1
102
RTVSPropertyOp14
 70
     1
102
RTVSPropertyOp15
 70
     1
102
RTVSPropertyOp16
 70
     1
102
RTVSPropertyOp17
 70
     1
102
RTVSPropertyOp18
 70
     1
102
RTVSPropertyOp19
 70
     1
102
RTVSPropertyOp20
 70
     1
102
RTVSPropertyOp21
 70
     1
102
RTVSPropertyOp22
 70
     1
102
RTVSPropertyOp23
 70
     1
102
RTVSPropertyOp24
 70
     1
102
RTVSPropertyOp25
 70
     1
102
RTVSPropertyOp26
 70
     1
102
RTVSPropertyOp27
 70
     1
102
RTVSPropertyOp28
 70
     1
102
RTVSPropertyOp29
 70
     1
102
RTVSPropertyOp30
 70
     1
102
RTVSPropertyOp31
 70
     1
102
RTVSPropertyOp32
 70
     1
  0
XRECORD
  5
18B
102
{ACAD_REACTORS
330
18A
102
}
330
18A
100
AcDbXrecord
280
     1
102
RTVSPropertyOp0
 70
     1
102
RTVSPropertyOp1
 70
     1
102
RTVSPropertyOp2
 70
     1
102
RTVSPropertyOp3
 70
     1
102
RTVSPropertyOp4
 70
     1
102
RTVSPropertyOp5
 70
     1
102
RTVSPropertyOp6
 70
     1
102
RTVSPropertyOp7
 70
     1
102
RTVSPropertyOp8
 70
     1
102
RTVSPropertyOp9
 70
     1
102
RTVSPropertyOp10
 70
     1
102
RTVSPropertyOp11
 70
     1
102
RTVSPropertyOp12
 70
     1
102
RTVSPropertyOp13
 70
     1
102
RTVSPropertyOp14
 70
     1
102
RTVSPropertyOp15
 70
     1
102
RTVSPropertyOp16
 70
     1
102
RTVSPropertyOp17
 70
     1
102
RTVSPropertyOp18
 70
     1
102
RTVSPropertyOp19
 70
     1
102
RTVSPropertyOp20
 70
     1
102
RTVSPropertyOp21
 70
     1
102
RTVSPropertyOp22
 70
     1
102
RTVSPropertyOp23
 70
     1
102
RTVSPropertyOp24
 70
     1
102
RTVSPropertyOp25
 70
     1
102
RTVSPropertyOp26
 70
     1
102
RTVSPropertyOp27
 70
     1
102
RTVSPropertyOp28
 70
     1
102
RTVSPropertyOp29
 70
     1
102
RTVSPropertyOp30
 70
     1
102
RTVSPropertyOp31
 70
     1
102
RTVSPropertyOp32
 70
     1
  0
XRECORD
  5
18D
102
{ACAD_REACTORS
330
18C
102
}
330
18C
100
AcDbXrecord
280
     1
102
RTVSPropertyOp0
 70
     1
102
RTVSPropertyOp1
 70
     1
102
RTVSPropertyOp2
 70
     1
102
RTVSPropertyOp3
 70
     1
102
RTVSPropertyOp4
 70
     1
102
RTVSPropertyOp5
 70
     1
102
RTVSPropertyOp6
 70
     1
102
RTVSPropertyOp7
 70
     1
102
RTVSPropertyOp8
 70
     1
102
RTVSPropertyOp9
 70
     1
102
RTVSPropertyOp10
 70
     1
102
RTVSPropertyOp11
 70
     1
102
RTVSPropertyOp12
 70
     1
102
RTVSPropertyOp13
 70
     1
102
RTVSPropertyOp14
 70
     1
102
RTVSPropertyOp15
 70
     1
102
RTVSPropertyOp16
 70
     1
102
RTVSPropertyOp17
 70
     1
102
RTVSPropertyOp18
 70
     1
102
RTVSPropertyOp19
 70
     1
102
RTVSPropertyOp20
 70
     1
102
RTVSPropertyOp21
 70
     1
102
RTVSPropertyOp22
 70
     1
102
RTVSPropertyOp23
 70
     1
102
RTVSPropertyOp24
 70
     1
102
RTVSPropertyOp25
 70
     1
102
RTVSPropertyOp26
 70
     1
102
RTVSPropertyOp27
 70
     1
102
RTVSPropertyOp28
 70
     1
102
RTVSPropertyOp29
 70
     1
102
RTVSPropertyOp30
 70
     1
102
RTVSPropertyOp31
 70
     1
102
RTVSPropertyOp32
 70
     1
  0
XRECORD
  5
1A1
102
{ACAD_REACTORS
330
1A0
102
}
330
1A0
100
AcDbXrecord
280
     1
102
RTVSPropertyOp0
 70
     1
102
RTVSPropertyOp1
 70
     1
102
RTVSPropertyOp2
 70
     1
102
RTVSPropertyOp3
 70
     1
102
RTVSPropertyOp4
 70
     1
102
RTVSPropertyOp5
 70
     1
102
RTVSPropertyOp6
 70
     1
102
RTVSPropertyOp7
 70
     1
102
RTVSPropertyOp8
 70
     1
102
RTVSPropertyOp9
 70
     1
102
RTVSPropertyOp10
 70
     1
102
RTVSPropertyOp11
 70
     1
102
RTVSPropertyOp12
 70
     1
102
RTVSPropertyOp13
 70
     1
102
RTVSPropertyOp14
 70
     1
102
RTVSPropertyOp15
 70
     1
102
RTVSPropertyOp16
 70
     1
102
RTVSPropertyOp17
 70
     1
102
RTVSPropertyOp18
 70
     1
102
RTVSPropertyOp19
 70
     1
102
RTVSPropertyOp20
 70
     1
102
RTVSPropertyOp21
 70
     1
102
RTVSPropertyOp22
 70
     1
102
RTVSPropertyOp23
 70
     1
102
RTVSPropertyOp24
 70
     1
102
RTVSPropertyOp25
 70
     1
102
RTVSPropertyOp26
 70
     1
102
RTVSPropertyOp27
 70
     1
102
RTVSPropertyOp28
 70
     1
102
RTVSPropertyOp29
 70
     1
102
RTVSPropertyOp30
 70
     1
102
RTVSPropertyOp31
 70
     1
102
RTVSPropertyOp32
 70
     1
  0
XRECORD
  5
197
102
{ACAD_REACTORS
330
196
102
}
330
196
100
AcDbXrecord
280
     1
102
RTVSPropertyOp0
 70
     1
102
RTVSPropertyOp1
 70
     1
102
RTVSPropertyOp2
 70
     1
102
RTVSPropertyOp3
 70
     1
102
RTVSPropertyOp4
 70
     1
102
RTVSPropertyOp5
 70
     1
102
RTVSPropertyOp6
 70
     1
102
RTVSPropertyOp7
 70
     1
102
RTVSPropertyOp8
 70
     1
102
RTVSPropertyOp9
 70
     1
102
RTVSPropertyOp10
 70
     1
102
RTVSPropertyOp11
 70
     1
102
RTVSPropertyOp12
 70
     1
102
RTVSPropertyOp13
 70
     1
102
RTVSPropertyOp14
 70
     1
102
RTVSPropertyOp15
 70
     1
102
RTVSPropertyOp16
 70
     1
102
RTVSPropertyOp17
 70
     1
102
RTVSPropertyOp18
 70
     1
102
RTVSPropertyOp19
 70
     1
102
RTVSPropertyOp20
 70
     1
102
RTVSPropertyOp21
 70
     1
102
RTVSPropertyOp22
 70
     1
102
RTVSPropertyOp23
 70
     1
102
RTVSPropertyOp24
 70
     1
102
RTVSPropertyOp25
 70
     1
102
RTVSPropertyOp26
 70
     1
102
RTVSPropertyOp27
 70
     1
102
RTVSPropertyOp28
 70
     1
102
RTVSPropertyOp29
 70
     1
102
RTVSPropertyOp30
 70
     1
102
RTVSPropertyOp31
 70
     1
102
RTVSPropertyOp32
 70
     1
  0
XRECORD
  5
19F
102
{ACAD_REACTORS
330
19E
102
}
330
19E
100
AcDbXrecord
280
     1
102
RTVSPropertyOp0
 70
     1
102
RTVSPropertyOp1
 70
     1
102
RTVSPropertyOp2
 70
     1
102
RTVSPropertyOp3
 70
     1
102
RTVSPropertyOp4
 70
     1
102
RTVSPropertyOp5
 70
     1
102
RTVSPropertyOp6
 70
     1
102
RTVSPropertyOp7
 70
     1
102
RTVSPropertyOp8
 70
     1
102
RTVSPropertyOp9
 70
     1
102
RTVSPropertyOp10
 70
     1
102
RTVSPropertyOp11
 70
     1
102
RTVSPropertyOp12
 70
     1
102
RTVSPropertyOp13
 70
     1
102
RTVSPropertyOp14
 70
     1
102
RTVSPropertyOp15
 70
     1
102
RTVSPropertyOp16
 70
     1
102
RTVSPropertyOp17
 70
     1
102
RTVSPropertyOp18
 70
     1
102
RTVSPropertyOp19
 70
     1
102
RTVSPropertyOp20
 70
     1
102
RTVSPropertyOp21
 70
     1
102
RTVSPropertyOp22
 70
     1
102
RTVSPropertyOp23
 70
     1
102
RTVSPropertyOp24
 70
     1
102
RTVSPropertyOp25
 70
     1
102
RTVSPropertyOp26
 70
     1
102
RTVSPropertyOp27
 70
     1
102
RTVSPropertyOp28
 70
     1
102
RTVSPropertyOp29
 70
     1
102
RTVSPropertyOp30
 70
     1
102
RTVSPropertyOp31
 70
     1
102
RTVSPropertyOp32
 70
     1
  0
ENDSEC
  0
EOF
