  0
SECTION
  2
HEADER
  9
$ACADVER
  1
AC1015
  9
$ACADMAINTVER
 70
     6
  9
$DWGCODEPAGE
  3
ANSI_932
  9
$INSBASE
 10
0.0
 20
0.0
 30
0.0
  9
$EXTMIN
 10
0.0
 20
0.0
 30
0.0
  9
$EXTMAX
 10
209.9999999999999
 20
297.0
 30
0.0
  9
$LIMMIN
 10
0.0
 20
0.0
  9
$LIMMAX
 10
12.0
 20
9.0
  9
$ORTHOMODE
 70
     0
  9
$REGENMODE
 70
     1
  9
$FILLMODE
 70
     1
  9
$QTEXTMODE
 70
     0
  9
$MIRRTEXT
 70
     1
  9
$LTSCALE
 40
1.0
  9
$ATTMODE
 70
     1
  9
$TEXTSIZE
 40
0.2
  9
$TRACEWID
 40
0.05
  9
$TEXTSTYLE
  7
Standard
  9
$CLAYER
  8
0
  9
$CELTYPE
  6
ByLayer
  9
$CECOLOR
 62
   256
  9
$CELTSCALE
 40
1.0
  9
$DISPSILH
 70
     0
  9
$DIMSCALE
 40
1.0
  9
$DIMASZ
 40
0.18
  9
$DIMEXO
 40
0.0625
  9
$DIMDLI
 40
0.38
  9
$DIMRND
 40
0.0
  9
$DIMDLE
 40
0.0
  9
$DIMEXE
 40
0.18
  9
$DIMTP
 40
0.0
  9
$DIMTM
 40
0.0
  9
$DIMTXT
 40
0.18
  9
$DIMCEN
 40
0.09
  9
$DIMTSZ
 40
0.0
  9
$DIMTOL
 70
     0
  9
$DIMLIM
 70
     0
  9
$DIMTIH
 70
     1
  9
$DIMTOH
 70
     1
  9
$DIMSE1
 70
     0
  9
$DIMSE2
 70
     0
  9
$DIMTAD
 70
     0
  9
$DIMZIN
 70
     0
  9
$DIMBLK
  1

  9
$DIMASO
 70
     1
  9
$DIMSHO
 70
     1
  9
$DIMPOST
  1

  9
$DIMAPOST
  1

  9
$DIMALT
 70
     0
  9
$DIMALTD
 70
     2
  9
$DIMALTF
 40
25.4
  9
$DIMLFAC
 40
1.0
  9
$DIMTOFL
 70
     0
  9
$DIMTVP
 40
0.0
  9
$DIMTIX
 70
     0
  9
$DIMSOXD
 70
     0
  9
$DIMSAH
 70
     0
  9
$DIMBLK1
  1

  9
$DIMBLK2
  1

  9
$DIMSTYLE
  2
Standard
  9
$DIMCLRD
 70
     0
  9
$DIMCLRE
 70
     0
  9
$DIMCLRT
 70
     0
  9
$DIMTFAC
 40
1.0
  9
$DIMGAP
 40
0.09
  9
$DIMJUST
 70
     0
  9
$DIMSD1
 70
     0
  9
$DIMSD2
 70
     0
  9
$DIMTOLJ
 70
     1
  9
$DIMTZIN
 70
     0
  9
$DIMALTZ
 70
     0
  9
$DIMALTTZ
 70
     0
  9
$DIMUPT
 70
     0
  9
$DIMDEC
 70
     4
  9
$DIMTDEC
 70
     4
  9
$DIMALTU
 70
     2
  9
$DIMALTTD
 70
     2
  9
$DIMTXSTY
  7
Standard
  9
$DIMAUNIT
 70
     0
  9
$DIMADEC
 70
     0
  9
$DIMALTRND
 40
0.0
  9
$DIMAZIN
 70
     0
  9
$DIMDSEP
 70
    46
  9
$DIMATFIT
 70
     3
  9
$DIMFRAC
 70
     0
  9
$DIMLDRBLK
  1

  9
$DIMLUNIT
 70
     2
  9
$DIMLWD
 70
    -2
  9
$DIMLWE
 70
    -2
  9
$DIMTMOVE
 70
     0
  9
$LUNITS
 70
     2
  9
$LUPREC
 70
     4
  9
$SKETCHINC
 40
0.1
  9
$FILLETRAD
 40
0.5
  9
$AUNITS
 70
     0
  9
$AUPREC
 70
     0
  9
$MENU
  1
.
  9
$ELEVATION
 40
0.0
  9
$PELEVATION
 40
0.0
  9
$THICKNESS
 40
0.0
  9
$LIMCHECK
 70
     0
  9
$CHAMFERA
 40
0.5
  9
$CHAMFERB
 40
0.5
  9
$CHAMFERC
 40
1.0
  9
$CHAMFERD
 40
0.0
  9
$SKPOLY
 70
     0
  9
$TDCREATE
 40
2459796.385559861
  9
$TDUCREATE
 40
2459796.010559861
  9
$TDUPDATE
 40
2459796.385561493
  9
$TDUUPDATE
 40
2459796.010561493
  9
$TDINDWG
 40
0.0000000116
  9
$TDUSRTIMER
 40
0.0000000116
  9
$USRTIMER
 70
     1
  9
$ANGBASE
 50
0.0
  9
$ANGDIR
 70
     0
  9
$PDMODE
 70
     0
  9
$PDSIZE
 40
0.0
  9
$PLINEWID
 40
0.0
  9
$SPLFRAME
 70
     0
  9
$SPLINETYPE
 70
     6
  9
$SPLINESEGS
 70
     8
  9
$HANDSEED
  5
1BD
  9
$SURFTAB1
 70
     6
  9
$SURFTAB2
 70
     6
  9
$SURFTYPE
 70
     6
  9
$SURFU
 70
     6
  9
$SURFV
 70
     6
  9
$UCSBASE
  2

  9
$UCSNAME
  2

  9
$UCSORG
 10
0.0
 20
0.0
 30
0.0
  9
$UCSXDIR
 10
1.0
 20
0.0
 30
0.0
  9
$UCSYDIR
 10
0.0
 20
1.0
 30
0.0
  9
$UCSORTHOREF
  2

  9
$UCSORTHOVIEW
 70
     0
  9
$UCSORGTOP
 10
0.0
 20
0.0
 30
0.0
  9
$UCSORGBOTTOM
 10
0.0
 20
0.0
 30
0.0
  9
$UCSORGLEFT
 10
0.0
 20
0.0
 30
0.0
  9
$UCSORGRIGHT
 10
0.0
 20
0.0
 30
0.0
  9
$UCSORGFRONT
 10
0.0
 20
0.0
 30
0.0
  9
$UCSORGBACK
 10
0.0
 20
0.0
 30
0.0
  9
$PUCSBASE
  2

  9
$PUCSNAME
  2

  9
$PUCSORG
 10
0.0
 20
0.0
 30
0.0
  9
$PUCSXDIR
 10
1.0
 20
0.0
 30
0.0
  9
$PUCSYDIR
 10
0.0
 20
1.0
 30
0.0
  9
$PUCSORTHOREF
  2

  9
$PUCSORTHOVIEW
 70
     0
  9
$PUCSORGTOP
 10
0.0
 20
0.0
 30
0.0
  9
$PUCSORGBOTTOM
 10
0.0
 20
0.0
 30
0.0
  9
$PUCSORGLEFT
 10
0.0
 20
0.0
 30
0.0
  9
$PUCSORGRIGHT
 10
0.0
 20
0.0
 30
0.0
  9
$PUCSORGFRONT
 10
0.0
 20
0.0
 30
0.0
  9
$PUCSORGBACK
 10
0.0
 20
0.0
 30
0.0
  9
$USERI1
 70
     0
  9
$USERI2
 70
     0
  9
$USERI3
 70
     0
  9
$USERI4
 70
     0
  9
$USERI5
 70
     0
  9
$USERR1
 40
18.1
  9
$USERR2
 40
0.0
  9
$USERR3
 40
0.0
  9
$USERR4
 40
0.0
  9
$USERR5
 40
0.0
  9
$WORLDVIEW
 70
     1
  9
$SHADEDGE
 70
     3
  9
$SHADEDIF
 70
    70
  9
$TILEMODE
 70
     1
  9
$MAXACTVP
 70
    64
  9
$PINSBASE
 10
0.0
 20
0.0
 30
0.0
  9
$PLIMCHECK
 70
     0
  9
$PEXTMIN
 10
1.00000000000000E+20
 20
1.00000000000000E+20
 30
1.00000000000000E+20
  9
$PEXTMAX
 10
-1.00000000000000E+20
 20
-1.00000000000000E+20
 30
-1.00000000000000E+20
  9
$PLIMMIN
 10
0.0
 20
0.0
  9
$PLIMMAX
 10
12.0
 20
9.0
  9
$UNITMODE
 70
     0
  9
$VISRETAIN
 70
     1
  9
$PLINEGEN
 70
     0
  9
$PSLTSCALE
 70
     1
  9
$TREEDEPTH
 70
  3020
  9
$CMLSTYLE
  2
Standard
  9
$CMLJUST
 70
     0
  9
$CMLSCALE
 40
1.0
  9
$PROXYGRAPHICS
 70
     1
  9
$MEASUREMENT
 70
     1
  9
$CELWEIGHT
370
    -1
  9
$ENDCAPS
280
     0
  9
$JOINSTYLE
280
     0
  9
$LWDISPLAY
290
     0
  9
$INSUNITS
 70
     4
  9
$HYPERLINKBASE
  1

  9
$STYLESHEET
  1

  9
$XEDIT
290
     1
  9
$CEPSNTYPE
380
     0
  9
$PSTYLEMODE
290
     1
  9
$FINGERPRINTGUID
  2
{B08563F2-7D54-4608-8DDB-264DB4CF0742}
  9
$VERSIONGUID
  2
{FAEB1C32-E019-11D5-929B-00C0DF256EC4}
  9
$EXTNAMES
290
     1
  9
$PSVPSCALE
 40
0.0
  9
$OLESTARTUP
290
     0
  0
ENDSEC
  0
SECTION
  2
CLASSES
  0
CLASS
  1
ACDBDICTIONARYWDFLT
  2
AcDbDictionaryWithDefault
  3
ObjectDBX Classes
 90
        0
280
     0
281
     0
  0
CLASS
  1
VISUALSTYLE
  2
AcDbVisualStyle
  3
ObjectDBX Classes
 90
     4095
280
     0
281
     0
  0
CLASS
  1
MATERIAL
  2
AcDbMaterial
  3
ObjectDBX Classes
 90
     1153
280
     0
281
     0
  0
CLASS
  1
DICTIONARYVAR
  2
AcDbDictionaryVar
  3
ObjectDBX Classes
 90
        0
280
     0
281
     0
  0
CLASS
  1
ACDBPLACEHOLDER
  2
AcDbPlaceHolder
  3
ObjectDBX Classes
 90
        0
280
     0
281
     0
  0
CLASS
  1
LAYOUT
  2
AcDbLayout
  3
ObjectDBX Classes
 90
        0
280
     0
281
     0
  0
ENDSEC
  0
SECTION
  2
TABLES
  0
TABLE
  2
VPORT
  5
8
330
0
100
AcDbSymbolTable
 70
     1
  0
VPORT
  5
29
330
8
100
AcDbSymbolTableRecord
100
AcDbViewportTableRecord
  2
*Active
 70
     0
 10
0.0
 20
0.0
 11
1.0
 21
1.0
 12
104.9999999999999
 22
148.5
 13
0.0
 23
0.0
 14
0.5
 24
0.5
 15
0.5
 25
0.5
 16
0.0
 26
0.0
 36
1.0
 17
0.0
 27
0.0
 37
0.0
 40
326.7
 41
1.60267857142857
 42
50.0
 43
0.0
 44
0.0
 50
0.0
 51
0.0
 71
     0
 72
   100
 73
     1
 74
     3
 75
     0
 76
     0
 77
     0
 78
     0
281
     0
 65
     1
110
0.0
120
0.0
130
0.0
111
1.0
121
0.0
131
0.0
112
0.0
122
1.0
132
0.0
 79
     0
146
0.0
  0
ENDTAB
  0
TABLE
  2
LTYPE
  5
5
330
0
100
AcDbSymbolTable
 70
     8
  0
LTYPE
  5
14
330
5
100
AcDbSymbolTableRecord
100
AcDbLinetypeTableRecord
  2
ByBlock
 70
     0
  3

 72
    65
 73
     0
 40
0.0
  0
LTYPE
  5
15
330
5
100
AcDbSymbolTableRecord
100
AcDbLinetypeTableRecord
  2
ByLayer
 70
     0
  3

 72
    65
 73
     0
 40
0.0
  0
LTYPE
  5
16
330
5
100
AcDbSymbolTableRecord
100
AcDbLinetypeTableRecord
  2
Continuous
 70
     0
  3
Solid line
 72
    65
 73
     0
 40
0.0
  0
LTYPE
  5
3F
330
5
100
AcDbSymbolTableRecord
100
AcDbLinetypeTableRecord
  2
DASHED
 70
     0
  3
Dashed
 72
    65
 73
     2
 40
15.0
 49
7.0
 74
     0
 49
-8.0
 74
     0
  0
LTYPE
  5
40
330
5
100
AcDbSymbolTableRecord
100
AcDbLinetypeTableRecord
  2
DOTTED
 70
     0
  3
Dotted
 72
    65
 73
     2
 40
1.0
 49
0.0
 74
     0
 49
-1.0
 74
     0
  0
LTYPE
  5
41
330
5
100
AcDbSymbolTableRecord
100
AcDbLinetypeTableRecord
  2
DOT_CENTER
 70
     0
  3
Dot_Center
 72
    65
 73
     4
 40
14.0
 49
12.0
 74
     0
 49
-1.0
 74
     0
 49
0.0
 74
     0
 49
-1.0
 74
     0
  0
LTYPE
  5
42
330
5
100
AcDbSymbolTableRecord
100
AcDbLinetypeTableRecord
  2
LONG_DASHED
 70
     0
  3
Long_Dashed
 72
    65
 73
     2
 40
15.0
 49
10.0
 74
     0
 49
-5.0
 74
     0
  0
LTYPE
  5
43
330
5
100
AcDbSymbolTableRecord
100
AcDbLinetypeTableRecord
  2
DASH_CENTER
 70
     0
  3
Dash_Center
 72
    65
 73
     4
 40
14.0
 49
11.0
 74
     0
 49
-1.0
 74
     0
 49
1.0
 74
     0
 49
-1.0
 74
     0
  0
LTYPE
  5
44
330
5
100
AcDbSymbolTableRecord
100
AcDbLinetypeTableRecord
  2
PHANTOM
 70
     0
  3
Phantom
 72
    65
 73
     6
 40
13.0
 49
10.0
 74
     0
 49
-1.0
 74
     0
 49
0.0
 74
     0
 49
-1.0
 74
     0
 49
0.0
 74
     0
 49
-1.0
 74
     0
  0
LTYPE
  5
45
330
5
100
AcDbSymbolTableRecord
100
AcDbLinetypeTableRecord
  2
CENTER_DASH_DASH
 70
     0
  3
Center_Dash_Dash
 72
    65
 73
     6
 40
14.0
 49
9.0
 74
     0
 49
-1.0
 74
     0
 49
1.0
 74
     0
 49
-1.0
 74
     0
 49
1.0
 74
     0
 49
-1.0
 74
     0
  0
ENDTAB
  0
TABLE
  2
LAYER
  5
2
330
0
100
AcDbSymbolTable
 70
     3
  0
LAYER
  5
10
330
2
100
AcDbSymbolTableRecord
100
AcDbLayerTableRecord
  2
0
 70
     0
 62
     7
  6
Continuous
370
    -3
390
F
  0
LAYER
  5
46
330
2
100
AcDbSymbolTableRecord
100
AcDbLayerTableRecord
  2
1
 70
     0
 62
     7
  6
Continuous
370
    -3
390
F
  0
LAYER
  5
47
330
2
100
AcDbSymbolTableRecord
100
AcDbLayerTableRecord
  2
_U_30EC_U_30A4_U_30E4_U_30FC_1
 70
     0
 62
     7
  6
Continuous
370
    -3
390
F
  0
ENDTAB
  0
TABLE
  2
STYLE
  5
3
330
0
100
AcDbSymbolTable
 70
     3
  0
STYLE
  5
11
330
3
100
AcDbSymbolTableRecord
100
AcDbTextStyleTableRecord
  2
Standard
 70
     0
 40
0.0
 41
1.0
 50
0.0
 71
     0
 42
0.2
  3
txt
  4

  0
STYLE
  5
CE
330
3
100
AcDbSymbolTableRecord
100
AcDbTextStyleTableRecord
  2
CONVERTER_11
 70
     0
 40
0.0
 41
0.89
 50
0.0
 71
     0
 42
0.2
  3
msmincho.ttc
  4

1001
ACAD
1000
MS Mincho
1071
    32785
  0
STYLE
  5
160
330
3
100
AcDbSymbolTableRecord
100
AcDbTextStyleTableRecord
  2
CONVERTER_12
 70
     0
 40
0.0
 41
0.9
 50
0.0
 71
     0
 42
0.2
  3
txt.shx
  4

  0
ENDTAB
  0
TABLE
  2
VIEW
  5
6
330
0
100
AcDbSymbolTable
 70
     0
  0
ENDTAB
  0
TABLE
  2
UCS
  5
7
330
0
100
AcDbSymbolTable
 70
     0
  0
ENDTAB
  0
TABLE
  2
APPID
  5
9
330
0
100
AcDbSymbolTable
 70
     1
  0
APPID
  5
12
330
9
100
AcDbSymbolTableRecord
100
AcDbRegAppTableRecord
  2
ACAD
 70
     0
  0
ENDTAB
  0
TABLE
  2
DIMSTYLE
  5
A
330
0
100
AcDbSymbolTable
 70
     4
100
AcDbDimStyleTable
  0
DIMSTYLE
105
27
330
A
100
AcDbSymbolTableRecord
100
AcDbDimStyleTableRecord
  2
Standard
 70
     0
178
     0
340
11
  0
DIMSTYLE
105
17A
102
{ACAD_REACTORS
330
17B
102
}
330
A
100
AcDbSymbolTableRecord
100
AcDbDimStyleTableRecord
  2
ME10_DIM_10
 70
     0
 41
3.5
 42
0.0
 44
1.0
 73
     0
 74
     0
 77
     1
 78
     8
140
3.5
147
1.0
172
     1
173
     1
174
     1
175
     1
176
     2
177
     2
271
     2
178
     7
271
     2
340
160
  0
DIMSTYLE
105
185
102
{ACAD_REACTORS
330
186
102
}
330
A
100
AcDbSymbolTableRecord
100
AcDbDimStyleTableRecord
  2
ME10_DIM_11
 70
     0
 41
3.5
 42
0.0
 44
1.0
 73
     0
 74
     0
 77
     1
 78
     8
140
3.5
147
1.0
172
     1
173
     1
174
     1
175
     1
176
     2
177
     2
271
     2
178
     7
271
     2
340
160
  0
DIMSTYLE
105
190
102
{ACAD_REACTORS
330
191
102
}
330
A
100
AcDbSymbolTableRecord
100
AcDbDimStyleTableRecord
  2
ME10_DIM_12
 70
     0
 41
3.5
 42
0.0
 44
1.0
 73
     0
 74
     0
 77
     1
 78
     8
140
3.5
147
1.0
172
     1
173
     1
174
     1
175
     1
176
     2
177
     2
271
     2
178
     7
271
     2
340
160
  0
ENDTAB
  0
TABLE
  2
BLOCK_RECORD
  5
1
330
0
100
AcDbSymbolTable
 70
    13
  0
BLOCK_RECORD
  5
1F
330
1
100
AcDbSymbolTableRecord
100
AcDbBlockTableRecord
  2
*Model_Space
340
22
  0
BLOCK_RECORD
  5
1B
330
1
100
AcDbSymbolTableRecord
100
AcDbBlockTableRecord
  2
*Paper_Space
340
1E
  0
BLOCK_RECORD
  5
23
330
1
100
AcDbSymbolTableRecord
100
AcDbBlockTableRecord
  2
*Paper_Space0
340
26
  0
BLOCK_RECORD
  5
48
330
1
100
AcDbSymbolTableRecord
100
AcDbBlockTableRecord
  2
開示A4
340
0
102
{BLKREFS
331
4C
102
}
  0
BLOCK_RECORD
  5
4B
330
1
100
AcDbSymbolTableRecord
100
AcDbBlockTableRecord
  2
開示A4枠
340
0
102
{BLKREFS
331
65
102
}
  0
BLOCK_RECORD
  5
4F
330
1
100
AcDbSymbolTableRecord
100
AcDbBlockTableRecord
  2
72-12
340
0
102
{BLKREFS
331
66
102
}
  0
BLOCK_RECORD
  5
52
330
1
100
AcDbSymbolTableRecord
100
AcDbBlockTableRecord
  2
91-1
340
0
102
{BLKREFS
331
67
102
}
  0
BLOCK_RECORD
  5
55
330
1
100
AcDbSymbolTableRecord
100
AcDbBlockTableRecord
  2
36-54
340
0
102
{BLKREFS
331
68
102
}
  0
BLOCK_RECORD
  5
58
330
1
100
AcDbSymbolTableRecord
100
AcDbBlockTableRecord
  2
37-1-13-M11
340
0
102
{BLKREFS
331
69
102
}
  0
BLOCK_RECORD
  5
5B
330
1
100
AcDbSymbolTableRecord
100
AcDbBlockTableRecord
  2
81-9
340
0
102
{BLKREFS
331
6A
102
}
  0
BLOCK_RECORD
  5
5E
330
1
100
AcDbSymbolTableRecord
100
AcDbBlockTableRecord
  2
84-34K
340
0
102
{BLKREFS
331
62
102
}
  0
BLOCK_RECORD
  5
61
330
1
100
AcDbSymbolTableRecord
100
AcDbBlockTableRecord
  2
84-34X-B-I
340
0
102
{BLKREFS
331
6B
102
}
  0
BLOCK_RECORD
  5
171
330
1
100
AcDbSymbolTableRecord
100
AcDbBlockTableRecord
  2
*D10
340
0
  0
BLOCK_RECORD
  5
17C
330
1
100
AcDbSymbolTableRecord
100
AcDbBlockTableRecord
  2
*D11
340
0
  0
BLOCK_RECORD
  5
187
330
1
100
AcDbSymbolTableRecord
100
AcDbBlockTableRecord
  2
*D12
340
0
  0
ENDTAB
  0
ENDSEC
  0
SECTION
  2
BLOCKS
  0
BLOCK
  5
20
330
1F
100
AcDbEntity
  8
0
100
AcDbBlockBegin
  2
*Model_Space
 70
     0
 10
0.0
 20
0.0
 30
0.0
  3
*Model_Space
  1

  0
ENDBLK
  5
21
330
1F
100
AcDbEntity
  8
0
100
AcDbBlockEnd
  0
BLOCK
  5
1C
330
1B
100
AcDbEntity
 67
     1
  8
0
100
AcDbBlockBegin
  2
*Paper_Space
 70
     0
 10
0.0
 20
0.0
 30
0.0
  3
*Paper_Space
  1

  0
ENDBLK
  5
1D
330
1B
100
AcDbEntity
 67
     1
  8
0
100
AcDbBlockEnd
  0
BLOCK
  5
24
330
23
100
AcDbEntity
  8
0
100
AcDbBlockBegin
  2
*Paper_Space0
 70
     0
 10
0.0
 20
0.0
 30
0.0
  3
*Paper_Space0
  1

  0
ENDBLK
  5
25
330
23
100
AcDbEntity
  8
0
100
AcDbBlockEnd
  0
BLOCK
  5
49
330
48
100
AcDbEntity
  8
0
100
AcDbBlockBegin
  2
開示A4
 70
     0
 10
0.0
 20
0.0
 30
0.0
  3
開示A4
  1

  0
POINT
  5
6C
330
48
100
AcDbEntity
  8
1
 62
     4
100
AcDbPoint
 10
34.0
 20
34.0
 30
0.0
  0
POINT
  5
6D
330
48
100
AcDbEntity
  8
1
 62
     4
100
AcDbPoint
 10
57.0
 20
12.25
 30
0.0
  0
POINT
  5
6E
330
48
100
AcDbEntity
  8
1
 62
     4
100
AcDbPoint
 10
57.0
 20
20.75
 30
0.0
  0
POINT
  5
6F
330
48
100
AcDbEntity
  8
1
 62
     4
100
AcDbPoint
 10
57.0
 20
24.75
 30
0.0
  0
POINT
  5
70
330
48
100
AcDbEntity
  8
1
 62
     4
100
AcDbPoint
 10
57.0
 20
16.25
 30
0.0
  0
POINT
  5
71
330
48
100
AcDbEntity
  8
1
 62
     4
100
AcDbPoint
 10
157.4999999999999
 20
19.0
 30
0.0
  0
POINT
  5
72
330
48
100
AcDbEntity
  8
1
 62
     4
100
AcDbPoint
 10
47.5
 20
282.0000000000003
 30
0.0
  0
POINT
  5
73
330
48
100
AcDbEntity
  8
1
 62
     4
100
AcDbPoint
 10
57.0
 20
22.75
 30
0.0
  0
POINT
  5
74
330
48
100
AcDbEntity
  8
1
 62
     4
100
AcDbPoint
 10
57.0
 20
14.25
 30
0.0
  0
POINT
  5
75
330
48
100
AcDbEntity
  8
1
 62
     4
100
AcDbPoint
 10
157.4999999999999
 20
12.5
 30
0.0
  0
POINT
  5
76
330
48
100
AcDbEntity
  8
1
 62
     4
100
AcDbPoint
 10
163.2499999999999
 20
12.5
 30
0.0
  0
POINT
  5
77
330
48
100
AcDbEntity
  8
1
 62
     4
100
AcDbPoint
 10
151.7499999999999
 20
12.5
 30
0.0
  0
POINT
  5
78
330
48
100
AcDbEntity
  8
1
 62
     4
100
AcDbPoint
 10
134.75
 20
12.5
 30
0.0
  0
POINT
  5
79
330
48
100
AcDbEntity
  8
1
 62
     4
100
AcDbPoint
 10
146.25
 20
12.5
 30
0.0
  0
POINT
  5
7A
330
48
100
AcDbEntity
  8
1
 62
     4
100
AcDbPoint
 10
140.5
 20
12.5
 30
0.0
  0
POINT
  5
7B
330
48
100
AcDbEntity
  8
1
 62
     4
100
AcDbPoint
 10
140.5
 20
19.0
 30
0.0
  0
POINT
  5
7C
330
48
100
AcDbEntity
  8
1
 62
     4
100
AcDbPoint
 10
117.75
 20
12.5
 30
0.0
  0
POINT
  5
7D
330
48
100
AcDbEntity
  8
1
 62
     4
100
AcDbPoint
 10
129.25
 20
12.5
 30
0.0
  0
POINT
  5
7E
330
48
100
AcDbEntity
  8
1
 62
     4
100
AcDbPoint
 10
123.5
 20
12.5
 30
0.0
  0
POINT
  5
7F
330
48
100
AcDbEntity
  8
1
 62
     4
100
AcDbPoint
 10
123.5
 20
19.0
 30
0.0
  0
POINT
  5
80
330
48
100
AcDbEntity
  8
1
 62
     4
100
AcDbPoint
 10
100.75
 20
12.5
 30
0.0
  0
POINT
  5
81
330
48
100
AcDbEntity
  8
1
 62
     4
100
AcDbPoint
 10
112.25
 20
12.5
 30
0.0
  0
POINT
  5
82
330
48
100
AcDbEntity
  8
1
 62
     4
100
AcDbPoint
 10
106.5
 20
12.5
 30
0.0
  0
POINT
  5
83
330
48
100
AcDbEntity
  8
1
 62
     4
100
AcDbPoint
 10
106.5
 20
19.0
 30
0.0
  0
POINT
  5
84
330
48
100
AcDbEntity
  8
1
 62
     4
100
AcDbPoint
 10
85.25
 20
17.0
 30
0.0
  0
POINT
  5
85
330
48
100
AcDbEntity
  8
1
 62
     4
100
AcDbPoint
 10
93.75
 20
17.0
 30
0.0
  0
POINT
  5
86
330
48
100
AcDbEntity
  8
1
 62
     4
100
AcDbPoint
 10
182.9999999999999
 20
15.0
 30
0.0
  0
LINE
  5
87
330
48
100
AcDbEntity
  8
1
  6
Continuous
 62
     2
100
AcDbLine
 10
81.0
 20
27.0
 30
0.0
 11
81.0
 21
10.0
 31
0.0
  0
LINE
  5
88
330
48
100
AcDbEntity
  8
1
  6
DOT_CENTER
 62
     2
100
AcDbLine
 10
186.9999999999999
 20
26.5
 30
0.0
 11
186.9999999999999
 21
20.5
 31
0.0
  0
LINE
  5
89
330
48
100
AcDbEntity
  8
1
  6
DOT_CENTER
 62
     2
100
AcDbLine
 10
183.9999999999999
 20
23.5
 30
0.0
 11
196.9999999999999
 21
23.5
 31
0.0
  0
LINE
  5
8A
330
48
100
AcDbEntity
  8
1
  6
Continuous
 62
     7
100
AcDbLine
 10
195.9999999999999
 20
21.5
 30
0.0
 11
190.9999999999999
 21
22.30000000000001
 31
0.0
  0
LINE
  5
8B
330
48
100
AcDbEntity
  8
1
  6
Continuous
 62
     7
100
AcDbLine
 10
195.9999999999999
 20
25.5
 30
0.0
 11
195.9999999999999
 21
21.5
 31
0.0
  0
LINE
  5
8C
330
48
100
AcDbEntity
  8
1
  6
Continuous
 62
     7
100
AcDbLine
 10
190.9999999999999
 20
24.69999999999999
 30
0.0
 11
195.9999999999999
 21
25.5
 31
0.0
  0
LINE
  5
8D
330
48
100
AcDbEntity
  8
1
  6
Continuous
 62
     7
100
AcDbLine
 10
190.9999999999999
 20
24.69999999999999
 30
0.0
 11
190.9999999999999
 21
22.30000000000001
 31
0.0
  0
LINE
  5
8E
330
48
100
AcDbEntity
  8
1
  6
Continuous
 62
     2
100
AcDbLine
 10
33.0
 20
27.0
 30
0.0
 11
33.0
 21
10.0
 31
0.0
  0
LINE
  5
8F
330
48
100
AcDbEntity
  8
1
  6
Continuous
 62
     2
100
AcDbLine
 10
25.0
 20
18.5
 30
0.0
 11
81.0
 21
18.5
 31
0.0
  0
LINE
  5
90
330
48
100
AcDbEntity
  8
1
  6
Continuous
 62
     7
100
AcDbLine
 10
199.9999999999999
 20
287.0000000000003
 30
0.0
 11
105.0
 21
287.0000000000003
 31
0.0
  0
LINE
  5
91
330
48
100
AcDbEntity
  8
1
  6
Continuous
 62
     7
100
AcDbLine
 10
199.9999999999999
 20
10.0
 30
0.0
 11
199.9999999999999
 21
148.5
 31
0.0
  0
LINE
  5
92
330
48
100
AcDbEntity
  8
1
  6
Continuous
 62
     7
100
AcDbLine
 10
25.0
 20
10.0
 30
0.0
 11
105.0
 21
10.0
 31
0.0
  0
LINE
  5
93
330
48
100
AcDbEntity
  8
1
  6
PHANTOM
 62
     4
100
AcDbLine
 10
0.0
 20
297.0
 30
0.0
 11
0.0
 21
0.0
 31
0.0
  0
LINE
  5
94
330
48
100
AcDbEntity
  8
1
  6
PHANTOM
 62
     4
100
AcDbLine
 10
209.9999999999999
 20
297.0
 30
0.0
 11
0.0
 21
297.0
 31
0.0
  0
LINE
  5
95
330
48
100
AcDbEntity
  8
1
  6
PHANTOM
 62
     4
100
AcDbLine
 10
209.9999999999999
 20
0.0
 30
0.0
 11
209.9999999999999
 21
297.0
 31
0.0
  0
LINE
  5
96
330
48
100
AcDbEntity
  8
1
  6
PHANTOM
 62
     4
100
AcDbLine
 10
0.0
 20
0.0
 30
0.0
 11
209.9999999999999
 21
0.0
 31
0.0
  0
LINE
  5
97
330
48
100
AcDbEntity
  8
1
  6
Continuous
 62
     7
100
AcDbLine
 10
25.0
 20
41.0
 30
0.0
 11
199.9999999999999
 21
41.0
 31
0.0
  0
LINE
  5
98
330
48
100
AcDbEntity
  8
1
  6
Continuous
 62
     7
100
AcDbLine
 10
199.9999999999999
 20
27.0
 30
0.0
 11
25.0
 21
27.0
 31
0.0
  0
LINE
  5
99
330
48
100
AcDbEntity
  8
1
  6
Continuous
 62
     2
100
AcDbLine
 10
33.0
 20
41.0
 30
0.0
 11
33.0
 21
27.0
 31
0.0
  0
LINE
  5
9A
330
48
100
AcDbEntity
  8
1
  6
Continuous
 62
     2
100
AcDbLine
 10
55.0
 20
287.0000000000003
 30
0.0
 11
55.0
 21
277.0000000000003
 31
0.0
  0
LINE
  5
9B
330
48
100
AcDbEntity
  8
1
  6
Continuous
 62
     2
100
AcDbLine
 10
40.0
 20
287.0000000000003
 30
0.0
 11
40.0
 21
277.0000000000003
 31
0.0
  0
LINE
  5
9C
330
48
100
AcDbEntity
  8
1
  6
Continuous
 62
     7
100
AcDbLine
 10
25.0
 20
10.0
 30
0.0
 11
25.0
 21
148.5
 31
0.0
  0
LINE
  5
9D
330
48
100
AcDbEntity
  8
1
  6
Continuous
 62
     2
100
AcDbLine
 10
55.0
 20
277.0000000000003
 30
0.0
 11
25.0
 21
277.0000000000003
 31
0.0
  0
LINE
  5
9E
330
48
100
AcDbEntity
  8
1
  6
Continuous
 62
     2
100
AcDbLine
 10
165.9999999999999
 20
27.0
 30
0.0
 11
165.9999999999999
 21
10.0
 31
0.0
  0
LINE
  5
9F
330
48
100
AcDbEntity
  8
1
  6
Continuous
 62
     2
100
AcDbLine
 10
132.0
 20
27.0
 30
0.0
 11
132.0
 21
10.0
 31
0.0
  0
LINE
  5
A0
330
48
100
AcDbEntity
  8
1
  6
Continuous
 62
     2
100
AcDbLine
 10
148.9999999999999
 20
27.0
 30
0.0
 11
148.9999999999999
 21
10.0
 31
0.0
  0
LINE
  5
A1
330
48
100
AcDbEntity
  8
1
  6
Continuous
 62
     2
100
AcDbLine
 10
115.0
 20
27.0
 30
0.0
 11
115.0
 21
10.0
 31
0.0
  0
LINE
  5
A2
330
48
100
AcDbEntity
  8
1
  6
Continuous
 62
     2
100
AcDbLine
 10
98.0
 20
27.0
 30
0.0
 11
98.0
 21
10.0
 31
0.0
  0
LINE
  5
A3
330
48
100
AcDbEntity
  8
1
  6
Continuous
 62
     2
100
AcDbLine
 10
165.9999999999999
 20
20.0
 30
0.0
 11
199.9999999999999
 21
20.0
 31
0.0
  0
LINE
  5
A4
330
48
100
AcDbEntity
  8
1
  6
Continuous
 62
     2
100
AcDbLine
 10
105.0
 20
287.0000000000003
 30
0.0
 11
105.0
 21
292.0000000000003
 31
0.0
  0
LINE
  5
A5
330
48
100
AcDbEntity
  8
1
  6
Continuous
 62
     7
100
AcDbLine
 10
105.0
 20
287.0000000000003
 30
0.0
 11
25.0
 21
287.0000000000003
 31
0.0
  0
LINE
  5
A6
330
48
100
AcDbEntity
  8
1
  6
Continuous
 62
     2
100
AcDbLine
 10
25.0
 20
148.5
 30
0.0
 11
20.0
 21
148.5
 31
0.0
  0
LINE
  5
A7
330
48
100
AcDbEntity
  8
1
  6
Continuous
 62
     7
100
AcDbLine
 10
25.0
 20
148.5
 30
0.0
 11
25.0
 21
287.0000000000003
 31
0.0
  0
LINE
  5
A8
330
48
100
AcDbEntity
  8
1
  6
Continuous
 62
     2
100
AcDbLine
 10
199.9999999999999
 20
148.5
 30
0.0
 11
204.9999999999999
 21
148.5
 31
0.0
  0
LINE
  5
A9
330
48
100
AcDbEntity
  8
1
  6
Continuous
 62
     7
100
AcDbLine
 10
199.9999999999999
 20
148.5
 30
0.0
 11
199.9999999999999
 21
287.0000000000003
 31
0.0
  0
LINE
  5
AA
330
48
100
AcDbEntity
  8
1
  6
Continuous
 62
     2
100
AcDbLine
 10
105.0
 20
10.0
 30
0.0
 11
105.0
 21
5.0
 31
0.0
  0
LINE
  5
AB
330
48
100
AcDbEntity
  8
1
  6
Continuous
 62
     7
100
AcDbLine
 10
105.0
 20
10.0
 30
0.0
 11
199.9999999999999
 21
10.0
 31
0.0
  0
CIRCLE
  5
B0
330
48
100
AcDbEntity
  8
1
  6
DOT_CENTER
 62
     7
100
AcDbCircle
 10
89.5
 20
18.0
 30
0.0
 40
0.0999999999999943
  0
CIRCLE
  5
B1
330
48
100
AcDbEntity
  8
1
  6
DOT_CENTER
 62
     7
100
AcDbCircle
 10
89.5
 20
16.0
 30
0.0
 40
0.0999999999999943
  0
CIRCLE
  5
B2
330
48
100
AcDbEntity
  8
1
  6
Continuous
 62
     7
100
AcDbCircle
 10
186.9999999999999
 20
23.5
 30
0.0
 40
2.0
  0
CIRCLE
  5
B3
330
48
100
AcDbEntity
  8
1
  6
Continuous
 62
     7
100
AcDbCircle
 10
186.9999999999999
 20
23.5
 30
0.0
 40
1.200000000000216
  0
CIRCLE
  5
B4
330
48
100
AcDbEntity
  8
1
  6
Continuous
 62
     7
100
AcDbCircle
 10
154.4999999999999
 20
12.5
 30
0.0
 40
0.3000000000001251
  0
CIRCLE
  5
B5
330
48
100
AcDbEntity
  8
1
  6
Continuous
 62
     7
100
AcDbCircle
 10
160.4999999999999
 20
12.5
 30
0.0
 40
0.3000000000001251
  0
CIRCLE
  5
B6
330
48
100
AcDbEntity
  8
1
  6
Continuous
 62
     7
100
AcDbCircle
 10
143.5
 20
12.5
 30
0.0
 40
0.3000000000000114
  0
CIRCLE
  5
B7
330
48
100
AcDbEntity
  8
1
  6
Continuous
 62
     7
100
AcDbCircle
 10
137.5
 20
12.5
 30
0.0
 40
0.3000000000000114
  0
CIRCLE
  5
B8
330
48
100
AcDbEntity
  8
1
  6
Continuous
 62
     7
100
AcDbCircle
 10
126.5
 20
12.5
 30
0.0
 40
0.2999999999999972
  0
CIRCLE
  5
B9
330
48
100
AcDbEntity
  8
1
  6
Continuous
 62
     7
100
AcDbCircle
 10
120.5
 20
12.5
 30
0.0
 40
0.2999999999999972
  0
CIRCLE
  5
BA
330
48
100
AcDbEntity
  8
1
  6
Continuous
 62
     7
100
AcDbCircle
 10
109.5
 20
12.5
 30
0.0
 40
0.2999999999999972
  0
CIRCLE
  5
BB
330
48
100
AcDbEntity
  8
1
  6
Continuous
 62
     7
100
AcDbCircle
 10
103.5
 20
12.5
 30
0.0
 40
0.2999999999999972
  0
SPLINE
  5
BC
102
{ACAD_REACTORS
330
DA
102
}
330
48
100
AcDbEntity
  8
_U_30EC_U_30A4_U_30E4_U_30FC_1
  6
Continuous
 62
     2
100
AcDbSpline
210
0.0
220
0.0
230
1.0
 70
    11
 71
     3
 72
    99
 73
    95
 74
    93
 42
0.000000001
 43
0.0000000001
 44
0.00000001
 40
0.0
 40
0.0
 40
0.0
 40
0.0
 40
0.079641717227329
 40
0.1621768542356229
 40
0.2486489160959002
 40
0.3404969668525837
 40
0.4381912511165855
 40
0.543446366024619
 40
0.6518115192847969
 40
0.7530190937888012
 40
0.8492196919726471
 40
0.9419290312999398
 40
1.034249663570168
 40
1.129078600620315
 40
1.226697027573373
 40
1.327220425421852
 40
1.470572134938128
 40
1.595489863371362
 40
1.719934125348574
 40
1.850576620127646
 40
1.989059629987441
 40
2.134139054227057
 40
2.280698007207331
 40
2.424529739039617
 40
2.56592957698597
 40
2.708239260773769
 40
2.861717887443855
 40
3.045168540347483
 40
3.183798301138776
 40
3.314813961455649
 40
3.442083470447483
 40
3.569912708373082
 40
3.702177512509496
 40
3.842307559659732
 40
3.992872223246084
 40
4.156750662218532
 40
4.3109818611077
 40
4.445859909322799
 40
4.572393936131772
 40
4.701656719782196
 40
4.768279086008739
 40
4.835960697898618
 40
4.912788918729597
 40
5.006285208481791
 40
5.026909478751924
 40
5.047533749021546
 40
5.101808031471602
 40
5.162325165538934
 40
5.226919745996213
 40
5.29423180659702
 40
5.364544852555175
 40
5.438319055468205
 40
5.517877651324563
 40
5.60764771486188
 40
5.700449642544733
 40
5.788251142364574
 40
5.872714706040139
 40
5.955167292575728
 40
6.037192395190742
 40
6.120669181469428
 40
6.206848616686654
 40
6.296680855417128
 40
6.442558392872954
 40
6.568190371608654
 40
6.692904567360723
 40
6.824220446557502
 40
6.963121850329709
 40
7.107843738851479
 40
7.253431663907641
 40
7.395187468037091
 40
7.533140753238086
 40
7.670550457175651
 40
7.81623651176964
 40
7.987691657359595
 40
8.14227742196965
 40
8.293662615415348
 40
8.442962460879645
 40
8.59159831618567
 40
8.743678992362176
 40
8.90372532369956
 40
9.07630700889093
 40
9.265578604680957
 40
9.459203795361132
 40
9.617619810273997
 40
9.75360967136232
 40
9.874873300004483
 40
9.954520184978161
 40
10.0241641371929
 40
10.09769764405479
 40
10.18909955925009
 40
10.2097458642017
 40
10.23039218263416
 40
10.300571018813
 40
10.37632012987571
 40
10.37632012987571
 40
10.37632012987571
 40
10.37632012987571
 10
170.146595483585
 20
14.13795663216001
 30
0.0
 10
170.1632217851219
 20
14.1172060884532
 30
0.0
 10
170.1970784206577
 20
14.07495111711912
 30
0.0
 10
170.2599822541035
 20
14.02029811392064
 30
0.0
 10
170.3332500940393
 20
13.9729902512105
 30
0.0
 10
170.4175969238636
 20
13.93527231437934
 30
0.0
 10
170.5132240615459
 20
13.91040619731953
 30
0.0
 10
170.6171853775345
 20
13.90309559345929
 30
0.0
 10
170.7224020220405
 20
13.91142322794056
 30
0.0
 10
170.8206626371334
 20
13.94149179651521
 30
0.0
 10
170.9058986427548
 20
13.98848822971878
 30
0.0
 10
170.9779220206103
 20
14.04952991250855
 30
0.0
 10
171.0350917709096
 20
14.12412969578582
 30
0.0
 10
171.0767868747439
 20
14.21002464660172
 30
0.0
 10
171.1026952846292
 20
14.30485850432213
 30
0.0
 10
171.1118037332652
 20
14.41854979038366
 30
0.0
 10
171.0986864796487
 20
14.54332587770779
 30
0.0
 10
171.0325330334414
 20
14.66014719171895
 30
0.0
 10
170.9369370919568
 20
14.74512539577377
 30
0.0
 10
170.8249681022368
 20
14.81416684459163
 30
0.0
 10
170.6993659583269
 20
14.87204142045893
 30
0.0
 10
170.5656691620856
 20
14.92373723284341
 30
0.0
 10
170.431312281883
 20
14.97899092397176
 30
0.0
 10
170.3051983986877
 20
15.04939770641649
 30
0.0
 10
170.1926579987535
 20
15.13785540731251
 30
0.0
 10
170.0969963064456
 20
15.24981067868468
 30
0.0
 10
170.0334157151826
 20
15.39949910101385
 30
0.0
 10
170.0200706505016
 20
15.5593279438514
 30
0.0
 10
170.0320510987448
 20
15.71048405306844
 30
0.0
 10
170.071229892884
 20
15.83809244591539
 30
0.0
 10
170.135498775091
 20
15.95080874030841
 30
0.0
 10
170.223820499974
 20
16.04648609268691
 30
0.0
 10
170.3338091207627
 20
16.12354214985751
 30
0.0
 10
170.4632284401264
 20
16.18151396936279
 30
0.0
 10
170.6111838967793
 20
16.21739177588826
 30
0.0
 10
170.7682069455486
 20
16.22746719050576
 30
0.0
 10
170.917494046643
 20
16.2186363776259
 30
0.0
 10
171.0596253614169
 20
16.1907489934036
 30
0.0
 10
171.1595922609625
 20
16.13413314701138
 30
0.0
 10
171.3125074736185
 20
16.0867460210551
 30
0.0
 10
171.2455131717169
 20
16.00197553001183
 30
0.0
 10
171.2296479120269
 20
15.93438901873483
 30
0.0
 10
171.1978750531296
 20
15.86926092793192
 30
0.0
 10
171.2150202209571
 20
15.7672345325695
 30
0.0
 10
171.1666427208231
 20
15.77493211681901
 30
0.0
 10
171.1315789440765
 20
15.76806771724804
 30
0.0
 10
171.1296697985717
 20
15.83263831158197
 30
0.0
 10
171.0985692931988
 20
15.87825639621396
 30
0.0
 10
171.0664551628454
 20
15.9356103662845
 30
0.0
 10
171.0208038475168
 20
15.98540462692558
 30
0.0
 10
170.9658508218386
 20
16.02994813718994
 30
0.0
 10
170.9010841173007
 20
16.06763988836543
 30
0.0
 10
170.8232377310597
 20
16.09283375791355
 30
0.0
 10
170.7355160553352
 20
16.09931230998123
 30
0.0
 10
170.6452903277806
 20
16.09235709285604
 30
0.0
 10
170.5594594694064
 20
16.06909190460928
 30
0.0
 10
170.4828343638595
 20
16.03131644107538
 30
0.0
 10
170.41652656362
 20
15.98051641089572
 30
0.0
 10
170.3622560536964
 20
15.91731143407205
 30
0.0
 10
170.3224925345459
 20
15.84276455710368
 30
0.0
 10
170.2976775510587
 20
15.75917313997764
 30
0.0
 10
170.289212426287
 20
15.65192948382285
 30
0.0
 10
170.3019697987103
 20
15.52965457267559
 30
0.0
 10
170.3681548409271
 20
15.41149724291198
 30
0.0
 10
170.4640977399832
 20
15.32606325709532
 30
0.0
 10
170.5757914963183
 20
15.25583362306731
 30
0.0
 10
170.7010863668701
 20
15.19659162305303
 30
0.0
 10
170.8349823941446
 20
15.14616708086129
 30
0.0
 10
170.9689930333149
 20
15.09322516984382
 30
0.0
 10
171.0950885316915
 20
15.02750170625178
 30
0.0
 10
171.2076216638417
 20
14.94480352537313
 30
0.0
 10
171.3031370284232
 20
14.83996006310073
 30
0.0
 10
171.3672706486963
 20
14.69937117251567
 30
0.0
 10
171.3811103725279
 20
14.5406540945159
 30
0.0
 10
171.367395471223
 20
14.38153155217874
 30
0.0
 10
171.3244739153984
 20
14.23483828819212
 30
0.0
 10
171.2545906329066
 20
14.10119796587141
 30
0.0
 10
171.1574592213829
 20
13.98532387699295
 30
0.0
 10
171.0347806023657
 20
13.89089981770084
 30
0.0
 10
170.8874408413167
 20
13.82179270651979
 30
0.0
 10
170.7177132497125
 20
13.77953210858854
 30
0.0
 10
170.5317404979596
 20
13.76781736230405
 30
0.0
 10
170.3528955926183
 20
13.77809486683439
 30
0.0
 10
170.1881733753742
 20
13.81966573769147
 30
0.0
 10
170.0834410841057
 20
13.88797642883943
 30
0.0
 10
169.9350960790365
 20
13.9367521903211
 30
0.0
 10
169.9980378194729
 20
14.02976591290845
 30
0.0
 10
170.0072274430059
 20
14.10296536248283
 30
0.0
 10
170.0303711301231
 20
14.16936294501348
 30
0.0
 10
170.0034588335317
 20
14.26974809527581
 30
0.0
 10
170.0521338956339
 20
14.26234033517378
 30
0.0
 10
170.0916530580697
 20
14.26894063620895
 30
0.0
 10
170.0996204944702
 20
14.19078703218934
 30
0.0
 10
170.1305436967922
 20
14.15600927375861
 30
0.0
 10
170.146595483585
 20
14.13795663216001
 30
0.0
 11
170.146595483585
 21
14.13795663216001
 31
0.0
 11
170.1982038075864
 21
14.0772986981474
 31
0.0
 11
170.2601105501334
 21
14.0227129516332
 31
0.0
 11
170.3327764009802
 21
13.9758398092838
 31
0.0
 11
170.4166468655843
 21
13.93839906276537
 31
0.0
 11
170.511221073241
 21
13.91390636311878
 31
0.0
 11
170.6161603327165
 21
13.90575829888468
 31
0.0
 11
170.7240739497551
 21
13.91564048638221
 31
0.0
 11
170.8208419941616
 21
13.94528704887478
 31
0.0
 11
170.9050776083319
 21
13.99175118948819
 31
0.0
 11
170.9756144207686
 21
14.05191413218148
 31
0.0
 11
171.031944210998
 21
14.12505819466318
 31
0.0
 11
171.0736690016003
 21
14.2102143404752
 31
0.0
 11
171.0994680808031
 21
14.30436190989613
 31
0.0
 11
171.1080824729446
 21
14.40451552098222
 31
0.0
 11
171.0878517703357
 21
14.54643250879396
 31
0.0
 11
171.0272522666731
 21
14.65566684036389
 31
0.0
 11
170.9364971286285
 21
14.74081306430098
 31
0.0
 11
170.8260101884739
 21
14.81052746532521
 31
0.0
 11
170.7008523531254
 21
14.86979854169923
 31
0.0
 11
170.5662951950998
 21
14.9240425347412
 31
0.0
 11
170.4316884277007
 21
14.98201274306
 31
0.0
 11
170.3065802017258
 21
15.05297399304232
 31
0.0
 11
170.196027609828
 21
15.14113315968692
 31
0.0
 11
170.1053381235264
 21
15.25080295132619
 31
0.0
 11
170.0447055469484
 21
15.39179720476317
 31
0.0
 11
170.0245079172553
 21
15.57413260402308
 31
0.0
 11
170.0374030471347
 21
15.71216131926641
 31
0.0
 11
170.0761016659391
 21
15.83733128451291
 31
0.0
 11
170.1393141731506
 21
15.94779262129084
 31
0.0
 11
170.2257499954544
 21
16.04196885390621
 31
0.0
 11
170.3336492808962
 21
16.11846540770649
 31
0.0
 11
170.4613526283328
 21
16.1761567010949
 31
0.0
 11
170.6075393259922
 21
16.21220066809978
 31
0.0
 11
170.770976856545
 21
16.2242138538607
 31
0.0
 11
170.9248918431289
 21
16.21434269066868
 31
0.0
 11
171.0564887242607
 21
16.18477329831501
 31
0.0
 11
171.1725636344939
 21
16.13439993895255
 31
0.0
 11
171.2800792741122
 21
16.06264163167879
 31
0.0
 11
171.2516994050444
 21
16.00236624106882
 31
0.0
 11
171.2284855254283
 21
15.9387901733765
 31
0.0
 11
171.20783810408
 21
15.86478841992268
 31
0.0
 11
171.1871840681487
 21
15.77360197897326
 31
0.0
 11
171.1665597978414
 21
15.77360197897326
 31
0.0
 11
171.1459355275342
 21
15.77360197897326
 31
0.0
 11
171.125670649579
 21
15.82395108486346
 31
0.0
 11
171.099465875942
 21
15.87850045116932
 31
0.0
 11
171.065046892445
 21
15.93316116296113
 31
0.0
 11
171.0203554612937
 21
15.98349593725408
 31
0.0
 11
170.9657333359511
 21
16.02777175321527
 31
0.0
 11
170.9016722004326
 21
16.06436142334496
 31
0.0
 11
170.825968296114
 21
16.08882545979729
 31
0.0
 11
170.7365722046449
 21
16.0970110066703
 31
0.0
 11
170.6440937174207
 21
16.08926973931103
 31
0.0
 11
170.5594072091644
 21
16.06609003445567
 31
0.0
 11
170.4837024488839
 21
16.02863495634007
 31
0.0
 11
170.4183754766515
 21
15.97832774281096
 31
0.0
 11
170.3650487887664
 21
15.91600293379877
 31
0.0
 11
170.3254809233901
 21
15.84249947895609
 31
0.0
 11
170.3009523754711
 21
15.75988443557395
 31
0.0
 11
170.2927954104108
 21
15.6704232984435
 31
0.0
 11
170.3130095765617
 21
15.52595308146571
 31
0.0
 11
170.3736256166819
 21
15.41591177072928
 31
0.0
 11
170.4643479320758
 21
15.33033670130633
 31
0.0
 11
170.5748676948813
 21
15.25941954854631
 31
0.0
 11
170.7000089937719
 21
15.1991430555058
 31
0.0
 11
170.8345826882552
 21
15.1459044791302
 31
0.0
 11
170.9691729191967
 21
15.09039489581073
 31
0.0
 11
171.0942976816297
 21
15.02377281249409
 31
0.0
 11
171.204800907977
 21
14.94118863716747
 31
0.0
 11
171.2955397598288
 21
14.83800003476267
 31
0.0
 11
171.3561557999489
 21
14.70552315979582
 31
0.0
 11
171.3763699660998
 21
14.53526378483838
 31
0.0
 11
171.3621839747998
 21
14.38133030397409
 31
0.0
 11
171.3196087009193
 21
14.23605531269101
 31
0.0
 11
171.2499752884265
 21
14.10398854189067
 31
0.0
 11
171.1544992078713
 21
13.9900721877525
 31
0.0
 11
171.0341060772624
 21
13.89715272597015
 31
0.0
 11
170.8896160201846
 21
13.82832357668178
 31
0.0
 11
170.7223519532713
 21
13.78581275203966
 31
0.0
 11
170.5336103348226
 21
13.7716586461404
 31
0.0
 11
170.3405031726387
 21
13.78581275203966
 31
0.0
 11
170.187897590091
 21
13.82832357668178
 31
0.0
 11
170.0661897942203
 21
13.88899033013891
 31
0.0
 11
169.9660261826363
 21
13.95734322942741
 31
0.0
 11
169.9922320587039
 21
14.03255545163078
 31
0.0
 11
170.0090121537618
 21
14.1001476738362
 31
0.0
 11
170.0206196447852
 21
14.17275926235959
 31
0.0
 11
170.0313606254139
 21
14.26352788212859
 31
0.0
 11
170.0520069443315
 21
14.26352788212859
 31
0.0
 11
170.0726532632492
 21
14.26352788212859
 31
0.0
 11
170.1048916391629
 21
14.20119204881083
 31
0.0
 11
170.146595483585
 21
14.13795663216001
 31
0.0
  0
SPLINE
  5
BD
102
{ACAD_REACTORS
330
DB
102
}
330
48
100
AcDbEntity
  8
_U_30EC_U_30A4_U_30E4_U_30FC_1
  6
Continuous
 62
     2
100
AcDbSpline
210
0.0
220
0.0
230
1.0
 70
    11
 71
     3
 72
    57
 73
    53
 74
    51
 42
0.000000001
 43
0.0000000001
 44
0.00000001
 40
0.0
 40
0.0
 40
0.0
 40
0.0
 40
0.0471632082809768
 40
0.0914861054632129
 40
0.1357762519702365
 40
0.182652700161066
 40
0.2295203288572853
 40
0.273775197222159
 40
0.3181310461543626
 40
0.3652607198398473
 40
0.4571007286314512
 40
0.5671851029165627
 40
0.6894623283868629
 40
0.8181758272545725
 40
0.9510087229273912
 40
1.085852229674114
 40
1.218126164475326
 40
1.343545131142424
 40
1.454537202956839
 40
1.567187607530848
 40
1.680710966642495
 40
1.794226869736831
 40
1.900009184247659
 40
2.004085860448023
 40
2.108162674451826
 40
2.214000150155341
 40
2.496038577352218
 40
2.762350745479344
 40
2.997275353279515
 40
3.185110082137818
 40
3.246407890064043
 40
3.312607550212859
 40
3.378877742711734
 40
3.440140399651529
 40
4.10050169600653
 40
4.754913085563659
 40
5.411331693423999
 40
6.077890432568875
 40
6.110575292671154
 40
6.143260152775934
 40
6.367989363395376
 40
6.610525374951779
 40
6.863389136467554
 40
7.119380025547745
 40
7.376036605091328
 40
7.631164770966524
 40
7.876722425456679
 40
8.104953735856157
 40
8.31291668592453
 40
8.497730294941515
 40
8.651018984314078
 40
8.764738853624845
 40
8.764738853624845
 40
8.764738853624845
 40
8.764738853624845
 10
174.7922649500513
 20
13.81626739612926
 30
0.0
 10
174.776661672693
 20
13.81826231079075
 30
0.0
 10
174.7463947960302
 20
13.82213201360293
 30
0.0
 10
174.7010994202252
 20
13.82341984967268
 30
0.0
 10
174.6559553129349
 20
13.82308683554049
 30
0.0
 10
174.6099017123399
 20
13.82314658674223
 30
0.0
 10
174.5640496172096
 20
13.82325813649999
 30
0.0
 10
174.5183711648164
 20
13.82277833456591
 30
0.0
 10
174.4750811541608
 20
13.82461109618716
 30
0.0
 10
174.4039947951514
 20
13.80049556814659
 30
0.0
 10
174.4057477261441
 20
13.92184693977253
 30
0.0
 10
174.3586196370568
 20
14.00726239751231
 30
0.0
 10
174.3191478251761
 20
14.12486929345134
 30
0.0
 10
174.2706635532645
 20
14.24232752540438
 30
0.0
 10
174.2201017402522
 20
14.36405935761509
 30
0.0
 10
174.1718634610477
 20
14.49075967862469
 30
0.0
 10
174.1135232947594
 20
14.59933687784954
 30
0.0
 10
174.0980892667261
 20
14.75620657134417
 30
0.0
 10
173.9566586330635
 20
14.72373446548318
 30
0.0
 10
173.8508397414903
 20
14.73512888682182
 30
0.0
 10
173.7358569725222
 20
14.73392591514613
 30
0.0
 10
173.625314225214
 20
14.73506945347407
 30
0.0
 10
173.5176583522782
 20
14.73418350037524
 30
0.0
 10
173.4121322529242
 20
14.73416602390522
 30
0.0
 10
173.3109192682012
 20
14.72714032472411
 30
0.0
 10
173.1266804827753
 20
14.75135859859877
 30
0.0
 10
173.1157393685411
 20
14.44741691121883
 30
0.0
 10
173.008769163475
 20
14.22353177253398
 30
0.0
 10
172.9098148604346
 20
14.03895314292494
 30
0.0
 10
172.9225090524007
 20
13.7953020480421
 30
0.0
 10
172.8050091716396
 20
13.82508046753191
 30
0.0
 10
172.742205586831
 20
13.82258089509605
 30
0.0
 10
172.6785872093399
 20
13.82344075102799
 30
0.0
 10
172.3946014194075
 20
13.78098039941959
 30
0.0
 10
173.025163849938
 20
14.50081952444786
 30
0.0
 10
173.1087645289071
 20
15.01276539435731
 30
0.0
 10
173.4929252789339
 20
15.53353743550045
 30
0.0
 10
173.4777208288565
 20
16.23519626253223
 30
0.0
 10
173.7239265722696
 20
16.22345633081265
 30
0.0
 10
173.8256346157563
 20
16.23225004452781
 30
0.0
 10
173.8249752035817
 20
15.9805965073035
 30
0.0
 10
173.9428317155829
 20
15.7981802073396
 30
0.0
 10
174.0315515260484
 20
15.55563740662869
 30
0.0
 10
174.1322292485258
 20
15.32340030530126
 30
0.0
 10
174.2311142712243
 20
15.08674644566916
 30
0.0
 10
174.3299676990668
 20
14.85461739170088
 30
0.0
 10
174.4256166390925
 20
14.63122222788791
 30
0.0
 10
174.515990457327
 20
14.42272549049313
 30
0.0
 10
174.5989944568189
 20
14.23308448529324
 30
0.0
 10
174.6726088582799
 20
14.06663106068102
 30
0.0
 10
174.7342815895547
 20
13.929176996261
 30
0.0
 10
174.7749458885604
 20
13.84999239430034
 30
0.0
 10
174.7922649500513
 20
13.81626739612926
 30
0.0
 11
174.7922649500513
 21
13.81626739612926
 31
0.0
 11
174.7453878317447
 21
13.82145433189181
 31
0.0
 11
174.7010975896125
 21
13.82315538223861
 31
0.0
 11
174.6568074431729
 21
13.82315538223861
 31
0.0
 11
174.6099309947159
 21
13.82315538223861
 31
0.0
 11
174.5630633657033
 21
13.82315538223861
 31
0.0
 11
174.5188084970407
 21
13.82315538223861
 31
0.0
 11
174.4744852776853
 21
13.82145433189181
 31
0.0
 11
174.4276419021443
 21
13.81626739612926
 31
0.0
 11
174.3992532136325
 21
13.90360966173244
 31
0.0
 11
174.3622721815897
 21
14.0072965627482
 31
0.0
 11
174.31883862367
 21
14.12159987001128
 31
0.0
 11
174.2711055866936
 21
14.24113531268966
 31
0.0
 11
174.2208160133237
 21
14.36408057307564
 31
0.0
 11
174.1696467003932
 21
14.48883822929452
 31
0.0
 11
174.1197531801326
 21
14.61134141502773
 31
0.0
 11
174.0733119111841
 21
14.72784517367921
 31
0.0
 11
173.9623611907589
 21
14.73087465284505
 31
0.0
 11
173.8497309225089
 21
14.73300454867791
 31
0.0
 11
173.7362152069449
 21
14.73432195319139
 31
0.0
 11
173.62270004768
 21
14.73473315978851
 31
0.0
 11
173.5169185312815
 21
14.73432195319139
 31
0.0
 11
173.4128501919224
 21
14.73300454867791
 31
0.0
 11
173.3087951724045
 21
14.73087465284505
 31
0.0
 11
173.2030010615596
 21
14.72784517367921
 31
0.0
 11
173.0980914750139
 21
14.4660443751335
 31
0.0
 11
173.0034868690331
 21
14.21710232658461
 31
0.0
 11
172.9252231210298
 21
13.99559756969553
 31
0.0
 11
172.8693431224555
 21
13.81626739612926
 31
0.0
 11
172.8082651639442
 21
13.82145433189181
 31
0.0
 11
172.7420873618129
 21
13.82315538223861
 31
0.0
 11
172.6758390041282
 21
13.82145433189181
 31
0.0
 11
172.6147963233938
 21
13.81626739612926
 31
0.0
 11
172.889968495193
 21
14.41656508695142
 31
0.0
 11
173.158294573417
 21
15.0134364236078
 31
0.0
 11
173.4240277350405
 21
15.61366245644379
 31
0.0
 11
173.6914740737033
 21
16.2242138538607
 31
0.0
 11
173.7241589339806
 21
16.2242138538607
 31
0.0
 11
173.7568437942579
 21
16.2242138538607
 31
0.0
 11
173.8428300681057
 21
16.01658539037086
 31
0.0
 11
173.9357285813609
 21
15.79254614563519
 31
0.0
 11
174.0328714521463
 21
15.55908663180468
 31
0.0
 11
174.131793645803
 21
15.32298128464151
 31
0.0
 11
174.2315341249926
 21
15.08649780379782
 31
0.0
 11
174.3313071129352
 21
14.85168781253708
 31
0.0
 11
174.4280608257448
 21
14.62599492196848
 31
0.0
 11
174.5188084970407
 21
14.41658052097921
 31
0.0
 11
174.6022150834546
 21
14.22607611130463
 31
0.0
 11
174.6770293263377
 21
14.05708232662471
 31
0.0
 11
174.7410729186603
 21
13.9178133770067
 31
0.0
 11
174.7922649500513
 21
13.81626739612926
 31
0.0
  0
SPLINE
  5
BE
102
{ACAD_REACTORS
330
DB
102
}
330
48
100
AcDbEntity
  8
_U_30EC_U_30A4_U_30E4_U_30FC_1
  6
Continuous
 62
     2
100
AcDbSpline
210
0.0
220
0.0
230
1.0
 70
    11
 71
     3
 72
    25
 73
    21
 74
    19
 42
0.000000001
 43
0.0000000001
 44
0.00000001
 40
0.0
 40
0.0
 40
0.0
 40
0.0
 40
0.0911479969064823
 40
0.1858117896204651
 40
0.2804128399734471
 40
0.3715889190714491
 40
0.4679080494218404
 40
0.5642683809229211
 40
0.6605683222644686
 40
0.7569653015810225
 40
0.8561348172522676
 40
1.092615965104279
 40
1.374867658141856
 40
1.611348812011574
 40
1.710518328425218
 40
1.809403163726534
 40
2.04520546329403
 40
2.326646917622082
 40
2.562449217190537
 40
2.661334043833853
 40
2.661334043833853
 40
2.661334043833853
 40
2.661334043833853
 10
173.2683700567199
 20
14.88614538197288
 30
0.0
 10
173.2987525917923
 20
14.8859807971455
 30
0.0
 10
173.3606895889111
 20
14.88564528689915
 30
0.0
 10
173.4541356960329
 20
14.88269055452002
 30
0.0
 10
173.5475095236357
 20
14.87977752877153
 30
0.0
 10
173.6417760753475
 20
14.87894201643419
 30
0.0
 10
173.7354964790967
 20
14.87996644658046
 30
0.0
 10
173.8352040303204
 20
14.87916977470971
 30
0.0
 10
173.9188949546312
 20
14.8892141023522
 30
0.0
 10
174.0637996315045
 20
14.86234617674159
 30
0.0
 10
173.9396132444801
 20
15.03665530280045
 30
0.0
 10
173.8965867286282
 20
15.19651711006087
 30
0.0
 10
173.780892214221
 20
15.4551845855021
 30
0.0
 10
173.7017565431256
 20
15.59231052861851
 30
0.0
 10
173.6431576621816
 20
15.8093703313407
 30
0.0
 10
173.5864803939438
 20
15.59266134213421
 30
0.0
 10
173.5052809900478
 20
15.45327012438231
 30
0.0
 10
173.4063701281487
 20
15.20406969370189
 30
0.0
 10
173.325362509426
 20
15.0192583022607
 30
0.0
 10
173.2813683325838
 20
14.91650446856112
 30
0.0
 10
173.2683700567199
 20
14.88614538197288
 30
0.0
 11
173.2683700567199
 21
14.88614538197288
 31
0.0
 11
173.359513773782
 21
14.88526123266755
 31
0.0
 11
173.4541428297581
 21
14.882696979196
 31
0.0
 11
173.5487082179706
 21
14.8800996528078
 31
0.0
 11
173.6398803250196
 21
14.87924857641912
 31
0.0
 11
173.7361985777706
 21
14.87965978301621
 31
0.0
 11
173.8325499034376
 21
14.88097718752971
 31
0.0
 11
173.9288262638286
 21
14.88310818579312
 31
0.0
 11
174.0251753846343
 21
14.88614538197288
 31
0.0
 11
173.9854633323141
 21
14.97701642195016
 31
0.0
 11
173.8907653613968
 21
15.19370890189597
 31
0.0
 11
173.7777387509471
 21
15.45234186183129
 31
0.0
 11
173.6830407800297
 21
15.66903434177711
 31
0.0
 11
173.6433287277095
 21
15.75990538175438
 31
0.0
 11
173.6043330259266
 21
15.6690343417771
 31
0.0
 11
173.5113432755212
 21
15.45234186183129
 31
0.0
 11
173.4003555089082
 21
15.19370890189597
 31
0.0
 11
173.3073657585028
 21
14.97701642195016
 31
0.0
 11
173.2683700567199
 21
14.88614538197288
 31
0.0
  0
SPLINE
  5
BF
102
{ACAD_REACTORS
330
DC
102
}
330
48
100
AcDbEntity
  8
_U_30EC_U_30A4_U_30E4_U_30FC_1
  6
Continuous
 62
     2
100
AcDbSpline
210
0.0
220
0.0
230
1.0
 70
    11
 71
     3
 72
    95
 73
    91
 74
    89
 42
0.000000001
 43
0.0000000001
 44
0.00000001
 40
0.0
 40
0.0
 40
0.0
 40
0.0
 40
0.6550406656911834
 40
1.308087289031918
 40
1.420803739835739
 40
1.56613075977075
 40
1.757067341888414
 40
2.00651354502638
 40
2.087328263121487
 40
2.18532887229562
 40
2.294612454748364
 40
2.408936380534754
 40
2.526802767798514
 40
2.6463605246156
 40
2.762535723971546
 40
2.87005734287014
 40
2.966883448431652
 40
3.050803243518318
 40
3.115818222436576
 40
3.156030057150216
 40
3.213914225080144
 40
3.276689026450517
 40
3.342960320981351
 40
3.404230667150542
 40
3.453822809493338
 40
3.532499827188357
 40
3.634775188507148
 40
3.75490933300811
 40
3.889736761660632
 40
4.035769602175136
 40
4.187256681197604
 40
4.338733685675917
 40
4.488478734676111
 40
4.634708317831556
 40
4.771493189921256
 40
4.89268657156118
 40
5.199775528944459
 40
5.460353566929636
 40
5.6676031423455
 40
5.814722905404562
 40
5.82899080621986
 40
5.855488336304557
 40
5.869756237118889
 40
6.189796507762987
 40
6.531890469873177
 40
6.883053637017126
 40
7.230512024911571
 40
7.566966656764712
 40
7.885203559707476
 40
8.172887439719316
 40
8.418011594062897
 40
8.443926721190818
 40
8.51076047061331
 40
8.602145393795823
 40
8.701714041647268
 40
8.793098965075504
 40
8.859932715058079
 40
8.885847842603729
 40
9.24230125661292
 40
9.58927545501689
 40
9.92180854316428
 40
10.23479624298478
 40
10.29968150889197
 40
10.35323493887785
 40
10.40154625355169
 40
10.46482922477844
 40
10.55973900668427
 40
10.69239545985645
 40
10.84920353475691
 40
11.016263285948
 40
11.18672024367461
 40
11.35372582577229
 40
11.50257442292444
 40
11.61866495023314
 40
11.71329869152895
 40
11.82511050573924
 40
11.94464880845735
 40
12.06929242642528
 40
12.197072904352
 40
12.32562632860547
 40
12.45034565331297
 40
12.56646595170343
 40
12.67099007414654
 40
12.76077625936802
 40
12.82703233506717
 40
12.87429132786013
 40
12.89831990323352
 40
12.92234847860041
 40
13.5398476741034
 40
14.18294284359386
 40
14.18294284359386
 40
14.18294284359386
 40
14.18294284359386
 10
177.306793564802
 20
14.70898038201716
 30
0.0
 10
177.175201975855
 20
14.82265058603227
 30
0.0
 10
176.9124193802729
 20
15.04964496316157
 30
0.0
 10
176.3997393441021
 20
15.89214462956282
 30
0.0
 10
176.4106654595363
 20
15.5342337757702
 30
0.0
 10
176.4041226527989
 20
15.39267392272134
 30
0.0
 10
176.4028026631773
 20
15.19421305299283
 30
0.0
 10
176.4018117602538
 20
15.02150296045985
 30
0.0
 10
176.4024101751974
 20
14.87865373257581
 30
0.0
 10
176.4038994301882
 20
14.78265005413356
 30
0.0
 10
176.4055683588472
 20
14.6754550326314
 30
0.0
 10
176.4071934954618
 20
14.56164211517582
 30
0.0
 10
176.4092429501685
 20
14.44441572604588
 30
0.0
 10
176.4123165501927
 20
14.32656411232969
 30
0.0
 10
176.4156339697042
 20
14.21228087320618
 30
0.0
 10
176.419360534028
 20
14.10521401867275
 30
0.0
 10
176.4217338161423
 20
14.01007408766917
 30
0.0
 10
176.4278718888358
 20
13.92558557205692
 30
0.0
 10
176.4239784495946
 20
13.86923087298138
 30
0.0
 10
176.4455230443077
 20
13.79825022472355
 30
0.0
 10
176.3680940058618
 20
13.82902677604477
 30
0.0
 10
176.311635324019
 20
13.82011242517615
 30
0.0
 10
176.2540495896806
 20
13.82896218398269
 30
0.0
 10
176.1690163478473
 20
13.79738225225947
 30
0.0
 10
176.2009714146382
 20
13.88095155992186
 30
0.0
 10
176.1990705282539
 20
13.94882608968306
 30
0.0
 10
176.21079600473
 20
14.05233256764415
 30
0.0
 10
176.2164241053
 20
14.17002125616692
 30
0.0
 10
176.223790217894
 20
14.30388609164419
 30
0.0
 10
176.2320759701611
 20
14.44764152872628
 30
0.0
 10
176.2398851897426
 20
14.59714022843442
 30
0.0
 10
176.2457571222658
 20
14.74792549402077
 30
0.0
 10
176.2503667817967
 20
14.89699943878436
 30
0.0
 10
176.2542632117543
 20
15.04122913163021
 30
0.0
 10
176.2570715126564
 20
15.17583905213016
 30
0.0
 10
176.2576698755022
 20
15.36469614347354
 30
0.0
 10
176.261602386715
 20
15.58975494313154
 30
0.0
 10
176.2442175378499
 20
15.86367091125709
 30
0.0
 10
176.2850417342581
 20
16.02787112098597
 30
0.0
 10
176.1995153256002
 20
16.22749661465107
 30
0.0
 10
176.2660558907688
 20
16.22385458403986
 30
0.0
 10
176.283872427323
 20
16.22413447160862
 30
0.0
 10
176.4056801797503
 20
16.22632927398619
 30
0.0
 10
176.5080770335461
 20
15.9467511872151
 30
0.0
 10
176.7580021509356
 20
15.74563008535999
 30
0.0
 10
176.9870035331109
 20
15.47792614987912
 30
0.0
 10
177.2245151213107
 20
15.22646413862369
 30
0.0
 10
177.4486090740772
 20
14.98969974061364
 30
0.0
 10
177.6750716283008
 20
14.73218692583076
 30
0.0
 10
177.8325687886515
 20
14.61649335056924
 30
0.0
 10
178.0472129612673
 20
14.27997152538792
 30
0.0
 10
178.0422645974619
 20
14.40464754091603
 30
0.0
 10
178.0433931602545
 20
14.46327691935737
 30
0.0
 10
178.0428877841517
 20
14.55043662371978
 30
0.0
 10
178.0430475158113
 20
14.64416143182873
 30
0.0
 10
178.0430054891318
 20
14.73018971297036
 30
0.0
 10
178.0430202040372
 20
14.79153891945497
 30
0.0
 10
178.0429706255985
 20
14.94135231520993
 30
0.0
 10
178.045881152281
 20
15.17989612510106
 30
0.0
 10
178.025952104116
 20
15.54486509868699
 30
0.0
 10
178.0750433936246
 20
15.80799631993416
 30
0.0
 10
177.917795150918
 20
16.21928904947746
 30
0.0
 10
178.0762112872421
 20
16.16398282551749
 30
0.0
 10
178.1311680478628
 20
16.16199686500177
 30
0.0
 10
178.1827887766739
 20
16.16264778248252
 30
0.0
 10
178.2713198965366
 20
16.20369527738244
 30
0.0
 10
178.2204898303168
 20
16.05696326622981
 30
0.0
 10
178.2313389930283
 20
15.95019971954429
 30
0.0
 10
178.2166036994847
 20
15.79085705414109
 30
0.0
 10
178.2099976446204
 20
15.62853061652874
 30
0.0
 10
178.2014961399914
 20
15.45992521892396
 30
0.0
 10
178.1943227202198
 20
15.29814814703542
 30
0.0
 10
178.1889063215389
 20
15.15422331457931
 30
0.0
 10
178.1871713967648
 20
15.03437493466923
 30
0.0
 10
178.1875440672318
 20
14.92686101590514
 30
0.0
 10
178.1873656126263
 20
14.81820024645586
 30
0.0
 10
178.1877010863139
 20
14.6995357016553
 30
0.0
 10
178.1890040622182
 20
14.57555163512738
 30
0.0
 10
178.1908887351575
 20
14.44858294171102
 30
0.0
 10
178.1925004454849
 20
14.32153861551031
 30
0.0
 10
178.194140313743
 20
14.19854884492179
 30
0.0
 10
178.1962570745752
 20
14.08300931383761
 30
0.0
 10
178.1963848422363
 20
13.98090903955837
 30
0.0
 10
178.2006514396555
 20
13.89009848838155
 30
0.0
 10
178.1908440085289
 20
13.83213621208784
 30
0.0
 10
178.2118474771689
 20
13.76517130132028
 30
0.0
 10
178.1725639739897
 20
13.77291153966687
 30
0.0
 10
177.9595307117745
 20
13.75755254145193
 30
0.0
 10
177.7636297943188
 20
14.3140305809447
 30
0.0
 10
177.4611197631542
 20
14.57556035348504
 30
0.0
 10
177.306793564802
 20
14.70898038201716
 30
0.0
 11
177.306793564802
 21
14.70898038201716
 31
0.0
 11
176.859552933851
 21
15.18757635411978
 31
0.0
 11
176.4124049070643
 21
15.66352649288967
 31
0.0
 11
176.4089664262494
 21
15.55086249986234
 31
0.0
 11
176.4055610183499
 21
15.40557538184311
 31
0.0
 11
176.4029636920274
 21
15.21465645827969
 31
0.0
 11
176.4021126156603
 21
14.96521170139761
 31
0.0
 11
176.4025239230289
 21
14.88439802954282
 31
0.0
 11
176.4038420329817
 21
14.78640628477558
 31
0.0
 11
176.4055192267718
 21
14.67713557299735
 31
0.0
 11
176.4072367127518
 21
14.56282454872041
 31
0.0
 11
176.4094007838772
 21
14.44497802965266
 31
0.0
 11
176.4124049070643
 21
14.32545802100196
 31
0.0
 11
176.4158359733138
 21
14.20933349846156
 31
0.0
 11
176.4192928929998
 21
14.10186746550227
 31
0.0
 11
176.4227085253087
 21
14.0051016235126
 31
0.0
 11
176.4261896983793
 21
13.92125406276966
 31
0.0
 11
176.4296006184313
 21
13.85632862007759
 31
0.0
 11
176.4330776843148
 21
13.81626739612926
 31
0.0
 11
176.3754263821571
 21
13.82145433189181
 31
0.0
 11
176.3126746318309
 21
13.82315538223861
 31
0.0
 11
176.2464251717156
 21
13.82145433189181
 31
0.0
 11
176.1853747739675
 21
13.81626739612926
 31
0.0
 11
176.1926772737812
 21
13.86531894125588
 31
0.0
 11
176.2008793569054
 21
13.94356725720849
 31
0.0
 11
176.2090098822348
 21
14.04551893253028
 31
0.0
 11
176.2163406441397
 21
14.16542920159748
 31
0.0
 11
176.2236358280421
 21
14.30005912343888
 31
0.0
 11
176.2318444255596
 21
14.44586107652737
 31
0.0
 11
176.2395504149465
 21
14.59715203135073
 31
0.0
 11
176.2455763002093
 21
14.74850913200731
 31
0.0
 11
176.2503046247415
 21
14.89817951391436
 31
0.0
 11
176.254192897212
 21
15.0443573958222
 31
0.0
 11
176.2567527408965
 21
15.18111831592695
 31
0.0
 11
176.2576324804574
 21
15.30230850686888
 31
0.0
 11
176.257192610677
 21
15.60939715262546
 31
0.0
 11
176.2559126888347
 21
15.86997204839366
 31
0.0
 11
176.2528658717892
 21
16.07719922716125
 31
0.0
 11
176.2473049112763
 21
16.2242138538607
 31
0.0
 11
176.2615728121469
 21
16.2242138538607
 31
0.0
 11
176.2880703423352
 21
16.2242138538607
 31
0.0
 11
176.3023382432058
 21
16.2242138538607
 31
0.0
 11
176.5194743650277
 21
15.98910179662768
 31
0.0
 11
176.7512744123079
 21
15.73751281231557
 31
0.0
 11
176.9894816018839
 21
15.47949555543566
 31
0.0
 11
177.226007455752
 21
15.22497079855486
 31
0.0
 11
177.4555698717705
 21
14.97899759549138
 31
0.0
 11
177.6731797360102
 21
14.74678934034108
 31
0.0
 11
177.8713724913707
 21
14.53826680567101
 31
0.0
 11
178.0430143099086
 21
14.36326697932589
 31
0.0
 11
178.0430143099086
 21
14.38918210687043
 31
0.0
 11
178.0430143099086
 21
14.45601585685372
 31
0.0
 11
178.0430143099086
 21
14.54740078030025
 31
0.0
 11
178.0430143099086
 21
14.64696942823455
 31
0.0
 11
178.0430143099086
 21
14.73835435168108
 31
0.0
 11
178.0430143099086
 21
14.80518810166437
 31
0.0
 11
178.0430143099086
 21
14.83110322920891
 31
0.0
 11
178.0417233637609
 21
15.18755430550867
 31
0.0
 11
178.0378461155957
 21
15.53450684014416
 31
0.0
 11
178.0296197790001
 21
15.86693815950551
 31
0.0
 11
178.0154535467227
 21
16.17960510387178
 31
0.0
 11
178.0790351249618
 21
16.16666367158335
 31
0.0
 11
178.1324170159611
 21
16.16238072887609
 31
0.0
 11
178.1805381084833
 21
16.16666367158335
 31
0.0
 11
178.2424836798197
 21
16.17960510387178
 31
0.0
 11
178.2351216487575
 21
16.08498128445097
 31
0.0
 11
178.2269790968818
 21
15.95257496503956
 31
0.0
 11
178.2183705364004
 21
15.79600336785655
 31
0.0
 11
178.2097547223215
 21
15.62916593734269
 31
0.0
 11
178.2016187850288
 21
15.45890325509362
 31
0.0
 11
178.1942501393835
 21
15.292060312427
 31
0.0
 11
178.1891406931522
 21
15.1432994357281
 31
0.0
 11
178.1874503478904
 21
15.02722121527097
 31
0.0
 11
178.1874503478904
 21
14.93258747397518
 31
0.0
 11
178.1874503478904
 21
14.82077565976709
 31
0.0
 11
178.1878461204496
 21
14.70123801222749
 31
0.0
 11
178.1890819450707
 21
14.57660052093917
 31
0.0
 11
178.1908392193317
 21
14.44883212687386
 31
0.0
 11
178.1925303477607
 21
14.32028982655879
 31
0.0
 11
178.1942876220214
 21
14.19558288214556
 31
0.0
 11
178.1959787504505
 21
14.07947489606352
 31
0.0
 11
178.1972884379172
 21
13.97495896727018
 31
0.0
 11
178.1976985420735
 21
13.88517371555651
 31
0.0
 11
178.1976985420735
 21
13.81891763918411
 31
0.0
 11
178.1976985420735
 21
13.7716586461404
 31
0.0
 11
178.1736699662976
 21
13.7716586461404
 31
0.0
 11
178.1496413905217
 21
13.7716586461404
 31
0.0
 11
177.7410729200423
 21
14.23466735262189
 31
0.0
 11
177.306793564802
 21
14.70898038201716
 31
0.0
  0
SPLINE
  5
C0
102
{ACAD_REACTORS
330
DD
102
}
330
48
100
AcDbEntity
  8
_U_30EC_U_30A4_U_30E4_U_30FC_1
  6
Continuous
 62
     2
100
AcDbSpline
210
0.0
220
0.0
230
1.0
 70
    11
 71
     3
 72
   110
 73
   106
 74
   104
 42
0.000000001
 43
0.0000000001
 44
0.00000001
 40
0.0
 40
0.0
 40
0.0
 40
0.0
 40
0.2203406257278075
 40
0.4407808782838393
 40
0.5952494494615087
 40
0.7488431659393366
 40
0.9023581831308788
 40
1.056801968670434
 40
1.210736449099934
 40
1.363041386539813
 40
1.515315729683098
 40
1.669377239148106
 40
1.72161165275661
 40
1.773199502942994
 40
1.824933793210008
 40
1.877110426487938
 40
1.982682281206696
 40
2.078781667087593
 40
2.172809640822256
 40
2.271937807378879
 40
2.378349933379331
 40
2.494131557736465
 40
2.626681683943626
 40
2.783145050796139
 40
2.890701232940992
 40
2.993130312454836
 40
3.099869730691865
 40
3.220237816691384
 40
3.352695482737635
 40
3.481732806389875
 40
3.593499473690422
 40
3.674323013331881
 40
3.817951711952773
 40
3.946167120793827
 40
4.061405053453484
 40
4.166480796003149
 40
4.26247877505919
 40
4.350736673551147
 40
4.433071991253978
 40
4.51121629381464
 40
4.564262454117989
 40
4.618474415571622
 40
4.670128488754241
 40
4.722296879126485
 40
4.819540945314354
 40
4.93119498412821
 40
5.049996040257854
 40
5.168643755415483
 40
5.283970811762667
 40
5.392260784910522
 40
5.486512254876568
 40
5.55917823394991
 40
5.591425852853584
 40
5.626215969637935
 40
5.667155838674535
 40
5.717449290214337
 40
5.738402360944955
 40
5.784499116553936
 40
5.830595872164921
 40
5.851548942897783
 40
5.873019280661892
 40
5.924217778408427
 40
5.985325662817796
 40
6.0365241605678
 40
6.057994498334325
 40
6.236847789607572
 40
6.381409928945798
 40
6.493190424178789
 40
6.574067534230648
 40
6.691018086205657
 40
6.814881554220547
 40
6.944307823240556
 40
7.071266716066238
 40
7.193488604462085
 40
7.309042773128308
 40
7.414007203170907
 40
7.505140441886581
 40
7.531150360599728
 40
7.559221645322315
 40
7.58720221892099
 40
7.61256915949921
 40
7.662550809481064
 40
7.702878875764177
 40
7.857328205230877
 40
8.010799568088608
 40
8.165256399657501
 40
8.322232698713897
 40
8.479564855016555
 40
8.635216230290702
 40
8.790882550925676
 40
8.948305154947185
 40
9.168271839032883
 40
9.387358980987116
 40
9.608047961033412
 40
9.832914234792609
 40
9.858338694962944
 40
9.92536681722995
 40
10.02013071422753
 40
10.12876249858992
 40
10.23739428295242
 40
10.33215817995183
 40
10.39918630222387
 40
10.42461076239776
 40
10.64992019336932
 40
10.87188524531176
 40
10.87188524531176
 40
10.87188524531176
 40
10.87188524531176
 10
179.9057788376618
 20
15.73923260398186
 30
0.0
 10
179.9092864933541
 20
15.806164620738
 30
0.0
 10
179.9163033987662
 20
15.94005891915856
 30
0.0
 10
179.8198027599073
 20
16.22548554971469
 30
0.0
 10
180.0510134726108
 20
16.16284386190281
 30
0.0
 10
180.1919290057155
 20
16.17001554055994
 30
0.0
 10
180.3490417757588
 20
16.16235883078241
 30
0.0
 10
180.5025913427287
 20
16.16252752283044
 30
0.0
 10
180.6545104935081
 20
16.16182040535429
 30
0.0
 10
180.8142214813231
 20
16.17210158351642
 30
0.0
 10
180.9408972601117
 20
16.1549651108075
 30
0.0
 10
181.1370821122081
 20
16.22727260107146
 30
0.0
 10
181.1034395279078
 20
16.12640699080115
 30
0.0
 10
181.1052011317184
 20
16.07619253947669
 30
0.0
 10
181.1027342073457
 20
16.02712335586466
 30
0.0
 10
181.1347076966011
 20
15.94063490847006
 30
0.0
 10
181.0010399903255
 20
15.98997438608332
 30
0.0
 10
180.9172208688056
 20
15.98430634314173
 30
0.0
 10
180.8173861139323
 20
15.99465516706297
 30
0.0
 10
180.7186576720145
 20
16.00086450411083
 30
0.0
 10
180.612153277111
 20
16.00697763816778
 30
0.0
 10
180.491051169806
 20
16.01588883484595
 30
0.0
 10
180.3703381502452
 20
16.00521605912381
 30
0.0
 10
180.1812553843436
 20
16.0646850308037
 30
0.0
 10
180.2129028505311
 20
15.90558320077541
 30
0.0
 10
180.1995563316833
 20
15.80839128339907
 30
0.0
 10
180.1974958426449
 20
15.69634065110104
 30
0.0
 10
180.1958188044671
 20
15.57699685629351
 30
0.0
 10
180.1973336794232
 20
15.45032592155111
 30
0.0
 10
180.195658247867
 20
15.32301588016118
 30
0.0
 10
180.2058844271658
 20
15.22451566404468
 30
0.0
 10
180.1779006596582
 20
15.0838870262564
 30
0.0
 10
180.3508029999305
 20
15.13989551134095
 30
0.0
 10
180.4645020202771
 20
15.12719951478499
 30
0.0
 10
180.5840151672239
 20
15.13448377051261
 30
0.0
 10
180.6888491425072
 20
15.13878017056741
 30
0.0
 10
180.7843084898611
 20
15.14330568258978
 30
0.0
 10
180.8763823507032
 20
15.15149201146197
 30
0.0
 10
180.9476551782439
 20
15.14643850638113
 30
0.0
 10
181.0544931705685
 20
15.18536425031684
 30
0.0
 10
181.0226603598036
 20
15.10517122005883
 30
0.0
 10
181.0266164503929
 20
15.05562936846036
 30
0.0
 10
181.0234502392013
 20
15.00557478039819
 30
0.0
 10
181.0550791490584
 20
14.92128847612017
 30
0.0
 10
180.9210133677691
 20
14.97425365495155
 30
0.0
 10
180.82923227932
 20
14.96540080890433
 30
0.0
 10
180.7079729189603
 20
14.9757004996516
 30
0.0
 10
180.5914113119771
 20
14.97748911767495
 30
0.0
 10
180.4783375745878
 20
14.97787017109694
 30
0.0
 10
180.367924630847
 20
14.98415449472183
 30
0.0
 10
180.289812406784
 20
14.97189133255364
 30
0.0
 10
180.1913625833644
 20
15.00453887616125
 30
0.0
 10
180.2012355173561
 20
14.94769748054208
 30
0.0
 10
180.1973923244402
 20
14.91392130557985
 30
0.0
 10
180.1966789884268
 20
14.87119604709411
 30
0.0
 10
180.1963369642975
 20
14.83401607262151
 30
0.0
 10
180.1963834255346
 20
14.79487237370769
 30
0.0
 10
180.1963649429927
 20
14.75716849497682
 30
0.0
 10
180.1963703431806
 20
14.71944955232398
 30
0.0
 10
180.1963697214201
 20
14.68994324745145
 30
0.0
 10
180.1963698151545
 20
14.65873577699297
 30
0.0
 10
180.196370428792
 20
14.61414424908081
 30
0.0
 10
180.1963671499336
 20
14.55963956508848
 30
0.0
 10
180.1963759623481
 20
14.51505540201446
 30
0.0
 10
180.1963359653417
 20
14.43117808585739
 30
0.0
 10
180.1976024270255
 20
14.31737520677676
 30
0.0
 10
180.1950274117842
 20
14.16830395933706
 30
0.0
 10
180.2065009381719
 20
14.06597203813901
 30
0.0
 10
180.1823506222264
 20
13.9333890388583
 30
0.0
 10
180.3332993946475
 20
13.97895732272013
 30
0.0
 10
180.4428436671555
 20
13.96427012162342
 30
0.0
 10
180.5733970473919
 20
13.96920435125057
 30
0.0
 10
180.6990312209513
 20
13.97257705323359
 30
0.0
 10
180.8188730625601
 20
13.9771149749878
 30
0.0
 10
180.9391362611427
 20
13.99048536181998
 30
0.0
 10
181.0222761663515
 20
13.98068712782593
 30
0.0
 10
181.1456080421073
 20
14.04126214623317
 30
0.0
 10
181.1244269203956
 20
13.98532460134019
 30
0.0
 10
181.1235950270117
 20
13.95939249372343
 30
0.0
 10
181.1218963707557
 20
13.93197256190936
 30
0.0
 10
181.1217974888829
 20
13.89738195206382
 30
0.0
 10
181.1203659301329
 20
13.86050408220766
 30
0.0
 10
181.1532804192188
 20
13.76846841021807
 30
0.0
 10
180.9551306988107
 20
13.84132015974828
 30
0.0
 10
180.8300548294891
 20
13.81825726508606
 30
0.0
 10
180.6673071295155
 20
13.82454021985784
 30
0.0
 10
180.5129366450001
 20
13.82260943909925
 30
0.0
 10
180.3566670436943
 20
13.82393762599266
 30
0.0
 10
180.1970544465281
 20
13.82059872487862
 30
0.0
 10
180.0540326342237
 20
13.83265795728235
 30
0.0
 10
179.8197144881628
 20
13.7695200197692
 30
0.0
 10
179.9173810751196
 20
14.05620527466315
 30
0.0
 10
179.9006868780059
 20
14.24988308142659
 30
0.0
 10
179.9146296709683
 20
14.47848242880294
 30
0.0
 10
179.9142987846634
 20
14.6338459395505
 30
0.0
 10
179.9143078119263
 20
14.73966336444126
 30
0.0
 10
179.9143055876316
 20
14.80205784124215
 30
0.0
 10
179.9143065551889
 20
14.89220425248327
 30
0.0
 10
179.9143065473262
 20
14.99621167157438
 30
0.0
 10
179.9143053861102
 20
15.10022131375296
 30
0.0
 10
179.9143090971502
 20
15.19036243688768
 30
0.0
 10
179.9143011051052
 20
15.25276803097215
 30
0.0
 10
179.9143334275017
 20
15.35868835961118
 30
0.0
 10
179.9131440788319
 20
15.51626716544737
 30
0.0
 10
179.9082216489256
 20
15.66528219822062
 30
0.0
 10
179.9057788376618
 20
15.73923260398186
 30
0.0
 11
179.9057788376618
 21
15.73923260398186
 31
0.0
 11
179.896691822374
 21
15.95938578101017
 31
0.0
 11
179.8868249573133
 21
16.17960510387178
 31
0.0
 11
180.04115751414
 21
16.17312391463727
 31
0.0
 11
180.1946500189046
 21
16.16754892331926
 31
0.0
 11
180.3481160653366
 21
16.1636716750563
 31
0.0
 11
180.5025544554939
 21
16.16238072887609
 31
0.0
 11
180.6564835227473
 21
16.1636716750563
 31
0.0
 11
180.80873910046
 21
16.16754892331926
 31
0.0
 11
180.9609113551073
 21
16.17312391463727
 31
0.0
 11
181.1148364762483
 21
16.17960510387178
 31
0.0
 11
181.1070811703123
 21
16.12794961777355
 31
0.0
 11
181.1044991623591
 21
16.07642642334201
 31
0.0
 11
181.1070811703123
 21
16.0247566056466
 31
0.0
 11
181.1148364762483
 21
15.9731595483679
 31
0.0
 11
181.0094874054411
 21
15.98001446156056
 31
0.0
 11
180.9136375700059
 21
15.9869355205866
 31
0.0
 11
180.8198593171903
 21
15.99378381919598
 31
0.0
 11
180.7209679915881
 21
16.00063211780537
 31
0.0
 11
180.6147532199923
 21
16.00710999974825
 31
0.0
 11
180.4991060528038
 21
16.012688298358
 31
0.0
 11
180.3666126447258
 21
16.01656554662089
 31
0.0
 11
180.2101546018422
 21
16.01785649280112
 31
0.0
 11
180.2062663293721
 21
15.91037061609186
 31
0.0
 11
180.2015380048399
 21
15.8080507289647
 31
0.0
 11
180.1976607566749
 21
15.70138175329688
 31
0.0
 11
180.1963698105272
 21
15.58102059013248
 31
0.0
 11
180.1967799146836
 21
15.44856355891567
 31
0.0
 11
180.1980896021502
 21
15.31953288186458
 31
0.0
 11
180.1994074577049
 21
15.2077739843231
 31
0.0
 11
180.199819115366
 21
15.12695149302391
 31
0.0
 11
180.3434452935874
 21
15.12780256941251
 31
0.0
 11
180.4716343930758
 21
15.13039989580079
 31
0.0
 11
180.5868078221795
 21
15.13425509545256
 31
0.0
 11
180.691775631222
 21
15.13901649302068
 31
0.0
 11
180.7876346289421
 21
15.14418027774173
 31
0.0
 11
180.8757413374193
 21
15.14934406246266
 31
0.0
 11
180.9578881438495
 21
15.15491243919741
 31
0.0
 11
181.0357692335571
 21
15.16132086801531
 31
0.0
 11
181.0280180445186
 21
15.10884407115341
 31
0.0
 11
181.0254328449317
 21
15.0546937847086
 31
0.0
 11
181.0280180445186
 21
15.00310444444367
 31
0.0
 11
181.0357692335571
 21
14.95151510417878
 31
0.0
 11
180.9389813454014
 21
14.96092324653753
 31
0.0
 11
180.8275950722015
 21
14.96865128473007
 31
0.0
 11
180.7089261429373
 21
14.97425273438146
 31
0.0
 11
180.5903167449212
 21
14.97726788195007
 31
0.0
 11
180.4750025117521
 21
14.97898767361638
 31
0.0
 11
180.3667261950699
 21
14.98070746528259
 31
0.0
 11
180.2724839317708
 21
14.98202486979617
 31
0.0
 11
180.199819115366
 21
14.9824360763933
 31
0.0
 11
180.199407457705
 21
14.95019108508191
 31
0.0
 11
180.1980896021502
 21
14.91542593752121
 31
0.0
 11
180.1967799146836
 21
14.87450702260082
 31
0.0
 11
180.1963698105272
 21
14.8242152430995
 31
0.0
 11
180.1963698105272
 21
14.8032621723582
 31
0.0
 11
180.1963698105272
 21
14.75716541672733
 31
0.0
 11
180.1963698105272
 21
14.71106866109646
 31
0.0
 11
180.1963698105272
 21
14.69011559035516
 31
0.0
 11
180.1963698105272
 21
14.66864525258276
 31
0.0
 11
180.1963698105272
 21
14.6174467548178
 31
0.0
 11
180.1963698105272
 21
14.55633887038865
 31
0.0
 11
180.1963698105272
 21
14.50514037262369
 31
0.0
 11
180.1963698105272
 21
14.48367003485129
 31
0.0
 11
180.1967799146836
 21
14.30481721371547
 31
0.0
 11
180.1980896021502
 21
14.16026100715436
 31
0.0
 11
180.2002868589709
 21
14.04850210961287
 31
0.0
 11
180.2032586986985
 21
13.96767961831358
 31
0.0
 11
180.3202092517446
 21
13.96767961831358
 31
0.0
 11
180.4440727208745
 21
13.96767961831358
 31
0.0
 11
180.5734925526421
 21
13.96897056449384
 31
0.0
 11
180.7003922282244
 21
13.97284781275681
 31
0.0
 11
180.8224658067973
 21
13.97886708358868
 31
0.0
 11
180.9377587499463
 21
13.98663260441998
 31
0.0
 11
181.0421754573518
 21
13.997341614834
 31
0.0
 11
181.1320599255447
 21
14.01237656274691
 31
0.0
 11
181.126425403119
 21
13.98698427976714
 31
0.0
 11
181.1234433285423
 21
13.959071840538
 31
0.0
 11
181.1221339881199
 21
13.93112191866999
 31
0.0
 11
181.1217235369194
 21
13.90575829888468
 31
0.0
 11
181.1243087365064
 21
13.85584355063324
 31
0.0
 11
181.1320599255447
 21
13.81626739612926
 31
0.0
 11
180.9776977178344
 21
13.82145433189181
 31
0.0
 11
180.8242357818764
 21
13.82315538223861
 31
0.0
 11
180.6697789496483
 21
13.82315538223861
 31
0.0
 11
180.5128026496767
 21
13.82315538223861
 31
0.0
 11
180.3554704921536
 21
13.82315538223861
 31
0.0
 11
180.199819115366
 21
13.82315538223861
 31
0.0
 11
180.0441620874241
 21
13.82145433189181
 31
0.0
 11
179.8868249573133
 21
13.81626739612926
 31
0.0
 11
179.896691822374
 21
14.0360126738521
 31
0.0
 11
179.9057788376618
 21
14.25491128490847
 31
0.0
 11
179.91217215184
 21
14.47550763902004
 31
0.0
 11
179.9143063455009
 21
14.70036378479716
 31
0.0
 11
179.9143063455009
 21
14.72578824496875
 31
0.0
 11
179.9143063455009
 21
14.79281636723932
 31
0.0
 11
179.9143063455009
 21
14.88758026424254
 31
0.0
 11
179.9143063455009
 21
14.99621204861208
 31
0.0
 11
179.9143063455009
 21
15.10484383298162
 31
0.0
 11
179.9143063455009
 21
15.19960772998484
 31
0.0
 11
179.9143063455009
 21
15.2666358522554
 31
0.0
 11
179.9143063455009
 21
15.292060312427
 31
0.0
 11
179.91217215184
 21
15.51735963528732
 31
0.0
 11
179.9057788376618
 21
15.73923260398186
 31
0.0
  0
SPLINE
  5
C1
102
{ACAD_REACTORS
330
DE
102
}
330
48
100
AcDbEntity
  8
_U_30EC_U_30A4_U_30E4_U_30FC_1
  6
Continuous
 62
     2
100
AcDbSpline
210
0.0
220
0.0
230
1.0
 70
    11
 71
     3
 72
    47
 73
    43
 74
    41
 42
0.000000001
 43
0.0000000001
 44
0.00000001
 40
0.0
 40
0.0
 40
0.0
 40
0.0
 40
0.2207912809956414
 40
0.4459404186302137
 40
0.4902387190458071
 40
0.5327473892720146
 40
0.574226045122434
 40
0.6155432630559908
 40
0.6568164066314818
 40
0.6982511618779762
 40
0.7407663929315675
 40
0.7851366743174298
 40
1.010288833836218
 40
1.231080507001988
 40
1.451765243652242
 40
1.676638205891533
 40
1.720461045359507
 40
1.83001814404338
 40
1.972442372353019
 40
2.114866600677398
 40
2.22442369939503
 40
2.268246538883274
 40
2.493628801207125
 40
2.715602830286536
 40
2.93421133070629
 40
3.14950236985527
 40
3.231387784850943
 40
3.31823187385395
 40
3.405143198197995
 40
3.486970301720373
 40
3.702258172493802
 40
3.920866283534034
 40
4.142839325931835
 40
4.368221903865316
 40
4.412044743359799
 40
4.521601842095822
 40
4.66402607045231
 40
4.80645029880903
 40
4.916007397546731
 40
4.959830237043056
 40
5.184703515847096
 40
5.405387250767495
 40
5.405387250767495
 40
5.405387250767495
 40
5.405387250767495
 10
182.6507427258645
 20
15.7340644095388
 30
0.0
 10
182.6568139420002
 20
15.79758482501216
 30
0.0
 10
182.6690762107241
 20
15.92587938689628
 30
0.0
 10
182.5604706879415
 20
16.20166220174079
 30
0.0
 10
182.6761985896603
 20
16.17188133432052
 30
0.0
 10
182.7171842509015
 20
16.16765556262823
 30
0.0
 10
182.7591205797518
 20
16.16310446389604
 30
0.0
 10
182.800419662571
 20
16.16201982929489
 30
0.0
 10
182.8417032115556
 20
16.16310338195224
 30
0.0
 10
182.8836148270647
 20
16.16766112711347
 30
0.0
 10
182.9245983549019
 20
16.17187430209727
 30
0.0
 10
183.0404922843489
 20
16.20177611317534
 30
0.0
 10
182.9295652727456
 20
15.92339806609893
 30
0.0
 10
182.9574856365267
 20
15.74283140824957
 30
0.0
 10
182.9404267346969
 20
15.50961042346477
 30
0.0
 10
182.9414637282103
 20
15.34906622543151
 30
0.0
 10
182.9414099399404
 20
15.22284817558726
 30
0.0
 10
182.941427737248
 20
15.12428963336245
 30
0.0
 10
182.941418858108
 20
14.99280702442966
 30
0.0
 10
182.9414263928033
 20
14.86132844968652
 30
0.0
 10
182.9414129405128
 20
14.76276222694091
 30
0.0
 10
182.9414531717492
 20
14.63639735624152
 30
0.0
 10
182.9406746403816
 20
14.47482068822869
 30
0.0
 10
182.9565958319267
 20
14.24361821892913
 30
0.0
 10
182.9333468885407
 20
14.05874351971998
 30
0.0
 10
183.0360183444366
 20
13.78935602770057
 30
0.0
 10
182.8820238362836
 20
13.82660112685811
 30
0.0
 10
182.8004129802832
 20
13.82137994680536
 30
0.0
 10
182.7188192292582
 20
13.82660620378345
 30
0.0
 10
182.5648513666843
 20
13.78937069885391
 30
0.0
 10
182.6674183421917
 20
14.05875129862877
 30
0.0
 10
182.6442045316088
 20
14.24361585325413
 30
0.0
 10
182.6600444655139
 20
14.47482218565638
 30
0.0
 10
182.6593296313426
 20
14.63639712308503
 30
0.0
 10
182.6593664569907
 20
14.76276231210522
 30
0.0
 10
182.659354900027
 20
14.86132756635983
 30
0.0
 10
182.6593575019214
 20
14.99281127417223
 30
0.0
 10
182.6593648531779
 20
15.12427548031203
 30
0.0
 10
182.6593442541351
 20
15.2228778627533
 30
0.0
 10
182.6594082192028
 20
15.34896149354432
 30
0.0
 10
182.658173394759
 20
15.51210091383777
 30
0.0
 10
182.6532040396745
 20
15.66054183777557
 30
0.0
 10
182.6507427258645
 20
15.7340644095388
 30
0.0
 11
182.6507427258645
 21
15.7340644095388
 31
0.0
 11
182.6417328200379
 21
15.95467178795577
 31
0.0
 11
182.6318769706146
 21
16.17960510387178
 31
0.0
 11
182.6756985840801
 21
16.17312391463727
 31
0.0
 11
182.7178400934214
 21
16.16754892331926
 31
0.0
 11
182.759137140979
 21
16.1636716750563
 31
0.0
 11
182.8004341885365
 21
16.16238072887609
 31
0.0
 11
182.841687138873
 21
16.1636716750563
 31
0.0
 11
182.8829400892097
 21
16.16754892331926
 31
0.0
 11
182.9250882131342
 21
16.17312391463727
 31
0.0
 11
182.9689825870145
 21
16.17960510387178
 31
0.0
 11
182.9590577693891
 21
15.95467178795577
 31
0.0
 11
182.950038420831
 21
15.7340644095388
 31
0.0
 11
182.9435638463435
 21
15.5134746700106
 31
0.0
 11
182.9414218238286
 21
15.28861190965012
 31
0.0
 11
182.9414218238286
 21
15.2447890701549
 31
0.0
 11
182.9414218238286
 21
15.13523197141686
 31
0.0
 11
182.9414218238286
 21
14.9928077430574
 31
0.0
 11
182.9414218238286
 21
14.85038351469794
 31
0.0
 11
182.9414218238286
 21
14.7408264159599
 31
0.0
 11
182.9414218238286
 21
14.69700357646468
 31
0.0
 11
182.9435638463435
 21
14.47163149318765
 31
0.0
 11
182.950038420831
 21
14.24975190990978
 31
0.0
 11
182.9590577693891
 21
14.03132954885327
 31
0.0
 11
182.9689825870145
 21
13.81626739612926
 31
0.0
 11
182.887261616877
 21
13.82145433189181
 31
0.0
 11
182.8004341885365
 21
13.82315538223861
 31
0.0
 11
182.7135395119338
 21
13.82145433189181
 31
0.0
 11
182.6318769706146
 21
13.81626739612926
 31
0.0
 11
182.6417328200379
 21
14.03132954885327
 31
0.0
 11
182.6507427258645
 21
14.24975190990978
 31
0.0
 11
182.6571833838798
 21
14.47163149318765
 31
0.0
 11
182.6593583588023
 21
14.69700357646468
 31
0.0
 11
182.6593583588023
 21
14.7408264159599
 31
0.0
 11
182.6593583588023
 21
14.85038351469794
 31
0.0
 11
182.6593583588023
 21
14.9928077430574
 31
0.0
 11
182.6593583588023
 21
15.13523197141686
 31
0.0
 11
182.6593583588023
 21
15.2447890701549
 31
0.0
 11
182.6593583588023
 21
15.28861190965012
 31
0.0
 11
182.6571833838798
 21
15.5134746700106
 31
0.0
 11
182.6507427258645
 21
15.7340644095388
 31
0.0
  0
SPLINE
  5
C2
102
{ACAD_REACTORS
330
DF
102
}
330
48
100
AcDbEntity
  8
_U_30EC_U_30A4_U_30E4_U_30FC_1
  6
Continuous
 62
     2
100
AcDbSpline
210
0.0
220
0.0
230
1.0
 70
    11
 71
     3
 72
   118
 73
   114
 74
   112
 42
0.000000001
 43
0.0000000001
 44
0.00000001
 40
0.0
 40
0.0
 40
0.0
 40
0.0
 40
0.1054708162973611
 40
0.2466098270052154
 40
0.3965912874591657
 40
0.5285525069754327
 40
0.6156245055642521
 40
0.6431434105797876
 40
0.7036850037986653
 40
0.7642265984505137
 40
0.7917455052355483
 40
0.9287404319990451
 40
1.106572819088084
 40
1.287544879681106
 40
1.317578308030623
 40
1.399928030857259
 40
1.52296820480003
 40
1.675072986590648
 40
1.844616533180723
 40
2.01997300163878
 40
2.18951654888009
 40
2.341621331585423
 40
2.464661506320557
 40
2.547011229647121
 40
2.577044658168083
 40
2.603797890893125
 40
2.662655002908812
 40
2.721512114949567
 40
2.748265347702747
 40
2.774215307344822
 40
2.84595931340715
 40
2.954338556588347
 40
3.090194227585521
 40
3.244367517100481
 40
3.407699615844234
 40
3.571031714539377
 40
3.725205003920049
 40
3.861060674729548
 40
3.969439917716235
 40
4.041183923628905
 40
4.067133883212898
 40
4.31188674601205
 40
4.547897258335412
 40
4.764747083043854
 40
4.952749679951649
 40
5.045772974195802
 40
5.137862019644861
 40
5.33054316979293
 40
5.553448265243934
 40
5.795083855888103
 40
6.043293412177176
 40
6.285761695541133
 40
6.313902908752617
 40
6.384255941793207
 40
6.475714884766795
 40
6.567173827758857
 40
6.637526860839635
 40
6.665668074073999
 40
6.692018920327957
 40
6.749990782070993
 40
6.807962643790324
 40
6.834313490017784
 40
6.856393084245063
 40
6.913335195649687
 40
6.99119481730235
 40
7.076026942283612
 40
7.153886563725102
 40
7.210828674844684
 40
7.23290826893102
 40
7.258199334923544
 40
7.324875781592201
 40
7.419142481924871
 40
7.527204308841826
 40
7.635266135230419
 40
7.729532834168419
 40
7.796209279292748
 40
7.821500344594698
 40
7.844652988850769
 40
7.899863140541549
 40
7.965759128053716
 40
8.020969279771002
 40
8.044121924046468
 40
8.069356610160543
 40
8.109134395441398
 40
8.13223810019111
 40
8.193147867786479
 40
8.279261678876658
 40
8.377977512673876
 40
8.476693347146664
 40
8.562807160411724
 40
8.623716930826511
 40
8.646820636853466
 40
8.671988793774307
 40
8.734909185828219
 40
8.816705695188933
 40
8.898502204815532
 40
8.961422597378021
 40
8.986590754551134
 40
9.012941600733274
 40
9.070913462380323
 40
9.128885324081784
 40
9.15523617032509
 40
9.18040432792916
 40
9.243324721948206
 40
9.325121234212027
 40
9.40691774663771
 40
9.469838141978222
 40
9.495006288270968
 40
9.517811184379115
 40
9.572192090487132
 40
9.637098333281378
 40
9.691479239515594
 40
9.714284125643639
 40
9.714284125643639
 40
9.714284125643639
 40
9.714284125643639
 10
185.2874469028652
 20
15.26889163187718
 30
0.0
 10
185.3090990569036
 20
15.2411186924281
 30
0.0
 10
185.3597257109473
 20
15.17618054561235
 30
0.0
 10
185.4349383202591
 20
15.06891060312894
 30
0.0
 10
185.5248482274346
 20
14.95377438266625
 30
0.0
 10
185.5709169676673
 20
14.85357045748316
 30
0.0
 10
185.6655825294655
 20
14.78434006814944
 30
0.0
 10
185.6204439320412
 20
14.73771639678274
 30
0.0
 10
185.594704778579
 20
14.69660308866039
 30
0.0
 10
185.5645196708012
 20
14.66065971727938
 30
0.0
 10
185.5193684730562
 20
14.58579782596091
 30
0.0
 10
185.4710504458562
 20
14.80782524253603
 30
0.0
 10
185.3968539713072
 20
14.84510677337705
 30
0.0
 10
185.2836047324606
 20
15.11610202130596
 30
0.0
 10
185.2885133578168
 20
15.00095328446223
 30
0.0
 10
185.2868486556306
 20
14.92836675781622
 30
0.0
 10
185.2876830076713
 20
14.8062558848398
 30
0.0
 10
185.2873609540264
 20
14.65913800810455
 30
0.0
 10
185.2875076912455
 20
14.49307063956552
 30
0.0
 10
185.2872950092721
 20
14.32187554608598
 30
0.0
 10
185.2879497252033
 20
14.15552828635494
 30
0.0
 10
185.2859192461138
 20
14.0093517305569
 30
0.0
 10
185.291346039993
 20
13.88471047474607
 30
0.0
 10
185.2804930868707
 20
13.81718656540623
 30
0.0
 10
185.2956739155554
 20
13.7554906141702
 30
0.0
 10
185.2457895108133
 20
13.76727503896998
 30
0.0
 10
185.2017150342521
 20
13.75943822779966
 30
0.0
 10
185.1582371630201
 20
13.767604413727
 30
0.0
 10
185.1092346786488
 20
13.75538056738464
 30
0.0
 10
185.1218731234825
 20
13.8096066724931
 30
0.0
 10
185.1130182968449
 20
13.86936918907554
 30
0.0
 10
185.1175058770314
 20
13.97922029044367
 30
0.0
 10
185.1157960135991
 20
14.11029975405675
 30
0.0
 10
185.1163550915986
 20
14.26198011444323
 30
0.0
 10
185.1161928768694
 20
14.42211074929948
 30
0.0
 10
185.1162269924675
 20
14.58236865674561
 30
0.0
 10
185.1162514960127
 20
14.73370247520434
 30
0.0
 10
185.1161453543226
 20
14.86582156338595
 30
0.0
 10
185.116429914193
 20
14.97294802533186
 30
0.0
 10
185.1158675547568
 20
15.03808619579467
 30
0.0
 10
185.1180765083687
 20
15.16618957858666
 30
0.0
 10
185.0319435998603
 20
14.79097610391571
 30
0.0
 10
184.9555140818499
 20
14.63918193123392
 30
0.0
 10
184.8660040767833
 20
14.47766206446303
 30
0.0
 10
184.7640413217327
 20
14.20471848820169
 30
0.0
 10
184.7187976491039
 20
14.36717346596511
 30
0.0
 10
184.610235594167
 20
14.45605432058118
 30
0.0
 10
184.7995791751753
 20
14.6054979496141
 30
0.0
 10
184.85653405457
 20
14.79749136974926
 30
0.0
 10
184.9717520993352
 20
15.0289962290676
 30
0.0
 10
184.9940151630132
 20
15.21797259759067
 30
0.0
 10
185.177190515214
 20
15.49454089325936
 30
0.0
 10
185.0538033597552
 20
15.48698978832099
 30
0.0
 10
184.9925684166834
 20
15.48856772366124
 30
0.0
 10
184.9081999617064
 20
15.48882592573677
 30
0.0
 10
184.8204235085966
 20
15.4854484575121
 30
0.0
 10
184.7656768696122
 20
15.49394814982026
 30
0.0
 10
184.7104703026024
 20
15.48048561049792
 30
0.0
 10
184.7222823035536
 20
15.52931442126766
 30
0.0
 10
184.7142496151793
 20
15.57269004896708
 30
0.0
 10
184.7228186104679
 20
15.61509438309571
 30
0.0
 10
184.7102943409156
 20
15.66267796552113
 30
0.0
 10
184.7555101538736
 20
15.65267212995104
 30
0.0
 10
184.8014815562723
 20
15.65894105174056
 30
0.0
 10
184.877722204771
 20
15.65593561405867
 30
0.0
 10
184.9561296131993
 20
15.65770448278536
 30
0.0
 10
185.0323992648932
 20
15.65464793981655
 30
0.0
 10
185.0783009459474
 20
15.66103971376172
 30
0.0
 10
185.12317339654
 20
15.65093822978891
 30
0.0
 10
185.1105552275633
 20
15.70157201581894
 30
0.0
 10
185.1191936582707
 20
15.75501261882066
 30
0.0
 10
185.1152361595442
 20
15.84863255131678
 30
0.0
 10
185.1162325068335
 20
15.95112606688923
 30
0.0
 10
185.1171927413073
 20
16.05353270248163
 30
0.0
 10
185.1133211458005
 20
16.14735929609322
 30
0.0
 10
185.1217789814365
 20
16.20036542840355
 30
0.0
 10
185.1093075932835
 20
16.25211435651191
 30
0.0
 10
185.154210638985
 20
16.23850747226759
 30
0.0
 10
185.1955083836772
 20
16.24100480320586
 30
0.0
 10
185.2595344281051
 20
16.23648060574487
 30
0.0
 10
185.2986111148786
 20
16.22781003043308
 30
0.0
 10
185.3476543498742
 20
16.23515102070683
 30
0.0
 10
185.3225080030589
 20
16.19602896051753
 30
0.0
 10
185.2815901333722
 20
16.20563842455809
 30
0.0
 10
185.2910109616603
 20
16.15540148169776
 30
0.0
 10
185.2855647318745
 20
16.10385945639487
 30
0.0
 10
185.2881699601803
 20
16.01959707584517
 30
0.0
 10
185.2870102202153
 20
15.92559135583404
 30
0.0
 10
185.288359106423
 20
15.83196865395521
 30
0.0
 10
185.2849970101508
 20
15.74679517552219
 30
0.0
 10
185.2920959917768
 20
15.69716856072039
 30
0.0
 10
185.2812569154544
 20
15.64993694969983
 30
0.0
 10
185.3304010225245
 20
15.66201674936847
 30
0.0
 10
185.3794877630146
 20
15.65447393363006
 30
0.0
 10
185.4573714280641
 20
15.65686070361428
 30
0.0
 10
185.5350365172895
 20
15.65899381905409
 30
0.0
 10
185.5845393931355
 20
15.65193391922449
 30
0.0
 10
185.6344594750639
 20
15.66360151936209
 30
0.0
 10
185.622319851688
 20
15.6154023537139
 30
0.0
 10
185.6305838229143
 20
15.57249219801235
 30
0.0
 10
185.6223198650783
 20
15.52958201851387
 30
0.0
 10
185.6344594549854
 20
15.48138288754868
 30
0.0
 10
185.5845395158746
 20
15.49305034471516
 30
0.0
 10
185.5350350651202
 20
15.4859920243505
 30
0.0
 10
185.4573784382972
 20
15.48811665228609
 30
0.0
 10
185.3794643865759
 20
15.49053389365764
 30
0.0
 10
185.3304500352716
 20
15.4829184819449
 30
0.0
 10
185.2813246108942
 20
15.49507952557596
 30
0.0
 10
185.291555998857
 20
15.45073013424162
 30
0.0
 10
185.2856677678053
 20
15.40925436202914
 30
0.0
 10
185.2878788305568
 20
15.34915394315304
 30
0.0
 10
185.2874109346145
 20
15.30225782762888
 30
0.0
 10
185.2874386992912
 20
15.27650146418195
 30
0.0
 10
185.2874469028652
 20
15.26889163187718
 30
0.0
 11
185.2874469028652
 21
15.26889163187718
 31
0.0
 11
185.3516977534484
 21
15.18524999634255
 31
0.0
 11
185.4348258835498
 21
15.07118889748219
 31
0.0
 11
185.5216831568895
 21
14.94891767195721
 31
0.0
 11
185.5971214371872
 21
14.84064565642875
 31
0.0
 11
185.6459925881626
 21
14.76858218755791
 31
0.0
 11
185.6296821285093
 21
14.746417821244
 31
0.0
 11
185.5937991172719
 21
14.69765621535339
 31
0.0
 11
185.5579161060346
 21
14.64889460946278
 31
0.0
 11
185.5416056463813
 21
14.62673024314887
 31
0.0
 11
185.4763067109446
 21
14.74716139023811
 31
0.0
 11
185.3848434243234
 21
14.89966983670202
 31
0.0
 11
185.2874469028652
 21
15.05219788193136
 31
0.0
 11
185.2874469028652
 21
15.02216445328247
 31
0.0
 11
185.2874469028652
 21
14.93981472956777
 31
0.0
 11
185.2874469028652
 21
14.81677455413522
 31
0.0
 11
185.2874469028652
 21
14.66466977033278
 31
0.0
 11
185.2874469028652
 21
14.4951262215084
 31
0.0
 11
185.2874469028652
 21
14.31976975101005
 31
0.0
 11
185.2874469028652
 21
14.15022620218567
 31
0.0
 11
185.2874469028652
 21
13.99812141838323
 31
0.0
 11
185.2874469028652
 21
13.87508124295068
 31
0.0
 11
185.2874469028652
 21
13.79273151923598
 31
0.0
 11
185.2874469028652
 21
13.76269809058709
 31
0.0
 11
185.2606936700408
 21
13.76269809058709
 31
0.0
 11
185.2018365578271
 21
13.76269809058709
 31
0.0
 11
185.1429794456134
 21
13.76269809058709
 31
0.0
 11
185.116226212789
 21
13.76269809058709
 31
0.0
 11
185.116226212789
 21
13.78864805031247
 31
0.0
 11
185.116226212789
 21
13.86039205661204
 31
0.0
 11
185.116226212789
 21
13.96877130017098
 31
0.0
 11
185.116226212789
 21
14.10462697167443
 31
0.0
 11
185.116226212789
 21
14.25880026180756
 31
0.0
 11
185.116226212789
 21
14.42213236125554
 31
0.0
 11
185.116226212789
 21
14.58546446070351
 31
0.0
 11
185.116226212789
 21
14.73963775083664
 31
0.0
 11
185.116226212789
 21
14.87549342234009
 31
0.0
 11
185.116226212789
 21
14.98387266589902
 31
0.0
 11
185.116226212789
 21
15.0556166721986
 31
0.0
 11
185.116226212789
 21
15.08156663192398
 31
0.0
 11
185.0379865861721
 21
14.84965603302369
 31
0.0
 11
184.9497110789303
 21
14.63077616328675
 31
0.0
 11
184.8544106930045
 21
14.43598991333544
 31
0.0
 11
184.7550964303356
 21
14.276360173792
 31
0.0
 11
184.7109198342406
 21
14.358224461966
 31
0.0
 11
184.658805738348
 21
14.43414885430809
 31
0.0
 11
184.7627302590299
 21
14.59640087926757
 31
0.0
 11
184.8629319864735
 21
14.79551465421782
 31
0.0
 11
184.9550446607901
 21
15.01890447916199
 31
0.0
 11
185.0347020220912
 21
15.25398465410323
 31
0.0
 11
185.097537810488
 21
15.4881694790447
 31
0.0
 11
185.0693965972142
 21
15.4881694790447
 31
0.0
 11
184.9990435640297
 21
15.4881694790447
 31
0.0
 11
184.9075846208898
 21
15.4881694790447
 31
0.0
 11
184.8161256777499
 21
15.4881694790447
 31
0.0
 11
184.7457726445654
 21
15.4881694790447
 31
0.0
 11
184.7176314312916
 21
15.4881694790447
 31
0.0
 11
184.7176314312916
 21
15.51452032539226
 31
0.0
 11
184.7176314312916
 21
15.57249218735689
 31
0.0
 11
184.7176314312916
 21
15.63046404932151
 31
0.0
 11
184.7176314312916
 21
15.65681489566907
 31
0.0
 11
184.739711025602
 21
15.65681489566907
 31
0.0
 11
184.7966531372444
 21
15.65681489566907
 31
0.0
 11
184.8745127592862
 21
15.65681489566907
 31
0.0
 11
184.9593448847944
 21
15.65681489566907
 31
0.0
 11
185.0372045068361
 21
15.65681489566907
 31
0.0
 11
185.0941466184786
 21
15.65681489566907
 31
0.0
 11
185.116226212789
 21
15.65681489566907
 31
0.0
 11
185.116226212789
 21
15.68210596174348
 31
0.0
 11
185.116226212789
 21
15.74878240866693
 31
0.0
 11
185.116226212789
 21
15.84304910948974
 31
0.0
 11
185.116226212789
 21
15.95111093726223
 31
0.0
 11
185.116226212789
 21
16.05917276503472
 31
0.0
 11
185.116226212789
 21
16.15343946585753
 31
0.0
 11
185.116226212789
 21
16.22011591278098
 31
0.0
 11
185.116226212789
 21
16.24540697885539
 31
0.0
 11
185.1393181988665
 21
16.24373213107802
 31
0.0
 11
185.1943837041284
 21
16.23973826330122
 31
0.0
 11
185.2601070491184
 21
16.23497138885795
 31
0.0
 11
185.3151725543802
 21
16.23097752108115
 31
0.0
 11
185.3382645404578
 21
16.22930267330378
 31
0.0
 11
185.3249012644362
 21
16.2078967792119
 31
0.0
 11
185.2874469028652
 21
16.19450114553467
 31
0.0
 11
185.2874469028652
 21
16.17139743948576
 31
0.0
 11
185.2874469028652
 21
16.11048766899317
 31
0.0
 11
185.2874469028652
 21
16.02437385553813
 31
0.0
 11
185.2874469028652
 21
15.92565802060187
 31
0.0
 11
185.2874469028652
 21
15.82694218566561
 31
0.0
 11
185.2874469028652
 21
15.74082837221057
 31
0.0
 11
185.2874469028652
 21
15.67991860171798
 31
0.0
 11
185.2874469028652
 21
15.65681489566907
 31
0.0
 11
185.3126150604808
 21
15.65681489566907
 31
0.0
 11
185.3755354545198
 21
15.65681489566907
 31
0.0
 11
185.4573319667705
 21
15.65681489566907
 31
0.0
 11
185.5391284790212
 21
15.65681489566907
 31
0.0
 11
185.6020488730602
 21
15.65681489566907
 31
0.0
 11
185.6272170306758
 21
15.65681489566907
 31
0.0
 11
185.6272170306758
 21
15.63046404932151
 31
0.0
 11
185.6272170306758
 21
15.57249218735689
 31
0.0
 11
185.6272170306758
 21
15.51452032539226
 31
0.0
 11
185.6272170306758
 21
15.4881694790447
 31
0.0
 11
185.6020488730602
 21
15.4881694790447
 31
0.0
 11
185.5391284790212
 21
15.4881694790447
 31
0.0
 11
185.4573319667705
 21
15.4881694790447
 31
0.0
 11
185.3755354545198
 21
15.4881694790447
 31
0.0
 11
185.3126150604808
 21
15.4881694790447
 31
0.0
 11
185.2874469028652
 21
15.4881694790447
 31
0.0
 11
185.2874469028652
 21
15.46536458293928
 31
0.0
 11
185.2874469028652
 21
15.41098367684173
 31
0.0
 11
185.2874469028652
 21
15.34607743408015
 31
0.0
 11
185.2874469028652
 21
15.2916965279826
 31
0.0
 11
185.2874469028652
 21
15.26889163187718
 31
0.0
  0
SPLINE
  5
C3
102
{ACAD_REACTORS
330
E0
102
}
330
48
100
AcDbEntity
  8
_U_30EC_U_30A4_U_30E4_U_30FC_1
  6
Continuous
 62
     2
100
AcDbSpline
210
0.0
220
0.0
230
1.0
 70
    11
 71
     3
 72
    91
 73
    87
 74
    85
 42
0.000000001
 43
0.0000000001
 44
0.00000001
 40
0.0
 40
0.0
 40
0.0
 40
0.0
 40
0.0345987051695718
 40
0.1258134969461369
 40
0.2547723404888987
 40
0.4026032099154125
 40
0.5504340793416704
 40
0.679392922883608
 40
0.7706077146571035
 40
0.8052064287780925
 40
1.124852390615261
 40
1.427402236308838
 40
1.706356627453456
 40
1.955541417875124
 40
2.169485938566245
 40
2.344350786664677
 40
2.480568411561842
 40
2.590440557428863
 40
2.649189927151033
 40
2.749320643306197
 40
2.912632739879846
 40
3.147745656000014
 40
3.244827496384929
 40
3.338490056946535
 40
3.583815413206958
 40
3.76142394323831
 40
3.886956104362463
 40
3.985855451886661
 40
4.091766255337573
 40
4.250186473811739
 40
4.422734315084358
 40
4.628285684838448
 40
4.872093227758259
 40
5.152549652145367
 40
5.464967135837346
 40
5.803201477852254
 40
6.160362988813725
 40
6.19344944827578
 40
6.284170385501463
 40
6.419718138764276
 40
6.587285046385555
 40
6.774063446723497
 40
6.967245678113452
 40
7.154024078817466
 40
7.321590987025823
 40
7.457138740890153
 40
7.547859678555918
 40
7.580946138182478
 40
7.608533084714532
 40
7.669224367077515
 40
7.72991564942974
 40
7.757502595949793
 40
7.790278062553247
 40
7.880146277430773
 40
8.014419963180208
 40
8.180411842397737
 40
8.365434637679206
 40
8.556801071622536
 40
8.741823866830648
 40
8.907815745916215
 40
9.04208943150737
 40
9.131957646249495
 40
9.164733112797071
 40
9.415425063139976
 40
9.66798618095844
 40
9.69416980746255
 40
9.75660768604751
 40
9.831130315322373
 40
9.893568193899808
 40
9.919751820398625
 40
9.95096796469045
 40
9.996421631210588
 40
10.22087981037458
 40
10.44341866197542
 40
10.47847970788855
 40
10.57091337438755
 40
10.7015954546123
 40
10.85140174170361
 40
11.00120802880478
 40
11.13189010907383
 40
11.22432377583011
 40
11.25938480938957
 40
11.28697175596146
 40
11.3476630383592
 40
11.40835432042071
 40
11.43594125892106
 40
11.43594125892106
 40
11.43594125892106
 40
11.43594125892106
 10
190.0818114333289
 20
15.55242795125076
 30
0.0
 10
190.0702785844941
 20
15.55242790287914
 30
0.0
 10
190.0283409444998
 20
15.55242773704163
 30
0.0
 10
189.9434129719026
 20
15.55243125800908
 30
0.0
 10
189.8207688553128
 20
15.55240926435877
 30
0.0
 10
189.6791206916993
 20
15.55250801177053
 30
0.0
 10
189.537975369849
 20
15.5521468623242
 30
0.0
 10
189.4141351317905
 20
15.55321883609088
 30
0.0
 10
189.3317217825381
 20
15.55092249091267
 30
0.0
 10
189.1727791229693
 20
15.56048569373419
 30
0.0
 10
189.3503402353375
 20
15.19785394311371
 30
0.0
 10
189.3379739205452
 20
14.95243127723116
 30
0.0
 10
189.4064519473864
 20
14.66862501324838
 30
0.0
 10
189.4693024320969
 20
14.43250999939042
 30
0.0
 10
189.5452253431727
 20
14.23326740396137
 30
0.0
 10
189.6303189577015
 20
14.0774534745138
 30
0.0
 10
189.7244607592934
 20
13.97657857781401
 30
0.0
 10
189.8282648207726
 20
13.92465852638975
 30
0.0
 10
189.9125872030773
 20
13.97606484379622
 30
0.0
 10
189.9351322179451
 20
14.0914454403752
 30
0.0
 10
189.974573097537
 20
14.21885149702382
 30
0.0
 10
189.9202919734941
 20
14.53622328086746
 30
0.0
 10
190.0451218072473
 20
14.38982180140905
 30
0.0
 10
190.2019291513603
 20
14.35795300331175
 30
0.0
 10
190.0947720007057
 20
14.12421357767629
 30
0.0
 10
190.0808711209867
 20
13.9597277658366
 30
0.0
 10
190.0234709467225
 20
13.83130869122484
 30
0.0
 10
189.9335020145008
 20
13.76018802352832
 30
0.0
 10
189.8095274657877
 20
13.74432324142259
 30
0.0
 10
189.6634273196859
 20
13.77993797554176
 30
0.0
 10
189.5243894320283
 20
13.90000570500283
 30
0.0
 10
189.4102003962143
 20
14.07435682550323
 30
0.0
 10
189.3146141301486
 20
14.29946603111244
 30
0.0
 10
189.2318652572626
 20
14.56388246006444
 30
0.0
 10
189.1807179256411
 20
14.88187933098544
 30
0.0
 10
189.0770189207337
 20
15.15543728488912
 30
0.0
 10
189.2042841208519
 20
15.56005818612866
 30
0.0
 10
189.0357890623017
 20
15.55112367849677
 30
0.0
 10
188.9511995787076
 20
15.55315961418362
 30
0.0
 10
188.8189876387626
 20
15.55213937388405
 30
0.0
 10
188.6560505094102
 20
15.55253230318428
 30
0.0
 10
188.4733759170531
 20
15.55235696313368
 30
0.0
 10
188.2847057373381
 20
15.55260105307467
 30
0.0
 10
188.1014469020188
 20
15.55185657906235
 30
0.0
 10
187.9404746832717
 20
15.55416360522425
 30
0.0
 10
187.8029808335274
 20
15.54799804883661
 30
0.0
 10
187.728959037231
 20
15.5603283845821
 30
0.0
 10
187.6613215186856
 20
15.54329323723555
 30
0.0
 10
187.6732373719269
 20
15.59524438447527
 30
0.0
 10
187.6655677285693
 20
15.64071424966528
 30
0.0
 10
187.6732592225114
 20
15.68614453703705
 30
0.0
 10
187.661314179776
 20
15.7380239598457
 30
0.0
 10
187.7283588305866
 20
15.72119143490264
 30
0.0
 10
187.8017375665674
 20
15.7333540909267
 30
0.0
 10
187.9379128305272
 20
15.72727231074959
 30
0.0
 10
188.097381180151
 20
15.72954834315057
 30
0.0
 10
188.2789173085836
 20
15.72881233998962
 30
0.0
 10
188.4658034862178
 20
15.72905954196134
 30
0.0
 10
188.6468012316835
 20
15.72886400799253
 30
0.0
 10
188.8080802578878
 20
15.72932234714839
 30
0.0
 10
188.9393882124886
 20
15.72812673751205
 30
0.0
 10
189.0225051322597
 20
15.73051347319742
 30
0.0
 10
189.1556236547813
 20
15.72230605725464
 30
0.0
 10
189.0645893502659
 20
15.97752868952653
 30
0.0
 10
188.9789633074418
 20
16.24164358328243
 30
0.0
 10
189.0990589003454
 20
16.22904442969164
 30
0.0
 10
189.1514264948543
 20
16.22694235763074
 30
0.0
 10
189.2214497569715
 20
16.22535399889657
 30
0.0
 10
189.2671922337816
 20
16.21602567538112
 30
0.0
 10
189.3220812646932
 20
16.22545966915428
 30
0.0
 10
189.296357478568
 20
16.17733028655166
 30
0.0
 10
189.182539757145
 20
16.18266829744198
 30
0.0
 10
189.3159346621136
 20
15.95449174576769
 30
0.0
 10
189.1943658735471
 20
15.72156856595923
 30
0.0
 10
189.3223188769413
 20
15.73087258884439
 30
0.0
 10
189.4049048406461
 20
15.7280100175468
 30
0.0
 10
189.5307214850824
 20
15.72923437412302
 30
0.0
 10
189.6741469838057
 20
15.72932431888965
 30
0.0
 10
189.8157420951728
 20
15.72746163183853
 30
0.0
 10
189.9459127249967
 20
15.73333075937163
 30
0.0
 10
190.0193452286191
 20
15.72070340823203
 30
0.0
 10
190.0891112922096
 20
15.73877563110412
 30
0.0
 10
190.0775772605396
 20
15.68612850546326
 30
0.0
 10
190.0833184346682
 20
15.64221317686546
 30
0.0
 10
190.0816615770911
 20
15.59089982676548
 30
0.0
 10
190.081775756167
 20
15.56158792021633
 30
0.0
 10
190.0818114333289
 20
15.55242795125076
 30
0.0
 11
190.0818114333289
 21
15.55242795125076
 31
0.0
 11
190.0472127192051
 21
15.55242795125076
 31
0.0
 11
189.9559979274241
 21
15.55242795125076
 31
0.0
 11
189.8270390838717
 21
15.55242795125076
 31
0.0
 11
189.6792082144335
 21
15.55242795125076
 31
0.0
 11
189.5313773449954
 21
15.55242795125076
 31
0.0
 11
189.402418501443
 21
15.55242795125076
 31
0.0
 11
189.311203709662
 21
15.55242795125076
 31
0.0
 11
189.2766049955382
 21
15.55242795125076
 31
0.0
 11
189.3083140497693
 21
15.23435864930121
 31
0.0
 11
189.3527866656865
 21
14.93509522788083
 31
0.0
 11
189.4092389118319
 21
14.6619126951258
 31
0.0
 11
189.4768868567477
 21
14.42208605917233
 31
0.0
 11
189.554946568976
 21
14.22289032815661
 31
0.0
 11
189.642634117059
 21
14.07160051021485
 31
0.0
 11
189.7391655695388
 21
13.97549161348325
 31
0.0
 11
189.8437569949574
 21
13.94183864609801
 31
0.0
 11
189.8943077302785
 21
13.97177376978842
 31
0.0
 11
189.9310588991551
 21
14.0649161981505
 31
0.0
 11
189.9562640977526
 21
14.22627151712053
 31
0.0
 11
189.9721769222367
 21
14.46084531263477
 31
0.0
 11
190.0494082682583
 21
14.40202182306617
 31
0.0
 11
190.1327184184385
 21
14.35921885432691
 31
0.0
 11
190.1066365811217
 21
14.11528388661011
 31
0.0
 11
190.0673317805105
 21
13.94207902887564
 31
0.0
 11
190.0105702596765
 21
13.83011272445921
 31
0.0
 11
189.932118261691
 21
13.7698934166965
 31
0.0
 11
189.8277420296255
 21
13.75192954892322
 31
0.0
 11
189.6738595065096
 21
13.78957440012366
 31
0.0
 11
189.5388902376747
 21
13.89707348877407
 31
0.0
 11
189.4221739916162
 21
14.06627361744813
 31
0.0
 11
189.32305053683
 21
14.28902158871946
 31
0.0
 11
189.2408596418113
 21
14.55716420516174
 31
0.0
 11
189.1749410750558
 21
14.86254826934861
 31
0.0
 11
189.1246346050592
 21
15.19702058385373
 31
0.0
 11
189.089280000317
 21
15.55242795125076
 31
0.0
 11
189.0561935405842
 21
15.55242795125076
 31
0.0
 11
188.9654726026073
 21
15.55242795125076
 31
0.0
 11
188.8299248482184
 21
15.55242795125076
 31
0.0
 11
188.6623579392493
 21
15.55242795125076
 31
0.0
 11
188.4755795375322
 21
15.55242795125076
 31
0.0
 11
188.2823973048991
 21
15.55242795125076
 31
0.0
 11
188.095618903182
 21
15.55242795125076
 31
0.0
 11
187.928051994213
 21
15.55242795125076
 31
0.0
 11
187.792504239824
 21
15.55242795125076
 31
0.0
 11
187.7017833018471
 21
15.55242795125076
 31
0.0
 11
187.6686968421144
 21
15.55242795125076
 31
0.0
 11
187.6686968421144
 21
15.58001489785845
 31
0.0
 11
187.6686968421144
 21
15.64070618039537
 31
0.0
 11
187.6686968421144
 21
15.70139746293229
 31
0.0
 11
187.6686968421144
 21
15.72898440953998
 31
0.0
 11
187.701472308763
 21
15.72898440953998
 31
0.0
 11
187.7913405237672
 21
15.72898440953998
 31
0.0
 11
187.9256142097147
 21
15.72898440953998
 31
0.0
 11
188.0916060891931
 21
15.72898440953998
 31
0.0
 11
188.27662888479
 21
15.72898440953998
 31
0.0
 11
188.4679953190931
 21
15.72898440953998
 31
0.0
 11
188.6530181146901
 21
15.72898440953998
 31
0.0
 11
188.8190099941685
 21
15.72898440953998
 31
0.0
 11
188.953283680116
 21
15.72898440953998
 31
0.0
 11
189.0431518951202
 21
15.72898440953998
 31
0.0
 11
189.0759273617688
 21
15.72898440953998
 31
0.0
 11
189.0659183950103
 21
15.97947647544957
 31
0.0
 11
189.0599112510662
 21
16.23196614552529
 31
0.0
 11
189.0860575870658
 21
16.2305692160812
 31
0.0
 11
189.1484065421418
 21
16.22723807663759
 31
0.0
 11
189.2228230369099
 21
16.22326220052749
 31
0.0
 11
189.2851719919858
 21
16.21993106108388
 31
0.0
 11
189.3113183279854
 21
16.21853413163979
 31
0.0
 11
189.2982931113039
 21
16.19016528616078
 31
0.0
 11
189.2551649266404
 21
16.17581274276171
 31
0.0
 11
189.2574991961821
 21
15.95136670115104
 31
0.0
 11
189.2658452735903
 21
15.72898440953998
 31
0.0
 11
189.3009063195165
 21
15.72898440953998
 31
0.0
 11
189.3933399860495
 21
15.72898440953998
 31
0.0
 11
189.5240220663201
 21
15.72898440953998
 31
0.0
 11
189.6738283534596
 21
15.72898440953998
 31
0.0
 11
189.8236346405991
 21
15.72898440953998
 31
0.0
 11
189.9543167208697
 21
15.72898440953998
 31
0.0
 11
190.0467503874027
 21
15.72898440953998
 31
0.0
 11
190.0818114333289
 21
15.72898440953998
 31
0.0
 11
190.0818114333289
 21
15.70139746293229
 31
0.0
 11
190.0818114333289
 21
15.64070618039537
 31
0.0
 11
190.0818114333289
 21
15.58001489785845
 31
0.0
 11
190.0818114333289
 21
15.55242795125076
 31
0.0
  0
SPLINE
  5
C4
102
{ACAD_REACTORS
330
E1
102
}
330
48
100
AcDbEntity
  8
_U_30EC_U_30A4_U_30E4_U_30FC_1
  6
Continuous
 62
     2
100
AcDbSpline
210
0.0
220
0.0
230
1.0
 70
    11
 71
     3
 72
    75
 73
    71
 74
    69
 42
0.000000001
 43
0.0000000001
 44
0.00000001
 40
0.0
 40
0.0
 40
0.0
 40
0.0
 40
0.0342546099129709
 40
0.1245622414432364
 40
0.2522385480897518
 40
0.398599192294068
 40
0.5449598364980839
 40
0.6726361431438834
 40
0.7629437746736942
 40
0.7971983935297973
 40
1.101723623449648
 40
1.408591244036643
 40
1.433332471690346
 40
1.487763172450132
 40
1.54219387308195
 40
1.566935100592495
 40
1.923523931821807
 40
2.271755704953662
 40
2.59057975510085
 40
2.858943305581115
 40
2.889120339309049
 40
2.918305855191004
 40
2.941366645531123
 40
2.996357760973006
 40
3.061992318140541
 40
3.11698343362673
 40
3.140044223997404
 40
3.411273122936318
 40
3.732441619740988
 40
3.761068217532689
 40
3.837787499630258
 40
3.948858699125906
 40
4.080541049104298
 40
4.219093782625691
 40
4.350776132722254
 40
4.4618473324056
 40
4.538566614678341
 40
4.56719321254459
 40
4.594907573998848
 40
4.666381453557415
 40
4.764111044011054
 40
4.870592538125857
 40
4.968322128642336
 40
5.03979600828705
 40
5.067510369784509
 40
5.094263603185706
 40
5.153120716668303
 40
5.211977830150714
 40
5.2387310635517
 40
5.272290535138939
 40
5.363380529444772
 40
5.497618415781449
 40
5.66062156345372
 40
5.838007341749421
 40
6.015393119910744
 40
6.178396267038369
 40
6.312634151842349
 40
6.403724143059339
 40
6.437283612672434
 40
6.464036846261035
 40
6.522893960004613
 40
6.58175107148384
 40
6.608504301590768
 40
6.637253941280916
 40
6.711397748902767
 40
6.812778057283323
 40
6.923237199249042
 40
7.024617507623686
 40
7.098761315207339
 40
7.127510946007289
 40
7.127510946007289
 40
7.127510946007289
 40
7.127510946007289
 10
188.4418622390564
 20
14.9584912847327
 30
0.0
 10
188.4418622819707
 20
14.94707313408726
 30
0.0
 10
188.4418624481128
 20
14.90555257842634
 30
0.0
 10
188.4418593081787
 20
14.82146922003778
 30
0.0
 10
188.44187882798
 20
14.70004497322334
 30
0.0
 10
188.4417912187737
 20
14.55980494047454
 30
0.0
 10
188.442111623523
 20
14.42006556794582
 30
0.0
 10
188.4411605909742
 20
14.29745038894935
 30
0.0
 10
188.4431978595967
 20
14.21587074438049
 30
0.0
 10
188.4349433178746
 20
14.06271267077704
 30
0.0
 10
188.7430797940901
 20
14.22560236054719
 30
0.0
 10
189.0350645173737
 20
14.39482938688
 30
0.0
 10
189.0408354448707
 20
14.25973235781907
 30
0.0
 10
189.0455471719891
 20
14.21617221160442
 30
0.0
 10
189.0482535411917
 20
14.17211249350543
 30
0.0
 10
189.0672545672962
 20
14.02272590363133
 30
0.0
 10
188.65839422473
 20
14.08681172241259
 30
0.0
 10
188.3793710348833
 20
13.97296341411016
 30
0.0
 10
188.1018081587164
 20
13.87364095811144
 30
0.0
 10
187.8099837184403
 20
13.91630687596344
 30
0.0
 10
187.7869144678657
 20
13.81321679744543
 30
0.0
 10
187.7537474383333
 20
13.78691091244472
 30
0.0
 10
187.7480653962739
 20
13.83455309036306
 30
0.0
 10
187.7284214559044
 20
13.87180336115071
 30
0.0
 10
187.7095089485622
 20
13.93007387847564
 30
0.0
 10
187.6942849867707
 20
13.97385201007804
 30
0.0
 10
187.6477246372935
 20
14.0875942104631
 30
0.0
 10
187.989089731245
 20
14.0557630112004
 30
0.0
 10
188.2679649367387
 20
14.02161435106477
 30
0.0
 10
188.2617753034906
 20
14.1691397647965
 30
0.0
 10
188.2630935452773
 20
14.24013150908831
 30
0.0
 10
188.2624831689949
 20
14.34719767958662
 30
0.0
 10
188.2625871570725
 20
14.47398529785999
 30
0.0
 10
188.2629987964055
 20
14.60849243496052
 30
0.0
 10
188.2613907841968
 20
14.73395549951188
 30
0.0
 10
188.2659902567925
 20
14.84505246719122
 30
0.0
 10
188.256418650221
 20
14.90761886800694
 30
0.0
 10
188.2704001783691
 20
14.96595388295007
 30
0.0
 10
188.2147384386705
 20
14.95289710582244
 30
0.0
 10
188.157565519782
 20
14.96136307749504
 30
0.0
 10
188.0616048925648
 20
14.95729976080643
 30
0.0
 10
187.963376752282
 20
14.9597088985248
 30
0.0
 10
187.8672582457559
 20
14.95551600613393
 30
0.0
 10
187.810464852581
 20
14.96429346441169
 30
0.0
 10
187.7550356873383
 20
14.95094936850127
 30
0.0
 10
187.7670679427916
 20
15.0003691095926
 30
0.0
 10
187.7592003173937
 20
15.04393988030396
 30
0.0
 10
187.7666295563828
 20
15.08830469118522
 30
0.0
 10
187.7551930564142
 20
15.13902297763986
 30
0.0
 10
187.8232102370132
 20
15.12162460757738
 30
0.0
 10
187.8968496879745
 20
15.13417450237184
 30
0.0
 10
188.0325064058209
 20
15.12799677011092
 30
0.0
 10
188.1884909024524
 20
15.13029203093079
 30
0.0
 10
188.3615926358142
 20
15.12940968262525
 30
0.0
 10
188.534694296418
 20
15.13029207142403
 30
0.0
 10
188.6906789811215
 20
15.12799662955545
 30
0.0
 10
188.8263351889796
 20
15.13417486262427
 30
0.0
 10
188.8999756705651
 20
15.1216239421833
 30
0.0
 10
188.9679914174723
 20
15.13902373012137
 30
0.0
 10
188.9565590885921
 20
15.08830130414553
 30
0.0
 10
188.9639539458296
 20
15.04397060811108
 30
0.0
 10
188.9562039912269
 20
15.00028307550199
 30
0.0
 10
188.9681203741876
 20
14.95063590098483
 30
0.0
 10
188.9108170223615
 20
14.96461411338431
 30
0.0
 10
188.8520145789772
 20
14.9553975567326
 30
0.0
 10
188.7525293633199
 20
14.95952268164936
 30
0.0
 10
188.6494280098349
 20
14.95822760025893
 30
0.0
 10
188.5537846354573
 20
14.95854077077647
 30
0.0
 10
188.4857467971616
 20
14.95848776697151
 30
0.0
 10
188.4514462213443
 20
14.95849051871662
 30
0.0
 10
188.4418622390564
 20
14.9584912847327
 30
0.0
 11
188.4418622390564
 21
14.9584912847327
 31
0.0
 11
188.4418622390564
 21
14.9242366658719
 31
0.0
 11
188.4418622390564
 21
14.83392903432981
 31
0.0
 11
188.4418622390564
 21
14.70625272766685
 31
0.0
 11
188.4418622390564
 21
14.55989208344345
 31
0.0
 11
188.4418622390564
 21
14.41353143922006
 31
0.0
 11
188.4418622390564
 21
14.2858551325571
 31
0.0
 11
188.4418622390564
 21
14.195547501015
 31
0.0
 11
188.4418622390564
 21
14.16129288215421
 31
0.0
 11
188.7391932644567
 21
14.22709475713768
 31
0.0
 11
189.0384623627245
 21
14.29496038212068
 31
0.0
 11
189.0405487124976
 21
14.27030727882824
 31
0.0
 11
189.0451386819987
 21
14.21607045158487
 31
0.0
 11
189.0497286514996
 21
14.1618336243415
 31
0.0
 11
189.0518150012728
 21
14.13718052104906
 31
0.0
 11
188.705639688924
 21
14.05163370140896
 31
0.0
 11
188.3669653138837
 21
13.970608776299
 31
0.0
 11
188.0563731516688
 21
13.89862764024927
 31
0.0
 11
187.7944444777955
 21
13.84021218778986
 31
0.0
 11
187.7817515029292
 21
13.81283442738017
 31
0.0
 11
187.7569794787513
 21
13.79740260446738
 31
0.0
 11
187.7491867589501
 21
13.81910683390639
 31
0.0
 11
187.7306041194242
 21
13.87086307333787
 31
0.0
 11
187.70842483999
 21
13.93263664943352
 31
0.0
 11
187.689842200464
 21
13.984392888865
 31
0.0
 11
187.6820494806628
 21
14.00609711830401
 31
0.0
 11
187.9482776335931
 21
14.05794001759661
 31
0.0
 11
188.2626334936289
 21
14.12373968771908
 31
0.0
 11
188.2626334936289
 21
14.15236628569623
 31
0.0
 11
188.2626334936289
 21
14.22908556827498
 31
0.0
 11
188.2626334936289
 21
14.34015676842631
 31
0.0
 11
188.2626334936289
 21
14.47183911912119
 31
0.0
 11
188.2626334936289
 21
14.61039185333058
 31
0.0
 11
188.2626334936289
 21
14.74207420402546
 31
0.0
 11
188.2626334936289
 21
14.8531454041768
 31
0.0
 11
188.2626334936289
 21
14.92986468675555
 31
0.0
 11
188.2626334936289
 21
14.9584912847327
 31
0.0
 11
188.2349191321108
 21
14.9584912847327
 31
0.0
 11
188.1634452524063
 21
14.9584912847327
 31
0.0
 11
188.06571566179
 21
14.9584912847327
 31
0.0
 11
187.9592341675364
 21
14.9584912847327
 31
0.0
 11
187.86150457692
 21
14.9584912847327
 31
0.0
 11
187.7900306972155
 21
14.9584912847327
 31
0.0
 11
187.7623163356974
 21
14.9584912847327
 31
0.0
 11
187.7623163356974
 21
14.98524451823293
 31
0.0
 11
187.7623163356974
 21
15.04410163193344
 31
0.0
 11
187.7623163356974
 21
15.10295874563396
 31
0.0
 11
187.7623163356974
 21
15.12971197913419
 31
0.0
 11
187.7958758072873
 21
15.12971197913419
 31
0.0
 11
187.8869658016029
 21
15.12971197913419
 31
0.0
 11
188.0212036879628
 21
15.12971197913419
 31
0.0
 11
188.1842068356855
 21
15.12971197913419
 31
0.0
 11
188.3615926140895
 21
15.12971197913419
 31
0.0
 11
188.5389783924936
 21
15.12971197913419
 31
0.0
 11
188.7019815402163
 21
15.12971197913419
 31
0.0
 11
188.8362194265762
 21
15.12971197913419
 31
0.0
 11
188.9273094208917
 21
15.12971197913419
 31
0.0
 11
188.9608688924817
 21
15.12971197913419
 31
0.0
 11
188.9608688924817
 21
15.10295874563396
 31
0.0
 11
188.9608688924817
 21
15.04410163193344
 31
0.0
 11
188.9608688924817
 21
14.98524451823293
 31
0.0
 11
188.9608688924817
 21
14.9584912847327
 31
0.0
 11
188.9321192527876
 21
14.9584912847327
 31
0.0
 11
188.8579754451554
 21
14.9584912847327
 31
0.0
 11
188.7565951367604
 21
14.9584912847327
 31
0.0
 11
188.6461359947778
 21
14.9584912847327
 31
0.0
 11
188.5447556863827
 21
14.9584912847327
 31
0.0
 11
188.4706118787505
 21
14.9584912847327
 31
0.0
 11
188.4418622390564
 21
14.9584912847327
 31
0.0
  0
SPLINE
  5
C5
102
{ACAD_REACTORS
330
E2
102
}
330
48
100
AcDbEntity
  8
_U_30EC_U_30A4_U_30E4_U_30FC_1
  6
Continuous
 62
     2
100
AcDbSpline
210
0.0
220
0.0
230
1.0
 70
    11
 71
     3
 72
    15
 73
    11
 74
     9
 42
0.000000001
 43
0.0000000001
 44
0.00000001
 40
0.0
 40
0.0
 40
0.0
 40
0.0
 40
0.2785535985096405
 40
0.5215624748198213
 40
0.6076917376039568
 40
0.6938210001740229
 40
0.9405019146453777
 40
1.221691403489032
 40
1.300471877080977
 40
1.379252341684793
 40
1.379252341684793
 40
1.379252341684793
 40
1.379252341684793
 10
189.5681493630999
 20
16.22930267330378
 30
0.0
 10
189.6296017794178
 20
16.17691646592715
 30
0.0
 10
189.7446649974114
 20
16.07882876798227
 30
0.0
 10
190.0397348497242
 20
15.92889785897217
 30
0.0
 10
189.9025147631856
 20
15.84343227515009
 30
0.0
 10
189.8041227843777
 20
15.71085785201553
 30
0.0
 10
189.713003359065
 20
16.01616985781424
 30
0.0
 10
189.3636839480653
 20
16.07967869465369
 30
0.0
 10
189.511925837657
 20
16.17896509880876
 30
0.0
 10
189.5494081874236
 20
16.21252348402379
 30
0.0
 10
189.5681493630999
 20
16.22930267330378
 30
0.0
 11
189.5681493630999
 21
16.22930267330378
 31
0.0
 11
189.7919222440596
 21
16.06341774278972
 31
0.0
 11
189.9695046306382
 21
15.89753281227559
 31
0.0
 11
189.9066308127978
 21
15.83866743034588
 31
0.0
 11
189.8437569949574
 21
15.77980204841617
 31
0.0
 11
189.6688535117725
 21
15.9537567705949
 31
0.0
 11
189.4478256856139
 21
16.12757920110698
 31
0.0
 11
189.5079875243569
 21
16.17844093720538
 31
0.0
 11
189.5681493630999
 21
16.22930267330378
 31
0.0
  0
SPLINE
  5
C6
102
{ACAD_REACTORS
330
E3
102
}
330
48
100
AcDbEntity
  8
_U_30EC_U_30A4_U_30E4_U_30FC_1
  6
Continuous
 62
     2
100
AcDbSpline
210
0.0
220
0.0
230
1.0
 70
    11
 71
     3
 72
    35
 73
    31
 74
    29
 42
0.000000001
 43
0.0000000001
 44
0.00000001
 40
0.0
 40
0.0
 40
0.0
 40
0.0
 40
0.0335231036620286
 40
0.0713218571711718
 40
0.4278866681486508
 40
0.8116865841963402
 40
1.198190238000001
 40
1.561379546812645
 40
1.659983174622031
 40
1.759315573807242
 40
2.13271961723112
 40
2.525233363588855
 40
2.910815397779703
 40
3.265244364303283
 40
3.59260672358201
 40
3.964386154603961
 40
4.359942131737786
 40
4.75815411863928
 40
4.843846538699873
 40
4.936650065543255
 40
5.256616602537363
 40
5.581707404416109
 40
5.899719158308228
 40
6.19836349428081
 40
6.466301046615861
 40
6.493895311537211
 40
6.559697020197005
 40
6.63823454344261
 40
6.704036252154392
 40
6.731630508423199
 40
6.731630508423199
 40
6.731630508423199
 40
6.731630508423199
 10
191.9736010568669
 20
16.23463843719128
 30
0.0
 10
191.9676006097789
 20
16.22480690542319
 30
0.0
 10
191.9548344099157
 20
16.20388988579797
 30
0.0
 10
191.7949362006553
 20
16.17127126532682
 30
0.0
 10
192.2322025842337
 20
15.88206680336705
 30
0.0
 10
192.4345394828262
 20
15.6804113835844
 30
0.0
 10
192.6819564267973
 20
15.43749387603279
 30
0.0
 10
193.1831513624606
 20
15.36047662757777
 30
0.0
 10
193.012556219897
 20
15.2187693917465
 30
0.0
 10
192.9383299463198
 20
15.01710366209108
 30
0.0
 10
192.6131432248187
 20
15.36956287174722
 30
0.0
 10
192.3277741670663
 20
15.53175212559562
 30
0.0
 10
192.0337604077658
 20
15.73687130053048
 30
0.0
 10
191.8084452691134
 20
16.21827488595456
 30
0.0
 10
191.5993085055521
 20
15.75343046609225
 30
0.0
 10
191.3207873674834
 20
15.54350952252915
 30
0.0
 10
191.0371383177209
 20
15.37424456359985
 30
0.0
 10
190.7078639527832
 20
15.00142360907945
 30
0.0
 10
190.6277012318224
 20
15.19708014459005
 30
0.0
 10
190.4759724909742
 20
15.32491104190593
 30
0.0
 10
190.9083395826794
 20
15.40454031765933
 30
0.0
 10
191.0962565329765
 20
15.60026634915468
 30
0.0
 10
191.3468477420503
 20
15.81632996916749
 30
0.0
 10
191.571435047016
 20
15.98190992300057
 30
0.0
 10
191.6259775409712
 20
16.26133964636831
 30
0.0
 10
191.7494661029011
 20
16.2473795040808
 30
0.0
 10
191.8060273344519
 20
16.24521268867646
 30
0.0
 10
191.8761870984944
 20
16.24046859881357
 30
0.0
 10
191.9333414022105
 20
16.23709429350536
 30
0.0
 10
191.9644190320839
 20
16.23519854711114
 30
0.0
 10
191.9736010568669
 20
16.23463843719128
 30
0.0
 11
191.9736010568669
 21
16.23463843719128
 31
0.0
 11
191.9525319069884
 21
16.20856374969784
 31
0.0
 11
191.9174464559425
 21
16.19450114553467
 31
0.0
 11
192.1512374769094
 21
15.92527961131383
 31
0.0
 11
192.4414585957566
 21
15.67413407969262
 31
0.0
 11
192.7612797483684
 21
15.45710987618786
 31
0.0
 11
193.0838708706289
 21
15.29025232631636
 31
0.0
 11
193.0213299868076
 21
15.21402035584925
 31
0.0
 11
192.9688035818974
 21
15.12971197913419
 31
0.0
 11
192.6436279095813
 21
15.31326404831578
 31
0.0
 11
192.3237227768435
 21
15.54070139743428
 31
0.0
 11
192.0354200158608
 21
15.7967385512331
 31
0.0
 11
191.8050514588095
 21
16.06609003445567
 31
0.0
 11
191.5995531719516
 21
15.81126348721039
 31
0.0
 11
191.3288301341535
 21
15.55645182277758
 31
0.0
 11
191.0119538423246
 21
15.31969466354857
 31
0.0
 11
190.6679957933741
 21
15.11903163191471
 31
0.0
 11
190.6218855341338
 21
15.19126067703554
 31
0.0
 11
190.5636970460347
 21
15.26355586798968
 31
0.0
 11
190.8433040489014
 21
15.41911456961742
 31
0.0
 11
191.1093004621154
 21
15.606010097904
 31
0.0
 11
191.3499997459746
 21
15.81384496285204
 31
0.0
 11
191.5537153607773
 21
16.03222167446414
 31
0.0
 11
191.7087607668217
 21
16.25074274274289
 31
0.0
 11
191.7363041569864
 21
16.24906789496552
 31
0.0
 11
191.8019845489176
 21
16.24507402718872
 31
0.0
 11
191.880377274771
 21
16.24030715274545
 31
0.0
 11
191.9460576667022
 21
16.23631328496865
 31
0.0
 11
191.9736010568669
 21
16.23463843719128
 31
0.0
  0
SPLINE
  5
C7
102
{ACAD_REACTORS
330
E4
102
}
330
48
100
AcDbEntity
  8
_U_30EC_U_30A4_U_30E4_U_30FC_1
  6
Continuous
 62
     2
100
AcDbSpline
210
0.0
220
0.0
230
1.0
 70
    11
 71
     3
 72
    91
 73
    87
 74
    85
 42
0.000000001
 43
0.0000000001
 44
0.00000001
 40
0.0
 40
0.0
 40
0.0
 40
0.0
 40
0.0267532254356844
 40
0.0856103386464493
 40
0.1444674521997313
 40
0.1712206856619314
 40
0.2039416005643336
 40
0.2955601971653283
 40
0.4362601844617717
 40
0.6162252844508049
 40
0.8256392189705497
 40
1.054685709844491
 40
1.293548478893611
 40
1.532411247938383
 40
1.761457738799648
 40
1.970871673298616
 40
2.150836773256812
 40
2.291536760495673
 40
2.38315535683678
 40
2.4158762841014
 40
2.442629517488055
 40
2.501486630949215
 40
2.560343744424389
 40
2.587096977826675
 40
2.617068194441102
 40
2.699247336756243
 40
2.822032643466556
 40
2.973822353258085
 40
3.143014704823528
 40
3.318007936880107
 40
3.48720028818694
 40
3.63898999754842
 40
3.761775303794919
 40
3.843954445753254
 40
3.87392566222995
 40
3.890812773500663
 40
3.907699884771846
 40
3.937960767857412
 40
3.980983618142525
 40
4.199085915228655
 40
4.439444339237407
 40
4.677588241261073
 40
5.050698317837929
 40
5.448212454763315
 40
5.855291218044755
 40
6.138575438885383
 40
6.417434507584183
 40
6.444551104393843
 40
6.504207617363145
 40
6.563864130314446
 40
6.590980727104015
 40
6.848609460381422
 40
7.109611990668347
 40
7.352910904446016
 40
7.55783022070535
 40
7.587518925913245
 40
7.652834077375664
 40
7.718149228845624
 40
7.747837934061904
 40
7.854880190300786
 40
7.97651125740331
 40
8.369487896592139
 40
8.757514959223432
 40
9.126072419330923
 40
9.460639380391985
 40
9.746695593035668
 40
9.777569943118468
 40
9.807050320931587
 40
9.830377336128725
 40
9.88600329543583
 40
9.952395569429754
 40
10.00802152870614
 40
10.03134854388206
 40
10.21356951009588
 40
10.42203479292863
 40
10.66154556731052
 40
10.91693789564291
 40
11.15832906556549
 40
11.18982674596606
 40
11.27286608520391
 40
11.39026653033333
 40
11.52484752840869
 40
11.65942852648431
 40
11.77682897161467
 40
11.85986831085666
 40
11.89136598230411
 40
11.89136598230411
 40
11.89136598230411
 40
11.89136598230411
 10
190.7027885008196
 20
14.70699600701767
 30
0.0
 10
190.7028237765288
 20
14.71587847311981
 30
0.0
 10
190.7029366710797
 20
14.74430237047343
 30
0.0
 10
190.7012984568488
 20
14.79409639169802
 30
0.0
 10
190.7069750292912
 20
14.83657564478155
 30
0.0
 10
190.6956928731706
 20
14.8873015485685
 30
0.0
 10
190.7632296979032
 20
14.87012900740112
 30
0.0
 10
190.83880292107
 20
14.88290227165999
 30
0.0
 10
190.9828357056001
 20
14.87629729457385
 30
0.0
 10
191.1569419185426
 20
14.87888462206469
 30
0.0
 10
191.3639599611004
 20
14.87800591955556
 30
0.0
 10
191.5894688172378
 20
14.87828207920031
 30
0.0
 10
191.8251162293406
 20
14.87818339658665
 30
0.0
 10
192.0607640531348
 20
14.8782818441277
 30
0.0
 10
192.2862717580626
 20
14.87800678190792
 30
0.0
 10
192.4932934632805
 20
14.87888186270738
 30
0.0
 10
192.6673888915288
 20
14.8763052267845
 30
0.0
 10
192.8114492071986
 20
14.88288290449216
 30
0.0
 10
192.8869691915293
 20
14.87016243405608
 30
0.0
 10
192.954577603703
 20
14.88726400191689
 30
0.0
 10
192.9430840140676
 20
14.83674785802942
 30
0.0
 10
192.9505104581732
 20
14.792532522265
 30
0.0
 10
192.9428838927987
 20
14.74867966503607
 30
0.0
 10
192.9546489459425
 20
14.69878374479323
 30
0.0
 10
192.8930788491983
 20
14.71393227712507
 30
0.0
 10
192.8256791738671
 20
14.70310665350669
 30
0.0
 10
192.7013004056221
 20
14.70852031626231
 30
0.0
 10
192.555442823657
 20
14.7064920539078
 30
0.0
 10
192.3893576440085
 20
14.70715777578381
 30
0.0
 10
192.2188412621724
 20
14.70689643521237
 30
0.0
 10
192.0519790855388
 20
14.70721553391089
 30
0.0
 10
191.9087346827105
 20
14.70635302590756
 30
0.0
 10
191.7773313869834
 20
14.70863300482984
 30
0.0
 10
191.7239859134656
 20
14.70407704374196
 30
0.0
 10
191.6485188456912
 20
14.70999914992873
 30
0.0
 10
191.6769075779232
 20
14.70094169343346
 30
0.0
 10
191.7033652409542
 20
14.6972591226892
 30
0.0
 10
191.6633522907701
 20
14.66654271968276
 30
0.0
 10
191.5713663691868
 20
14.6766759117464
 30
0.0
 10
191.5439396207069
 20
14.43032502247787
 30
0.0
 10
191.4478793967234
 20
14.27499558764375
 30
0.0
 10
191.1917277964473
 20
13.9452541793157
 30
0.0
 10
191.7627537732763
 20
14.08430022210447
 30
0.0
 10
192.0173656320516
 20
14.08291779973364
 30
0.0
 10
192.6279647048615
 20
13.99790569242082
 30
0.0
 10
192.3340698578082
 20
14.29685417558209
 30
0.0
 10
192.0133304286518
 20
14.44330856901773
 30
0.0
 10
192.1313543360433
 20
14.50025540818287
 30
0.0
 10
192.1724716466261
 20
14.52420099873347
 30
0.0
 10
192.215681239441
 20
14.5459975881123
 30
0.0
 10
192.317457409445
 20
14.60928721253907
 30
0.0
 10
192.4328867625247
 20
14.35147151408777
 30
0.0
 10
192.6329591642275
 20
14.21616041113677
 30
0.0
 10
192.7269077387227
 20
14.03792795138879
 30
0.0
 10
192.9558829746391
 20
13.87997821027054
 30
0.0
 10
192.8596031846707
 20
13.829159725763
 30
0.0
 10
192.8167959763778
 20
13.79881292523055
 30
0.0
 10
192.7718243528778
 20
13.77466130281463
 30
0.0
 10
192.7121720925213
 20
13.72552146747569
 30
0.0
 10
192.6789731061325
 20
13.85997475673612
 30
0.0
 10
192.5582013350795
 20
14.01594265286573
 30
0.0
 10
192.1970976005979
 20
13.88569928059554
 30
0.0
 10
191.838506195554
 20
13.9022469440948
 30
0.0
 10
191.457092045008
 20
13.89331229351862
 30
0.0
 10
191.1703455282889
 20
13.82882671672407
 30
0.0
 10
190.8592055599717
 20
13.94230668192822
 30
0.0
 10
190.8268737818787
 20
13.83122259927767
 30
0.0
 10
190.7896178253318
 20
13.81196313850004
 30
0.0
 10
190.7865737632753
 20
13.85874784087292
 30
0.0
 10
190.7679892860606
 20
13.89806853919127
 30
0.0
 10
190.7512436616777
 20
13.9576598347823
 30
0.0
 10
190.7383730915752
 20
14.00201969871279
 30
0.0
 10
190.7042327806428
 20
14.09106331120203
 30
0.0
 10
190.9482714457753
 20
14.02181042943768
 30
0.0
 10
191.144139448667
 20
14.00030369057759
 30
0.0
 10
191.2395426381277
 20
14.28226484478465
 30
0.0
 10
191.2945135769596
 20
14.44363045421123
 30
0.0
 10
191.5159619357156
 20
14.71391177589733
 30
0.0
 10
191.3849239381216
 20
14.70548446853729
 30
0.0
 10
191.3110026555854
 20
14.70779008496965
 30
0.0
 10
191.1977459876244
 20
14.70671378321653
 30
0.0
 10
191.0694251807484
 20
14.70707639076504
 30
0.0
 10
190.9404252030415
 20
14.70697724466081
 30
0.0
 10
190.828784094629
 20
14.70699932712568
 30
0.0
 10
190.7514663970026
 20
14.70699579189664
 30
0.0
 10
190.713287653201
 20
14.70699595845076
 30
0.0
 10
190.7027885008196
 20
14.70699600701767
 30
0.0
 11
190.7027885008196
 21
14.70699600701767
 31
0.0
 11
190.7027885008196
 21
14.73374924051794
 31
0.0
 11
190.7027885008196
 21
14.79260635421852
 31
0.0
 11
190.7027885008196
 21
14.85146346791911
 31
0.0
 11
190.7027885008196
 21
14.87821670141938
 31
0.0
 11
190.7355094280989
 21
14.87821670141938
 31
0.0
 11
190.8271280244809
 21
14.87821670141938
 31
0.0
 11
190.9678280117818
 21
14.87821670141938
 31
0.0
 11
191.1477931118179
 21
14.87821670141938
 31
0.0
 11
191.3572070464054
 21
14.87821670141938
 31
0.0
 11
191.5862535373604
 21
14.87821670141938
 31
0.0
 11
191.8251163064992
 21
14.87821670141938
 31
0.0
 11
192.0639790756381
 21
14.87821670141938
 31
0.0
 11
192.2930255665931
 21
14.87821670141938
 31
0.0
 11
192.5024395011806
 21
14.87821670141938
 31
0.0
 11
192.6824046012167
 21
14.87821670141938
 31
0.0
 11
192.8231045885176
 21
14.87821670141938
 31
0.0
 11
192.9147231848996
 21
14.87821670141938
 31
0.0
 11
192.9474441121789
 21
14.87821670141938
 31
0.0
 11
192.9474441121789
 21
14.85146346791911
 31
0.0
 11
192.9474441121789
 21
14.79260635421852
 31
0.0
 11
192.9474441121789
 21
14.73374924051794
 31
0.0
 11
192.9474441121789
 21
14.70699600701767
 31
0.0
 11
192.9174728954758
 21
14.70699600701767
 31
0.0
 11
192.8352937529027
 21
14.70699600701767
 31
0.0
 11
192.7125084457639
 21
14.70699600701767
 31
0.0
 11
192.5607187353642
 21
14.70699600701767
 31
0.0
 11
192.3915263830077
 21
14.70699600701767
 31
0.0
 11
192.2165331499991
 21
14.70699600701767
 31
0.0
 11
192.0473407976426
 21
14.70699600701767
 31
0.0
 11
191.8955510872428
 21
14.70699600701767
 31
0.0
 11
191.7727657801042
 21
14.70699600701767
 31
0.0
 11
191.690586637531
 21
14.70699600701767
 31
0.0
 11
191.6606154208279
 21
14.70699600701767
 31
0.0
 11
191.6766359412525
 21
14.70165583340787
 31
0.0
 11
191.6926564616771
 21
14.69631565979807
 31
0.0
 11
191.670615568142
 21
14.67558114591444
 31
0.0
 11
191.6284861855362
 21
14.66685871536112
 31
0.0
 11
191.5365235541377
 21
14.46909247312658
 31
0.0
 11
191.4279078521763
 21
14.25467511978511
 31
0.0
 11
191.3127500824807
 21
14.0462255905162
 31
0.0
 11
191.685736667502
 21
14.05582441253026
 31
0.0
 11
192.083070003615
 21
14.06781232404993
 31
0.0
 11
192.4899342191144
 21
14.08102711828531
 31
0.0
 11
192.2983119496978
 21
14.28966761302482
 31
0.0
 11
192.0966752013698
 21
14.4822942015183
 31
0.0
 11
192.1204947794749
 21
14.49525327269563
 31
0.0
 11
192.1728978513061
 21
14.52376322928575
 31
0.0
 11
192.2253009231373
 21
14.55227318587587
 31
0.0
 11
192.2491205012424
 21
14.5652322570532
 31
0.0
 11
192.4387101558626
 21
14.39079508370265
 31
0.0
 11
192.6200310940434
 21
14.20305846374087
 31
0.0
 11
192.7777729231146
 21
14.01782380992434
 31
0.0
 11
192.8966252504057
 21
13.85089253500951
 31
0.0
 11
192.8715408217922
 21
13.83501202286071
 31
0.0
 11
192.8163550788425
 21
13.80007489613334
 31
0.0
 11
192.7611693358927
 21
13.76513776940597
 31
0.0
 11
192.7360849072792
 21
13.74925725725717
 31
0.0
 11
192.6775518151612
 21
13.83887824681808
 31
0.0
 11
192.6050015078457
 21
13.93650288221028
 31
0.0
 11
192.2125412924094
 21
13.91636286943756
 31
0.0
 11
191.824947406956
 21
13.8980330299977
 31
0.0
 11
191.4567378976212
 21
13.88202178722393
 31
0.0
 11
191.1224308105412
 21
13.86883756444946
 31
0.0
 11
190.8365441918518
 21
13.85898878500751
 31
0.0
 11
190.821186232174
 21
13.83220523466693
 31
0.0
 11
190.7937434290546
 21
13.82143559057238
 31
0.0
 11
190.7867927192319
 21
13.84370299445571
 31
0.0
 11
190.7702179496548
 21
13.89680218833133
 31
0.0
 11
190.7504351601595
 21
13.96017864553772
 31
0.0
 11
190.7338603905824
 21
14.01327783941334
 31
0.0
 11
190.7269096807597
 21
14.03554524329667
 31
0.0
 11
190.9091199859153
 21
14.03751638912951
 31
0.0
 11
191.1174975848587
 21
14.0435621182948
 31
0.0
 11
191.2303203127215
 21
14.25483550301556
 31
0.0
 11
191.3407936722035
 21
14.48509813155879
 31
0.0
 11
191.4358254265627
 21
14.70699600701767
 31
0.0
 11
191.4043277461597
 21
14.70699600701767
 31
0.0
 11
191.3212884069153
 21
14.70699600701767
 31
0.0
 11
191.2038879617768
 21
14.70699600701767
 31
0.0
 11
191.0693069636912
 21
14.70699600701767
 31
0.0
 11
190.9347259656055
 21
14.70699600701767
 31
0.0
 11
190.817325520467
 21
14.70699600701767
 31
0.0
 11
190.7342861812226
 21
14.70699600701767
 31
0.0
 11
190.7027885008196
 21
14.70699600701767
 31
0.0
  0
SPLINE
  5
C8
102
{ACAD_REACTORS
330
E5
102
}
330
48
100
AcDbEntity
  8
_U_30EC_U_30A4_U_30E4_U_30FC_1
  6
Continuous
 62
     2
100
AcDbSpline
210
0.0
220
0.0
230
1.0
 70
    11
 71
     3
 72
   131
 73
   127
 74
   125
 42
0.000000001
 43
0.0000000001
 44
0.00000001
 40
0.0
 40
0.0
 40
0.0
 40
0.0
 40
0.0195577029826436
 40
0.0426490537461469
 40
0.2863607575856912
 40
0.5344948436189713
 40
0.7842238845573382
 40
0.8737315789467537
 40
0.9803832810313053
 40
1.092842274517053
 40
1.199761146656821
 40
1.28978876818654
 40
1.351573580786258
 40
1.370727117561481
 40
1.416400936017882
 40
1.470914848356013
 40
1.516588666791795
 40
1.53574220355287
 40
1.634216592293244
 40
1.760283341175084
 40
1.897966686682186
 40
2.031216387369051
 40
2.049689751138045
 40
2.101115601646978
 40
2.17950257774009
 40
2.278859318314201
 40
2.393194462258853
 40
2.516516648383957
 40
2.642834515406079
 40
2.766156701983578
 40
2.880491846754683
 40
2.979848588358719
 40
3.058235565443891
 40
3.109661416669043
 40
3.128134780704219
 40
3.146783742386507
 40
3.19125434331534
 40
3.244332157315998
 40
3.288802758225845
 40
3.307451719895088
 40
3.327717853844698
 40
3.383747753580055
 40
3.46838866592444
 40
3.57448783769874
 40
3.694892515728837
 40
3.822449946851966
 40
3.950007377920347
 40
4.07041205580043
 40
4.176511227367977
 40
4.261152139501419
 40
4.317182039076608
 40
4.337448172964526
 40
4.62001100269615
 40
4.885096638397425
 40
4.945373043518273
 40
5.0141077104886
 40
5.070481727651967
 40
5.319246955636482
 40
5.584812164505946
 40
5.859000912056787
 40
6.133746937541953
 40
6.401732212968731
 40
6.420736683995321
 40
6.472845717450972
 40
6.5507027438939
 40
6.646951193874108
 40
6.754234497930489
 40
6.865196086587239
 40
6.972479390357754
 40
7.068727839771888
 40
7.146584865450925
 40
7.198693898189155
 40
7.217698368905295
 40
7.234950401630774
 40
7.276089864269818
 40
7.325191803515927
 40
7.366331266090314
 40
7.383583298769666
 40
7.402779163492043
 40
7.453386443254474
 40
7.524934666445504
 40
7.606953361405844
 40
7.688972056429024
 40
7.760520279784303
 40
7.811127559734545
 40
7.830323424546166
 40
7.847844055299796
 40
7.894799345666844
 40
7.962779392744539
 40
8.043374293560596
 40
8.128174145149512
 40
8.208769044817323
 40
8.276749090377034
 40
8.3237043796696
 40
8.341225010056334
 40
8.358497614800482
 40
8.401679126686687
 40
8.457815092185745
 40
8.51395105772815
 40
8.557132569708106
 40
8.574405174505149
 40
8.602340668616513
 40
8.643455660540159
 40
8.66322527196683
 40
8.715345156564481
 40
8.789031889628827
 40
8.873502045520569
 40
8.957972194324203
 40
9.031658925568102
 40
9.083778811234797
 40
9.103548423003264
 40
9.119550083123801
 40
9.160817522380132
 40
9.217244429110497
 40
9.27872449164504
 40
9.335151398295825
 40
9.37641883735812
 40
9.392420497300936
 40
9.401196302735167
 40
9.417494229384666
 40
9.42627002774995
 40
9.440875075477987
 40
9.475702496999174
 40
9.517270709866345
 40
9.55209813199452
 40
9.56670316988473
 40
9.56670316988473
 40
9.56670316988473
 40
9.56670316988473
 10
194.6170254148479
 20
15.67015871511029
 30
0.0
 10
194.6134345093371
 20
15.66453690702159
 30
0.0
 10
194.6056039123625
 20
15.6522775441911
 30
0.0
 10
194.5129968974541
 20
15.61601916040993
 30
0.0
 10
194.4887622233249
 20
15.40148444212707
 30
0.0
 10
194.3858709845937
 20
15.2219728450971
 30
0.0
 10
194.1220492364305
 20
15.03615573798146
 30
0.0
 10
194.284547156918
 20
14.95959336566084
 30
0.0
 10
194.3607225760838
 20
14.89856693195444
 30
0.0
 10
194.4492171072758
 20
14.83515804544762
 30
0.0
 10
194.538993023311
 20
14.77525634219561
 30
0.0
 10
194.5883817636046
 20
14.72102154849206
 30
0.0
 10
194.6745708157382
 20
14.69286240541828
 30
0.0
 10
194.6411260674229
 20
14.65713309652806
 30
0.0
 10
194.6214671166311
 20
14.62550387991902
 30
0.0
 10
194.5919888217882
 20
14.58475872796067
 30
0.0
 10
194.5688989446031
 20
14.55504663489642
 30
0.0
 10
194.5380205968356
 20
14.50211422668492
 30
0.0
 10
194.4729193365741
 20
14.62740334938906
 30
0.0
 10
194.3796000122414
 20
14.68213900233937
 30
0.0
 10
194.2950636285138
 20
14.73916423939345
 30
0.0
 10
194.1722498125741
 20
14.89675287427526
 30
0.0
 10
194.17644508473
 20
14.82035806766838
 30
0.0
 10
194.1751478652677
 20
14.77361280161298
 30
0.0
 10
194.1758126448076
 20
14.69584785812604
 30
0.0
 10
194.1755549986955
 20
14.59902068324426
 30
0.0
 10
194.175643123992
 20
14.48650279078813
 30
0.0
 10
194.1756077302279
 20
14.36524085945704
 30
0.0
 10
194.1756511758279
 20
14.24086897858967
 30
0.0
 10
194.1755199942403
 20
14.11967683631342
 30
0.0
 10
194.1759477562044
 20
14.0069114891975
 30
0.0
 10
194.174667820231
 20
13.91082913768751
 30
0.0
 10
194.1779759851042
 20
13.83113826468708
 30
0.0
 10
194.1715197740085
 20
13.78815175788792
 30
0.0
 10
194.1806208705555
 20
13.74955432372052
 30
0.0
 10
194.1447910339933
 20
13.75810887724078
 30
0.0
 10
194.1115223815252
 20
13.75342519985455
 30
0.0
 10
194.060456257604
 20
13.75351298759792
 30
0.0
 10
194.0269723972813
 20
13.75794430283828
 30
0.0
 10
193.9907585408754
 20
13.74960793842518
 30
0.0
 10
194.0009782568665
 20
13.79145277179292
 30
0.0
 10
193.9936487887774
 20
13.83778560820181
 30
0.0
 10
193.9973633136102
 20
13.9237483110602
 30
0.0
 10
193.9959480554896
 20
14.02605142704855
 30
0.0
 10
193.9964105554639
 20
14.14453223931517
 30
0.0
 10
193.9962773686231
 20
14.2695768315336
 30
0.0
 10
193.9963015910045
 20
14.39475828107053
 30
0.0
 10
193.9963354925551
 20
14.5128664537906
 30
0.0
 10
193.9962060293132
 20
14.61628748709518
 30
0.0
 10
193.9965507549081
 20
14.69932036153667
 30
0.0
 10
193.995869827869
 20
14.75143368521245
 30
0.0
 10
193.999458660062
 20
14.8791290782136
 30
0.0
 10
193.7826171386437
 20
14.58048716819619
 30
0.0
 10
193.6021354921952
 20
14.35263981511513
 30
0.0
 10
193.549032229561
 20
14.49373443289814
 30
0.0
 10
193.5200429133149
 20
14.54325767560941
 30
0.0
 10
193.419664806282
 20
14.64641779790113
 30
0.0
 10
193.7405127723261
 20
14.72695035023775
 30
0.0
 10
193.8689897005429
 20
14.91066283036434
 30
0.0
 10
194.0906454325358
 20
15.11931995771759
 30
0.0
 10
194.177022489407
 20
15.29339211228339
 30
0.0
 10
194.4549394229073
 20
15.56967051342503
 30
0.0
 10
194.3346247839285
 20
15.56534559551106
 30
0.0
 10
194.2863197351348
 20
15.56614856202544
 30
0.0
 10
194.2102377454905
 20
15.56574582146576
 30
0.0
 10
194.116701000975
 20
15.56590275611601
 30
0.0
 10
194.0117594788556
 20
15.56582502576215
 30
0.0
 10
193.9033887738718
 20
15.56595464378547
 30
0.0
 10
193.7981454235896
 20
15.56554393490683
 30
0.0
 10
193.7056237819411
 20
15.56682073671583
 30
0.0
 10
193.6268130800707
 20
15.56340766534841
 30
0.0
 10
193.5839674565378
 20
15.57023350036312
 30
0.0
 10
193.5449499586515
 20
15.56065064201115
 30
0.0
 10
193.5526365271863
 20
15.59420779565535
 30
0.0
 10
193.5485464404311
 20
15.62523550322225
 30
0.0
 10
193.5485531368813
 20
15.67236529270892
 30
0.0
 10
193.5526239724911
 20
15.70340941646771
 30
0.0
 10
193.5449495574581
 20
15.73701861635893
 30
0.0
 10
193.5834819405494
 20
15.72748410420864
 30
0.0
 10
193.6241228014479
 20
15.73397435498063
 30
0.0
 10
193.6951471850462
 20
15.73100150650246
 30
0.0
 10
193.7729318149633
 20
15.73174761399149
 30
0.0
 10
193.8507292246474
 20
15.73247814044517
 30
0.0
 10
193.9217232089908
 20
15.72954235514153
 30
0.0
 10
193.9624279791819
 20
15.73595468772943
 30
0.0
 10
194.000985348991
 20
15.72650524175996
 30
0.0
 10
193.9927342754927
 20
15.76264692158776
 30
0.0
 10
193.9982346669359
 20
15.8012983761322
 30
0.0
 10
193.9955754206163
 20
15.86913528561832
 30
0.0
 10
193.9965815471533
 20
15.94591641538734
 30
0.0
 10
193.9960178018319
 20
16.02849393582752
 30
0.0
 10
193.9970714526593
 20
16.10517329229874
 30
0.0
 10
193.9942675863129
 20
16.17331990776696
 30
0.0
 10
194.0000702721304
 20
16.21132399809344
 30
0.0
 10
193.9915654551158
 20
16.24758448077644
 30
0.0
 10
194.0255610233125
 20
16.2375572377185
 30
0.0
 10
194.05945756831
 20
16.24073266813705
 30
0.0
 10
194.1126669060346
 20
16.23508965640606
 30
0.0
 10
194.1660768574482
 20
16.23434774436423
 30
0.0
 10
194.1995914649491
 20
16.22819223482977
 30
0.0
 10
194.2388086183039
 20
16.2334602977359
 30
0.0
 10
194.2120263698491
 20
16.19253380793482
 30
0.0
 10
194.1708111001723
 20
16.20371204538113
 30
0.0
 10
194.1782641540871
 20
16.1586705619212
 30
0.0
 10
194.1742227952184
 20
16.11412278028142
 30
0.0
 10
194.1761714049639
 20
16.04223572621699
 30
0.0
 10
194.1752364849757
 20
15.96168630588765
 30
0.0
 10
194.1765107190029
 20
15.88173995404989
 30
0.0
 10
194.1732043793863
 20
15.80841837083176
 30
0.0
 10
194.180210617996
 20
15.76688643002561
 30
0.0
 10
194.1701440380124
 20
15.72752418568105
 30
0.0
 10
194.2029814803921
 20
15.73468063430973
 30
0.0
 10
194.2364577296479
 20
15.73027243137937
 30
0.0
 10
194.2915053476018
 20
15.73217943347889
 30
0.0
 10
194.3489502595314
 20
15.7318536640728
 30
0.0
 10
194.4023026248309
 20
15.73106308733073
 30
0.0
 10
194.4398540896639
 20
15.73313959118067
 30
0.0
 10
194.4623172523236
 20
15.73022338167099
 30
0.0
 10
194.4751678073731
 20
15.73572552644053
 30
0.0
 10
194.4858255685888
 20
15.73801118197791
 30
0.0
 10
194.4986635650143
 20
15.74494972588061
 30
0.0
 10
194.514599103307
 20
15.72853046313677
 30
0.0
 10
194.5410623920892
 20
15.71709122319454
 30
0.0
 10
194.5726805253757
 20
15.69644687835194
 30
0.0
 10
194.5987255892151
 20
15.68116869628296
 30
0.0
 10
194.6128517723973
 20
15.67266976323186
 30
0.0
 10
194.6170254148479
 20
15.67015871511029
 30
0.0
 11
194.6170254148479
 21
15.67015871511029
 31
0.0
 11
194.6049990002243
 21
15.65473571164186
 31
0.0
 11
194.5848961795565
 21
15.64337406233921
 31
0.0
 11
194.4778986355813
 21
15.42440620231159
 31
0.0
 11
194.3477039934324
 21
15.2131720151216
 31
0.0
 11
194.1996540366071
 21
15.01206059027481
 31
0.0
 11
194.2734958253735
 21
14.96147384935381
 31
0.0
 11
194.36056643118
 21
14.89988411653741
 31
0.0
 11
194.4518003750404
 21
14.83413160594428
 31
0.0
 11
194.5381321779687
 21
14.77105653169305
 31
0.0
 11
194.6104963609787
 21
14.7174991079024
 31
0.0
 11
194.6598274450843
 21
14.68029954869098
 31
0.0
 11
194.6486940702213
 21
14.66471410869488
 31
0.0
 11
194.6221452532403
 21
14.62754882870419
 31
0.0
 11
194.5904579555533
 21
14.5831902687153
 31
0.0
 11
194.5639091385723
 21
14.54602498872461
 31
0.0
 11
194.5527757637093
 21
14.53043954872851
 31
0.0
 11
194.4807013362947
 21
14.5975400869062
 31
0.0
 11
194.385285698538
 21
14.67993354174672
 31
0.0
 11
194.2793264152169
 21
14.76785017366918
 31
0.0
 11
194.1756210511089
 21
14.85152024309269
 31
0.0
 11
194.1756210511089
 21
14.83304687900865
 31
0.0
 11
194.1756210511089
 21
14.78162102763958
 31
0.0
 11
194.1756210511089
 21
14.70323405031002
 31
0.0
 11
194.1756210511089
 21
14.60387730834452
 31
0.0
 11
194.1756210511089
 21
14.48954216306764
 31
0.0
 11
194.1756210511089
 21
14.36621997580394
 31
0.0
 11
194.1756210511089
 21
14.23990210787795
 31
0.0
 11
194.1756210511089
 21
14.11657992061425
 31
0.0
 11
194.1756210511089
 21
14.00224477533737
 31
0.0
 11
194.1756210511089
 21
13.90288803337187
 31
0.0
 11
194.1756210511089
 21
13.82450105604231
 31
0.0
 11
194.1756210511089
 21
13.77307520467324
 31
0.0
 11
194.1756210511089
 21
13.7546018405892
 31
0.0
 11
194.1569720893625
 21
13.7546018405892
 31
0.0
 11
194.1125014882749
 21
13.7546018405892
 31
0.0
 11
194.0594236740735
 21
13.7546018405892
 31
0.0
 11
194.0149530729859
 21
13.7546018405892
 31
0.0
 11
193.9963041112395
 21
13.7546018405892
 31
0.0
 11
193.9963041112395
 21
13.77486797460226
 31
0.0
 11
193.9963041112395
 21
13.83089787452074
 31
0.0
 11
193.9963041112395
 21
13.91553878716354
 31
0.0
 11
193.9963041112395
 21
14.02163795934959
 31
0.0
 11
193.9963041112395
 21
14.14204263789781
 31
0.0
 11
193.9963041112395
 21
14.2696000696271
 31
0.0
 11
193.9963041112395
 21
14.39715750135639
 31
0.0
 11
193.9963041112395
 21
14.51756217990461
 31
0.0
 11
193.9963041112395
 21
14.62366135209065
 31
0.0
 11
193.9963041112395
 21
14.70830226473346
 31
0.0
 11
193.9963041112395
 21
14.76433216465193
 31
0.0
 11
193.9963041112395
 21
14.784598298665
 31
0.0
 11
193.7883272849481
 21
14.59331998274055
 31
0.0
 11
193.5763486358425
 21
14.43414885430809
 31
0.0
 11
193.5495629014482
 21
14.48814671952095
 31
0.0
 11
193.5138765415024
 21
14.54689140572026
 31
0.0
 11
193.4799697494124
 21
14.59192871537977
 31
0.0
 11
193.6830287742319
 21
14.73563387201053
 31
0.0
 11
193.881853195826
 21
14.91168423529986
 31
0.0
 11
194.0677041444178
 21
15.11327514524946
 31
0.0
 11
194.2318427502303
 21
15.33360194186104
 31
0.0
 11
194.3655301434864
 21
15.56585996513627
 31
0.0
 11
194.3465256724482
 21
15.56585996513627
 31
0.0
 11
194.2944166389562
 21
15.56585996513627
 31
0.0
 11
194.2165596124447
 21
15.56585996513627
 31
0.0
 11
194.1203111623478
 21
15.56585996513627
 31
0.0
 11
194.0130278580996
 21
15.56585996513627
 31
0.0
 11
193.9020662691345
 21
15.56585996513627
 31
0.0
 11
193.7947829648863
 21
15.56585996513627
 31
0.0
 11
193.6985345147894
 21
15.56585996513627
 31
0.0
 11
193.6206774882779
 21
15.56585996513627
 31
0.0
 11
193.5685684547859
 21
15.56585996513627
 31
0.0
 11
193.5495639837477
 21
15.56585996513627
 31
0.0
 11
193.5495639837477
 21
15.58311199790974
 31
0.0
 11
193.5495639837477
 21
15.62425146067723
 31
0.0
 11
193.5495639837477
 21
15.67335340010941
 31
0.0
 11
193.5495639837477
 21
15.7144928628769
 31
0.0
 11
193.5495639837477
 21
15.73174489565037
 31
0.0
 11
193.5687598486008
 21
15.73174489565037
 31
0.0
 11
193.6193671286683
 21
15.73174489565037
 31
0.0
 11
193.6909153522119
 21
15.73174489565037
 31
0.0
 11
193.7729340474936
 21
15.73174489565037
 31
0.0
 11
193.8549527427753
 21
15.73174489565037
 31
0.0
 11
193.9265009663189
 21
15.73174489565037
 31
0.0
 11
193.9771082463864
 21
15.73174489565037
 31
0.0
 11
193.9963041112395
 21
15.73174489565037
 31
0.0
 11
193.9963041112395
 21
15.7492655265521
 31
0.0
 11
193.9963041112395
 21
15.79622081736875
 31
0.0
 11
193.9963041112395
 21
15.86420086526747
 31
0.0
 11
193.9963041112395
 21
15.94479576741543
 31
0.0
 11
193.9963041112395
 21
16.02959562097982
 31
0.0
 11
193.9963041112395
 21
16.11019052312778
 31
0.0
 11
193.9963041112395
 21
16.17817057102651
 31
0.0
 11
193.9963041112395
 21
16.22512586184315
 31
0.0
 11
193.9963041112395
 21
16.24264649274488
 31
0.0
 11
194.0135484112111
 21
16.24165806167517
 31
0.0
 11
194.0566591611401
 21
16.23918698400089
 31
0.0
 11
194.1127031360477
 21
16.23597458302433
 31
0.0
 11
194.1687471109553
 21
16.23276218204777
 31
0.0
 11
194.2118578608843
 21
16.23029110437349
 31
0.0
 11
194.2291021608559
 21
16.22930267330378
 31
0.0
 11
194.2143774674851
 21
16.20556293372637
 31
0.0
 11
194.1756210511089
 21
16.1918376733131
 31
0.0
 11
194.1756210511089
 21
16.1720680617729
 31
0.0
 11
194.1756210511089
 21
16.1199481768033
 31
0.0
 11
194.1756210511089
 21
16.04626144288075
 31
0.0
 11
194.1756210511089
 21
15.96179128448173
 31
0.0
 11
194.1756210511089
 21
15.87732112608272
 31
0.0
 11
194.1756210511089
 21
15.80363439216017
 31
0.0
 11
194.1756210511089
 21
15.75151450719057
 31
0.0
 11
194.1756210511089
 21
15.73174489565037
 31
0.0
 11
194.1916227112934
 21
15.73174489565037
 31
0.0
 11
194.2328901507169
 21
15.73174489565037
 31
0.0
 11
194.2893170576836
 21
15.73174489565037
 31
0.0
 11
194.3507971204981
 21
15.73174489565037
 31
0.0
 11
194.4072240274648
 21
15.73174489565037
 31
0.0
 11
194.4484914668882
 21
15.73174489565037
 31
0.0
 11
194.4644931270728
 21
15.73174489565037
 31
0.0
 11
194.4728206422924
 21
15.73451387455916
 31
0.0
 11
194.4882860277004
 21
15.73965626396121
 31
0.0
 11
194.49661354292
 21
15.74242524287001
 31
0.0
 11
194.5091363776005
 21
15.734909523983
 31
0.0
 11
194.5389985218386
 21
15.71698742509859
 31
0.0
 11
194.5746404359293
 21
15.69559653288171
 31
0.0
 11
194.6045025801674
 21
15.6776744339973
 31
0.0
 11
194.6170254148479
 21
15.67015871511029
 31
0.0
  0
SPLINE
  5
C9
102
{ACAD_REACTORS
330
E6
102
}
330
48
100
AcDbEntity
  8
_U_30EC_U_30A4_U_30E4_U_30FC_1
  6
Continuous
 62
     2
100
AcDbSpline
210
0.0
220
0.0
230
1.0
 70
    11
 71
     3
 72
   124
 73
   120
 74
   118
 42
0.000000001
 43
0.0000000001
 44
0.00000001
 40
0.0
 40
0.0
 40
0.0
 40
0.0
 40
0.027818722962451
 40
0.1011590162384269
 40
0.204847017058967
 40
0.3237088716558393
 40
0.4425707262521147
 40
0.546258727069841
 40
0.6195990203310661
 40
0.6474177522577523
 40
0.6750060736114141
 40
0.7357003855241782
 40
0.7963946998053568
 40
0.8239830245570932
 40
0.8540933811102025
 40
0.9373396629408706
 40
1.063094687343151
 40
1.220731268637961
 40
1.399622220914636
 40
1.589140358637592
 40
1.778658496423701
 40
1.957549448940368
 40
2.115186030872962
 40
2.240941056914266
 40
2.324187341760335
 40
2.354297700109185
 40
2.381886024671696
 40
2.442580338710292
 40
2.503274652750329
 40
2.530862977314439
 40
2.560983949278392
 40
2.640393784452738
 40
2.752662861758961
 40
2.881361560117978
 40
3.010060258455025
 40
3.122329335705172
 40
3.201739170817786
 40
3.231860142753146
 40
3.264298024030199
 40
3.352343701778065
 40
3.482095226868579
 40
3.63965065017283
 40
3.811108022565276
 40
3.982565394927771
 40
4.140120818152345
 40
4.269872343141045
 40
4.357918020802102
 40
4.390355902043727
 40
4.423256253992297
 40
4.508104530072818
 40
4.624121560636586
 40
4.750528176031342
 40
4.866545206601789
 40
4.951393482691747
 40
4.984293834645148
 40
5.011450833242061
 40
5.071196230151839
 40
5.130941627056909
 40
5.158098625648571
 40
5.190998977601262
 40
5.275847253689087
 40
5.391864284256521
 40
5.518270899648066
 40
5.634287930209106
 40
5.71913620628778
 40
5.752036558235667
 40
5.782130946282694
 40
5.862783906228874
 40
5.979550131774752
 40
6.117984316640167
 40
6.263641154587725
 40
6.402075339413941
 40
6.518841564907745
 40
6.599494524815333
 40
6.629588912848575
 40
6.654403028226151
 40
6.713575149487919
 40
6.784199939329237
 40
6.843372060493339
 40
6.868186175802585
 40
6.896246243201692
 40
6.939586233758059
 40
6.967846564564691
 40
7.043584251089622
 40
7.15323433445148
 40
7.283231855734228
 40
7.420011856035257
 40
7.550009376579607
 40
7.659659458835004
 40
7.735397144416997
 40
7.763657474851168
 40
7.796409728010825
 40
7.880876065096099
 40
7.996370852465485
 40
8.12220844641838
 40
8.237703224798974
 40
8.322169562010668
 40
8.354921815205682
 40
8.38207881330746
 40
8.441824209206759
 40
8.501569605239903
 40
8.528726603485477
 40
8.561478856695526
 40
8.645945193877576
 40
8.761439980865088
 40
8.88727758076423
 40
9.002772362000751
 40
9.087238696660972
 40
9.119990949235426
 40
9.152428830613122
 40
9.240474508638334
 40
9.370226034149278
 40
9.527781457984148
 40
9.699238830981127
 40
9.870696203978307
 40
10.02825162781372
 40
10.15800315332533
 40
10.24604883135087
 40
10.27848670378489
 40
10.27848670378489
 40
10.27848670378489
 40
10.27848670378489
 10
195.3821827564383
 20
14.01410517385762
 30
0.0
 10
195.3914554737523
 20
14.01410498511279
 30
0.0
 10
195.4251744536861
 20
14.01410430876719
 30
0.0
 10
195.4934706812465
 20
14.0141180724331
 30
0.0
 10
195.592014171158
 20
14.0140322421955
 30
0.0
 10
195.7062066464811
 20
14.01441755612255
 30
0.0
 10
195.818589441707
 20
14.0130083589755
 30
0.0
 10
195.9214376600117
 20
14.01719117422248
 30
0.0
 10
195.9806839874847
 20
14.00823089251988
 30
0.0
 10
196.0371265937032
 20
14.02164434526066
 30
0.0
 10
196.0246255586953
 20
13.97087198613366
 30
0.0
 10
196.0329549635703
 20
13.9258932093907
 30
0.0
 10
196.0248170841118
 20
13.88056752990491
 30
0.0
 10
196.0370529214456
 20
13.82931932408468
 30
0.0
 10
195.9747773490332
 20
13.84447955365278
 30
0.0
 10
195.9060513026866
 20
13.83359750710744
 30
0.0
 10
195.778275674959
 20
13.83911304747974
 30
0.0
 10
195.6262984511642
 20
13.837008512537
 30
0.0
 10
195.4502695972522
 20
13.83771002588476
 30
0.0
 10
195.2644431934286
 20
13.83745237531293
 30
0.0
 10
195.0786167437175
 20
13.83771005144606
 30
0.0
 10
194.9025880142167
 20
13.83700841847732
 30
0.0
 10
194.7506104154194
 20
13.83911332229991
 30
0.0
 10
194.6228357664554
 20
13.83359680767642
 30
0.0
 10
194.554107783658
 20
13.84448077125944
 30
0.0
 10
194.4918349042883
 20
13.82931786684211
 30
0.0
 10
194.5040616290017
 20
13.88057510805174
 30
0.0
 10
194.4960004462597
 20
13.92582473272429
 30
0.0
 10
194.5040675809893
 20
13.97106357955327
 30
0.0
 10
194.4918238487083
 20
14.02234176909962
 30
0.0
 10
194.5525017120698
 20
14.0074957736314
 30
0.0
 10
194.6162810745736
 20
14.01756448170739
 30
0.0
 10
194.7277314353502
 20
14.01294644212004
 30
0.0
 10
194.8497533443824
 20
14.01413328905473
 30
0.0
 10
194.9719538137823
 20
14.0151586390064
 30
0.0
 10
195.0829794287392
 20
14.01092475623406
 30
0.0
 10
195.1476517413958
 20
14.02018584521744
 30
0.0
 10
195.2091162810501
 20
14.00604423049687
 30
0.0
 10
195.1930065601337
 20
14.07235527884521
 30
0.0
 10
195.2042980327358
 20
14.1444779012198
 30
0.0
 10
195.198740082256
 20
14.27513760888289
 30
0.0
 10
195.2008035061691
 20
14.42607323708243
 30
0.0
 10
195.2000167127295
 20
14.59335873107887
 30
0.0
 10
195.2007845215628
 20
14.76061110332303
 30
0.0
 10
195.1988038785628
 20
14.91163289269914
 30
0.0
 10
195.2041306156621
 20
15.04206069552994
 30
0.0
 10
195.1933101388425
 20
15.11465442605897
 30
0.0
 10
195.2090326429875
 20
15.18150469436796
 30
0.0
 10
195.143270813249
 20
15.16580512490822
 30
0.0
 10
195.0756367830764
 20
15.17609243083993
 30
0.0
 10
194.9615885293809
 20
15.1711378684712
 30
0.0
 10
194.8451242674902
 20
15.17414128030472
 30
0.0
 10
194.7306554121477
 20
15.16880303143387
 30
0.0
 10
194.6640324657812
 20
15.18001268074822
 30
0.0
 10
194.5990769715185
 20
15.16349132665009
 30
0.0
 10
194.6107989758707
 20
15.21473720477056
 30
0.0
 10
194.6032830189121
 20
15.25950333784088
 30
0.0
 10
194.6107989878835
 20
15.30426944897957
 30
0.0
 10
194.5990769505347
 20
15.35551536129737
 30
0.0
 10
194.66403263392
 20
15.3389938176681
 30
0.0
 10
194.7306533339822
 20
15.3502057137394
 30
0.0
 10
194.8451352858063
 20
15.3448543671066
 30
0.0
 10
194.9615454436962
 20
15.34791188771113
 30
0.0
 10
195.0757660174641
 20
15.34278499010704
 30
0.0
 10
195.1430150439226
 20
15.35345733355594
 30
0.0
 10
195.2083325941438
 20
15.33742082669073
 30
0.0
 10
195.1941391448552
 20
15.39949685750049
 30
0.0
 10
195.2036059462995
 20
15.4658676162876
 30
0.0
 10
195.1990269004085
 20
15.58239972741964
 30
0.0
 10
195.2007696555948
 20
15.71426685022375
 30
0.0
 10
195.1997551495391
 20
15.85615960150273
 30
0.0
 10
195.2017191344373
 20
15.98769050702581
 30
0.0
 10
195.1964668553851
 20
16.10524577283004
 30
0.0
 10
195.2073408763475
 20
16.16947789001586
 30
0.0
 10
195.1919536641853
 20
16.2310880254505
 30
0.0
 10
195.24075915378
 20
16.21702407382113
 30
0.0
 10
195.2853995564725
 20
16.21954742075317
 30
0.0
 10
195.3538643946742
 20
16.21512797401711
 30
0.0
 10
195.3959106169102
 20
16.20613025544038
 30
0.0
 10
195.4487544758775
 20
16.21411714866511
 30
0.0
 10
195.4207035002013
 20
16.1711391761168
 30
0.0
 10
195.3749142248594
 20
16.18259552043828
 30
0.0
 10
195.3869539073264
 20
16.12173520005133
 30
0.0
 10
195.3796086070641
 20
16.05769299468767
 30
0.0
 10
195.3831195826161
 20
15.94909368863906
 30
0.0
 10
195.3819806760173
 20
15.82494319144748
 30
0.0
 10
195.3819174780262
 20
15.69189719829873
 30
0.0
 10
195.3832872966868
 20
15.56797381249551
 30
0.0
 10
195.3791638801313
 20
15.45868337849334
 30
0.0
 10
195.3877763103564
 20
15.39608580094166
 30
0.0
 10
195.3746757454402
 20
15.33740133296362
 30
0.0
 10
195.4393884328198
 20
15.35362113810897
 30
0.0
 10
195.5060405953156
 20
15.34270260383308
 30
0.0
 10
195.6198779541103
 20
15.34793740173751
 30
0.0
 10
195.7357259122097
 20
15.34485547516909
 30
0.0
 10
195.8496924263279
 20
15.35018259812508
 30
0.0
 10
195.91603410181
 20
15.33904208166539
 30
0.0
 10
195.9807188525479
 20
15.35546979593174
 30
0.0
 10
195.9689820772722
 20
15.30425925210047
 30
0.0
 10
195.9765168063041
 20
15.25950334120998
 30
0.0
 10
195.9689820992258
 20
15.21474739010024
 30
0.0
 10
195.9807188140736
 20
15.16353690871038
 30
0.0
 10
195.9160344075252
 20
15.17996427794218
 30
0.0
 10
195.8496886430824
 20
15.16882784447266
 30
0.0
 10
195.7357459487012
 20
15.17413115893118
 30
0.0
 10
195.6197995623054
 20
15.17114764593542
 30
0.0
 10
195.5062756882122
 20
15.17606892268391
 30
0.0
 10
195.4389231318804
 20
15.16585087513517
 30
0.0
 10
195.3734285122495
 20
15.18145996138813
 30
0.0
 10
195.3891713619218
 20
15.11463851827409
 30
0.0
 10
195.3783275998212
 20
15.04207057815877
 30
0.0
 10
195.3836581629793
 20
14.91162247614416
 30
0.0
 10
195.3817136151854
 20
14.76064558185225
 30
0.0
 10
195.3823133683215
 20
14.5932224393416
 30
0.0
 10
195.3821506559604
 20
14.42656176118374
 30
0.0
 10
195.3821895488136
 20
14.2736014292164
 30
0.0
 10
195.3821816413098
 20
14.14849178985709
 30
0.0
 10
195.3821828382745
 20
14.06507890991424
 30
0.0
 10
195.3821827716208
 20
14.02491778281981
 30
0.0
 10
195.3821827564383
 20
14.01410517385762
 30
0.0
 11
195.3821827564383
 21
14.01410517385762
 31
0.0
 11
195.4100014883675
 21
14.01410517385762
 31
0.0
 11
195.4833417816353
 21
14.01410517385762
 31
0.0
 11
195.5870297824622
 21
14.01410517385762
 31
0.0
 11
195.7058916370686
 21
14.01410517385762
 31
0.0
 11
195.824753491675
 21
14.01410517385762
 31
0.0
 11
195.9284414925019
 21
14.01410517385762
 31
0.0
 11
196.0017817857697
 21
14.01410517385762
 31
0.0
 11
196.0296005176989
 21
14.01410517385762
 31
0.0
 11
196.0296005176989
 21
13.98651684921174
 31
0.0
 11
196.0296005176989
 21
13.9258225349908
 31
0.0
 11
196.0296005176989
 21
13.86512822076987
 31
0.0
 11
196.0296005176989
 21
13.83753989612399
 31
0.0
 11
195.9994901593493
 21
13.83753989612399
 31
0.0
 11
195.9162438745003
 21
13.83753989612399
 31
0.0
 11
195.790488848452
 21
13.83753989612399
 31
0.0
 11
195.632852266504
 21
13.83753989612399
 31
0.0
 11
195.4539613139563
 21
13.83753989612399
 31
0.0
 11
195.2644431761088
 21
13.83753989612399
 31
0.0
 11
195.0749250382613
 21
13.83753989612399
 31
0.0
 11
194.8960340857136
 21
13.83753989612399
 31
0.0
 11
194.7383975037656
 21
13.83753989612399
 31
0.0
 11
194.6126424777172
 21
13.83753989612399
 31
0.0
 11
194.5293961928683
 21
13.83753989612399
 31
0.0
 11
194.4992858345187
 21
13.83753989612399
 31
0.0
 11
194.4992858345187
 21
13.86512822076987
 31
0.0
 11
194.4992858345187
 21
13.9258225349908
 31
0.0
 11
194.4992858345187
 21
13.98651684921174
 31
0.0
 11
194.4992858345187
 21
14.01410517385762
 31
0.0
 11
194.5294068064947
 21
14.01410517385762
 31
0.0
 11
194.608816641704
 21
14.01410517385762
 31
0.0
 11
194.721085719069
 21
14.01410517385762
 31
0.0
 11
194.8497844175118
 21
14.01410517385762
 31
0.0
 11
194.9784831159545
 21
14.01410517385762
 31
0.0
 11
195.0907521933195
 21
14.01410517385762
 31
0.0
 11
195.1701620285289
 21
14.01410517385762
 31
0.0
 11
195.2002830005048
 21
14.01410517385762
 31
0.0
 11
195.2002830005048
 21
14.0465430552384
 31
0.0
 11
195.2002830005048
 21
14.13458873327194
 31
0.0
 11
195.2002830005048
 21
14.26434025879506
 31
0.0
 11
195.2002830005048
 21
14.42189568264456
 31
0.0
 11
195.2002830005048
 21
14.59335305565725
 31
0.0
 11
195.2002830005048
 21
14.76481042866994
 31
0.0
 11
195.2002830005048
 21
14.92236585251944
 31
0.0
 11
195.2002830005048
 21
15.05211737804256
 31
0.0
 11
195.2002830005048
 21
15.1401630560761
 31
0.0
 11
195.2002830005048
 21
15.17260093745688
 31
0.0
 11
195.1673826485529
 21
15.17260093745688
 31
0.0
 11
195.0825343724662
 21
15.17260093745688
 31
0.0
 11
194.9665173418988
 21
15.17260093745688
 31
0.0
 11
194.8401107265044
 21
15.17260093745688
 31
0.0
 11
194.724093695937
 21
15.17260093745688
 31
0.0
 11
194.6392454198503
 21
15.17260093745688
 31
0.0
 11
194.6063450678984
 21
15.17260093745688
 31
0.0
 11
194.6063450678984
 21
15.199757936148
 31
0.0
 11
194.6063450678984
 21
15.25950333326847
 31
0.0
 11
194.6063450678984
 21
15.31924873038894
 31
0.0
 11
194.6063450678984
 21
15.34640572908006
 31
0.0
 11
194.6392454198504
 21
15.34640572908006
 31
0.0
 11
194.724093695937
 21
15.34640572908006
 31
0.0
 11
194.8401107265044
 21
15.34640572908006
 31
0.0
 11
194.9665173418988
 21
15.34640572908006
 31
0.0
 11
195.0825343724662
 21
15.34640572908006
 31
0.0
 11
195.1673826485529
 21
15.34640572908006
 31
0.0
 11
195.2002830005048
 21
15.34640572908006
 31
0.0
 11
195.2002830005048
 21
15.37650011731366
 31
0.0
 11
195.2002830005048
 21
15.4571530777797
 31
0.0
 11
195.2002830005048
 21
15.57391930412607
 31
0.0
 11
195.2002830005048
 21
15.71235349000062
 31
0.0
 11
195.2002830005048
 21
15.85801032905124
 31
0.0
 11
195.2002830005048
 21
15.99644451492579
 31
0.0
 11
195.2002830005048
 21
16.11321074127216
 31
0.0
 11
195.2002830005048
 21
16.1938637017382
 31
0.0
 11
195.2002830005048
 21
16.2239580899718
 31
0.0
 11
195.2250405288618
 21
16.22228324219444
 31
0.0
 11
195.2840777118669
 21
16.21828937441768
 31
0.0
 11
195.3545414464214
 21
16.21352249997443
 31
0.0
 11
195.4135786294265
 21
16.20952863219766
 31
0.0
 11
195.4383361577835
 21
16.20785378442031
 31
0.0
 11
195.423306722403
 21
16.18415814206512
 31
0.0
 11
195.3821827564383
 21
16.17047697887398
 31
0.0
 11
195.3821827564383
 21
16.14221664794826
 31
0.0
 11
195.3821827564383
 21
16.06647896106734
 31
0.0
 11
195.3821827564383
 21
15.95682887707556
 31
0.0
 11
195.3821827564383
 21
15.82683135481726
 31
0.0
 11
195.3821827564383
 21
15.69005135313678
 31
0.0
 11
195.3821827564383
 21
15.56005383087848
 31
0.0
 11
195.3821827564383
 21
15.4504037468867
 31
0.0
 11
195.3821827564383
 21
15.37466606000578
 31
0.0
 11
195.3821827564383
 21
15.34640572908006
 31
0.0
 11
195.4149350096115
 21
15.34640572908006
 31
0.0
 11
195.4994013467422
 21
15.34640572908006
 31
0.0
 11
195.6148961342476
 21
15.34640572908006
 31
0.0
 11
195.7407337385445
 21
15.34640572908006
 31
0.0
 11
195.8562285260498
 21
15.34640572908006
 31
0.0
 11
195.9406948631806
 21
15.34640572908006
 31
0.0
 11
195.9734471163538
 21
15.34640572908006
 31
0.0
 11
195.9734471163538
 21
15.31924873038894
 31
0.0
 11
195.9734471163538
 21
15.25950333326847
 31
0.0
 11
195.9734471163538
 21
15.199757936148
 31
0.0
 11
195.9734471163538
 21
15.17260093745688
 31
0.0
 11
195.9406948631806
 21
15.17260093745688
 31
0.0
 11
195.8562285260498
 21
15.17260093745688
 31
0.0
 11
195.7407337385445
 21
15.17260093745688
 31
0.0
 11
195.6148961342476
 21
15.17260093745688
 31
0.0
 11
195.4994013467422
 21
15.17260093745688
 31
0.0
 11
195.4149350096114
 21
15.17260093745688
 31
0.0
 11
195.3821827564383
 21
15.17260093745688
 31
0.0
 11
195.3821827564383
 21
15.1401630560761
 31
0.0
 11
195.3821827564383
 21
15.05211737804256
 31
0.0
 11
195.3821827564383
 21
14.92236585251944
 31
0.0
 11
195.3821827564383
 21
14.76481042866994
 31
0.0
 11
195.3821827564383
 21
14.59335305565725
 31
0.0
 11
195.3821827564383
 21
14.42189568264456
 31
0.0
 11
195.3821827564383
 21
14.26434025879506
 31
0.0
 11
195.3821827564383
 21
14.13458873327194
 31
0.0
 11
195.3821827564383
 21
14.0465430552384
 31
0.0
 11
195.3821827564383
 21
14.01410517385762
 31
0.0
  0
SPLINE
  5
CA
102
{ACAD_REACTORS
330
E7
102
}
330
48
100
AcDbEntity
  8
_U_30EC_U_30A4_U_30E4_U_30FC_1
  6
Continuous
 62
     2
100
AcDbSpline
210
0.0
220
0.0
230
1.0
 70
     8
 71
     3
 72
    62
 73
    58
 74
    56
 42
0.000000001
 43
0.0000000001
 44
0.00000001
 40
0.0
 40
0.0
 40
0.0
 40
0.0
 40
0.0598250028308485
 40
0.2024846486897047
 40
0.3727558389220178
 40
0.5154154847935217
 40
0.5752404975784486
 40
0.9332326775486529
 40
1.29045176283941
 40
1.602077253145802
 40
1.699931634112079
 40
1.799359756424986
 40
2.270120149657047
 40
2.804661928461467
 40
2.882342287383178
 40
3.076543185719029
 40
3.329004354835487
 40
3.581465524568312
 40
3.775666424543592
 40
3.853346784558212
 40
3.899120679594958
 40
3.984129341791956
 40
4.029903236817304
 40
4.105797496059456
 40
4.295533144152408
 40
4.542189486611642
 40
4.78884582887558
 40
4.978581476409957
 40
5.054475735244198
 40
5.621734664339147
 40
6.130867242037181
 40
6.225249780948448
 40
6.31891303972712
 40
6.663579954558754
 40
7.0474989002246
 40
7.43523079157549
 40
7.498943906667874
 40
7.650875181209868
 40
7.832212509001321
 40
7.984143783696707
 40
8.047856898902834
 40
8.09155463273234
 40
8.172707566963997
 40
8.21640530076772
 40
8.289021782160605
 40
8.462184160756978
 40
8.668861838005059
 40
8.84202421526365
 40
8.914640695474846
 40
8.989881580861041
 40
9.155411528826924
 40
9.320941477743682
 40
9.396182352486925
 40
9.454709011143471
 40
9.583467660170406
 40
9.712226309012685
 40
9.770752957989139
 40
9.770752957989139
 40
9.770752957989139
 40
9.770752957989139
 10
187.1521871691832
 20
14.93980288195951
 30
0.0
 10
187.1322348171623
 20
14.93980875568673
 30
0.0
 10
187.0647037716464
 20
14.93982863806158
 30
0.0
 10
186.9410612161788
 20
14.93949362520327
 30
0.0
 10
186.7863180150056
 20
14.94107673750513
 30
0.0
 10
186.6697349482479
 20
14.93686078860496
 30
0.0
 10
186.4550942634241
 20
14.95215205331627
 30
0.0
 10
186.8518948407229
 20
14.59198721286192
 30
0.0
 10
186.8945656069266
 20
14.37510503397163
 30
0.0
 10
187.3189162146612
 20
14.19325062511449
 30
0.0
 10
187.1439821496074
 20
14.08985196568069
 30
0.0
 10
187.0194523925084
 20
13.87831523212723
 30
0.0
 10
186.7666277235943
 20
14.3480608100156
 30
0.0
 10
186.4797602893628
 20
14.99511516984517
 30
0.0
 10
186.4906335926659
 20
14.6878267215469
 30
0.0
 10
186.488289277796
 20
14.52288616971775
 30
0.0
 10
186.4861096126411
 20
14.2887967071169
 30
0.0
 10
186.4980774396346
 20
14.0449807242178
 30
0.0
 10
186.468798474063
 20
13.89855796860981
 30
0.0
 10
186.511452262547
 20
13.75113490174535
 30
0.0
 10
186.4239814005639
 20
13.76685797306217
 30
0.0
 10
186.3768527606745
 20
13.76694303543452
 30
0.0
 10
186.2898973207712
 20
13.75109425482906
 30
0.0
 10
186.3313474021722
 20
13.89527771422759
 30
0.0
 10
186.3029875004285
 20
14.03855052698451
 30
0.0
 10
186.31459737753
 20
14.2767494736526
 30
0.0
 10
186.3124175648272
 20
14.50517235240341
 30
0.0
 10
186.3103111127994
 20
14.66705729375988
 30
0.0
 10
186.3208035438324
 20
14.98153709333743
 30
0.0
 10
186.0128963252892
 20
14.29229470872435
 30
0.0
 10
185.7055258267457
 20
13.81476750243048
 30
0.0
 10
185.5851367066274
 20
14.03741112637427
 30
0.0
 10
185.4074607910722
 20
14.15011034955562
 30
0.0
 10
185.8853326362893
 20
14.32548143465466
 30
0.0
 10
185.9353959057208
 20
14.56091929252031
 30
0.0
 10
186.3583799621715
 20
14.95322989344607
 30
0.0
 10
186.127675427354
 20
14.93655307029067
 30
0.0
 10
186.004968585934
 20
14.94269518948772
 30
0.0
 10
185.8325483095661
 20
14.93312822699574
 30
0.0
 10
185.7213224694449
 20
14.95448818489667
 30
0.0
 10
185.6025779627448
 20
14.92136265357421
 30
0.0
 10
185.6183169706686
 20
15.00203900606884
 30
0.0
 10
185.6178550933762
 20
15.04645414290855
 30
0.0
 10
185.6027881889931
 20
15.12967081778534
 30
0.0
 10
185.7372380935443
 20
15.09062651983884
 30
0.0
 10
185.8619755545747
 20
15.11739729328423
 30
0.0
 10
186.062875523728
 20
15.10063949044053
 30
0.0
 10
186.1921540949353
 20
15.12204225913005
 30
0.0
 10
186.3328419928294
 20
15.08868778853421
 30
0.0
 10
186.2980927452615
 20
15.22651875785067
 30
0.0
 10
186.3222185666713
 20
15.34963257349478
 30
0.0
 10
186.2967086182392
 20
15.47024055670331
 30
0.0
 10
186.3333251146685
 20
15.60539865141489
 30
0.0
 10
186.2211417027769
 20
15.58094545781884
 30
0.0
 10
186.1280356457136
 20
15.59307749842017
 30
0.0
 10
186.0191547579819
 20
15.58957630069986
 30
0.0
 10
185.9569697640964
 20
15.58981755951597
 30
0.0
 10
185.9375369557246
 20
15.58989295124138
 30
0.0
 11
187.1521871691832
 21
14.93980288195951
 31
0.0
 11
187.0923621563981
 21
14.93980288195951
 31
0.0
 11
186.9497025105259
 21
14.93980288195951
 31
0.0
 11
186.7794313202913
 21
14.93980288195951
 31
0.0
 11
186.6367716744191
 21
14.93980288195951
 31
0.0
 11
186.576946661634
 21
14.93980288195951
 31
0.0
 11
186.7679960754842
 21
14.6370512796689
 31
0.0
 11
186.994127278563
 21
14.36051890576683
 31
0.0
 11
187.2244526173371
 21
14.15061253493457
 31
0.0
 11
187.1521596330704
 21
14.08466403668713
 31
0.0
 11
187.0879364402643
 21
14.00876059052558
 31
0.0
 11
186.7732818215558
 21
14.35891458349364
 31
0.0
 11
186.4886640249976
 21
14.81138295143597
 31
0.0
 11
186.4886640249976
 21
14.73370259137309
 31
0.0
 11
186.4886640249976
 21
14.53950169121589
 31
0.0
 11
186.4886640249976
 21
14.28704052101153
 31
0.0
 11
186.4886640249976
 21
14.03457935080717
 31
0.0
 11
186.4886640249976
 21
13.84037845064997
 31
0.0
 11
186.4886640249976
 21
13.76269809058709
 31
0.0
 11
186.4428901295605
 21
13.76269809058709
 31
0.0
 11
186.3578814666058
 21
13.76269809058709
 31
0.0
 11
186.3121075711687
 21
13.76269809058709
 31
0.0
 11
186.3121075711687
 21
13.83859234982737
 31
0.0
 11
186.3121075711687
 21
14.02832799792807
 31
0.0
 11
186.3121075711687
 21
14.27498434045899
 31
0.0
 11
186.3121075711687
 21
14.5216406829899
 31
0.0
 11
186.3121075711687
 21
14.7113763310906
 31
0.0
 11
186.3121075711687
 21
14.78727059033088
 31
0.0
 11
185.9987626399266
 21
14.31440946197694
 31
0.0
 11
185.6352328662148
 21
13.9579517710938
 31
0.0
 11
185.5773927461627
 21
14.03253450545023
 31
0.0
 11
185.5094852305341
 21
14.0970432293924
 31
0.0
 11
185.7750721898319
 21
14.31672219795893
 31
0.0
 11
186.0233764972061
 21
14.609533959717
 31
0.0
 11
186.2264982805259
 21
14.93980288195951
 31
0.0
 11
186.162785165272
 21
14.93980288195951
 31
0.0
 11
186.0108538904358
 21
14.93980288195951
 31
0.0
 11
185.8295165624055
 21
14.93980288195951
 31
0.0
 11
185.6775852875693
 21
14.93980288195951
 31
0.0
 11
185.6138721723154
 21
14.93980288195951
 31
0.0
 11
185.6138721723154
 21
14.98350061600209
 31
0.0
 11
185.6138721723154
 21
15.0646535506526
 31
0.0
 11
185.6138721723154
 21
15.10835128469518
 31
0.0
 11
185.6864886537961
 21
15.10835128469518
 31
0.0
 11
185.8596510327118
 21
15.10835128469518
 31
0.0
 11
186.0663287107723
 21
15.10835128469518
 31
0.0
 11
186.239491089688
 21
15.10835128469518
 31
0.0
 11
186.3121075711687
 21
15.10835128469518
 31
0.0
 11
186.3121075711687
 21
15.18359217009302
 31
0.0
 11
186.3121075711687
 21
15.34912211796828
 31
0.0
 11
186.3121075711687
 21
15.51465206584353
 31
0.0
 11
186.3121075711687
 21
15.58989295124138
 31
0.0
 11
186.2535809125055
 21
15.58989295124138
 31
0.0
 11
186.1248222634467
 21
15.58989295124138
 31
0.0
 11
185.9960636143877
 21
15.58989295124138
 31
0.0
 11
185.9375369557246
 21
15.58989295124138
 31
0.0
  0
SPLINE
  5
CB
102
{ACAD_REACTORS
330
E7
102
}
330
48
100
AcDbEntity
  8
_U_30EC_U_30A4_U_30E4_U_30FC_1
  6
Continuous
 62
     2
100
AcDbSpline
210
0.0
220
0.0
230
1.0
 70
     8
 71
     3
 72
    70
 73
    66
 74
    64
 42
0.000000001
 43
0.0000000001
 44
0.00000001
 40
0.0
 40
0.0
 40
0.0
 40
0.0
 40
0.0241731073021472
 40
0.0846058988987013
 40
0.1631685280353284
 40
0.2417311571789756
 40
0.3021639488292751
 40
0.3263370654895541
 40
0.3533118254248863
 40
0.4228783438922058
 40
0.5179999095313278
 40
0.6216398239465925
 40
0.7167613891499457
 40
0.7863279069649579
 40
0.8133026791761516
 40
0.8372943998771359
 40
0.8945054261372565
 40
0.9627895541962345
 40
1.020000580349045
 40
1.043992300975144
 40
1.071934345522877
 40
1.113121768772886
 40
1.145225199332204
 40
1.225483775412725
 40
1.329819923771415
 40
1.434156071994284
 40
1.514414647795689
 40
1.546518078208292
 40
1.578974764260065
 40
1.66267884931406
 40
1.777131373668281
 40
1.901833377474672
 40
2.016285900500462
 40
2.099989982527829
 40
2.132446666570187
 40
2.158782354485929
 40
2.21672086790776
 40
2.274659381334224
 40
2.300995069256178
 40
2.33345175406615
 40
2.417155836543831
 40
2.53160835898527
 40
2.656310362283765
 40
2.770762886388898
 40
2.854466971340063
 40
2.886923657363869
 40
2.9135979768333
 40
2.982389642875091
 40
3.076451716946945
 40
3.178937260458541
 40
3.272999334739932
 40
3.341791001059145
 40
3.368465320663454
 40
3.396976080738675
 40
3.472140811845911
 40
3.5784081903086
 40
3.700226892456008
 40
3.822045594634226
 40
3.928312973256304
 40
4.003477705314673
 40
4.031988456866738
 40
4.058324144797536
 40
4.116262658236698
 40
4.174201171400497
 40
4.200536849608429
 40
4.200536849608429
 40
4.200536849608429
 40
4.200536849608429
 10
185.9857704961609
 20
15.75844135397711
 30
0.0
 10
185.9938259544679
 20
15.75844359811692
 30
0.0
 10
186.0220200663241
 20
15.75845146032804
 30
0.0
 10
186.0765534803672
 20
15.75830754828377
 30
0.0
 10
186.1482891808604
 20
15.75909120499903
 30
0.0
 10
186.2236240137062
 20
15.75627570463817
 30
0.0
 10
186.2713052366439
 20
15.76298403400963
 30
0.0
 10
186.3195071245616
 20
15.75197563692439
 30
0.0
 10
186.3062571799873
 20
15.80546402997039
 30
0.0
 10
186.3151093964538
 20
15.86049583543097
 30
0.0
 10
186.3108698036285
 20
15.95419908726114
 30
0.0
 10
186.313348348128
 20
16.04959482218536
 30
0.0
 10
186.309093870606
 20
16.14356821983391
 30
0.0
 10
186.3179818665846
 20
16.19795062438015
 30
0.0
 10
186.3046977409945
 20
16.25233997691463
 30
0.0
 10
186.3514119277109
 20
16.2384221633536
 30
0.0
 10
186.3943254545737
 20
16.24103877374044
 30
0.0
 10
186.4605443456684
 20
16.23648422450754
 30
0.0
 10
186.5013342271798
 20
16.2277816213416
 30
0.0
 10
186.5525145690819
 20
16.23531799890192
 30
0.0
 10
186.52537204872
 20
16.19349970223282
 30
0.0
 10
186.4803096055706
 20
16.20284992072594
 30
0.0
 10
186.4942065045051
 20
16.13841207371836
 30
0.0
 10
186.4858414431653
 20
16.07378219627399
 30
0.0
 10
186.4903632178398
 20
15.97529141193889
 30
0.0
 10
186.4854741311167
 20
15.87595932842574
 30
0.0
 10
186.4950258992081
 20
15.81293115552973
 30
0.0
 10
186.47997614552
 20
15.74964011499795
 30
0.0
 10
186.5449159457208
 20
15.76515072944275
 30
0.0
 10
186.6116246399497
 20
15.75499387697818
 30
0.0
 10
186.7241435470827
 20
15.75988800099373
 30
0.0
 10
186.8390235448954
 20
15.7569120473279
 30
0.0
 10
186.9519871999747
 20
15.76221664184996
 30
0.0
 10
187.0176267597677
 20
15.75107306472095
 30
0.0
 10
187.0816276691053
 20
15.76744532319863
 30
0.0
 10
187.0703142889189
 20
15.71761689905277
 30
0.0
 10
187.077533987151
 20
15.67416715212123
 30
0.0
 10
187.0703142611269
 20
15.63071745587442
 30
0.0
 10
187.0816277175994
 20
15.58088895196871
 30
0.0
 10
187.0176263598972
 20
15.59726166091356
 30
0.0
 10
186.9519921240459
 20
15.58611271661582
 30
0.0
 10
186.838997431733
 20
15.59144857206848
 30
0.0
 10
186.7242456548644
 20
15.58834345663816
 30
0.0
 10
186.611318368686
 20
15.59364894682583
 30
0.0
 10
186.5455220903584
 20
15.58257300019587
 30
0.0
 10
186.4816097975358
 20
15.59887597847612
 30
0.0
 10
186.4936015165125
 20
15.54423524395736
 30
0.0
 10
186.4862104613006
 20
15.48854295047838
 30
0.0
 10
186.4892684841983
 20
15.39649689140567
 30
0.0
 10
186.4893422785683
 20
15.30179109873099
 30
0.0
 10
186.486031357836
 20
15.20952782902265
 30
0.0
 10
186.4939505989904
 20
15.1543576873614
 30
0.0
 10
186.4815076611617
 20
15.10058169100136
 30
0.0
 10
186.5389116551632
 20
15.11453768862783
 30
0.0
 10
186.5994708140382
 20
15.10511457884227
 30
0.0
 10
186.7048680855081
 20
15.10942885928705
 30
0.0
 10
186.8204294070622
 20
15.10835504612032
 30
0.0
 10
186.9359688877796
 20
15.10725965900996
 30
0.0
 10
187.041418113084
 20
15.11162525770633
 30
0.0
 10
187.1018680471803
 20
15.10209426030672
 30
0.0
 10
187.1592837739109
 20
15.1161728960638
 30
0.0
 10
187.1477773876708
 20
15.06707153265684
 30
0.0
 10
187.1537566781748
 20
15.0256465801865
 30
0.0
 10
187.1520311050801
 20
14.97651677966696
 30
0.0
 10
187.1521500122971
 20
14.94854428447609
 30
0.0
 10
187.1521871691832
 20
14.93980288195951
 30
0.0
 11
185.9857704961609
 21
15.75844135397711
 31
0.0
 11
186.0099436128282
 21
15.75844135397711
 31
0.0
 11
186.0703764044962
 21
15.75844135397711
 31
0.0
 11
186.1489390336648
 21
15.75844135397711
 31
0.0
 11
186.2275016628334
 21
15.75844135397711
 31
0.0
 11
186.2879344545015
 21
15.75844135397711
 31
0.0
 11
186.3121075711687
 21
15.75844135397711
 31
0.0
 11
186.3121075711687
 21
15.78541612620069
 31
0.0
 11
186.3121075711687
 21
15.85498264404044
 31
0.0
 11
186.3121075711687
 21
15.9501042092499
 31
0.0
 11
186.3121075711687
 21
16.0537441235826
 31
0.0
 11
186.3121075711687
 21
16.14886568879206
 31
0.0
 11
186.3121075711687
 21
16.21843220663181
 31
0.0
 11
186.3121075711687
 21
16.24540697885539
 31
0.0
 11
186.3360407604892
 21
16.24373213107802
 31
0.0
 11
186.3931122119458
 21
16.23973826330122
 31
0.0
 11
186.461229750781
 21
16.23497138885795
 31
0.0
 11
186.5183012022376
 21
16.23097752108115
 31
0.0
 11
186.5422343915581
 21
16.22930267330378
 31
0.0
 11
186.5274972731229
 21
16.20556293372637
 31
0.0
 11
186.4886640249976
 21
16.1918376733131
 31
0.0
 11
186.4886640249976
 21
16.15973424225117
 31
0.0
 11
186.4886640249976
 21
16.07947566459636
 31
0.0
 11
186.4886640249976
 21
15.9751395136451
 31
0.0
 11
186.4886640249976
 21
15.87080336269385
 31
0.0
 11
186.4886640249976
 21
15.79054478503904
 31
0.0
 11
186.4886640249976
 21
15.75844135397711
 31
0.0
 11
186.5211207110824
 21
15.75844135397711
 31
0.0
 11
186.6048247962486
 21
15.75844135397711
 31
0.0
 11
186.7192773208634
 21
15.75844135397711
 31
0.0
 11
186.8439793252946
 21
15.75844135397711
 31
0.0
 11
186.9584318499095
 21
15.75844135397711
 31
0.0
 11
187.0421359350756
 21
15.75844135397711
 31
0.0
 11
187.0745926211604
 21
15.75844135397711
 31
0.0
 11
187.0745926211604
 21
15.73210566604965
 31
0.0
 11
187.0745926211604
 21
15.67416715260924
 31
0.0
 11
187.0745926211604
 21
15.61622863916884
 31
0.0
 11
187.0745926211604
 21
15.58989295124138
 31
0.0
 11
187.0421359350756
 21
15.58989295124138
 31
0.0
 11
186.9584318499095
 21
15.58989295124138
 31
0.0
 11
186.8439793252946
 21
15.58989295124138
 31
0.0
 11
186.7192773208634
 21
15.58989295124138
 31
0.0
 11
186.6048247962485
 21
15.58989295124138
 31
0.0
 11
186.5211207110824
 21
15.58989295124138
 31
0.0
 11
186.4886640249976
 21
15.58989295124138
 31
0.0
 11
186.4886640249976
 21
15.56321863152016
 31
0.0
 11
186.4886640249976
 21
15.4944269648707
 31
0.0
 11
186.4886640249976
 21
15.4003648900643
 31
0.0
 11
186.4886640249976
 21
15.29787934587226
 31
0.0
 11
186.4886640249976
 21
15.20381727106586
 31
0.0
 11
186.4886640249976
 21
15.1350256044164
 31
0.0
 11
186.4886640249976
 21
15.10835128469518
 31
0.0
 11
186.5171747850993
 21
15.10835128469518
 31
0.0
 11
186.5923395162766
 21
15.10835128469518
 31
0.0
 11
186.6986068948376
 21
15.10835128469518
 31
0.0
 11
186.8204255970904
 21
15.10835128469518
 31
0.0
 11
186.9422442993433
 21
15.10835128469518
 31
0.0
 11
187.0485116779042
 21
15.10835128469518
 31
0.0
 11
187.1236764090815
 21
15.10835128469518
 31
0.0
 11
187.1521871691832
 21
15.10835128469518
 31
0.0
 11
187.1521871691832
 21
15.08201559676773
 31
0.0
 11
187.1521871691832
 21
15.02407708332735
 31
0.0
 11
187.1521871691832
 21
14.96613856988696
 31
0.0
 11
187.1521871691832
 21
14.93980288195951
 31
0.0
  0
SPLINE
  5
CC
102
{ACAD_REACTORS
330
E7
102
}
330
48
100
AcDbEntity
  8
_U_30EC_U_30A4_U_30E4_U_30FC_1
  6
Continuous
 62
     2
100
AcDbSpline
210
0.0
220
0.0
230
1.0
 70
     8
 71
     3
 72
    24
 73
    20
 74
    18
 42
0.000000001
 43
0.0000000001
 44
0.00000001
 40
0.0
 40
0.0
 40
0.0
 40
0.0
 40
0.2211075008752919
 40
0.4273218586244958
 40
0.5080174679239037
 40
0.591483590786998
 40
0.8143265690192447
 40
1.054651302686547
 40
1.295452694023139
 40
1.518109231328841
 40
1.540864321905457
 40
1.595126460622661
 40
1.659890947895947
 40
1.714153085187278
 40
1.736908174961578
 40
1.764951100735225
 40
1.801562291220789
 40
1.953914424543463
 40
2.126104167379485
 40
2.126104167379485
 40
2.126104167379485
 40
2.126104167379485
 10
185.9375369556889
 20
15.58989295113008
 30
0.0
 10
185.9112579081811
 20
15.53097628234369
 30
0.0
 10
185.8604698894425
 20
15.41711139679254
 30
0.0
 10
185.8131784839111
 20
15.14441958233109
 30
0.0
 10
185.7043482802618
 20
15.24445482575452
 30
0.0
 10
185.5514800279637
 20
15.2711859336733
 30
0.0
 10
185.7686155181199
 20
15.4851813501763
 30
0.0
 10
185.7838483674381
 20
15.70332117782485
 30
0.0
 10
185.8906889492
 20
15.88451579066424
 30
0.0
 10
185.8305380947079
 20
16.16913226311407
 30
0.0
 10
185.9334317395401
 20
16.14114089222453
 30
0.0
 10
185.9779933468149
 20
16.13243251602302
 30
0.0
 10
186.0380842395395
 20
16.12139654183358
 30
0.0
 10
186.0756619587437
 20
16.10767523055561
 30
0.0
 10
186.1252466928604
 20
16.10756076160228
 30
0.0
 10
186.0930158919325
 20
16.07306592398623
 30
0.0
 10
186.017180222188
 20
16.08404104537963
 30
0.0
 10
186.0429447159694
 20
15.89858969582454
 30
0.0
 10
186.0055896763849
 20
15.80702313549593
 30
0.0
 10
185.9857704961609
 20
15.75844135397711
 30
0.0
 11
185.9375369556889
 21
15.58989295113008
 31
0.0
 11
185.8616471328552
 21
15.38221708318562
 31
0.0
 11
185.7717402238433
 21
15.19663392356188
 31
0.0
 11
185.701149392311
 21
15.23573272563548
 31
0.0
 11
185.6245525192651
 21
15.26889163187718
 31
0.0
 11
185.7214026947455
 21
15.46958801203536
 31
0.0
 11
185.7994641467471
 21
15.69688163177021
 31
0.0
 11
185.858971692972
 21
15.93021436608689
 31
0.0
 11
185.9001601511226
 21
16.14902808999057
 31
0.0
 11
185.9224183822214
 21
16.14429889221397
 31
0.0
 11
185.9754957025339
 21
16.13302157443902
 31
0.0
 11
186.0388460525843
 21
16.11956154999795
 31
0.0
 11
186.0919233728969
 21
16.108284232223
 31
0.0
 11
186.1141816039957
 21
16.1035550344464
 31
0.0
 11
186.096409715746
 21
16.08186250841011
 31
0.0
 11
186.0606122998071
 21
16.07418628445367
 31
0.0
 11
186.0281953301479
 21
15.92532288171315
 31
0.0
 11
185.9857704961609
 21
15.75844135397711
 31
0.0
  0
LWPOLYLINE
  5
CD
102
{ACAD_REACTORS
330
E8
102
}
330
48
100
AcDbEntity
  8
_U_30EC_U_30A4_U_30E4_U_30FC_1
  6
Continuous
 62
     2
100
AcDbPolyline
 90
        5
 70
     1
 43
0.0
 10
191.1602971697031
 20
15.39722336795632
 10
192.4578138032672
 20
15.39722336795632
 10
192.4578138032672
 20
15.22875434022058
 10
191.1602971697031
 20
15.22875434022058
 10
191.1602971697031
 20
15.39722336795632
  0
MTEXT
  5
CF
330
48
100
AcDbEntity
  8
1
 62
   250
100
AcDbMText
 10
25.0
 20
5.0
 30
0.0
 40
3.5
 41
0.0
 71
     4
 72
     1
  1
備考欄の文字列 原点位置=4
  7
CONVERTER_11
 73
     1
 44
0.54545454545455
  0
MTEXT
  5
D0
330
48
100
AcDbEntity
  8
1
 62
     2
100
AcDbMText
 10
89.5
 20
24.0
 30
0.0
 40
3.5
 41
0.0
 71
     5
 72
     1
  1
尺度
  7
CONVERTER_11
 73
     1
 44
0.54545454545455
  0
MTEXT
  5
D1
330
48
100
AcDbEntity
  8
1
 62
     2
100
AcDbMText
 10
135.5
 20
25.0
 30
0.0
 40
3.0
 41
0.0
 71
     5
 72
     1
  1
製図
  7
CONVERTER_11
 73
     1
 44
0.59090909090909
  0
MTEXT
  5
D2
330
48
100
AcDbEntity
  8
1
 62
     2
100
AcDbMText
 10
152.4999999999999
 20
25.0
 30
0.0
 40
3.0
 41
0.0
 71
     5
 72
     1
  1
設計
  7
CONVERTER_11
 73
     1
 44
0.59090909090909
  0
MTEXT
  5
D3
330
48
100
AcDbEntity
  8
1
 62
     2
100
AcDbMText
 10
118.5
 20
25.0
 30
0.0
 40
3.0
 41
0.0
 71
     5
 72
     1
  1
検図
  7
CONVERTER_11
 73
     1
 44
0.59090909090909
  0
MTEXT
  5
D4
330
48
100
AcDbEntity
  8
1
 62
     2
100
AcDbMText
 10
174.9999999999999
 20
23.5
 30
0.0
 40
3.5
 41
0.0
 71
     5
 72
     1
  1
第三角法
  7
CONVERTER_11
 73
     1
 44
0.54545454545455
  0
MTEXT
  5
D5
330
48
100
AcDbEntity
  8
1
 62
     2
100
AcDbMText
 10
101.5
 20
25.0
 30
0.0
 40
3.0
 41
0.0
 71
     5
 72
     1
  1
承認
  7
CONVERTER_11
 73
     1
 44
0.59090909090909
  0
MTEXT
  5
D6
330
48
100
AcDbEntity
  8
1
 62
     2
100
AcDbMText
 10
29.0
 20
14.25
 30
0.0
 40
3.5
 41
0.0
 71
     5
 72
     1
  1
品番
  7
CONVERTER_11
 73
     1
 44
0.72727272727273
  0
MTEXT
  5
D7
330
48
100
AcDbEntity
  8
1
 62
     2
100
AcDbMText
 10
29.0
 20
22.75
 30
0.0
 40
3.5
 41
0.0
 71
     5
 72
     1
  1
品名
  7
CONVERTER_11
 73
     1
 44
0.72727272727273
  0
MTEXT
  5
D8
330
48
100
AcDbEntity
  8
1
 62
     2
100
AcDbMText
 10
29.0
 20
34.0
 30
0.0
 40
3.5
 41
0.0
 71
     5
 72
     1
  1
備考
  7
CONVERTER_11
 73
     1
 44
0.45454545454545
  0
MTEXT
  5
D9
330
48
100
AcDbEntity
  8
1
 62
     2
100
AcDbMText
 10
32.5
 20
282.0000000000003
 30
0.0
 40
5.0
 41
0.0
 71
     5
 72
     1
  1
図番
  7
CONVERTER_11
 73
     1
 44
0.45454545454545
  0
HATCH
  5
DA
330
48
100
AcDbEntity
  8
1
  6
Continuous
 62
     2
100
AcDbHatch
 10
0.0
 20
0.0
 30
0.0
210
0.0
220
0.0
230
1.0
  2
CUSTOM0
 70
     0
 71
     1
 91
        1
 92
        1
 93
        1
 72
     4
 94
        3
 73
     0
 74
     0
 95
       99
 96
       95
 40
0.0
 40
0.0
 40
0.0
 40
0.0
 40
0.079641717227329
 40
0.1621768542356229
 40
0.2486489160959002
 40
0.3404969668525837
 40
0.4381912511165855
 40
0.543446366024619
 40
0.6518115192847969
 40
0.7530190937888012
 40
0.8492196919726471
 40
0.9419290312999398
 40
1.034249663570168
 40
1.129078600620315
 40
1.226697027573373
 40
1.327220425421852
 40
1.470572134938128
 40
1.595489863371362
 40
1.719934125348574
 40
1.850576620127646
 40
1.989059629987441
 40
2.134139054227057
 40
2.280698007207331
 40
2.424529739039617
 40
2.56592957698597
 40
2.708239260773769
 40
2.861717887443855
 40
3.045168540347483
 40
3.183798301138776
 40
3.314813961455649
 40
3.442083470447483
 40
3.569912708373082
 40
3.702177512509496
 40
3.842307559659732
 40
3.992872223246084
 40
4.156750662218532
 40
4.3109818611077
 40
4.445859909322799
 40
4.572393936131772
 40
4.701656719782196
 40
4.768279086008739
 40
4.835960697898618
 40
4.912788918729597
 40
5.006285208481791
 40
5.026909478751924
 40
5.047533749021546
 40
5.101808031471602
 40
5.162325165538934
 40
5.226919745996213
 40
5.29423180659702
 40
5.364544852555175
 40
5.438319055468205
 40
5.517877651324563
 40
5.60764771486188
 40
5.700449642544733
 40
5.788251142364574
 40
5.872714706040139
 40
5.955167292575728
 40
6.037192395190742
 40
6.120669181469428
 40
6.206848616686654
 40
6.296680855417128
 40
6.442558392872954
 40
6.568190371608654
 40
6.692904567360723
 40
6.824220446557502
 40
6.963121850329709
 40
7.107843738851479
 40
7.253431663907641
 40
7.395187468037091
 40
7.533140753238086
 40
7.670550457175651
 40
7.81623651176964
 40
7.987691657359595
 40
8.14227742196965
 40
8.293662615415348
 40
8.442962460879645
 40
8.59159831618567
 40
8.743678992362176
 40
8.90372532369956
 40
9.07630700889093
 40
9.265578604680957
 40
9.459203795361132
 40
9.617619810273997
 40
9.75360967136232
 40
9.874873300004483
 40
9.954520184978161
 40
10.0241641371929
 40
10.09769764405479
 40
10.18909955925009
 40
10.2097458642017
 40
10.23039218263416
 40
10.300571018813
 40
10.37632012987571
 40
10.37632012987571
 40
10.37632012987571
 40
10.37632012987571
 10
170.146595483585
 20
14.13795663216001
 10
170.1632217851219
 20
14.1172060884532
 10
170.1970784206577
 20
14.07495111711912
 10
170.2599822541035
 20
14.02029811392064
 10
170.3332500940393
 20
13.9729902512105
 10
170.4175969238636
 20
13.93527231437934
 10
170.5132240615459
 20
13.91040619731953
 10
170.6171853775345
 20
13.90309559345929
 10
170.7224020220405
 20
13.91142322794056
 10
170.8206626371334
 20
13.94149179651521
 10
170.9058986427548
 20
13.98848822971878
 10
170.9779220206103
 20
14.04952991250855
 10
171.0350917709096
 20
14.12412969578582
 10
171.0767868747439
 20
14.21002464660172
 10
171.1026952846292
 20
14.30485850432213
 10
171.1118037332652
 20
14.41854979038366
 10
171.0986864796487
 20
14.54332587770779
 10
171.0325330334414
 20
14.66014719171895
 10
170.9369370919568
 20
14.74512539577377
 10
170.8249681022368
 20
14.81416684459163
 10
170.6993659583269
 20
14.87204142045893
 10
170.5656691620856
 20
14.92373723284341
 10
170.431312281883
 20
14.97899092397176
 10
170.3051983986877
 20
15.04939770641649
 10
170.1926579987535
 20
15.13785540731251
 10
170.0969963064456
 20
15.24981067868468
 10
170.0334157151826
 20
15.39949910101385
 10
170.0200706505016
 20
15.5593279438514
 10
170.0320510987448
 20
15.71048405306844
 10
170.071229892884
 20
15.83809244591539
 10
170.135498775091
 20
15.95080874030841
 10
170.223820499974
 20
16.04648609268691
 10
170.3338091207627
 20
16.12354214985751
 10
170.4632284401264
 20
16.18151396936279
 10
170.6111838967793
 20
16.21739177588826
 10
170.7682069455486
 20
16.22746719050576
 10
170.917494046643
 20
16.2186363776259
 10
171.0596253614169
 20
16.1907489934036
 10
171.1595922609625
 20
16.13413314701138
 10
171.3125074736185
 20
16.0867460210551
 10
171.2455131717169
 20
16.00197553001183
 10
171.2296479120269
 20
15.93438901873483
 10
171.1978750531296
 20
15.86926092793192
 10
171.2150202209571
 20
15.7672345325695
 10
171.1666427208231
 20
15.77493211681901
 10
171.1315789440765
 20
15.76806771724804
 10
171.1296697985717
 20
15.83263831158197
 10
171.0985692931988
 20
15.87825639621396
 10
171.0664551628454
 20
15.9356103662845
 10
171.0208038475168
 20
15.98540462692558
 10
170.9658508218386
 20
16.02994813718994
 10
170.9010841173007
 20
16.06763988836543
 10
170.8232377310597
 20
16.09283375791355
 10
170.7355160553352
 20
16.09931230998123
 10
170.6452903277806
 20
16.09235709285604
 10
170.5594594694064
 20
16.06909190460928
 10
170.4828343638595
 20
16.03131644107538
 10
170.41652656362
 20
15.98051641089572
 10
170.3622560536964
 20
15.91731143407205
 10
170.3224925345459
 20
15.84276455710368
 10
170.2976775510587
 20
15.75917313997764
 10
170.289212426287
 20
15.65192948382285
 10
170.3019697987103
 20
15.52965457267559
 10
170.3681548409271
 20
15.41149724291198
 10
170.4640977399832
 20
15.32606325709532
 10
170.5757914963183
 20
15.25583362306731
 10
170.7010863668701
 20
15.19659162305303
 10
170.8349823941446
 20
15.14616708086129
 10
170.9689930333149
 20
15.09322516984382
 10
171.0950885316915
 20
15.02750170625178
 10
171.2076216638417
 20
14.94480352537313
 10
171.3031370284232
 20
14.83996006310073
 10
171.3672706486963
 20
14.69937117251567
 10
171.3811103725279
 20
14.5406540945159
 10
171.367395471223
 20
14.38153155217874
 10
171.3244739153984
 20
14.23483828819212
 10
171.2545906329066
 20
14.10119796587141
 10
171.1574592213829
 20
13.98532387699295
 10
171.0347806023657
 20
13.89089981770084
 10
170.8874408413167
 20
13.82179270651979
 10
170.7177132497125
 20
13.77953210858854
 10
170.5317404979596
 20
13.76781736230405
 10
170.3528955926183
 20
13.77809486683439
 10
170.1881733753742
 20
13.81966573769147
 10
170.0834410841057
 20
13.88797642883943
 10
169.9350960790365
 20
13.9367521903211
 10
169.9980378194729
 20
14.02976591290845
 10
170.0072274430059
 20
14.10296536248283
 10
170.0303711301231
 20
14.16936294501348
 10
170.0034588335317
 20
14.26974809527581
 10
170.0521338956339
 20
14.26234033517378
 10
170.0916530580697
 20
14.26894063620895
 10
170.0996204944702
 20
14.19078703218934
 10
170.1305436967922
 20
14.15600927375861
 10
170.146595483585
 20
14.13795663216001
 97
        1
330
BC
 75
     1
 76
     2
 52
45.0
 41
0.1
 77
     0
 78
     1
 53
45.0
 43
0.0
 44
0.0
 45
-0.282842712474619
 46
0.0
 79
     0
 98
        1
 10
0.0
 20
0.0
  0
HATCH
  5
DB
330
48
100
AcDbEntity
  8
1
  6
Continuous
 62
     2
100
AcDbHatch
 10
0.0
 20
0.0
 30
0.0
210
0.0
220
0.0
230
1.0
  2
CUSTOM1
 70
     0
 71
     1
 91
        2
 92
        1
 93
        1
 72
     4
 94
        3
 73
     0
 74
     0
 95
       57
 96
       53
 40
0.0
 40
0.0
 40
0.0
 40
0.0
 40
0.0471632082809768
 40
0.0914861054632129
 40
0.1357762519702365
 40
0.182652700161066
 40
0.2295203288572853
 40
0.273775197222159
 40
0.3181310461543626
 40
0.3652607198398473
 40
0.4571007286314512
 40
0.5671851029165627
 40
0.6894623283868629
 40
0.8181758272545725
 40
0.9510087229273912
 40
1.085852229674114
 40
1.218126164475326
 40
1.343545131142424
 40
1.454537202956839
 40
1.567187607530848
 40
1.680710966642495
 40
1.794226869736831
 40
1.900009184247659
 40
2.004085860448023
 40
2.108162674451826
 40
2.214000150155341
 40
2.496038577352218
 40
2.762350745479344
 40
2.997275353279515
 40
3.185110082137818
 40
3.246407890064043
 40
3.312607550212859
 40
3.378877742711734
 40
3.440140399651529
 40
4.10050169600653
 40
4.754913085563659
 40
5.411331693423999
 40
6.077890432568875
 40
6.110575292671154
 40
6.143260152775934
 40
6.367989363395376
 40
6.610525374951779
 40
6.863389136467554
 40
7.119380025547745
 40
7.376036605091328
 40
7.631164770966524
 40
7.876722425456679
 40
8.104953735856157
 40
8.31291668592453
 40
8.497730294941515
 40
8.651018984314078
 40
8.764738853624845
 40
8.764738853624845
 40
8.764738853624845
 40
8.764738853624845
 10
174.7922649500513
 20
13.81626739612926
 10
174.776661672693
 20
13.81826231079075
 10
174.7463947960302
 20
13.82213201360293
 10
174.7010994202252
 20
13.82341984967268
 10
174.6559553129349
 20
13.82308683554049
 10
174.6099017123399
 20
13.82314658674223
 10
174.5640496172096
 20
13.82325813649999
 10
174.5183711648164
 20
13.82277833456591
 10
174.4750811541608
 20
13.82461109618716
 10
174.4039947951514
 20
13.80049556814659
 10
174.4057477261441
 20
13.92184693977253
 10
174.3586196370568
 20
14.00726239751231
 10
174.3191478251761
 20
14.12486929345134
 10
174.2706635532645
 20
14.24232752540438
 10
174.2201017402522
 20
14.36405935761509
 10
174.1718634610477
 20
14.49075967862469
 10
174.1135232947594
 20
14.59933687784954
 10
174.0980892667261
 20
14.75620657134417
 10
173.9566586330635
 20
14.72373446548318
 10
173.8508397414903
 20
14.73512888682182
 10
173.7358569725222
 20
14.73392591514613
 10
173.625314225214
 20
14.73506945347407
 10
173.5176583522782
 20
14.73418350037524
 10
173.4121322529242
 20
14.73416602390522
 10
173.3109192682012
 20
14.72714032472411
 10
173.1266804827753
 20
14.75135859859877
 10
173.1157393685411
 20
14.44741691121883
 10
173.008769163475
 20
14.22353177253398
 10
172.9098148604346
 20
14.03895314292494
 10
172.9225090524007
 20
13.7953020480421
 10
172.8050091716396
 20
13.82508046753191
 10
172.742205586831
 20
13.82258089509605
 10
172.6785872093399
 20
13.82344075102799
 10
172.3946014194075
 20
13.78098039941959
 10
173.025163849938
 20
14.50081952444786
 10
173.1087645289071
 20
15.01276539435731
 10
173.4929252789339
 20
15.53353743550045
 10
173.4777208288565
 20
16.23519626253223
 10
173.7239265722696
 20
16.22345633081265
 10
173.8256346157563
 20
16.23225004452781
 10
173.8249752035817
 20
15.9805965073035
 10
173.9428317155829
 20
15.7981802073396
 10
174.0315515260484
 20
15.55563740662869
 10
174.1322292485258
 20
15.32340030530126
 10
174.2311142712243
 20
15.08674644566916
 10
174.3299676990668
 20
14.85461739170088
 10
174.4256166390925
 20
14.63122222788791
 10
174.515990457327
 20
14.42272549049313
 10
174.5989944568189
 20
14.23308448529324
 10
174.6726088582799
 20
14.06663106068102
 10
174.7342815895547
 20
13.929176996261
 10
174.7749458885604
 20
13.84999239430034
 10
174.7922649500513
 20
13.81626739612926
 97
        1
330
BD
 92
       16
 93
        1
 72
     4
 94
        3
 73
     0
 74
     0
 95
       25
 96
       21
 40
0.0
 40
0.0
 40
0.0
 40
0.0
 40
0.0911479969064823
 40
0.1858117896204651
 40
0.2804128399734471
 40
0.3715889190714491
 40
0.4679080494218404
 40
0.5642683809229211
 40
0.6605683222644686
 40
0.7569653015810225
 40
0.8561348172522676
 40
1.092615965104279
 40
1.374867658141856
 40
1.611348812011574
 40
1.710518328425218
 40
1.809403163726534
 40
2.04520546329403
 40
2.326646917622082
 40
2.562449217190537
 40
2.661334043833853
 40
2.661334043833853
 40
2.661334043833853
 40
2.661334043833853
 10
173.2683700567199
 20
14.88614538197288
 10
173.2987525917923
 20
14.8859807971455
 10
173.3606895889111
 20
14.88564528689915
 10
173.4541356960329
 20
14.88269055452002
 10
173.5475095236357
 20
14.87977752877153
 10
173.6417760753475
 20
14.87894201643419
 10
173.7354964790967
 20
14.87996644658046
 10
173.8352040303204
 20
14.87916977470971
 10
173.9188949546312
 20
14.8892141023522
 10
174.0637996315045
 20
14.86234617674159
 10
173.9396132444801
 20
15.03665530280045
 10
173.8965867286282
 20
15.19651711006087
 10
173.780892214221
 20
15.4551845855021
 10
173.7017565431256
 20
15.59231052861851
 10
173.6431576621816
 20
15.8093703313407
 10
173.5864803939438
 20
15.59266134213421
 10
173.5052809900478
 20
15.45327012438231
 10
173.4063701281487
 20
15.20406969370189
 10
173.325362509426
 20
15.0192583022607
 10
173.2813683325838
 20
14.91650446856112
 10
173.2683700567199
 20
14.88614538197288
 97
        1
330
BE
 75
     1
 76
     2
 52
45.0
 41
0.1
 77
     0
 78
     1
 53
45.0
 43
0.0
 44
0.0
 45
-0.282842712474619
 46
0.0
 79
     0
 98
        1
 10
0.0
 20
0.0
  0
HATCH
  5
DC
330
48
100
AcDbEntity
  8
1
  6
Continuous
 62
     2
100
AcDbHatch
 10
0.0
 20
0.0
 30
0.0
210
0.0
220
0.0
230
1.0
  2
CUSTOM2
 70
     0
 71
     1
 91
        1
 92
        1
 93
        1
 72
     4
 94
        3
 73
     0
 74
     0
 95
       95
 96
       91
 40
0.0
 40
0.0
 40
0.0
 40
0.0
 40
0.6550406656911834
 40
1.308087289031918
 40
1.420803739835739
 40
1.56613075977075
 40
1.757067341888414
 40
2.00651354502638
 40
2.087328263121487
 40
2.18532887229562
 40
2.294612454748364
 40
2.408936380534754
 40
2.526802767798514
 40
2.6463605246156
 40
2.762535723971546
 40
2.87005734287014
 40
2.966883448431652
 40
3.050803243518318
 40
3.115818222436576
 40
3.156030057150216
 40
3.213914225080144
 40
3.276689026450517
 40
3.342960320981351
 40
3.404230667150542
 40
3.453822809493338
 40
3.532499827188357
 40
3.634775188507148
 40
3.75490933300811
 40
3.889736761660632
 40
4.035769602175136
 40
4.187256681197604
 40
4.338733685675917
 40
4.488478734676111
 40
4.634708317831556
 40
4.771493189921256
 40
4.89268657156118
 40
5.199775528944459
 40
5.460353566929636
 40
5.6676031423455
 40
5.814722905404562
 40
5.82899080621986
 40
5.855488336304557
 40
5.869756237118889
 40
6.189796507762987
 40
6.531890469873177
 40
6.883053637017126
 40
7.230512024911571
 40
7.566966656764712
 40
7.885203559707476
 40
8.172887439719316
 40
8.418011594062897
 40
8.443926721190818
 40
8.51076047061331
 40
8.602145393795823
 40
8.701714041647268
 40
8.793098965075504
 40
8.859932715058079
 40
8.885847842603729
 40
9.24230125661292
 40
9.58927545501689
 40
9.92180854316428
 40
10.23479624298478
 40
10.29968150889197
 40
10.35323493887785
 40
10.40154625355169
 40
10.46482922477844
 40
10.55973900668427
 40
10.69239545985645
 40
10.84920353475691
 40
11.016263285948
 40
11.18672024367461
 40
11.35372582577229
 40
11.50257442292444
 40
11.61866495023314
 40
11.71329869152895
 40
11.82511050573924
 40
11.94464880845735
 40
12.06929242642528
 40
12.197072904352
 40
12.32562632860547
 40
12.45034565331297
 40
12.56646595170343
 40
12.67099007414654
 40
12.76077625936802
 40
12.82703233506717
 40
12.87429132786013
 40
12.89831990323352
 40
12.92234847860041
 40
13.5398476741034
 40
14.18294284359386
 40
14.18294284359386
 40
14.18294284359386
 40
14.18294284359386
 10
177.306793564802
 20
14.70898038201716
 10
177.175201975855
 20
14.82265058603227
 10
176.9124193802729
 20
15.04964496316157
 10
176.3997393441021
 20
15.89214462956282
 10
176.4106654595363
 20
15.5342337757702
 10
176.4041226527989
 20
15.39267392272134
 10
176.4028026631773
 20
15.19421305299283
 10
176.4018117602538
 20
15.02150296045985
 10
176.4024101751974
 20
14.87865373257581
 10
176.4038994301882
 20
14.78265005413356
 10
176.4055683588472
 20
14.6754550326314
 10
176.4071934954618
 20
14.56164211517582
 10
176.4092429501685
 20
14.44441572604588
 10
176.4123165501927
 20
14.32656411232969
 10
176.4156339697042
 20
14.21228087320618
 10
176.419360534028
 20
14.10521401867275
 10
176.4217338161423
 20
14.01007408766917
 10
176.4278718888358
 20
13.92558557205692
 10
176.4239784495946
 20
13.86923087298138
 10
176.4455230443077
 20
13.79825022472355
 10
176.3680940058618
 20
13.82902677604477
 10
176.311635324019
 20
13.82011242517615
 10
176.2540495896806
 20
13.82896218398269
 10
176.1690163478473
 20
13.79738225225947
 10
176.2009714146382
 20
13.88095155992186
 10
176.1990705282539
 20
13.94882608968306
 10
176.21079600473
 20
14.05233256764415
 10
176.2164241053
 20
14.17002125616692
 10
176.223790217894
 20
14.30388609164419
 10
176.2320759701611
 20
14.44764152872628
 10
176.2398851897426
 20
14.59714022843442
 10
176.2457571222658
 20
14.74792549402077
 10
176.2503667817967
 20
14.89699943878436
 10
176.2542632117543
 20
15.04122913163021
 10
176.2570715126564
 20
15.17583905213016
 10
176.2576698755022
 20
15.36469614347354
 10
176.261602386715
 20
15.58975494313154
 10
176.2442175378499
 20
15.86367091125709
 10
176.2850417342581
 20
16.02787112098597
 10
176.1995153256002
 20
16.22749661465107
 10
176.2660558907688
 20
16.22385458403986
 10
176.283872427323
 20
16.22413447160862
 10
176.4056801797503
 20
16.22632927398619
 10
176.5080770335461
 20
15.9467511872151
 10
176.7580021509356
 20
15.74563008535999
 10
176.9870035331109
 20
15.47792614987912
 10
177.2245151213107
 20
15.22646413862369
 10
177.4486090740772
 20
14.98969974061364
 10
177.6750716283008
 20
14.73218692583076
 10
177.8325687886515
 20
14.61649335056924
 10
178.0472129612673
 20
14.27997152538792
 10
178.0422645974619
 20
14.40464754091603
 10
178.0433931602545
 20
14.46327691935737
 10
178.0428877841517
 20
14.55043662371978
 10
178.0430475158113
 20
14.64416143182873
 10
178.0430054891318
 20
14.73018971297036
 10
178.0430202040372
 20
14.79153891945497
 10
178.0429706255985
 20
14.94135231520993
 10
178.045881152281
 20
15.17989612510106
 10
178.025952104116
 20
15.54486509868699
 10
178.0750433936246
 20
15.80799631993416
 10
177.917795150918
 20
16.21928904947746
 10
178.0762112872421
 20
16.16398282551749
 10
178.1311680478628
 20
16.16199686500177
 10
178.1827887766739
 20
16.16264778248252
 10
178.2713198965366
 20
16.20369527738244
 10
178.2204898303168
 20
16.05696326622981
 10
178.2313389930283
 20
15.95019971954429
 10
178.2166036994847
 20
15.79085705414109
 10
178.2099976446204
 20
15.62853061652874
 10
178.2014961399914
 20
15.45992521892396
 10
178.1943227202198
 20
15.29814814703542
 10
178.1889063215389
 20
15.15422331457931
 10
178.1871713967648
 20
15.03437493466923
 10
178.1875440672318
 20
14.92686101590514
 10
178.1873656126263
 20
14.81820024645586
 10
178.1877010863139
 20
14.6995357016553
 10
178.1890040622182
 20
14.57555163512738
 10
178.1908887351575
 20
14.44858294171102
 10
178.1925004454849
 20
14.32153861551031
 10
178.194140313743
 20
14.19854884492179
 10
178.1962570745752
 20
14.08300931383761
 10
178.1963848422363
 20
13.98090903955837
 10
178.2006514396555
 20
13.89009848838155
 10
178.1908440085289
 20
13.83213621208784
 10
178.2118474771689
 20
13.76517130132028
 10
178.1725639739897
 20
13.77291153966687
 10
177.9595307117745
 20
13.75755254145193
 10
177.7636297943188
 20
14.3140305809447
 10
177.4611197631542
 20
14.57556035348504
 10
177.306793564802
 20
14.70898038201716
 97
        1
330
BF
 75
     1
 76
     2
 52
45.0
 41
0.1
 77
     0
 78
     1
 53
45.0
 43
0.0
 44
0.0
 45
-0.282842712474619
 46
0.0
 79
     0
 98
        1
 10
0.0
 20
0.0
  0
HATCH
  5
DD
330
48
100
AcDbEntity
  8
1
  6
Continuous
 62
     2
100
AcDbHatch
 10
0.0
 20
0.0
 30
0.0
210
0.0
220
0.0
230
1.0
  2
CUSTOM3
 70
     0
 71
     1
 91
        1
 92
        1
 93
        1
 72
     4
 94
        3
 73
     0
 74
     0
 95
      110
 96
      106
 40
0.0
 40
0.0
 40
0.0
 40
0.0
 40
0.2203406257278075
 40
0.4407808782838393
 40
0.5952494494615087
 40
0.7488431659393366
 40
0.9023581831308788
 40
1.056801968670434
 40
1.210736449099934
 40
1.363041386539813
 40
1.515315729683098
 40
1.669377239148106
 40
1.72161165275661
 40
1.773199502942994
 40
1.824933793210008
 40
1.877110426487938
 40
1.982682281206696
 40
2.078781667087593
 40
2.172809640822256
 40
2.271937807378879
 40
2.378349933379331
 40
2.494131557736465
 40
2.626681683943626
 40
2.783145050796139
 40
2.890701232940992
 40
2.993130312454836
 40
3.099869730691865
 40
3.220237816691384
 40
3.352695482737635
 40
3.481732806389875
 40
3.593499473690422
 40
3.674323013331881
 40
3.817951711952773
 40
3.946167120793827
 40
4.061405053453484
 40
4.166480796003149
 40
4.26247877505919
 40
4.350736673551147
 40
4.433071991253978
 40
4.51121629381464
 40
4.564262454117989
 40
4.618474415571622
 40
4.670128488754241
 40
4.722296879126485
 40
4.819540945314354
 40
4.93119498412821
 40
5.049996040257854
 40
5.168643755415483
 40
5.283970811762667
 40
5.392260784910522
 40
5.486512254876568
 40
5.55917823394991
 40
5.591425852853584
 40
5.626215969637935
 40
5.667155838674535
 40
5.717449290214337
 40
5.738402360944955
 40
5.784499116553936
 40
5.830595872164921
 40
5.851548942897783
 40
5.873019280661892
 40
5.924217778408427
 40
5.985325662817796
 40
6.0365241605678
 40
6.057994498334325
 40
6.236847789607572
 40
6.381409928945798
 40
6.493190424178789
 40
6.574067534230648
 40
6.691018086205657
 40
6.814881554220547
 40
6.944307823240556
 40
7.071266716066238
 40
7.193488604462085
 40
7.309042773128308
 40
7.414007203170907
 40
7.505140441886581
 40
7.531150360599728
 40
7.559221645322315
 40
7.58720221892099
 40
7.61256915949921
 40
7.662550809481064
 40
7.702878875764177
 40
7.857328205230877
 40
8.010799568088608
 40
8.165256399657501
 40
8.322232698713897
 40
8.479564855016555
 40
8.635216230290702
 40
8.790882550925676
 40
8.948305154947185
 40
9.168271839032883
 40
9.387358980987116
 40
9.608047961033412
 40
9.832914234792609
 40
9.858338694962944
 40
9.92536681722995
 40
10.02013071422753
 40
10.12876249858992
 40
10.23739428295242
 40
10.33215817995183
 40
10.39918630222387
 40
10.42461076239776
 40
10.64992019336932
 40
10.87188524531176
 40
10.87188524531176
 40
10.87188524531176
 40
10.87188524531176
 10
179.9057788376618
 20
15.73923260398186
 10
179.9092864933541
 20
15.806164620738
 10
179.9163033987662
 20
15.94005891915856
 10
179.8198027599073
 20
16.22548554971469
 10
180.0510134726108
 20
16.16284386190281
 10
180.1919290057155
 20
16.17001554055994
 10
180.3490417757588
 20
16.16235883078241
 10
180.5025913427287
 20
16.16252752283044
 10
180.6545104935081
 20
16.16182040535429
 10
180.8142214813231
 20
16.17210158351642
 10
180.9408972601117
 20
16.1549651108075
 10
181.1370821122081
 20
16.22727260107146
 10
181.1034395279078
 20
16.12640699080115
 10
181.1052011317184
 20
16.07619253947669
 10
181.1027342073457
 20
16.02712335586466
 10
181.1347076966011
 20
15.94063490847006
 10
181.0010399903255
 20
15.98997438608332
 10
180.9172208688056
 20
15.98430634314173
 10
180.8173861139323
 20
15.99465516706297
 10
180.7186576720145
 20
16.00086450411083
 10
180.612153277111
 20
16.00697763816778
 10
180.491051169806
 20
16.01588883484595
 10
180.3703381502452
 20
16.00521605912381
 10
180.1812553843436
 20
16.0646850308037
 10
180.2129028505311
 20
15.90558320077541
 10
180.1995563316833
 20
15.80839128339907
 10
180.1974958426449
 20
15.69634065110104
 10
180.1958188044671
 20
15.57699685629351
 10
180.1973336794232
 20
15.45032592155111
 10
180.195658247867
 20
15.32301588016118
 10
180.2058844271658
 20
15.22451566404468
 10
180.1779006596582
 20
15.0838870262564
 10
180.3508029999305
 20
15.13989551134095
 10
180.4645020202771
 20
15.12719951478499
 10
180.5840151672239
 20
15.13448377051261
 10
180.6888491425072
 20
15.13878017056741
 10
180.7843084898611
 20
15.14330568258978
 10
180.8763823507032
 20
15.15149201146197
 10
180.9476551782439
 20
15.14643850638113
 10
181.0544931705685
 20
15.18536425031684
 10
181.0226603598036
 20
15.10517122005883
 10
181.0266164503929
 20
15.05562936846036
 10
181.0234502392013
 20
15.00557478039819
 10
181.0550791490584
 20
14.92128847612017
 10
180.9210133677691
 20
14.97425365495155
 10
180.82923227932
 20
14.96540080890433
 10
180.7079729189603
 20
14.9757004996516
 10
180.5914113119771
 20
14.97748911767495
 10
180.4783375745878
 20
14.97787017109694
 10
180.367924630847
 20
14.98415449472183
 10
180.289812406784
 20
14.97189133255364
 10
180.1913625833644
 20
15.00453887616125
 10
180.2012355173561
 20
14.94769748054208
 10
180.1973923244402
 20
14.91392130557985
 10
180.1966789884268
 20
14.87119604709411
 10
180.1963369642975
 20
14.83401607262151
 10
180.1963834255346
 20
14.79487237370769
 10
180.1963649429927
 20
14.75716849497682
 10
180.1963703431806
 20
14.71944955232398
 10
180.1963697214201
 20
14.68994324745145
 10
180.1963698151545
 20
14.65873577699297
 10
180.196370428792
 20
14.61414424908081
 10
180.1963671499336
 20
14.55963956508848
 10
180.1963759623481
 20
14.51505540201446
 10
180.1963359653417
 20
14.43117808585739
 10
180.1976024270255
 20
14.31737520677676
 10
180.1950274117842
 20
14.16830395933706
 10
180.2065009381719
 20
14.06597203813901
 10
180.1823506222264
 20
13.9333890388583
 10
180.3332993946475
 20
13.97895732272013
 10
180.4428436671555
 20
13.96427012162342
 10
180.5733970473919
 20
13.96920435125057
 10
180.6990312209513
 20
13.97257705323359
 10
180.8188730625601
 20
13.9771149749878
 10
180.9391362611427
 20
13.99048536181998
 10
181.0222761663515
 20
13.98068712782593
 10
181.1456080421073
 20
14.04126214623317
 10
181.1244269203956
 20
13.98532460134019
 10
181.1235950270117
 20
13.95939249372343
 10
181.1218963707557
 20
13.93197256190936
 10
181.1217974888829
 20
13.89738195206382
 10
181.1203659301329
 20
13.86050408220766
 10
181.1532804192188
 20
13.76846841021807
 10
180.9551306988107
 20
13.84132015974828
 10
180.8300548294891
 20
13.81825726508606
 10
180.6673071295155
 20
13.82454021985784
 10
180.5129366450001
 20
13.82260943909925
 10
180.3566670436943
 20
13.82393762599266
 10
180.1970544465281
 20
13.82059872487862
 10
180.0540326342237
 20
13.83265795728235
 10
179.8197144881628
 20
13.7695200197692
 10
179.9173810751196
 20
14.05620527466315
 10
179.9006868780059
 20
14.24988308142659
 10
179.9146296709683
 20
14.47848242880294
 10
179.9142987846634
 20
14.6338459395505
 10
179.9143078119263
 20
14.73966336444126
 10
179.9143055876316
 20
14.80205784124215
 10
179.9143065551889
 20
14.89220425248327
 10
179.9143065473262
 20
14.99621167157438
 10
179.9143053861102
 20
15.10022131375296
 10
179.9143090971502
 20
15.19036243688768
 10
179.9143011051052
 20
15.25276803097215
 10
179.9143334275017
 20
15.35868835961118
 10
179.9131440788319
 20
15.51626716544737
 10
179.9082216489256
 20
15.66528219822062
 10
179.9057788376618
 20
15.73923260398186
 97
        1
330
C0
 75
     1
 76
     2
 52
45.0
 41
0.1
 77
     0
 78
     1
 53
45.0
 43
0.0
 44
0.0
 45
-0.282842712474619
 46
0.0
 79
     0
 98
        1
 10
0.0
 20
0.0
  0
HATCH
  5
DE
330
48
100
AcDbEntity
  8
1
  6
Continuous
 62
     2
100
AcDbHatch
 10
0.0
 20
0.0
 30
0.0
210
0.0
220
0.0
230
1.0
  2
CUSTOM4
 70
     0
 71
     1
 91
        1
 92
        1
 93
        1
 72
     4
 94
        3
 73
     0
 74
     0
 95
       47
 96
       43
 40
0.0
 40
0.0
 40
0.0
 40
0.0
 40
0.2207912809956414
 40
0.4459404186302137
 40
0.4902387190458071
 40
0.5327473892720146
 40
0.574226045122434
 40
0.6155432630559908
 40
0.6568164066314818
 40
0.6982511618779762
 40
0.7407663929315675
 40
0.7851366743174298
 40
1.010288833836218
 40
1.231080507001988
 40
1.451765243652242
 40
1.676638205891533
 40
1.720461045359507
 40
1.83001814404338
 40
1.972442372353019
 40
2.114866600677398
 40
2.22442369939503
 40
2.268246538883274
 40
2.493628801207125
 40
2.715602830286536
 40
2.93421133070629
 40
3.14950236985527
 40
3.231387784850943
 40
3.31823187385395
 40
3.405143198197995
 40
3.486970301720373
 40
3.702258172493802
 40
3.920866283534034
 40
4.142839325931835
 40
4.368221903865316
 40
4.412044743359799
 40
4.521601842095822
 40
4.66402607045231
 40
4.80645029880903
 40
4.916007397546731
 40
4.959830237043056
 40
5.184703515847096
 40
5.405387250767495
 40
5.405387250767495
 40
5.405387250767495
 40
5.405387250767495
 10
182.6507427258645
 20
15.7340644095388
 10
182.6568139420002
 20
15.79758482501216
 10
182.6690762107241
 20
15.92587938689628
 10
182.5604706879415
 20
16.20166220174079
 10
182.6761985896603
 20
16.17188133432052
 10
182.7171842509015
 20
16.16765556262823
 10
182.7591205797518
 20
16.16310446389604
 10
182.800419662571
 20
16.16201982929489
 10
182.8417032115556
 20
16.16310338195224
 10
182.8836148270647
 20
16.16766112711347
 10
182.9245983549019
 20
16.17187430209727
 10
183.0404922843489
 20
16.20177611317534
 10
182.9295652727456
 20
15.92339806609893
 10
182.9574856365267
 20
15.74283140824957
 10
182.9404267346969
 20
15.50961042346477
 10
182.9414637282103
 20
15.34906622543151
 10
182.9414099399404
 20
15.22284817558726
 10
182.941427737248
 20
15.12428963336245
 10
182.941418858108
 20
14.99280702442966
 10
182.9414263928033
 20
14.86132844968652
 10
182.9414129405128
 20
14.76276222694091
 10
182.9414531717492
 20
14.63639735624152
 10
182.9406746403816
 20
14.47482068822869
 10
182.9565958319267
 20
14.24361821892913
 10
182.9333468885407
 20
14.05874351971998
 10
183.0360183444366
 20
13.78935602770057
 10
182.8820238362836
 20
13.82660112685811
 10
182.8004129802832
 20
13.82137994680536
 10
182.7188192292582
 20
13.82660620378345
 10
182.5648513666843
 20
13.78937069885391
 10
182.6674183421917
 20
14.05875129862877
 10
182.6442045316088
 20
14.24361585325413
 10
182.6600444655139
 20
14.47482218565638
 10
182.6593296313426
 20
14.63639712308503
 10
182.6593664569907
 20
14.76276231210522
 10
182.659354900027
 20
14.86132756635983
 10
182.6593575019214
 20
14.99281127417223
 10
182.6593648531779
 20
15.12427548031203
 10
182.6593442541351
 20
15.2228778627533
 10
182.6594082192028
 20
15.34896149354432
 10
182.658173394759
 20
15.51210091383777
 10
182.6532040396745
 20
15.66054183777557
 10
182.6507427258645
 20
15.7340644095388
 97
        1
330
C1
 75
     1
 76
     2
 52
45.0
 41
0.1
 77
     0
 78
     1
 53
45.0
 43
0.0
 44
0.0
 45
-0.282842712474619
 46
0.0
 79
     0
 98
        1
 10
0.0
 20
0.0
  0
HATCH
  5
DF
330
48
100
AcDbEntity
  8
1
  6
Continuous
 62
     2
100
AcDbHatch
 10
0.0
 20
0.0
 30
0.0
210
0.0
220
0.0
230
1.0
  2
CUSTOM5
 70
     0
 71
     1
 91
        1
 92
        1
 93
        1
 72
     4
 94
        3
 73
     0
 74
     0
 95
      118
 96
      114
 40
0.0
 40
0.0
 40
0.0
 40
0.0
 40
0.1054708162973611
 40
0.2466098270052154
 40
0.3965912874591657
 40
0.5285525069754327
 40
0.6156245055642521
 40
0.6431434105797876
 40
0.7036850037986653
 40
0.7642265984505137
 40
0.7917455052355483
 40
0.9287404319990451
 40
1.106572819088084
 40
1.287544879681106
 40
1.317578308030623
 40
1.399928030857259
 40
1.52296820480003
 40
1.675072986590648
 40
1.844616533180723
 40
2.01997300163878
 40
2.18951654888009
 40
2.341621331585423
 40
2.464661506320557
 40
2.547011229647121
 40
2.577044658168083
 40
2.603797890893125
 40
2.662655002908812
 40
2.721512114949567
 40
2.748265347702747
 40
2.774215307344822
 40
2.84595931340715
 40
2.954338556588347
 40
3.090194227585521
 40
3.244367517100481
 40
3.407699615844234
 40
3.571031714539377
 40
3.725205003920049
 40
3.861060674729548
 40
3.969439917716235
 40
4.041183923628905
 40
4.067133883212898
 40
4.31188674601205
 40
4.547897258335412
 40
4.764747083043854
 40
4.952749679951649
 40
5.045772974195802
 40
5.137862019644861
 40
5.33054316979293
 40
5.553448265243934
 40
5.795083855888103
 40
6.043293412177176
 40
6.285761695541133
 40
6.313902908752617
 40
6.384255941793207
 40
6.475714884766795
 40
6.567173827758857
 40
6.637526860839635
 40
6.665668074073999
 40
6.692018920327957
 40
6.749990782070993
 40
6.807962643790324
 40
6.834313490017784
 40
6.856393084245063
 40
6.913335195649687
 40
6.99119481730235
 40
7.076026942283612
 40
7.153886563725102
 40
7.210828674844684
 40
7.23290826893102
 40
7.258199334923544
 40
7.324875781592201
 40
7.419142481924871
 40
7.527204308841826
 40
7.635266135230419
 40
7.729532834168419
 40
7.796209279292748
 40
7.821500344594698
 40
7.844652988850769
 40
7.899863140541549
 40
7.965759128053716
 40
8.020969279771002
 40
8.044121924046468
 40
8.069356610160543
 40
8.109134395441398
 40
8.13223810019111
 40
8.193147867786479
 40
8.279261678876658
 40
8.377977512673876
 40
8.476693347146664
 40
8.562807160411724
 40
8.623716930826511
 40
8.646820636853466
 40
8.671988793774307
 40
8.734909185828219
 40
8.816705695188933
 40
8.898502204815532
 40
8.961422597378021
 40
8.986590754551134
 40
9.012941600733274
 40
9.070913462380323
 40
9.128885324081784
 40
9.15523617032509
 40
9.18040432792916
 40
9.243324721948206
 40
9.325121234212027
 40
9.40691774663771
 40
9.469838141978222
 40
9.495006288270968
 40
9.517811184379115
 40
9.572192090487132
 40
9.637098333281378
 40
9.691479239515594
 40
9.714284125643639
 40
9.714284125643639
 40
9.714284125643639
 40
9.714284125643639
 10
185.2874469028652
 20
15.26889163187718
 10
185.3090990569036
 20
15.2411186924281
 10
185.3597257109473
 20
15.17618054561235
 10
185.4349383202591
 20
15.06891060312894
 10
185.5248482274346
 20
14.95377438266625
 10
185.5709169676673
 20
14.85357045748316
 10
185.6655825294655
 20
14.78434006814944
 10
185.6204439320412
 20
14.73771639678274
 10
185.594704778579
 20
14.69660308866039
 10
185.5645196708012
 20
14.66065971727938
 10
185.5193684730562
 20
14.58579782596091
 10
185.4710504458562
 20
14.80782524253603
 10
185.3968539713072
 20
14.84510677337705
 10
185.2836047324606
 20
15.11610202130596
 10
185.2885133578168
 20
15.00095328446223
 10
185.2868486556306
 20
14.92836675781622
 10
185.2876830076713
 20
14.8062558848398
 10
185.2873609540264
 20
14.65913800810455
 10
185.2875076912455
 20
14.49307063956552
 10
185.2872950092721
 20
14.32187554608598
 10
185.2879497252033
 20
14.15552828635494
 10
185.2859192461138
 20
14.0093517305569
 10
185.291346039993
 20
13.88471047474607
 10
185.2804930868707
 20
13.81718656540623
 10
185.2956739155554
 20
13.7554906141702
 10
185.2457895108133
 20
13.76727503896998
 10
185.2017150342521
 20
13.75943822779966
 10
185.1582371630201
 20
13.767604413727
 10
185.1092346786488
 20
13.75538056738464
 10
185.1218731234825
 20
13.8096066724931
 10
185.1130182968449
 20
13.86936918907554
 10
185.1175058770314
 20
13.97922029044367
 10
185.1157960135991
 20
14.11029975405675
 10
185.1163550915986
 20
14.26198011444323
 10
185.1161928768694
 20
14.42211074929948
 10
185.1162269924675
 20
14.58236865674561
 10
185.1162514960127
 20
14.73370247520434
 10
185.1161453543226
 20
14.86582156338595
 10
185.116429914193
 20
14.97294802533186
 10
185.1158675547568
 20
15.03808619579467
 10
185.1180765083687
 20
15.16618957858666
 10
185.0319435998603
 20
14.79097610391571
 10
184.9555140818499
 20
14.63918193123392
 10
184.8660040767833
 20
14.47766206446303
 10
184.7640413217327
 20
14.20471848820169
 10
184.7187976491039
 20
14.36717346596511
 10
184.610235594167
 20
14.45605432058118
 10
184.7995791751753
 20
14.6054979496141
 10
184.85653405457
 20
14.79749136974926
 10
184.9717520993352
 20
15.0289962290676
 10
184.9940151630132
 20
15.21797259759067
 10
185.177190515214
 20
15.49454089325936
 10
185.0538033597552
 20
15.48698978832099
 10
184.9925684166834
 20
15.48856772366124
 10
184.9081999617064
 20
15.48882592573677
 10
184.8204235085966
 20
15.4854484575121
 10
184.7656768696122
 20
15.49394814982026
 10
184.7104703026024
 20
15.48048561049792
 10
184.7222823035536
 20
15.52931442126766
 10
184.7142496151793
 20
15.57269004896708
 10
184.7228186104679
 20
15.61509438309571
 10
184.7102943409156
 20
15.66267796552113
 10
184.7555101538736
 20
15.65267212995104
 10
184.8014815562723
 20
15.65894105174056
 10
184.877722204771
 20
15.65593561405867
 10
184.9561296131993
 20
15.65770448278536
 10
185.0323992648932
 20
15.65464793981655
 10
185.0783009459474
 20
15.66103971376172
 10
185.12317339654
 20
15.65093822978891
 10
185.1105552275633
 20
15.70157201581894
 10
185.1191936582707
 20
15.75501261882066
 10
185.1152361595442
 20
15.84863255131678
 10
185.1162325068335
 20
15.95112606688923
 10
185.1171927413073
 20
16.05353270248163
 10
185.1133211458005
 20
16.14735929609322
 10
185.1217789814365
 20
16.20036542840355
 10
185.1093075932835
 20
16.25211435651191
 10
185.154210638985
 20
16.23850747226759
 10
185.1955083836772
 20
16.24100480320586
 10
185.2595344281051
 20
16.23648060574487
 10
185.2986111148786
 20
16.22781003043308
 10
185.3476543498742
 20
16.23515102070683
 10
185.3225080030589
 20
16.19602896051753
 10
185.2815901333722
 20
16.20563842455809
 10
185.2910109616603
 20
16.15540148169776
 10
185.2855647318745
 20
16.10385945639487
 10
185.2881699601803
 20
16.01959707584517
 10
185.2870102202153
 20
15.92559135583404
 10
185.288359106423
 20
15.83196865395521
 10
185.2849970101508
 20
15.74679517552219
 10
185.2920959917768
 20
15.69716856072039
 10
185.2812569154544
 20
15.64993694969983
 10
185.3304010225245
 20
15.66201674936847
 10
185.3794877630146
 20
15.65447393363006
 10
185.4573714280641
 20
15.65686070361428
 10
185.5350365172895
 20
15.65899381905409
 10
185.5845393931355
 20
15.65193391922449
 10
185.6344594750639
 20
15.66360151936209
 10
185.622319851688
 20
15.6154023537139
 10
185.6305838229143
 20
15.57249219801235
 10
185.6223198650783
 20
15.52958201851387
 10
185.6344594549854
 20
15.48138288754868
 10
185.5845395158746
 20
15.49305034471516
 10
185.5350350651202
 20
15.4859920243505
 10
185.4573784382972
 20
15.48811665228609
 10
185.3794643865759
 20
15.49053389365764
 10
185.3304500352716
 20
15.4829184819449
 10
185.2813246108942
 20
15.49507952557596
 10
185.291555998857
 20
15.45073013424162
 10
185.2856677678053
 20
15.40925436202914
 10
185.2878788305568
 20
15.34915394315304
 10
185.2874109346145
 20
15.30225782762888
 10
185.2874386992912
 20
15.27650146418195
 10
185.2874469028652
 20
15.26889163187718
 97
        1
330
C2
 75
     1
 76
     2
 52
45.0
 41
0.1
 77
     0
 78
     1
 53
45.0
 43
0.0
 44
0.0
 45
-0.282842712474619
 46
0.0
 79
     0
 98
        1
 10
0.0
 20
0.0
  0
HATCH
  5
E0
330
48
100
AcDbEntity
  8
1
  6
Continuous
 62
     2
100
AcDbHatch
 10
0.0
 20
0.0
 30
0.0
210
0.0
220
0.0
230
1.0
  2
CUSTOM6
 70
     0
 71
     1
 91
        1
 92
        1
 93
        1
 72
     4
 94
        3
 73
     0
 74
     0
 95
       91
 96
       87
 40
0.0
 40
0.0
 40
0.0
 40
0.0
 40
0.0345987051695718
 40
0.1258134969461369
 40
0.2547723404888987
 40
0.4026032099154125
 40
0.5504340793416704
 40
0.679392922883608
 40
0.7706077146571035
 40
0.8052064287780925
 40
1.124852390615261
 40
1.427402236308838
 40
1.706356627453456
 40
1.955541417875124
 40
2.169485938566245
 40
2.344350786664677
 40
2.480568411561842
 40
2.590440557428863
 40
2.649189927151033
 40
2.749320643306197
 40
2.912632739879846
 40
3.147745656000014
 40
3.244827496384929
 40
3.338490056946535
 40
3.583815413206958
 40
3.76142394323831
 40
3.886956104362463
 40
3.985855451886661
 40
4.091766255337573
 40
4.250186473811739
 40
4.422734315084358
 40
4.628285684838448
 40
4.872093227758259
 40
5.152549652145367
 40
5.464967135837346
 40
5.803201477852254
 40
6.160362988813725
 40
6.19344944827578
 40
6.284170385501463
 40
6.419718138764276
 40
6.587285046385555
 40
6.774063446723497
 40
6.967245678113452
 40
7.154024078817466
 40
7.321590987025823
 40
7.457138740890153
 40
7.547859678555918
 40
7.580946138182478
 40
7.608533084714532
 40
7.669224367077515
 40
7.72991564942974
 40
7.757502595949793
 40
7.790278062553247
 40
7.880146277430773
 40
8.014419963180208
 40
8.180411842397737
 40
8.365434637679206
 40
8.556801071622536
 40
8.741823866830648
 40
8.907815745916215
 40
9.04208943150737
 40
9.131957646249495
 40
9.164733112797071
 40
9.415425063139976
 40
9.66798618095844
 40
9.69416980746255
 40
9.75660768604751
 40
9.831130315322373
 40
9.893568193899808
 40
9.919751820398625
 40
9.95096796469045
 40
9.996421631210588
 40
10.22087981037458
 40
10.44341866197542
 40
10.47847970788855
 40
10.57091337438755
 40
10.7015954546123
 40
10.85140174170361
 40
11.00120802880478
 40
11.13189010907383
 40
11.22432377583011
 40
11.25938480938957
 40
11.28697175596146
 40
11.3476630383592
 40
11.40835432042071
 40
11.43594125892106
 40
11.43594125892106
 40
11.43594125892106
 40
11.43594125892106
 10
190.0818114333289
 20
15.55242795125076
 10
190.0702785844941
 20
15.55242790287914
 10
190.0283409444998
 20
15.55242773704163
 10
189.9434129719026
 20
15.55243125800908
 10
189.8207688553128
 20
15.55240926435877
 10
189.6791206916993
 20
15.55250801177053
 10
189.537975369849
 20
15.5521468623242
 10
189.4141351317905
 20
15.55321883609088
 10
189.3317217825381
 20
15.55092249091267
 10
189.1727791229693
 20
15.56048569373419
 10
189.3503402353375
 20
15.19785394311371
 10
189.3379739205452
 20
14.95243127723116
 10
189.4064519473864
 20
14.66862501324838
 10
189.4693024320969
 20
14.43250999939042
 10
189.5452253431727
 20
14.23326740396137
 10
189.6303189577015
 20
14.0774534745138
 10
189.7244607592934
 20
13.97657857781401
 10
189.8282648207726
 20
13.92465852638975
 10
189.9125872030773
 20
13.97606484379622
 10
189.9351322179451
 20
14.0914454403752
 10
189.974573097537
 20
14.21885149702382
 10
189.9202919734941
 20
14.53622328086746
 10
190.0451218072473
 20
14.38982180140905
 10
190.2019291513603
 20
14.35795300331175
 10
190.0947720007057
 20
14.12421357767629
 10
190.0808711209867
 20
13.9597277658366
 10
190.0234709467225
 20
13.83130869122484
 10
189.9335020145008
 20
13.76018802352832
 10
189.8095274657877
 20
13.74432324142259
 10
189.6634273196859
 20
13.77993797554176
 10
189.5243894320283
 20
13.90000570500283
 10
189.4102003962143
 20
14.07435682550323
 10
189.3146141301486
 20
14.29946603111244
 10
189.2318652572626
 20
14.56388246006444
 10
189.1807179256411
 20
14.88187933098544
 10
189.0770189207337
 20
15.15543728488912
 10
189.2042841208519
 20
15.56005818612866
 10
189.0357890623017
 20
15.55112367849677
 10
188.9511995787076
 20
15.55315961418362
 10
188.8189876387626
 20
15.55213937388405
 10
188.6560505094102
 20
15.55253230318428
 10
188.4733759170531
 20
15.55235696313368
 10
188.2847057373381
 20
15.55260105307467
 10
188.1014469020188
 20
15.55185657906235
 10
187.9404746832717
 20
15.55416360522425
 10
187.8029808335274
 20
15.54799804883661
 10
187.728959037231
 20
15.5603283845821
 10
187.6613215186856
 20
15.54329323723555
 10
187.6732373719269
 20
15.59524438447527
 10
187.6655677285693
 20
15.64071424966528
 10
187.6732592225114
 20
15.68614453703705
 10
187.661314179776
 20
15.7380239598457
 10
187.7283588305866
 20
15.72119143490264
 10
187.8017375665674
 20
15.7333540909267
 10
187.9379128305272
 20
15.72727231074959
 10
188.097381180151
 20
15.72954834315057
 10
188.2789173085836
 20
15.72881233998962
 10
188.4658034862178
 20
15.72905954196134
 10
188.6468012316835
 20
15.72886400799253
 10
188.8080802578878
 20
15.72932234714839
 10
188.9393882124886
 20
15.72812673751205
 10
189.0225051322597
 20
15.73051347319742
 10
189.1556236547813
 20
15.72230605725464
 10
189.0645893502659
 20
15.97752868952653
 10
188.9789633074418
 20
16.24164358328243
 10
189.0990589003454
 20
16.22904442969164
 10
189.1514264948543
 20
16.22694235763074
 10
189.2214497569715
 20
16.22535399889657
 10
189.2671922337816
 20
16.21602567538112
 10
189.3220812646932
 20
16.22545966915428
 10
189.296357478568
 20
16.17733028655166
 10
189.182539757145
 20
16.18266829744198
 10
189.3159346621136
 20
15.95449174576769
 10
189.1943658735471
 20
15.72156856595923
 10
189.3223188769413
 20
15.73087258884439
 10
189.4049048406461
 20
15.7280100175468
 10
189.5307214850824
 20
15.72923437412302
 10
189.6741469838057
 20
15.72932431888965
 10
189.8157420951728
 20
15.72746163183853
 10
189.9459127249967
 20
15.73333075937163
 10
190.0193452286191
 20
15.72070340823203
 10
190.0891112922096
 20
15.73877563110412
 10
190.0775772605396
 20
15.68612850546326
 10
190.0833184346682
 20
15.64221317686546
 10
190.0816615770911
 20
15.59089982676548
 10
190.081775756167
 20
15.56158792021633
 10
190.0818114333289
 20
15.55242795125076
 97
        1
330
C3
 75
     1
 76
     2
 52
45.0
 41
0.1
 77
     0
 78
     1
 53
45.0
 43
0.0
 44
0.0
 45
-0.282842712474619
 46
0.0
 79
     0
 98
        1
 10
0.0
 20
0.0
  0
HATCH
  5
E1
330
48
100
AcDbEntity
  8
1
  6
Continuous
 62
     2
100
AcDbHatch
 10
0.0
 20
0.0
 30
0.0
210
0.0
220
0.0
230
1.0
  2
CUSTOM7
 70
     0
 71
     1
 91
        1
 92
        1
 93
        1
 72
     4
 94
        3
 73
     0
 74
     0
 95
       75
 96
       71
 40
0.0
 40
0.0
 40
0.0
 40
0.0
 40
0.0342546099129709
 40
0.1245622414432364
 40
0.2522385480897518
 40
0.398599192294068
 40
0.5449598364980839
 40
0.6726361431438834
 40
0.7629437746736942
 40
0.7971983935297973
 40
1.101723623449648
 40
1.408591244036643
 40
1.433332471690346
 40
1.487763172450132
 40
1.54219387308195
 40
1.566935100592495
 40
1.923523931821807
 40
2.271755704953662
 40
2.59057975510085
 40
2.858943305581115
 40
2.889120339309049
 40
2.918305855191004
 40
2.941366645531123
 40
2.996357760973006
 40
3.061992318140541
 40
3.11698343362673
 40
3.140044223997404
 40
3.411273122936318
 40
3.732441619740988
 40
3.761068217532689
 40
3.837787499630258
 40
3.948858699125906
 40
4.080541049104298
 40
4.219093782625691
 40
4.350776132722254
 40
4.4618473324056
 40
4.538566614678341
 40
4.56719321254459
 40
4.594907573998848
 40
4.666381453557415
 40
4.764111044011054
 40
4.870592538125857
 40
4.968322128642336
 40
5.03979600828705
 40
5.067510369784509
 40
5.094263603185706
 40
5.153120716668303
 40
5.211977830150714
 40
5.2387310635517
 40
5.272290535138939
 40
5.363380529444772
 40
5.497618415781449
 40
5.66062156345372
 40
5.838007341749421
 40
6.015393119910744
 40
6.178396267038369
 40
6.312634151842349
 40
6.403724143059339
 40
6.437283612672434
 40
6.464036846261035
 40
6.522893960004613
 40
6.58175107148384
 40
6.608504301590768
 40
6.637253941280916
 40
6.711397748902767
 40
6.812778057283323
 40
6.923237199249042
 40
7.024617507623686
 40
7.098761315207339
 40
7.127510946007289
 40
7.127510946007289
 40
7.127510946007289
 40
7.127510946007289
 10
188.4418622390564
 20
14.9584912847327
 10
188.4418622819707
 20
14.94707313408726
 10
188.4418624481128
 20
14.90555257842634
 10
188.4418593081787
 20
14.82146922003778
 10
188.44187882798
 20
14.70004497322334
 10
188.4417912187737
 20
14.55980494047454
 10
188.442111623523
 20
14.42006556794582
 10
188.4411605909742
 20
14.29745038894935
 10
188.4431978595967
 20
14.21587074438049
 10
188.4349433178746
 20
14.06271267077704
 10
188.7430797940901
 20
14.22560236054719
 10
189.0350645173737
 20
14.39482938688
 10
189.0408354448707
 20
14.25973235781907
 10
189.0455471719891
 20
14.21617221160442
 10
189.0482535411917
 20
14.17211249350543
 10
189.0672545672962
 20
14.02272590363133
 10
188.65839422473
 20
14.08681172241259
 10
188.3793710348833
 20
13.97296341411016
 10
188.1018081587164
 20
13.87364095811144
 10
187.8099837184403
 20
13.91630687596344
 10
187.7869144678657
 20
13.81321679744543
 10
187.7537474383333
 20
13.78691091244472
 10
187.7480653962739
 20
13.83455309036306
 10
187.7284214559044
 20
13.87180336115071
 10
187.7095089485622
 20
13.93007387847564
 10
187.6942849867707
 20
13.97385201007804
 10
187.6477246372935
 20
14.0875942104631
 10
187.989089731245
 20
14.0557630112004
 10
188.2679649367387
 20
14.02161435106477
 10
188.2617753034906
 20
14.1691397647965
 10
188.2630935452773
 20
14.24013150908831
 10
188.2624831689949
 20
14.34719767958662
 10
188.2625871570725
 20
14.47398529785999
 10
188.2629987964055
 20
14.60849243496052
 10
188.2613907841968
 20
14.73395549951188
 10
188.2659902567925
 20
14.84505246719122
 10
188.256418650221
 20
14.90761886800694
 10
188.2704001783691
 20
14.96595388295007
 10
188.2147384386705
 20
14.95289710582244
 10
188.157565519782
 20
14.96136307749504
 10
188.0616048925648
 20
14.95729976080643
 10
187.963376752282
 20
14.9597088985248
 10
187.8672582457559
 20
14.95551600613393
 10
187.810464852581
 20
14.96429346441169
 10
187.7550356873383
 20
14.95094936850127
 10
187.7670679427916
 20
15.0003691095926
 10
187.7592003173937
 20
15.04393988030396
 10
187.7666295563828
 20
15.08830469118522
 10
187.7551930564142
 20
15.13902297763986
 10
187.8232102370132
 20
15.12162460757738
 10
187.8968496879745
 20
15.13417450237184
 10
188.0325064058209
 20
15.12799677011092
 10
188.1884909024524
 20
15.13029203093079
 10
188.3615926358142
 20
15.12940968262525
 10
188.534694296418
 20
15.13029207142403
 10
188.6906789811215
 20
15.12799662955545
 10
188.8263351889796
 20
15.13417486262427
 10
188.8999756705651
 20
15.1216239421833
 10
188.9679914174723
 20
15.13902373012137
 10
188.9565590885921
 20
15.08830130414553
 10
188.9639539458296
 20
15.04397060811108
 10
188.9562039912269
 20
15.00028307550199
 10
188.9681203741876
 20
14.95063590098483
 10
188.9108170223615
 20
14.96461411338431
 10
188.8520145789772
 20
14.9553975567326
 10
188.7525293633199
 20
14.95952268164936
 10
188.6494280098349
 20
14.95822760025893
 10
188.5537846354573
 20
14.95854077077647
 10
188.4857467971616
 20
14.95848776697151
 10
188.4514462213443
 20
14.95849051871662
 10
188.4418622390564
 20
14.9584912847327
 97
        1
330
C4
 75
     1
 76
     2
 52
45.0
 41
0.1
 77
     0
 78
     1
 53
45.0
 43
0.0
 44
0.0
 45
-0.282842712474619
 46
0.0
 79
     0
 98
        1
 10
0.0
 20
0.0
  0
HATCH
  5
E2
330
48
100
AcDbEntity
  8
1
  6
Continuous
 62
     2
100
AcDbHatch
 10
0.0
 20
0.0
 30
0.0
210
0.0
220
0.0
230
1.0
  2
CUSTOM8
 70
     0
 71
     1
 91
        1
 92
        1
 93
        1
 72
     4
 94
        3
 73
     0
 74
     0
 95
       15
 96
       11
 40
0.0
 40
0.0
 40
0.0
 40
0.0
 40
0.2785535985096405
 40
0.5215624748198213
 40
0.6076917376039568
 40
0.6938210001740229
 40
0.9405019146453777
 40
1.221691403489032
 40
1.300471877080977
 40
1.379252341684793
 40
1.379252341684793
 40
1.379252341684793
 40
1.379252341684793
 10
189.5681493630999
 20
16.22930267330378
 10
189.6296017794178
 20
16.17691646592715
 10
189.7446649974114
 20
16.07882876798227
 10
190.0397348497242
 20
15.92889785897217
 10
189.9025147631856
 20
15.84343227515009
 10
189.8041227843777
 20
15.71085785201553
 10
189.713003359065
 20
16.01616985781424
 10
189.3636839480653
 20
16.07967869465369
 10
189.511925837657
 20
16.17896509880876
 10
189.5494081874236
 20
16.21252348402379
 10
189.5681493630999
 20
16.22930267330378
 97
        1
330
C5
 75
     1
 76
     2
 52
45.0
 41
0.1
 77
     0
 78
     1
 53
45.0
 43
0.0
 44
0.0
 45
-0.282842712474619
 46
0.0
 79
     0
 98
        1
 10
0.0
 20
0.0
  0
HATCH
  5
E3
330
48
100
AcDbEntity
  8
1
  6
Continuous
 62
     2
100
AcDbHatch
 10
0.0
 20
0.0
 30
0.0
210
0.0
220
0.0
230
1.0
  2
CUSTOM9
 70
     0
 71
     1
 91
        1
 92
        1
 93
        1
 72
     4
 94
        3
 73
     0
 74
     0
 95
       35
 96
       31
 40
0.0
 40
0.0
 40
0.0
 40
0.0
 40
0.0335231036620286
 40
0.0713218571711718
 40
0.4278866681486508
 40
0.8116865841963402
 40
1.198190238000001
 40
1.561379546812645
 40
1.659983174622031
 40
1.759315573807242
 40
2.13271961723112
 40
2.525233363588855
 40
2.910815397779703
 40
3.265244364303283
 40
3.59260672358201
 40
3.964386154603961
 40
4.359942131737786
 40
4.75815411863928
 40
4.843846538699873
 40
4.936650065543255
 40
5.256616602537363
 40
5.581707404416109
 40
5.899719158308228
 40
6.19836349428081
 40
6.466301046615861
 40
6.493895311537211
 40
6.559697020197005
 40
6.63823454344261
 40
6.704036252154392
 40
6.731630508423199
 40
6.731630508423199
 40
6.731630508423199
 40
6.731630508423199
 10
191.9736010568669
 20
16.23463843719128
 10
191.9676006097789
 20
16.22480690542319
 10
191.9548344099157
 20
16.20388988579797
 10
191.7949362006553
 20
16.17127126532682
 10
192.2322025842337
 20
15.88206680336705
 10
192.4345394828262
 20
15.6804113835844
 10
192.6819564267973
 20
15.43749387603279
 10
193.1831513624606
 20
15.36047662757777
 10
193.012556219897
 20
15.2187693917465
 10
192.9383299463198
 20
15.01710366209108
 10
192.6131432248187
 20
15.36956287174722
 10
192.3277741670663
 20
15.53175212559562
 10
192.0337604077658
 20
15.73687130053048
 10
191.8084452691134
 20
16.21827488595456
 10
191.5993085055521
 20
15.75343046609225
 10
191.3207873674834
 20
15.54350952252915
 10
191.0371383177209
 20
15.37424456359985
 10
190.7078639527832
 20
15.00142360907945
 10
190.6277012318224
 20
15.19708014459005
 10
190.4759724909742
 20
15.32491104190593
 10
190.9083395826794
 20
15.40454031765933
 10
191.0962565329765
 20
15.60026634915468
 10
191.3468477420503
 20
15.81632996916749
 10
191.571435047016
 20
15.98190992300057
 10
191.6259775409712
 20
16.26133964636831
 10
191.7494661029011
 20
16.2473795040808
 10
191.8060273344519
 20
16.24521268867646
 10
191.8761870984944
 20
16.24046859881357
 10
191.9333414022105
 20
16.23709429350536
 10
191.9644190320839
 20
16.23519854711114
 10
191.9736010568669
 20
16.23463843719128
 97
        1
330
C6
 75
     1
 76
     2
 52
45.0
 41
0.1
 77
     0
 78
     1
 53
45.0
 43
0.0
 44
0.0
 45
-0.282842712474619
 46
0.0
 79
     0
 98
        1
 10
0.0
 20
0.0
  0
HATCH
  5
E4
330
48
100
AcDbEntity
  8
1
  6
Continuous
 62
     2
100
AcDbHatch
 10
0.0
 20
0.0
 30
0.0
210
0.0
220
0.0
230
1.0
  2
CUSTOM10
 70
     0
 71
     1
 91
        1
 92
        1
 93
        1
 72
     4
 94
        3
 73
     0
 74
     0
 95
       91
 96
       87
 40
0.0
 40
0.0
 40
0.0
 40
0.0
 40
0.0267532254356844
 40
0.0856103386464493
 40
0.1444674521997313
 40
0.1712206856619314
 40
0.2039416005643336
 40
0.2955601971653283
 40
0.4362601844617717
 40
0.6162252844508049
 40
0.8256392189705497
 40
1.054685709844491
 40
1.293548478893611
 40
1.532411247938383
 40
1.761457738799648
 40
1.970871673298616
 40
2.150836773256812
 40
2.291536760495673
 40
2.38315535683678
 40
2.4158762841014
 40
2.442629517488055
 40
2.501486630949215
 40
2.560343744424389
 40
2.587096977826675
 40
2.617068194441102
 40
2.699247336756243
 40
2.822032643466556
 40
2.973822353258085
 40
3.143014704823528
 40
3.318007936880107
 40
3.48720028818694
 40
3.63898999754842
 40
3.761775303794919
 40
3.843954445753254
 40
3.87392566222995
 40
3.890812773500663
 40
3.907699884771846
 40
3.937960767857412
 40
3.980983618142525
 40
4.199085915228655
 40
4.439444339237407
 40
4.677588241261073
 40
5.050698317837929
 40
5.448212454763315
 40
5.855291218044755
 40
6.138575438885383
 40
6.417434507584183
 40
6.444551104393843
 40
6.504207617363145
 40
6.563864130314446
 40
6.590980727104015
 40
6.848609460381422
 40
7.109611990668347
 40
7.352910904446016
 40
7.55783022070535
 40
7.587518925913245
 40
7.652834077375664
 40
7.718149228845624
 40
7.747837934061904
 40
7.854880190300786
 40
7.97651125740331
 40
8.369487896592139
 40
8.757514959223432
 40
9.126072419330923
 40
9.460639380391985
 40
9.746695593035668
 40
9.777569943118468
 40
9.807050320931587
 40
9.830377336128725
 40
9.88600329543583
 40
9.952395569429754
 40
10.00802152870614
 40
10.03134854388206
 40
10.21356951009588
 40
10.42203479292863
 40
10.66154556731052
 40
10.91693789564291
 40
11.15832906556549
 40
11.18982674596606
 40
11.27286608520391
 40
11.39026653033333
 40
11.52484752840869
 40
11.65942852648431
 40
11.77682897161467
 40
11.85986831085666
 40
11.89136598230411
 40
11.89136598230411
 40
11.89136598230411
 40
11.89136598230411
 10
190.7027885008196
 20
14.70699600701767
 10
190.7028237765288
 20
14.71587847311981
 10
190.7029366710797
 20
14.74430237047343
 10
190.7012984568488
 20
14.79409639169802
 10
190.7069750292912
 20
14.83657564478155
 10
190.6956928731706
 20
14.8873015485685
 10
190.7632296979032
 20
14.87012900740112
 10
190.83880292107
 20
14.88290227165999
 10
190.9828357056001
 20
14.87629729457385
 10
191.1569419185426
 20
14.87888462206469
 10
191.3639599611004
 20
14.87800591955556
 10
191.5894688172378
 20
14.87828207920031
 10
191.8251162293406
 20
14.87818339658665
 10
192.0607640531348
 20
14.8782818441277
 10
192.2862717580626
 20
14.87800678190792
 10
192.4932934632805
 20
14.87888186270738
 10
192.6673888915288
 20
14.8763052267845
 10
192.8114492071986
 20
14.88288290449216
 10
192.8869691915293
 20
14.87016243405608
 10
192.954577603703
 20
14.88726400191689
 10
192.9430840140676
 20
14.83674785802942
 10
192.9505104581732
 20
14.792532522265
 10
192.9428838927987
 20
14.74867966503607
 10
192.9546489459425
 20
14.69878374479323
 10
192.8930788491983
 20
14.71393227712507
 10
192.8256791738671
 20
14.70310665350669
 10
192.7013004056221
 20
14.70852031626231
 10
192.555442823657
 20
14.7064920539078
 10
192.3893576440085
 20
14.70715777578381
 10
192.2188412621724
 20
14.70689643521237
 10
192.0519790855388
 20
14.70721553391089
 10
191.9087346827105
 20
14.70635302590756
 10
191.7773313869834
 20
14.70863300482984
 10
191.7239859134656
 20
14.70407704374196
 10
191.6485188456912
 20
14.70999914992873
 10
191.6769075779232
 20
14.70094169343346
 10
191.7033652409542
 20
14.6972591226892
 10
191.6633522907701
 20
14.66654271968276
 10
191.5713663691868
 20
14.6766759117464
 10
191.5439396207069
 20
14.43032502247787
 10
191.4478793967234
 20
14.27499558764375
 10
191.1917277964473
 20
13.9452541793157
 10
191.7627537732763
 20
14.08430022210447
 10
192.0173656320516
 20
14.08291779973364
 10
192.6279647048615
 20
13.99790569242082
 10
192.3340698578082
 20
14.29685417558209
 10
192.0133304286518
 20
14.44330856901773
 10
192.1313543360433
 20
14.50025540818287
 10
192.1724716466261
 20
14.52420099873347
 10
192.215681239441
 20
14.5459975881123
 10
192.317457409445
 20
14.60928721253907
 10
192.4328867625247
 20
14.35147151408777
 10
192.6329591642275
 20
14.21616041113677
 10
192.7269077387227
 20
14.03792795138879
 10
192.9558829746391
 20
13.87997821027054
 10
192.8596031846707
 20
13.829159725763
 10
192.8167959763778
 20
13.79881292523055
 10
192.7718243528778
 20
13.77466130281463
 10
192.7121720925213
 20
13.72552146747569
 10
192.6789731061325
 20
13.85997475673612
 10
192.5582013350795
 20
14.01594265286573
 10
192.1970976005979
 20
13.88569928059554
 10
191.838506195554
 20
13.9022469440948
 10
191.457092045008
 20
13.89331229351862
 10
191.1703455282889
 20
13.82882671672407
 10
190.8592055599717
 20
13.94230668192822
 10
190.8268737818787
 20
13.83122259927767
 10
190.7896178253318
 20
13.81196313850004
 10
190.7865737632753
 20
13.85874784087292
 10
190.7679892860606
 20
13.89806853919127
 10
190.7512436616777
 20
13.9576598347823
 10
190.7383730915752
 20
14.00201969871279
 10
190.7042327806428
 20
14.09106331120203
 10
190.9482714457753
 20
14.02181042943768
 10
191.144139448667
 20
14.00030369057759
 10
191.2395426381277
 20
14.28226484478465
 10
191.2945135769596
 20
14.44363045421123
 10
191.5159619357156
 20
14.71391177589733
 10
191.3849239381216
 20
14.70548446853729
 10
191.3110026555854
 20
14.70779008496965
 10
191.1977459876244
 20
14.70671378321653
 10
191.0694251807484
 20
14.70707639076504
 10
190.9404252030415
 20
14.70697724466081
 10
190.828784094629
 20
14.70699932712568
 10
190.7514663970026
 20
14.70699579189664
 10
190.713287653201
 20
14.70699595845076
 10
190.7027885008196
 20
14.70699600701767
 97
        1
330
C7
 75
     1
 76
     2
 52
45.0
 41
0.1
 77
     0
 78
     1
 53
45.0
 43
0.0
 44
0.0
 45
-0.282842712474619
 46
0.0
 79
     0
 98
        1
 10
0.0
 20
0.0
  0
HATCH
  5
E5
330
48
100
AcDbEntity
  8
1
  6
Continuous
 62
     2
100
AcDbHatch
 10
0.0
 20
0.0
 30
0.0
210
0.0
220
0.0
230
1.0
  2
CUSTOM11
 70
     0
 71
     1
 91
        1
 92
        1
 93
        1
 72
     4
 94
        3
 73
     0
 74
     0
 95
      131
 96
      127
 40
0.0
 40
0.0
 40
0.0
 40
0.0
 40
0.0195577029826436
 40
0.0426490537461469
 40
0.2863607575856912
 40
0.5344948436189713
 40
0.7842238845573382
 40
0.8737315789467537
 40
0.9803832810313053
 40
1.092842274517053
 40
1.199761146656821
 40
1.28978876818654
 40
1.351573580786258
 40
1.370727117561481
 40
1.416400936017882
 40
1.470914848356013
 40
1.516588666791795
 40
1.53574220355287
 40
1.634216592293244
 40
1.760283341175084
 40
1.897966686682186
 40
2.031216387369051
 40
2.049689751138045
 40
2.101115601646978
 40
2.17950257774009
 40
2.278859318314201
 40
2.393194462258853
 40
2.516516648383957
 40
2.642834515406079
 40
2.766156701983578
 40
2.880491846754683
 40
2.979848588358719
 40
3.058235565443891
 40
3.109661416669043
 40
3.128134780704219
 40
3.146783742386507
 40
3.19125434331534
 40
3.244332157315998
 40
3.288802758225845
 40
3.307451719895088
 40
3.327717853844698
 40
3.383747753580055
 40
3.46838866592444
 40
3.57448783769874
 40
3.694892515728837
 40
3.822449946851966
 40
3.950007377920347
 40
4.07041205580043
 40
4.176511227367977
 40
4.261152139501419
 40
4.317182039076608
 40
4.337448172964526
 40
4.62001100269615
 40
4.885096638397425
 40
4.945373043518273
 40
5.0141077104886
 40
5.070481727651967
 40
5.319246955636482
 40
5.584812164505946
 40
5.859000912056787
 40
6.133746937541953
 40
6.401732212968731
 40
6.420736683995321
 40
6.472845717450972
 40
6.5507027438939
 40
6.646951193874108
 40
6.754234497930489
 40
6.865196086587239
 40
6.972479390357754
 40
7.068727839771888
 40
7.146584865450925
 40
7.198693898189155
 40
7.217698368905295
 40
7.234950401630774
 40
7.276089864269818
 40
7.325191803515927
 40
7.366331266090314
 40
7.383583298769666
 40
7.402779163492043
 40
7.453386443254474
 40
7.524934666445504
 40
7.606953361405844
 40
7.688972056429024
 40
7.760520279784303
 40
7.811127559734545
 40
7.830323424546166
 40
7.847844055299796
 40
7.894799345666844
 40
7.962779392744539
 40
8.043374293560596
 40
8.128174145149512
 40
8.208769044817323
 40
8.276749090377034
 40
8.3237043796696
 40
8.341225010056334
 40
8.358497614800482
 40
8.401679126686687
 40
8.457815092185745
 40
8.51395105772815
 40
8.557132569708106
 40
8.574405174505149
 40
8.602340668616513
 40
8.643455660540159
 40
8.66322527196683
 40
8.715345156564481
 40
8.789031889628827
 40
8.873502045520569
 40
8.957972194324203
 40
9.031658925568102
 40
9.083778811234797
 40
9.103548423003264
 40
9.119550083123801
 40
9.160817522380132
 40
9.217244429110497
 40
9.27872449164504
 40
9.335151398295825
 40
9.37641883735812
 40
9.392420497300936
 40
9.401196302735167
 40
9.417494229384666
 40
9.42627002774995
 40
9.440875075477987
 40
9.475702496999174
 40
9.517270709866345
 40
9.55209813199452
 40
9.56670316988473
 40
9.56670316988473
 40
9.56670316988473
 40
9.56670316988473
 10
194.6170254148479
 20
15.67015871511029
 10
194.6134345093371
 20
15.66453690702159
 10
194.6056039123625
 20
15.6522775441911
 10
194.5129968974541
 20
15.61601916040993
 10
194.4887622233249
 20
15.40148444212707
 10
194.3858709845937
 20
15.2219728450971
 10
194.1220492364305
 20
15.03615573798146
 10
194.284547156918
 20
14.95959336566084
 10
194.3607225760838
 20
14.89856693195444
 10
194.4492171072758
 20
14.83515804544762
 10
194.538993023311
 20
14.77525634219561
 10
194.5883817636046
 20
14.72102154849206
 10
194.6745708157382
 20
14.69286240541828
 10
194.6411260674229
 20
14.65713309652806
 10
194.6214671166311
 20
14.62550387991902
 10
194.5919888217882
 20
14.58475872796067
 10
194.5688989446031
 20
14.55504663489642
 10
194.5380205968356
 20
14.50211422668492
 10
194.4729193365741
 20
14.62740334938906
 10
194.3796000122414
 20
14.68213900233937
 10
194.2950636285138
 20
14.73916423939345
 10
194.1722498125741
 20
14.89675287427526
 10
194.17644508473
 20
14.82035806766838
 10
194.1751478652677
 20
14.77361280161298
 10
194.1758126448076
 20
14.69584785812604
 10
194.1755549986955
 20
14.59902068324426
 10
194.175643123992
 20
14.48650279078813
 10
194.1756077302279
 20
14.36524085945704
 10
194.1756511758279
 20
14.24086897858967
 10
194.1755199942403
 20
14.11967683631342
 10
194.1759477562044
 20
14.0069114891975
 10
194.174667820231
 20
13.91082913768751
 10
194.1779759851042
 20
13.83113826468708
 10
194.1715197740085
 20
13.78815175788792
 10
194.1806208705555
 20
13.74955432372052
 10
194.1447910339933
 20
13.75810887724078
 10
194.1115223815252
 20
13.75342519985455
 10
194.060456257604
 20
13.75351298759792
 10
194.0269723972813
 20
13.75794430283828
 10
193.9907585408754
 20
13.74960793842518
 10
194.0009782568665
 20
13.79145277179292
 10
193.9936487887774
 20
13.83778560820181
 10
193.9973633136102
 20
13.9237483110602
 10
193.9959480554896
 20
14.02605142704855
 10
193.9964105554639
 20
14.14453223931517
 10
193.9962773686231
 20
14.2695768315336
 10
193.9963015910045
 20
14.39475828107053
 10
193.9963354925551
 20
14.5128664537906
 10
193.9962060293132
 20
14.61628748709518
 10
193.9965507549081
 20
14.69932036153667
 10
193.995869827869
 20
14.75143368521245
 10
193.999458660062
 20
14.8791290782136
 10
193.7826171386437
 20
14.58048716819619
 10
193.6021354921952
 20
14.35263981511513
 10
193.549032229561
 20
14.49373443289814
 10
193.5200429133149
 20
14.54325767560941
 10
193.419664806282
 20
14.64641779790113
 10
193.7405127723261
 20
14.72695035023775
 10
193.8689897005429
 20
14.91066283036434
 10
194.0906454325358
 20
15.11931995771759
 10
194.177022489407
 20
15.29339211228339
 10
194.4549394229073
 20
15.56967051342503
 10
194.3346247839285
 20
15.56534559551106
 10
194.2863197351348
 20
15.56614856202544
 10
194.2102377454905
 20
15.56574582146576
 10
194.116701000975
 20
15.56590275611601
 10
194.0117594788556
 20
15.56582502576215
 10
193.9033887738718
 20
15.56595464378547
 10
193.7981454235896
 20
15.56554393490683
 10
193.7056237819411
 20
15.56682073671583
 10
193.6268130800707
 20
15.56340766534841
 10
193.5839674565378
 20
15.57023350036312
 10
193.5449499586515
 20
15.56065064201115
 10
193.5526365271863
 20
15.59420779565535
 10
193.5485464404311
 20
15.62523550322225
 10
193.5485531368813
 20
15.67236529270892
 10
193.5526239724911
 20
15.70340941646771
 10
193.5449495574581
 20
15.73701861635893
 10
193.5834819405494
 20
15.72748410420864
 10
193.6241228014479
 20
15.73397435498063
 10
193.6951471850462
 20
15.73100150650246
 10
193.7729318149633
 20
15.73174761399149
 10
193.8507292246474
 20
15.73247814044517
 10
193.9217232089908
 20
15.72954235514153
 10
193.9624279791819
 20
15.73595468772943
 10
194.000985348991
 20
15.72650524175996
 10
193.9927342754927
 20
15.76264692158776
 10
193.9982346669359
 20
15.8012983761322
 10
193.9955754206163
 20
15.86913528561832
 10
193.9965815471533
 20
15.94591641538734
 10
193.9960178018319
 20
16.02849393582752
 10
193.9970714526593
 20
16.10517329229874
 10
193.9942675863129
 20
16.17331990776696
 10
194.0000702721304
 20
16.21132399809344
 10
193.9915654551158
 20
16.24758448077644
 10
194.0255610233125
 20
16.2375572377185
 10
194.05945756831
 20
16.24073266813705
 10
194.1126669060346
 20
16.23508965640606
 10
194.1660768574482
 20
16.23434774436423
 10
194.1995914649491
 20
16.22819223482977
 10
194.2388086183039
 20
16.2334602977359
 10
194.2120263698491
 20
16.19253380793482
 10
194.1708111001723
 20
16.20371204538113
 10
194.1782641540871
 20
16.1586705619212
 10
194.1742227952184
 20
16.11412278028142
 10
194.1761714049639
 20
16.04223572621699
 10
194.1752364849757
 20
15.96168630588765
 10
194.1765107190029
 20
15.88173995404989
 10
194.1732043793863
 20
15.80841837083176
 10
194.180210617996
 20
15.76688643002561
 10
194.1701440380124
 20
15.72752418568105
 10
194.2029814803921
 20
15.73468063430973
 10
194.2364577296479
 20
15.73027243137937
 10
194.2915053476018
 20
15.73217943347889
 10
194.3489502595314
 20
15.7318536640728
 10
194.4023026248309
 20
15.73106308733073
 10
194.4398540896639
 20
15.73313959118067
 10
194.4623172523236
 20
15.73022338167099
 10
194.4751678073731
 20
15.73572552644053
 10
194.4858255685888
 20
15.73801118197791
 10
194.4986635650143
 20
15.74494972588061
 10
194.514599103307
 20
15.72853046313677
 10
194.5410623920892
 20
15.71709122319454
 10
194.5726805253757
 20
15.69644687835194
 10
194.5987255892151
 20
15.68116869628296
 10
194.6128517723973
 20
15.67266976323186
 10
194.6170254148479
 20
15.67015871511029
 97
        1
330
C8
 75
     1
 76
     2
 52
45.0
 41
0.1
 77
     0
 78
     1
 53
45.0
 43
0.0
 44
0.0
 45
-0.282842712474619
 46
0.0
 79
     0
 98
        1
 10
0.0
 20
0.0
  0
HATCH
  5
E6
330
48
100
AcDbEntity
  8
1
  6
Continuous
 62
     2
100
AcDbHatch
 10
0.0
 20
0.0
 30
0.0
210
0.0
220
0.0
230
1.0
  2
CUSTOM12
 70
     0
 71
     1
 91
        1
 92
        1
 93
        1
 72
     4
 94
        3
 73
     0
 74
     0
 95
      124
 96
      120
 40
0.0
 40
0.0
 40
0.0
 40
0.0
 40
0.027818722962451
 40
0.1011590162384269
 40
0.204847017058967
 40
0.3237088716558393
 40
0.4425707262521147
 40
0.546258727069841
 40
0.6195990203310661
 40
0.6474177522577523
 40
0.6750060736114141
 40
0.7357003855241782
 40
0.7963946998053568
 40
0.8239830245570932
 40
0.8540933811102025
 40
0.9373396629408706
 40
1.063094687343151
 40
1.220731268637961
 40
1.399622220914636
 40
1.589140358637592
 40
1.778658496423701
 40
1.957549448940368
 40
2.115186030872962
 40
2.240941056914266
 40
2.324187341760335
 40
2.354297700109185
 40
2.381886024671696
 40
2.442580338710292
 40
2.503274652750329
 40
2.530862977314439
 40
2.560983949278392
 40
2.640393784452738
 40
2.752662861758961
 40
2.881361560117978
 40
3.010060258455025
 40
3.122329335705172
 40
3.201739170817786
 40
3.231860142753146
 40
3.264298024030199
 40
3.352343701778065
 40
3.482095226868579
 40
3.63965065017283
 40
3.811108022565276
 40
3.982565394927771
 40
4.140120818152345
 40
4.269872343141045
 40
4.357918020802102
 40
4.390355902043727
 40
4.423256253992297
 40
4.508104530072818
 40
4.624121560636586
 40
4.750528176031342
 40
4.866545206601789
 40
4.951393482691747
 40
4.984293834645148
 40
5.011450833242061
 40
5.071196230151839
 40
5.130941627056909
 40
5.158098625648571
 40
5.190998977601262
 40
5.275847253689087
 40
5.391864284256521
 40
5.518270899648066
 40
5.634287930209106
 40
5.71913620628778
 40
5.752036558235667
 40
5.782130946282694
 40
5.862783906228874
 40
5.979550131774752
 40
6.117984316640167
 40
6.263641154587725
 40
6.402075339413941
 40
6.518841564907745
 40
6.599494524815333
 40
6.629588912848575
 40
6.654403028226151
 40
6.713575149487919
 40
6.784199939329237
 40
6.843372060493339
 40
6.868186175802585
 40
6.896246243201692
 40
6.939586233758059
 40
6.967846564564691
 40
7.043584251089622
 40
7.15323433445148
 40
7.283231855734228
 40
7.420011856035257
 40
7.550009376579607
 40
7.659659458835004
 40
7.735397144416997
 40
7.763657474851168
 40
7.796409728010825
 40
7.880876065096099
 40
7.996370852465485
 40
8.12220844641838
 40
8.237703224798974
 40
8.322169562010668
 40
8.354921815205682
 40
8.38207881330746
 40
8.441824209206759
 40
8.501569605239903
 40
8.528726603485477
 40
8.561478856695526
 40
8.645945193877576
 40
8.761439980865088
 40
8.88727758076423
 40
9.002772362000751
 40
9.087238696660972
 40
9.119990949235426
 40
9.152428830613122
 40
9.240474508638334
 40
9.370226034149278
 40
9.527781457984148
 40
9.699238830981127
 40
9.870696203978307
 40
10.02825162781372
 40
10.15800315332533
 40
10.24604883135087
 40
10.27848670378489
 40
10.27848670378489
 40
10.27848670378489
 40
10.27848670378489
 10
195.3821827564383
 20
14.01410517385762
 10
195.3914554737523
 20
14.01410498511279
 10
195.4251744536861
 20
14.01410430876719
 10
195.4934706812465
 20
14.0141180724331
 10
195.592014171158
 20
14.0140322421955
 10
195.7062066464811
 20
14.01441755612255
 10
195.818589441707
 20
14.0130083589755
 10
195.9214376600117
 20
14.01719117422248
 10
195.9806839874847
 20
14.00823089251988
 10
196.0371265937032
 20
14.02164434526066
 10
196.0246255586953
 20
13.97087198613366
 10
196.0329549635703
 20
13.9258932093907
 10
196.0248170841118
 20
13.88056752990491
 10
196.0370529214456
 20
13.82931932408468
 10
195.9747773490332
 20
13.84447955365278
 10
195.9060513026866
 20
13.83359750710744
 10
195.778275674959
 20
13.83911304747974
 10
195.6262984511642
 20
13.837008512537
 10
195.4502695972522
 20
13.83771002588476
 10
195.2644431934286
 20
13.83745237531293
 10
195.0786167437175
 20
13.83771005144606
 10
194.9025880142167
 20
13.83700841847732
 10
194.7506104154194
 20
13.83911332229991
 10
194.6228357664554
 20
13.83359680767642
 10
194.554107783658
 20
13.84448077125944
 10
194.4918349042883
 20
13.82931786684211
 10
194.5040616290017
 20
13.88057510805174
 10
194.4960004462597
 20
13.92582473272429
 10
194.5040675809893
 20
13.97106357955327
 10
194.4918238487083
 20
14.02234176909962
 10
194.5525017120698
 20
14.0074957736314
 10
194.6162810745736
 20
14.01756448170739
 10
194.7277314353502
 20
14.01294644212004
 10
194.8497533443824
 20
14.01413328905473
 10
194.9719538137823
 20
14.0151586390064
 10
195.0829794287392
 20
14.01092475623406
 10
195.1476517413958
 20
14.02018584521744
 10
195.2091162810501
 20
14.00604423049687
 10
195.1930065601337
 20
14.07235527884521
 10
195.2042980327358
 20
14.1444779012198
 10
195.198740082256
 20
14.27513760888289
 10
195.2008035061691
 20
14.42607323708243
 10
195.2000167127295
 20
14.59335873107887
 10
195.2007845215628
 20
14.76061110332303
 10
195.1988038785628
 20
14.91163289269914
 10
195.2041306156621
 20
15.04206069552994
 10
195.1933101388425
 20
15.11465442605897
 10
195.2090326429875
 20
15.18150469436796
 10
195.143270813249
 20
15.16580512490822
 10
195.0756367830764
 20
15.17609243083993
 10
194.9615885293809
 20
15.1711378684712
 10
194.8451242674902
 20
15.17414128030472
 10
194.7306554121477
 20
15.16880303143387
 10
194.6640324657812
 20
15.18001268074822
 10
194.5990769715185
 20
15.16349132665009
 10
194.6107989758707
 20
15.21473720477056
 10
194.6032830189121
 20
15.25950333784088
 10
194.6107989878835
 20
15.30426944897957
 10
194.5990769505347
 20
15.35551536129737
 10
194.66403263392
 20
15.3389938176681
 10
194.7306533339822
 20
15.3502057137394
 10
194.8451352858063
 20
15.3448543671066
 10
194.9615454436962
 20
15.34791188771113
 10
195.0757660174641
 20
15.34278499010704
 10
195.1430150439226
 20
15.35345733355594
 10
195.2083325941438
 20
15.33742082669073
 10
195.1941391448552
 20
15.39949685750049
 10
195.2036059462995
 20
15.4658676162876
 10
195.1990269004085
 20
15.58239972741964
 10
195.2007696555948
 20
15.71426685022375
 10
195.1997551495391
 20
15.85615960150273
 10
195.2017191344373
 20
15.98769050702581
 10
195.1964668553851
 20
16.10524577283004
 10
195.2073408763475
 20
16.16947789001586
 10
195.1919536641853
 20
16.2310880254505
 10
195.24075915378
 20
16.21702407382113
 10
195.2853995564725
 20
16.21954742075317
 10
195.3538643946742
 20
16.21512797401711
 10
195.3959106169102
 20
16.20613025544038
 10
195.4487544758775
 20
16.21411714866511
 10
195.4207035002013
 20
16.1711391761168
 10
195.3749142248594
 20
16.18259552043828
 10
195.3869539073264
 20
16.12173520005133
 10
195.3796086070641
 20
16.05769299468767
 10
195.3831195826161
 20
15.94909368863906
 10
195.3819806760173
 20
15.82494319144748
 10
195.3819174780262
 20
15.69189719829873
 10
195.3832872966868
 20
15.56797381249551
 10
195.3791638801313
 20
15.45868337849334
 10
195.3877763103564
 20
15.39608580094166
 10
195.3746757454402
 20
15.33740133296362
 10
195.4393884328198
 20
15.35362113810897
 10
195.5060405953156
 20
15.34270260383308
 10
195.6198779541103
 20
15.34793740173751
 10
195.7357259122097
 20
15.34485547516909
 10
195.8496924263279
 20
15.35018259812508
 10
195.91603410181
 20
15.33904208166539
 10
195.9807188525479
 20
15.35546979593174
 10
195.9689820772722
 20
15.30425925210047
 10
195.9765168063041
 20
15.25950334120998
 10
195.9689820992258
 20
15.21474739010024
 10
195.9807188140736
 20
15.16353690871038
 10
195.9160344075252
 20
15.17996427794218
 10
195.8496886430824
 20
15.16882784447266
 10
195.7357459487012
 20
15.17413115893118
 10
195.6197995623054
 20
15.17114764593542
 10
195.5062756882122
 20
15.17606892268391
 10
195.4389231318804
 20
15.16585087513517
 10
195.3734285122495
 20
15.18145996138813
 10
195.3891713619218
 20
15.11463851827409
 10
195.3783275998212
 20
15.04207057815877
 10
195.3836581629793
 20
14.91162247614416
 10
195.3817136151854
 20
14.76064558185225
 10
195.3823133683215
 20
14.5932224393416
 10
195.3821506559604
 20
14.42656176118374
 10
195.3821895488136
 20
14.2736014292164
 10
195.3821816413098
 20
14.14849178985709
 10
195.3821828382745
 20
14.06507890991424
 10
195.3821827716208
 20
14.02491778281981
 10
195.3821827564383
 20
14.01410517385762
 97
        1
330
C9
 75
     1
 76
     2
 52
45.0
 41
0.1
 77
     0
 78
     1
 53
45.0
 43
0.0
 44
0.0
 45
-0.282842712474619
 46
0.0
 79
     0
 98
        1
 10
0.0
 20
0.0
  0
HATCH
  5
E7
330
48
100
AcDbEntity
  8
1
  6
Continuous
 62
     2
100
AcDbHatch
 10
0.0
 20
0.0
 30
0.0
210
0.0
220
0.0
230
1.0
  2
CUSTOM13
 70
     0
 71
     1
 91
        1
 92
        1
 93
        3
 72
     4
 94
        3
 73
     0
 74
     0
 95
       24
 96
       20
 40
0.0
 40
0.0
 40
0.0
 40
0.0
 40
0.2211075008752919
 40
0.4273218586244958
 40
0.5080174679239037
 40
0.591483590786998
 40
0.8143265690192447
 40
1.054651302686547
 40
1.295452694023139
 40
1.518109231328841
 40
1.540864321905457
 40
1.595126460622661
 40
1.659890947895947
 40
1.714153085187278
 40
1.736908174961578
 40
1.764951100735225
 40
1.801562291220789
 40
1.953914424543463
 40
2.126104167379485
 40
2.126104167379485
 40
2.126104167379485
 40
2.126104167379485
 10
185.9375369556889
 20
15.58989295113008
 10
185.9112579081811
 20
15.53097628234369
 10
185.8604698894425
 20
15.41711139679254
 10
185.8131784839111
 20
15.14441958233109
 10
185.7043482802618
 20
15.24445482575452
 10
185.5514800279637
 20
15.2711859336733
 10
185.7686155181199
 20
15.4851813501763
 10
185.7838483674381
 20
15.70332117782485
 10
185.8906889492
 20
15.88451579066424
 10
185.8305380947079
 20
16.16913226311407
 10
185.9334317395401
 20
16.14114089222453
 10
185.9779933468149
 20
16.13243251602302
 10
186.0380842395395
 20
16.12139654183358
 10
186.0756619587437
 20
16.10767523055561
 10
186.1252466928604
 20
16.10756076160228
 10
186.0930158919325
 20
16.07306592398623
 10
186.017180222188
 20
16.08404104537963
 10
186.0429447159694
 20
15.89858969582454
 10
186.0055896763849
 20
15.80702313549593
 10
185.9857704961609
 20
15.75844135397711
 72
     4
 94
        3
 73
     0
 74
     0
 95
       70
 96
       66
 40
0.0
 40
0.0
 40
0.0
 40
0.0
 40
0.0241731073021472
 40
0.0846058988987013
 40
0.1631685280353284
 40
0.2417311571789756
 40
0.3021639488292751
 40
0.3263370654895541
 40
0.3533118254248863
 40
0.4228783438922058
 40
0.5179999095313278
 40
0.6216398239465925
 40
0.7167613891499457
 40
0.7863279069649579
 40
0.8133026791761516
 40
0.8372943998771359
 40
0.8945054261372565
 40
0.9627895541962345
 40
1.020000580349045
 40
1.043992300975144
 40
1.071934345522877
 40
1.113121768772886
 40
1.145225199332204
 40
1.225483775412725
 40
1.329819923771415
 40
1.434156071994284
 40
1.514414647795689
 40
1.546518078208292
 40
1.578974764260065
 40
1.66267884931406
 40
1.777131373668281
 40
1.901833377474672
 40
2.016285900500462
 40
2.099989982527829
 40
2.132446666570187
 40
2.158782354485929
 40
2.21672086790776
 40
2.274659381334224
 40
2.300995069256178
 40
2.33345175406615
 40
2.417155836543831
 40
2.53160835898527
 40
2.656310362283765
 40
2.770762886388898
 40
2.854466971340063
 40
2.886923657363869
 40
2.9135979768333
 40
2.982389642875091
 40
3.076451716946945
 40
3.178937260458541
 40
3.272999334739932
 40
3.341791001059145
 40
3.368465320663454
 40
3.396976080738675
 40
3.472140811845911
 40
3.5784081903086
 40
3.700226892456008
 40
3.822045594634226
 40
3.928312973256304
 40
4.003477705314673
 40
4.031988456866738
 40
4.058324144797536
 40
4.116262658236698
 40
4.174201171400497
 40
4.200536849608429
 40
4.200536849608429
 40
4.200536849608429
 40
4.200536849608429
 10
185.9857704961609
 20
15.75844135397711
 10
185.9938259544679
 20
15.75844359811692
 10
186.0220200663241
 20
15.75845146032804
 10
186.0765534803672
 20
15.75830754828377
 10
186.1482891808604
 20
15.75909120499903
 10
186.2236240137062
 20
15.75627570463817
 10
186.2713052366439
 20
15.76298403400963
 10
186.3195071245616
 20
15.75197563692439
 10
186.3062571799873
 20
15.80546402997039
 10
186.3151093964538
 20
15.86049583543097
 10
186.3108698036285
 20
15.95419908726114
 10
186.313348348128
 20
16.04959482218536
 10
186.309093870606
 20
16.14356821983391
 10
186.3179818665846
 20
16.19795062438015
 10
186.3046977409945
 20
16.25233997691463
 10
186.3514119277109
 20
16.2384221633536
 10
186.3943254545737
 20
16.24103877374044
 10
186.4605443456684
 20
16.23648422450754
 10
186.5013342271798
 20
16.2277816213416
 10
186.5525145690819
 20
16.23531799890192
 10
186.52537204872
 20
16.19349970223282
 10
186.4803096055706
 20
16.20284992072594
 10
186.4942065045051
 20
16.13841207371836
 10
186.4858414431653
 20
16.07378219627399
 10
186.4903632178398
 20
15.97529141193889
 10
186.4854741311167
 20
15.87595932842574
 10
186.4950258992081
 20
15.81293115552973
 10
186.47997614552
 20
15.74964011499795
 10
186.5449159457208
 20
15.76515072944275
 10
186.6116246399497
 20
15.75499387697818
 10
186.7241435470827
 20
15.75988800099373
 10
186.8390235448954
 20
15.7569120473279
 10
186.9519871999747
 20
15.76221664184996
 10
187.0176267597677
 20
15.75107306472095
 10
187.0816276691053
 20
15.76744532319863
 10
187.0703142889189
 20
15.71761689905277
 10
187.077533987151
 20
15.67416715212123
 10
187.0703142611269
 20
15.63071745587442
 10
187.0816277175994
 20
15.58088895196871
 10
187.0176263598972
 20
15.59726166091356
 10
186.9519921240459
 20
15.58611271661582
 10
186.838997431733
 20
15.59144857206848
 10
186.7242456548644
 20
15.58834345663816
 10
186.611318368686
 20
15.59364894682583
 10
186.5455220903584
 20
15.58257300019587
 10
186.4816097975358
 20
15.59887597847612
 10
186.4936015165125
 20
15.54423524395736
 10
186.4862104613006
 20
15.48854295047838
 10
186.4892684841983
 20
15.39649689140567
 10
186.4893422785683
 20
15.30179109873099
 10
186.486031357836
 20
15.20952782902265
 10
186.4939505989904
 20
15.1543576873614
 10
186.4815076611617
 20
15.10058169100136
 10
186.5389116551632
 20
15.11453768862783
 10
186.5994708140382
 20
15.10511457884227
 10
186.7048680855081
 20
15.10942885928705
 10
186.8204294070622
 20
15.10835504612032
 10
186.9359688877796
 20
15.10725965900996
 10
187.041418113084
 20
15.11162525770633
 10
187.1018680471803
 20
15.10209426030672
 10
187.1592837739109
 20
15.1161728960638
 10
187.1477773876708
 20
15.06707153265684
 10
187.1537566781748
 20
15.0256465801865
 10
187.1520311050801
 20
14.97651677966696
 10
187.1521500122971
 20
14.94854428447609
 10
187.1521871691832
 20
14.93980288195951
 72
     4
 94
        3
 73
     0
 74
     0
 95
       62
 96
       58
 40
0.0
 40
0.0
 40
0.0
 40
0.0
 40
0.0598250028308485
 40
0.2024846486897047
 40
0.3727558389220178
 40
0.5154154847935217
 40
0.5752404975784486
 40
0.9332326775486529
 40
1.29045176283941
 40
1.602077253145802
 40
1.699931634112079
 40
1.799359756424986
 40
2.270120149657047
 40
2.804661928461467
 40
2.882342287383178
 40
3.076543185719029
 40
3.329004354835487
 40
3.581465524568312
 40
3.775666424543592
 40
3.853346784558212
 40
3.899120679594958
 40
3.984129341791956
 40
4.029903236817304
 40
4.105797496059456
 40
4.295533144152408
 40
4.542189486611642
 40
4.78884582887558
 40
4.978581476409957
 40
5.054475735244198
 40
5.621734664339147
 40
6.130867242037181
 40
6.225249780948448
 40
6.31891303972712
 40
6.663579954558754
 40
7.0474989002246
 40
7.43523079157549
 40
7.498943906667874
 40
7.650875181209868
 40
7.832212509001321
 40
7.984143783696707
 40
8.047856898902834
 40
8.09155463273234
 40
8.172707566963997
 40
8.21640530076772
 40
8.289021782160605
 40
8.462184160756978
 40
8.668861838005059
 40
8.84202421526365
 40
8.914640695474846
 40
8.989881580861041
 40
9.155411528826924
 40
9.320941477743682
 40
9.396182352486925
 40
9.454709011143471
 40
9.583467660170406
 40
9.712226309012685
 40
9.770752957989139
 40
9.770752957989139
 40
9.770752957989139
 40
9.770752957989139
 10
187.1521871691832
 20
14.93980288195951
 10
187.1322348171623
 20
14.93980875568673
 10
187.0647037716464
 20
14.93982863806158
 10
186.9410612161788
 20
14.93949362520327
 10
186.7863180150056
 20
14.94107673750513
 10
186.6697349482479
 20
14.93686078860496
 10
186.4550942634241
 20
14.95215205331627
 10
186.8518948407229
 20
14.59198721286192
 10
186.8945656069266
 20
14.37510503397163
 10
187.3189162146612
 20
14.19325062511449
 10
187.1439821496074
 20
14.08985196568069
 10
187.0194523925084
 20
13.87831523212723
 10
186.7666277235943
 20
14.3480608100156
 10
186.4797602893628
 20
14.99511516984517
 10
186.4906335926659
 20
14.6878267215469
 10
186.488289277796
 20
14.52288616971775
 10
186.4861096126411
 20
14.2887967071169
 10
186.4980774396346
 20
14.0449807242178
 10
186.468798474063
 20
13.89855796860981
 10
186.511452262547
 20
13.75113490174535
 10
186.4239814005639
 20
13.76685797306217
 10
186.3768527606745
 20
13.76694303543452
 10
186.2898973207712
 20
13.75109425482906
 10
186.3313474021722
 20
13.89527771422759
 10
186.3029875004285
 20
14.03855052698451
 10
186.31459737753
 20
14.2767494736526
 10
186.3124175648272
 20
14.50517235240341
 10
186.3103111127994
 20
14.66705729375988
 10
186.3208035438324
 20
14.98153709333743
 10
186.0128963252892
 20
14.29229470872435
 10
185.7055258267457
 20
13.81476750243048
 10
185.5851367066274
 20
14.03741112637427
 10
185.4074607910722
 20
14.15011034955562
 10
185.8853326362893
 20
14.32548143465466
 10
185.9353959057208
 20
14.56091929252031
 10
186.3583799621715
 20
14.95322989344607
 10
186.127675427354
 20
14.93655307029067
 10
186.004968585934
 20
14.94269518948772
 10
185.8325483095661
 20
14.93312822699574
 10
185.7213224694449
 20
14.95448818489667
 10
185.6025779627448
 20
14.92136265357421
 10
185.6183169706686
 20
15.00203900606884
 10
185.6178550933762
 20
15.04645414290855
 10
185.6027881889931
 20
15.12967081778534
 10
185.7372380935443
 20
15.09062651983884
 10
185.8619755545747
 20
15.11739729328423
 10
186.062875523728
 20
15.10063949044053
 10
186.1921540949353
 20
15.12204225913005
 10
186.3328419928294
 20
15.08868778853421
 10
186.2980927452615
 20
15.22651875785067
 10
186.3222185666713
 20
15.34963257349478
 10
186.2967086182392
 20
15.47024055670331
 10
186.3333251146685
 20
15.60539865141489
 10
186.2211417027769
 20
15.58094545781884
 10
186.1280356457136
 20
15.59307749842017
 10
186.0191547579819
 20
15.58957630069986
 10
185.9569697640964
 20
15.58981755951597
 10
185.9375369557246
 20
15.58989295124138
 97
        3
330
CB
330
CC
330
CA
 75
     1
 76
     2
 52
45.0
 41
0.1
 77
     0
 78
     1
 53
45.0
 43
0.0
 44
0.0
 45
-0.282842712474619
 46
0.0
 79
     0
 98
        1
 10
0.0
 20
0.0
  0
HATCH
  5
E8
330
48
100
AcDbEntity
  8
1
  6
Continuous
 62
     2
100
AcDbHatch
 10
0.0
 20
0.0
 30
0.0
210
0.0
220
0.0
230
1.0
  2
CUSTOM14
 70
     0
 71
     1
 91
        1
 92
        1
 93
        4
 72
     1
 10
192.4578138032672
 20
15.22875434022058
 11
191.1602971697031
 21
15.22875434022058
 72
     1
 10
191.1602971697031
 20
15.22875434022058
 11
191.1602971697031
 21
15.39722336795632
 72
     1
 10
191.1602971697031
 20
15.39722336795632
 11
192.4578138032672
 21
15.39722336795632
 72
     1
 10
192.4578138032672
 20
15.39722336795632
 11
192.4578138032672
 21
15.22875434022058
 97
        1
330
CD
 75
     1
 76
     2
 52
45.0
 41
0.1
 77
     0
 78
     1
 53
45.0
 43
0.0
 44
0.0
 45
-0.282842712474619
 46
0.0
 79
     0
 98
        1
 10
0.0
 20
0.0
  0
ENDBLK
  5
4A
330
48
100
AcDbEntity
  8
0
100
AcDbBlockEnd
  0
BLOCK
  5
4D
330
4B
100
AcDbEntity
  8
0
100
AcDbBlockBegin
  2
開示A4枠
 70
     0
 10
0.0
 20
0.0
 30
0.0
  3
開示A4枠
  1

  0
INSERT
  5
4C
330
4B
100
AcDbEntity
  8
1
100
AcDbBlockReference
  2
開示A4
 10
0.0
 20
0.0
 30
0.0
  0
ENDBLK
  5
4E
330
4B
100
AcDbEntity
  8
0
100
AcDbBlockEnd
  0
BLOCK
  5
50
330
4F
100
AcDbEntity
  8
0
100
AcDbBlockBegin
  2
72-12
 70
     0
 10
234.0358866338757
 20
48.72573997712561
 30
0.0
  3
72-12
  1

  0
LINE
  5
E9
330
4F
100
AcDbEntity
  8
1
  6
Continuous
 62
     7
100
AcDbLine
 10
111.0824790833655
 20
88.47803933207399
 30
0.0
 11
111.0824790833655
 21
87.064589389827
 31
0.0
  0
LINE
  5
EA
330
4F
100
AcDbEntity
  8
1
  6
Continuous
 62
     7
100
AcDbLine
 10
118.0178895601363
 20
87.064589389827
 30
0.0
 11
118.0178895601363
 21
88.47803933207399
 31
0.0
  0
LINE
  5
EB
330
4F
100
AcDbEntity
  8
1
  6
Continuous
 62
     7
100
AcDbLine
 10
118.0178895601363
 20
88.47803933207399
 30
0.0
 11
111.0178895601362
 21
88.47803933207399
 31
0.0
  0
ARC
  5
EC
330
4F
100
AcDbEntity
  8
1
  6
Continuous
 62
     7
100
AcDbCircle
 10
114.5178895601363
 20
94.87803933207397
 30
0.0
 40
8.999999999999968
100
AcDbArc
 50
250.2845329142798
 51
270.0
  0
ARC
  5
ED
330
4F
100
AcDbEntity
  8
1
  6
Continuous
 62
     7
100
AcDbCircle
 10
114.5178895601363
 20
94.87803933207397
 30
0.0
 40
9.0
100
AcDbArc
 50
270.0
 51
289.715467085719
  0
ARC
  5
EE
330
4F
100
AcDbEntity
  8
1
  6
Continuous
 62
     7
100
AcDbCircle
 10
117.3178895601363
 20
87.064589389827
 30
0.0
 40
0.6999999999999597
100
AcDbArc
 50
289.7154670857158
 51
0.0
  0
ARC
  5
EF
330
4F
100
AcDbEntity
  8
1
  6
Continuous
 62
     7
100
AcDbCircle
 10
111.7178895601361
 20
87.064589389827
 30
0.0
 40
0.6999999999999034
100
AcDbArc
 50
180.0
 51
250.2845329142842
  0
ENDBLK
  5
51
330
4F
100
AcDbEntity
  8
0
100
AcDbBlockEnd
  0
BLOCK
  5
53
330
52
100
AcDbEntity
  8
0
100
AcDbBlockBegin
  2
91-1
 70
     0
 10
225.9120524196752
 20
95.9690549108401
 30
0.0
  3
91-1
  1

  0
LINE
  5
F0
330
52
100
AcDbEntity
  8
0
  6
Continuous
 62
     7
100
AcDbLine
 10
107.5501843217509
 20
88.47803933207399
 30
0.0
 11
107.5501843217508
 21
89.97803933207399
 31
0.0
  0
LINE
  5
F1
330
52
100
AcDbEntity
  8
0
  6
Continuous
 62
     7
100
AcDbLine
 10
107.5501843217509
 20
88.47803933207399
 30
0.0
 11
121.5501843217509
 21
88.47803933207399
 31
0.0
  0
LINE
  5
F2
330
52
100
AcDbEntity
  8
0
  6
Continuous
 62
     7
100
AcDbLine
 10
121.5501843217509
 20
89.97803933207399
 30
0.0
 11
121.5501843217509
 21
88.47803933207399
 31
0.0
  0
ENDBLK
  5
54
330
52
100
AcDbEntity
  8
0
100
AcDbBlockEnd
  0
BLOCK
  5
56
330
55
100
AcDbEntity
  8
0
100
AcDbBlockBegin
  2
36-54
 70
     0
 10
426.6898249958548
 20
21.42243024545621
 30
0.0
  3
36-54
  1

  0
LINE
  5
F3
330
55
100
AcDbEntity
  8
0
  6
Continuous
 62
     7
100
AcDbLine
 10
109.8001843217507
 20
94.97803933207399
 30
0.0
 11
119.3001843217509
 21
94.97803933207399
 31
0.0
  0
LINE
  5
F4
330
55
100
AcDbEntity
  8
0
  6
Continuous
 62
     7
100
AcDbLine
 10
109.8001843217507
 20
99.47803933207399
 30
0.0
 11
119.3001843217509
 21
99.47803933207399
 31
0.0
  0
LINE
  5
F5
330
55
100
AcDbEntity
  8
0
  6
Continuous
 62
     7
100
AcDbLine
 10
106.7001843217508
 20
100.4306672762369
 30
0.0
 11
122.4001843217508
 21
100.4306672762369
 31
0.0
  0
LINE
  5
F6
330
55
100
AcDbEntity
  8
1
  6
Continuous
 62
     7
100
AcDbLine
 10
124.0501843217509
 20
106.478039332074
 30
0.0
 11
124.0501843217509
 21
100.4306672762369
 31
0.0
  0
LINE
  5
F7
330
55
100
AcDbEntity
  8
1
  6
Continuous
 62
     2
100
AcDbLine
 10
122.4001843217508
 20
106.478039332074
 30
0.0
 11
122.4001843217508
 21
100.4306672762369
 31
0.0
  0
LINE
  5
F8
330
55
100
AcDbEntity
  8
1
  6
Continuous
 62
     7
100
AcDbLine
 10
106.6501843217507
 20
89.97803933207399
 30
0.0
 11
106.6501843217507
 21
94.97803933207399
 31
0.0
  0
LINE
  5
F9
330
55
100
AcDbEntity
  8
1
  6
Continuous
 62
     7
100
AcDbLine
 10
106.6501843217507
 20
89.97803933207399
 30
0.0
 11
114.5501843217509
 21
89.97803933207399
 31
0.0
  0
LINE
  5
FA
330
55
100
AcDbEntity
  8
1
  6
Continuous
 62
     2
100
AcDbLine
 10
106.7001843217508
 20
100.4306672762369
 30
0.0
 11
106.7001843217508
 21
106.478039332074
 31
0.0
  0
LINE
  5
FB
330
55
100
AcDbEntity
  8
1
  6
Continuous
 62
     2
100
AcDbLine
 10
106.7001843217508
 20
99.47803933207399
 30
0.0
 11
106.7001843217508
 21
100.4306672762369
 31
0.0
  0
LINE
  5
FC
330
55
100
AcDbEntity
  8
1
  6
Continuous
 62
     7
100
AcDbLine
 10
106.7001843217508
 20
99.47803933207399
 30
0.0
 11
107.1501843217507
 21
99.47803933207399
 31
0.0
  0
LINE
  5
FD
330
55
100
AcDbEntity
  8
1
  6
Continuous
 62
     7
100
AcDbLine
 10
109.8001843217507
 20
99.47803933207399
 30
0.0
 11
107.1501843217507
 21
99.47803933207399
 31
0.0
  0
LINE
  5
FE
330
55
100
AcDbEntity
  8
1
  6
Continuous
 62
     7
100
AcDbLine
 10
109.8001843217507
 20
94.97803933207399
 30
0.0
 11
109.8001843217507
 21
99.47803933207399
 31
0.0
  0
LINE
  5
FF
330
55
100
AcDbEntity
  8
1
  6
Continuous
 62
     7
100
AcDbLine
 10
106.6501843217507
 20
94.97803933207399
 30
0.0
 11
109.8001843217507
 21
94.97803933207399
 31
0.0
  0
LINE
  5
100
330
55
100
AcDbEntity
  8
1
  6
Continuous
 62
     7
100
AcDbLine
 10
105.0501843217507
 20
100.4306672762369
 30
0.0
 11
105.0501843217507
 21
106.478039332074
 31
0.0
  0
LINE
  5
101
330
55
100
AcDbEntity
  8
1
  6
Continuous
 62
     7
100
AcDbLine
 10
105.0501843217507
 20
100.4306672762369
 30
0.0
 11
106.7001843217508
 21
99.47803933207399
 31
0.0
  0
LINE
  5
102
330
55
100
AcDbEntity
  8
1
  6
Continuous
 62
     7
100
AcDbLine
 10
106.7001843217508
 20
100.4306672762369
 30
0.0
 11
105.0501843217507
 21
100.4306672762369
 31
0.0
  0
LINE
  5
103
330
55
100
AcDbEntity
  8
1
  6
Continuous
 62
     7
100
AcDbLine
 10
122.4501843217508
 20
94.97803933207399
 30
0.0
 11
122.4501843217508
 21
89.97803933207399
 31
0.0
  0
LINE
  5
104
330
55
100
AcDbEntity
  8
1
  6
Continuous
 62
     7
100
AcDbLine
 10
122.4501843217508
 20
89.97803933207399
 30
0.0
 11
114.5501843217509
 21
89.97803933207399
 31
0.0
  0
LINE
  5
105
330
55
100
AcDbEntity
  8
1
  6
Continuous
 62
     2
100
AcDbLine
 10
122.4001843217508
 20
100.4306672762369
 30
0.0
 11
122.4001843217508
 21
99.47803933207399
 31
0.0
  0
LINE
  5
106
330
55
100
AcDbEntity
  8
1
  6
Continuous
 62
     7
100
AcDbLine
 10
121.9501843217508
 20
99.47803933207399
 30
0.0
 11
122.4001843217508
 21
99.47803933207399
 31
0.0
  0
LINE
  5
107
330
55
100
AcDbEntity
  8
1
  6
Continuous
 62
     7
100
AcDbLine
 10
121.9501843217508
 20
99.47803933207399
 30
0.0
 11
119.3001843217509
 21
99.47803933207399
 31
0.0
  0
LINE
  5
108
330
55
100
AcDbEntity
  8
1
  6
Continuous
 62
     7
100
AcDbLine
 10
119.3001843217509
 20
99.47803933207399
 30
0.0
 11
119.3001843217509
 21
94.97803933207399
 31
0.0
  0
LINE
  5
109
330
55
100
AcDbEntity
  8
1
  6
Continuous
 62
     7
100
AcDbLine
 10
119.3001843217509
 20
94.97803933207399
 30
0.0
 11
122.4501843217508
 21
94.97803933207399
 31
0.0
  0
LINE
  5
10A
330
55
100
AcDbEntity
  8
1
  6
Continuous
 62
     7
100
AcDbLine
 10
122.4001843217508
 20
99.47803933207399
 30
0.0
 11
124.0501843217509
 21
100.4306672762369
 31
0.0
  0
LINE
  5
10B
330
55
100
AcDbEntity
  8
1
  6
Continuous
 62
     7
100
AcDbLine
 10
124.0501843217509
 20
100.4306672762369
 30
0.0
 11
122.4001843217508
 21
100.4306672762369
 31
0.0
  0
ENDBLK
  5
57
330
55
100
AcDbEntity
  8
0
100
AcDbBlockEnd
  0
BLOCK
  5
59
330
58
100
AcDbEntity
  8
0
100
AcDbBlockBegin
  2
37-1-13-M11
 70
     0
 10
19.05018432175089
 20
112.4060393320741
 30
0.0
  3
37-1-13-M11
  1

  0
LINE
  5
10C
330
58
100
AcDbEntity
  8
0
  6
Continuous
 62
     7
100
AcDbLine
 10
126.5501843217508
 20
106.478039332074
 30
0.0
 11
124.0501843217509
 21
106.478039332074
 31
0.0
  0
LINE
  5
10D
330
58
100
AcDbEntity
  8
0
  6
Continuous
 62
     7
100
AcDbLine
 10
102.5501843217508
 20
106.478039332074
 30
0.0
 11
124.0501843217509
 21
106.478039332074
 31
0.0
  0
LINE
  5
10E
330
58
100
AcDbEntity
  8
1
  6
Continuous
 62
     7
100
AcDbLine
 10
126.5501843217508
 20
106.478039332074
 30
0.0
 11
127.6208985360222
 21
106.478039332074
 31
0.0
  0
LINE
  5
10F
330
58
100
AcDbEntity
  8
1
  6
Continuous
 62
     7
100
AcDbLine
 10
101.4794701074793
 20
106.478039332074
 30
0.0
 11
102.5501843217508
 21
106.478039332074
 31
0.0
  0
ARC
  5
110
330
58
100
AcDbEntity
  8
1
  6
Continuous
 62
     7
100
AcDbCircle
 10
105.0501843217508
 20
109.978039332074
 30
0.0
 40
5.000000000000088
100
AcDbArc
 50
217.9083361488174
 51
224.4270040008051
  0
ARC
  5
111
330
58
100
AcDbEntity
  8
1
  6
Continuous
 62
     7
100
AcDbCircle
 10
124.0501843217508
 20
109.978039332074
 30
0.0
 40
4.999999999999975
100
AcDbArc
 50
315.572995999194
 51
322.0916638511811
  0
ENDBLK
  5
5A
330
58
100
AcDbEntity
  8
0
100
AcDbBlockEnd
  0
BLOCK
  5
5C
330
5B
100
AcDbEntity
  8
0
100
AcDbBlockBegin
  2
81-9
 70
     0
 10
11.62576465515912
 20
75.47803933207399
 30
0.0
  3
81-9
  1

  0
LINE
  5
112
330
5B
100
AcDbEntity
  8
1
  6
Continuous
 62
     2
100
AcDbLine
 10
134.4746039883427
 20
106.978039332074
 30
0.0
 11
136.5424732445164
 21
106.978039332074
 31
0.0
  0
LINE
  5
113
330
5B
100
AcDbEntity
  8
1
  6
Continuous
 62
     7
100
AcDbLine
 10
134.9484370761958
 20
108.978039332074
 30
0.0
 11
133.6736020432822
 21
142.978039332074
 31
0.0
  0
LINE
  5
114
330
5B
100
AcDbEntity
  8
1
  6
Continuous
 62
     7
100
AcDbLine
 10
94.625764655159
 20
106.978039332074
 30
0.0
 11
127.3288734035049
 21
106.978039332074
 31
0.0
  0
LINE
  5
115
330
5B
100
AcDbEntity
  8
1
  6
Continuous
 62
     7
100
AcDbLine
 10
133.6736020432822
 20
106.978039332074
 30
0.0
 11
127.3288734035049
 21
106.978039332074
 31
0.0
  0
LINE
  5
116
330
5B
100
AcDbEntity
  8
1
  6
Continuous
 62
     7
100
AcDbLine
 10
127.347402138891
 20
142.001195331858
 30
0.0
 11
127.9737839552269
 21
108.978039332074
 31
0.0
  0
LINE
  5
117
330
5B
100
AcDbEntity
  8
1
  6
Continuous
 62
     7
100
AcDbLine
 10
95.42676660021979
 20
106.978039332074
 30
0.0
 11
94.625764655159
 21
106.978039332074
 31
0.0
  0
LINE
  5
118
330
5B
100
AcDbEntity
  8
1
  6
Continuous
 62
     7
100
AcDbLine
 10
95.42676660021979
 20
142.978039332074
 30
0.0
 11
94.1519315673059
 21
108.978039332074
 31
0.0
  0
LINE
  5
119
330
5B
100
AcDbEntity
  8
1
  6
Continuous
 62
     7
100
AcDbLine
 10
101.1265846882748
 20
108.978039332074
 30
0.0
 11
101.7529665046107
 21
142.001195331858
 31
0.0
  0
LINE
  5
11A
330
5B
100
AcDbEntity
  8
1
  6
Continuous
 62
     7
100
AcDbLine
 10
135.0501843217509
 20
147.406996210679
 30
0.0
 11
136.4732288406265
 21
109.0521925507046
 31
0.0
  0
LINE
  5
11B
330
5B
100
AcDbEntity
  8
1
  6
Continuous
 62
     7
100
AcDbLine
 10
94.0501843217508
 20
147.406996210679
 30
0.0
 11
92.6271398028752
 21
109.0521925507046
 31
0.0
  0
LINE
  5
11C
330
5B
100
AcDbEntity
  8
1
  6
Continuous
 62
     7
100
AcDbLine
 10
114.5501843217509
 20
147.978039332074
 30
0.0
 11
96.3706025959975
 21
147.978039332074
 31
0.0
  0
LINE
  5
11D
330
5B
100
AcDbEntity
  8
1
  6
Continuous
 62
     7
100
AcDbLine
 10
114.5501843217509
 20
147.978039332074
 30
0.0
 11
132.7297660475043
 21
147.978039332074
 31
0.0
  0
LINE
  5
11E
330
5B
100
AcDbEntity
  8
1
  6
Continuous
 62
     7
100
AcDbLine
 10
134.4746039883427
 20
106.978039332074
 30
0.0
 11
133.6736020432822
 21
106.978039332074
 31
0.0
  0
LINE
  5
11F
330
5B
100
AcDbEntity
  8
1
  6
Continuous
 62
     7
100
AcDbLine
 10
133.673602043277
 20
207.0516050298812
 30
0.0
 11
135.0205790586004
 21
207.7344514964103
 31
0.0
  0
LINE
  5
120
330
5B
100
AcDbEntity
  8
1
  6
Continuous
 62
     7
100
AcDbLine
 10
127.3288734035
 20
213.3963336696583
 30
0.0
 11
128.0117198700291
 21
214.7433106849817
 31
0.0
  0
LINE
  5
121
330
5B
100
AcDbEntity
  8
1
  6
Continuous
 62
     7
100
AcDbLine
 10
101.7714952400016
 20
213.3963336696583
 30
0.0
 11
101.0886487734726
 21
214.7433106849817
 31
0.0
  0
LINE
  5
122
330
5B
100
AcDbEntity
  8
1
  6
Continuous
 62
     7
100
AcDbLine
 10
95.4267666002246
 20
207.0516050298812
 30
0.0
 11
94.07978958490119
 21
207.7344514964103
 31
0.0
  0
LINE
  5
123
330
5B
100
AcDbEntity
  8
1
  6
Continuous
 62
     7
100
AcDbLine
 10
95.4267666002246
 20
181.4942268663829
 30
0.0
 11
94.07978958490119
 21
180.8113803998538
 31
0.0
  0
LINE
  5
124
330
5B
100
AcDbEntity
  8
1
  6
Continuous
 62
     7
100
AcDbLine
 10
101.7714952400016
 20
175.1494982266058
 30
0.0
 11
101.0886487734726
 21
173.8025212112824
 31
0.0
  0
LINE
  5
125
330
5B
100
AcDbEntity
  8
1
  6
Continuous
 62
     7
100
AcDbLine
 10
127.3288734035
 20
175.1494982266058
 30
0.0
 11
128.0117198700291
 21
173.8025212112824
 31
0.0
  0
LINE
  5
126
330
5B
100
AcDbEntity
  8
1
  6
Continuous
 62
     7
100
AcDbLine
 10
133.673602043277
 20
181.4942268663829
 30
0.0
 11
135.0205790586004
 21
180.8113803998538
 31
0.0
  0
ARC
  5
127
330
5B
100
AcDbEntity
  8
1
  6
Continuous
 62
     7
100
AcDbCircle
 10
141.7007215678033
 20
142.9115063782169
 30
0.0
 40
8.027395249699655
100
AcDbArc
 50
145.9429229717913
 51
179.5251135664658
  0
ARC
  5
128
330
5B
100
AcDbEntity
  8
1
  6
Continuous
 62
     7
100
AcDbCircle
 10
133.0927470956478
 20
108.7545875405029
 30
0.0
 40
1.869094970049206
100
AcDbArc
 50
288.105521176661
 51
6.8661784615554
  0
ARC
  5
129
330
5B
100
AcDbEntity
  8
1
  6
Continuous
 62
     7
100
AcDbCircle
 10
121.8419287105684
 20
109.8513110015992
 30
0.0
 40
6.193726838523004
100
AcDbArc
 50
332.3609261738141
 51
351.8946933441857
  0
ARC
  5
12A
330
5B
100
AcDbEntity
  8
1
  6
Continuous
 62
     7
100
AcDbCircle
 10
114.5501843217509
 20
126.7576019295707
 30
0.0
 40
20.64939428110823
100
AcDbArc
 50
54.6213506623738
 51
90.0
  0
ARC
  5
12B
330
5B
100
AcDbEntity
  8
1
  6
Continuous
 62
     7
100
AcDbCircle
 10
96.007621547854
 20
108.7545875405029
 30
0.0
 40
1.869094970049133
100
AcDbArc
 50
173.133821538445
 51
251.8944788233439
  0
ARC
  5
12C
330
5B
100
AcDbEntity
  8
1
  6
Continuous
 62
     7
100
AcDbCircle
 10
107.2584399329333
 20
109.8513110015992
 30
0.0
 40
6.19372683852309
100
AcDbArc
 50
188.1053066558143
 51
207.6390738261859
  0
ARC
  5
12D
330
5B
100
AcDbEntity
  8
1
  6
Continuous
 62
     7
100
AcDbCircle
 10
87.3996470756984
 20
142.9115063782169
 30
0.0
 40
8.027395249699715
100
AcDbArc
 50
0.47488643353414
 51
34.0570770282087
  0
ARC
  5
12E
330
5B
100
AcDbEntity
  8
1
  6
Continuous
 62
     7
100
AcDbCircle
 10
114.5501843217509
 20
126.7576019295707
 30
0.0
 40
20.64939428110831
100
AcDbArc
 50
90.0
 51
125.3786493376267
  0
ARC
  5
12F
330
5B
100
AcDbEntity
  8
1
  6
Continuous
 62
     7
100
AcDbCircle
 10
114.5501843217508
 20
194.272915948132
 30
0.0
 40
24.50000000000002
100
AcDbArc
 50
303.3293183746957
 51
326.6706816253044
  0
ARC
  5
130
330
5B
100
AcDbEntity
  8
1
  6
Continuous
 62
     7
100
AcDbCircle
 10
114.5501843217508
 20
194.272915948132
 30
0.0
 40
22.99999999999997
100
AcDbArc
 50
303.7517189153791
 51
326.2482810846209
  0
ARC
  5
131
330
5B
100
AcDbEntity
  8
1
  6
Continuous
 62
     7
100
AcDbCircle
 10
76.5501843217557
 20
194.272915948132
 30
0.0
 40
59.99999999999995
100
AcDbArc
 50
347.0348164316014
 51
0.0
  0
ARC
  5
132
330
5B
100
AcDbEntity
  8
1
  6
Continuous
 62
     7
100
AcDbCircle
 10
75.0501843217557
 20
194.272915948132
 30
0.0
 40
59.99999999999992
100
AcDbArc
 50
347.7030631350939
 51
0.0
  0
ARC
  5
133
330
5B
100
AcDbEntity
  8
1
  6
Continuous
 62
     7
100
AcDbCircle
 10
75.0501843217557
 20
194.272915948132
 30
0.0
 40
60.0
100
AcDbArc
 50
0.0
 51
12.29693686490615
  0
ARC
  5
134
330
5B
100
AcDbEntity
  8
1
  6
Continuous
 62
     7
100
AcDbCircle
 10
76.5501843217557
 20
194.272915948132
 30
0.0
 40
60.0
100
AcDbArc
 50
0.0
 51
12.96518356839865
  0
ARC
  5
135
330
5B
100
AcDbEntity
  8
1
  6
Continuous
 62
     7
100
AcDbCircle
 10
114.5501843217508
 20
154.7729159481369
 30
0.0
 40
60.00000000000005
100
AcDbArc
 50
77.70306313509386
 51
90.0
  0
ARC
  5
136
330
5B
100
AcDbEntity
  8
1
  6
Continuous
 62
     7
100
AcDbCircle
 10
114.5501843217508
 20
156.2729159481369
 30
0.0
 40
60.00000000000008
100
AcDbArc
 50
77.03481643160136
 51
90.0
  0
ARC
  5
137
330
5B
100
AcDbEntity
  8
1
  6
Continuous
 62
     7
100
AcDbCircle
 10
114.5501843217508
 20
156.2729159481369
 30
0.0
 40
60.0
100
AcDbArc
 50
90.0
 51
102.9651835683986
  0
ARC
  5
138
330
5B
100
AcDbEntity
  8
1
  6
Continuous
 62
     7
100
AcDbCircle
 10
114.5501843217508
 20
154.7729159481369
 30
0.0
 40
60.0
100
AcDbArc
 50
90.0
 51
102.2969368649062
  0
ARC
  5
139
330
5B
100
AcDbEntity
  8
1
  6
Continuous
 62
     7
100
AcDbCircle
 10
154.0501843217459
 20
194.272915948132
 30
0.0
 40
59.99999999999994
100
AcDbArc
 50
167.7030631350939
 51
180.0
  0
ARC
  5
13A
330
5B
100
AcDbEntity
  8
1
  6
Continuous
 62
     7
100
AcDbCircle
 10
154.0501843217459
 20
194.272915948132
 30
0.0
 40
59.99999999999997
100
AcDbArc
 50
180.0
 51
192.2969368649061
  0
ARC
  5
13B
330
5B
100
AcDbEntity
  8
1
  6
Continuous
 62
     7
100
AcDbCircle
 10
152.5501843217459
 20
194.272915948132
 30
0.0
 40
59.99999999999997
100
AcDbArc
 50
180.0
 51
192.9651835683986
  0
ARC
  5
13C
330
5B
100
AcDbEntity
  8
1
  6
Continuous
 62
     7
100
AcDbCircle
 10
152.5501843217459
 20
194.272915948132
 30
0.0
 40
59.99999999999996
100
AcDbArc
 50
167.0348164316013
 51
180.0
  0
ARC
  5
13D
330
5B
100
AcDbEntity
  8
1
  6
Continuous
 62
     7
100
AcDbCircle
 10
114.5501843217508
 20
233.7729159481271
 30
0.0
 40
59.99999999999994
100
AcDbArc
 50
257.7030631350938
 51
270.0
  0
ARC
  5
13E
330
5B
100
AcDbEntity
  8
1
  6
Continuous
 62
     7
100
AcDbCircle
 10
114.5501843217508
 20
233.7729159481271
 30
0.0
 40
60.0
100
AcDbArc
 50
270.0
 51
282.2969368649062
  0
ARC
  5
13F
330
5B
100
AcDbEntity
  8
1
  6
Continuous
 62
     7
100
AcDbCircle
 10
114.5501843217508
 20
232.2729159481271
 30
0.0
 40
60.0
100
AcDbArc
 50
270.0
 51
282.9651835683987
  0
ARC
  5
140
330
5B
100
AcDbEntity
  8
1
  6
Continuous
 62
     7
100
AcDbCircle
 10
114.5501843217508
 20
232.2729159481271
 30
0.0
 40
59.99999999999995
100
AcDbArc
 50
257.0348164316014
 51
270.0
  0
ARC
  5
141
330
5B
100
AcDbEntity
  8
1
  6
Continuous
 62
     7
100
AcDbCircle
 10
114.5501843217508
 20
194.272915948132
 30
0.0
 40
24.49999999999997
100
AcDbArc
 50
213.3293183746956
 51
236.6706816253045
  0
ARC
  5
142
330
5B
100
AcDbEntity
  8
1
  6
Continuous
 62
     7
100
AcDbCircle
 10
114.5501843217508
 20
194.272915948132
 30
0.0
 40
22.99999999999993
100
AcDbArc
 50
213.7517189153789
 51
236.2482810846209
  0
ARC
  5
143
330
5B
100
AcDbEntity
  8
1
  6
Continuous
 62
     7
100
AcDbCircle
 10
114.5501843217508
 20
194.272915948132
 30
0.0
 40
24.50000000000004
100
AcDbArc
 50
123.3293183746954
 51
146.6706816253043
  0
ARC
  5
144
330
5B
100
AcDbEntity
  8
1
  6
Continuous
 62
     7
100
AcDbCircle
 10
114.5501843217508
 20
194.272915948132
 30
0.0
 40
23.00000000000005
100
AcDbArc
 50
123.751718915379
 51
146.2482810846209
  0
ARC
  5
145
330
5B
100
AcDbEntity
  8
1
  6
Continuous
 62
     7
100
AcDbCircle
 10
114.5501843217508
 20
194.272915948132
 30
0.0
 40
22.99999999999994
100
AcDbArc
 50
33.75171891537914
 51
56.248281084621
  0
ARC
  5
146
330
5B
100
AcDbEntity
  8
1
  6
Continuous
 62
     7
100
AcDbCircle
 10
114.5501843217508
 20
194.272915948132
 30
0.0
 40
24.49999999999998
100
AcDbArc
 50
33.32931837469572
 51
56.67068162530438
  0
ARC
  5
147
330
5B
100
AcDbEntity
  8
1
  6
Continuous
 62
     7
100
AcDbCircle
 10
125.3477618252452
 20
141.9632662395662
 30
0.0
 40
1.999999999999887
100
AcDbArc
 50
1.08665359773461
 51
54.62135066237934
  0
ARC
  5
148
330
5B
100
AcDbEntity
  8
1
  6
Continuous
 62
     7
100
AcDbCircle
 10
103.7526068182567
 20
141.9632662395662
 30
0.0
 40
2.000000000000052
100
AcDbArc
 50
125.3786493376276
 51
178.9133464022655
  0
ARC
  5
149
330
5B
100
AcDbEntity
  8
1
  6
Continuous
 62
     7
100
AcDbCircle
 10
94.625764655159
 20
108.978039332074
 30
0.0
 40
1.999999999999927
100
AcDbArc
 50
177.8751797549669
 51
270.0
  0
ARC
  5
14A
330
5B
100
AcDbEntity
  8
1
  6
Continuous
 62
     7
100
AcDbCircle
 10
134.4746039883427
 20
108.978039332074
 30
0.0
 40
2.0
100
AcDbArc
 50
270.0
 51
2.12482024503313
  0
ARC
  5
14B
330
5B
100
AcDbEntity
  8
1
  6
Continuous
 62
     7
100
AcDbCircle
 10
96.3706025959975
 20
142.978039332074
 30
0.0
 40
5.0
100
AcDbArc
 50
90.0
 51
117.6509338734424
  0
ARC
  5
14C
330
5B
100
AcDbEntity
  8
1
  6
Continuous
 62
     7
100
AcDbCircle
 10
132.7297660475043
 20
142.978039332074
 30
0.0
 40
5.00000000000002
100
AcDbArc
 50
62.3490661265588
 51
90.0
  0
ENDBLK
  5
5D
330
5B
100
AcDbEntity
  8
0
100
AcDbBlockEnd
  0
BLOCK
  5
5F
330
5E
100
AcDbEntity
  8
0
100
AcDbBlockBegin
  2
84-34K
 70
     0
 10
-28.53967587014776
 20
10.25454453900227
 30
0.0
  3
84-34K
  1

  0
LINE
  5
14D
330
5E
100
AcDbEntity
  8
1
  6
Continuous
 62
     7
100
AcDbLine
 10
104.5501843217508
 20
149.478039332074
 30
0.0
 11
114.5501843217509
 21
149.478039332074
 31
0.0
  0
LINE
  5
14E
330
5E
100
AcDbEntity
  8
1
  6
Continuous
 62
     7
100
AcDbLine
 10
102.0501843217508
 20
147.978039332074
 30
0.0
 11
102.0501843217508
 21
149.4076986624168
 31
0.0
  0
LINE
  5
14F
330
5E
100
AcDbEntity
  8
1
  6
Continuous
 62
     7
100
AcDbLine
 10
114.5501843217509
 20
149.478039332074
 30
0.0
 11
124.5501843217509
 21
149.478039332074
 31
0.0
  0
LINE
  5
150
330
5E
100
AcDbEntity
  8
1
  6
Continuous
 62
     7
100
AcDbLine
 10
127.0501843217509
 20
149.4076986624168
 30
0.0
 11
127.0501843217509
 21
147.978039332074
 31
0.0
  0
ARC
  5
151
330
5E
100
AcDbEntity
  8
1
  6
Continuous
 62
     7
100
AcDbCircle
 10
114.5501843217508
 20
-250.3969411305701
 30
0.0
 40
400.0
100
AcDbArc
 50
91.43254373756652
 51
91.79078465932896
  0
ARC
  5
152
330
5E
100
AcDbEntity
  8
1
  6
Continuous
 62
     7
100
AcDbCircle
 10
114.5501843217508
 20
-250.3969411305701
 30
0.0
 40
400.0
100
AcDbArc
 50
88.20921534067104
 51
88.5674562624335
  0
CIRCLE
  5
153
330
5E
100
AcDbEntity
  8
1
  6
Continuous
 62
     7
100
AcDbCircle
 10
114.5501843217508
 20
194.272915948132
 30
0.0
 40
12.5
  0
CIRCLE
  5
154
330
5E
100
AcDbEntity
  8
1
  6
Continuous
 62
     7
100
AcDbCircle
 10
114.5501843217508
 20
194.272915948132
 30
0.0
 40
10.0
  0
ENDBLK
  5
60
330
5E
100
AcDbEntity
  8
0
100
AcDbBlockEnd
  0
BLOCK
  5
63
330
61
100
AcDbEntity
  8
0
100
AcDbBlockBegin
  2
84-34X-B-I
 70
     0
 10
21.05018432175089
 20
142.478039332074
 30
0.0
  3
84-34X-B-I
  1

  0
INSERT
  5
62
330
61
100
AcDbEntity
  8
0
100
AcDbBlockReference
  2
84-34K
 10
-28.53967587014776
 20
10.25454453900227
 30
0.0
  0
ENDBLK
  5
64
330
61
100
AcDbEntity
  8
0
100
AcDbBlockEnd
  0
BLOCK
  5
178
330
171
100
AcDbEntity
  8
0
100
AcDbBlockBegin
  2
*D10
 70
     1
 10
0.0
 20
0.0
 30
0.0
  3
*D10
  1

  0
LINE
  5
172
330
171
100
AcDbEntity
  8
1
  6
Continuous
 62
     2
100
AcDbLine
 10
92.55018432174592
 20
227.068950730202
 30
0.0
 11
136.5501843217557
 21
227.068950730202
 31
0.0
  0
LINE
  5
173
330
171
100
AcDbEntity
  8
1
  6
Continuous
 62
     2
100
AcDbLine
 10
136.5501843217557
 20
194.272915948132
 30
0.0
 11
136.5501843217557
 21
228.068950730202
 31
0.0
  0
LINE
  5
174
330
171
100
AcDbEntity
  8
1
  6
Continuous
 62
     2
100
AcDbLine
 10
92.55018432174592
 20
194.272915948132
 30
0.0
 11
92.55018432174592
 21
228.068950730202
 31
0.0
  0
SOLID
  5
175
330
171
100
AcDbEntity
  8
1
 62
     2
100
AcDbTrace
 10
96.05018432174592
 20
227.5297344717579
 30
0.0
 11
96.05018432174592
 21
226.6081669886461
 31
0.0
 12
92.55018432174592
 22
227.068950730202
 32
0.0
 13
92.55018432174592
 23
227.068950730202
 33
0.0
  0
SOLID
  5
176
330
171
100
AcDbEntity
  8
1
 62
     2
100
AcDbTrace
 10
133.0501843217557
 20
226.6081669886461
 30
0.0
 11
133.0501843217557
 21
227.5297344717579
 31
0.0
 12
136.5501843217557
 22
227.068950730202
 32
0.0
 13
136.5501843217557
 23
227.068950730202
 33
0.0
  0
MTEXT
  5
177
330
171
100
AcDbEntity
  8
1
 62
     7
100
AcDbMText
 10
112.337429778554
 20
228.068950730202
 30
0.0
 40
3.5
 41
0.0
 71
     7
 72
     1
  1
44
  7
CONVERTER_12
 11
0.9999999999970619
 21
2.424068405545306E-6
 31
0.0
 73
     1
 44
0.60024009603842
  0
ENDBLK
  5
179
330
171
100
AcDbEntity
  8
0
100
AcDbBlockEnd
  0
BLOCK
  5
183
330
17C
100
AcDbEntity
  8
0
100
AcDbBlockBegin
  2
*D11
 70
     1
 10
0.0
 20
0.0
 30
0.0
  3
*D11
  1

  0
LINE
  5
17D
330
17C
100
AcDbEntity
  8
1
  6
Continuous
 62
     2
100
AcDbLine
 10
81.6271398028752
 20
85.87803933207397
 30
0.0
 11
81.6271398028752
 21
106.978039332074
 31
0.0
  0
LINE
  5
17E
330
17C
100
AcDbEntity
  8
1
  6
Continuous
 62
     2
100
AcDbLine
 10
94.625764655159
 20
106.978039332074
 30
0.0
 11
80.6271398028752
 21
106.978039332074
 31
0.0
  0
LINE
  5
17F
330
17C
100
AcDbEntity
  8
1
  6
Continuous
 62
     2
100
AcDbLine
 10
114.5178895601363
 20
85.87803933207397
 30
0.0
 11
80.6271398028752
 21
85.87803933207397
 31
0.0
  0
SOLID
  5
180
330
17C
100
AcDbEntity
  8
1
 62
     2
100
AcDbTrace
 10
81.16635606131932
 20
89.37803933207397
 30
0.0
 11
82.08792354443109
 21
89.37803933207397
 31
0.0
 12
81.6271398028752
 22
85.87803933207397
 32
0.0
 13
81.6271398028752
 23
85.87803933207397
 33
0.0
  0
SOLID
  5
181
330
17C
100
AcDbEntity
  8
1
 62
     2
100
AcDbTrace
 10
82.08792354443109
 20
103.478039332074
 30
0.0
 11
81.16635606131932
 21
103.478039332074
 31
0.0
 12
81.6271398028752
 22
106.978039332074
 32
0.0
 13
81.6271398028752
 23
106.978039332074
 33
0.0
  0
MTEXT
  5
182
330
17C
100
AcDbEntity
  8
1
 62
     7
100
AcDbMText
 10
80.6271398028752
 20
93.36042518821898
 30
0.0
 40
3.5
 41
0.0
 71
     7
 72
     1
  1
22
  7
CONVERTER_12
 11
0.0
 21
1.0
 31
0.0
 73
     1
 44
0.60024009603842
  0
ENDBLK
  5
184
330
17C
100
AcDbEntity
  8
0
100
AcDbBlockEnd
  0
BLOCK
  5
18E
330
187
100
AcDbEntity
  8
0
100
AcDbBlockBegin
  2
*D12
 70
     1
 10
0.0
 20
0.0
 30
0.0
  3
*D12
  1

  0
LINE
  5
188
330
187
100
AcDbEntity
  8
1
  6
Continuous
 62
     2
100
AcDbLine
 10
73.6271398028752
 20
85.87803933207397
 30
0.0
 11
73.6271398028752
 21
149.478039332074
 31
0.0
  0
LINE
  5
189
330
187
100
AcDbEntity
  8
1
  6
Continuous
 62
     2
100
AcDbLine
 10
114.5501843217509
 20
149.478039332074
 30
0.0
 11
72.6271398028752
 21
149.478039332074
 31
0.0
  0
LINE
  5
18A
330
187
100
AcDbEntity
  8
1
  6
Continuous
 62
     2
100
AcDbLine
 10
114.5178895601363
 20
85.87803933207397
 30
0.0
 11
72.6271398028752
 21
85.87803933207397
 31
0.0
  0
SOLID
  5
18B
330
187
100
AcDbEntity
  8
1
 62
     2
100
AcDbTrace
 10
73.16635606131932
 20
89.37803933207397
 30
0.0
 11
74.08792354443109
 21
89.37803933207397
 31
0.0
 12
73.6271398028752
 22
85.87803933207397
 32
0.0
 13
73.6271398028752
 23
85.87803933207397
 33
0.0
  0
SOLID
  5
18C
330
187
100
AcDbEntity
  8
1
 62
     2
100
AcDbTrace
 10
74.08792354443109
 20
145.978039332074
 30
0.0
 11
73.16635606131932
 21
145.978039332074
 31
0.0
 12
73.6271398028752
 22
149.478039332074
 32
0.0
 13
73.6271398028752
 23
149.478039332074
 33
0.0
  0
MTEXT
  5
18D
330
187
100
AcDbEntity
  8
1
 62
     7
100
AcDbMText
 10
72.6271398028752
 20
116.169022681191
 30
0.0
 40
3.5
 41
0.0
 71
     7
 72
     1
  1
64
  7
CONVERTER_12
 11
0.0
 21
1.0
 31
0.0
 73
     1
 44
0.60024009603842
  0
ENDBLK
  5
18F
330
187
100
AcDbEntity
  8
0
100
AcDbBlockEnd
  0
ENDSEC
  0
SECTION
  2
ENTITIES
  0
INSERT
  5
65
330
1F
100
AcDbEntity
  8
0
100
AcDbBlockReference
  2
開示A4枠
 10
0.0
 20
0.0
 30
0.0
  0
INSERT
  5
66
330
1F
100
AcDbEntity
  8
0
100
AcDbBlockReference
  2
72-12
 10
234.0358866338757
 20
48.72573997712561
 30
0.0
  0
INSERT
  5
67
330
1F
100
AcDbEntity
  8
0
100
AcDbBlockReference
  2
91-1
 10
225.9120524196752
 20
95.9690549108401
 30
0.0
  0
INSERT
  5
68
330
1F
100
AcDbEntity
  8
1
100
AcDbBlockReference
  2
36-54
 10
426.6898249958548
 20
21.42243024545621
 30
0.0
  0
INSERT
  5
69
330
1F
100
AcDbEntity
  8
0
100
AcDbBlockReference
  2
37-1-13-M11
 10
19.05018432175089
 20
112.4060393320741
 30
0.0
  0
INSERT
  5
6A
330
1F
100
AcDbEntity
  8
0
100
AcDbBlockReference
  2
81-9
 10
11.62576465515912
 20
75.47803933207399
 30
0.0
  0
INSERT
  5
6B
330
1F
100
AcDbEntity
  8
0
100
AcDbBlockReference
  2
84-34X-B-I
 10
21.05018432175089
 20
142.478039332074
 30
0.0
  0
LINE
  5
155
330
1F
100
AcDbEntity
  8
1
  6
DASH_CENTER
 62
     2
100
AcDbLine
 10
136.5501843217557
 20
194.272915948132
 30
0.0
 11
135.0501843217557
 21
194.272915948132
 31
0.0
  0
LINE
  5
156
330
1F
100
AcDbEntity
  8
1
  6
DASH_CENTER
 62
     2
100
AcDbLine
 10
135.0501843217557
 20
194.272915948132
 30
0.0
 11
89.55018432174592
 21
194.272915948132
 31
0.0
  0
LINE
  5
157
330
1F
100
AcDbEntity
  8
1
  6
DASH_CENTER
 62
     2
100
AcDbLine
 10
139.5501843217557
 20
194.272915948132
 30
0.0
 11
136.5501843217557
 21
194.272915948132
 31
0.0
  0
LINE
  5
158
330
1F
100
AcDbEntity
  8
1
  6
DASH_CENTER
 62
     2
100
AcDbLine
 10
114.5501843217508
 20
219.2729159481369
 30
0.0
 11
114.5501843217508
 21
169.2729159481271
 31
0.0
  0
LINE
  5
159
330
1F
100
AcDbEntity
  8
1
  6
DASH_CENTER
 62
     2
100
AcDbLine
 10
114.5501843217509
 20
152.604119538527
 30
0.0
 11
114.5501843217509
 21
78.85122217980819
 31
0.0
  0
SOLID
  5
15A
330
1F
100
AcDbEntity
  8
1
 62
     2
100
AcDbTrace
 10
126.3476350422983
 20
101.4297774333164
 30
0.0
 11
125.5495341906218
 21
100.9689936917605
 31
0.0
 12
124.1985846164601
 22
104.230474475784
 32
0.0
 13
124.1985846164601
 23
104.230474475784
 33
0.0
  0
LEADER
  5
15B
330
1F
100
AcDbEntity
  8
1
  6
Continuous
 62
     2
100
AcDbLeader
  3
Standard
 71
     0
 76
     3
 10
124.1985846164601
 20
104.230474475784
 30
0.0
 10
133.0641717354211
 20
88.87482714681516
 30
0.0
 10
151.0657605142509
 20
88.87482714681516
 30
0.0
  0
SOLID
  5
15C
330
1F
100
AcDbEntity
  8
1
 62
     2
100
AcDbTrace
 10
101.0444858108352
 20
103.2191954866642
 30
0.0
 11
100.2472837738245
 21
103.6815325261874
 31
0.0
 12
102.4017840270415
 22
106.478039332074
 32
0.0
 13
102.4017840270415
 23
106.478039332074
 33
0.0
  0
LEADER
  5
15D
330
1F
100
AcDbEntity
  8
1
  6
Continuous
 62
     2
100
AcDbLeader
  3
Standard
 71
     0
 76
     3
 10
102.4017840270415
 20
106.478039332074
 30
0.0
 10
85.5414879050955
 20
77.40603933207399
 30
0.0
 10
66.48746384603561
 20
77.40603933207399
 30
0.0
  0
SOLID
  5
15E
330
1F
100
AcDbEntity
  8
1
 62
     2
100
AcDbTrace
 10
122.9293997660257
 20
152.7395201160975
 30
0.0
 11
123.7275006177022
 21
152.2787363745416
 31
0.0
 12
121.578450191864
 22
149.478039332074
 32
0.0
 13
121.578450191864
 23
149.478039332074
 33
0.0
  0
LEADER
  5
15F
330
1F
100
AcDbEntity
  8
1
  6
Continuous
 62
     2
100
AcDbLeader
  3
Standard
 71
     0
 76
     3
 10
121.578450191864
 20
149.478039332074
 30
0.0
 10
127.7548369653336
 20
160.1758550309198
 30
0.0
 10
142.134001231107
 20
160.1758550309198
 30
0.0
  0
MTEXT
  5
161
330
1F
100
AcDbEntity
  8
1
 62
     7
100
AcDbMText
 10
157.5
 20
12.5
 30
0.0
 40
2.5
 41
0.0
 71
     5
 72
     1
  1
2
  7
CONVERTER_12
 73
     1
 44
0.7202881152461
  0
MTEXT
  5
162
330
1F
100
AcDbEntity
  8
1
 62
     7
100
AcDbMText
 10
151.75
 20
12.5
 30
0.0
 40
2.5
 41
0.0
 71
     5
 72
     1
  1
04
  7
CONVERTER_12
 73
     1
 44
0.7202881152461
  0
MTEXT
  5
163
330
1F
100
AcDbEntity
  8
1
 62
     7
100
AcDbMText
 10
140.5
 20
12.5
 30
0.0
 40
2.5
 41
0.0
 71
     5
 72
     1
  1
2
  7
CONVERTER_12
 73
     1
 44
0.7202881152461
  0
MTEXT
  5
164
330
1F
100
AcDbEntity
  8
1
 62
     7
100
AcDbMText
 10
134.75
 20
12.5
 30
0.0
 40
2.5
 41
0.0
 71
     5
 72
     1
  1
04
  7
CONVERTER_12
 73
     1
 44
0.7202881152461
  0
MTEXT
  5
165
330
1F
100
AcDbEntity
  8
1
 62
     7
100
AcDbMText
 10
123.5
 20
12.5
 30
0.0
 40
2.5
 41
0.0
 71
     5
 72
     1
  1
2
  7
CONVERTER_12
 73
     1
 44
0.7202881152461
  0
MTEXT
  5
166
330
1F
100
AcDbEntity
  8
1
 62
     7
100
AcDbMText
 10
117.75
 20
12.5
 30
0.0
 40
2.5
 41
0.0
 71
     5
 72
     1
  1
04
  7
CONVERTER_12
 73
     1
 44
0.7202881152461
  0
MTEXT
  5
167
330
1F
100
AcDbEntity
  8
1
 62
     7
100
AcDbMText
 10
100.75
 20
12.5
 30
0.0
 40
2.5
 41
0.0
 71
     5
 72
     1
  1
04
  7
CONVERTER_12
 73
     1
 44
0.7202881152461
  0
MTEXT
  5
168
330
1F
100
AcDbEntity
  8
1
 62
     7
100
AcDbMText
 10
106.5
 20
12.5
 30
0.0
 40
2.5
 41
0.0
 71
     5
 72
     1
  1
3
  7
CONVERTER_12
 73
     1
 44
0.7202881152461
  0
TEXT
  5
169
330
1F
100
AcDbEntity
  8
1
 62
     7
100
AcDbText
 10
134.6094838257269
 20
90.43055910747381
 30
0.0
 40
3.0
  1
TW19山8
 41
0.89
  7
CONVERTER_11
100
AcDbText
  0
MTEXT
  5
16A
330
1F
100
AcDbEntity
  8
1
 62
     7
100
AcDbMText
 10
84.001810664327
 20
79.1432856490369
 30
0.0
 40
3.0
 41
0.0
 71
     9
 72
     1
  1
W24山20
  7
CONVERTER_11
 73
     1
 44
1.0
  0
MTEXT
  5
16B
330
1F
100
AcDbEntity
  8
1
 62
     7
100
AcDbMText
 10
135.370868173486
 20
162.500098655128
 30
0.0
 40
3.0
 41
0.0
 71
     5
 72
     1
  1
キャップ
  7
CONVERTER_11
 73
     1
 44
0.54545454545455
  0
MTEXT
  5
16C
330
1F
100
AcDbEntity
  8
1
 62
     7
100
AcDbMText
 10
93.75
 20
17.0
 30
0.0
 40
3.5
 41
0.0
 71
     5
 72
     1
  1
1
  7
CONVERTER_12
 73
     1
 44
0.7202881152461
  0
MTEXT
  5
16D
330
1F
100
AcDbEntity
  8
1
 62
     7
100
AcDbMText
 10
57.0
 20
14.25
 30
0.0
 40
3.5
 41
0.0
 71
     5
 72
     1
  1
R19AK-13
  7
CONVERTER_12
 73
     1
 44
0.7202881152461
  0
MTEXT
  5
16E
330
1F
100
AcDbEntity
  8
1
 62
     7
100
AcDbMText
 10
57.0
 20
22.75
 30
0.0
 40
3.5
 41
0.0
 71
     5
 72
     1
  1
給水栓上部（固定コマ）
  7
CONVERTER_11
 73
     1
 44
0.54545454545455
  0
MTEXT
  5
16F
330
1F
100
AcDbEntity
  8
1
 62
     7
100
AcDbMText
 10
85.25
 20
17.0
 30
0.0
 40
3.5
 41
0.0
 71
     5
 72
     1
  1
1
  7
CONVERTER_12
 73
     1
 44
0.7202881152461
  0
MTEXT
  5
170
330
1F
100
AcDbEntity
  8
0
 62
     7
100
AcDbMText
 10
34.0
 20
34.0
 30
0.0
 40
3.5
 41
0.0
 71
     4
 72
     1
  1
湯,水用キャップ付
  7
CONVERTER_11
 73
     1
 44
0.63636363636364
  0
DIMENSION
  5
17B
330
1F
100
AcDbEntity
  8
1
100
AcDbDimension
  2
*D10
 10
92.55018432174592
 20
227.068950730202
 30
0.0
 11
114.962429778554
 21
229.818950730202
 31
0.0
 70
    32
  1
<>
 71
     5
 42
-1.0
 53
0.00013888888889
  3
ME10_DIM_10
100
AcDbAlignedDimension
 13
136.5501843217557
 23
194.272915948132
 33
0.0
 14
92.55018432174592
 24
194.272915948132
 34
0.0
100
AcDbRotatedDimension
  0
DIMENSION
  5
186
330
1F
100
AcDbEntity
  8
1
100
AcDbDimension
  2
*D11
 10
81.6271398028752
 20
85.87803933207397
 30
0.0
 11
78.8771398028752
 21
95.98542518821898
 31
0.0
 70
    32
  1
22
 71
     5
 42
-1.0
 53
90.0
  3
ME10_DIM_11
100
AcDbAlignedDimension
 13
94.625764655159
 23
106.978039332074
 33
0.0
 14
114.5178895601363
 24
85.87803933207397
 34
0.0
 50
90.0
100
AcDbRotatedDimension
  0
DIMENSION
  5
191
330
1F
100
AcDbEntity
  8
1
100
AcDbDimension
  2
*D12
 10
73.6271398028752
 20
85.87803933207397
 30
0.0
 11
70.8771398028752
 21
118.794022681191
 31
0.0
 70
    32
  1
64
 71
     5
 42
-1.0
 53
90.0
  3
ME10_DIM_12
100
AcDbAlignedDimension
 13
114.5501843217509
 23
149.478039332074
 33
0.0
 14
114.5178895601363
 24
85.87803933207397
 34
0.0
 50
90.0
100
AcDbRotatedDimension
  0
ENDSEC
  0
SECTION
  2
OBJECTS
  0
DICTIONARY
  5
C
330
0
100
AcDbDictionary
281
     1
  3
ACAD_GROUP
350
D
  3
ACAD_LAYOUT
350
1A
  3
ACAD_MATERIAL
350
3B
  3
ACAD_MLEADERSTYLE
350
194
  3
ACAD_MLINESTYLE
350
17
  3
ACAD_PLOTSETTINGS
350
19
  3
ACAD_PLOTSTYLENAME
350
E
  3
ACAD_VISUALSTYLE
350
2A
  3
AcDbVariableDictionary
350
192
  0
DICTIONARY
  5
D
102
{ACAD_REACTORS
330
C
102
}
330
C
100
AcDbDictionary
281
     1
  0
DICTIONARY
  5
1A
102
{ACAD_REACTORS
330
C
102
}
330
C
100
AcDbDictionary
281
     1
  3
Layout1
350
1E
  3
Layout2
350
26
  3
Model
350
22
  0
DICTIONARY
  5
3B
102
{ACAD_REACTORS
330
C
102
}
330
C
100
AcDbDictionary
281
     1
  3
ByBlock
350
3D
  3
ByLayer
350
3C
  3
Global
350
3E
  0
DICTIONARY
  5
194
102
{ACAD_REACTORS
330
C
102
}
330
C
100
AcDbDictionary
281
     1
  0
DICTIONARY
  5
17
102
{ACAD_REACTORS
330
C
102
}
330
C
100
AcDbDictionary
281
     1
  3
Standard
350
18
  0
DICTIONARY
  5
19
102
{ACAD_REACTORS
330
C
102
}
330
C
100
AcDbDictionary
281
     1
  0
ACDBDICTIONARYWDFLT
  5
E
102
{ACAD_REACTORS
330
C
102
}
330
C
100
AcDbDictionary
281
     1
  3
Normal
350
F
100
AcDbDictionaryWithDefault
340
F
  0
DICTIONARY
  5
2A
102
{ACAD_REACTORS
330
C
102
}
330
C
100
AcDbDictionary
281
     1
  3
2dWireframe
350
2F
  3
3D Hidden
350
31
  3
3dWireframe
350
30
  3
Basic
350
32
  3
Brighten
350
36
  3
ColorChange
350
3A
  3
Conceptual
350
34
  3
Dim
350
35
  3
Facepattern
350
39
  3
Flat
350
2B
  3
FlatWithEdges
350
2C
  3
Gouraud
350
2D
  3
GouraudWithEdges
350
2E
  3
Linepattern
350
38
  3
Realistic
350
33
  3
Thicken
350
37
  0
DICTIONARY
  5
192
102
{ACAD_REACTORS
330
C
102
}
330
C
100
AcDbDictionary
281
     1
  3
DIMASSOC
350
195
  3
HIDETEXT
350
196
  0
LAYOUT
  5
1E
102
{ACAD_REACTORS
330
1A
102
}
330
1A
100
AcDbPlotSettings
  1

  2
none_device
  4

  6

 40
0.0
 41
0.0
 42
0.0
 43
0.0
 44
0.0
 45
0.0
 46
0.0
 47
0.0
 48
0.0
 49
0.0
140
0.0
141
0.0
142
1.0
143
1.0
 70
   688
 72
     0
 73
     0
 74
     5
  7

 75
    16
147
1.0
148
0.0
149
0.0
100
AcDbLayout
  1
Layout1
 70
     1
 71
     1
 10
0.0
 20
0.0
 11
12.0
 21
9.0
 12
0.0
 22
0.0
 32
0.0
 14
1.00000000000000E+20
 24
1.00000000000000E+20
 34
1.00000000000000E+20
 15
-1.00000000000000E+20
 25
-1.00000000000000E+20
 35
-1.00000000000000E+20
146
0.0
 13
0.0
 23
0.0
 33
0.0
 16
1.0
 26
0.0
 36
0.0
 17
0.0
 27
1.0
 37
0.0
 76
     0
330
1B
  0
LAYOUT
  5
26
102
{ACAD_REACTORS
330
1A
102
}
330
1A
100
AcDbPlotSettings
  1

  2
none_device
  4

  6

 40
0.0
 41
0.0
 42
0.0
 43
0.0
 44
0.0
 45
0.0
 46
0.0
 47
0.0
 48
0.0
 49
0.0
140
0.0
141
0.0
142
1.0
143
1.0
 70
   688
 72
     0
 73
     0
 74
     5
  7

 75
    16
147
1.0
148
0.0
149
0.0
100
AcDbLayout
  1
Layout2
 70
     1
 71
     2
 10
0.0
 20
0.0
 11
0.0
 21
0.0
 12
0.0
 22
0.0
 32
0.0
 14
0.0
 24
0.0
 34
0.0
 15
0.0
 25
0.0
 35
0.0
146
0.0
 13
0.0
 23
0.0
 33
0.0
 16
1.0
 26
0.0
 36
0.0
 17
0.0
 27
1.0
 37
0.0
 76
     0
330
23
  0
LAYOUT
  5
22
102
{ACAD_REACTORS
330
1A
102
}
330
1A
100
AcDbPlotSettings
  1

  2
none_device
  4

  6

 40
0.0
 41
0.0
 42
0.0
 43
0.0
 44
0.0
 45
0.0
 46
0.0
 47
0.0
 48
0.0
 49
0.0
140
0.0
141
0.0
142
1.0
143
1.0
 70
  1712
 72
     0
 73
     0
 74
     0
  7

 75
     0
147
1.0
148
0.0
149
0.0
100
AcDbLayout
  1
Model
 70
     1
 71
     0
 10
0.0
 20
0.0
 11
12.0
 21
9.0
 12
0.0
 22
0.0
 32
0.0
 14
0.0
 24
0.0
 34
0.0
 15
209.9999999999999
 25
297.0
 35
0.0
146
0.0
 13
0.0
 23
0.0
 33
0.0
 16
1.0
 26
0.0
 36
0.0
 17
0.0
 27
1.0
 37
0.0
 76
     0
330
1F
331
29
  0
MATERIAL
  5
3D
102
{ACAD_REACTORS
330
3B
102
}
102
{ACAD_XDICTIONARY
360
1B9
102
}
330
3B
100
AcDbMaterial
  1
ByBlock
  0
MATERIAL
  5
3C
102
{ACAD_REACTORS
330
3B
102
}
102
{ACAD_XDICTIONARY
360
1B7
102
}
330
3B
100
AcDbMaterial
  1
ByLayer
  0
MATERIAL
  5
3E
102
{ACAD_REACTORS
330
3B
102
}
102
{ACAD_XDICTIONARY
360
1BB
102
}
330
3B
100
AcDbMaterial
  1
Global
  0
MLINESTYLE
  5
18
102
{ACAD_REACTORS
330
17
102
}
330
17
100
AcDbMlineStyle
  2
Standard
 70
     0
  3

 62
   256
 51
90.0
 52
90.0
 71
     2
 49
0.5
 62
   256
  6
BYLAYER
 49
-0.5
 62
   256
  6
BYLAYER
  0
ACDBPLACEHOLDER
  5
F
102
{ACAD_REACTORS
330
E
102
}
330
E
  0
VISUALSTYLE
  5
2F
102
{ACAD_REACTORS
330
2A
102
}
102
{ACAD_XDICTIONARY
360
19F
102
}
330
2A
100
AcDbVisualStyle
  2
2dWireframe
 70
     4
 71
     0
 72
     2
 73
     0
 90
        0
 40
-0.6
 41
-30.0
 62
     5
 63
     7
 74
     1
 91
        4
 64
     7
 65
   257
 75
     1
175
     1
 42
1.0
 92
        0
 66
   257
 43
1.0
 76
     1
 77
     6
 78
     2
 67
     7
 79
     5
170
     0
171
     0
290
     0
174
     0
 93
        1
 44
0.0
173
     0
291
     0
 45
0.0
1001
ACAD
1000
AcDbSavedByObjectVersion
1070
     0
  0
VISUALSTYLE
  5
31
102
{ACAD_REACTORS
330
2A
102
}
102
{ACAD_XDICTIONARY
360
1A3
102
}
330
2A
100
AcDbVisualStyle
  2
3D Hidden
 70
     6
 71
     1
 72
     2
 73
     2
 90
        0
 40
-0.6
 41
-30.0
 62
     5
 63
     7
 74
     2
 91
        2
 64
     7
 65
   257
 75
     2
175
     1
 42
40.0
 92
        0
 66
   257
 43
1.0
 76
     1
 77
     6
 78
     2
 67
     7
 79
     3
170
     0
171
     0
290
     0
174
     0
 93
        1
 44
0.0
173
     0
291
     0
 45
0.0
1001
ACAD
1000
AcDbSavedByObjectVersion
1070
     0
  0
VISUALSTYLE
  5
30
102
{ACAD_REACTORS
330
2A
102
}
102
{ACAD_XDICTIONARY
360
1A1
102
}
330
2A
100
AcDbVisualStyle
  2
3dWireframe
 70
     5
 71
     0
 72
     2
 73
     0
 90
        0
 40
-0.6
 41
-30.0
 62
     5
 63
     7
 74
     1
 91
        4
 64
     7
 65
   257
 75
     1
175
     1
 42
1.0
 92
        0
 66
   257
 43
1.0
 76
     1
 77
     6
 78
     2
 67
     7
 79
     5
170
     0
171
     0
290
     0
174
     0
 93
        1
 44
0.0
173
     0
291
     0
 45
0.0
1001
ACAD
1000
AcDbSavedByObjectVersion
1070
     0
  0
VISUALSTYLE
  5
32
102
{ACAD_REACTORS
330
2A
102
}
102
{ACAD_XDICTIONARY
360
1A5
102
}
330
2A
100
AcDbVisualStyle
  2
Basic
 70
     7
 71
     1
 72
     0
 73
     1
 90
        0
 40
-0.6
 41
-30.0
 62
     5
 63
     7
 74
     0
 91
        4
 64
     7
 65
   257
 75
     1
175
     1
 42
1.0
 92
        8
 66
     7
 43
1.0
 76
     1
 77
     6
 78
     2
 67
     7
 79
     5
170
     0
171
     0
290
     0
174
     0
 93
        1
 44
0.0
173
     0
291
     1
 45
0.0
1001
ACAD
1000
AcDbSavedByObjectVersion
1070
     0
  0
VISUALSTYLE
  5
36
102
{ACAD_REACTORS
330
2A
102
}
102
{ACAD_XDICTIONARY
360
1AD
102
}
330
2A
100
AcDbVisualStyle
  2
Brighten
 70
    12
 71
     2
 72
     2
 73
     0
 90
        0
 40
-0.6
 41
-30.0
 62
     5
 63
     7
 74
     1
 91
        4
 64
     7
 65
   257
 75
     1
175
     1
 42
1.0
 92
        8
 66
     7
 43
1.0
 76
     1
 77
     6
 78
     2
 67
     7
 79
     5
170
     0
171
     0
290
     0
174
     0
 93
        1
 44
50.0
173
     0
291
     1
 45
0.0
1001
ACAD
1000
AcDbSavedByObjectVersion
1070
     0
  0
VISUALSTYLE
  5
3A
102
{ACAD_REACTORS
330
2A
102
}
102
{ACAD_XDICTIONARY
360
1B5
102
}
330
2A
100
AcDbVisualStyle
  2
ColorChange
 70
    16
 71
     2
 72
     2
 73
     3
 90
        0
 40
-0.6
 41
-30.0
 62
     5
 63
     8
 74
     1
 91
        4
 64
     7
 65
   257
 75
     1
175
     1
 42
1.0
 92
        8
 66
     8
 43
1.0
 76
     1
 77
     6
 78
     2
 67
     7
 79
     5
170
     0
171
     0
290
     0
174
     0
 93
        1
 44
0.0
173
     0
291
     1
 45
0.0
1001
ACAD
1000
AcDbSavedByObjectVersion
1070
     0
  0
VISUALSTYLE
  5
34
102
{ACAD_REACTORS
330
2A
102
}
102
{ACAD_XDICTIONARY
360
1A9
102
}
330
2A
100
AcDbVisualStyle
  2
Conceptual
 70
     9
 71
     3
 72
     2
 73
     0
 90
        0
 40
-0.6
 41
-30.0
 62
     5
 63
     7
 74
     2
 91
        2
 64
     7
 65
   257
 75
     1
175
     1
 42
40.0
 92
        8
 66
     7
 43
1.0
 76
     1
 77
     6
 78
     2
 67
     7
 79
     3
170
     0
171
     0
290
     0
174
     0
 93
        1
 44
0.0
173
     0
291
     0
 45
0.0
1001
ACAD
1000
AcDbSavedByObjectVersion
1070
     0
  0
VISUALSTYLE
  5
35
102
{ACAD_REACTORS
330
2A
102
}
102
{ACAD_XDICTIONARY
360
1AB
102
}
330
2A
100
AcDbVisualStyle
  2
Dim
 70
    11
 71
     2
 72
     2
 73
     0
 90
        0
 40
-0.6
 41
-30.0
 62
     5
 63
     7
 74
     1
 91
        4
 64
     7
 65
   257
 75
     1
175
     1
 42
1.0
 92
        8
 66
     7
 43
1.0
 76
     1
 77
     6
 78
     2
 67
     7
 79
     5
170
     0
171
     0
290
     0
174
     0
 93
        1
 44
-50.0
173
     0
291
     1
 45
0.0
1001
ACAD
1000
AcDbSavedByObjectVersion
1070
     0
  0
VISUALSTYLE
  5
39
102
{ACAD_REACTORS
330
2A
102
}
102
{ACAD_XDICTIONARY
360
1B3
102
}
330
2A
100
AcDbVisualStyle
  2
Facepattern
 70
    15
 71
     2
 72
     2
 73
     0
 90
        0
 40
-0.6
 41
-30.0
 62
     5
 63
     7
 74
     1
 91
        4
 64
     7
 65
   257
 75
     1
175
     1
 42
1.0
 92
        8
 66
     7
 43
1.0
 76
     1
 77
     6
 78
     2
 67
     7
 79
     5
170
     0
171
     0
290
     0
174
     0
 93
        1
 44
0.0
173
     0
291
     1
 45
0.0
1001
ACAD
1000
AcDbSavedByObjectVersion
1070
     0
  0
VISUALSTYLE
  5
2B
102
{ACAD_REACTORS
330
2A
102
}
102
{ACAD_XDICTIONARY
360
197
102
}
330
2A
100
AcDbVisualStyle
  2
Flat
 70
     0
 71
     2
 72
     1
 73
     1
 90
        2
 40
-0.6
 41
30.0
 62
     5
 63
     7
 74
     0
 91
        4
 64
     7
 65
   257
 75
     1
175
     1
 42
1.0
 92
        8
 66
     7
 43
1.0
 76
     1
 77
     6
 78
     2
 67
     7
 79
     5
170
     0
171
     0
290
     0
174
     0
 93
       13
 44
0.0
173
     0
291
     1
 45
0.0
1001
ACAD
1000
AcDbSavedByObjectVersion
1070
     0
  0
VISUALSTYLE
  5
2C
102
{ACAD_REACTORS
330
2A
102
}
102
{ACAD_XDICTIONARY
360
199
102
}
330
2A
100
AcDbVisualStyle
  2
FlatWithEdges
 70
     1
 71
     2
 72
     1
 73
     1
 90
        2
 40
-0.6
 41
30.0
 62
     5
 63
     7
 74
     1
 91
        4
 64
     7
 65
   257
 75
     1
175
     1
 42
1.0
 92
        0
 66
   257
 43
1.0
 76
     1
 77
     6
 78
     2
 67
     7
 79
     5
170
     0
171
     0
290
     0
174
     0
 93
       13
 44
0.0
173
     0
291
     1
 45
0.0
1001
ACAD
1000
AcDbSavedByObjectVersion
1070
     0
  0
VISUALSTYLE
  5
2D
102
{ACAD_REACTORS
330
2A
102
}
102
{ACAD_XDICTIONARY
360
19B
102
}
330
2A
100
AcDbVisualStyle
  2
Gouraud
 70
     2
 71
     2
 72
     2
 73
     1
 90
        2
 40
-0.6
 41
30.0
 62
     5
 63
     7
 74
     0
 91
        4
 64
     7
 65
   257
 75
     1
175
     1
 42
1.0
 92
        0
 66
     7
 43
1.0
 76
     1
 77
     6
 78
     2
 67
     7
 79
     5
170
     0
171
     0
290
     0
174
     0
 93
       13
 44
0.0
173
     0
291
     1
 45
0.0
1001
ACAD
1000
AcDbSavedByObjectVersion
1070
     0
  0
VISUALSTYLE
  5
2E
102
{ACAD_REACTORS
330
2A
102
}
102
{ACAD_XDICTIONARY
360
19D
102
}
330
2A
100
AcDbVisualStyle
  2
GouraudWithEdges
 70
     3
 71
     2
 72
     2
 73
     1
 90
        2
 40
-0.6
 41
30.0
 62
     5
 63
     7
 74
     1
 91
        4
 64
     7
 65
   257
 75
     1
175
     1
 42
1.0
 92
        0
 66
   257
 43
1.0
 76
     1
 77
     6
 78
     2
 67
     7
 79
     5
170
     0
171
     0
290
     0
174
     0
 93
       13
 44
0.0
173
     0
291
     1
 45
0.0
1001
ACAD
1000
AcDbSavedByObjectVersion
1070
     0
  0
VISUALSTYLE
  5
38
102
{ACAD_REACTORS
330
2A
102
}
102
{ACAD_XDICTIONARY
360
1B1
102
}
330
2A
100
AcDbVisualStyle
  2
Linepattern
 70
    14
 71
     2
 72
     2
 73
     0
 90
        0
 40
-0.6
 41
-30.0
 62
     5
 63
     7
 74
     1
 91
        4
 64
     7
 65
   257
 75
     7
175
     7
 42
1.0
 92
        8
 66
     7
 43
1.0
 76
     1
 77
     6
 78
     2
 67
     7
 79
     5
170
     0
171
     0
290
     0
174
     0
 93
        1
 44
0.0
173
     0
291
     1
 45
0.0
1001
ACAD
1000
AcDbSavedByObjectVersion
1070
     0
  0
VISUALSTYLE
  5
33
102
{ACAD_REACTORS
330
2A
102
}
102
{ACAD_XDICTIONARY
360
1A7
102
}
330
2A
100
AcDbVisualStyle
  2
Realistic
 70
     8
 71
     2
 72
     2
 73
     0
 90
        0
 40
-0.6
 41
-30.0
 62
     5
 63
     7
 74
     1
 91
        0
 64
     7
 65
   257
 75
     1
175
     1
 42
1.0
 92
        8
 66
     8
 43
1.0
 76
     1
 77
     6
 78
     2
 67
     7
 79
     5
170
     0
171
     0
290
     0
174
     0
 93
       13
 44
0.0
173
     0
291
     0
 45
0.0
1001
ACAD
1000
AcDbSavedByObjectVersion
1070
     0
  0
VISUALSTYLE
  5
37
102
{ACAD_REACTORS
330
2A
102
}
102
{ACAD_XDICTIONARY
360
1AF
102
}
330
2A
100
AcDbVisualStyle
  2
Thicken
 70
    13
 71
     2
 72
     2
 73
     0
 90
        0
 40
-0.6
 41
-30.0
 62
     5
 63
     7
 74
     1
 91
        4
 64
     7
 65
   257
 75
     1
175
     1
 42
1.0
 92
       12
 66
     7
 43
1.0
 76
     1
 77
     6
 78
     2
 67
     7
 79
     5
170
     0
171
     0
290
     0
174
     0
 93
        1
 44
0.0
173
     0
291
     1
 45
0.0
1001
ACAD
1000
AcDbSavedByObjectVersion
1070
     0
  0
DICTIONARYVAR
  5
195
102
{ACAD_REACTORS
330
192
102
}
330
192
100
DictionaryVariables
280
     0
  1
2
  0
DICTIONARYVAR
  5
196
102
{ACAD_REACTORS
330
192
102
}
330
192
100
DictionaryVariables
280
     0
  1
1
  0
DICTIONARY
  5
1B9
330
3D
100
AcDbDictionary
280
     1
281
     1
  3
ACAD_XREC_ROUNDTRIP
360
1BA
  0
DICTIONARY
  5
1B7
330
3C
100
AcDbDictionary
280
     1
281
     1
  3
ACAD_XREC_ROUNDTRIP
360
1B8
  0
DICTIONARY
  5
1BB
330
3E
100
AcDbDictionary
280
     1
281
     1
  3
ACAD_XREC_ROUNDTRIP
360
1BC
  0
DICTIONARY
  5
19F
330
2F
100
AcDbDictionary
280
     1
281
     1
  3
ACAD_XREC_ROUNDTRIP
360
1A0
  0
DICTIONARY
  5
1A3
330
31
100
AcDbDictionary
280
     1
281
     1
  3
ACAD_XREC_ROUNDTRIP
360
1A4
  0
DICTIONARY
  5
1A1
330
30
100
AcDbDictionary
280
     1
281
     1
  3
ACAD_XREC_ROUNDTRIP
360
1A2
  0
DICTIONARY
  5
1A5
330
32
100
AcDbDictionary
280
     1
281
     1
  3
ACAD_XREC_ROUNDTRIP
360
1A6
  0
DICTIONARY
  5
1AD
330
36
100
AcDbDictionary
280
     1
281
     1
  3
ACAD_XREC_ROUNDTRIP
360
1AE
  0
DICTIONARY
  5
1B5
330
3A
100
AcDbDictionary
280
     1
281
     1
  3
ACAD_XREC_ROUNDTRIP
360
1B6
  0
DICTIONARY
  5
1A9
330
34
100
AcDbDictionary
280
     1
281
     1
  3
ACAD_XREC_ROUNDTRIP
360
1AA
  0
DICTIONARY
  5
1AB
330
35
100
AcDbDictionary
280
     1
281
     1
  3
ACAD_XREC_ROUNDTRIP
360
1AC
  0
DICTIONARY
  5
1B3
330
39
100
AcDbDictionary
280
     1
281
     1
  3
ACAD_XREC_ROUNDTRIP
360
1B4
  0
DICTIONARY
  5
197
330
2B
100
AcDbDictionary
280
     1
281
     1
  3
ACAD_XREC_ROUNDTRIP
360
198
  0
DICTIONARY
  5
199
330
2C
100
AcDbDictionary
280
     1
281
     1
  3
ACAD_XREC_ROUNDTRIP
360
19A
  0
DICTIONARY
  5
19B
330
2D
100
AcDbDictionary
280
     1
281
     1
  3
ACAD_XREC_ROUNDTRIP
360
19C
  0
DICTIONARY
  5
19D
330
2E
100
AcDbDictionary
280
     1
281
     1
  3
ACAD_XREC_ROUNDTRIP
360
19E
  0
DICTIONARY
  5
1B1
330
38
100
AcDbDictionary
280
     1
281
     1
  3
ACAD_XREC_ROUNDTRIP
360
1B2
  0
DICTIONARY
  5
1A7
330
33
100
AcDbDictionary
280
     1
281
     1
  3
ACAD_XREC_ROUNDTRIP
360
1A8
  0
DICTIONARY
  5
1AF
330
37
100
AcDbDictionary
280
     1
281
     1
  3
ACAD_XREC_ROUNDTRIP
360
1B0
  0
XRECORD
  5
1BA
102
{ACAD_REACTORS
330
1B9
102
}
330
1B9
100
AcDbXrecord
280
     1
102
MATERIAL
148
0.0
149
0.0
149
0.0
 93
        0
 94
      127
282
     0
 72
     1
 77
     1
171
     1
175
     1
179
     1
273
     0
  0
XRECORD
  5
1B8
102
{ACAD_REACTORS
330
1B7
102
}
330
1B7
100
AcDbXrecord
280
     1
102
MATERIAL
148
0.0
149
0.0
149
0.0
 93
        0
 94
      127
282
     0
 72
     1
 77
     1
171
     1
175
     1
179
     1
273
     0
  0
XRECORD
  5
1BC
102
{ACAD_REACTORS
330
1BB
102
}
330
1BB
100
AcDbXrecord
280
     1
102
MATERIAL
148
0.0
149
0.0
149
0.0
 93
        0
 94
      127
282
     0
 72
     1
 77
     1
171
     1
175
     1
179
     1
273
     0
  0
XRECORD
  5
1A0
102
{ACAD_REACTORS
330
19F
102
}
330
19F
100
AcDbXrecord
280
     1
102
RTVSPropertyOp0
 70
     1
102
RTVSPropertyOp1
 70
     1
102
RTVSPropertyOp2
 70
     1
102
RTVSPropertyOp3
 70
     1
102
RTVSPropertyOp4
 70
     1
102
RTVSPropertyOp5
 70
     1
102
RTVSPropertyOp6
 70
     1
102
RTVSPropertyOp7
 70
     1
102
RTVSPropertyOp8
 70
     1
102
RTVSPropertyOp9
 70
     1
102
RTVSPropertyOp10
 70
     1
102
RTVSPropertyOp11
 70
     1
102
RTVSPropertyOp12
 70
     1
102
RTVSPropertyOp13
 70
     1
102
RTVSPropertyOp14
 70
     1
102
RTVSPropertyOp15
 70
     1
102
RTVSPropertyOp16
 70
     1
102
RTVSPropertyOp17
 70
     1
102
RTVSPropertyOp18
 70
     1
102
RTVSPropertyOp19
 70
     1
102
RTVSPropertyOp20
 70
     1
102
RTVSPropertyOp21
 70
     1
102
RTVSPropertyOp22
 70
     1
102
RTVSPropertyOp23
 70
     1
102
RTVSPropertyOp24
 70
     1
102
RTVSPropertyOp25
 70
     1
102
RTVSPropertyOp26
 70
     1
102
RTVSPropertyOp27
 70
     1
102
RTVSPropertyOp28
 70
     1
102
RTVSPropertyOp29
 70
     1
102
RTVSPropertyOp30
 70
     1
102
RTVSPropertyOp31
 70
     1
102
RTVSPropertyOp32
 70
     1
  0
XRECORD
  5
1A4
102
{ACAD_REACTORS
330
1A3
102
}
330
1A3
100
AcDbXrecord
280
     1
102
RTVSPropertyOp0
 70
     1
102
RTVSPropertyOp1
 70
     1
102
RTVSPropertyOp2
 70
     1
102
RTVSPropertyOp3
 70
     1
102
RTVSPropertyOp4
 70
     1
102
RTVSPropertyOp5
 70
     1
102
RTVSPropertyOp6
 70
     1
102
RTVSPropertyOp7
 70
     1
102
RTVSPropertyOp8
 70
     1
102
RTVSPropertyOp9
 70
     1
102
RTVSPropertyOp10
 70
     1
102
RTVSPropertyOp11
 70
     1
102
RTVSPropertyOp12
 70
     1
102
RTVSPropertyOp13
 70
     1
102
RTVSPropertyOp14
 70
     1
102
RTVSPropertyOp15
 70
     1
102
RTVSPropertyOp16
 70
     1
102
RTVSPropertyOp17
 70
     1
102
RTVSPropertyOp18
 70
     1
102
RTVSPropertyOp19
 70
     1
102
RTVSPropertyOp20
 70
     1
102
RTVSPropertyOp21
 70
     1
102
RTVSPropertyOp22
 70
     1
102
RTVSPropertyOp23
 70
     1
102
RTVSPropertyOp24
 70
     1
102
RTVSPropertyOp25
 70
     1
102
RTVSPropertyOp26
 70
     1
102
RTVSPropertyOp27
 70
     1
102
RTVSPropertyOp28
 70
     1
102
RTVSPropertyOp29
 70
     1
102
RTVSPropertyOp30
 70
     1
102
RTVSPropertyOp31
 70
     1
102
RTVSPropertyOp32
 70
     1
  0
XRECORD
  5
1A2
102
{ACAD_REACTORS
330
1A1
102
}
330
1A1
100
AcDbXrecord
280
     1
102
RTVSPropertyOp0
 70
     1
102
RTVSPropertyOp1
 70
     1
102
RTVSPropertyOp2
 70
     1
102
RTVSPropertyOp3
 70
     1
102
RTVSPropertyOp4
 70
     1
102
RTVSPropertyOp5
 70
     1
102
RTVSPropertyOp6
 70
     1
102
RTVSPropertyOp7
 70
     1
102
RTVSPropertyOp8
 70
     1
102
RTVSPropertyOp9
 70
     1
102
RTVSPropertyOp10
 70
     1
102
RTVSPropertyOp11
 70
     1
102
RTVSPropertyOp12
 70
     1
102
RTVSPropertyOp13
 70
     1
102
RTVSPropertyOp14
 70
     1
102
RTVSPropertyOp15
 70
     1
102
RTVSPropertyOp16
 70
     1
102
RTVSPropertyOp17
 70
     1
102
RTVSPropertyOp18
 70
     1
102
RTVSPropertyOp19
 70
     1
102
RTVSPropertyOp20
 70
     1
102
RTVSPropertyOp21
 70
     1
102
RTVSPropertyOp22
 70
     1
102
RTVSPropertyOp23
 70
     1
102
RTVSPropertyOp24
 70
     1
102
RTVSPropertyOp25
 70
     1
102
RTVSPropertyOp26
 70
     1
102
RTVSPropertyOp27
 70
     1
102
RTVSPropertyOp28
 70
     1
102
RTVSPropertyOp29
 70
     1
102
RTVSPropertyOp30
 70
     1
102
RTVSPropertyOp31
 70
     1
102
RTVSPropertyOp32
 70
     1
  0
XRECORD
  5
1A6
102
{ACAD_REACTORS
330
1A5
102
}
330
1A5
100
AcDbXrecord
280
     1
102
RTVSPropertyOp0
 70
     1
102
RTVSPropertyOp1
 70
     1
102
RTVSPropertyOp2
 70
     1
102
RTVSPropertyOp3
 70
     1
102
RTVSPropertyOp4
 70
     1
102
RTVSPropertyOp5
 70
     1
102
RTVSPropertyOp6
 70
     1
102
RTVSPropertyOp7
 70
     1
102
RTVSPropertyOp8
 70
     1
102
RTVSPropertyOp9
 70
     1
102
RTVSPropertyOp10
 70
     1
102
RTVSPropertyOp11
 70
     1
102
RTVSPropertyOp12
 70
     1
102
RTVSPropertyOp13
 70
     1
102
RTVSPropertyOp14
 70
     1
102
RTVSPropertyOp15
 70
     1
102
RTVSPropertyOp16
 70
     1
102
RTVSPropertyOp17
 70
     1
102
RTVSPropertyOp18
 70
     1
102
RTVSPropertyOp19
 70
     1
102
RTVSPropertyOp20
 70
     1
102
RTVSPropertyOp21
 70
     1
102
RTVSPropertyOp22
 70
     1
102
RTVSPropertyOp23
 70
     1
102
RTVSPropertyOp24
 70
     1
102
RTVSPropertyOp25
 70
     1
102
RTVSPropertyOp26
 70
     1
102
RTVSPropertyOp27
 70
     1
102
RTVSPropertyOp28
 70
     1
102
RTVSPropertyOp29
 70
     1
102
RTVSPropertyOp30
 70
     1
102
RTVSPropertyOp31
 70
     1
102
RTVSPropertyOp32
 70
     1
  0
XRECORD
  5
1AE
102
{ACAD_REACTORS
330
1AD
102
}
330
1AD
100
AcDbXrecord
280
     1
102
RTVSPropertyOp0
 70
     1
102
RTVSPropertyOp1
 70
     1
102
RTVSPropertyOp2
 70
     1
102
RTVSPropertyOp3
 70
     1
102
RTVSPropertyOp4
 70
     1
102
RTVSPropertyOp5
 70
     1
102
RTVSPropertyOp6
 70
     1
102
RTVSPropertyOp7
 70
     1
102
RTVSPropertyOp8
 70
     1
102
RTVSPropertyOp9
 70
     1
102
RTVSPropertyOp10
 70
     1
102
RTVSPropertyOp11
 70
     1
102
RTVSPropertyOp12
 70
     1
102
RTVSPropertyOp13
 70
     1
102
RTVSPropertyOp14
 70
     1
102
RTVSPropertyOp15
 70
     1
102
RTVSPropertyOp16
 70
     1
102
RTVSPropertyOp17
 70
     1
102
RTVSPropertyOp18
 70
     1
102
RTVSPropertyOp19
 70
     1
102
RTVSPropertyOp20
 70
     1
102
RTVSPropertyOp21
 70
     1
102
RTVSPropertyOp22
 70
     1
102
RTVSPropertyOp23
 70
     1
102
RTVSPropertyOp24
 70
     1
102
RTVSPropertyOp25
 70
     1
102
RTVSPropertyOp26
 70
     1
102
RTVSPropertyOp27
 70
     1
102
RTVSPropertyOp28
 70
     1
102
RTVSPropertyOp29
 70
     1
102
RTVSPropertyOp30
 70
     1
102
RTVSPropertyOp31
 70
     1
102
RTVSPropertyOp32
 70
     1
  0
XRECORD
  5
1B6
102
{ACAD_REACTORS
330
1B5
102
}
330
1B5
100
AcDbXrecord
280
     1
102
RTVSPropertyOp0
 70
     1
102
RTVSPropertyOp1
 70
     1
102
RTVSPropertyOp2
 70
     1
102
RTVSPropertyOp3
 70
     1
102
RTVSPropertyOp4
 70
     1
102
RTVSPropertyOp5
 70
     1
102
RTVSPropertyOp6
 70
     1
102
RTVSPropertyOp7
 70
     1
102
RTVSPropertyOp8
 70
     1
102
RTVSPropertyOp9
 70
     1
102
RTVSPropertyOp10
 70
     1
102
RTVSPropertyOp11
 70
     1
102
RTVSPropertyOp12
 70
     1
102
RTVSPropertyOp13
 70
     1
102
RTVSPropertyOp14
 70
     1
102
RTVSPropertyOp15
 70
     1
102
RTVSPropertyOp16
 70
     1
102
RTVSPropertyOp17
 70
     1
102
RTVSPropertyOp18
 70
     1
102
RTVSPropertyOp19
 70
     1
102
RTVSPropertyOp20
 70
     1
102
RTVSPropertyOp21
 70
     1
102
RTVSPropertyOp22
 70
     1
102
RTVSPropertyOp23
 70
     1
102
RTVSPropertyOp24
 70
     1
102
RTVSPropertyOp25
 70
     1
102
RTVSPropertyOp26
 70
     1
102
RTVSPropertyOp27
 70
     1
102
RTVSPropertyOp28
 70
     1
102
RTVSPropertyOp29
 70
     1
102
RTVSPropertyOp30
 70
     1
102
RTVSPropertyOp31
 70
     1
102
RTVSPropertyOp32
 70
     1
  0
XRECORD
  5
1AA
102
{ACAD_REACTORS
330
1A9
102
}
330
1A9
100
AcDbXrecord
280
     1
102
RTVSPropertyOp0
 70
     1
102
RTVSPropertyOp1
 70
     1
102
RTVSPropertyOp2
 70
     1
102
RTVSPropertyOp3
 70
     1
102
RTVSPropertyOp4
 70
     1
102
RTVSPropertyOp5
 70
     1
102
RTVSPropertyOp6
 70
     1
102
RTVSPropertyOp7
 70
     1
102
RTVSPropertyOp8
 70
     1
102
RTVSPropertyOp9
 70
     1
102
RTVSPropertyOp10
 70
     1
102
RTVSPropertyOp11
 70
     1
102
RTVSPropertyOp12
 70
     1
102
RTVSPropertyOp13
 70
     1
102
RTVSPropertyOp14
 70
     1
102
RTVSPropertyOp15
 70
     1
102
RTVSPropertyOp16
 70
     1
102
RTVSPropertyOp17
 70
     1
102
RTVSPropertyOp18
 70
     1
102
RTVSPropertyOp19
 70
     1
102
RTVSPropertyOp20
 70
     1
102
RTVSPropertyOp21
 70
     1
102
RTVSPropertyOp22
 70
     1
102
RTVSPropertyOp23
 70
     1
102
RTVSPropertyOp24
 70
     1
102
RTVSPropertyOp25
 70
     1
102
RTVSPropertyOp26
 70
     1
102
RTVSPropertyOp27
 70
     1
102
RTVSPropertyOp28
 70
     1
102
RTVSPropertyOp29
 70
     1
102
RTVSPropertyOp30
 70
     1
102
RTVSPropertyOp31
 70
     1
102
RTVSPropertyOp32
 70
     1
  0
XRECORD
  5
1AC
102
{ACAD_REACTORS
330
1AB
102
}
330
1AB
100
AcDbXrecord
280
     1
102
RTVSPropertyOp0
 70
     1
102
RTVSPropertyOp1
 70
     1
102
RTVSPropertyOp2
 70
     1
102
RTVSPropertyOp3
 70
     1
102
RTVSPropertyOp4
 70
     1
102
RTVSPropertyOp5
 70
     1
102
RTVSPropertyOp6
 70
     1
102
RTVSPropertyOp7
 70
     1
102
RTVSPropertyOp8
 70
     1
102
RTVSPropertyOp9
 70
     1
102
RTVSPropertyOp10
 70
     1
102
RTVSPropertyOp11
 70
     1
102
RTVSPropertyOp12
 70
     1
102
RTVSPropertyOp13
 70
     1
102
RTVSPropertyOp14
 70
     1
102
RTVSPropertyOp15
 70
     1
102
RTVSPropertyOp16
 70
     1
102
RTVSPropertyOp17
 70
     1
102
RTVSPropertyOp18
 70
     1
102
RTVSPropertyOp19
 70
     1
102
RTVSPropertyOp20
 70
     1
102
RTVSPropertyOp21
 70
     1
102
RTVSPropertyOp22
 70
     1
102
RTVSPropertyOp23
 70
     1
102
RTVSPropertyOp24
 70
     1
102
RTVSPropertyOp25
 70
     1
102
RTVSPropertyOp26
 70
     1
102
RTVSPropertyOp27
 70
     1
102
RTVSPropertyOp28
 70
     1
102
RTVSPropertyOp29
 70
     1
102
RTVSPropertyOp30
 70
     1
102
RTVSPropertyOp31
 70
     1
102
RTVSPropertyOp32
 70
     1
  0
XRECORD
  5
1B4
102
{ACAD_REACTORS
330
1B3
102
}
330
1B3
100
AcDbXrecord
280
     1
102
RTVSPropertyOp0
 70
     1
102
RTVSPropertyOp1
 70
     1
102
RTVSPropertyOp2
 70
     1
102
RTVSPropertyOp3
 70
     1
102
RTVSPropertyOp4
 70
     1
102
RTVSPropertyOp5
 70
     1
102
RTVSPropertyOp6
 70
     1
102
RTVSPropertyOp7
 70
     1
102
RTVSPropertyOp8
 70
     1
102
RTVSPropertyOp9
 70
     1
102
RTVSPropertyOp10
 70
     1
102
RTVSPropertyOp11
 70
     1
102
RTVSPropertyOp12
 70
     1
102
RTVSPropertyOp13
 70
     1
102
RTVSPropertyOp14
 70
     1
102
RTVSPropertyOp15
 70
     1
102
RTVSPropertyOp16
 70
     1
102
RTVSPropertyOp17
 70
     1
102
RTVSPropertyOp18
 70
     1
102
RTVSPropertyOp19
 70
     1
102
RTVSPropertyOp20
 70
     1
102
RTVSPropertyOp21
 70
     1
102
RTVSPropertyOp22
 70
     1
102
RTVSPropertyOp23
 70
     1
102
RTVSPropertyOp24
 70
     1
102
RTVSPropertyOp25
 70
     1
102
RTVSPropertyOp26
 70
     1
102
RTVSPropertyOp27
 70
     1
102
RTVSPropertyOp28
 70
     1
102
RTVSPropertyOp29
 70
     1
102
RTVSPropertyOp30
 70
     1
102
RTVSPropertyOp31
 70
     1
102
RTVSPropertyOp32
 70
     1
  0
XRECORD
  5
198
102
{ACAD_REACTORS
330
197
102
}
330
197
100
AcDbXrecord
280
     1
102
RTVSPropertyOp0
 70
     1
102
RTVSPropertyOp1
 70
     1
102
RTVSPropertyOp2
 70
     1
102
RTVSPropertyOp3
 70
     1
102
RTVSPropertyOp4
 70
     1
102
RTVSPropertyOp5
 70
     1
102
RTVSPropertyOp6
 70
     1
102
RTVSPropertyOp7
 70
     1
102
RTVSPropertyOp8
 70
     1
102
RTVSPropertyOp9
 70
     1
102
RTVSPropertyOp10
 70
     1
102
RTVSPropertyOp11
 70
     1
102
RTVSPropertyOp12
 70
     1
102
RTVSPropertyOp13
 70
     1
102
RTVSPropertyOp14
 70
     1
102
RTVSPropertyOp15
 70
     1
102
RTVSPropertyOp16
 70
     1
102
RTVSPropertyOp17
 70
     1
102
RTVSPropertyOp18
 70
     1
102
RTVSPropertyOp19
 70
     1
102
RTVSPropertyOp20
 70
     1
102
RTVSPropertyOp21
 70
     1
102
RTVSPropertyOp22
 70
     1
102
RTVSPropertyOp23
 70
     1
102
RTVSPropertyOp24
 70
     1
102
RTVSPropertyOp25
 70
     1
102
RTVSPropertyOp26
 70
     1
102
RTVSPropertyOp27
 70
     1
102
RTVSPropertyOp28
 70
     1
102
RTVSPropertyOp29
 70
     1
102
RTVSPropertyOp30
 70
     1
102
RTVSPropertyOp31
 70
     1
102
RTVSPropertyOp32
 70
     1
  0
XRECORD
  5
19A
102
{ACAD_REACTORS
330
199
102
}
330
199
100
AcDbXrecord
280
     1
102
RTVSPropertyOp0
 70
     1
102
RTVSPropertyOp1
 70
     1
102
RTVSPropertyOp2
 70
     1
102
RTVSPropertyOp3
 70
     1
102
RTVSPropertyOp4
 70
     1
102
RTVSPropertyOp5
 70
     1
102
RTVSPropertyOp6
 70
     1
102
RTVSPropertyOp7
 70
     1
102
RTVSPropertyOp8
 70
     1
102
RTVSPropertyOp9
 70
     1
102
RTVSPropertyOp10
 70
     1
102
RTVSPropertyOp11
 70
     1
102
RTVSPropertyOp12
 70
     1
102
RTVSPropertyOp13
 70
     1
102
RTVSPropertyOp14
 70
     1
102
RTVSPropertyOp15
 70
     1
102
RTVSPropertyOp16
 70
     1
102
RTVSPropertyOp17
 70
     1
102
RTVSPropertyOp18
 70
     1
102
RTVSPropertyOp19
 70
     1
102
RTVSPropertyOp20
 70
     1
102
RTVSPropertyOp21
 70
     1
102
RTVSPropertyOp22
 70
     1
102
RTVSPropertyOp23
 70
     1
102
RTVSPropertyOp24
 70
     1
102
RTVSPropertyOp25
 70
     1
102
RTVSPropertyOp26
 70
     1
102
RTVSPropertyOp27
 70
     1
102
RTVSPropertyOp28
 70
     1
102
RTVSPropertyOp29
 70
     1
102
RTVSPropertyOp30
 70
     1
102
RTVSPropertyOp31
 70
     1
102
RTVSPropertyOp32
 70
     1
  0
XRECORD
  5
19C
102
{ACAD_REACTORS
330
19B
102
}
330
19B
100
AcDbXrecord
280
     1
102
RTVSPropertyOp0
 70
     1
102
RTVSPropertyOp1
 70
     1
102
RTVSPropertyOp2
 70
     1
102
RTVSPropertyOp3
 70
     1
102
RTVSPropertyOp4
 70
     1
102
RTVSPropertyOp5
 70
     1
102
RTVSPropertyOp6
 70
     1
102
RTVSPropertyOp7
 70
     1
102
RTVSPropertyOp8
 70
     1
102
RTVSPropertyOp9
 70
     1
102
RTVSPropertyOp10
 70
     1
102
RTVSPropertyOp11
 70
     1
102
RTVSPropertyOp12
 70
     1
102
RTVSPropertyOp13
 70
     1
102
RTVSPropertyOp14
 70
     1
102
RTVSPropertyOp15
 70
     1
102
RTVSPropertyOp16
 70
     1
102
RTVSPropertyOp17
 70
     1
102
RTVSPropertyOp18
 70
     1
102
RTVSPropertyOp19
 70
     1
102
RTVSPropertyOp20
 70
     1
102
RTVSPropertyOp21
 70
     1
102
RTVSPropertyOp22
 70
     1
102
RTVSPropertyOp23
 70
     1
102
RTVSPropertyOp24
 70
     1
102
RTVSPropertyOp25
 70
     1
102
RTVSPropertyOp26
 70
     1
102
RTVSPropertyOp27
 70
     1
102
RTVSPropertyOp28
 70
     1
102
RTVSPropertyOp29
 70
     1
102
RTVSPropertyOp30
 70
     1
102
RTVSPropertyOp31
 70
     1
102
RTVSPropertyOp32
 70
     1
  0
XRECORD
  5
19E
102
{ACAD_REACTORS
330
19D
102
}
330
19D
100
AcDbXrecord
280
     1
102
RTVSPropertyOp0
 70
     1
102
RTVSPropertyOp1
 70
     1
102
RTVSPropertyOp2
 70
     1
102
RTVSPropertyOp3
 70
     1
102
RTVSPropertyOp4
 70
     1
102
RTVSPropertyOp5
 70
     1
102
RTVSPropertyOp6
 70
     1
102
RTVSPropertyOp7
 70
     1
102
RTVSPropertyOp8
 70
     1
102
RTVSPropertyOp9
 70
     1
102
RTVSPropertyOp10
 70
     1
102
RTVSPropertyOp11
 70
     1
102
RTVSPropertyOp12
 70
     1
102
RTVSPropertyOp13
 70
     1
102
RTVSPropertyOp14
 70
     1
102
RTVSPropertyOp15
 70
     1
102
RTVSPropertyOp16
 70
     1
102
RTVSPropertyOp17
 70
     1
102
RTVSPropertyOp18
 70
     1
102
RTVSPropertyOp19
 70
     1
102
RTVSPropertyOp20
 70
     1
102
RTVSPropertyOp21
 70
     1
102
RTVSPropertyOp22
 70
     1
102
RTVSPropertyOp23
 70
     1
102
RTVSPropertyOp24
 70
     1
102
RTVSPropertyOp25
 70
     1
102
RTVSPropertyOp26
 70
     1
102
RTVSPropertyOp27
 70
     1
102
RTVSPropertyOp28
 70
     1
102
RTVSPropertyOp29
 70
     1
102
RTVSPropertyOp30
 70
     1
102
RTVSPropertyOp31
 70
     1
102
RTVSPropertyOp32
 70
     1
  0
XRECORD
  5
1B2
102
{ACAD_REACTORS
330
1B1
102
}
330
1B1
100
AcDbXrecord
280
     1
102
RTVSPropertyOp0
 70
     1
102
RTVSPropertyOp1
 70
     1
102
RTVSPropertyOp2
 70
     1
102
RTVSPropertyOp3
 70
     1
102
RTVSPropertyOp4
 70
     1
102
RTVSPropertyOp5
 70
     1
102
RTVSPropertyOp6
 70
     1
102
RTVSPropertyOp7
 70
     1
102
RTVSPropertyOp8
 70
     1
102
RTVSPropertyOp9
 70
     1
102
RTVSPropertyOp10
 70
     1
102
RTVSPropertyOp11
 70
     1
102
RTVSPropertyOp12
 70
     1
102
RTVSPropertyOp13
 70
     1
102
RTVSPropertyOp14
 70
     1
102
RTVSPropertyOp15
 70
     1
102
RTVSPropertyOp16
 70
     1
102
RTVSPropertyOp17
 70
     1
102
RTVSPropertyOp18
 70
     1
102
RTVSPropertyOp19
 70
     1
102
RTVSPropertyOp20
 70
     1
102
RTVSPropertyOp21
 70
     1
102
RTVSPropertyOp22
 70
     1
102
RTVSPropertyOp23
 70
     1
102
RTVSPropertyOp24
 70
     1
102
RTVSPropertyOp25
 70
     1
102
RTVSPropertyOp26
 70
     1
102
RTVSPropertyOp27
 70
     1
102
RTVSPropertyOp28
 70
     1
102
RTVSPropertyOp29
 70
     1
102
RTVSPropertyOp30
 70
     1
102
RTVSPropertyOp31
 70
     1
102
RTVSPropertyOp32
 70
     1
  0
XRECORD
  5
1A8
102
{ACAD_REACTORS
330
1A7
102
}
330
1A7
100
AcDbXrecord
280
     1
102
RTVSPropertyOp0
 70
     1
102
RTVSPropertyOp1
 70
     1
102
RTVSPropertyOp2
 70
     1
102
RTVSPropertyOp3
 70
     1
102
RTVSPropertyOp4
 70
     1
102
RTVSPropertyOp5
 70
     1
102
RTVSPropertyOp6
 70
     1
102
RTVSPropertyOp7
 70
     1
102
RTVSPropertyOp8
 70
     1
102
RTVSPropertyOp9
 70
     1
102
RTVSPropertyOp10
 70
     1
102
RTVSPropertyOp11
 70
     1
102
RTVSPropertyOp12
 70
     1
102
RTVSPropertyOp13
 70
     1
102
RTVSPropertyOp14
 70
     1
102
RTVSPropertyOp15
 70
     1
102
RTVSPropertyOp16
 70
     1
102
RTVSPropertyOp17
 70
     1
102
RTVSPropertyOp18
 70
     1
102
RTVSPropertyOp19
 70
     1
102
RTVSPropertyOp20
 70
     1
102
RTVSPropertyOp21
 70
     1
102
RTVSPropertyOp22
 70
     1
102
RTVSPropertyOp23
 70
     1
102
RTVSPropertyOp24
 70
     1
102
RTVSPropertyOp25
 70
     1
102
RTVSPropertyOp26
 70
     1
102
RTVSPropertyOp27
 70
     1
102
RTVSPropertyOp28
 70
     1
102
RTVSPropertyOp29
 70
     1
102
RTVSPropertyOp30
 70
     1
102
RTVSPropertyOp31
 70
     1
102
RTVSPropertyOp32
 70
     1
  0
XRECORD
  5
1B0
102
{ACAD_REACTORS
330
1AF
102
}
330
1AF
100
AcDbXrecord
280
     1
102
RTVSPropertyOp0
 70
     1
102
RTVSPropertyOp1
 70
     1
102
RTVSPropertyOp2
 70
     1
102
RTVSPropertyOp3
 70
     1
102
RTVSPropertyOp4
 70
     1
102
RTVSPropertyOp5
 70
     1
102
RTVSPropertyOp6
 70
     1
102
RTVSPropertyOp7
 70
     1
102
RTVSPropertyOp8
 70
     1
102
RTVSPropertyOp9
 70
     1
102
RTVSPropertyOp10
 70
     1
102
RTVSPropertyOp11
 70
     1
102
RTVSPropertyOp12
 70
     1
102
RTVSPropertyOp13
 70
     1
102
RTVSPropertyOp14
 70
     1
102
RTVSPropertyOp15
 70
     1
102
RTVSPropertyOp16
 70
     1
102
RTVSPropertyOp17
 70
     1
102
RTVSPropertyOp18
 70
     1
102
RTVSPropertyOp19
 70
     1
102
RTVSPropertyOp20
 70
     1
102
RTVSPropertyOp21
 70
     1
102
RTVSPropertyOp22
 70
     1
102
RTVSPropertyOp23
 70
     1
102
RTVSPropertyOp24
 70
     1
102
RTVSPropertyOp25
 70
     1
102
RTVSPropertyOp26
 70
     1
102
RTVSPropertyOp27
 70
     1
102
RTVSPropertyOp28
 70
     1
102
RTVSPropertyOp29
 70
     1
102
RTVSPropertyOp30
 70
     1
102
RTVSPropertyOp31
 70
     1
102
RTVSPropertyOp32
 70
     1
  0
ENDSEC
  0
EOF
