  0
SECTION
  2
HEADER
  9
$ACADVER
  1
AC1015
  9
$ACADMAINTVER
 70
     6
  9
$DWGCODEPAGE
  3
ANSI_932
  9
$INSBASE
 10
0.0
 20
0.0
 30
0.0
  9
$EXTMIN
 10
345.0167245995228
 20
27.754615840239
 30
0.0
  9
$EXTMAX
 10
765.0167245995228
 20
621.754615840239
 30
0.0
  9
$LIMMIN
 10
0.0
 20
0.0
  9
$LIMMAX
 10
12.0
 20
9.0
  9
$ORTHOMODE
 70
     0
  9
$REGENMODE
 70
     1
  9
$FILLMODE
 70
     1
  9
$QTEXTMODE
 70
     0
  9
$MIRRTEXT
 70
     1
  9
$LTSCALE
 40
1.0
  9
$ATTMODE
 70
     1
  9
$TEXTSIZE
 40
0.2
  9
$TRACEWID
 40
0.05
  9
$TEXTSTYLE
  7
Standard
  9
$CLAYER
  8
0
  9
$CELTYPE
  6
ByLayer
  9
$CECOLOR
 62
   256
  9
$CELTSCALE
 40
1.0
  9
$DISPSILH
 70
     0
  9
$DIMSCALE
 40
1.0
  9
$DIMASZ
 40
0.18
  9
$DIMEXO
 40
0.0625
  9
$DIMDLI
 40
0.38
  9
$DIMRND
 40
0.0
  9
$DIMDLE
 40
0.0
  9
$DIMEXE
 40
0.18
  9
$DIMTP
 40
0.0
  9
$DIMTM
 40
0.0
  9
$DIMTXT
 40
0.18
  9
$DIMCEN
 40
0.09
  9
$DIMTSZ
 40
0.0
  9
$DIMTOL
 70
     0
  9
$DIMLIM
 70
     0
  9
$DIMTIH
 70
     1
  9
$DIMTOH
 70
     1
  9
$DIMSE1
 70
     0
  9
$DIMSE2
 70
     0
  9
$DIMTAD
 70
     0
  9
$DIMZIN
 70
     0
  9
$DIMBLK
  1

  9
$DIMASO
 70
     1
  9
$DIMSHO
 70
     1
  9
$DIMPOST
  1

  9
$DIMAPOST
  1

  9
$DIMALT
 70
     0
  9
$DIMALTD
 70
     2
  9
$DIMALTF
 40
25.4
  9
$DIMLFAC
 40
1.0
  9
$DIMTOFL
 70
     0
  9
$DIMTVP
 40
0.0
  9
$DIMTIX
 70
     0
  9
$DIMSOXD
 70
     0
  9
$DIMSAH
 70
     0
  9
$DIMBLK1
  1

  9
$DIMBLK2
  1

  9
$DIMSTYLE
  2
Standard
  9
$DIMCLRD
 70
     0
  9
$DIMCLRE
 70
     0
  9
$DIMCLRT
 70
     0
  9
$DIMTFAC
 40
1.0
  9
$DIMGAP
 40
0.09
  9
$DIMJUST
 70
     0
  9
$DIMSD1
 70
     0
  9
$DIMSD2
 70
     0
  9
$DIMTOLJ
 70
     1
  9
$DIMTZIN
 70
     0
  9
$DIMALTZ
 70
     0
  9
$DIMALTTZ
 70
     0
  9
$DIMUPT
 70
     0
  9
$DIMDEC
 70
     4
  9
$DIMTDEC
 70
     4
  9
$DIMALTU
 70
     2
  9
$DIMALTTD
 70
     2
  9
$DIMTXSTY
  7
Standard
  9
$DIMAUNIT
 70
     0
  9
$DIMADEC
 70
     0
  9
$DIMALTRND
 40
0.0
  9
$DIMAZIN
 70
     0
  9
$DIMDSEP
 70
    46
  9
$DIMATFIT
 70
     3
  9
$DIMFRAC
 70
     0
  9
$DIMLDRBLK
  1

  9
$DIMLUNIT
 70
     2
  9
$DIMLWD
 70
    -2
  9
$DIMLWE
 70
    -2
  9
$DIMTMOVE
 70
     0
  9
$LUNITS
 70
     2
  9
$LUPREC
 70
     4
  9
$SKETCHINC
 40
0.1
  9
$FILLETRAD
 40
0.5
  9
$AUNITS
 70
     0
  9
$AUPREC
 70
     0
  9
$MENU
  1
.
  9
$ELEVATION
 40
0.0
  9
$PELEVATION
 40
0.0
  9
$THICKNESS
 40
0.0
  9
$LIMCHECK
 70
     0
  9
$CHAMFERA
 40
0.5
  9
$CHAMFERB
 40
0.5
  9
$CHAMFERC
 40
1.0
  9
$CHAMFERD
 40
0.0
  9
$SKPOLY
 70
     0
  9
$TDCREATE
 40
2459691.701499514
  9
$TDUCREATE
 40
2459691.326499514
  9
$TDUPDATE
 40
2459691.701501493
  9
$TDUUPDATE
 40
2459691.326501493
  9
$TDINDWG
 40
0.0000000116
  9
$TDUSRTIMER
 40
0.0000000116
  9
$USRTIMER
 70
     1
  9
$ANGBASE
 50
0.0
  9
$ANGDIR
 70
     0
  9
$PDMODE
 70
     0
  9
$PDSIZE
 40
0.0
  9
$PLINEWID
 40
0.0
  9
$SPLFRAME
 70
     0
  9
$SPLINETYPE
 70
     6
  9
$SPLINESEGS
 70
     8
  9
$HANDSEED
  5
1C9
  9
$SURFTAB1
 70
     6
  9
$SURFTAB2
 70
     6
  9
$SURFTYPE
 70
     6
  9
$SURFU
 70
     6
  9
$SURFV
 70
     6
  9
$UCSBASE
  2

  9
$UCSNAME
  2

  9
$UCSORG
 10
0.0
 20
0.0
 30
0.0
  9
$UCSXDIR
 10
1.0
 20
0.0
 30
0.0
  9
$UCSYDIR
 10
0.0
 20
1.0
 30
0.0
  9
$UCSORTHOREF
  2

  9
$UCSORTHOVIEW
 70
     0
  9
$UCSORGTOP
 10
0.0
 20
0.0
 30
0.0
  9
$UCSORGBOTTOM
 10
0.0
 20
0.0
 30
0.0
  9
$UCSORGLEFT
 10
0.0
 20
0.0
 30
0.0
  9
$UCSORGRIGHT
 10
0.0
 20
0.0
 30
0.0
  9
$UCSORGFRONT
 10
0.0
 20
0.0
 30
0.0
  9
$UCSORGBACK
 10
0.0
 20
0.0
 30
0.0
  9
$PUCSBASE
  2

  9
$PUCSNAME
  2

  9
$PUCSORG
 10
0.0
 20
0.0
 30
0.0
  9
$PUCSXDIR
 10
1.0
 20
0.0
 30
0.0
  9
$PUCSYDIR
 10
0.0
 20
1.0
 30
0.0
  9
$PUCSORTHOREF
  2

  9
$PUCSORTHOVIEW
 70
     0
  9
$PUCSORGTOP
 10
0.0
 20
0.0
 30
0.0
  9
$PUCSORGBOTTOM
 10
0.0
 20
0.0
 30
0.0
  9
$PUCSORGLEFT
 10
0.0
 20
0.0
 30
0.0
  9
$PUCSORGRIGHT
 10
0.0
 20
0.0
 30
0.0
  9
$PUCSORGFRONT
 10
0.0
 20
0.0
 30
0.0
  9
$PUCSORGBACK
 10
0.0
 20
0.0
 30
0.0
  9
$USERI1
 70
     0
  9
$USERI2
 70
     0
  9
$USERI3
 70
     0
  9
$USERI4
 70
     0
  9
$USERI5
 70
     0
  9
$USERR1
 40
18.1
  9
$USERR2
 40
0.0
  9
$USERR3
 40
0.0
  9
$USERR4
 40
0.0
  9
$USERR5
 40
0.0
  9
$WORLDVIEW
 70
     1
  9
$SHADEDGE
 70
     3
  9
$SHADEDIF
 70
    70
  9
$TILEMODE
 70
     1
  9
$MAXACTVP
 70
    64
  9
$PINSBASE
 10
0.0
 20
0.0
 30
0.0
  9
$PLIMCHECK
 70
     0
  9
$PEXTMIN
 10
1.00000000000000E+20
 20
1.00000000000000E+20
 30
1.00000000000000E+20
  9
$PEXTMAX
 10
-1.00000000000000E+20
 20
-1.00000000000000E+20
 30
-1.00000000000000E+20
  9
$PLIMMIN
 10
0.0
 20
0.0
  9
$PLIMMAX
 10
12.0
 20
9.0
  9
$UNITMODE
 70
     0
  9
$VISRETAIN
 70
     1
  9
$PLINEGEN
 70
     0
  9
$PSLTSCALE
 70
     1
  9
$TREEDEPTH
 70
  3020
  9
$CMLSTYLE
  2
Standard
  9
$CMLJUST
 70
     0
  9
$CMLSCALE
 40
1.0
  9
$PROXYGRAPHICS
 70
     1
  9
$MEASUREMENT
 70
     1
  9
$CELWEIGHT
370
    -1
  9
$ENDCAPS
280
     0
  9
$JOINSTYLE
280
     0
  9
$LWDISPLAY
290
     0
  9
$INSUNITS
 70
     4
  9
$HYPERLINKBASE
  1

  9
$STYLESHEET
  1

  9
$XEDIT
290
     1
  9
$CEPSNTYPE
380
     0
  9
$PSTYLEMODE
290
     1
  9
$FINGERPRINTGUID
  2
{7739155F-73C7-4CA2-B5C4-D01269BA99D4}
  9
$VERSIONGUID
  2
{FAEB1C32-E019-11D5-929B-00C0DF256EC4}
  9
$EXTNAMES
290
     1
  9
$PSVPSCALE
 40
0.0
  9
$OLESTARTUP
290
     0
  0
ENDSEC
  0
SECTION
  2
CLASSES
  0
CLASS
  1
ACDBDICTIONARYWDFLT
  2
AcDbDictionaryWithDefault
  3
ObjectDBX Classes
 90
        0
280
     0
281
     0
  0
CLASS
  1
VISUALSTYLE
  2
AcDbVisualStyle
  3
ObjectDBX Classes
 90
     4095
280
     0
281
     0
  0
CLASS
  1
MATERIAL
  2
AcDbMaterial
  3
ObjectDBX Classes
 90
     1153
280
     0
281
     0
  0
CLASS
  1
DICTIONARYVAR
  2
AcDbDictionaryVar
  3
ObjectDBX Classes
 90
        0
280
     0
281
     0
  0
CLASS
  1
ACDBPLACEHOLDER
  2
AcDbPlaceHolder
  3
ObjectDBX Classes
 90
        0
280
     0
281
     0
  0
CLASS
  1
LAYOUT
  2
AcDbLayout
  3
ObjectDBX Classes
 90
        0
280
     0
281
     0
  0
ENDSEC
  0
SECTION
  2
TABLES
  0
TABLE
  2
VPORT
  5
8
330
0
100
AcDbSymbolTable
 70
     1
  0
VPORT
  5
29
330
8
100
AcDbSymbolTableRecord
100
AcDbViewportTableRecord
  2
*Active
 70
     0
 10
0.0
 20
0.0
 11
1.0
 21
1.0
 12
555.0167245995228
 22
324.754615840239
 13
0.0
 23
0.0
 14
0.5
 24
0.5
 15
0.5
 25
0.5
 16
0.0
 26
0.0
 36
1.0
 17
0.0
 27
0.0
 37
0.0
 40
653.4000000000001
 41
1.60267857142857
 42
50.0
 43
0.0
 44
0.0
 50
0.0
 51
0.0
 71
     0
 72
   100
 73
     1
 74
     3
 75
     0
 76
     0
 77
     0
 78
     0
281
     0
 65
     1
110
0.0
120
0.0
130
0.0
111
1.0
121
0.0
131
0.0
112
0.0
122
1.0
132
0.0
 79
     0
146
0.0
  0
ENDTAB
  0
TABLE
  2
LTYPE
  5
5
330
0
100
AcDbSymbolTable
 70
     8
  0
LTYPE
  5
14
330
5
100
AcDbSymbolTableRecord
100
AcDbLinetypeTableRecord
  2
ByBlock
 70
     0
  3

 72
    65
 73
     0
 40
0.0
  0
LTYPE
  5
15
330
5
100
AcDbSymbolTableRecord
100
AcDbLinetypeTableRecord
  2
ByLayer
 70
     0
  3

 72
    65
 73
     0
 40
0.0
  0
LTYPE
  5
16
330
5
100
AcDbSymbolTableRecord
100
AcDbLinetypeTableRecord
  2
Continuous
 70
     0
  3
Solid line
 72
    65
 73
     0
 40
0.0
  0
LTYPE
  5
3F
330
5
100
AcDbSymbolTableRecord
100
AcDbLinetypeTableRecord
  2
DASHED
 70
     0
  3
Dashed
 72
    65
 73
     2
 40
15.0
 49
7.0
 74
     0
 49
-8.0
 74
     0
  0
LTYPE
  5
40
330
5
100
AcDbSymbolTableRecord
100
AcDbLinetypeTableRecord
  2
DOTTED
 70
     0
  3
Dotted
 72
    65
 73
     2
 40
1.0
 49
0.0
 74
     0
 49
-1.0
 74
     0
  0
LTYPE
  5
41
330
5
100
AcDbSymbolTableRecord
100
AcDbLinetypeTableRecord
  2
DOT_CENTER
 70
     0
  3
Dot_Center
 72
    65
 73
     4
 40
14.0
 49
12.0
 74
     0
 49
-1.0
 74
     0
 49
0.0
 74
     0
 49
-1.0
 74
     0
  0
LTYPE
  5
42
330
5
100
AcDbSymbolTableRecord
100
AcDbLinetypeTableRecord
  2
LONG_DASHED
 70
     0
  3
Long_Dashed
 72
    65
 73
     2
 40
15.0
 49
10.0
 74
     0
 49
-5.0
 74
     0
  0
LTYPE
  5
43
330
5
100
AcDbSymbolTableRecord
100
AcDbLinetypeTableRecord
  2
DASH_CENTER
 70
     0
  3
Dash_Center
 72
    65
 73
     4
 40
14.0
 49
11.0
 74
     0
 49
-1.0
 74
     0
 49
1.0
 74
     0
 49
-1.0
 74
     0
  0
LTYPE
  5
44
330
5
100
AcDbSymbolTableRecord
100
AcDbLinetypeTableRecord
  2
PHANTOM
 70
     0
  3
Phantom
 72
    65
 73
     6
 40
13.0
 49
10.0
 74
     0
 49
-1.0
 74
     0
 49
0.0
 74
     0
 49
-1.0
 74
     0
 49
0.0
 74
     0
 49
-1.0
 74
     0
  0
LTYPE
  5
45
330
5
100
AcDbSymbolTableRecord
100
AcDbLinetypeTableRecord
  2
CENTER_DASH_DASH
 70
     0
  3
Center_Dash_Dash
 72
    65
 73
     6
 40
14.0
 49
9.0
 74
     0
 49
-1.0
 74
     0
 49
1.0
 74
     0
 49
-1.0
 74
     0
 49
1.0
 74
     0
 49
-1.0
 74
     0
  0
ENDTAB
  0
TABLE
  2
LAYER
  5
2
330
0
100
AcDbSymbolTable
 70
     3
  0
LAYER
  5
10
330
2
100
AcDbSymbolTableRecord
100
AcDbLayerTableRecord
  2
0
 70
     0
 62
     7
  6
Continuous
370
    -3
390
F
  0
LAYER
  5
46
330
2
100
AcDbSymbolTableRecord
100
AcDbLayerTableRecord
  2
1
 70
     0
 62
     7
  6
Continuous
370
    -3
390
F
  0
LAYER
  5
47
330
2
100
AcDbSymbolTableRecord
100
AcDbLayerTableRecord
  2
_U_30EC_U_30A4_U_30E4_U_30FC_1
 70
     0
 62
     7
  6
Continuous
370
    -3
390
F
  0
ENDTAB
  0
TABLE
  2
STYLE
  5
3
330
0
100
AcDbSymbolTable
 70
     3
  0
STYLE
  5
11
330
3
100
AcDbSymbolTableRecord
100
AcDbTextStyleTableRecord
  2
Standard
 70
     0
 40
0.0
 41
1.0
 50
0.0
 71
     0
 42
0.2
  3
txt
  4

  0
STYLE
  5
B2
330
3
100
AcDbSymbolTableRecord
100
AcDbTextStyleTableRecord
  2
CONVERTER_11
 70
     0
 40
0.0
 41
0.89
 50
0.0
 71
     0
 42
0.2
  3
MS Mincho.ttf
  4

1001
ACAD
1000
MS Mincho
1071
    32785
  0
STYLE
  5
112
330
3
100
AcDbSymbolTableRecord
100
AcDbTextStyleTableRecord
  2
CONVERTER_12
 70
     0
 40
0.0
 41
0.9
 50
0.0
 71
     0
 42
0.2
  3
txt.shx
  4

  0
ENDTAB
  0
TABLE
  2
VIEW
  5
6
330
0
100
AcDbSymbolTable
 70
     0
  0
ENDTAB
  0
TABLE
  2
UCS
  5
7
330
0
100
AcDbSymbolTable
 70
     0
  0
ENDTAB
  0
TABLE
  2
APPID
  5
9
330
0
100
AcDbSymbolTable
 70
     1
  0
APPID
  5
12
330
9
100
AcDbSymbolTableRecord
100
AcDbRegAppTableRecord
  2
ACAD
 70
     0
  0
ENDTAB
  0
TABLE
  2
DIMSTYLE
  5
A
330
0
100
AcDbSymbolTable
 70
    11
100
AcDbDimStyleTable
  0
DIMSTYLE
105
27
330
A
100
AcDbSymbolTableRecord
100
AcDbDimStyleTableRecord
  2
Standard
 70
     0
178
     0
340
11
  0
DIMSTYLE
105
131
102
{ACAD_REACTORS
330
132
102
}
330
A
100
AcDbSymbolTableRecord
100
AcDbDimStyleTableRecord
  2
ME10_DIM_10
 70
     0
 41
7.0
 42
0.0
 44
4.0
 73
     0
 74
     0
 77
     1
 78
     8
140
6.0
147
4.0
172
     1
173
     1
174
     1
175
     1
176
     2
177
     2
271
     2
178
     7
271
     2
340
112
  0
DIMSTYLE
105
13C
102
{ACAD_REACTORS
330
13D
102
}
330
A
100
AcDbSymbolTableRecord
100
AcDbDimStyleTableRecord
  2
ME10_DIM_11
 70
     0
 41
7.0
 42
0.0
 44
4.0
 73
     0
 74
     0
 77
     1
 78
     8
140
6.0
147
4.0
172
     1
173
     1
174
     1
175
     1
176
     2
177
     2
271
     0
178
     7
271
     0
340
112
  0
DIMSTYLE
105
149
102
{ACAD_REACTORS
330
14A
102
}
330
A
100
AcDbSymbolTableRecord
100
AcDbDimStyleTableRecord
  2
ME10_DIM_12
 70
     0
 41
7.0
 42
0.0
 44
4.0
 73
     0
 74
     0
 77
     1
 78
     8
140
6.0
147
4.0
172
     1
173
     1
174
     1
175
     1
176
     2
177
     2
271
     2
178
     7
271
     2
340
112
  0
DIMSTYLE
105
154
102
{ACAD_REACTORS
330
155
102
}
330
A
100
AcDbSymbolTableRecord
100
AcDbDimStyleTableRecord
  2
ME10_DIM_13
 70
     0
 41
7.0
 42
0.0
 44
4.0
 73
     0
 74
     0
 77
     1
 78
     8
140
6.0
147
4.0
172
     1
173
     1
174
     1
175
     1
176
     2
177
     2
271
     2
178
     7
271
     2
340
112
  0
DIMSTYLE
105
160
102
{ACAD_REACTORS
330
161
102
}
330
A
100
AcDbSymbolTableRecord
100
AcDbDimStyleTableRecord
  2
ME10_DIM_14
 70
     0
 41
7.0
 42
0.0
 44
4.0
 73
     0
 74
     0
 77
     1
 78
     8
140
6.0
147
4.0
172
     1
173
     1
174
     1
175
     1
176
     2
177
     2
271
     2
178
     7
271
     2
340
112
  0
DIMSTYLE
105
16C
102
{ACAD_REACTORS
330
16D
102
}
330
A
100
AcDbSymbolTableRecord
100
AcDbDimStyleTableRecord
  2
ME10_DIM_15
 70
     0
 41
7.0
 42
0.0
 44
4.0
 73
     0
 74
     0
 77
     1
 78
     8
140
6.0
147
4.0
172
     1
173
     1
174
     1
175
     1
176
     2
177
     2
271
     2
178
     7
271
     2
340
112
  0
DIMSTYLE
105
177
102
{ACAD_REACTORS
330
178
102
}
330
A
100
AcDbSymbolTableRecord
100
AcDbDimStyleTableRecord
  2
ME10_DIM_16
 70
     0
 41
7.0
 42
0.0
 44
4.0
 73
     0
 74
     0
 77
     1
 78
     8
140
6.0
147
4.0
172
     1
173
     1
174
     1
175
     1
176
     2
177
     2
271
     2
178
     7
271
     2
340
112
  0
DIMSTYLE
105
182
102
{ACAD_REACTORS
330
183
102
}
330
A
100
AcDbSymbolTableRecord
100
AcDbDimStyleTableRecord
  2
ME10_DIM_17
 70
     0
 41
7.0
 42
0.0
 44
4.0
 73
     0
 74
     0
 77
     1
 78
     8
140
6.0
147
4.0
172
     1
173
     1
174
     1
175
     1
176
     2
177
     2
271
     2
178
     7
271
     2
340
112
  0
DIMSTYLE
105
18F
102
{ACAD_REACTORS
330
190
102
}
330
A
100
AcDbSymbolTableRecord
100
AcDbDimStyleTableRecord
  2
ME10_DIM_18
 70
     0
 41
7.0
 42
0.0
 44
4.0
 73
     0
 74
     0
 77
     1
 78
     8
140
6.0
147
4.0
172
     1
173
     1
174
     1
175
     1
176
     2
177
     2
271
     2
178
     7
271
     2
340
112
  0
DIMSTYLE
105
19C
102
{ACAD_REACTORS
330
19D
102
}
330
A
100
AcDbSymbolTableRecord
100
AcDbDimStyleTableRecord
  2
ME10_DIM_19
 70
     0
 41
7.0
 42
0.0
 44
4.0
 73
     0
 74
     0
 77
     1
 78
     8
140
6.0
147
4.0
172
     1
173
     1
174
     1
175
     1
176
     2
177
     2
271
     2
178
     7
271
     2
340
112
  0
ENDTAB
  0
TABLE
  2
BLOCK_RECORD
  5
1
330
0
100
AcDbSymbolTable
 70
    13
  0
BLOCK_RECORD
  5
1F
330
1
100
AcDbSymbolTableRecord
100
AcDbBlockTableRecord
  2
*Model_Space
340
22
  0
BLOCK_RECORD
  5
1B
330
1
100
AcDbSymbolTableRecord
100
AcDbBlockTableRecord
  2
*Paper_Space
340
1E
  0
BLOCK_RECORD
  5
23
330
1
100
AcDbSymbolTableRecord
100
AcDbBlockTableRecord
  2
*Paper_Space0
340
26
  0
BLOCK_RECORD
  5
48
330
1
100
AcDbSymbolTableRecord
100
AcDbBlockTableRecord
  2
開示A4
340
0
102
{BLKREFS
331
4C
102
}
  0
BLOCK_RECORD
  5
4B
330
1
100
AcDbSymbolTableRecord
100
AcDbBlockTableRecord
  2
開示A4枠
340
0
102
{BLKREFS
331
4F
102
}
  0
BLOCK_RECORD
  5
127
330
1
100
AcDbSymbolTableRecord
100
AcDbBlockTableRecord
  2
*D3
340
0
  0
BLOCK_RECORD
  5
133
330
1
100
AcDbSymbolTableRecord
100
AcDbBlockTableRecord
  2
*D4
340
0
  0
BLOCK_RECORD
  5
13E
330
1
100
AcDbSymbolTableRecord
100
AcDbBlockTableRecord
  2
*D5
340
0
  0
BLOCK_RECORD
  5
14B
330
1
100
AcDbSymbolTableRecord
100
AcDbBlockTableRecord
  2
*D6
340
0
  0
BLOCK_RECORD
  5
156
330
1
100
AcDbSymbolTableRecord
100
AcDbBlockTableRecord
  2
*D7
340
0
  0
BLOCK_RECORD
  5
162
330
1
100
AcDbSymbolTableRecord
100
AcDbBlockTableRecord
  2
*D8
340
0
  0
BLOCK_RECORD
  5
16E
330
1
100
AcDbSymbolTableRecord
100
AcDbBlockTableRecord
  2
*D9
340
0
  0
BLOCK_RECORD
  5
179
330
1
100
AcDbSymbolTableRecord
100
AcDbBlockTableRecord
  2
*D10
340
0
  0
BLOCK_RECORD
  5
184
330
1
100
AcDbSymbolTableRecord
100
AcDbBlockTableRecord
  2
*D11
340
0
  0
BLOCK_RECORD
  5
191
330
1
100
AcDbSymbolTableRecord
100
AcDbBlockTableRecord
  2
*D12
340
0
  0
ENDTAB
  0
ENDSEC
  0
SECTION
  2
BLOCKS
  0
BLOCK
  5
20
330
1F
100
AcDbEntity
  8
0
100
AcDbBlockBegin
  2
*Model_Space
 70
     0
 10
0.0
 20
0.0
 30
0.0
  3
*Model_Space
  1

  0
ENDBLK
  5
21
330
1F
100
AcDbEntity
  8
0
100
AcDbBlockEnd
  0
BLOCK
  5
1C
330
1B
100
AcDbEntity
 67
     1
  8
0
100
AcDbBlockBegin
  2
*Paper_Space
 70
     0
 10
0.0
 20
0.0
 30
0.0
  3
*Paper_Space
  1

  0
ENDBLK
  5
1D
330
1B
100
AcDbEntity
 67
     1
  8
0
100
AcDbBlockEnd
  0
BLOCK
  5
24
330
23
100
AcDbEntity
  8
0
100
AcDbBlockBegin
  2
*Paper_Space0
 70
     0
 10
0.0
 20
0.0
 30
0.0
  3
*Paper_Space0
  1

  0
ENDBLK
  5
25
330
23
100
AcDbEntity
  8
0
100
AcDbBlockEnd
  0
BLOCK
  5
49
330
48
100
AcDbEntity
  8
0
100
AcDbBlockBegin
  2
開示A4
 70
     0
 10
172.5083622997614
 20
13.8773079201195
 30
0.0
  3
開示A4
  1

  0
POINT
  5
50
330
48
100
AcDbEntity
  8
1
 62
     4
100
AcDbPoint
 10
206.5083622997614
 20
47.8773079201195
 30
0.0
  0
POINT
  5
51
330
48
100
AcDbEntity
  8
1
 62
     4
100
AcDbPoint
 10
229.5083622997614
 20
26.1273079201195
 30
0.0
  0
POINT
  5
52
330
48
100
AcDbEntity
  8
1
 62
     4
100
AcDbPoint
 10
229.5083622997614
 20
34.62730792011951
 30
0.0
  0
POINT
  5
53
330
48
100
AcDbEntity
  8
1
 62
     4
100
AcDbPoint
 10
229.5083622997614
 20
38.62730792011951
 30
0.0
  0
POINT
  5
54
330
48
100
AcDbEntity
  8
1
 62
     4
100
AcDbPoint
 10
229.5083622997614
 20
30.1273079201195
 30
0.0
  0
POINT
  5
55
330
48
100
AcDbEntity
  8
1
 62
     4
100
AcDbPoint
 10
330.0083622997614
 20
32.87730792011951
 30
0.0
  0
POINT
  5
56
330
48
100
AcDbEntity
  8
1
 62
     4
100
AcDbPoint
 10
220.0083622997614
 20
295.8773079201198
 30
0.0
  0
POINT
  5
57
330
48
100
AcDbEntity
  8
1
 62
     4
100
AcDbPoint
 10
229.5083622997614
 20
36.62730792011951
 30
0.0
  0
POINT
  5
58
330
48
100
AcDbEntity
  8
1
 62
     4
100
AcDbPoint
 10
229.5083622997614
 20
28.1273079201195
 30
0.0
  0
POINT
  5
59
330
48
100
AcDbEntity
  8
1
 62
     4
100
AcDbPoint
 10
330.0083622997614
 20
26.3773079201195
 30
0.0
  0
POINT
  5
5A
330
48
100
AcDbEntity
  8
1
 62
     4
100
AcDbPoint
 10
335.7583622997614
 20
26.3773079201195
 30
0.0
  0
POINT
  5
5B
330
48
100
AcDbEntity
  8
1
 62
     4
100
AcDbPoint
 10
324.2583622997614
 20
26.3773079201195
 30
0.0
  0
POINT
  5
5C
330
48
100
AcDbEntity
  8
1
 62
     4
100
AcDbPoint
 10
307.2583622997614
 20
26.3773079201195
 30
0.0
  0
POINT
  5
5D
330
48
100
AcDbEntity
  8
1
 62
     4
100
AcDbPoint
 10
318.7583622997614
 20
26.3773079201195
 30
0.0
  0
POINT
  5
5E
330
48
100
AcDbEntity
  8
1
 62
     4
100
AcDbPoint
 10
313.0083622997614
 20
26.3773079201195
 30
0.0
  0
POINT
  5
5F
330
48
100
AcDbEntity
  8
1
 62
     4
100
AcDbPoint
 10
313.0083622997614
 20
32.87730792011951
 30
0.0
  0
POINT
  5
60
330
48
100
AcDbEntity
  8
1
 62
     4
100
AcDbPoint
 10
290.2583622997614
 20
26.3773079201195
 30
0.0
  0
POINT
  5
61
330
48
100
AcDbEntity
  8
1
 62
     4
100
AcDbPoint
 10
301.7583622997614
 20
26.3773079201195
 30
0.0
  0
POINT
  5
62
330
48
100
AcDbEntity
  8
1
 62
     4
100
AcDbPoint
 10
296.0083622997614
 20
26.3773079201195
 30
0.0
  0
POINT
  5
63
330
48
100
AcDbEntity
  8
1
 62
     4
100
AcDbPoint
 10
296.0083622997614
 20
32.87730792011951
 30
0.0
  0
POINT
  5
64
330
48
100
AcDbEntity
  8
1
 62
     4
100
AcDbPoint
 10
273.2583622997614
 20
26.3773079201195
 30
0.0
  0
POINT
  5
65
330
48
100
AcDbEntity
  8
1
 62
     4
100
AcDbPoint
 10
284.7583622997614
 20
26.3773079201195
 30
0.0
  0
POINT
  5
66
330
48
100
AcDbEntity
  8
1
 62
     4
100
AcDbPoint
 10
279.0083622997614
 20
26.3773079201195
 30
0.0
  0
POINT
  5
67
330
48
100
AcDbEntity
  8
1
 62
     4
100
AcDbPoint
 10
279.0083622997614
 20
32.87730792011951
 30
0.0
  0
POINT
  5
68
330
48
100
AcDbEntity
  8
1
 62
     4
100
AcDbPoint
 10
257.7583622997614
 20
30.8773079201195
 30
0.0
  0
POINT
  5
69
330
48
100
AcDbEntity
  8
1
 62
     4
100
AcDbPoint
 10
266.2583622997614
 20
30.8773079201195
 30
0.0
  0
POINT
  5
6A
330
48
100
AcDbEntity
  8
1
 62
     4
100
AcDbPoint
 10
355.5083622997614
 20
28.87730792011951
 30
0.0
  0
LINE
  5
6B
330
48
100
AcDbEntity
  8
1
  6
Continuous
 62
     2
100
AcDbLine
 10
253.5083622997614
 20
40.87730792011951
 30
0.0
 11
253.5083622997614
 21
23.8773079201195
 31
0.0
  0
LINE
  5
6C
330
48
100
AcDbEntity
  8
1
  6
DOT_CENTER
 62
     2
100
AcDbLine
 10
359.5083622997614
 20
40.37730792011951
 30
0.0
 11
359.5083622997614
 21
34.37730792011951
 31
0.0
  0
LINE
  5
6D
330
48
100
AcDbEntity
  8
1
  6
DOT_CENTER
 62
     2
100
AcDbLine
 10
356.5083622997614
 20
37.37730792011951
 30
0.0
 11
369.5083622997614
 21
37.37730792011951
 31
0.0
  0
LINE
  5
6E
330
48
100
AcDbEntity
  8
1
  6
Continuous
 62
     7
100
AcDbLine
 10
368.5083622997614
 20
35.37730792011951
 30
0.0
 11
363.5083622997614
 21
36.17730792011951
 31
0.0
  0
LINE
  5
6F
330
48
100
AcDbEntity
  8
1
  6
Continuous
 62
     7
100
AcDbLine
 10
368.5083622997614
 20
39.37730792011951
 30
0.0
 11
368.5083622997614
 21
35.37730792011951
 31
0.0
  0
LINE
  5
70
330
48
100
AcDbEntity
  8
1
  6
Continuous
 62
     7
100
AcDbLine
 10
363.5083622997614
 20
38.57730792011952
 30
0.0
 11
368.5083622997614
 21
39.37730792011951
 31
0.0
  0
LINE
  5
71
330
48
100
AcDbEntity
  8
1
  6
Continuous
 62
     7
100
AcDbLine
 10
363.5083622997614
 20
38.57730792011952
 30
0.0
 11
363.5083622997614
 21
36.17730792011951
 31
0.0
  0
LINE
  5
72
330
48
100
AcDbEntity
  8
1
  6
Continuous
 62
     2
100
AcDbLine
 10
205.5083622997614
 20
40.8773079201195
 30
0.0
 11
205.5083622997614
 21
23.8773079201195
 31
0.0
  0
LINE
  5
73
330
48
100
AcDbEntity
  8
1
  6
Continuous
 62
     2
100
AcDbLine
 10
197.5083622997614
 20
32.37730792011951
 30
0.0
 11
253.5083622997614
 21
32.37730792011951
 31
0.0
  0
LINE
  5
74
330
48
100
AcDbEntity
  8
1
  6
Continuous
 62
     7
100
AcDbLine
 10
372.5083622997614
 20
300.8773079201198
 30
0.0
 11
277.5083622997614
 21
300.8773079201198
 31
0.0
  0
LINE
  5
75
330
48
100
AcDbEntity
  8
1
  6
Continuous
 62
     7
100
AcDbLine
 10
372.5083622997614
 20
23.8773079201195
 30
0.0
 11
372.5083622997614
 21
162.3773079201195
 31
0.0
  0
LINE
  5
76
330
48
100
AcDbEntity
  8
1
  6
Continuous
 62
     7
100
AcDbLine
 10
197.5083622997614
 20
23.8773079201195
 30
0.0
 11
277.5083622997614
 21
23.8773079201195
 31
0.0
  0
LINE
  5
77
330
48
100
AcDbEntity
  8
1
  6
PHANTOM
 62
     4
100
AcDbLine
 10
172.5083622997614
 20
310.8773079201195
 30
0.0
 11
172.5083622997614
 21
13.8773079201195
 31
0.0
  0
LINE
  5
78
330
48
100
AcDbEntity
  8
1
  6
PHANTOM
 62
     4
100
AcDbLine
 10
382.5083622997614
 20
310.8773079201195
 30
0.0
 11
172.5083622997614
 21
310.8773079201195
 31
0.0
  0
LINE
  5
79
330
48
100
AcDbEntity
  8
1
  6
PHANTOM
 62
     4
100
AcDbLine
 10
382.5083622997614
 20
13.8773079201195
 30
0.0
 11
382.5083622997614
 21
310.8773079201195
 31
0.0
  0
LINE
  5
7A
330
48
100
AcDbEntity
  8
1
  6
PHANTOM
 62
     4
100
AcDbLine
 10
172.5083622997614
 20
13.8773079201195
 30
0.0
 11
382.5083622997614
 21
13.8773079201195
 31
0.0
  0
LINE
  5
7B
330
48
100
AcDbEntity
  8
1
  6
Continuous
 62
     7
100
AcDbLine
 10
197.5083622997614
 20
54.8773079201195
 30
0.0
 11
372.5083622997614
 21
54.8773079201195
 31
0.0
  0
LINE
  5
7C
330
48
100
AcDbEntity
  8
1
  6
Continuous
 62
     7
100
AcDbLine
 10
372.5083622997614
 20
40.87730792011951
 30
0.0
 11
197.5083622997614
 21
40.87730792011951
 31
0.0
  0
LINE
  5
7D
330
48
100
AcDbEntity
  8
1
  6
Continuous
 62
     2
100
AcDbLine
 10
205.5083622997614
 20
54.8773079201195
 30
0.0
 11
205.5083622997614
 21
40.8773079201195
 31
0.0
  0
LINE
  5
7E
330
48
100
AcDbEntity
  8
1
  6
Continuous
 62
     2
100
AcDbLine
 10
227.5083622997614
 20
300.8773079201198
 30
0.0
 11
227.5083622997614
 21
290.8773079201198
 31
0.0
  0
LINE
  5
7F
330
48
100
AcDbEntity
  8
1
  6
Continuous
 62
     2
100
AcDbLine
 10
212.5083622997614
 20
300.8773079201198
 30
0.0
 11
212.5083622997614
 21
290.8773079201198
 31
0.0
  0
LINE
  5
80
330
48
100
AcDbEntity
  8
1
  6
Continuous
 62
     7
100
AcDbLine
 10
197.5083622997614
 20
23.8773079201195
 30
0.0
 11
197.5083622997614
 21
162.3773079201195
 31
0.0
  0
LINE
  5
81
330
48
100
AcDbEntity
  8
1
  6
Continuous
 62
     2
100
AcDbLine
 10
227.5083622997614
 20
290.8773079201198
 30
0.0
 11
197.5083622997614
 21
290.8773079201198
 31
0.0
  0
LINE
  5
82
330
48
100
AcDbEntity
  8
1
  6
Continuous
 62
     2
100
AcDbLine
 10
338.5083622997614
 20
40.87730792011951
 30
0.0
 11
338.5083622997614
 21
23.8773079201195
 31
0.0
  0
LINE
  5
83
330
48
100
AcDbEntity
  8
1
  6
Continuous
 62
     2
100
AcDbLine
 10
304.5083622997614
 20
40.87730792011951
 30
0.0
 11
304.5083622997614
 21
23.87730792011949
 31
0.0
  0
LINE
  5
84
330
48
100
AcDbEntity
  8
1
  6
Continuous
 62
     2
100
AcDbLine
 10
321.5083622997614
 20
40.87730792011951
 30
0.0
 11
321.5083622997614
 21
23.8773079201195
 31
0.0
  0
LINE
  5
85
330
48
100
AcDbEntity
  8
1
  6
Continuous
 62
     2
100
AcDbLine
 10
287.5083622997614
 20
40.87730792011951
 30
0.0
 11
287.5083622997614
 21
23.87730792011949
 31
0.0
  0
LINE
  5
86
330
48
100
AcDbEntity
  8
1
  6
Continuous
 62
     2
100
AcDbLine
 10
270.5083622997614
 20
40.87730792011951
 30
0.0
 11
270.5083622997614
 21
23.8773079201195
 31
0.0
  0
LINE
  5
87
330
48
100
AcDbEntity
  8
1
  6
Continuous
 62
     2
100
AcDbLine
 10
338.5083622997614
 20
33.87730792011951
 30
0.0
 11
372.5083622997614
 21
33.87730792011951
 31
0.0
  0
LINE
  5
88
330
48
100
AcDbEntity
  8
1
  6
Continuous
 62
     2
100
AcDbLine
 10
277.5083622997614
 20
300.8773079201198
 30
0.0
 11
277.5083622997614
 21
305.8773079201198
 31
0.0
  0
LINE
  5
89
330
48
100
AcDbEntity
  8
1
  6
Continuous
 62
     7
100
AcDbLine
 10
277.5083622997614
 20
300.8773079201198
 30
0.0
 11
197.5083622997614
 21
300.8773079201198
 31
0.0
  0
LINE
  5
8A
330
48
100
AcDbEntity
  8
1
  6
Continuous
 62
     2
100
AcDbLine
 10
197.5083622997614
 20
162.3773079201195
 30
0.0
 11
192.5083622997614
 21
162.3773079201195
 31
0.0
  0
LINE
  5
8B
330
48
100
AcDbEntity
  8
1
  6
Continuous
 62
     7
100
AcDbLine
 10
197.5083622997614
 20
162.3773079201195
 30
0.0
 11
197.5083622997614
 21
300.8773079201198
 31
0.0
  0
LINE
  5
8C
330
48
100
AcDbEntity
  8
1
  6
Continuous
 62
     2
100
AcDbLine
 10
372.5083622997614
 20
162.3773079201195
 30
0.0
 11
377.5083622997614
 21
162.3773079201195
 31
0.0
  0
LINE
  5
8D
330
48
100
AcDbEntity
  8
1
  6
Continuous
 62
     7
100
AcDbLine
 10
372.5083622997614
 20
162.3773079201195
 30
0.0
 11
372.5083622997614
 21
300.8773079201198
 31
0.0
  0
LINE
  5
8E
330
48
100
AcDbEntity
  8
1
  6
Continuous
 62
     2
100
AcDbLine
 10
277.5083622997614
 20
23.8773079201195
 30
0.0
 11
277.5083622997614
 21
18.8773079201195
 31
0.0
  0
LINE
  5
8F
330
48
100
AcDbEntity
  8
1
  6
Continuous
 62
     7
100
AcDbLine
 10
277.5083622997614
 20
23.8773079201195
 30
0.0
 11
372.5083622997614
 21
23.8773079201195
 31
0.0
  0
CIRCLE
  5
94
330
48
100
AcDbEntity
  8
1
  6
DOT_CENTER
 62
     7
100
AcDbCircle
 10
262.0083622997614
 20
31.8773079201195
 30
0.0
 40
0.1000000000001933
  0
CIRCLE
  5
95
330
48
100
AcDbEntity
  8
1
  6
DOT_CENTER
 62
     7
100
AcDbCircle
 10
262.0083622997614
 20
29.8773079201195
 30
0.0
 40
0.1000000000001933
  0
CIRCLE
  5
96
330
48
100
AcDbEntity
  8
1
  6
Continuous
 62
     7
100
AcDbCircle
 10
359.5083622997614
 20
37.37730792011951
 30
0.0
 40
2.0
  0
CIRCLE
  5
97
330
48
100
AcDbEntity
  8
1
  6
Continuous
 62
     7
100
AcDbCircle
 10
359.5083622997614
 20
37.37730792011951
 30
0.0
 40
1.200000000000159
  0
CIRCLE
  5
98
330
48
100
AcDbEntity
  8
1
  6
Continuous
 62
     7
100
AcDbCircle
 10
327.0083622997614
 20
26.3773079201195
 30
0.0
 40
0.3000000000000682
  0
CIRCLE
  5
99
330
48
100
AcDbEntity
  8
1
  6
Continuous
 62
     7
100
AcDbCircle
 10
333.0083622997614
 20
26.3773079201195
 30
0.0
 40
0.3000000000000682
  0
CIRCLE
  5
9A
330
48
100
AcDbEntity
  8
1
  6
Continuous
 62
     7
100
AcDbCircle
 10
316.0083622997614
 20
26.3773079201195
 30
0.0
 40
0.3000000000000682
  0
CIRCLE
  5
9B
330
48
100
AcDbEntity
  8
1
  6
Continuous
 62
     7
100
AcDbCircle
 10
310.0083622997614
 20
26.3773079201195
 30
0.0
 40
0.3000000000000682
  0
CIRCLE
  5
9C
330
48
100
AcDbEntity
  8
1
  6
Continuous
 62
     7
100
AcDbCircle
 10
299.0083622997614
 20
26.3773079201195
 30
0.0
 40
0.3000000000000682
  0
CIRCLE
  5
9D
330
48
100
AcDbEntity
  8
1
  6
Continuous
 62
     7
100
AcDbCircle
 10
293.0083622997614
 20
26.3773079201195
 30
0.0
 40
0.3000000000000682
  0
CIRCLE
  5
9E
330
48
100
AcDbEntity
  8
1
  6
Continuous
 62
     7
100
AcDbCircle
 10
282.0083622997614
 20
26.3773079201195
 30
0.0
 40
0.3000000000000682
  0
CIRCLE
  5
9F
330
48
100
AcDbEntity
  8
1
  6
Continuous
 62
     7
100
AcDbCircle
 10
276.0083622997614
 20
26.3773079201195
 30
0.0
 40
0.3000000000000682
  0
SPLINE
  5
A0
102
{ACAD_REACTORS
330
BE
102
}
330
48
100
AcDbEntity
  8
_U_30EC_U_30A4_U_30E4_U_30FC_1
  6
Continuous
 62
     2
100
AcDbSpline
210
0.0
220
0.0
230
1.0
 70
    11
 71
     3
 72
    99
 73
    95
 74
    93
 42
0.000000001
 43
0.0000000001
 44
0.00000001
 40
0.0
 40
0.0
 40
0.0
 40
0.0
 40
0.0796417172272876
 40
0.1621768542355971
 40
0.2486489160958112
 40
0.3404969668525337
 40
0.4381912511165347
 40
0.5434463660245369
 40
0.6518115192847125
 40
0.7530190937887795
 40
0.8492196919726547
 40
0.9419290312999121
 40
1.034249663570138
 40
1.129078600620271
 40
1.226697027573325
 40
1.327220425421783
 40
1.470572134938088
 40
1.595489863371285
 40
1.719934125348513
 40
1.850576620127554
 40
1.989059629987445
 40
2.134139054226957
 40
2.280698007207323
 40
2.424529739039563
 40
2.565929576985935
 40
2.708239260773659
 40
2.861717887443774
 40
3.045168540347471
 40
3.183798301138723
 40
3.314813961455564
 40
3.442083470447406
 40
3.569912708372989
 40
3.702177512509409
 40
3.842307559659652
 40
3.992872223246029
 40
4.156750662218418
 40
4.310981861107554
 40
4.445859909322683
 40
4.572393936131596
 40
4.701656719782062
 40
4.768279086008549
 40
4.835960697898486
 40
4.912788918729435
 40
5.006285208481615
 40
5.02690947875172
 40
5.047533749021256
 40
5.101808031471361
 40
5.162325165538658
 40
5.226919745996007
 40
5.294231806596779
 40
5.364544852554862
 40
5.438319055468006
 40
5.517877651324317
 40
5.607647714861599
 40
5.700449642544474
 40
5.788251142364206
 40
5.872714706039886
 40
5.955167292575445
 40
6.037192395190461
 40
6.120669181469221
 40
6.206848616686438
 40
6.296680855416864
 40
6.442558392872686
 40
6.568190371608398
 40
6.692904567360397
 40
6.824220446557271
 40
6.963121850329381
 40
7.107843738851194
 40
7.253431663907334
 40
7.395187468036805
 40
7.533140753237837
 40
7.670550457175373
 40
7.816236511769349
 40
7.987691657359316
 40
8.14227742196934
 40
8.293662615415128
 40
8.442962460879373
 40
8.591598316185483
 40
8.743678992361932
 40
8.903725323699291
 40
9.076307008890666
 40
9.26557860468072
 40
9.459203795360837
 40
9.617619810273734
 40
9.753609671362018
 40
9.874873300004234
 40
9.954520184977948
 40
10.02416413719263
 40
10.09769764405462
 40
10.18909955924989
 40
10.20974586420148
 40
10.23039218263393
 40
10.30057101881274
 40
10.37632012987554
 40
10.37632012987554
 40
10.37632012987554
 40
10.37632012987554
 10
342.6549577833465
 20
28.01526455227944
 30
0.0
 10
342.6715840848834
 20
27.99451400857263
 30
0.0
 10
342.705440720419
 20
27.95225903723855
 30
0.0
 10
342.768344553865
 20
27.89760603404018
 30
0.0
 10
342.8416123938008
 20
27.85029817133002
 30
0.0
 10
342.9259592236251
 20
27.81258023449884
 30
0.0
 10
343.0215863613075
 20
27.78771411743902
 30
0.0
 10
343.1255476772961
 20
27.78040351357887
 30
0.0
 10
343.2307643218018
 20
27.78873114806004
 30
0.0
 10
343.3290249368949
 20
27.81879971663479
 30
0.0
 10
343.4142609425163
 20
27.86579614983822
 30
0.0
 10
343.4862843203719
 20
27.92683783262809
 30
0.0
 10
343.5434540706711
 20
28.0014376159053
 30
0.0
 10
343.5851491745053
 20
28.08733256672126
 30
0.0
 10
343.6110575843908
 20
28.1821664244416
 30
0.0
 10
343.6201660330267
 20
28.29585771050317
 30
0.0
 10
343.6070487794102
 20
28.42063379782728
 30
0.0
 10
343.5408953332029
 20
28.53745511183844
 30
0.0
 10
343.4452993917184
 20
28.62243331589321
 30
0.0
 10
343.3333304019983
 20
28.69147476471111
 30
0.0
 10
343.2077282580884
 20
28.74934934057837
 30
0.0
 10
343.074031461847
 20
28.80104515296295
 30
0.0
 10
342.9396745816445
 20
28.85629884409127
 30
0.0
 10
342.8135606984491
 20
28.92670562653599
 30
0.0
 10
342.701020298515
 20
29.01516332743201
 30
0.0
 10
342.6053586062071
 20
29.12711859880418
 30
0.0
 10
342.541778014944
 20
29.27680702113334
 30
0.0
 10
342.528432950263
 20
29.43663586397091
 30
0.0
 10
342.5404133985064
 20
29.58779197318794
 30
0.0
 10
342.5795921926456
 20
29.71540036603488
 30
0.0
 10
342.6438610748526
 20
29.82811666042791
 30
0.0
 10
342.7321827997353
 20
29.92379401280641
 30
0.0
 10
342.8421714205242
 20
30.00085006997703
 30
0.0
 10
342.9715907398879
 20
30.05882188948225
 30
0.0
 10
343.1195461965409
 20
30.09469969600773
 30
0.0
 10
343.27656924531
 20
30.10477511062514
 30
0.0
 10
343.4258563464044
 20
30.09594429774538
 30
0.0
 10
343.5679876611785
 20
30.06805691352306
 30
0.0
 10
343.6679545607239
 20
30.01144106713082
 30
0.0
 10
343.82086977338
 20
29.9640539411746
 30
0.0
 10
343.7538754714782
 20
29.87928345013135
 30
0.0
 10
343.7380102117884
 20
29.81169693885432
 30
0.0
 10
343.706237352891
 20
29.74656884805143
 30
0.0
 10
343.7233825207185
 20
29.644542452689
 30
0.0
 10
343.6750050205848
 20
29.65224003693852
 30
0.0
 10
343.639941243838
 20
29.64537563736758
 30
0.0
 10
343.6380320983333
 20
29.70994623170145
 30
0.0
 10
343.6069315929603
 20
29.75556431633346
 30
0.0
 10
343.574817462607
 20
29.81291828640398
 30
0.0
 10
343.5291661472783
 20
29.86271254704508
 30
0.0
 10
343.4742131216003
 20
29.9072560573095
 30
0.0
 10
343.4094464170622
 20
29.94494780848495
 30
0.0
 10
343.3316000308212
 20
29.97014167803303
 30
0.0
 10
343.2438783550966
 20
29.97662023010059
 30
0.0
 10
343.1536526275422
 20
29.96966501297557
 30
0.0
 10
343.0678217691679
 20
29.94639982472869
 30
0.0
 10
342.9911966636211
 20
29.90862436119494
 30
0.0
 10
342.9248888633814
 20
29.85782433101529
 30
0.0
 10
342.870618353458
 20
29.79461935419154
 30
0.0
 10
342.8308548343072
 20
29.72007247722321
 30
0.0
 10
342.8060398508204
 20
29.6364810600971
 30
0.0
 10
342.7975747260484
 20
29.52923740394236
 30
0.0
 10
342.8103320984716
 20
29.40696249279505
 30
0.0
 10
342.8765171406889
 20
29.28880516303169
 30
0.0
 10
342.9724600397446
 20
29.20337117721468
 30
0.0
 10
343.0841537960798
 20
29.13314154318681
 30
0.0
 10
343.2094486666316
 20
29.07389954317247
 30
0.0
 10
343.3433446939061
 20
29.02347500098084
 30
0.0
 10
343.4773553330763
 20
28.97053308996329
 30
0.0
 10
343.6034508314531
 20
28.9048096263713
 30
0.0
 10
343.7159839636032
 20
28.82211144549268
 30
0.0
 10
343.8114993281849
 20
28.71726798322028
 30
0.0
 10
343.8756329484576
 20
28.57667909263515
 30
0.0
 10
343.8894726722895
 20
28.41796201463543
 30
0.0
 10
343.8757577709845
 20
28.25883947229825
 30
0.0
 10
343.8328362151601
 20
28.1121462083116
 30
0.0
 10
343.7629529326681
 20
27.97850588599089
 30
0.0
 10
343.6658215211443
 20
27.86263179711245
 30
0.0
 10
343.5431429021272
 20
27.76820773782036
 30
0.0
 10
343.3958031410783
 20
27.69910062663931
 30
0.0
 10
343.2260755494738
 20
27.65684002870802
 30
0.0
 10
343.0401027977212
 20
27.64512528242357
 30
0.0
 10
342.8612578923798
 20
27.65540278695389
 30
0.0
 10
342.6965356751358
 20
27.69697365781098
 30
0.0
 10
342.591803383867
 20
27.76528434895895
 30
0.0
 10
342.443458378798
 20
27.81406011044055
 30
0.0
 10
342.5064001192343
 20
27.90707383302792
 30
0.0
 10
342.5155897427675
 20
27.98027328260228
 30
0.0
 10
342.5387334298846
 20
28.04667086513298
 30
0.0
 10
342.5118211332933
 20
28.14705601539529
 30
0.0
 10
342.5604961953953
 20
28.13964825529328
 30
0.0
 10
342.6000153578312
 20
28.14624855632844
 30
0.0
 10
342.6079827942316
 20
28.06809495230879
 30
0.0
 10
342.6389059965538
 20
28.03331719387807
 30
0.0
 10
342.6549577833465
 20
28.01526455227944
 30
0.0
 11
342.6549577833465
 21
28.01526455227944
 31
0.0
 11
342.7065661073478
 21
27.95460661826685
 31
0.0
 11
342.7684728498949
 21
27.9000208717527
 31
0.0
 11
342.8411387007417
 21
27.85314772940333
 31
0.0
 11
342.9250091653458
 21
27.81570698288487
 31
0.0
 11
343.0195833730025
 21
27.79121428323828
 31
0.0
 11
343.124522632478
 21
27.78306621900422
 31
0.0
 11
343.2324362495166
 21
27.79294840650173
 31
0.0
 11
343.3292042939231
 21
27.82259496899432
 31
0.0
 11
343.4134399080934
 21
27.86905910960768
 31
0.0
 11
343.4839767205301
 21
27.92922205230099
 31
0.0
 11
343.5403065107595
 21
28.00236611478269
 31
0.0
 11
343.5820313013618
 21
28.08752226059472
 31
0.0
 11
343.6078303805647
 21
28.18166983001563
 31
0.0
 11
343.6164447727061
 21
28.2818234411017
 31
0.0
 11
343.5962140700972
 21
28.42374042891347
 31
0.0
 11
343.5356145664346
 21
28.53297476048336
 31
0.0
 11
343.44485942839
 21
28.61812098442044
 31
0.0
 11
343.3343724882354
 21
28.68783538544466
 31
0.0
 11
343.2092146528868
 21
28.74710646181872
 31
0.0
 11
343.0746574948613
 21
28.8013504548607
 31
0.0
 11
342.9400507274621
 21
28.85932066317954
 31
0.0
 11
342.8149425014873
 21
28.93028191316181
 31
0.0
 11
342.7043899095895
 21
29.01844107980644
 31
0.0
 11
342.6137004232879
 21
29.12811087144566
 31
0.0
 11
342.5530678467098
 21
29.26910512488265
 31
0.0
 11
342.5328702170168
 21
29.45144052414263
 31
0.0
 11
342.5457653468962
 21
29.58946923938592
 31
0.0
 11
342.5844639657006
 21
29.71463920463238
 31
0.0
 11
342.6476764729121
 21
29.82510054141034
 31
0.0
 11
342.7341122952159
 21
29.91927677402571
 31
0.0
 11
342.8420115806576
 21
29.995773327826
 31
0.0
 11
342.9697149280943
 21
30.05346462121437
 31
0.0
 11
343.1159016257537
 21
30.08950858821924
 31
0.0
 11
343.2793391563065
 21
30.10152177398012
 31
0.0
 11
343.4332541428903
 21
30.09165061078814
 31
0.0
 11
343.5648510240222
 21
30.06208121843446
 31
0.0
 11
343.6809259342554
 21
30.01170785907202
 31
0.0
 11
343.7884415738737
 21
29.93994955179827
 31
0.0
 11
343.7600617048059
 21
29.87967416118836
 31
0.0
 11
343.7368478251898
 21
29.81609809349597
 31
0.0
 11
343.7162004038415
 21
29.74209634004219
 31
0.0
 11
343.6955463679102
 21
29.65090989909277
 31
0.0
 11
343.674922097603
 21
29.65090989909277
 31
0.0
 11
343.6542978272958
 21
29.65090989909277
 31
0.0
 11
343.6340329493405
 21
29.70125900498297
 31
0.0
 11
343.6078281757035
 21
29.75580837128879
 31
0.0
 11
343.5734091922064
 21
29.81046908308064
 31
0.0
 11
343.5287177610552
 21
29.8608038573736
 31
0.0
 11
343.4740956357126
 21
29.90507967333478
 31
0.0
 11
343.4100345001941
 21
29.9416693434645
 31
0.0
 11
343.3343305958755
 21
29.96613337991677
 31
0.0
 11
343.2449345044064
 21
29.97431892678971
 31
0.0
 11
343.1524560171823
 21
29.96657765943051
 31
0.0
 11
343.067769508926
 21
29.94339795457515
 31
0.0
 11
342.9920647486454
 21
29.90594287645958
 31
0.0
 11
342.926737776413
 21
29.85563566293052
 31
0.0
 11
342.8734110885279
 21
29.7933108539183
 31
0.0
 11
342.8338432231516
 21
29.71980739907557
 31
0.0
 11
342.8093146752326
 21
29.63719235569341
 31
0.0
 11
342.8011577101723
 21
29.54773121856302
 31
0.0
 11
342.8213718763232
 21
29.40326100158523
 31
0.0
 11
342.8819879164435
 21
29.29321969084887
 31
0.0
 11
342.9727102318372
 21
29.20764462142581
 31
0.0
 11
343.0832299946428
 21
29.13672746866575
 31
0.0
 11
343.2083712935333
 21
29.07645097562529
 31
0.0
 11
343.3429449880167
 21
29.02321239924971
 31
0.0
 11
343.4775352189582
 21
28.96770281593023
 31
0.0
 11
343.6026599813912
 21
28.9010807326136
 31
0.0
 11
343.7131632077385
 21
28.81849655728699
 31
0.0
 11
343.8039020595903
 21
28.71530795488221
 31
0.0
 11
343.8645180997103
 21
28.58283107991534
 31
0.0
 11
343.8847322658613
 21
28.41257170495789
 31
0.0
 11
343.8705462745613
 21
28.25863822409363
 31
0.0
 11
343.8279710006808
 21
28.11336323281046
 31
0.0
 11
343.758337588188
 21
27.98129646201018
 31
0.0
 11
343.6628615076328
 21
27.86738010787197
 31
0.0
 11
343.5424683770239
 21
27.77446064608967
 31
0.0
 11
343.3979783199461
 21
27.7056314968013
 31
0.0
 11
343.2307142530328
 21
27.66312067215917
 31
0.0
 11
343.0419726345841
 21
27.64896656625991
 31
0.0
 11
342.8488654724002
 21
27.66312067215917
 31
0.0
 11
342.6962598898525
 21
27.7056314968013
 31
0.0
 11
342.5745520939818
 21
27.76629825025839
 31
0.0
 11
342.4743884823978
 21
27.83465114954687
 31
0.0
 11
342.5005943584654
 21
27.90986337175027
 31
0.0
 11
342.5173744535233
 21
27.97745559395562
 31
0.0
 11
342.5289819445466
 21
28.05006718247912
 31
0.0
 11
342.5397229251754
 21
28.14083580224808
 31
0.0
 11
342.5603692440931
 21
28.14083580224808
 31
0.0
 11
342.5810155630107
 21
28.14083580224808
 31
0.0
 11
342.6132539389243
 21
28.07849996893033
 31
0.0
 11
342.6549577833465
 21
28.01526455227944
 31
0.0
  0
SPLINE
  5
A1
102
{ACAD_REACTORS
330
BF
102
}
330
48
100
AcDbEntity
  8
_U_30EC_U_30A4_U_30E4_U_30FC_1
  6
Continuous
 62
     2
100
AcDbSpline
210
0.0
220
0.0
230
1.0
 70
    11
 71
     3
 72
    57
 73
    53
 74
    51
 42
0.000000001
 43
0.0000000001
 44
0.00000001
 40
0.0
 40
0.0
 40
0.0
 40
0.0
 40
0.0471632082808958
 40
0.0914861054632162
 40
0.1357762519701829
 40
0.1826527001610977
 40
0.2295203288573454
 40
0.2737751972221624
 40
0.318131046154365
 40
0.3652607198398538
 40
0.4571007286314644
 40
0.5671851029165609
 40
0.6894623283868544
 40
0.8181758272546091
 40
0.9510087229274065
 40
1.08585222967408
 40
1.218126164475311
 40
1.343545131142384
 40
1.454537202956857
 40
1.567187607530894
 40
1.680710966642513
 40
1.794226869736792
 40
1.900009184247705
 40
2.004085860447899
 40
2.108162674451787
 40
2.214000150155332
 40
2.49603857735218
 40
2.762350745479324
 40
2.997275353279456
 40
3.185110082137772
 40
3.246407890063999
 40
3.312607550212815
 40
3.378877742711689
 40
3.440140399651487
 40
4.100501696006532
 40
4.754913085563546
 40
5.411331693423936
 40
6.077890432568769
 40
6.110575292671048
 40
6.143260152775828
 40
6.367989363395202
 40
6.610525374951607
 40
6.863389136467383
 40
7.119380025547612
 40
7.376036605091175
 40
7.631164770966318
 40
7.876722425456507
 40
8.10495373585597
 40
8.312916685924366
 40
8.497730294941361
 40
8.651018984313916
 40
8.764738853624651
 40
8.764738853624651
 40
8.764738853624651
 40
8.764738853624651
 10
347.3006272498128
 20
27.69357531624876
 30
0.0
 10
347.2850239724546
 20
27.69557023091027
 30
0.0
 10
347.2547570957917
 20
27.69943993372249
 30
0.0
 10
347.2094617199867
 20
27.70072776979217
 30
0.0
 10
347.1643176126964
 20
27.70039475566
 30
0.0
 10
347.1182640121013
 20
27.70045450686173
 30
0.0
 10
347.0724119169711
 20
27.7005660566195
 30
0.0
 10
347.0267334645778
 20
27.70008625468541
 30
0.0
 10
346.9834434539222
 20
27.70191901630671
 30
0.0
 10
346.9123570949129
 20
27.67780348826606
 30
0.0
 10
346.9141100259056
 20
27.79915485989204
 30
0.0
 10
346.8669819368185
 20
27.8845703176318
 30
0.0
 10
346.8275101249375
 20
28.00217721357086
 30
0.0
 10
346.779025853026
 20
28.11963544552388
 30
0.0
 10
346.7284640400137
 20
28.24136727773461
 30
0.0
 10
346.6802257608092
 20
28.36806759874413
 30
0.0
 10
346.621885594521
 20
28.47664479796903
 30
0.0
 10
346.6064515664876
 20
28.63351449146362
 30
0.0
 10
346.465020932825
 20
28.60104238560269
 30
0.0
 10
346.3592020412518
 20
28.6124368069413
 30
0.0
 10
346.2442192722837
 20
28.61123383526565
 30
0.0
 10
346.1336765249754
 20
28.61237737359358
 30
0.0
 10
346.0260206520398
 20
28.61149142049477
 30
0.0
 10
345.9204945526857
 20
28.61147394402469
 30
0.0
 10
345.8192815679629
 20
28.60444824484364
 30
0.0
 10
345.6350427825366
 20
28.62866651871817
 30
0.0
 10
345.6241016683026
 20
28.32472483133835
 30
0.0
 10
345.5171314632365
 20
28.10083969265345
 30
0.0
 10
345.418177160196
 20
27.91626106304449
 30
0.0
 10
345.4308713521622
 20
27.67260996816154
 30
0.0
 10
345.3133714714012
 20
27.70238838765148
 30
0.0
 10
345.2505678865924
 20
27.69988881521552
 30
0.0
 10
345.1869495091015
 20
27.70074867114756
 30
0.0
 10
344.902963719169
 20
27.65828831953888
 30
0.0
 10
345.5335261496997
 20
28.37812744456738
 30
0.0
 10
345.6171268286686
 20
28.89007331447677
 30
0.0
 10
346.0012875786949
 20
29.41084535561995
 30
0.0
 10
345.9860831286187
 20
30.11250418265166
 30
0.0
 10
346.2322888720311
 20
30.10076425093206
 30
0.0
 10
346.3339969155178
 20
30.10955796464723
 30
0.0
 10
346.3333375033432
 20
29.85790442742293
 30
0.0
 10
346.4511940153443
 20
29.67548812745908
 30
0.0
 10
346.5399138258101
 20
29.4329453267482
 30
0.0
 10
346.6405915482873
 20
29.20070822542072
 30
0.0
 10
346.7394765709859
 20
28.96405436578871
 30
0.0
 10
346.8383299988282
 20
28.73192531182035
 30
0.0
 10
346.9339789388542
 20
28.50853014800748
 30
0.0
 10
347.0243527570884
 20
28.30003341061256
 30
0.0
 10
347.1073567565804
 20
28.11039240541274
 30
0.0
 10
347.1809711580414
 20
27.94393898080047
 30
0.0
 10
347.2426438893161
 20
27.80648491638049
 30
0.0
 10
347.2833081883219
 20
27.72730031441985
 30
0.0
 10
347.3006272498128
 20
27.69357531624876
 30
0.0
 11
347.3006272498128
 21
27.69357531624876
 31
0.0
 11
347.2537501315063
 21
27.69876225201135
 31
0.0
 11
347.209459889374
 21
27.70046330235812
 31
0.0
 11
347.1651697429344
 21
27.70046330235812
 31
0.0
 11
347.1182932944774
 21
27.70046330235812
 31
0.0
 11
347.0714256654647
 21
27.70046330235812
 31
0.0
 11
347.0271707968022
 21
27.70046330235812
 31
0.0
 11
346.9828475774468
 21
27.69876225201135
 31
0.0
 11
346.9360042019058
 21
27.69357531624876
 31
0.0
 11
346.907615513394
 21
27.78091758185194
 31
0.0
 11
346.8706344813512
 21
27.88460448286769
 31
0.0
 11
346.8272009234316
 21
27.99890779013077
 31
0.0
 11
346.7794678864551
 21
28.11844323280919
 31
0.0
 11
346.7291783130852
 21
28.24138849319515
 31
0.0
 11
346.6780090001547
 21
28.36614614941396
 31
0.0
 11
346.6281154798941
 21
28.48864933514722
 31
0.0
 11
346.5816742109456
 21
28.60515309379867
 31
0.0
 11
346.4707234905204
 21
28.60818257296455
 31
0.0
 11
346.3580932222704
 21
28.6103124687974
 31
0.0
 11
346.2445775067064
 21
28.6116298733109
 31
0.0
 11
346.1310623474415
 21
28.61204107990802
 31
0.0
 11
346.025280831043
 21
28.6116298733109
 31
0.0
 11
345.921212491684
 21
28.6103124687974
 31
0.0
 11
345.817157472166
 21
28.60818257296455
 31
0.0
 11
345.7113633613211
 21
28.60515309379867
 31
0.0
 11
345.6064537747753
 21
28.343352295253
 31
0.0
 11
345.5118491687946
 21
28.09441024670409
 31
0.0
 11
345.4335854207912
 21
27.87290548981507
 31
0.0
 11
345.377705422217
 21
27.69357531624876
 31
0.0
 11
345.3166274637056
 21
27.69876225201135
 31
0.0
 11
345.2504496615744
 21
27.70046330235812
 31
0.0
 11
345.1842013038897
 21
27.69876225201135
 31
0.0
 11
345.1231586231553
 21
27.69357531624876
 31
0.0
 11
345.3983307949545
 21
28.29387300707093
 31
0.0
 11
345.6666568731785
 21
28.89074434372724
 31
0.0
 11
345.9323900348019
 21
29.49097037656331
 31
0.0
 11
346.1998363734648
 21
30.10152177398012
 31
0.0
 11
346.2325212337421
 21
30.10152177398012
 31
0.0
 11
346.2652060940194
 21
30.10152177398012
 31
0.0
 11
346.3511923678672
 21
29.89389331049033
 31
0.0
 11
346.4440908811224
 21
29.66985406575467
 31
0.0
 11
346.5412337519078
 21
29.43639455192418
 31
0.0
 11
346.6401559455645
 21
29.20028920476096
 31
0.0
 11
346.7398964247542
 21
28.96380572391733
 31
0.0
 11
346.8396694126967
 21
28.72899573265661
 31
0.0
 11
346.9364231255064
 21
28.503302842088
 31
0.0
 11
347.0271707968022
 21
28.29388844109869
 31
0.0
 11
347.1105773832161
 21
28.10338403142411
 31
0.0
 11
347.1853916260992
 21
27.93439024674417
 31
0.0
 11
347.2494352184219
 21
27.79512129712618
 31
0.0
 11
347.3006272498128
 21
27.69357531624876
 31
0.0
  0
SPLINE
  5
A2
102
{ACAD_REACTORS
330
BF
102
}
330
48
100
AcDbEntity
  8
_U_30EC_U_30A4_U_30E4_U_30FC_1
  6
Continuous
 62
     2
100
AcDbSpline
210
0.0
220
0.0
230
1.0
 70
    11
 71
     3
 72
    25
 73
    21
 74
    19
 42
0.000000001
 43
0.0000000001
 44
0.00000001
 40
0.0
 40
0.0
 40
0.0
 40
0.0
 40
0.091147996906539
 40
0.1858117896205237
 40
0.2804128399735059
 40
0.3715889190715078
 40
0.4679080494218707
 40
0.5642683809229513
 40
0.6605683222644706
 40
0.7569653015810538
 40
0.8561348172523054
 40
1.092615965104343
 40
1.374867658141939
 40
1.611348812011627
 40
1.710518328425287
 40
1.809403163726593
 40
2.045205463294135
 40
2.326646917622158
 40
2.562449217190629
 40
2.661334043833947
 40
2.661334043833947
 40
2.661334043833947
 40
2.661334043833947
 10
345.7767323564814
 20
28.76345330209242
 30
0.0
 10
345.8071148915539
 20
28.76328871726504
 30
0.0
 10
345.8690518886726
 20
28.76295320701872
 30
0.0
 10
345.9624979957946
 20
28.75999847463948
 30
0.0
 10
346.0558718233971
 20
28.757085448891
 30
0.0
 10
346.1501383751092
 20
28.75624993655367
 30
0.0
 10
346.2438587788582
 20
28.75727436669997
 30
0.0
 10
346.343566330082
 20
28.75647769482921
 30
0.0
 10
346.4272572543927
 20
28.76652202247169
 30
0.0
 10
346.5721619312661
 20
28.73965409686113
 30
0.0
 10
346.4479755442414
 20
28.91396322291999
 30
0.0
 10
346.4049490283896
 20
29.07382503018042
 30
0.0
 10
346.2892545139824
 20
29.33249250562162
 30
0.0
 10
346.2101188428871
 20
29.4696184487381
 30
0.0
 10
346.1515199619431
 20
29.68667825146027
 30
0.0
 10
346.0948426937052
 20
29.46996926225373
 30
0.0
 10
346.0136432898091
 20
29.33057804450193
 30
0.0
 10
345.9147324279102
 20
29.0813776138214
 30
0.0
 10
345.8337248091875
 20
28.89656622238023
 30
0.0
 10
345.7897306323452
 20
28.79381238868067
 30
0.0
 10
345.7767323564814
 20
28.76345330209242
 30
0.0
 11
345.7767323564814
 21
28.76345330209242
 31
0.0
 11
345.8678760735435
 21
28.76256915278709
 31
0.0
 11
345.9625051295196
 21
28.76000489931548
 31
0.0
 11
346.0570705177321
 21
28.75740757292727
 31
0.0
 11
346.1482426247811
 21
28.7565564965386
 31
0.0
 11
346.244560877532
 21
28.75696770313571
 31
0.0
 11
346.3409122031991
 21
28.75828510764921
 31
0.0
 11
346.43718856359
 21
28.76041610591262
 31
0.0
 11
346.5335376843958
 21
28.76345330209242
 31
0.0
 11
346.4938256320756
 21
28.8543243420697
 31
0.0
 11
346.3991276611583
 21
29.07101682201552
 31
0.0
 11
346.2861010507085
 21
29.32964978195085
 31
0.0
 11
346.1914030797911
 21
29.54634226189667
 31
0.0
 11
346.151691027471
 21
29.63721330187395
 31
0.0
 11
346.1126953256881
 21
29.54634226189667
 31
0.0
 11
346.0197055752826
 21
29.32964978195086
 31
0.0
 11
345.9087178086697
 21
29.07101682201552
 31
0.0
 11
345.8157280582643
 21
28.8543243420697
 31
0.0
 11
345.7767323564814
 21
28.76345330209242
 31
0.0
  0
SPLINE
  5
A3
102
{ACAD_REACTORS
330
C0
102
}
330
48
100
AcDbEntity
  8
_U_30EC_U_30A4_U_30E4_U_30FC_1
  6
Continuous
 62
     2
100
AcDbSpline
210
0.0
220
0.0
230
1.0
 70
    11
 71
     3
 72
    95
 73
    91
 74
    89
 42
0.000000001
 43
0.0000000001
 44
0.00000001
 40
0.0
 40
0.0
 40
0.0
 40
0.0
 40
0.655040665691077
 40
1.308087289031883
 40
1.420803739835757
 40
1.566130759770747
 40
1.757067341888421
 40
2.006513545026431
 40
2.087328263121516
 40
2.185328872295588
 40
2.29461245474832
 40
2.408936380534782
 40
2.526802767798523
 40
2.646360524615566
 40
2.762535723971542
 40
2.870057342870115
 40
2.966883448431607
 40
3.050803243518259
 40
3.115818222436567
 40
3.156030057150209
 40
3.213914225080083
 40
3.276689026450455
 40
3.342960320981289
 40
3.404230667150567
 40
3.453822809493409
 40
3.532499827188444
 40
3.63477518850719
 40
3.754909333008191
 40
3.889736761660685
 40
4.035769602175251
 40
4.187256681197636
 40
4.338733685675984
 40
4.488478734676147
 40
4.634708317831614
 40
4.771493189921296
 40
4.892686571561235
 40
5.199775528944469
 40
5.460353566929665
 40
5.667603142345543
 40
5.814722905404518
 40
5.828990806219816
 40
5.855488336304485
 40
5.869756237118874
 40
6.189796507762865
 40
6.531890469873035
 40
6.883053637016948
 40
7.230512024911453
 40
7.566966656764602
 40
7.88520355970739
 40
8.172887439719217
 40
8.41801159406281
 40
8.44392672119073
 40
8.510760470613219
 40
8.602145393795736
 40
8.70171404164717
 40
8.793098965075407
 40
8.859932715057978
 40
8.88584784260363
 40
9.24230125661284
 40
9.589275455016796
 40
9.921808543164198
 40
10.23479624298471
 40
10.2996815088919
 40
10.35323493887784
 40
10.40154625355166
 40
10.46482922477839
 40
10.55973900668419
 40
10.69239545985631
 40
10.84920353475685
 40
11.01626328594793
 40
11.18672024367457
 40
11.35372582577224
 40
11.50257442292441
 40
11.61866495023305
 40
11.71329869152889
 40
11.82511050573922
 40
11.94464880845729
 40
12.0692924264252
 40
12.1970729043519
 40
12.32562632860542
 40
12.45034565331293
 40
12.56646595170341
 40
12.67099007414649
 40
12.76077625936796
 40
12.82703233506708
 40
12.87429132786007
 40
12.89831990323352
 40
12.92234847860037
 40
13.53984767410337
 40
14.18294284359386
 40
14.18294284359386
 40
14.18294284359386
 40
14.18294284359386
 10
349.8151558645635
 20
28.58628830213674
 30
0.0
 10
349.6835642756166
 20
28.69995850615184
 30
0.0
 10
349.4207816800342
 20
28.92695288328112
 30
0.0
 10
348.9081016438637
 20
29.76945254968238
 30
0.0
 10
348.9190277592977
 20
29.4115416958897
 30
0.0
 10
348.9124849525605
 20
29.26998184284083
 30
0.0
 10
348.9111649629388
 20
29.07152097311231
 30
0.0
 10
348.9101740600152
 20
28.89881088057933
 30
0.0
 10
348.910772474959
 20
28.75596165269528
 30
0.0
 10
348.9122617299498
 20
28.65995797425309
 30
0.0
 10
348.9139306586088
 20
28.5527629527509
 30
0.0
 10
348.9155557952234
 20
28.43895003529532
 30
0.0
 10
348.91760524993
 20
28.32172364616539
 30
0.0
 10
348.9206788499542
 20
28.2038720324492
 30
0.0
 10
348.9239962694657
 20
28.0895887933257
 30
0.0
 10
348.9277228337895
 20
27.98252193879226
 30
0.0
 10
348.930096115904
 20
27.88738200778872
 30
0.0
 10
348.9362341885973
 20
27.80289349217645
 30
0.0
 10
348.9323407493561
 20
27.7465387931009
 30
0.0
 10
348.9538853440692
 20
27.67555814484306
 30
0.0
 10
348.8764563056233
 20
27.70633469616432
 30
0.0
 10
348.8199976237805
 20
27.69742034529563
 30
0.0
 10
348.7624118894421
 20
27.70627010410225
 30
0.0
 10
348.6773786476086
 20
27.67469017237894
 30
0.0
 10
348.7093337143999
 20
27.75825948004137
 30
0.0
 10
348.7074328280154
 20
27.82613400980261
 30
0.0
 10
348.7191583044915
 20
27.92964048776368
 30
0.0
 10
348.7247864050615
 20
28.04732917628645
 30
0.0
 10
348.7321525176555
 20
28.18119401176373
 30
0.0
 10
348.7404382699225
 20
28.32494944884581
 30
0.0
 10
348.7482474895041
 20
28.47444814855395
 30
0.0
 10
348.7541194220273
 20
28.62523341414028
 30
0.0
 10
348.7587290815583
 20
28.77430735890388
 30
0.0
 10
348.7626255115157
 20
28.91853705174972
 30
0.0
 10
348.7654338124179
 20
29.05314697224967
 30
0.0
 10
348.7660321752637
 20
29.24200406359304
 30
0.0
 10
348.7699646864764
 20
29.46706286325103
 30
0.0
 10
348.7525798376116
 20
29.74097883137659
 30
0.0
 10
348.7934040340191
 20
29.90517904110544
 30
0.0
 10
348.7078776253622
 20
30.10480453477049
 30
0.0
 10
348.7744181905302
 20
30.10116250415928
 30
0.0
 10
348.7922347270846
 20
30.10144239172804
 30
0.0
 10
348.9140424795118
 20
30.10363719410564
 30
0.0
 10
349.0164393333077
 20
29.82405910733463
 30
0.0
 10
349.2663644506972
 20
29.62293800547955
 30
0.0
 10
349.4953658328724
 20
29.35523406999861
 30
0.0
 10
349.7328774210723
 20
29.10377205874326
 30
0.0
 10
349.9569713738385
 20
28.86700766073312
 30
0.0
 10
350.1834339280624
 20
28.60949484595027
 30
0.0
 10
350.3409310884128
 20
28.49380127068871
 30
0.0
 10
350.5555752610287
 20
28.1572794455074
 30
0.0
 10
350.5506268972233
 20
28.28195546103553
 30
0.0
 10
350.551755460016
 20
28.34058483947685
 30
0.0
 10
350.5512500839131
 20
28.42774454383927
 30
0.0
 10
350.5514098155729
 20
28.52146935194822
 30
0.0
 10
350.5513677888932
 20
28.60749763308985
 30
0.0
 10
350.5513825037987
 20
28.66884683957445
 30
0.0
 10
350.5513329253603
 20
28.81866023532944
 30
0.0
 10
350.5542434520424
 20
29.05720404522054
 30
0.0
 10
350.5343144038774
 20
29.42217301880649
 30
0.0
 10
350.5834056933863
 20
29.68530424005366
 30
0.0
 10
350.4261574506791
 20
30.09659696959697
 30
0.0
 10
350.5845735870037
 20
30.04129074563698
 30
0.0
 10
350.6395303476243
 20
30.03930478512124
 30
0.0
 10
350.6911510764356
 20
30.03995570260203
 30
0.0
 10
350.7796821962979
 20
30.08100319750194
 30
0.0
 10
350.7288521300784
 20
29.93427118634936
 30
0.0
 10
350.7397012927899
 20
29.82750763966382
 30
0.0
 10
350.724965999246
 20
29.66816497426062
 30
0.0
 10
350.7183599443821
 20
29.50583853664823
 30
0.0
 10
350.7098584397528
 20
29.33723313904346
 30
0.0
 10
350.7026850199813
 20
29.1754560671549
 30
0.0
 10
350.6972686213004
 20
29.03153123469882
 30
0.0
 10
350.6955336965262
 20
28.91168285478874
 30
0.0
 10
350.6959063669934
 20
28.80416893602464
 30
0.0
 10
350.6957279123879
 20
28.69550816657536
 30
0.0
 10
350.6960633860754
 20
28.5768436217748
 30
0.0
 10
350.6973663619798
 20
28.45285955524692
 30
0.0
 10
350.6992510349189
 20
28.32589086183054
 30
0.0
 10
350.7008627452463
 20
28.19884653562981
 30
0.0
 10
350.7025026135046
 20
28.07585676504128
 30
0.0
 10
350.7046193743365
 20
27.96031723395708
 30
0.0
 10
350.7047471419979
 20
27.85821695967788
 30
0.0
 10
350.7090137394168
 20
27.76740640850107
 30
0.0
 10
350.6992063082904
 20
27.70944413220736
 30
0.0
 10
350.7202097769305
 20
27.64247922143978
 30
0.0
 10
350.6809262737511
 20
27.65021945978637
 30
0.0
 10
350.4678930115363
 20
27.63486046157148
 30
0.0
 10
350.27199209408
 20
28.1913385010642
 30
0.0
 10
349.9694820629159
 20
28.45286827360462
 30
0.0
 10
349.8151558645635
 20
28.58628830213674
 30
0.0
 11
349.8151558645635
 21
28.58628830213674
 31
0.0
 11
349.3679152336126
 21
29.06488427423927
 31
0.0
 11
348.9207672068258
 21
29.5408344130092
 31
0.0
 11
348.9173287260109
 21
29.42817041998182
 31
0.0
 11
348.9139233181114
 21
29.28288330196261
 31
0.0
 11
348.9113259917889
 21
29.09196437839918
 31
0.0
 11
348.9104749154218
 21
28.84251962151706
 31
0.0
 11
348.9108862227905
 21
28.7617059496623
 31
0.0
 11
348.9122043327432
 21
28.66371420489511
 31
0.0
 11
348.9138815265333
 21
28.5544434931169
 31
0.0
 11
348.9155990125133
 21
28.44013246883988
 31
0.0
 11
348.9177630836387
 21
28.32228594977216
 31
0.0
 11
348.9207672068258
 21
28.20276594112149
 31
0.0
 11
348.9241982730753
 21
28.08664141858106
 31
0.0
 11
348.9276551927613
 21
27.97917538562179
 31
0.0
 11
348.9310708250703
 21
27.88240954363214
 31
0.0
 11
348.9345519981408
 21
27.79856198288922
 31
0.0
 11
348.9379629181927
 21
27.7336365401971
 31
0.0
 11
348.9414399840763
 21
27.69357531624876
 31
0.0
 11
348.8837886819186
 21
27.69876225201135
 31
0.0
 11
348.8210369315924
 21
27.70046330235812
 31
0.0
 11
348.7547874714771
 21
27.69876225201135
 31
0.0
 11
348.693737073729
 21
27.69357531624876
 31
0.0
 11
348.7010395735428
 21
27.7426268613754
 31
0.0
 11
348.7092416566669
 21
27.82087517732804
 31
0.0
 11
348.7173721819963
 21
27.92282685264979
 31
0.0
 11
348.7247029439012
 21
28.04273712171702
 31
0.0
 11
348.7319981278036
 21
28.17736704355839
 31
0.0
 11
348.7402067253211
 21
28.32316899664695
 31
0.0
 11
348.747912714708
 21
28.47445995147023
 31
0.0
 11
348.7539385999708
 21
28.62581705212684
 31
0.0
 11
348.758666924503
 21
28.77548743403386
 31
0.0
 11
348.7625551969735
 21
28.92166531594172
 31
0.0
 11
348.765115040658
 21
29.05842623604646
 31
0.0
 11
348.7659947802189
 21
29.1796164269884
 31
0.0
 11
348.7655549104384
 21
29.48670507274494
 31
0.0
 11
348.7642749885962
 21
29.74727996851315
 31
0.0
 11
348.7612281715507
 21
29.95450714728075
 31
0.0
 11
348.7556672110378
 21
30.10152177398012
 31
0.0
 11
348.7699351119084
 21
30.10152177398012
 31
0.0
 11
348.7964326420966
 21
30.10152177398012
 31
0.0
 11
348.8107005429673
 21
30.10152177398012
 31
0.0
 11
349.0278366647892
 21
29.86640971674722
 31
0.0
 11
349.2596367120694
 21
29.61482073243511
 31
0.0
 11
349.4978439016453
 21
29.3568034755552
 31
0.0
 11
349.7343697555135
 21
29.10227871867439
 31
0.0
 11
349.963932171532
 21
28.85630551561087
 31
0.0
 11
350.1815420357717
 21
28.62409726046057
 31
0.0
 11
350.3797347911321
 21
28.41557472579049
 31
0.0
 11
350.5513766096701
 21
28.24057489944538
 31
0.0
 11
350.5513766096701
 21
28.26649002698992
 31
0.0
 11
350.5513766096701
 21
28.33332377697321
 31
0.0
 11
350.5513766096701
 21
28.42470870041975
 31
0.0
 11
350.5513766096702
 21
28.52427734835403
 31
0.0
 11
350.5513766096701
 21
28.61566227180057
 31
0.0
 11
350.5513766096701
 21
28.68249602178385
 31
0.0
 11
350.5513766096701
 21
28.70841114932839
 31
0.0
 11
350.5500856635224
 21
29.06486222562817
 31
0.0
 11
350.5462084153572
 21
29.41181476026365
 31
0.0
 11
350.5379820787616
 21
29.74424607962501
 31
0.0
 11
350.5238158464842
 21
30.05691302399129
 31
0.0
 11
350.5873974247233
 21
30.04397159170284
 31
0.0
 11
350.6407793157226
 21
30.03968864899557
 31
0.0
 11
350.6889004082448
 21
30.04397159170284
 31
0.0
 11
350.7508459795812
 21
30.05691302399129
 31
0.0
 11
350.743483948519
 21
29.9622892045705
 31
0.0
 11
350.7353413966433
 21
29.82988288515914
 31
0.0
 11
350.7267328361619
 21
29.67331128797606
 31
0.0
 11
350.718117022083
 21
29.5064738574622
 31
0.0
 11
350.7099810847903
 21
29.3362111752131
 31
0.0
 11
350.702612439145
 21
29.1693682325465
 31
0.0
 11
350.6975029929137
 21
29.02060735584759
 31
0.0
 11
350.6958126476519
 21
28.90452913539051
 31
0.0
 11
350.6958126476519
 21
28.80989539409468
 31
0.0
 11
350.6958126476519
 21
28.69808357988656
 31
0.0
 11
350.6962084202111
 21
28.57854593234699
 31
0.0
 11
350.6974442448322
 21
28.45390844105869
 31
0.0
 11
350.6992015190932
 21
28.32614004699341
 31
0.0
 11
350.7008926475222
 21
28.19759774667829
 31
0.0
 11
350.7026499217829
 21
28.07289080226505
 31
0.0
 11
350.704341050212
 21
27.95678281618299
 31
0.0
 11
350.7056507376786
 21
27.85226688738967
 31
0.0
 11
350.706060841835
 21
27.76248163567602
 31
0.0
 11
350.706060841835
 21
27.69622555930366
 31
0.0
 11
350.706060841835
 21
27.64896656625991
 31
0.0
 11
350.6820322660591
 21
27.64896656625991
 31
0.0
 11
350.6580036902832
 21
27.64896656625991
 31
0.0
 11
350.2494352198038
 21
28.11197527274141
 31
0.0
 11
349.8151558645635
 21
28.58628830213674
 31
0.0
  0
SPLINE
  5
A4
102
{ACAD_REACTORS
330
C1
102
}
330
48
100
AcDbEntity
  8
_U_30EC_U_30A4_U_30E4_U_30FC_1
  6
Continuous
 62
     2
100
AcDbSpline
210
0.0
220
0.0
230
1.0
 70
    11
 71
     3
 72
   110
 73
   106
 74
   104
 42
0.000000001
 43
0.0000000001
 44
0.00000001
 40
0.0
 40
0.0
 40
0.0
 40
0.0
 40
0.2203406257277761
 40
0.4407808782838115
 40
0.5952494494614241
 40
0.7488431659393383
 40
0.9023581831308799
 40
1.056801968670435
 40
1.210736449099936
 40
1.363041386539786
 40
1.515315729683129
 40
1.669377239148136
 40
1.721611652756624
 40
1.773199502943009
 40
1.824933793210061
 40
1.877110426488043
 40
1.982682281206863
 40
2.078781667087756
 40
2.172809640822477
 40
2.271937807379046
 40
2.378349933379496
 40
2.494131557736599
 40
2.626681683943705
 40
2.783145050796218
 40
2.890701232941067
 40
2.993130312454969
 40
3.09986973069195
 40
3.220237816691436
 40
3.352695482737728
 40
3.481732806389976
 40
3.593499473690509
 40
3.674323013332021
 40
3.817951711952885
 40
3.946167120793968
 40
4.061405053453568
 40
4.166480796003294
 40
4.26247877505936
 40
4.350736673551259
 40
4.433071991254115
 40
4.511216293814774
 40
4.5642624541181
 40
4.618474415571704
 40
4.670128488754315
 40
4.722296879126515
 40
4.819540945314384
 40
4.93119498412824
 40
5.049996040257882
 40
5.168643755415541
 40
5.283970811762695
 40
5.392260784910578
 40
5.486512254876624
 40
5.559178233949938
 40
5.591425852853599
 40
5.626215969637975
 40
5.667155838674526
 40
5.717449290214326
 40
5.738402360944939
 40
5.784499116553913
 40
5.830595872164889
 40
5.85154894289775
 40
5.873019280661868
 40
5.924217778408408
 40
5.985325662817782
 40
6.036524160567794
 40
6.057994498334324
 40
6.236847789607577
 40
6.381409928945745
 40
6.493190424178776
 40
6.574067534230589
 40
6.691018086205683
 40
6.814881554220544
 40
6.944307823240525
 40
7.071266716066206
 40
7.193488604462022
 40
7.309042773128278
 40
7.414007203170875
 40
7.505140441886575
 40
7.531150360599709
 40
7.559221645322295
 40
7.587202218920964
 40
7.612569159499172
 40
7.662550809481048
 40
7.702878875764178
 40
7.857328205230907
 40
8.01079956808861
 40
8.16525639965756
 40
8.322232698713956
 40
8.479564855016585
 40
8.635216230290732
 40
8.790882550925735
 40
8.948305154947244
 40
9.16827183903294
 40
9.387358980987207
 40
9.608047961033455
 40
9.83291423479266
 40
9.858338694962995
 40
9.925366817230003
 40
10.02013071422759
 40
10.12876249858997
 40
10.23739428295248
 40
10.33215817995189
 40
10.39918630222393
 40
10.42461076239782
 40
10.64992019336941
 40
10.87188524531186
 40
10.87188524531186
 40
10.87188524531186
 40
10.87188524531186
 10
352.4141411374233
 20
29.6165405241014
 30
0.0
 10
352.4176487931157
 20
29.68347254085755
 30
0.0
 10
352.4246656985277
 20
29.81736683927809
 30
0.0
 10
352.3281650596685
 20
30.10279346983415
 30
0.0
 10
352.5593757723723
 20
30.04015178202233
 30
0.0
 10
352.7002913054769
 20
30.04732346067939
 30
0.0
 10
352.8574040755203
 20
30.03966675090194
 30
0.0
 10
353.0109536424902
 20
30.03983544294989
 30
0.0
 10
353.1628727932695
 20
30.03912832547382
 30
0.0
 10
353.3225837810847
 20
30.0494095036359
 30
0.0
 10
353.449259559873
 20
30.03227303092699
 30
0.0
 10
353.6454444119696
 20
30.10458052119097
 30
0.0
 10
353.6118018276693
 20
30.00371491092067
 30
0.0
 10
353.6135634314797
 20
29.9535004595962
 30
0.0
 10
353.6110965071074
 20
29.90443127598417
 30
0.0
 10
353.6430699963626
 20
29.81794282858947
 30
0.0
 10
353.509402290087
 20
29.86728230620287
 30
0.0
 10
353.425583168567
 20
29.86161426326117
 30
0.0
 10
353.3257484136939
 20
29.87196308718247
 30
0.0
 10
353.2270199717759
 20
29.87817242423036
 30
0.0
 10
353.1205155768725
 20
29.88428555828726
 30
0.0
 10
352.9994134695675
 20
29.89319675496537
 30
0.0
 10
352.8787004500067
 20
29.88252397924332
 30
0.0
 10
352.6896176841053
 20
29.9419929509232
 30
0.0
 10
352.7212651502925
 20
29.78289112089489
 30
0.0
 10
352.7079186314447
 20
29.68569920351854
 30
0.0
 10
352.7058581424066
 20
29.57364857122052
 30
0.0
 10
352.7041811042285
 20
29.454304776413
 30
0.0
 10
352.7056959791847
 20
29.3276338416706
 30
0.0
 10
352.7040205476284
 20
29.20032380028066
 30
0.0
 10
352.7142467269273
 20
29.10182358416414
 30
0.0
 10
352.6862629594197
 20
28.96119494637583
 30
0.0
 10
352.8591652996919
 20
29.01720343146045
 30
0.0
 10
352.9728643200387
 20
29.00450743490447
 30
0.0
 10
353.0923774669853
 20
29.01179169063204
 30
0.0
 10
353.1972114422687
 20
29.01608809068705
 30
0.0
 10
353.2926707896225
 20
29.02061360270926
 30
0.0
 10
353.3847446504648
 20
29.02879993158151
 30
0.0
 10
353.4560174780053
 20
29.02374642650059
 30
0.0
 10
353.5628554703301
 20
29.06267217043627
 30
0.0
 10
353.5310226595651
 20
28.9824791401783
 30
0.0
 10
353.5349787501544
 20
28.93293728857982
 30
0.0
 10
353.5318125389628
 20
28.8828827005177
 30
0.0
 10
353.5634414488199
 20
28.79859639623972
 30
0.0
 10
353.4293756675307
 20
28.85156157507107
 30
0.0
 10
353.3375945790815
 20
28.84270872902389
 30
0.0
 10
353.2163352187217
 20
28.85300841977105
 30
0.0
 10
353.0997736117385
 20
28.85479703779452
 30
0.0
 10
352.9866998743493
 20
28.85517809121645
 30
0.0
 10
352.8762869306083
 20
28.86146241484126
 30
0.0
 10
352.7981747065455
 20
28.84919925267316
 30
0.0
 10
352.6997248831258
 20
28.88184679628072
 30
0.0
 10
352.7095978171176
 20
28.82500540066155
 30
0.0
 10
352.7057546242017
 20
28.79122922569934
 30
0.0
 10
352.7050412881884
 20
28.74850396721362
 30
0.0
 10
352.7046992640589
 20
28.71132399274104
 30
0.0
 10
352.704745725296
 20
28.67218029382721
 30
0.0
 10
352.7047272427541
 20
28.63447641509635
 30
0.0
 10
352.7047326429422
 20
28.59675747244352
 30
0.0
 10
352.7047320211815
 20
28.56725116757099
 30
0.0
 10
352.7047321149159
 20
28.5360436971125
 30
0.0
 10
352.7047327285537
 20
28.49145216920033
 30
0.0
 10
352.7047294496953
 20
28.436947485208
 30
0.0
 10
352.7047382621096
 20
28.39236332213398
 30
0.0
 10
352.7046982651032
 20
28.3084860059769
 30
0.0
 10
352.7059647267869
 20
28.19468312689628
 30
0.0
 10
352.7033897115455
 20
28.04561187945659
 30
0.0
 10
352.7148632379335
 20
27.94327995825856
 30
0.0
 10
352.6907129219877
 20
27.81069695897783
 30
0.0
 10
352.8416616944091
 20
27.8562652428397
 30
0.0
 10
352.951205966917
 20
27.84157804174299
 30
0.0
 10
353.0817593471535
 20
27.84651227137013
 30
0.0
 10
353.2073935207128
 20
27.84988497335311
 30
0.0
 10
353.3272353623216
 20
27.85442289510722
 30
0.0
 10
353.4474985609042
 20
27.86779328193957
 30
0.0
 10
353.530638466113
 20
27.85799504794543
 30
0.0
 10
353.6539703418687
 20
27.91857006635272
 30
0.0
 10
353.6327892201572
 20
27.86263252145968
 30
0.0
 10
353.6319573267733
 20
27.83670041384297
 30
0.0
 10
353.6302586705172
 20
27.80928048202888
 30
0.0
 10
353.6301597886444
 20
27.77468987218335
 30
0.0
 10
353.6287282298945
 20
27.73781200232719
 30
0.0
 10
353.6616427189803
 20
27.64577633033755
 30
0.0
 10
353.4634929985722
 20
27.71862807986783
 30
0.0
 10
353.3384171292506
 20
27.69556518520556
 30
0.0
 10
353.1756694292769
 20
27.70184813997735
 30
0.0
 10
353.0212989447616
 20
27.69991735921876
 30
0.0
 10
352.8650293434558
 20
27.70124554611218
 30
0.0
 10
352.7054167462896
 20
27.69790664499812
 30
0.0
 10
352.5623949339852
 20
27.70996587740192
 30
0.0
 10
352.3280767879243
 20
27.64682793988868
 30
0.0
 10
352.4257433748812
 20
27.93351319478268
 30
0.0
 10
352.4090491777674
 20
28.12719100154609
 30
0.0
 10
352.4229919707299
 20
28.35579034892245
 30
0.0
 10
352.4226610844248
 20
28.51115385966997
 30
0.0
 10
352.4226701116878
 20
28.61697128456076
 30
0.0
 10
352.4226678873931
 20
28.67936576136163
 30
0.0
 10
352.4226688549503
 20
28.76951217260276
 30
0.0
 10
352.4226688470875
 20
28.87351959169388
 30
0.0
 10
352.4226676858718
 20
28.97752923387245
 30
0.0
 10
352.4226713969117
 20
29.06767035700718
 30
0.0
 10
352.4226634048664
 20
29.13007595109164
 30
0.0
 10
352.4226957272637
 20
29.23599627973071
 30
0.0
 10
352.4215063785932
 20
29.39357508556688
 30
0.0
 10
352.416583948687
 20
29.54259011834015
 30
0.0
 10
352.4141411374233
 20
29.6165405241014
 30
0.0
 11
352.4141411374233
 21
29.6165405241014
 31
0.0
 11
352.4050541221355
 21
29.83669370112968
 31
0.0
 11
352.3951872570748
 21
30.05691302399129
 31
0.0
 11
352.5495198139014
 21
30.05043183475678
 31
0.0
 11
352.7030123186661
 21
30.04485684343874
 31
0.0
 11
352.856478365098
 21
30.0409795951758
 31
0.0
 11
353.0109167552554
 21
30.03968864899557
 31
0.0
 11
353.1648458225088
 21
30.0409795951758
 31
0.0
 11
353.3171014002215
 21
30.04485684343874
 31
0.0
 11
353.4692736548688
 21
30.05043183475678
 31
0.0
 11
353.6231987760098
 21
30.05691302399129
 31
0.0
 11
353.6154434700738
 21
30.00525753789308
 31
0.0
 11
353.6128614621206
 21
29.95373434346154
 31
0.0
 11
353.6154434700738
 21
29.9020645257661
 31
0.0
 11
353.6231987760098
 21
29.85046746848735
 31
0.0
 11
353.5178497052025
 21
29.85732238168007
 31
0.0
 11
353.4219998697674
 21
29.86424344070607
 31
0.0
 11
353.3282216169517
 21
29.87109173931548
 31
0.0
 11
353.2293302913496
 21
29.87794003792489
 31
0.0
 11
353.1231155197538
 21
29.88441791986774
 31
0.0
 11
353.0074683525653
 21
29.88999621847744
 31
0.0
 11
352.8749749444873
 21
29.89387346674037
 31
0.0
 11
352.7185169016037
 21
29.89516441292061
 31
0.0
 11
352.7146286291336
 21
29.78767853621136
 31
0.0
 11
352.7099003046014
 21
29.68535864908414
 31
0.0
 11
352.7060230564364
 21
29.57868967341636
 31
0.0
 11
352.7047321102887
 21
29.458328510252
 31
0.0
 11
352.7051422144451
 21
29.32587147903514
 31
0.0
 11
352.7064519019117
 21
29.19684080198405
 31
0.0
 11
352.7077697574665
 21
29.08508190444259
 31
0.0
 11
352.7081814151275
 21
29.00425941314334
 31
0.0
 11
352.8518075933488
 21
29.005110489532
 31
0.0
 11
352.9799966928373
 21
29.00770781592026
 31
0.0
 11
353.095170121941
 21
29.01156301557203
 31
0.0
 11
353.2001379309835
 21
29.01632441314026
 31
0.0
 11
353.2959969287036
 21
29.02148819786125
 31
0.0
 11
353.3841036371808
 21
29.02665198258217
 31
0.0
 11
353.466250443611
 21
29.03222035931688
 31
0.0
 11
353.5441315333186
 21
29.03862878813474
 31
0.0
 11
353.5363803442801
 21
28.98615199127286
 31
0.0
 11
353.5337951446932
 21
28.93200170482808
 31
0.0
 11
353.5363803442801
 21
28.88041236456316
 31
0.0
 11
353.5441315333186
 21
28.82882302429832
 31
0.0
 11
353.4473436451629
 21
28.83823116665707
 31
0.0
 11
353.335957371963
 21
28.84595920484961
 31
0.0
 11
353.2172884426988
 21
28.85156065450095
 31
0.0
 11
353.0986790446827
 21
28.85457580206961
 31
0.0
 11
352.9833648115135
 21
28.85629559373588
 31
0.0
 11
352.8750884948314
 21
28.85801538540206
 31
0.0
 11
352.7808462315322
 21
28.85933278991566
 31
0.0
 11
352.7081814151275
 21
28.85974399651278
 31
0.0
 11
352.7077697574665
 21
28.82749900520141
 31
0.0
 11
352.7064519019117
 21
28.79273385764068
 31
0.0
 11
352.7051422144451
 21
28.75181494272034
 31
0.0
 11
352.7047321102887
 21
28.70152316321902
 31
0.0
 11
352.7047321102887
 21
28.68057009247772
 31
0.0
 11
352.7047321102887
 21
28.63447333684686
 31
0.0
 11
352.7047321102887
 21
28.588376581216
 31
0.0
 11
352.7047321102887
 21
28.5674235104747
 31
0.0
 11
352.7047321102887
 21
28.54595317270229
 31
0.0
 11
352.7047321102888
 21
28.49475467493733
 31
0.0
 11
352.7047321102887
 21
28.43364679050817
 31
0.0
 11
352.7047321102887
 21
28.38244829274321
 31
0.0
 11
352.7047321102887
 21
28.3609779549708
 31
0.0
 11
352.7051422144451
 21
28.18212513383497
 31
0.0
 11
352.7064519019117
 21
28.03756892727392
 31
0.0
 11
352.7086491587324
 21
27.92581002973239
 31
0.0
 11
352.71162099846
 21
27.84498753843315
 31
0.0
 11
352.8285715515062
 21
27.84498753843315
 31
0.0
 11
352.952435020636
 21
27.84498753843315
 31
0.0
 11
353.0818548524036
 21
27.84627848461339
 31
0.0
 11
353.2087545279859
 21
27.85015573287632
 31
0.0
 11
353.3308281065588
 21
27.85617500370815
 31
0.0
 11
353.4461210497078
 21
27.86394052453952
 31
0.0
 11
353.5505377571133
 21
27.87464953495352
 31
0.0
 11
353.6404222253062
 21
27.88968448286642
 31
0.0
 11
353.6347877028806
 21
27.86429219988665
 31
0.0
 11
353.6318056283038
 21
27.83637976065752
 31
0.0
 11
353.6304962878814
 21
27.80842983878952
 31
0.0
 11
353.6300858366809
 21
27.78306621900422
 31
0.0
 11
353.6326710362679
 21
27.73315147075276
 31
0.0
 11
353.6404222253062
 21
27.69357531624876
 31
0.0
 11
353.4860600175959
 21
27.69876225201135
 31
0.0
 11
353.3325980816379
 21
27.70046330235812
 31
0.0
 11
353.1781412494097
 21
27.70046330235812
 31
0.0
 11
353.0211649494382
 21
27.70046330235812
 31
0.0
 11
352.8638327919151
 21
27.70046330235812
 31
0.0
 11
352.7081814151275
 21
27.70046330235812
 31
0.0
 11
352.5525243871855
 21
27.69876225201135
 31
0.0
 11
352.3951872570748
 21
27.69357531624876
 31
0.0
 11
352.4050541221355
 21
27.91332059397159
 31
0.0
 11
352.4141411374233
 21
28.132219205028
 31
0.0
 11
352.4205344516016
 21
28.35281555913952
 31
0.0
 11
352.4226686452624
 21
28.57767170491665
 31
0.0
 11
352.4226686452624
 21
28.60309616508825
 31
0.0
 11
352.4226686452624
 21
28.67012428735881
 31
0.0
 11
352.4226686452624
 21
28.76488818436203
 31
0.0
 11
352.4226686452624
 21
28.87351996873157
 31
0.0
 11
352.4226686452624
 21
28.98215175310112
 31
0.0
 11
352.4226686452624
 21
29.07691565010433
 31
0.0
 11
352.4226686452624
 21
29.1439437723749
 31
0.0
 11
352.4226686452624
 21
29.1693682325465
 31
0.0
 11
352.4205344516016
 21
29.39466755540684
 31
0.0
 11
352.4141411374233
 21
29.6165405241014
 31
0.0
  0
SPLINE
  5
A5
102
{ACAD_REACTORS
330
C2
102
}
330
48
100
AcDbEntity
  8
_U_30EC_U_30A4_U_30E4_U_30FC_1
  6
Continuous
 62
     2
100
AcDbSpline
210
0.0
220
0.0
230
1.0
 70
    11
 71
     3
 72
    47
 73
    43
 74
    41
 42
0.000000001
 43
0.0000000001
 44
0.00000001
 40
0.0
 40
0.0
 40
0.0
 40
0.0
 40
0.2207912809957178
 40
0.4459404186303026
 40
0.4902387190459241
 40
0.5327473892721354
 40
0.5742260451225811
 40
0.615543263056082
 40
0.656816406631517
 40
0.6982511618780942
 40
0.740766392931717
 40
0.7851366743175235
 40
1.010288833836321
 40
1.231080507002173
 40
1.451765243652405
 40
1.676638205891685
 40
1.720461045359652
 40
1.830018144043518
 40
1.972442372353154
 40
2.114866600677519
 40
2.22442369939515
 40
2.268246538883385
 40
2.49362880120722
 40
2.715602830286616
 40
2.934211330706375
 40
3.149502369855372
 40
3.231387784851075
 40
3.318231873854053
 40
3.405143198198098
 40
3.48697030172045
 40
3.702258172493901
 40
3.920866283534132
 40
4.142839325931919
 40
4.368221903865378
 40
4.41204474335986
 40
4.521601842095879
 40
4.664026070452354
 40
4.806450298809067
 40
4.91600739754676
 40
4.959830237043081
 40
5.184703515847111
 40
5.405387250767488
 40
5.405387250767488
 40
5.405387250767488
 40
5.405387250767488
 10
355.159105025626
 20
29.61137232965822
 30
0.0
 10
355.1651762417618
 20
29.6748927451316
 30
0.0
 10
355.1774385104858
 20
29.80318730701577
 30
0.0
 10
355.068832987703
 20
30.07897012186027
 30
0.0
 10
355.1845608894218
 20
30.04918925444004
 30
0.0
 10
355.2255465506631
 20
30.04496348274769
 30
0.0
 10
355.2674828795133
 20
30.04041238401557
 30
0.0
 10
355.3087819623324
 20
30.03932774941435
 30
0.0
 10
355.3500655113171
 20
30.04041130207177
 30
0.0
 10
355.3919771268262
 20
30.04496904723293
 30
0.0
 10
355.4329606546635
 20
30.04918222221678
 30
0.0
 10
355.5488545841101
 20
30.07908403329483
 30
0.0
 10
355.4379275725072
 20
29.80070598621839
 30
0.0
 10
355.4658479362881
 20
29.62013932836902
 30
0.0
 10
355.4487890344584
 20
29.38691834358421
 30
0.0
 10
355.4498260279718
 20
29.22637414555095
 30
0.0
 10
355.4497722397019
 20
29.10015609570673
 30
0.0
 10
355.4497900370096
 20
29.00159755348191
 30
0.0
 10
355.4497811578696
 20
28.87011494454913
 30
0.0
 10
355.4497886925648
 20
28.738636369806
 30
0.0
 10
355.4497752402743
 20
28.6400701470604
 30
0.0
 10
355.4498154715106
 20
28.51370527636102
 30
0.0
 10
355.4490369401434
 20
28.3521286083482
 30
0.0
 10
355.464958131688
 20
28.12092613904863
 30
0.0
 10
355.4417091883023
 20
27.93605143983951
 30
0.0
 10
355.544380644198
 20
27.66666394782001
 30
0.0
 10
355.3903861360452
 20
27.70390904697767
 30
0.0
 10
355.3087752800446
 20
27.69868786692484
 30
0.0
 10
355.2271815290197
 20
27.70391412390302
 30
0.0
 10
355.0732136664457
 20
27.66667861897336
 30
0.0
 10
355.1757806419532
 20
27.9360592187483
 30
0.0
 10
355.1525668313703
 20
28.12092377337364
 30
0.0
 10
355.1684067652753
 20
28.35213010577589
 30
0.0
 10
355.1676919311041
 20
28.51370504320452
 30
0.0
 10
355.1677287567521
 20
28.64007023222471
 30
0.0
 10
355.1677171997885
 20
28.73863548647931
 30
0.0
 10
355.1677198016829
 20
28.8701191942917
 30
0.0
 10
355.1677271529393
 20
29.0015834004315
 30
0.0
 10
355.1677065538967
 20
29.10018578287276
 30
0.0
 10
355.1677705189641
 20
29.22626941366376
 30
0.0
 10
355.1665356945207
 20
29.38940883395722
 30
0.0
 10
355.1615663394359
 20
29.537849757895
 30
0.0
 10
355.159105025626
 20
29.61137232965822
 30
0.0
 11
355.159105025626
 21
29.61137232965822
 31
0.0
 11
355.1500951197995
 21
29.83197970807527
 31
0.0
 11
355.1402392703761
 21
30.05691302399129
 31
0.0
 11
355.1840608838416
 21
30.05043183475678
 31
0.0
 11
355.2262023931829
 21
30.04485684343874
 31
0.0
 11
355.2674994407406
 21
30.0409795951758
 31
0.0
 11
355.308796488298
 21
30.03968864899557
 31
0.0
 11
355.3500494386345
 21
30.0409795951758
 31
0.0
 11
355.3913023889712
 21
30.04485684343874
 31
0.0
 11
355.4334505128958
 21
30.05043183475678
 31
0.0
 11
355.477344886776
 21
30.05691302399129
 31
0.0
 11
355.4674200691506
 21
29.83197970807527
 31
0.0
 11
355.4584007205925
 21
29.61137232965822
 31
0.0
 11
355.451926146105
 21
29.39078259013004
 31
0.0
 11
355.4497841235901
 21
29.16591982976957
 31
0.0
 11
355.4497841235901
 21
29.12209699027436
 31
0.0
 11
355.4497841235901
 21
29.01253989153632
 31
0.0
 11
355.4497841235901
 21
28.87011566317687
 31
0.0
 11
355.4497841235901
 21
28.72769143481742
 31
0.0
 11
355.4497841235901
 21
28.61813433607938
 31
0.0
 11
355.4497841235901
 21
28.57431149658417
 31
0.0
 11
355.451926146105
 21
28.34893941330716
 31
0.0
 11
355.4584007205925
 21
28.1270598300293
 31
0.0
 11
355.4674200691506
 21
27.90863746897278
 31
0.0
 11
355.477344886776
 21
27.69357531624876
 31
0.0
 11
355.3956239166384
 21
27.69876225201135
 31
0.0
 11
355.308796488298
 21
27.70046330235812
 31
0.0
 11
355.2219018116953
 21
27.69876225201135
 31
0.0
 11
355.1402392703761
 21
27.69357531624876
 31
0.0
 11
355.1500951197995
 21
27.90863746897279
 31
0.0
 11
355.159105025626
 21
28.1270598300293
 31
0.0
 11
355.1655456836413
 21
28.34893941330716
 31
0.0
 11
355.1677206585638
 21
28.57431149658417
 31
0.0
 11
355.1677206585638
 21
28.61813433607938
 31
0.0
 11
355.1677206585638
 21
28.72769143481743
 31
0.0
 11
355.1677206585638
 21
28.87011566317687
 31
0.0
 11
355.1677206585638
 21
29.01253989153632
 31
0.0
 11
355.1677206585638
 21
29.12209699027436
 31
0.0
 11
355.1677206585638
 21
29.16591982976957
 31
0.0
 11
355.1655456836413
 21
29.39078259013004
 31
0.0
 11
355.159105025626
 21
29.61137232965822
 31
0.0
  0
SPLINE
  5
A6
102
{ACAD_REACTORS
330
C3
102
}
330
48
100
AcDbEntity
  8
_U_30EC_U_30A4_U_30E4_U_30FC_1
  6
Continuous
 62
     2
100
AcDbSpline
210
0.0
220
0.0
230
1.0
 70
    11
 71
     3
 72
   118
 73
   114
 74
   112
 42
0.000000001
 43
0.0000000001
 44
0.00000001
 40
0.0
 40
0.0
 40
0.0
 40
0.0
 40
0.105470816297341
 40
0.2466098270052302
 40
0.3965912874591805
 40
0.5285525069754546
 40
0.6156245055642932
 40
0.6431434105798596
 40
0.7036850037986809
 40
0.7642265984505433
 40
0.7917455052355737
 40
0.9287404319990934
 40
1.10657281908813
 40
1.287544879681204
 40
1.317578308030719
 40
1.399928030857354
 40
1.52296820480013
 40
1.675072986590753
 40
1.84461653318083
 40
2.019973001638889
 40
2.189516548880204
 40
2.341621331585547
 40
2.464661506320678
 40
2.54701122964724
 40
2.57704465816821
 40
2.603797890893223
 40
2.66265500290891
 40
2.721512114949665
 40
2.748265347702817
 40
2.774215307344893
 40
2.845959313407222
 40
2.954338556588426
 40
3.0901942275856
 40
3.244367517100565
 40
3.40769961584432
 40
3.571031714539473
 40
3.725205003920153
 40
3.861060674729651
 40
3.969439917716341
 40
4.041183923629018
 40
4.067133883213008
 40
4.311886746012181
 40
4.547897258335557
 40
4.76474708304402
 40
4.9527496799518
 40
5.045772974195942
 40
5.137862019645042
 40
5.330543169793082
 40
5.553448265244088
 40
5.795083855888256
 40
6.043293412177325
 40
6.285761695541252
 40
6.313902908752736
 40
6.384255941793269
 40
6.475714884766914
 40
6.56717382775892
 40
6.637526860839698
 40
6.665668074074032
 40
6.692018920328005
 40
6.749990782071078
 40
6.807962643790448
 40
6.834313490017921
 40
6.856393084245171
 40
6.913335195649795
 40
6.991194817302487
 40
7.076026942283663
 40
7.153886563725296
 40
7.210828674844793
 40
7.232908268931128
 40
7.258199334923647
 40
7.324875781592302
 40
7.419142481924956
 40
7.527204308841901
 40
7.635266135230479
 40
7.729532834168465
 40
7.796209279292794
 40
7.821500344594737
 40
7.844652988850836
 40
7.899863140541615
 40
7.96575912805381
 40
8.020969279771066
 40
8.044121924046589
 40
8.069356610160694
 40
8.109134395441545
 40
8.132238100191257
 40
8.193147867786623
 40
8.279261678876798
 40
8.377977512674013
 40
8.476693347146798
 40
8.562807160411856
 40
8.62371693082664
 40
8.646820636853592
 40
8.671988793774405
 40
8.734909185828373
 40
8.816705695189059
 40
8.898502204815658
 40
8.96142259737809
 40
8.986590754551289
 40
9.012941600733443
 40
9.070913462380526
 40
9.128885324082026
 40
9.155236170325344
 40
9.180404327929415
 40
9.24332472194846
 40
9.32512123421231
 40
9.406917746637935
 40
9.46983814197842
 40
9.495006288271222
 40
9.517811184379363
 40
9.572192090487357
 40
9.637098333281584
 40
9.691479239515774
 40
9.714284125643813
 40
9.714284125643813
 40
9.714284125643813
 40
9.714284125643813
 10
357.7958092026267
 20
29.1461995519967
 30
0.0
 10
357.8174613566651
 20
29.11842661254761
 30
0.0
 10
357.8680880107088
 20
29.05348846573186
 30
0.0
 10
357.9433006200205
 20
28.94621852324848
 30
0.0
 10
358.033210527196
 20
28.83108230278576
 30
0.0
 10
358.0792792674287
 20
28.7308783776027
 30
0.0
 10
358.1739448292271
 20
28.66164798826888
 30
0.0
 10
358.1288062318026
 20
28.61502431690228
 30
0.0
 10
358.1030670783406
 20
28.57391100877983
 30
0.0
 10
358.0728819705626
 20
28.53796763739889
 30
0.0
 10
358.0277307728178
 20
28.4631057460804
 30
0.0
 10
357.9794127456177
 20
28.68513316265553
 30
0.0
 10
357.9052162710688
 20
28.72241469349665
 30
0.0
 10
357.7919670322221
 20
28.99340994142553
 30
0.0
 10
357.7968756575783
 20
28.87826120458178
 30
0.0
 10
357.7952109553918
 20
28.80567467793577
 30
0.0
 10
357.7960453074327
 20
28.68356380495936
 30
0.0
 10
357.7957232537878
 20
28.53644592822411
 30
0.0
 10
357.795869991007
 20
28.37037855968507
 30
0.0
 10
357.7956573090335
 20
28.19918346620552
 30
0.0
 10
357.7963120249648
 20
28.03283620647448
 30
0.0
 10
357.7942815458753
 20
27.88665965067643
 30
0.0
 10
357.7997083397543
 20
27.7620183948656
 30
0.0
 10
357.7888553866321
 20
27.69449448552578
 30
0.0
 10
357.8040362153168
 20
27.63279853428973
 30
0.0
 10
357.7541518105749
 20
27.64458295908953
 30
0.0
 10
357.7100773340136
 20
27.63674614791919
 30
0.0
 10
357.6665994627816
 20
27.64491233384652
 30
0.0
 10
357.6175969784103
 20
27.63268848750419
 30
0.0
 10
357.630235423244
 20
27.68691459261264
 30
0.0
 10
357.6213805966064
 20
27.74667710919507
 30
0.0
 10
357.6258681767929
 20
27.85652821056321
 30
0.0
 10
357.6241583133605
 20
27.98760767417628
 30
0.0
 10
357.6247173913601
 20
28.13928803456279
 30
0.0
 10
357.6245551766308
 20
28.29941866941903
 30
0.0
 10
357.6245892922288
 20
28.45967657686516
 30
0.0
 10
357.6246137957741
 20
28.61101039532389
 30
0.0
 10
357.6245076540841
 20
28.74312948350551
 30
0.0
 10
357.6247922139545
 20
28.85025594545143
 30
0.0
 10
357.6242298545183
 20
28.91539411591424
 30
0.0
 10
357.6264388081303
 20
29.04349749870624
 30
0.0
 10
357.5403058996217
 20
28.66828402403525
 30
0.0
 10
357.4638763816115
 20
28.51648985135343
 30
0.0
 10
357.3743663765447
 20
28.35496998458258
 30
0.0
 10
357.2724036214942
 20
28.08202640832121
 30
0.0
 10
357.2271599488653
 20
28.2444813860846
 30
0.0
 10
357.1185978939285
 20
28.33336224070067
 30
0.0
 10
357.3079414749366
 20
28.4828058697336
 30
0.0
 10
357.3648963543316
 20
28.67479928986875
 30
0.0
 10
357.4801143990966
 20
28.90630414918706
 30
0.0
 10
357.5023774627748
 20
29.0952805177101
 30
0.0
 10
357.6855528149754
 20
29.3718488133788
 30
0.0
 10
357.5621656595166
 20
29.36429770844042
 30
0.0
 10
357.5009307164448
 20
29.36587564378067
 30
0.0
 10
357.4165622614679
 20
29.36613384585623
 30
0.0
 10
357.328785808358
 20
29.36275637763155
 30
0.0
 10
357.2740391693738
 20
29.37125606993969
 30
0.0
 10
357.2188326023639
 20
29.35779353061737
 30
0.0
 10
357.2306446033152
 20
29.40662234138713
 30
0.0
 10
357.2226119149408
 20
29.44999796908657
 30
0.0
 10
357.2311809102293
 20
29.49240230321523
 30
0.0
 10
357.2186566406772
 20
29.53998588564066
 30
0.0
 10
357.2638724536349
 20
29.52998005007059
 30
0.0
 10
357.3098438560339
 20
29.5362489718601
 30
0.0
 10
357.3860845045326
 20
29.53324353417822
 30
0.0
 10
357.4644919129608
 20
29.5350124029049
 30
0.0
 10
357.5407615646549
 20
29.53195585993608
 30
0.0
 10
357.5866632457087
 20
29.53834763388125
 30
0.0
 10
357.6315356963015
 20
29.52824614990845
 30
0.0
 10
357.6189175273248
 20
29.57887993593847
 30
0.0
 10
357.627555958032
 20
29.63232053894018
 30
0.0
 10
357.6235984593059
 20
29.72594047143629
 30
0.0
 10
357.6245948065948
 20
29.82843398700873
 30
0.0
 10
357.6255550410689
 20
29.93084062260113
 30
0.0
 10
357.6216834455621
 20
30.02466721621271
 30
0.0
 10
357.6301412811978
 20
30.07767334852302
 30
0.0
 10
357.617669893045
 20
30.1294222766314
 30
0.0
 10
357.6625729387464
 20
30.11581539238705
 30
0.0
 10
357.7038706834387
 20
30.11831272332536
 30
0.0
 10
357.7678967278665
 20
30.11378852586437
 30
0.0
 10
357.8069734146401
 20
30.10511795055258
 30
0.0
 10
357.8560166496356
 20
30.11245894082638
 30
0.0
 10
357.8308703028205
 20
30.07333688063705
 30
0.0
 10
357.7899524331337
 20
30.08294634467761
 30
0.0
 10
357.7993732614217
 20
30.03270940181728
 30
0.0
 10
357.793927031636
 20
29.9811673765144
 30
0.0
 10
357.796532259942
 20
29.8969049959647
 30
0.0
 10
357.7953725199767
 20
29.80289927595358
 30
0.0
 10
357.7967214061845
 20
29.70927657407475
 30
0.0
 10
357.7933593099124
 20
29.62410309564172
 30
0.0
 10
357.8004582915382
 20
29.57447648083993
 30
0.0
 10
357.789619215216
 20
29.52724486981938
 30
0.0
 10
357.8387633222858
 20
29.539324669488
 30
0.0
 10
357.8878500627761
 20
29.5317818537496
 30
0.0
 10
357.9657337278256
 20
29.53416862373381
 30
0.0
 10
358.0433988170511
 20
29.53630173917365
 30
0.0
 10
358.0929016928968
 20
29.52924183934403
 30
0.0
 10
358.1428217748255
 20
29.54090943948166
 30
0.0
 10
358.1306821514492
 20
29.49271027383342
 30
0.0
 10
358.138946122676
 20
29.44980011813184
 30
0.0
 10
358.1306821648398
 20
29.40688993863334
 30
0.0
 10
358.1428217547468
 20
29.35869080766812
 30
0.0
 10
358.0929018156361
 20
29.37035826483459
 30
0.0
 10
358.0433973648817
 20
29.36329994446994
 30
0.0
 10
357.9657407380586
 20
29.36542457240552
 30
0.0
 10
357.8878266863375
 20
29.3678418137771
 30
0.0
 10
357.838812335033
 20
29.36022640206434
 30
0.0
 10
357.7896869106556
 20
29.37238744569542
 30
0.0
 10
357.7999182986185
 20
29.32803805436107
 30
0.0
 10
357.7940300675667
 20
29.2865622821486
 30
0.0
 10
357.7962411303183
 20
29.22646186327253
 30
0.0
 10
357.7957732343759
 20
29.17956574774839
 30
0.0
 10
357.7958009990527
 20
29.15380938430147
 30
0.0
 10
357.7958092026267
 20
29.1461995519967
 30
0.0
 11
357.7958092026267
 21
29.1461995519967
 31
0.0
 11
357.8600600532098
 21
29.06255791646207
 31
0.0
 11
357.9431881833113
 21
28.9484968176017
 31
0.0
 11
358.030045456651
 21
28.82622559207673
 31
0.0
 11
358.1054837369487
 21
28.71795357654826
 31
0.0
 11
358.1543548879241
 21
28.6458901076774
 31
0.0
 11
358.1380444282707
 21
28.62372574136349
 31
0.0
 11
358.1021614170335
 21
28.57496413547289
 31
0.0
 11
358.0662784057961
 21
28.52620252958229
 31
0.0
 11
358.0499679461428
 21
28.50403816326838
 31
0.0
 11
357.9846690107061
 21
28.62446931035763
 31
0.0
 11
357.8932057240849
 21
28.77697775682157
 31
0.0
 11
357.7958092026267
 21
28.92950580205092
 31
0.0
 11
357.7958092026267
 21
28.89947237340203
 31
0.0
 11
357.7958092026266
 21
28.81712264968733
 31
0.0
 11
357.7958092026266
 21
28.69408247425478
 31
0.0
 11
357.7958092026267
 21
28.54197769045233
 31
0.0
 11
357.7958092026267
 21
28.37243414162795
 31
0.0
 11
357.7958092026267
 21
28.19707767112959
 31
0.0
 11
357.7958092026267
 21
28.02753412230521
 31
0.0
 11
357.7958092026266
 21
27.87542933850276
 31
0.0
 11
357.7958092026267
 21
27.75238916307021
 31
0.0
 11
357.7958092026266
 21
27.67003943935551
 31
0.0
 11
357.7958092026267
 21
27.64000601070662
 31
0.0
 11
357.7690559698023
 21
27.64000601070662
 31
0.0
 11
357.7101988575886
 21
27.64000601070662
 31
0.0
 11
357.6513417453749
 21
27.64000601070662
 31
0.0
 11
357.6245885125505
 21
27.64000601070662
 31
0.0
 11
357.6245885125505
 21
27.665955970432
 31
0.0
 11
357.6245885125505
 21
27.73769997673158
 31
0.0
 11
357.6245885125505
 21
27.84607922029052
 31
0.0
 11
357.6245885125505
 21
27.98193489179397
 31
0.0
 11
357.6245885125504
 21
28.13610818192711
 31
0.0
 11
357.6245885125505
 21
28.29944028137508
 31
0.0
 11
357.6245885125504
 21
28.46277238082306
 31
0.0
 11
357.6245885125505
 21
28.6169456709562
 31
0.0
 11
357.6245885125505
 21
28.75280134245966
 31
0.0
 11
357.6245885125505
 21
28.86118058601859
 31
0.0
 11
357.6245885125505
 21
28.93292459231817
 31
0.0
 11
357.6245885125505
 21
28.95887455204355
 31
0.0
 11
357.5463488859336
 21
28.72696395314322
 31
0.0
 11
357.4580733786918
 21
28.50808408340627
 31
0.0
 11
357.362772992766
 21
28.31329783345496
 31
0.0
 11
357.2634587300971
 21
28.15366809391151
 31
0.0
 11
357.2192821340021
 21
28.23553238208548
 31
0.0
 11
357.1671680381095
 21
28.3114567744276
 31
0.0
 11
357.2710925587913
 21
28.47370879938707
 31
0.0
 11
357.371294286235
 21
28.67282257433731
 31
0.0
 11
357.4634069605516
 21
28.89621239928146
 31
0.0
 11
357.5430643218526
 21
29.13129257422269
 31
0.0
 11
357.6059001102495
 21
29.36547739916414
 31
0.0
 11
357.5777588969757
 21
29.36547739916414
 31
0.0
 11
357.5074058637912
 21
29.36547739916414
 31
0.0
 11
357.4159469206513
 21
29.36547739916414
 31
0.0
 11
357.3244879775115
 21
29.36547739916414
 31
0.0
 11
357.2541349443269
 21
29.36547739916414
 31
0.0
 11
357.2259937310531
 21
29.36547739916414
 31
0.0
 11
357.2259937310531
 21
29.39182824551171
 31
0.0
 11
357.2259937310531
 21
29.44980010747637
 31
0.0
 11
357.2259937310531
 21
29.50777196944104
 31
0.0
 11
357.2259937310531
 21
29.53412281578861
 31
0.0
 11
357.2480733253634
 21
29.53412281578861
 31
0.0
 11
357.3050154370059
 21
29.53412281578861
 31
0.0
 11
357.3828750590477
 21
29.53412281578861
 31
0.0
 11
357.4677071845558
 21
29.53412281578861
 31
0.0
 11
357.5455668065977
 21
29.53412281578861
 31
0.0
 11
357.6025089182401
 21
29.53412281578861
 31
0.0
 11
357.6245885125505
 21
29.53412281578861
 31
0.0
 11
357.6245885125505
 21
29.55941388186302
 31
0.0
 11
357.6245885125505
 21
29.62609032878646
 31
0.0
 11
357.6245885125505
 21
29.72035702960926
 31
0.0
 11
357.6245885125505
 21
29.82841885738173
 31
0.0
 11
357.6245885125505
 21
29.93648068515421
 31
0.0
 11
357.6245885125505
 21
30.030747385977
 31
0.0
 11
357.6245885125505
 21
30.09742383290045
 31
0.0
 11
357.6245885125505
 21
30.12271489897486
 31
0.0
 11
357.647680498628
 21
30.1210400511975
 31
0.0
 11
357.7027460038899
 21
30.11704618342072
 31
0.0
 11
357.7684693488799
 21
30.11227930897746
 31
0.0
 11
357.8235348541417
 21
30.10828544120067
 31
0.0
 11
357.8466268402193
 21
30.10661059342331
 31
0.0
 11
357.8332635641976
 21
30.08520469933141
 31
0.0
 11
357.7958092026267
 21
30.07180906565419
 31
0.0
 11
357.7958092026267
 21
30.04870535960528
 31
0.0
 11
357.7958092026267
 21
29.98779558911269
 31
0.0
 11
357.7958092026267
 21
29.90168177565766
 31
0.0
 11
357.7958092026266
 21
29.8029659407214
 31
0.0
 11
357.7958092026267
 21
29.70425010578514
 31
0.0
 11
357.7958092026267
 21
29.61813629233011
 31
0.0
 11
357.7958092026267
 21
29.55722652183752
 31
0.0
 11
357.7958092026267
 21
29.53412281578861
 31
0.0
 11
357.8209773602422
 21
29.53412281578861
 31
0.0
 11
357.8838977542813
 21
29.53412281578861
 31
0.0
 11
357.965694266532
 21
29.53412281578861
 31
0.0
 11
358.0474907787827
 21
29.53412281578861
 31
0.0
 11
358.1104111728216
 21
29.53412281578861
 31
0.0
 11
358.1355793304373
 21
29.53412281578861
 31
0.0
 11
358.1355793304372
 21
29.50777196944104
 31
0.0
 11
358.1355793304373
 21
29.44980010747638
 31
0.0
 11
358.1355793304373
 21
29.39182824551171
 31
0.0
 11
358.1355793304373
 21
29.36547739916414
 31
0.0
 11
358.1104111728216
 21
29.36547739916413
 31
0.0
 11
358.0474907787827
 21
29.36547739916414
 31
0.0
 11
357.965694266532
 21
29.36547739916414
 31
0.0
 11
357.8838977542813
 21
29.36547739916414
 31
0.0
 11
357.8209773602422
 21
29.36547739916413
 31
0.0
 11
357.7958092026267
 21
29.36547739916414
 31
0.0
 11
357.7958092026267
 21
29.34267250305873
 31
0.0
 11
357.7958092026266
 21
29.2882915969612
 31
0.0
 11
357.7958092026267
 21
29.22338535419964
 31
0.0
 11
357.7958092026267
 21
29.16900444810211
 31
0.0
 11
357.7958092026267
 21
29.1461995519967
 31
0.0
  0
SPLINE
  5
A7
102
{ACAD_REACTORS
330
C4
102
}
330
48
100
AcDbEntity
  8
_U_30EC_U_30A4_U_30E4_U_30FC_1
  6
Continuous
 62
     2
100
AcDbSpline
210
0.0
220
0.0
230
1.0
 70
    11
 71
     3
 72
    91
 73
    87
 74
    85
 42
0.000000001
 43
0.0000000001
 44
0.00000001
 40
0.0
 40
0.0
 40
0.0
 40
0.0
 40
0.034598705169515
 40
0.1258134969461938
 40
0.2547723404888418
 40
0.4026032099154125
 40
0.5504340793416989
 40
0.679392922883608
 40
0.7706077146571604
 40
0.8052064287780925
 40
1.124852390615268
 40
1.42740223630886
 40
1.706356627453494
 40
1.955541417875168
 40
2.169485938566325
 40
2.344350786664757
 40
2.480568411561933
 40
2.590440557428928
 40
2.649189927151109
 40
2.749320643306322
 40
2.912632739880025
 40
3.147745656000216
 40
3.244827496385156
 40
3.338490056946795
 40
3.583815413207219
 40
3.761423943238587
 40
3.886956104362738
 40
3.985855451886966
 40
4.091766255337851
 40
4.250186473812044
 40
4.422734315084646
 40
4.62828568483877
 40
4.872093227758587
 40
5.152549652145715
 40
5.464967135837683
 40
5.80320147785261
 40
6.160362988814079
 40
6.193449448276162
 40
6.284170385501731
 40
6.419718138764658
 40
6.58728504638588
 40
6.774063446723851
 40
6.967245678113834
 40
7.154024078817876
 40
7.321590987026234
 40
7.457138740890564
 40
7.547859678556385
 40
7.58094613818286
 40
7.608533084714917
 40
7.669224367077899
 40
7.729915649430126
 40
7.757502595950182
 40
7.790278062553551
 40
7.880146277431077
 40
8.01441996318054
 40
8.180411842398126
 40
8.365434637679567
 40
8.556801071622868
 40
8.741823866831037
 40
8.907815745916576
 40
9.042089431507787
 40
9.131957646249855
 40
9.16473311279746
 40
9.415425063140377
 40
9.667986180958838
 40
9.694169807462892
 40
9.756607686047907
 40
9.831130315322856
 40
9.89356819390032
 40
9.919751820399137
 40
9.950967964690964
 40
9.996421631211074
 40
10.22087981037496
 40
10.44341866197584
 40
10.47847970788899
 40
10.570913374388
 40
10.70159545461274
 40
10.85140174170402
 40
11.00120802880525
 40
11.13189010907427
 40
11.22432377583055
 40
11.25938480938993
 40
11.28697175596182
 40
11.34766303835956
 40
11.40835432042107
 40
11.43594125892142
 40
11.43594125892142
 40
11.43594125892142
 40
11.43594125892142
 10
362.5901737330904
 20
29.42973587137026
 30
0.0
 10
362.5786408842555
 20
29.42973582299864
 30
0.0
 10
362.5367032442614
 20
29.42973565716113
 30
0.0
 10
362.451775271664
 20
29.42973917812858
 30
0.0
 10
362.3291311550743
 20
29.42971718447826
 30
0.0
 10
362.1874829914607
 20
29.42981593189003
 30
0.0
 10
362.0463376696105
 20
29.42945478244369
 30
0.0
 10
361.9224974315518
 20
29.43052675621038
 30
0.0
 10
361.8400840822995
 20
29.42823041103217
 30
0.0
 10
361.681141422731
 20
29.43779361385369
 30
0.0
 10
361.8587025350989
 20
29.07516186323318
 30
0.0
 10
361.8463362203067
 20
28.82973919735064
 30
0.0
 10
361.9148142471478
 20
28.54593293336784
 30
0.0
 10
361.9776647318583
 20
28.30981791950984
 30
0.0
 10
362.0535876429343
 20
28.1105753240808
 30
0.0
 10
362.138681257463
 20
27.95476139463322
 30
0.0
 10
362.232823059055
 20
27.85388649793343
 30
0.0
 10
362.3366271205342
 20
27.80196644650916
 30
0.0
 10
362.4209495028387
 20
27.85337276391565
 30
0.0
 10
362.4434945177068
 20
27.96875336049467
 30
0.0
 10
362.4829353972984
 20
28.0961594171433
 30
0.0
 10
362.4286542732556
 20
28.41353120098704
 30
0.0
 10
362.5534841070088
 20
28.26712972152854
 30
0.0
 10
362.7102914511217
 20
28.23526092343125
 30
0.0
 10
362.6031343004672
 20
28.00152149779576
 30
0.0
 10
362.5892334207481
 20
27.83703568595608
 30
0.0
 10
362.531833246484
 20
27.70861661134429
 30
0.0
 10
362.4418643142623
 20
27.63749594364779
 30
0.0
 10
362.3178897655492
 20
27.62163116154203
 30
0.0
 10
362.1717896194475
 20
27.65724589566121
 30
0.0
 10
362.0327517317899
 20
27.7773136251223
 30
0.0
 10
361.9185626959758
 20
27.95166474562267
 30
0.0
 10
361.8229764299101
 20
28.17677395123192
 30
0.0
 10
361.7402275570239
 20
28.44119038018389
 30
0.0
 10
361.6890802254026
 20
28.75918725110494
 30
0.0
 10
361.5853812204952
 20
29.0327452050086
 30
0.0
 10
361.7126464206134
 20
29.43736610624817
 30
0.0
 10
361.5441513620633
 20
29.42843159861627
 30
0.0
 10
361.4595618784691
 20
29.43046753430313
 30
0.0
 10
361.3273499385243
 20
29.42944729400354
 30
0.0
 10
361.1644128091718
 20
29.42984022330379
 30
0.0
 10
360.9817382168147
 20
29.42966488325317
 30
0.0
 10
360.7930680370997
 20
29.42990897319418
 30
0.0
 10
360.6098092017803
 20
29.42916449918184
 30
0.0
 10
360.4488369830332
 20
29.43147152534373
 30
0.0
 10
360.3113431332889
 20
29.42530596895611
 30
0.0
 10
360.2373213369924
 20
29.43763630470161
 30
0.0
 10
360.1696838184471
 20
29.42060115735507
 30
0.0
 10
360.1815996716883
 20
29.47255230459477
 30
0.0
 10
360.1739300283308
 20
29.51802216978478
 30
0.0
 10
360.181621522273
 20
29.56345245715654
 30
0.0
 10
360.1696764795375
 20
29.61533187996518
 30
0.0
 10
360.236721130348
 20
29.59849935502214
 30
0.0
 10
360.310099866329
 20
29.61066201104623
 30
0.0
 10
360.4462751302885
 20
29.60458023086906
 30
0.0
 10
360.6057434799127
 20
29.60685626327009
 30
0.0
 10
360.7872796083449
 20
29.60612026010911
 30
0.0
 10
360.9741657859794
 20
29.60636746208085
 30
0.0
 10
361.1551635314449
 20
29.60617192811203
 30
0.0
 10
361.3164425576492
 20
29.60663026726787
 30
0.0
 10
361.4477505122502
 20
29.60543465763157
 30
0.0
 10
361.5308674320211
 20
29.60782139331693
 30
0.0
 10
361.6639859545429
 20
29.59961397737412
 30
0.0
 10
361.5729516500273
 20
29.85483660964603
 30
0.0
 10
361.4873256072032
 20
30.11895150340192
 30
0.0
 10
361.607421200107
 20
30.10635234981115
 30
0.0
 10
361.6597887946157
 20
30.10425027775023
 30
0.0
 10
361.729812056733
 20
30.10266191901606
 30
0.0
 10
361.7755545335433
 20
30.09333359550062
 30
0.0
 10
361.8304435644547
 20
30.10276758927375
 30
0.0
 10
361.8047197783296
 20
30.05463820667123
 30
0.0
 10
361.6909020569066
 20
30.05997621756115
 30
0.0
 10
361.824296961875
 20
29.83179966588725
 30
0.0
 10
361.7027281733086
 20
29.59887648607874
 30
0.0
 10
361.8306811767029
 20
29.60818050896388
 30
0.0
 10
361.9132671404076
 20
29.60531793766631
 30
0.0
 10
362.039083784844
 20
29.60654229424252
 30
0.0
 10
362.1825092835673
 20
29.60663223900914
 30
0.0
 10
362.3241043949344
 20
29.60476955195804
 30
0.0
 10
362.4542750247584
 20
29.61063867949112
 30
0.0
 10
362.5277075283807
 20
29.59801132835156
 30
0.0
 10
362.597473591971
 20
29.61608355122359
 30
0.0
 10
362.5859395603012
 20
29.56343642558276
 30
0.0
 10
362.5916807344296
 20
29.51952109698496
 30
0.0
 10
362.5900238768527
 20
29.46820774688499
 30
0.0
 10
362.5901380559284
 20
29.43889584033583
 30
0.0
 10
362.5901737330904
 20
29.42973587137026
 30
0.0
 11
362.5901737330904
 21
29.42973587137026
 31
0.0
 11
362.5555750189666
 21
29.42973587137026
 31
0.0
 11
362.4643602271856
 21
29.42973587137026
 31
0.0
 11
362.3354013836332
 21
29.42973587137026
 31
0.0
 11
362.187570514195
 21
29.42973587137026
 31
0.0
 11
362.0397396447569
 21
29.42973587137026
 31
0.0
 11
361.9107808012045
 21
29.42973587137026
 31
0.0
 11
361.8195660094235
 21
29.42973587137026
 31
0.0
 11
361.7849672952997
 21
29.42973587137026
 31
0.0
 11
361.8166763495308
 21
29.1116665694207
 31
0.0
 11
361.861148965448
 21
28.8124031480003
 31
0.0
 11
361.9176012115934
 21
28.53922061524525
 31
0.0
 11
361.9852491565092
 21
28.29939397929177
 31
0.0
 11
362.0633088687375
 21
28.10019824827604
 31
0.0
 11
362.1509964168205
 21
27.94890843033428
 31
0.0
 11
362.2475278693003
 21
27.85279953360266
 31
0.0
 11
362.3521192947189
 21
27.81914656621742
 31
0.0
 11
362.40267003004
 21
27.84908168990785
 31
0.0
 11
362.4394211989166
 21
27.94222411826997
 31
0.0
 11
362.4646263975142
 21
28.10357943724005
 31
0.0
 11
362.4805392219982
 21
28.33815323275432
 31
0.0
 11
362.5577705680197
 21
28.27932974318567
 31
0.0
 11
362.6410807182
 21
28.2365267744464
 31
0.0
 11
362.6149988808832
 21
27.9925918067296
 31
0.0
 11
362.575694080272
 21
27.81938694899512
 31
0.0
 11
362.518932559438
 21
27.70742064457867
 31
0.0
 11
362.4404805614524
 21
27.64720133681595
 31
0.0
 11
362.336104329387
 21
27.62923746904267
 31
0.0
 11
362.1822218062711
 21
27.66688232024311
 31
0.0
 11
362.0472525374362
 21
27.77438140889353
 31
0.0
 11
361.9305362913777
 21
27.94358153756759
 31
0.0
 11
361.8314128365914
 21
28.16632950883893
 31
0.0
 11
361.7492219415727
 21
28.43447212528121
 31
0.0
 11
361.6833033748173
 21
28.73985618946809
 31
0.0
 11
361.6329969048207
 21
29.07432850397323
 31
0.0
 11
361.5976423000785
 21
29.42973587137026
 31
0.0
 11
361.5645558403457
 21
29.42973587137026
 31
0.0
 11
361.4738349023689
 21
29.42973587137026
 31
0.0
 11
361.3382871479799
 21
29.42973587137026
 31
0.0
 11
361.1707202390109
 21
29.42973587137026
 31
0.0
 11
360.9839418372937
 21
29.42973587137026
 31
0.0
 11
360.7907596046606
 21
29.42973587137026
 31
0.0
 11
360.6039812029435
 21
29.42973587137026
 31
0.0
 11
360.4364142939745
 21
29.42973587137026
 31
0.0
 11
360.3008665395855
 21
29.42973587137026
 31
0.0
 11
360.2101456016086
 21
29.42973587137026
 31
0.0
 11
360.1770591418759
 21
29.42973587137026
 31
0.0
 11
360.1770591418759
 21
29.45732281797795
 31
0.0
 11
360.1770591418759
 21
29.51801410051487
 31
0.0
 11
360.1770591418759
 21
29.57870538305179
 31
0.0
 11
360.1770591418759
 21
29.60629232965948
 31
0.0
 11
360.2098346085244
 21
29.60629232965948
 31
0.0
 11
360.2997028235287
 21
29.60629232965949
 31
0.0
 11
360.4339765094762
 21
29.60629232965947
 31
0.0
 11
360.5999683889546
 21
29.60629232965948
 31
0.0
 11
360.7849911845515
 21
29.60629232965948
 31
0.0
 11
360.9763576188546
 21
29.60629232965948
 31
0.0
 11
361.1613804144516
 21
29.60629232965948
 31
0.0
 11
361.32737229393
 21
29.60629232965948
 31
0.0
 11
361.4616459798775
 21
29.60629232965948
 31
0.0
 11
361.5515141948817
 21
29.60629232965949
 31
0.0
 11
361.5842896615303
 21
29.60629232965948
 31
0.0
 11
361.5742806947717
 21
29.85678439556908
 31
0.0
 11
361.5682735508277
 21
30.1092740656448
 31
0.0
 11
361.5944198868273
 21
30.10787713620071
 31
0.0
 11
361.6567688419033
 21
30.1045459967571
 31
0.0
 11
361.7311853366714
 21
30.10057012064699
 31
0.0
 11
361.7935342917474
 21
30.09723898120338
 31
0.0
 11
361.819680627747
 21
30.09584205175928
 31
0.0
 11
361.8066554110655
 21
30.06747320628029
 31
0.0
 11
361.763527226402
 21
30.05312066288114
 31
0.0
 11
361.7658614959436
 21
29.82867462127058
 31
0.0
 11
361.7742075733518
 21
29.60629232965948
 31
0.0
 11
361.8092686192781
 21
29.60629232965948
 31
0.0
 11
361.901702285811
 21
29.60629232965948
 31
0.0
 11
362.0323843660816
 21
29.60629232965948
 31
0.0
 11
362.1821906532211
 21
29.60629232965948
 31
0.0
 11
362.3319969403607
 21
29.60629232965948
 31
0.0
 11
362.4626790206313
 21
29.60629232965948
 31
0.0
 11
362.5551126871642
 21
29.60629232965948
 31
0.0
 11
362.5901737330904
 21
29.60629232965948
 31
0.0
 11
362.5901737330904
 21
29.57870538305179
 31
0.0
 11
362.5901737330904
 21
29.51801410051487
 31
0.0
 11
362.5901737330904
 21
29.45732281797795
 31
0.0
 11
362.5901737330904
 21
29.42973587137026
 31
0.0
  0
SPLINE
  5
A8
102
{ACAD_REACTORS
330
C5
102
}
330
48
100
AcDbEntity
  8
_U_30EC_U_30A4_U_30E4_U_30FC_1
  6
Continuous
 62
     2
100
AcDbSpline
210
0.0
220
0.0
230
1.0
 70
    11
 71
     3
 72
    75
 73
    71
 74
    69
 42
0.000000001
 43
0.0000000001
 44
0.00000001
 40
0.0
 40
0.0
 40
0.0
 40
0.0
 40
0.0342546099129673
 40
0.12456224144324
 40
0.25223854808975
 40
0.3985991922940644
 40
0.5449598364980768
 40
0.6726361431438799
 40
0.7629437746736836
 40
0.7971983935297866
 40
1.101723623449702
 40
1.40859124403668
 40
1.433332471690393
 40
1.487763172450174
 40
1.542193873082012
 40
1.566935100592563
 40
1.923523931821984
 40
2.271755704953728
 40
2.590579755100998
 40
2.858943305581171
 40
2.889120339309208
 40
2.918305855191157
 40
2.941366645531309
 40
2.996357760973167
 40
3.061992318140712
 40
3.116983433626885
 40
3.140044223997585
 40
3.411273122936478
 40
3.732441619741143
 40
3.761068217532842
 40
3.837787499630402
 40
3.948858699126046
 40
4.080541049104419
 40
4.219093782625809
 40
4.350776132722356
 40
4.461847332405694
 40
4.538566614678428
 40
4.567193212544674
 40
4.59490757399896
 40
4.666381453557499
 40
4.764111044011138
 40
4.870592538125885
 40
4.968322128642449
 40
5.039796008287106
 40
5.067510369784537
 40
5.094263603185749
 40
5.153120716668387
 40
5.211977830150837
 40
5.23873106355184
 40
5.272290535139079
 40
5.363380529444911
 40
5.497618415781646
 40
5.660621563453859
 40
5.838007341749532
 40
6.015393119910827
 40
6.178396267038594
 40
6.312634151842432
 40
6.403724143059507
 40
6.437283612672574
 40
6.464036846261192
 40
6.522893960004805
 40
6.581751071484075
 40
6.60850430159102
 40
6.637253941281224
 40
6.711397748902962
 40
6.812778057283574
 40
6.923237199249322
 40
7.024617507623966
 40
7.098761315207619
 40
7.127510946007569
 40
7.127510946007569
 40
7.127510946007569
 40
7.127510946007569
 10
360.9502245388179
 20
28.83579920485214
 30
0.0
 10
360.9502245817321
 20
28.8243810542067
 30
0.0
 10
360.9502247478742
 20
28.78286049854578
 30
0.0
 10
360.9502216079402
 20
28.69877714015723
 30
0.0
 10
360.9502411277415
 20
28.57735289334278
 30
0.0
 10
360.9501535185352
 20
28.43711286059398
 30
0.0
 10
360.9504739232844
 20
28.29737348806526
 30
0.0
 10
360.9495228907356
 20
28.1747583090688
 30
0.0
 10
360.9515601593581
 20
28.09317866449993
 30
0.0
 10
360.9433056176362
 20
27.94002059089649
 30
0.0
 10
361.2514420938519
 20
28.10291028066668
 30
0.0
 10
361.5434268171344
 20
28.27213730699947
 30
0.0
 10
361.5491977446325
 20
28.13704027793862
 30
0.0
 10
361.5539094717506
 20
28.09348013172393
 30
0.0
 10
361.5566158409533
 20
28.04942041362494
 30
0.0
 10
361.5756168670576
 20
27.90003382375082
 30
0.0
 10
361.1667565244916
 20
27.96411964253213
 30
0.0
 10
360.8877333346447
 20
27.85027133422964
 30
0.0
 10
360.610170458478
 20
27.75094887823096
 30
0.0
 10
360.3183460182015
 20
27.79361479608299
 30
0.0
 10
360.2952767676273
 20
27.69052471756492
 30
0.0
 10
360.2621097380949
 20
27.6642188325642
 30
0.0
 10
360.2564276960351
 20
27.71186101048249
 30
0.0
 10
360.2367837556659
 20
27.74911128127022
 30
0.0
 10
360.2178712483238
 20
27.80738179859511
 30
0.0
 10
360.2026472865323
 20
27.85115993019757
 30
0.0
 10
360.1560869370547
 20
27.9649021305825
 30
0.0
 10
360.4974520310067
 20
27.93307093132
 30
0.0
 10
360.7763272364998
 20
27.8989222711843
 30
0.0
 10
360.7701376032522
 20
28.046447684916
 30
0.0
 10
360.7714558450387
 20
28.11743942920782
 30
0.0
 10
360.7708454687564
 20
28.22450559970611
 30
0.0
 10
360.7709494568339
 20
28.35129321797947
 30
0.0
 10
360.7713610961671
 20
28.48580035507999
 30
0.0
 10
360.7697530839583
 20
28.61126341963134
 30
0.0
 10
360.7743525565539
 20
28.72236038731067
 30
0.0
 10
360.7647809499826
 20
28.78492678812638
 30
0.0
 10
360.7787624781305
 20
28.84326180306951
 30
0.0
 10
360.723100738432
 20
28.83020502594189
 30
0.0
 10
360.6659278195435
 20
28.83867099761448
 30
0.0
 10
360.5699671923262
 20
28.83460768092587
 30
0.0
 10
360.4717390520436
 20
28.83701681864424
 30
0.0
 10
360.3756205455172
 20
28.83282392625336
 30
0.0
 10
360.3188271523426
 20
28.84160138453112
 30
0.0
 10
360.2633979870998
 20
28.82825728862071
 30
0.0
 10
360.2754302425531
 20
28.87767702971207
 30
0.0
 10
360.2675626171551
 20
28.92124780042345
 30
0.0
 10
360.2749918561442
 20
28.96561261130475
 30
0.0
 10
360.2635553561758
 20
29.01633089775941
 30
0.0
 10
360.3315725367747
 20
28.99893252769694
 30
0.0
 10
360.4052119877361
 20
29.01148242249138
 30
0.0
 10
360.5408687055825
 20
29.00530469023048
 30
0.0
 10
360.696853202214
 20
29.00759995105035
 30
0.0
 10
360.8699549355757
 20
29.0067176027448
 30
0.0
 10
361.0430565961796
 20
29.00759999154359
 30
0.0
 10
361.1990412808831
 20
29.005304549675
 30
0.0
 10
361.3346974887411
 20
29.01148278274382
 30
0.0
 10
361.4083379703267
 20
28.99893186230284
 30
0.0
 10
361.4763537172338
 20
29.01633165024092
 30
0.0
 10
361.4649213883536
 20
28.96560922426504
 30
0.0
 10
361.4723162455911
 20
28.92127852823058
 30
0.0
 10
361.4645662909885
 20
28.87759099562145
 30
0.0
 10
361.4764826739491
 20
28.82794382110425
 30
0.0
 10
361.4191793221231
 20
28.84192203350375
 30
0.0
 10
361.3603768787386
 20
28.83270547685203
 30
0.0
 10
361.2608916630815
 20
28.8368306017688
 30
0.0
 10
361.1577903095964
 20
28.83553552037838
 30
0.0
 10
361.0621469352188
 20
28.8358486908959
 30
0.0
 10
360.9941090969232
 20
28.83579568709094
 30
0.0
 10
360.9598085211057
 20
28.83579843883605
 30
0.0
 10
360.9502245388179
 20
28.83579920485214
 30
0.0
 11
360.9502245388179
 21
28.83579920485214
 31
0.0
 11
360.9502245388179
 21
28.80154458599135
 31
0.0
 11
360.9502245388179
 21
28.71123695444925
 31
0.0
 11
360.9502245388179
 21
28.58356064778629
 31
0.0
 11
360.9502245388179
 21
28.4372000035629
 31
0.0
 11
360.9502245388179
 21
28.29083935933951
 31
0.0
 11
360.9502245388179
 21
28.16316305267654
 31
0.0
 11
360.9502245388179
 21
28.07285542113446
 31
0.0
 11
360.9502245388179
 21
28.03860080227366
 31
0.0
 11
361.2475555642183
 21
28.10440267725718
 31
0.0
 11
361.546824662486
 21
28.17226830224022
 31
0.0
 11
361.5489110122592
 21
28.14761519894778
 31
0.0
 11
361.5535009817601
 21
28.0933783717044
 31
0.0
 11
361.5580909512611
 21
28.03914154446101
 31
0.0
 11
361.5601773010343
 21
28.01448844116857
 31
0.0
 11
361.2140019886854
 21
27.92894162152847
 31
0.0
 11
360.8753276136453
 21
27.84791669641851
 31
0.0
 11
360.5647354514302
 21
27.77593556036879
 31
0.0
 11
360.302806777557
 21
27.71752010790942
 31
0.0
 11
360.2901138026907
 21
27.69014234749963
 31
0.0
 11
360.2653417785128
 21
27.67471052458685
 31
0.0
 11
360.2575490587116
 21
27.69641475402586
 31
0.0
 11
360.2389664191857
 21
27.74817099345735
 31
0.0
 11
360.2167871397515
 21
27.80994456955301
 31
0.0
 11
360.1982045002255
 21
27.8617008089845
 31
0.0
 11
360.1904117804243
 21
27.88340503842351
 31
0.0
 11
360.4566399333546
 21
27.93524793771615
 31
0.0
 11
360.7709957933904
 21
28.00104760783859
 31
0.0
 11
360.7709957933904
 21
28.02967420581574
 31
0.0
 11
360.7709957933903
 21
28.10639348839448
 31
0.0
 11
360.7709957933904
 21
28.21746468854581
 31
0.0
 11
360.7709957933904
 21
28.34914703924067
 31
0.0
 11
360.7709957933904
 21
28.48769977345006
 31
0.0
 11
360.7709957933904
 21
28.61938212414492
 31
0.0
 11
360.7709957933903
 21
28.73045332429624
 31
0.0
 11
360.7709957933904
 21
28.807172606875
 31
0.0
 11
360.7709957933904
 21
28.83579920485214
 31
0.0
 11
360.7432814318723
 21
28.83579920485214
 31
0.0
 11
360.6718075521678
 21
28.83579920485214
 31
0.0
 11
360.5740779615514
 21
28.83579920485214
 31
0.0
 11
360.4675964672979
 21
28.83579920485214
 31
0.0
 11
360.3698668766814
 21
28.83579920485214
 31
0.0
 11
360.298392996977
 21
28.83579920485214
 31
0.0
 11
360.2706786354589
 21
28.83579920485214
 31
0.0
 11
360.2706786354589
 21
28.86255243835239
 31
0.0
 11
360.2706786354589
 21
28.92140955205294
 31
0.0
 11
360.2706786354589
 21
28.98026666575349
 31
0.0
 11
360.2706786354589
 21
29.00701989925374
 31
0.0
 11
360.3042381070489
 21
29.00701989925374
 31
0.0
 11
360.3953281013645
 21
29.00701989925374
 31
0.0
 11
360.5295659877244
 21
29.00701989925374
 31
0.0
 11
360.6925691354471
 21
29.00701989925374
 31
0.0
 11
360.8699549138511
 21
29.00701989925374
 31
0.0
 11
361.0473406922551
 21
29.00701989925374
 31
0.0
 11
361.2103438399779
 21
29.00701989925374
 31
0.0
 11
361.3445817263377
 21
29.00701989925374
 31
0.0
 11
361.4356717206533
 21
29.00701989925374
 31
0.0
 11
361.4692311922432
 21
29.00701989925374
 31
0.0
 11
361.4692311922432
 21
28.98026666575349
 31
0.0
 11
361.4692311922432
 21
28.92140955205294
 31
0.0
 11
361.4692311922432
 21
28.86255243835239
 31
0.0
 11
361.4692311922432
 21
28.83579920485214
 31
0.0
 11
361.440481552549
 21
28.83579920485214
 31
0.0
 11
361.366337744917
 21
28.83579920485214
 31
0.0
 11
361.2649574365219
 21
28.83579920485214
 31
0.0
 11
361.1544982945392
 21
28.83579920485214
 31
0.0
 11
361.0531179861442
 21
28.83579920485214
 31
0.0
 11
360.978974178512
 21
28.83579920485214
 31
0.0
 11
360.9502245388179
 21
28.83579920485214
 31
0.0
  0
SPLINE
  5
A9
102
{ACAD_REACTORS
330
C6
102
}
330
48
100
AcDbEntity
  8
_U_30EC_U_30A4_U_30E4_U_30FC_1
  6
Continuous
 62
     2
100
AcDbSpline
210
0.0
220
0.0
230
1.0
 70
    11
 71
     3
 72
    15
 73
    11
 74
     9
 42
0.000000001
 43
0.0000000001
 44
0.00000001
 40
0.0
 40
0.0
 40
0.0
 40
0.0
 40
0.2785535985096574
 40
0.5215624748198446
 40
0.607691737604029
 40
0.6938210001741023
 40
0.9405019146454018
 40
1.221691403489099
 40
1.300471877081018
 40
1.379252341684829
 40
1.379252341684829
 40
1.379252341684829
 40
1.379252341684829
 10
362.0765116628614
 20
30.10661059342331
 30
0.0
 10
362.1379640791793
 20
30.05422438604666
 30
0.0
 10
362.2530272971728
 20
29.95613668810175
 30
0.0
 10
362.5480971494859
 20
29.80620577909169
 30
0.0
 10
362.410877062947
 20
29.72074019526965
 30
0.0
 10
362.3124850841392
 20
29.58816577213505
 30
0.0
 10
362.2213656588264
 20
29.89347777793378
 30
0.0
 10
361.8720462478269
 20
29.95698661477322
 30
0.0
 10
362.0202881374184
 20
30.05627301892829
 30
0.0
 10
362.0577704871851
 20
30.08983140414333
 30
0.0
 10
362.0765116628614
 20
30.10661059342331
 30
0.0
 11
362.0765116628614
 21
30.10661059342331
 31
0.0
 11
362.3002845438211
 21
29.94072566290922
 31
0.0
 11
362.4778669303997
 21
29.77484073239514
 31
0.0
 11
362.4149931125593
 21
29.71597535046542
 31
0.0
 11
362.3521192947189
 21
29.6571099685357
 31
0.0
 11
362.177215811534
 21
29.83106469071441
 31
0.0
 11
361.9561879853754
 21
30.00488712122652
 31
0.0
 11
362.0163498241184
 21
30.05574885732491
 31
0.0
 11
362.0765116628614
 21
30.10661059342331
 31
0.0
  0
SPLINE
  5
AA
102
{ACAD_REACTORS
330
C7
102
}
330
48
100
AcDbEntity
  8
_U_30EC_U_30A4_U_30E4_U_30FC_1
  6
Continuous
 62
     2
100
AcDbSpline
210
0.0
220
0.0
230
1.0
 70
    11
 71
     3
 72
    35
 73
    31
 74
    29
 42
0.000000001
 43
0.0000000001
 44
0.00000001
 40
0.0
 40
0.0
 40
0.0
 40
0.0
 40
0.0335231036620466
 40
0.07132185717124
 40
0.4278866681487218
 40
0.81168658419651
 40
1.198190238000099
 40
1.561379546812732
 40
1.659983174622076
 40
1.759315573807192
 40
2.132719617231173
 40
2.525233363588855
 40
2.910815397779746
 40
3.265244364303291
 40
3.592606723582045
 40
3.96438615460393
 40
4.35994213173784
 40
4.758154118639323
 40
4.843846538699911
 40
4.936650065543327
 40
5.256616602537427
 40
5.581707404416234
 40
5.899719158308308
 40
6.198363494280913
 40
6.466301046615913
 40
6.493895311537291
 40
6.559697020197084
 40
6.63823454344266
 40
6.70403625215444
 40
6.731630508423247
 40
6.731630508423247
 40
6.731630508423247
 40
6.731630508423247
 10
364.4819633566284
 20
30.11194635731084
 30
0.0
 10
364.4759629095403
 20
30.10211482554272
 30
0.0
 10
364.4631967096772
 20
30.08119780591745
 30
0.0
 10
364.3032985004168
 20
30.0485791854465
 30
0.0
 10
364.7405648839954
 20
29.75937472348642
 30
0.0
 10
364.9429017825876
 20
29.55771930370395
 30
0.0
 10
365.1903187265589
 20
29.31480179615222
 30
0.0
 10
365.6915136622219
 20
29.23778454769727
 30
0.0
 10
365.5209185196586
 20
29.09607731186606
 30
0.0
 10
365.4466922460816
 20
28.89441158221054
 30
0.0
 10
365.1215055245801
 20
29.24687079186668
 30
0.0
 10
364.836136466828
 20
29.40906004571516
 30
0.0
 10
364.5421227075271
 20
29.61417922064995
 30
0.0
 10
364.316807568875
 20
30.09558280607403
 30
0.0
 10
364.1076708053137
 20
29.63073838621177
 30
0.0
 10
363.8291496672451
 20
29.42081744264855
 30
0.0
 10
363.5455006174823
 20
29.25155248371944
 30
0.0
 10
363.2162262525446
 20
28.87873152919884
 30
0.0
 10
363.136063531584
 20
29.07438806470957
 30
0.0
 10
362.9843347907356
 20
29.20221896202536
 30
0.0
 10
363.416701882441
 20
29.28184823777891
 30
0.0
 10
363.604618832738
 20
29.47757426927418
 30
0.0
 10
363.8552100418119
 20
29.69363788928708
 30
0.0
 10
364.0797973467774
 20
29.85921784312006
 30
0.0
 10
364.1343398407329
 20
30.13864756648778
 30
0.0
 10
364.2578284026626
 20
30.12468742420029
 30
0.0
 10
364.3143896342135
 20
30.12252060879598
 30
0.0
 10
364.3845493982559
 20
30.11777651893308
 30
0.0
 10
364.441703701972
 20
30.11440221362493
 30
0.0
 10
364.4727813318453
 20
30.11250646723069
 30
0.0
 10
364.4819633566284
 20
30.11194635731084
 30
0.0
 11
364.4819633566284
 21
30.11194635731084
 31
0.0
 11
364.46089420675
 21
30.08587166981735
 31
0.0
 11
364.425808755704
 21
30.07180906565419
 31
0.0
 11
364.6595997766709
 21
29.80258753143332
 31
0.0
 11
364.9498208955182
 21
29.55144199981209
 31
0.0
 11
365.2696420481299
 21
29.33441779630733
 31
0.0
 11
365.5922331703904
 21
29.16756024643586
 31
0.0
 11
365.5296922865691
 21
29.09132827596878
 31
0.0
 11
365.477165881659
 21
29.00701989925374
 31
0.0
 11
365.1519902093428
 21
29.19057196843529
 31
0.0
 11
364.832085076605
 21
29.41800931755378
 31
0.0
 11
364.5437823156223
 21
29.6740464713526
 31
0.0
 11
364.313413758571
 21
29.94339795457515
 31
0.0
 11
364.1079154717131
 21
29.68857140732986
 31
0.0
 11
363.8371924339151
 21
29.43375974289705
 31
0.0
 11
363.5203161420861
 21
29.19700258366806
 31
0.0
 11
363.1763580931356
 21
28.99633955203417
 31
0.0
 11
363.1302478338953
 21
29.06856859715503
 31
0.0
 11
363.0720593457962
 21
29.14086378810917
 31
0.0
 11
363.3516663486629
 21
29.29642248973694
 31
0.0
 11
363.6176627618769
 21
29.48331801802355
 31
0.0
 11
363.8583620457361
 21
29.69115288297159
 31
0.0
 11
364.0620776605389
 21
29.90952959458366
 31
0.0
 11
364.2171230665832
 21
30.12805066286237
 31
0.0
 11
364.244666456748
 21
30.12637581508501
 31
0.0
 11
364.3103468486792
 21
30.12238194730823
 31
0.0
 11
364.3887395745325
 21
30.11761507286498
 31
0.0
 11
364.4544199664637
 21
30.1136212050882
 31
0.0
 11
364.4819633566284
 21
30.11194635731084
 31
0.0
  0
SPLINE
  5
AB
102
{ACAD_REACTORS
330
C8
102
}
330
48
100
AcDbEntity
  8
_U_30EC_U_30A4_U_30E4_U_30FC_1
  6
Continuous
 62
     2
100
AcDbSpline
210
0.0
220
0.0
230
1.0
 70
    11
 71
     3
 72
    91
 73
    87
 74
    85
 42
0.000000001
 43
0.0000000001
 44
0.00000001
 40
0.0
 40
0.0
 40
0.0
 40
0.0
 40
0.0267532254356701
 40
0.085610338646412
 40
0.1444674521996603
 40
0.1712206856618514
 40
0.2039416005642252
 40
0.2955601971652769
 40
0.4362601844616634
 40
0.6162252844506966
 40
0.8256392189704698
 40
1.054685709844354
 40
1.29354847889356
 40
1.532411247938275
 40
1.761457738799596
 40
1.970871673298451
 40
2.150836773256732
 40
2.291536760495593
 40
2.3831553568367
 40
2.415876284101263
 40
2.44262951748791
 40
2.50148663094904
 40
2.560343744424189
 40
2.58709697782646
 40
2.617068194440859
 40
2.699247336756085
 40
2.822032643466312
 40
2.973822353257813
 40
3.143014704823284
 40
3.318007936879863
 40
3.48720028818664
 40
3.638989997548177
 40
3.761775303794676
 40
3.843954445752982
 40
3.873925662229706
 40
3.890812773500415
 40
3.90769988477165
 40
3.937960767857315
 40
3.980983618142374
 40
4.199085915228526
 40
4.439444339237274
 40
4.677588241260929
 40
5.050698317837843
 40
5.448212454763172
 40
5.85529121804464
 40
6.138575438885229
 40
6.417434507584067
 40
6.444551104393678
 40
6.504207617363004
 40
6.563864130314329
 40
6.590980727103896
 40
6.848609460381278
 40
7.109611990668219
 40
7.352910904445936
 40
7.557830220705256
 40
7.587518925913125
 40
7.652834077375569
 40
7.718149228845552
 40
7.747837934061783
 40
7.854880190300731
 40
7.976511257403242
 40
8.369487896592071
 40
8.757514959223393
 40
9.126072419330912
 40
9.46063938039192
 40
9.746695593035575
 40
9.77756994311834
 40
9.807050320931465
 40
9.83037733612861
 40
9.886003295435659
 40
9.952395569429584
 40
10.00802152870595
 40
10.03134854388187
 40
10.21356951009552
 40
10.42203479292829
 40
10.66154556731023
 40
10.91693789564263
 40
11.15832906556526
 40
11.1898267459658
 40
11.27286608520368
 40
11.3902665303331
 40
11.5248475284084
 40
11.65942852648399
 40
11.77682897161438
 40
11.85986831085634
 40
11.89136598230383
 40
11.89136598230383
 40
11.89136598230383
 40
11.89136598230383
 10
363.2111508005811
 20
28.58430392713722
 30
0.0
 10
363.2111860762903
 20
28.59318639323935
 30
0.0
 10
363.211298970841
 20
28.62161029059296
 30
0.0
 10
363.2096607566103
 20
28.67140431181753
 30
0.0
 10
363.2153373290525
 20
28.71388356490104
 30
0.0
 10
363.2040551729321
 20
28.76460946868796
 30
0.0
 10
363.2715919976648
 20
28.7474369275206
 30
0.0
 10
363.3471652208314
 20
28.76021019177945
 30
0.0
 10
363.4911980053615
 20
28.75360521469332
 30
0.0
 10
363.6653042183041
 20
28.75619254218417
 30
0.0
 10
363.8723222608618
 20
28.75531383967502
 30
0.0
 10
364.0978311169993
 20
28.75558999931978
 30
0.0
 10
364.3334785291019
 20
28.75549131670612
 30
0.0
 10
364.5691263528964
 20
28.75558976424717
 30
0.0
 10
364.7946340578241
 20
28.75531470202739
 30
0.0
 10
365.001655763042
 20
28.75618978282684
 30
0.0
 10
365.1757511912903
 20
28.75361314690396
 30
0.0
 10
365.3198115069601
 20
28.76019082461164
 30
0.0
 10
365.3953314912908
 20
28.74747035417555
 30
0.0
 10
365.4629399034644
 20
28.76457192203635
 30
0.0
 10
365.4514463138291
 20
28.7140557781489
 30
0.0
 10
365.4588727579347
 20
28.6698404423845
 30
0.0
 10
365.4512461925603
 20
28.62598758515561
 30
0.0
 10
365.4630112457038
 20
28.57609166491278
 30
0.0
 10
365.4014411489598
 20
28.59124019724463
 30
0.0
 10
365.3340414736284
 20
28.58041457362623
 30
0.0
 10
365.2096627053837
 20
28.58582823638186
 30
0.0
 10
365.0638051234185
 20
28.58379997402735
 30
0.0
 10
364.8977199437699
 20
28.58446569590336
 30
0.0
 10
364.727203561934
 20
28.58420435533192
 30
0.0
 10
364.5603413853003
 20
28.58452345403044
 30
0.0
 10
364.4170969824721
 20
28.58366094602712
 30
0.0
 10
364.2856936867448
 20
28.58594092494938
 30
0.0
 10
364.2323482132271
 20
28.58138496386152
 30
0.0
 10
364.1568811454527
 20
28.58730707004829
 30
0.0
 10
364.1852698776847
 20
28.57824961355301
 30
0.0
 10
364.2117275407159
 20
28.57456704280881
 30
0.0
 10
364.1717145905316
 20
28.54385063980225
 30
0.0
 10
364.0797286689483
 20
28.55398383186584
 30
0.0
 10
364.0523019204683
 20
28.30763294259738
 30
0.0
 10
363.956241696485
 20
28.15230350776323
 30
0.0
 10
363.7000900962088
 20
27.82256209943518
 30
0.0
 10
364.2711160730376
 20
27.961608142224
 30
0.0
 10
364.5257279318131
 20
27.96022571985316
 30
0.0
 10
365.1363270046231
 20
27.8752136125403
 30
0.0
 10
364.8424321575696
 20
28.17416209570164
 30
0.0
 10
364.5216927284135
 20
28.32061648913712
 30
0.0
 10
364.6397166358047
 20
28.37756332830241
 30
0.0
 10
364.6808339463876
 20
28.40150891885296
 30
0.0
 10
364.7240435392025
 20
28.42330550823179
 30
0.0
 10
364.8258197092065
 20
28.48659513265856
 30
0.0
 10
364.9412490622861
 20
28.2287794342073
 30
0.0
 10
365.1413214639891
 20
28.09346833125629
 30
0.0
 10
365.2352700384843
 20
27.91523587150835
 30
0.0
 10
365.4642452744005
 20
27.75728613039004
 30
0.0
 10
365.3679654844322
 20
27.70646764588247
 30
0.0
 10
365.3251582761393
 20
27.67612084535003
 30
0.0
 10
365.2801866526393
 20
27.65196922293415
 30
0.0
 10
365.2205343922827
 20
27.60282938759514
 30
0.0
 10
365.187335405894
 20
27.73728267685561
 30
0.0
 10
365.066563634841
 20
27.89325057298531
 30
0.0
 10
364.7054599003593
 20
27.76300720071506
 30
0.0
 10
364.3468684953155
 20
27.77955486421433
 30
0.0
 10
363.9654543447693
 20
27.77062021363817
 30
0.0
 10
363.6787078280507
 20
27.70613463684355
 30
0.0
 10
363.3675678597326
 20
27.81961460204779
 30
0.0
 10
363.3352360816403
 20
27.70853051939715
 30
0.0
 10
363.2979801250933
 20
27.68927105861963
 30
0.0
 10
363.2949360630369
 20
27.73605576099245
 30
0.0
 10
363.2763515858222
 20
27.77537645931087
 30
0.0
 10
363.2596059614393
 20
27.83496775490183
 30
0.0
 10
363.2467353913368
 20
27.87932761883231
 30
0.0
 10
363.2125950804045
 20
27.96837123132151
 30
0.0
 10
363.4566337455367
 20
27.89911834955717
 30
0.0
 10
363.6525017484284
 20
27.87761161069696
 30
0.0
 10
363.7479049378893
 20
28.15957276490411
 30
0.0
 10
363.802875876721
 20
28.32093837433074
 30
0.0
 10
364.024324235477
 20
28.59121969601686
 30
0.0
 10
363.8932862378832
 20
28.58279238865686
 30
0.0
 10
363.8193649553468
 20
28.58509800508919
 30
0.0
 10
363.7061082873859
 20
28.58402170333608
 30
0.0
 10
363.5777874805099
 20
28.58438431088459
 30
0.0
 10
363.448787502803
 20
28.58428516478036
 30
0.0
 10
363.3371463943906
 20
28.58430724724522
 30
0.0
 10
363.2598286967641
 20
28.58430371201621
 30
0.0
 10
363.2216499529625
 20
28.58430387857031
 30
0.0
 10
363.2111508005811
 20
28.58430392713722
 30
0.0
 11
363.2111508005811
 21
28.58430392713722
 31
0.0
 11
363.211150800581
 21
28.61105716063748
 31
0.0
 11
363.2111508005811
 21
28.66991427433804
 31
0.0
 11
363.2111508005811
 21
28.7287713880386
 31
0.0
 11
363.2111508005811
 21
28.75552462153885
 31
0.0
 11
363.2438717278603
 21
28.75552462153885
 31
0.0
 11
363.3354903242424
 21
28.75552462153885
 31
0.0
 11
363.4761903115433
 21
28.75552462153885
 31
0.0
 11
363.6561554115794
 21
28.75552462153885
 31
0.0
 11
363.8655693461669
 21
28.75552462153885
 31
0.0
 11
364.0946158371219
 21
28.75552462153885
 31
0.0
 11
364.3334786062608
 21
28.75552462153885
 31
0.0
 11
364.5723413753996
 21
28.75552462153885
 31
0.0
 11
364.8013878663546
 21
28.75552462153885
 31
0.0
 11
365.010801800942
 21
28.75552462153885
 31
0.0
 11
365.1907669009782
 21
28.75552462153885
 31
0.0
 11
365.3314668882791
 21
28.75552462153885
 31
0.0
 11
365.4230854846611
 21
28.75552462153885
 31
0.0
 11
365.4558064119404
 21
28.75552462153885
 31
0.0
 11
365.4558064119404
 21
28.7287713880386
 31
0.0
 11
365.4558064119404
 21
28.66991427433803
 31
0.0
 11
365.4558064119404
 21
28.61105716063748
 31
0.0
 11
365.4558064119404
 21
28.58430392713722
 31
0.0
 11
365.4258351952373
 21
28.58430392713722
 31
0.0
 11
365.3436560526641
 21
28.58430392713722
 31
0.0
 11
365.2208707455254
 21
28.58430392713722
 31
0.0
 11
365.0690810351257
 21
28.58430392713722
 31
0.0
 11
364.8998886827692
 21
28.58430392713722
 31
0.0
 11
364.7248954497605
 21
28.58430392713722
 31
0.0
 11
364.5557030974041
 21
28.58430392713722
 31
0.0
 11
364.4039133870043
 21
28.58430392713722
 31
0.0
 11
364.2811280798657
 21
28.58430392713722
 31
0.0
 11
364.1989489372925
 21
28.58430392713722
 31
0.0
 11
364.1689777205894
 21
28.58430392713722
 31
0.0
 11
364.184998241014
 21
28.57896375352743
 31
0.0
 11
364.2010187614386
 21
28.57362357991764
 31
0.0
 11
364.1789778679035
 21
28.55288906603392
 31
0.0
 11
364.1368484852977
 21
28.5441666354806
 31
0.0
 11
364.0448858538992
 21
28.34640039324606
 31
0.0
 11
363.9362701519378
 21
28.13198303990459
 31
0.0
 11
363.8211123822422
 21
27.9235335106357
 31
0.0
 11
364.1940989672635
 21
27.93313233264979
 31
0.0
 11
364.5914323033765
 21
27.94512024416944
 31
0.0
 11
364.9982965188759
 21
27.95833503840482
 31
0.0
 11
364.8066742494594
 21
28.1669755331443
 31
0.0
 11
364.6050375011313
 21
28.35960212163781
 31
0.0
 11
364.6288570792364
 21
28.37256119281514
 31
0.0
 11
364.6812601510676
 21
28.40107114940525
 31
0.0
 11
364.7336632228988
 21
28.42958110599537
 31
0.0
 11
364.7574828010039
 21
28.4425401771727
 31
0.0
 11
364.947072455624
 21
28.26810300382218
 31
0.0
 11
365.1283933938049
 21
28.08036638386041
 31
0.0
 11
365.2861352228762
 21
27.89513173004386
 31
0.0
 11
365.4049875501672
 21
27.72820045512899
 31
0.0
 11
365.3799031215538
 21
27.71231994298019
 31
0.0
 11
365.324717378604
 21
27.67738281625282
 31
0.0
 11
365.2695316356542
 21
27.64244568952546
 31
0.0
 11
365.2444472070407
 21
27.62656517737666
 31
0.0
 11
365.1859141149227
 21
27.71618616693759
 31
0.0
 11
365.1133638076072
 21
27.81381080232982
 31
0.0
 11
364.7209035921709
 21
27.79367078955709
 31
0.0
 11
364.3333097067174
 21
27.77534095011723
 31
0.0
 11
363.9651001973827
 21
27.75932970734345
 31
0.0
 11
363.6307931103026
 21
27.74614548456897
 31
0.0
 11
363.3449064916133
 21
27.736296705127
 31
0.0
 11
363.3295485319355
 21
27.70951315478645
 31
0.0
 11
363.3021057288161
 21
27.69874351069195
 31
0.0
 11
363.2951550189935
 21
27.72101091457528
 31
0.0
 11
363.2785802494164
 21
27.77411010845088
 31
0.0
 11
363.2587974599211
 21
27.83748656565726
 31
0.0
 11
363.242222690344
 21
27.89058575953287
 31
0.0
 11
363.2352719805213
 21
27.91285316341619
 31
0.0
 11
363.4174822856767
 21
27.91482430924902
 31
0.0
 11
363.6258598846202
 21
27.92087003841422
 31
0.0
 11
363.738682612483
 21
28.13214342313503
 31
0.0
 11
363.8491559719649
 21
28.36240605167828
 31
0.0
 11
363.9441877263242
 21
28.58430392713722
 31
0.0
 11
363.9126900459211
 21
28.58430392713722
 31
0.0
 11
363.8296507066768
 21
28.58430392713722
 31
0.0
 11
363.7122502615383
 21
28.58430392713722
 31
0.0
 11
363.5776692634527
 21
28.58430392713722
 31
0.0
 11
363.443088265367
 21
28.58430392713722
 31
0.0
 11
363.3256878202284
 21
28.58430392713722
 31
0.0
 11
363.2426484809841
 21
28.58430392713722
 31
0.0
 11
363.2111508005811
 21
28.58430392713722
 31
0.0
  0
SPLINE
  5
AC
102
{ACAD_REACTORS
330
C9
102
}
330
48
100
AcDbEntity
  8
_U_30EC_U_30A4_U_30E4_U_30FC_1
  6
Continuous
 62
     2
100
AcDbSpline
210
0.0
220
0.0
230
1.0
 70
    11
 71
     3
 72
   131
 73
   127
 74
   125
 42
0.000000001
 43
0.0000000001
 44
0.00000001
 40
0.0
 40
0.0
 40
0.0
 40
0.0
 40
0.0195577029826226
 40
0.0426490537461495
 40
0.2863607575856683
 40
0.5344948436189467
 40
0.7842238845573561
 40
0.8737315789467747
 40
0.9803832810313413
 40
1.092842274516994
 40
1.199761146656799
 40
1.289788768186549
 40
1.351573580786244
 40
1.370727117561481
 40
1.416400936017899
 40
1.470914848356009
 40
1.516588666791834
 40
1.535742203552912
 40
1.634216592293244
 40
1.7602833411751
 40
1.897966686682183
 40
2.031216387368978
 40
2.049689751137976
 40
2.101115601646907
 40
2.179502577740024
 40
2.27885931831414
 40
2.393194462258794
 40
2.516516648383906
 40
2.642834515406033
 40
2.766156701983537
 40
2.880491846754648
 40
2.979848588358688
 40
3.058235565443869
 40
3.109661416669017
 40
3.128134780704194
 40
3.146783742386596
 40
3.191254343315428
 40
3.244332157316116
 40
3.288802758225962
 40
3.307451719895234
 40
3.327717853844849
 40
3.383747753580206
 40
3.4683886659246
 40
3.574487837698907
 40
3.694892515729009
 40
3.822449946852149
 40
3.950007377920539
 40
4.070412055800631
 40
4.176511227368184
 40
4.261152139501636
 40
4.317182039076823
 40
4.337448172964745
 40
4.620011002696321
 40
4.885096638397611
 40
4.945373043518432
 40
5.014107710488793
 40
5.070481727652168
 40
5.319246955636669
 40
5.584812164506181
 40
5.859000912057036
 40
6.133746937542202
 40
6.401732212969001
 40
6.42073668399562
 40
6.472845717451185
 40
6.55070274389417
 40
6.646951193874407
 40
6.754234497930759
 40
6.865196086587537
 40
6.972479390357967
 40
7.068727839772158
 40
7.146584865451223
 40
7.198693898189368
 40
7.217698368905565
 40
7.234950401631049
 40
7.27608986427009
 40
7.325191803516197
 40
7.366331266090586
 40
7.383583298769934
 40
7.402779163492283
 40
7.453386443254742
 40
7.524934666445772
 40
7.606953361406084
 40
7.688972056429264
 40
7.760520279784457
 40
7.811127559734728
 40
7.830323424546434
 40
7.847844055300068
 40
7.894799345667106
 40
7.962779392744795
 40
8.043374293560845
 40
8.12817414514975
 40
8.20876904481755
 40
8.276749090377255
 40
8.323704379669817
 40
8.341225010056547
 40
8.358497614800696
 40
8.4016791266869
 40
8.45781509218593
 40
8.513951057728391
 40
8.557132569708319
 40
8.57440517450539
 40
8.602340668616739
 40
8.643455660540306
 40
8.663225271966978
 40
8.715345156564618
 40
8.78903188962896
 40
8.873502045520683
 40
8.957972194324311
 40
9.031658925568204
 40
9.083778811234888
 40
9.103548423003355
 40
9.119550083123949
 40
9.160817522380109
 40
9.217244429110503
 40
9.278724491644988
 40
9.335151398295745
 40
9.376418837358068
 40
9.392420497300856
 40
9.401196302735075
 40
9.417494229384578
 40
9.426270027749878
 40
9.440875075477958
 40
9.475702496999089
 40
9.517270709866203
 40
9.552098131994443
 40
9.566703169884628
 40
9.566703169884628
 40
9.566703169884628
 40
9.566703169884628
 10
367.1253877146094
 20
29.54746663522978
 30
0.0
 10
367.1217968090987
 20
29.54184482714111
 30
0.0
 10
367.1139662121238
 20
29.52958546431061
 30
0.0
 10
367.021359197217
 20
29.49332708052933
 30
0.0
 10
366.9971245230859
 20
29.27879236224661
 30
0.0
 10
366.8942332843554
 20
29.09928076521657
 30
0.0
 10
366.630411536192
 20
28.91346365810096
 30
0.0
 10
366.7929094566795
 20
28.83690128578028
 30
0.0
 10
366.8690848758453
 20
28.77587485207397
 30
0.0
 10
366.9575794070373
 20
28.71246596556705
 30
0.0
 10
367.0473553230726
 20
28.6525642623151
 30
0.0
 10
367.0967440633661
 20
28.5983294686116
 30
0.0
 10
367.1829331154996
 20
28.57017032553782
 30
0.0
 10
367.1494883671844
 20
28.53444101664763
 30
0.0
 10
367.1298294163926
 20
28.50281180003858
 30
0.0
 10
367.1003511215498
 20
28.46206664808015
 30
0.0
 10
367.0772612443646
 20
28.43235455501595
 30
0.0
 10
367.0463828965971
 20
28.37942214680444
 30
0.0
 10
366.9812816363356
 20
28.50471126950855
 30
0.0
 10
366.887962312003
 20
28.55944692245884
 30
0.0
 10
366.8034259282753
 20
28.61647215951291
 30
0.0
 10
366.6806121123357
 20
28.7740607943947
 30
0.0
 10
366.6848073844916
 20
28.69766598778785
 30
0.0
 10
366.6835101650292
 20
28.65092072173244
 30
0.0
 10
366.6841749445692
 20
28.5731557782455
 30
0.0
 10
366.6839172984571
 20
28.47632860336371
 30
0.0
 10
366.6840054237537
 20
28.36381071090759
 30
0.0
 10
366.6839700299897
 20
28.24254877957649
 30
0.0
 10
366.6840134755894
 20
28.11817689870912
 30
0.0
 10
366.683882294002
 20
27.99698475643285
 30
0.0
 10
366.684310055966
 20
27.88421940931694
 30
0.0
 10
366.6830301199927
 20
27.78813705780694
 30
0.0
 10
366.6863382848657
 20
27.7084461848065
 30
0.0
 10
366.6798820737702
 20
27.66545967800734
 30
0.0
 10
366.6889831703171
 20
27.6268622438399
 30
0.0
 10
366.6531533337549
 20
27.63541679736021
 30
0.0
 10
366.6198846812867
 20
27.63073311997397
 30
0.0
 10
366.5688185573656
 20
27.63082090771734
 30
0.0
 10
366.5353346970427
 20
27.6352522229577
 30
0.0
 10
366.4991208406368
 20
27.62691585854459
 30
0.0
 10
366.5093405566281
 20
27.66876069191234
 30
0.0
 10
366.5020110885387
 20
27.71509352832124
 30
0.0
 10
366.5057256133717
 20
27.80105623117964
 30
0.0
 10
366.504310355251
 20
27.903359347168
 30
0.0
 10
366.5047728552253
 20
28.02184015943461
 30
0.0
 10
366.5046396683846
 20
28.14688475165307
 30
0.0
 10
366.5046638907659
 20
28.27206620118999
 30
0.0
 10
366.5046977923166
 20
28.39017437391009
 30
0.0
 10
366.5045683290748
 20
28.49359540721466
 30
0.0
 10
366.5049130546695
 20
28.57662828165616
 30
0.0
 10
366.5042321276305
 20
28.62874160533193
 30
0.0
 10
366.5078209598237
 20
28.7564369983331
 30
0.0
 10
366.2909794384053
 20
28.45779508831565
 30
0.0
 10
366.1104977919567
 20
28.22994773523462
 30
0.0
 10
366.0573945293226
 20
28.37104235301766
 30
0.0
 10
366.0284052130763
 20
28.4205655957289
 30
0.0
 10
365.9280271060435
 20
28.5237257180206
 30
0.0
 10
366.2488750720875
 20
28.6042582703573
 30
0.0
 10
366.3773520003045
 20
28.78797075048382
 30
0.0
 10
366.5990077322973
 20
28.99662787783711
 30
0.0
 10
366.6853847891686
 20
29.17070003240298
 30
0.0
 10
366.9633017226683
 20
29.44697843354456
 30
0.0
 10
366.84298708369
 20
29.44265351563065
 30
0.0
 10
366.7946820348963
 20
29.44345648214502
 30
0.0
 10
366.718600045252
 20
29.44305374158533
 30
0.0
 10
366.6250633007364
 20
29.4432106762356
 30
0.0
 10
366.5201217786171
 20
29.44313294588173
 30
0.0
 10
366.4117510736332
 20
29.44326256390505
 30
0.0
 10
366.306507723351
 20
29.4428518550264
 30
0.0
 10
366.2139860817026
 20
29.44412865683542
 30
0.0
 10
366.1351753798322
 20
29.44071558546799
 30
0.0
 10
366.0923297562993
 20
29.4475414204827
 30
0.0
 10
366.0533122584129
 20
29.43795856213072
 30
0.0
 10
366.0609988269478
 20
29.47151571577493
 30
0.0
 10
366.0569087401925
 20
29.50254342334182
 30
0.0
 10
366.056915436643
 20
29.54967321282852
 30
0.0
 10
366.0609862722526
 20
29.58071733658728
 30
0.0
 10
366.0533118572197
 20
29.61432653647851
 30
0.0
 10
366.0918442403108
 20
29.60479202432822
 30
0.0
 10
366.1324851012093
 20
29.6112822751002
 30
0.0
 10
366.2035094848077
 20
29.60830942662204
 30
0.0
 10
366.2812941147248
 20
29.60905553411107
 30
0.0
 10
366.3590915244089
 20
29.60978606056476
 30
0.0
 10
366.4300855087521
 20
29.6068502752611
 30
0.0
 10
366.4707902789435
 20
29.61326260784903
 30
0.0
 10
366.5093476487524
 20
29.60381316187951
 30
0.0
 10
366.5010965752542
 20
29.63995484170734
 30
0.0
 10
366.5065969666973
 20
29.67860629625177
 30
0.0
 10
366.5039377203778
 20
29.74644320573789
 30
0.0
 10
366.5049438469146
 20
29.82322433550689
 30
0.0
 10
366.5043801015935
 20
29.90580185594708
 30
0.0
 10
366.5054337524207
 20
29.98248121241827
 30
0.0
 10
366.5026298860745
 20
30.05062782788649
 30
0.0
 10
366.5084325718918
 20
30.08863191821295
 30
0.0
 10
366.4999277548773
 20
30.12489240089596
 30
0.0
 10
366.533923323074
 20
30.11486515783801
 30
0.0
 10
366.5678198680714
 20
30.11804058825657
 30
0.0
 10
366.621029205796
 20
30.11239757652557
 30
0.0
 10
366.6744391572098
 20
30.11165566448376
 30
0.0
 10
366.7079537647105
 20
30.10550015494929
 30
0.0
 10
366.7471709180653
 20
30.11076821785543
 30
0.0
 10
366.7203886696108
 20
30.06984172805437
 30
0.0
 10
366.6791733999339
 20
30.08101996550063
 30
0.0
 10
366.6866264538488
 20
30.03597848204073
 30
0.0
 10
366.6825850949801
 20
29.99143070040095
 30
0.0
 10
366.6845337047253
 20
29.91954364633651
 30
0.0
 10
366.6835987847376
 20
29.83899422600721
 30
0.0
 10
366.6848730187643
 20
29.75904787416944
 30
0.0
 10
366.6815666791481
 20
29.68572629095134
 30
0.0
 10
366.6885729177576
 20
29.64419435014516
 30
0.0
 10
366.678506337774
 20
29.60483210580061
 30
0.0
 10
366.7113437801537
 20
29.6119885544293
 30
0.0
 10
366.7448200294095
 20
29.60758035149895
 30
0.0
 10
366.7998676473633
 20
29.60948735359846
 30
0.0
 10
366.857312559293
 20
29.60916158419239
 30
0.0
 10
366.9106649245925
 20
29.60837100745032
 30
0.0
 10
366.9482163894252
 20
29.61044751130023
 30
0.0
 10
366.9706795520851
 20
29.60753130179059
 30
0.0
 10
366.9835301071345
 20
29.61303344656005
 30
0.0
 10
366.9941878683502
 20
29.61531910209739
 30
0.0
 10
367.007025864776
 20
29.62225764600004
 30
0.0
 10
367.0229614030686
 20
29.60583838325627
 30
0.0
 10
367.0494246918507
 20
29.59439914331397
 30
0.0
 10
367.0810428251372
 20
29.57375479847136
 30
0.0
 10
367.1070878889767
 20
29.55847661640249
 30
0.0
 10
367.1212140721588
 20
29.54997768335134
 30
0.0
 10
367.1253877146094
 20
29.54746663522978
 30
0.0
 11
367.1253877146094
 21
29.54746663522978
 31
0.0
 11
367.1133612999859
 21
29.53204363176138
 31
0.0
 11
367.093258479318
 21
29.52068198245868
 31
0.0
 11
366.9862609353428
 21
29.30171412243109
 31
0.0
 11
366.8560662931939
 21
29.0904799352411
 31
0.0
 11
366.7080163363686
 21
28.88936851039428
 31
0.0
 11
366.781858125135
 21
28.83878176947328
 31
0.0
 11
366.8689287309415
 21
28.77719203665689
 31
0.0
 11
366.9601626748019
 21
28.71143952606376
 31
0.0
 11
367.0464944777302
 21
28.64836445181254
 31
0.0
 11
367.1188586607402
 21
28.59480702802192
 31
0.0
 11
367.1681897448458
 21
28.55760746881054
 31
0.0
 11
367.1570563699828
 21
28.54202202881444
 31
0.0
 11
367.1305075530018
 21
28.50485674882373
 31
0.0
 11
367.0988202553148
 21
28.46049818883483
 31
0.0
 11
367.0722714383338
 21
28.42333290884412
 31
0.0
 11
367.0611380634708
 21
28.40774746884802
 31
0.0
 11
366.9890636360562
 21
28.47484800702568
 31
0.0
 11
366.8936479982996
 21
28.55724146186619
 31
0.0
 11
366.7876887149785
 21
28.64515809378866
 31
0.0
 11
366.6839833508705
 21
28.72882816321216
 31
0.0
 11
366.6839833508705
 21
28.71035479912812
 31
0.0
 11
366.6839833508705
 21
28.65892894775904
 31
0.0
 11
366.6839833508705
 21
28.58054197042948
 31
0.0
 11
366.6839833508705
 21
28.48118522846398
 31
0.0
 11
366.6839833508705
 21
28.3668500831871
 31
0.0
 11
366.6839833508706
 21
28.24352789592339
 31
0.0
 11
366.6839833508705
 21
28.11721002799739
 31
0.0
 11
366.6839833508704
 21
27.99388784073368
 31
0.0
 11
366.6839833508704
 21
27.8795526954568
 31
0.0
 11
366.6839833508706
 21
27.7801959534913
 31
0.0
 11
366.6839833508704
 21
27.70180897616173
 31
0.0
 11
366.6839833508704
 21
27.65038312479266
 31
0.0
 11
366.6839833508705
 21
27.63190976070862
 31
0.0
 11
366.665334389124
 21
27.63190976070862
 31
0.0
 11
366.6208637880364
 21
27.63190976070862
 31
0.0
 11
366.567785973835
 21
27.63190976070862
 31
0.0
 11
366.5233153727474
 21
27.63190976070862
 31
0.0
 11
366.504666411001
 21
27.63190976070862
 31
0.0
 11
366.504666411001
 21
27.65217589472169
 31
0.0
 11
366.504666411001
 21
27.70820579464016
 31
0.0
 11
366.504666411001
 21
27.79284670728297
 31
0.0
 11
366.504666411001
 21
27.89894587946903
 31
0.0
 11
366.504666411001
 21
28.01935055801725
 31
0.0
 11
366.504666411001
 21
28.14690798974656
 31
0.0
 11
366.5046664110009
 21
28.27446542147586
 31
0.0
 11
366.5046664110009
 21
28.39487010002408
 31
0.0
 11
366.504666411001
 21
28.50096927221013
 31
0.0
 11
366.504666411001
 21
28.58561018485295
 31
0.0
 11
366.504666411001
 21
28.64164008477142
 31
0.0
 11
366.504666411001
 21
28.66190621878449
 31
0.0
 11
366.2966895847097
 21
28.47062790286006
 31
0.0
 11
366.084710935604
 21
28.3114567744276
 31
0.0
 11
366.0579252012097
 21
28.36545463964045
 31
0.0
 11
366.0222388412639
 21
28.42419932583977
 31
0.0
 11
365.9883320491739
 21
28.46923663549926
 31
0.0
 11
366.1913910739933
 21
28.61294179213003
 31
0.0
 11
366.3902154955875
 21
28.78899215541938
 31
0.0
 11
366.5760664441793
 21
28.990583065369
 31
0.0
 11
366.7402050499918
 21
29.21090986198059
 31
0.0
 11
366.8738924432479
 21
29.44316788525585
 31
0.0
 11
366.8548879722096
 21
29.44316788525585
 31
0.0
 11
366.8027789387177
 21
29.44316788525585
 31
0.0
 11
366.7249219122062
 21
29.44316788525585
 31
0.0
 11
366.6286734621093
 21
29.44316788525585
 31
0.0
 11
366.5213901578611
 21
29.44316788525585
 31
0.0
 11
366.4104285688959
 21
29.44316788525585
 31
0.0
 11
366.3031452646478
 21
29.44316788525585
 31
0.0
 11
366.2068968145509
 21
29.44316788525585
 31
0.0
 11
366.1290397880393
 21
29.44316788525585
 31
0.0
 11
366.0769307545474
 21
29.44316788525585
 31
0.0
 11
366.0579262835092
 21
29.44316788525585
 31
0.0
 11
366.0579262835092
 21
29.46041991802932
 31
0.0
 11
366.0579262835092
 21
29.50155938079682
 31
0.0
 11
366.0579262835092
 21
29.55066132022899
 31
0.0
 11
366.0579262835092
 21
29.59180078299649
 31
0.0
 11
366.0579262835092
 21
29.60905281576995
 31
0.0
 11
366.0771221483623
 21
29.60905281576995
 31
0.0
 11
366.1277294284298
 21
29.60905281576995
 31
0.0
 11
366.1992776519734
 21
29.60905281576995
 31
0.0
 11
366.2812963472551
 21
29.60905281576995
 31
0.0
 11
366.3633150425368
 21
29.60905281576995
 31
0.0
 11
366.4348632660804
 21
29.60905281576995
 31
0.0
 11
366.4854705461478
 21
29.60905281576995
 31
0.0
 11
366.504666411001
 21
29.60905281576995
 31
0.0
 11
366.504666411001
 21
29.62657344667168
 31
0.0
 11
366.504666411001
 21
29.67352873748831
 31
0.0
 11
366.504666411001
 21
29.74150878538703
 31
0.0
 11
366.5046664110009
 21
29.82210368753499
 31
0.0
 11
366.504666411001
 21
29.90690354109936
 31
0.0
 11
366.504666411001
 21
29.98749844324732
 31
0.0
 11
366.504666411001
 21
30.05547849114603
 31
0.0
 11
366.504666411001
 21
30.10243378196267
 31
0.0
 11
366.504666411001
 21
30.1199544128644
 31
0.0
 11
366.5219107109726
 21
30.11896598179469
 31
0.0
 11
366.5650214609016
 21
30.11649490412042
 31
0.0
 11
366.6210654358092
 21
30.11328250314385
 31
0.0
 11
366.6771094107169
 21
30.1100701021673
 31
0.0
 11
366.7202201606458
 21
30.10759902449302
 31
0.0
 11
366.7374644606174
 21
30.10661059342331
 31
0.0
 11
366.7227397672467
 21
30.0828708538459
 31
0.0
 11
366.6839833508705
 21
30.06914559343262
 31
0.0
 11
366.6839833508705
 21
30.04937598189242
 31
0.0
 11
366.6839833508706
 21
29.99725609692283
 31
0.0
 11
366.6839833508704
 21
29.92356936300029
 31
0.0
 11
366.6839833508705
 21
29.83909920460129
 31
0.0
 11
366.6839833508705
 21
29.75462904620228
 31
0.0
 11
366.6839833508706
 21
29.68094231227974
 31
0.0
 11
366.6839833508705
 21
29.62882242731014
 31
0.0
 11
366.6839833508705
 21
29.60905281576995
 31
0.0
 11
366.6999850110551
 21
29.60905281576995
 31
0.0
 11
366.7412524504784
 21
29.60905281576995
 31
0.0
 11
366.7976793574452
 21
29.60905281576995
 31
0.0
 11
366.8591594202596
 21
29.60905281576995
 31
0.0
 11
366.9155863272263
 21
29.60905281576995
 31
0.0
 11
366.9568537666497
 21
29.60905281576995
 31
0.0
 11
366.9728554268343
 21
29.60905281576995
 31
0.0
 11
366.9811829420539
 21
29.6118217946787
 31
0.0
 11
366.9966483274619
 21
29.61696418408069
 31
0.0
 11
367.0049758426815
 21
29.61973316298944
 31
0.0
 11
367.0174986773621
 21
29.61221744410244
 31
0.0
 11
367.0473608216001
 21
29.59429534521804
 31
0.0
 11
367.0830027356907
 21
29.57290445300118
 31
0.0
 11
367.1128648799289
 21
29.55498235411679
 31
0.0
 11
367.1253877146094
 21
29.54746663522978
 31
0.0
  0
SPLINE
  5
AD
102
{ACAD_REACTORS
330
CA
102
}
330
48
100
AcDbEntity
  8
_U_30EC_U_30A4_U_30E4_U_30FC_1
  6
Continuous
 62
     2
100
AcDbSpline
210
0.0
220
0.0
230
1.0
 70
    11
 71
     3
 72
   124
 73
   120
 74
   118
 42
0.000000001
 43
0.0000000001
 44
0.00000001
 40
0.0
 40
0.0
 40
0.0
 40
0.0
 40
0.0278187229625363
 40
0.1011590162383985
 40
0.2048470170590239
 40
0.3237088716558677
 40
0.4425707262520863
 40
0.5462587270698694
 40
0.6195990203311798
 40
0.6474177522578092
 40
0.6750060736114674
 40
0.735700385524219
 40
0.7963946998053906
 40
0.8239830245571234
 40
0.8540933811101759
 40
0.9373396629409008
 40
1.063094687343125
 40
1.220731268637991
 40
1.399622220914723
 40
1.58914035863765
 40
1.778658496423731
 40
1.957549448940342
 40
2.115186030873049
 40
2.240941056914296
 40
2.324187341760394
 40
2.354297700109243
 40
2.381886024671748
 40
2.442580338710337
 40
2.503274652750357
 40
2.530862977314468
 40
2.560983949278449
 40
2.640393784452766
 40
2.752662861758989
 40
2.881361560118006
 40
3.010060258455025
 40
3.122329335705143
 40
3.201739170817786
 40
3.231860142753175
 40
3.264298024030233
 40
3.352343701778101
 40
3.482095226868631
 40
3.639650650172887
 40
3.811108022565343
 40
3.982565394927851
 40
4.140120818152426
 40
4.269872343141143
 40
4.357918020802203
 40
4.39035590204383
 40
4.423256253992457
 40
4.508104530072836
 40
4.624121560636632
 40
4.750528176031417
 40
4.866545206601864
 40
4.951393482691906
 40
4.984293834645251
 40
5.011450833242166
 40
5.071196230151949
 40
5.130941627057021
 40
5.158098625648685
 40
5.19099897760129
 40
5.275847253689116
 40
5.391864284256664
 40
5.518270899648209
 40
5.634287930209163
 40
5.719136206287836
 40
5.752036558235724
 40
5.782130946282749
 40
5.862783906228924
 40
5.979550131774791
 40
6.117984316640194
 40
6.263641154587739
 40
6.402075339413945
 40
6.518841564907739
 40
6.599494524815325
 40
6.629588912848562
 40
6.654403028226138
 40
6.713575149487877
 40
6.784199939329166
 40
6.843372060493325
 40
6.868186175802485
 40
6.896246243201583
 40
6.9395862337579
 40
6.967846564564531
 40
7.043584251089466
 40
7.153234334451322
 40
7.283231855734072
 40
7.420011856035106
 40
7.550009376579456
 40
7.659659458834851
 40
7.735397144416846
 40
7.763657474851018
 40
7.796409728010647
 40
7.880876065096007
 40
7.996370852465364
 40
8.122208446418202
 40
8.237703224798853
 40
8.322169562010576
 40
8.35492181520556
 40
8.382078813307338
 40
8.441824209206644
 40
8.50156960523979
 40
8.528726603485367
 40
8.561478856695473
 40
8.645945193877523
 40
8.761439980865006
 40
8.88727758076412
 40
9.002772362000698
 40
9.08723869666089
 40
9.119990949235316
 40
9.152428830613015
 40
9.240474508638233
 40
9.370226034149177
 40
9.527781457984062
 40
9.699238830981056
 40
9.870696203978248
 40
10.02825162781367
 40
10.15800315332528
 40
10.24604883135084
 40
10.27848670378486
 40
10.27848670378486
 40
10.27848670378486
 40
10.27848670378486
 10
367.8905450561998
 20
27.89141309397707
 30
0.0
 10
367.8998177735139
 20
27.89141290523224
 30
0.0
 10
367.9335367534476
 20
27.89141222888665
 30
0.0
 10
368.0018329810081
 20
27.89142599255255
 30
0.0
 10
368.1003764709194
 20
27.89134016231495
 30
0.0
 10
368.2145689462427
 20
27.89172547624201
 30
0.0
 10
368.3269517414685
 20
27.89031627909494
 30
0.0
 10
368.4297999597733
 20
27.89449909434193
 30
0.0
 10
368.4890462872463
 20
27.88553881263933
 30
0.0
 10
368.5454888934647
 20
27.89895226538009
 30
0.0
 10
368.5329878584569
 20
27.84817990625311
 30
0.0
 10
368.5413172633317
 20
27.80320112951016
 30
0.0
 10
368.5331793838734
 20
27.75787545002439
 30
0.0
 10
368.5454152212072
 20
27.70662724420418
 30
0.0
 10
368.4831396487947
 20
27.72178747377226
 30
0.0
 10
368.4144136024483
 20
27.71090542722694
 30
0.0
 10
368.2866379747205
 20
27.71642096759921
 30
0.0
 10
368.1346607509258
 20
27.71431643265648
 30
0.0
 10
367.9586318970138
 20
27.71501794600424
 30
0.0
 10
367.7728054931901
 20
27.71476029543241
 30
0.0
 10
367.5869790434791
 20
27.71501797156554
 30
0.0
 10
367.4109503139783
 20
27.71431633859681
 30
0.0
 10
367.2589727151809
 20
27.71642124241938
 30
0.0
 10
367.1311980662169
 20
27.71090472779591
 30
0.0
 10
367.0624700834196
 20
27.72178869137892
 30
0.0
 10
367.0001972040498
 20
27.7066257869616
 30
0.0
 10
367.0124239287632
 20
27.75788302817121
 30
0.0
 10
367.0043627460212
 20
27.80313265284375
 30
0.0
 10
367.0124298807507
 20
27.84837149967272
 30
0.0
 10
367.0001861484699
 20
27.89964968921909
 30
0.0
 10
367.0608640118313
 20
27.88480369375085
 30
0.0
 10
367.1246433743351
 20
27.89487240182684
 30
0.0
 10
367.2360937351118
 20
27.8902543622395
 30
0.0
 10
367.3581156441439
 20
27.89144120917419
 30
0.0
 10
367.4803161135437
 20
27.89246655912584
 30
0.0
 10
367.5913417285008
 20
27.88823267635352
 30
0.0
 10
367.6560140411572
 20
27.89749376533689
 30
0.0
 10
367.7174785808116
 20
27.88335215061632
 30
0.0
 10
367.7013688598953
 20
27.94966319896467
 30
0.0
 10
367.7126603324974
 20
28.02178582133926
 30
0.0
 10
367.7071023820175
 20
28.15244552900236
 30
0.0
 10
367.7091658059304
 20
28.30338115720191
 30
0.0
 10
367.708379012491
 20
28.47066665119837
 30
0.0
 10
367.7091468213242
 20
28.63791902344252
 30
0.0
 10
367.7071661783243
 20
28.78894081281866
 30
0.0
 10
367.7124929154235
 20
28.91936861564944
 30
0.0
 10
367.7016724386039
 20
28.99196234617851
 30
0.0
 10
367.7173949427491
 20
29.0588126144875
 30
0.0
 10
367.6516331130105
 20
29.04311304502776
 30
0.0
 10
367.5839990828378
 20
29.05340035095946
 30
0.0
 10
367.4699508291426
 20
29.04844578859073
 30
0.0
 10
367.3534865672517
 20
29.05144920042425
 30
0.0
 10
367.2390177119092
 20
29.04611095155341
 30
0.0
 10
367.1723947655427
 20
29.05732060086775
 30
0.0
 10
367.1074392712799
 20
29.04079924676963
 30
0.0
 10
367.1191612756323
 20
29.0920451248901
 30
0.0
 10
367.1116453186736
 20
29.13681125796041
 30
0.0
 10
367.1191612876451
 20
29.18157736909912
 30
0.0
 10
367.1074392502962
 20
29.23282328141687
 30
0.0
 10
367.1723949336813
 20
29.21630173778766
 30
0.0
 10
367.2390156337436
 20
29.22751363385893
 30
0.0
 10
367.3534975855678
 20
29.22216228722614
 30
0.0
 10
367.4699077434577
 20
29.22521980783067
 30
0.0
 10
367.5841283172257
 20
29.22009291022659
 30
0.0
 10
367.6513773436839
 20
29.23076525367547
 30
0.0
 10
367.7166948939054
 20
29.21472874681027
 30
0.0
 10
367.7025014446166
 20
29.27680477762003
 30
0.0
 10
367.711968246061
 20
29.34317553640713
 30
0.0
 10
367.70738920017
 20
29.45970764753916
 30
0.0
 10
367.7091319553563
 20
29.59157477034326
 30
0.0
 10
367.7081174493006
 20
29.73346752162222
 30
0.0
 10
367.7100814341989
 20
29.8649984271453
 30
0.0
 10
367.7048291551464
 20
29.98255369294951
 30
0.0
 10
367.7157031761089
 20
30.04678581013532
 30
0.0
 10
367.7003159639468
 20
30.10839594556997
 30
0.0
 10
367.7491214535415
 20
30.09433199394061
 30
0.0
 10
367.7937618562341
 20
30.09685534087265
 30
0.0
 10
367.8622266944357
 20
30.09243589413658
 30
0.0
 10
367.9042729166716
 20
30.08343817555987
 30
0.0
 10
367.957116775639
 20
30.09142506878457
 30
0.0
 10
367.9290657999629
 20
30.04844709623628
 30
0.0
 10
367.8832765246209
 20
30.05990344055783
 30
0.0
 10
367.895316207088
 20
29.99904312017086
 30
0.0
 10
367.8879709068256
 20
29.93500091480723
 30
0.0
 10
367.8914818823777
 20
29.8264016087586
 30
0.0
 10
367.8903429757789
 20
29.70225111156702
 30
0.0
 10
367.8902797777877
 20
29.56920511841826
 30
0.0
 10
367.8916495964484
 20
29.44528173261506
 30
0.0
 10
367.8875261798927
 20
29.33599129861287
 30
0.0
 10
367.8961386101179
 20
29.2733937210612
 30
0.0
 10
367.8830380452016
 20
29.21470925308316
 30
0.0
 10
367.9477507325813
 20
29.23092905822853
 30
0.0
 10
368.014402895077
 20
29.22001052395261
 30
0.0
 10
368.1282402538718
 20
29.22524532185705
 30
0.0
 10
368.2440882119712
 20
29.22216339528865
 30
0.0
 10
368.3580547260894
 20
29.22749051824462
 30
0.0
 10
368.4243964015714
 20
29.21635000178492
 30
0.0
 10
368.4890811523094
 20
29.23277771605127
 30
0.0
 10
368.4773443770338
 20
29.18156717222
 30
0.0
 10
368.4848791060656
 20
29.13681126132952
 30
0.0
 10
368.4773443989875
 20
29.09205531021977
 30
0.0
 10
368.4890811138351
 20
29.04084482882989
 30
0.0
 10
368.4243967072866
 20
29.0572721980617
 30
0.0
 10
368.358050942844
 20
29.0461357645922
 30
0.0
 10
368.2441082484626
 20
29.05143907905071
 30
0.0
 10
368.128161862067
 20
29.04845556605495
 30
0.0
 10
368.0146379879736
 20
29.05337684280344
 30
0.0
 10
367.9472854316419
 20
29.04315879525469
 30
0.0
 10
367.881790812011
 20
29.05876788150766
 30
0.0
 10
367.8975336616833
 20
28.99194643839361
 30
0.0
 10
367.8866898995827
 20
28.91937849827828
 30
0.0
 10
367.8920204627408
 20
28.78893039626368
 30
0.0
 10
367.8900759149471
 20
28.63795350197176
 30
0.0
 10
367.8906756680828
 20
28.47053035946109
 30
0.0
 10
367.890512955722
 20
28.30386968130322
 30
0.0
 10
367.8905518485749
 20
28.15090934933586
 30
0.0
 10
367.8905439410716
 20
28.02579970997656
 30
0.0
 10
367.8905451380359
 20
27.94238683003369
 30
0.0
 10
367.8905450713823
 20
27.90222570293926
 30
0.0
 10
367.8905450561998
 20
27.89141309397707
 30
0.0
 11
367.8905450561998
 21
27.89141309397707
 31
0.0
 11
367.9183637881291
 21
27.89141309397707
 31
0.0
 11
367.9917040813968
 21
27.89141309397707
 31
0.0
 11
368.0953920822237
 21
27.89141309397707
 31
0.0
 11
368.2142539368301
 21
27.89141309397707
 31
0.0
 11
368.3331157914365
 21
27.89141309397707
 31
0.0
 11
368.4368037922634
 21
27.89141309397707
 31
0.0
 11
368.5101440855313
 21
27.89141309397707
 31
0.0
 11
368.5379628174604
 21
27.89141309397707
 31
0.0
 11
368.5379628174604
 21
27.8638247693312
 31
0.0
 11
368.5379628174604
 21
27.80313045511027
 31
0.0
 11
368.5379628174604
 21
27.74243614088935
 31
0.0
 11
368.5379628174604
 21
27.71484781624347
 31
0.0
 11
368.5078524591108
 21
27.71484781624347
 31
0.0
 11
368.4246061742618
 21
27.71484781624347
 31
0.0
 11
368.2988511482135
 21
27.71484781624347
 31
0.0
 11
368.1412145662655
 21
27.71484781624347
 31
0.0
 11
367.9623236137178
 21
27.71484781624347
 31
0.0
 11
367.7728054758703
 21
27.71484781624347
 31
0.0
 11
367.5832873380228
 21
27.71484781624347
 31
0.0
 11
367.4043963854751
 21
27.71484781624347
 31
0.0
 11
367.2467598035271
 21
27.71484781624347
 31
0.0
 11
367.1210047774787
 21
27.71484781624347
 31
0.0
 11
367.0377584926298
 21
27.71484781624347
 31
0.0
 11
367.0076481342802
 21
27.71484781624347
 31
0.0
 11
367.0076481342802
 21
27.74243614088935
 31
0.0
 11
367.0076481342802
 21
27.80313045511027
 31
0.0
 11
367.0076481342802
 21
27.8638247693312
 31
0.0
 11
367.0076481342802
 21
27.89141309397707
 31
0.0
 11
367.0377691062562
 21
27.89141309397707
 31
0.0
 11
367.1171789414655
 21
27.89141309397707
 31
0.0
 11
367.2294480188305
 21
27.89141309397707
 31
0.0
 11
367.3581467172733
 21
27.89141309397707
 31
0.0
 11
367.486845415716
 21
27.89141309397707
 31
0.0
 11
367.5991144930809
 21
27.89141309397707
 31
0.0
 11
367.6785243282903
 21
27.89141309397707
 31
0.0
 11
367.7086453002663
 21
27.89141309397707
 31
0.0
 11
367.7086453002663
 21
27.92385097535785
 31
0.0
 11
367.7086453002664
 21
28.0118966533914
 31
0.0
 11
367.7086453002663
 21
28.14164817891453
 31
0.0
 11
367.7086453002663
 21
28.29920360276404
 31
0.0
 11
367.7086453002663
 21
28.47066097577674
 31
0.0
 11
367.7086453002663
 21
28.64211834878944
 31
0.0
 11
367.7086453002663
 21
28.79967377263895
 31
0.0
 11
367.7086453002663
 21
28.92942529816208
 31
0.0
 11
367.7086453002663
 21
29.01747097619563
 31
0.0
 11
367.7086453002663
 21
29.04990885757641
 31
0.0
 11
367.6757449483143
 21
29.04990885757641
 31
0.0
 11
367.5908966722278
 21
29.04990885757642
 31
0.0
 11
367.4748796416603
 21
29.04990885757641
 31
0.0
 11
367.3484730262659
 21
29.04990885757641
 31
0.0
 11
367.2324559956985
 21
29.04990885757641
 31
0.0
 11
367.1476077196118
 21
29.04990885757641
 31
0.0
 11
367.1147073676599
 21
29.04990885757641
 31
0.0
 11
367.1147073676599
 21
29.07706585626753
 31
0.0
 11
367.1147073676599
 21
29.136811253388
 31
0.0
 11
367.1147073676599
 21
29.19655665050848
 31
0.0
 11
367.1147073676599
 21
29.2237136491996
 31
0.0
 11
367.1476077196118
 21
29.2237136491996
 31
0.0
 11
367.2324559956984
 21
29.2237136491996
 31
0.0
 11
367.3484730262659
 21
29.2237136491996
 31
0.0
 11
367.4748796416603
 21
29.2237136491996
 31
0.0
 11
367.5908966722277
 21
29.2237136491996
 31
0.0
 11
367.6757449483143
 21
29.2237136491996
 31
0.0
 11
367.7086453002663
 21
29.2237136491996
 31
0.0
 11
367.7086453002664
 21
29.2538080374332
 31
0.0
 11
367.7086453002663
 21
29.33446099789924
 31
0.0
 11
367.7086453002663
 21
29.45122722424559
 31
0.0
 11
367.7086453002663
 21
29.58966141012013
 31
0.0
 11
367.7086453002663
 21
29.73531824917073
 31
0.0
 11
367.7086453002663
 21
29.87375243504528
 31
0.0
 11
367.7086453002663
 21
29.99051866139163
 31
0.0
 11
367.7086453002664
 21
30.07117162185767
 31
0.0
 11
367.7086453002663
 21
30.10126601009127
 31
0.0
 11
367.7334028286233
 21
30.09959116231392
 31
0.0
 11
367.7924400116284
 21
30.09559729453715
 31
0.0
 11
367.8629037461829
 21
30.09083042009391
 31
0.0
 11
367.9219409291881
 21
30.08683655231714
 31
0.0
 11
367.946698457545
 21
30.08516170453979
 31
0.0
 11
367.9316690221644
 21
30.06146606218459
 31
0.0
 11
367.8905450561998
 21
30.04778489899353
 31
0.0
 11
367.8905450561999
 21
30.01952456806781
 31
0.0
 11
367.8905450561998
 21
29.94378688118689
 31
0.0
 11
367.8905450561998
 21
29.8341367971951
 31
0.0
 11
367.8905450561998
 21
29.7041392749368
 31
0.0
 11
367.8905450561998
 21
29.56735927325633
 31
0.0
 11
367.8905450561998
 21
29.43736175099803
 31
0.0
 11
367.8905450561998
 21
29.32771166700624
 31
0.0
 11
367.8905450561998
 21
29.25197398012531
 31
0.0
 11
367.8905450561998
 21
29.2237136491996
 31
0.0
 11
367.9232973093729
 21
29.2237136491996
 31
0.0
 11
368.0077636465037
 21
29.2237136491996
 31
0.0
 11
368.1232584340091
 21
29.2237136491996
 31
0.0
 11
368.249096038306
 21
29.2237136491996
 31
0.0
 11
368.3645908258113
 21
29.2237136491996
 31
0.0
 11
368.4490571629422
 21
29.2237136491996
 31
0.0
 11
368.4818094161153
 21
29.2237136491996
 31
0.0
 11
368.4818094161153
 21
29.19655665050848
 31
0.0
 11
368.4818094161153
 21
29.136811253388
 31
0.0
 11
368.4818094161153
 21
29.07706585626753
 31
0.0
 11
368.4818094161153
 21
29.04990885757641
 31
0.0
 11
368.449057162942
 21
29.0499088575764
 31
0.0
 11
368.3645908258113
 21
29.0499088575764
 31
0.0
 11
368.249096038306
 21
29.04990885757641
 31
0.0
 11
368.1232584340091
 21
29.04990885757641
 31
0.0
 11
368.0077636465037
 21
29.0499088575764
 31
0.0
 11
367.9232973093729
 21
29.0499088575764
 31
0.0
 11
367.8905450561998
 21
29.04990885757641
 31
0.0
 11
367.8905450561998
 21
29.01747097619563
 31
0.0
 11
367.8905450561998
 21
28.92942529816208
 31
0.0
 11
367.8905450561999
 21
28.79967377263895
 31
0.0
 11
367.8905450561998
 21
28.64211834878945
 31
0.0
 11
367.8905450561998
 21
28.47066097577674
 31
0.0
 11
367.8905450561998
 21
28.29920360276403
 31
0.0
 11
367.8905450561998
 21
28.14164817891453
 31
0.0
 11
367.8905450561998
 21
28.0118966533914
 31
0.0
 11
367.8905450561998
 21
27.92385097535785
 31
0.0
 11
367.8905450561998
 21
27.89141309397707
 31
0.0
  0
SPLINE
  5
AE
102
{ACAD_REACTORS
330
CB
102
}
330
48
100
AcDbEntity
  8
_U_30EC_U_30A4_U_30E4_U_30FC_1
  6
Continuous
 62
     2
100
AcDbSpline
210
0.0
220
0.0
230
1.0
 70
     8
 71
     3
 72
    62
 73
    58
 74
    56
 42
0.000000001
 43
0.0000000001
 44
0.00000001
 40
0.0
 40
0.0
 40
0.0
 40
0.0
 40
0.0598250028307916
 40
0.2024846486896763
 40
0.3727558389219894
 40
0.5154154847934365
 40
0.5752404975784202
 40
0.933232677548605
 40
1.29045176283939
 40
1.602077253145748
 40
1.699931634111982
 40
1.79935975642488
 40
2.270120149656992
 40
2.80466192846145
 40
2.882342287383165
 40
3.076543185719012
 40
3.329004354835473
 40
3.581465524568299
 40
3.775666424543581
 40
3.853346784558199
 40
3.899120679594888
 40
3.984129341791914
 40
4.029903236817291
 40
4.105797496059446
 40
4.295533144152409
 40
4.542189486611648
 40
4.788845828875599
 40
4.978581476409979
 40
5.054475735244226
 40
5.621734664339246
 40
6.130867242037294
 40
6.225249780948523
 40
6.318913039727179
 40
6.663579954558753
 40
7.047498900224546
 40
7.435230791575472
 40
7.498943906667884
 40
7.650875181209821
 40
7.832212509001303
 40
7.984143783696717
 40
8.047856898902815
 40
8.091554632732322
 40
8.172707566963982
 40
8.216405300767711
 40
8.289021782160681
 40
8.46218416075694
 40
8.668861838005078
 40
8.842024215263642
 40
8.914640695474837
 40
8.989881580861045
 40
9.15541152882695
 40
9.320941477743734
 40
9.396182352486983
 40
9.45470901114353
 40
9.583467660170493
 40
9.712226309012715
 40
9.770752957989226
 40
9.770752957989226
 40
9.770752957989226
 40
9.770752957989226
 10
359.6605494689447
 20
28.81711080207899
 30
0.0
 10
359.6405971169237
 20
28.8171166758062
 30
0.0
 10
359.5730660714079
 20
28.81713655818107
 30
0.0
 10
359.4494235159403
 20
28.81680154532275
 30
0.0
 10
359.2946803147671
 20
28.8183846576246
 30
0.0
 10
359.1780972480095
 20
28.81416870872446
 30
0.0
 10
358.9634565631856
 20
28.82945997343574
 30
0.0
 10
359.3602571404843
 20
28.46929513298141
 30
0.0
 10
359.4029279066883
 20
28.25241295409119
 30
0.0
 10
359.8272785144226
 20
28.07055854523396
 30
0.0
 10
359.6523444493689
 20
27.96715988580022
 30
0.0
 10
359.52781469227
 20
27.7556231522467
 30
0.0
 10
359.2749900233557
 20
28.22536873013507
 30
0.0
 10
358.9881225891242
 20
28.8724230899647
 30
0.0
 10
358.9989958924273
 20
28.56513464166644
 30
0.0
 10
358.9966515775575
 20
28.40019408983728
 30
0.0
 10
358.9944719124026
 20
28.16610462723644
 30
0.0
 10
359.0064397393962
 20
27.92228864433731
 30
0.0
 10
358.9771607738245
 20
27.77586588872936
 30
0.0
 10
359.0198145623085
 20
27.62844282186489
 30
0.0
 10
358.9323437003255
 20
27.64416589318171
 30
0.0
 10
358.8852150604358
 20
27.64425095555404
 30
0.0
 10
358.7982596205329
 20
27.62840217494859
 30
0.0
 10
358.8397097019337
 20
27.77258563434711
 30
0.0
 10
358.8113498001901
 20
27.91585844710406
 30
0.0
 10
358.8229596772913
 20
28.15405739377215
 30
0.0
 10
358.8207798645888
 20
28.38248027252295
 30
0.0
 10
358.8186734125609
 20
28.54436521387946
 30
0.0
 10
358.8291658435938
 20
28.858845013457
 30
0.0
 10
358.5212586250507
 20
28.16960262884383
 30
0.0
 10
358.2138881265071
 20
27.69207542255
 30
0.0
 10
358.093499006389
 20
27.91471904649376
 30
0.0
 10
357.9158230908337
 20
28.02741826967521
 30
0.0
 10
358.393694936051
 20
28.2027893547741
 30
0.0
 10
358.443758205482
 20
28.43822721263983
 30
0.0
 10
358.8667422619333
 20
28.83053781356559
 30
0.0
 10
358.6360377271154
 20
28.81386099041013
 30
0.0
 10
358.5133308856956
 20
28.82000310960721
 30
0.0
 10
358.3409106093276
 20
28.81043614711523
 30
0.0
 10
358.2296847692065
 20
28.83179610501614
 30
0.0
 10
358.1109402625062
 20
28.7986705736937
 30
0.0
 10
358.1266792704301
 20
28.87934692618833
 30
0.0
 10
358.1262173931377
 20
28.92376206302803
 30
0.0
 10
358.1111504887546
 20
29.00697873790487
 30
0.0
 10
358.2456003933058
 20
28.96793443995833
 30
0.0
 10
358.3703378543362
 20
28.99470521340373
 30
0.0
 10
358.5712378234894
 20
28.97794741056001
 30
0.0
 10
358.7005163946968
 20
28.99935017924955
 30
0.0
 10
358.8412042925908
 20
28.96599570865369
 30
0.0
 10
358.806455045023
 20
29.10382667797018
 30
0.0
 10
358.8305808664327
 20
29.22694049361431
 30
0.0
 10
358.8050709180008
 20
29.34754847682285
 30
0.0
 10
358.8416874144299
 20
29.48270657153444
 30
0.0
 10
358.7295040025385
 20
29.45825337793842
 30
0.0
 10
358.636397945475
 20
29.47038541853971
 30
0.0
 10
358.5275170577436
 20
29.46688422081945
 30
0.0
 10
358.4653320638578
 20
29.46712547963552
 30
0.0
 10
358.4458992554861
 20
29.46720087136094
 30
0.0
 11
359.6605494689447
 21
28.81711080207899
 31
0.0
 11
359.6007244561596
 21
28.81711080207899
 31
0.0
 11
359.4580648102874
 21
28.81711080207899
 31
0.0
 11
359.2877936200529
 21
28.81711080207899
 31
0.0
 11
359.1451339741807
 21
28.81711080207899
 31
0.0
 11
359.0853089613955
 21
28.81711080207899
 31
0.0
 11
359.2763583752457
 21
28.51435919978841
 31
0.0
 11
359.5024895783245
 21
28.23782682588634
 31
0.0
 11
359.7328149170986
 21
28.02792045505407
 31
0.0
 11
359.6605219328319
 21
27.96197195680666
 31
0.0
 11
359.5962987400258
 21
27.8860685106451
 31
0.0
 11
359.2816441213172
 21
28.23622250361312
 31
0.0
 11
358.9970263247591
 21
28.6886908715555
 31
0.0
 11
358.997026324759
 21
28.61101051149262
 31
0.0
 11
358.9970263247591
 21
28.41680961133542
 31
0.0
 11
358.9970263247591
 21
28.16434844113106
 31
0.0
 11
358.9970263247591
 21
27.9118872709267
 31
0.0
 11
358.9970263247591
 21
27.7176863707695
 31
0.0
 11
358.9970263247591
 21
27.64000601070662
 31
0.0
 11
358.951252429322
 21
27.64000601070662
 31
0.0
 11
358.8662437663673
 21
27.64000601070662
 31
0.0
 11
358.8204698709302
 21
27.64000601070662
 31
0.0
 11
358.8204698709301
 21
27.7159002699469
 31
0.0
 11
358.8204698709302
 21
27.90563591804762
 31
0.0
 11
358.8204698709302
 21
28.15229226057853
 31
0.0
 11
358.8204698709303
 21
28.39894860310946
 31
0.0
 11
358.8204698709302
 21
28.58868425121016
 31
0.0
 11
358.8204698709302
 21
28.66457851045045
 31
0.0
 11
358.5071249396881
 21
28.19171738209643
 31
0.0
 11
358.1435951659763
 21
27.83525969121332
 31
0.0
 11
358.0857550459242
 21
27.90984242556972
 31
0.0
 11
358.0178475302956
 21
27.97435114951193
 31
0.0
 11
358.2834344895934
 21
28.1940301180784
 31
0.0
 11
358.5317387969675
 21
28.48684187983647
 31
0.0
 11
358.7348605802874
 21
28.81711080207899
 31
0.0
 11
358.6711474650335
 21
28.81711080207899
 31
0.0
 11
358.5192161901973
 21
28.81711080207899
 31
0.0
 11
358.337878862167
 21
28.81711080207899
 31
0.0
 11
358.1859475873308
 21
28.81711080207899
 31
0.0
 11
358.1222344720769
 21
28.81711080207899
 31
0.0
 11
358.1222344720769
 21
28.86080853612157
 31
0.0
 11
358.1222344720769
 21
28.94196147077209
 31
0.0
 11
358.1222344720769
 21
28.98565920481467
 31
0.0
 11
358.1948509535577
 21
28.98565920481467
 31
0.0
 11
358.3680133324733
 21
28.98565920481467
 31
0.0
 11
358.5746910105338
 21
28.98565920481467
 31
0.0
 11
358.7478533894495
 21
28.98565920481467
 31
0.0
 11
358.8204698709302
 21
28.98565920481467
 31
0.0
 11
358.8204698709302
 21
29.06090009021253
 31
0.0
 11
358.8204698709302
 21
29.22643003808781
 31
0.0
 11
358.8204698709302
 21
29.39195998596309
 31
0.0
 11
358.8204698709302
 21
29.46720087136094
 31
0.0
 11
358.7619432122671
 21
29.46720087136094
 31
0.0
 11
358.6331845632081
 21
29.46720087136094
 31
0.0
 11
358.5044259141492
 21
29.46720087136094
 31
0.0
 11
358.4458992554861
 21
29.46720087136094
 31
0.0
  0
SPLINE
  5
AF
102
{ACAD_REACTORS
330
CB
102
}
330
48
100
AcDbEntity
  8
_U_30EC_U_30A4_U_30E4_U_30FC_1
  6
Continuous
 62
     2
100
AcDbSpline
210
0.0
220
0.0
230
1.0
 70
     8
 71
     3
 72
    70
 73
    66
 74
    64
 42
0.000000001
 43
0.0000000001
 44
0.00000001
 40
0.0
 40
0.0
 40
0.0
 40
0.0
 40
0.0241731073021472
 40
0.0846058988987582
 40
0.1631685280353284
 40
0.241731157179004
 40
0.3021639488292751
 40
0.3263370654896109
 40
0.3533118254249432
 40
0.4228783438922662
 40
0.5179999095314024
 40
0.6216398239466671
 40
0.7167613891500274
 40
0.7863279069650467
 40
0.8133026791762404
 40
0.8372943998772244
 40
0.8945054261373153
 40
0.9627895541963488
 40
1.020000580349131
 40
1.043992300975257
 40
1.071934345523005
 40
1.113121768773017
 40
1.145225199332345
 40
1.22548377541288
 40
1.329819923771585
 40
1.43415607199448
 40
1.514414647795896
 40
1.546518078208504
 40
1.578974764260221
 40
1.662678849314244
 40
1.777131373668493
 40
1.901833377474856
 40
2.016285900500674
 40
2.099989982528013
 40
2.132446666570371
 40
2.158782354486093
 40
2.216720867907886
 40
2.274659381334307
 40
2.300995069256243
 40
2.333451754066272
 40
2.417155836543981
 40
2.531608358985392
 40
2.656310362283858
 40
2.770762886389019
 40
2.854466971340213
 40
2.886923657363963
 40
2.913597976833395
 40
2.982389642875202
 40
3.07645171694706
 40
3.178937260458679
 40
3.272999334740086
 40
3.341791001059307
 40
3.368465320663618
 40
3.396976080738896
 40
3.472140811846075
 40
3.578408190308765
 40
3.700226892456201
 40
3.82204559463439
 40
3.928312973256411
 40
4.003477705314865
 40
4.031988456866931
 40
4.058324144797731
 40
4.116262658236896
 40
4.174201171400697
 40
4.200536849608633
 40
4.200536849608633
 40
4.200536849608633
 40
4.200536849608633
 10
358.4941327959224
 20
29.63574927409655
 30
0.0
 10
358.5021882542295
 20
29.63575151823637
 30
0.0
 10
358.5303823660854
 20
29.63575938044746
 30
0.0
 10
358.5849157801288
 20
29.63561546840322
 30
0.0
 10
358.6566514806219
 20
29.63639912511848
 30
0.0
 10
358.7319863134676
 20
29.63358362475759
 30
0.0
 10
358.7796675364053
 20
29.64029195412907
 30
0.0
 10
358.8278694243231
 20
29.6292835570438
 30
0.0
 10
358.8146194797487
 20
29.68277195008982
 30
0.0
 10
358.8234716962153
 20
29.73780375555042
 30
0.0
 10
358.81923210339
 20
29.83150700738059
 30
0.0
 10
358.8217106478896
 20
29.92690274230483
 30
0.0
 10
358.8174561703676
 20
30.02087613995337
 30
0.0
 10
358.8263441663462
 20
30.07525854449962
 30
0.0
 10
358.8130600407559
 20
30.1296478970341
 30
0.0
 10
358.8597742274723
 20
30.11573008347307
 30
0.0
 10
358.9026877543352
 20
30.11834669385993
 30
0.0
 10
358.9689066454298
 20
30.11379214462705
 30
0.0
 10
359.0096965269414
 20
30.10508954146111
 30
0.0
 10
359.0608768688434
 20
30.11262591902146
 30
0.0
 10
359.0337343484813
 20
30.07080762235234
 30
0.0
 10
358.9886719053322
 20
30.08015784084547
 30
0.0
 10
359.0025688042663
 20
30.01571999383785
 30
0.0
 10
358.994203742927
 20
29.9510901163935
 30
0.0
 10
358.9987255176013
 20
29.85259933205837
 30
0.0
 10
358.9938364308782
 20
29.7532672485452
 30
0.0
 10
359.0033881989694
 20
29.69023907564919
 30
0.0
 10
358.9883384452815
 20
29.6269480351174
 30
0.0
 10
359.0532782454823
 20
29.64245864956218
 30
0.0
 10
359.1199869397112
 20
29.63230179709763
 30
0.0
 10
359.2325058468443
 20
29.63719592111318
 30
0.0
 10
359.3473858446568
 20
29.63421996744734
 30
0.0
 10
359.4603494997362
 20
29.63952456196942
 30
0.0
 10
359.5259890595292
 20
29.62838098484038
 30
0.0
 10
359.5899899688668
 20
29.64475324331807
 30
0.0
 10
359.5786765886805
 20
29.59492481917225
 30
0.0
 10
359.5858962869124
 20
29.55147507224073
 30
0.0
 10
359.5786765608883
 20
29.50802537599394
 30
0.0
 10
359.5899900173609
 20
29.45819687208824
 30
0.0
 10
359.5259886596587
 20
29.47456958103314
 30
0.0
 10
359.4603544238074
 20
29.46342063673536
 30
0.0
 10
359.3473597314945
 20
29.46875649218805
 30
0.0
 10
359.2326079546258
 20
29.4656513767577
 30
0.0
 10
359.1196806684476
 20
29.47095686694539
 30
0.0
 10
359.0538843901201
 20
29.45988092031545
 30
0.0
 10
358.9899720972972
 20
29.47618389859565
 30
0.0
 10
359.0019638162743
 20
29.42154316407692
 30
0.0
 10
358.9945727610619
 20
29.36585087059792
 30
0.0
 10
358.9976307839598
 20
29.2738048115252
 30
0.0
 10
358.9977045783297
 20
29.1790990188505
 30
0.0
 10
358.9943936575976
 20
29.08683574914216
 30
0.0
 10
359.0023128987518
 20
29.03166560748088
 30
0.0
 10
358.9898699609232
 20
28.97788961112085
 30
0.0
 10
359.0472739549245
 20
28.9918456087473
 30
0.0
 10
359.1078331137999
 20
28.98242249896178
 30
0.0
 10
359.2132303852694
 20
28.98673677940653
 30
0.0
 10
359.3287917068237
 20
28.98566296623983
 30
0.0
 10
359.4443311875411
 20
28.98456757912945
 30
0.0
 10
359.5497804128455
 20
28.98893317782582
 30
0.0
 10
359.6102303469417
 20
28.9794021804262
 30
0.0
 10
359.6676460736724
 20
28.99348081618329
 30
0.0
 10
359.656139687432
 20
28.94437945277632
 30
0.0
 10
359.6621189779365
 20
28.90295450030599
 30
0.0
 10
359.6603934048414
 20
28.85382469978644
 30
0.0
 10
359.6605123120585
 20
28.82585220459557
 30
0.0
 10
359.6605494689447
 20
28.81711080207899
 30
0.0
 11
358.4941327959224
 21
29.63574927409655
 31
0.0
 11
358.5183059125896
 21
29.63574927409655
 31
0.0
 11
358.5787387042578
 21
29.63574927409655
 31
0.0
 11
358.6573013334263
 21
29.63574927409655
 31
0.0
 11
358.7358639625949
 21
29.63574927409655
 31
0.0
 11
358.7962967542629
 21
29.63574927409655
 31
0.0
 11
358.8204698709302
 21
29.63574927409655
 31
0.0
 11
358.8204698709301
 21
29.66272404632013
 31
0.0
 11
358.8204698709302
 21
29.73229056415989
 31
0.0
 11
358.8204698709302
 21
29.82741212936936
 31
0.0
 11
358.8204698709302
 21
29.93105204370206
 31
0.0
 11
358.8204698709302
 21
30.02617360891152
 31
0.0
 11
358.8204698709302
 21
30.09574012675128
 31
0.0
 11
358.8204698709302
 21
30.12271489897486
 31
0.0
 11
358.8444030602507
 21
30.1210400511975
 31
0.0
 11
358.9014745117072
 21
30.11704618342071
 31
0.0
 11
358.9695920505425
 21
30.11227930897746
 31
0.0
 11
359.0266635019991
 21
30.10828544120067
 31
0.0
 11
359.0505966913196
 21
30.10661059342331
 31
0.0
 11
359.0358595728844
 21
30.0828708538459
 31
0.0
 11
358.9970263247591
 21
30.06914559343262
 31
0.0
 11
358.997026324759
 21
30.03704216237068
 31
0.0
 11
358.9970263247591
 21
29.95678358471586
 31
0.0
 11
358.9970263247591
 21
29.85244743376458
 31
0.0
 11
358.9970263247591
 21
29.7481112828133
 31
0.0
 11
358.997026324759
 21
29.66785270515848
 31
0.0
 11
358.9970263247591
 21
29.63574927409655
 31
0.0
 11
359.0294830108439
 21
29.63574927409654
 31
0.0
 11
359.1131870960101
 21
29.63574927409655
 31
0.0
 11
359.2276396206249
 21
29.63574927409655
 31
0.0
 11
359.3523416250561
 21
29.63574927409655
 31
0.0
 11
359.4667941496709
 21
29.63574927409655
 31
0.0
 11
359.5504982348371
 21
29.63574927409655
 31
0.0
 11
359.5829549209219
 21
29.63574927409655
 31
0.0
 11
359.5829549209219
 21
29.60941358616911
 31
0.0
 11
359.5829549209219
 21
29.55147507272875
 31
0.0
 11
359.5829549209219
 21
29.49353655928838
 31
0.0
 11
359.5829549209219
 21
29.46720087136094
 31
0.0
 11
359.5504982348371
 21
29.46720087136094
 31
0.0
 11
359.4667941496709
 21
29.46720087136094
 31
0.0
 11
359.3523416250561
 21
29.46720087136094
 31
0.0
 11
359.2276396206249
 21
29.46720087136094
 31
0.0
 11
359.11318709601
 21
29.46720087136094
 31
0.0
 11
359.0294830108438
 21
29.46720087136094
 31
0.0
 11
358.9970263247591
 21
29.46720087136094
 31
0.0
 11
358.9970263247591
 21
29.44052655163972
 31
0.0
 11
358.9970263247591
 21
29.37173488499025
 31
0.0
 11
358.9970263247591
 21
29.27767281018384
 31
0.0
 11
358.9970263247591
 21
29.17518726599177
 31
0.0
 11
358.9970263247591
 21
29.08112519118536
 31
0.0
 11
358.9970263247591
 21
29.01233352453589
 31
0.0
 11
358.9970263247591
 21
28.98565920481467
 31
0.0
 11
359.0255370848608
 21
28.98565920481467
 31
0.0
 11
359.1007018160381
 21
28.98565920481467
 31
0.0
 11
359.2069691945991
 21
28.98565920481467
 31
0.0
 11
359.3287878968518
 21
28.98565920481467
 31
0.0
 11
359.4506065991047
 21
28.98565920481467
 31
0.0
 11
359.5568739776656
 21
28.98565920481467
 31
0.0
 11
359.632038708843
 21
28.98565920481467
 31
0.0
 11
359.6605494689447
 21
28.98565920481467
 31
0.0
 11
359.6605494689446
 21
28.95932351688722
 31
0.0
 11
359.6605494689447
 21
28.90138500344683
 31
0.0
 11
359.6605494689447
 21
28.84344649000644
 31
0.0
 11
359.6605494689447
 21
28.81711080207899
 31
0.0
  0
SPLINE
  5
B0
102
{ACAD_REACTORS
330
CB
102
}
330
48
100
AcDbEntity
  8
_U_30EC_U_30A4_U_30E4_U_30FC_1
  6
Continuous
 62
     2
100
AcDbSpline
210
0.0
220
0.0
230
1.0
 70
     8
 71
     3
 72
    24
 73
    20
 74
    18
 42
0.000000001
 43
0.0000000001
 44
0.00000001
 40
0.0
 40
0.0
 40
0.0
 40
0.0
 40
0.2211075008753741
 40
0.4273218586245501
 40
0.5080174679239272
 40
0.5914835907870701
 40
0.8143265690193632
 40
1.054651302686645
 40
1.295452694023226
 40
1.518109231328887
 40
1.540864321905557
 40
1.595126460622735
 40
1.659890947896049
 40
1.714153085187324
 40
1.736908174961679
 40
1.764951100735384
 40
1.801562291220863
 40
1.95391442454356
 40
2.126104167379628
 40
2.126104167379628
 40
2.126104167379628
 40
2.126104167379628
 10
358.4458992554504
 20
29.46720087124967
 30
0.0
 10
358.4196202079427
 20
29.40828420246324
 30
0.0
 10
358.3688321892041
 20
29.29441931691206
 30
0.0
 10
358.3215407836727
 20
29.02172750245066
 30
0.0
 10
358.2127105800232
 20
29.12176274587406
 30
0.0
 10
358.0598423277251
 20
29.14849385379278
 30
0.0
 10
358.2769778178815
 20
29.36248927029578
 30
0.0
 10
358.2922106671995
 20
29.58062909794437
 30
0.0
 10
358.3990512489615
 20
29.7618237107838
 30
0.0
 10
358.3389003944692
 20
30.04644018323346
 30
0.0
 10
358.4417940393017
 20
30.01844881234404
 30
0.0
 10
358.4863556465765
 20
30.00974043614247
 30
0.0
 10
358.546446539301
 20
29.99870446195306
 30
0.0
 10
358.5840242585053
 20
29.98498315067508
 30
0.0
 10
358.633608992622
 20
29.98486868172174
 30
0.0
 10
358.6013781916939
 20
29.95037384410578
 30
0.0
 10
358.5255425219496
 20
29.96134896549903
 30
0.0
 10
358.5513070157308
 20
29.77589761594404
 30
0.0
 10
358.5139519761463
 20
29.6843310556154
 30
0.0
 10
358.4941327959224
 20
29.63574927409655
 30
0.0
 11
358.4458992554504
 21
29.46720087124967
 31
0.0
 11
358.3700094326167
 21
29.2595250033051
 31
0.0
 11
358.2801025236048
 21
29.07394184368142
 31
0.0
 11
358.2095116920725
 21
29.11304064575501
 31
0.0
 11
358.1329148190266
 21
29.1461995519967
 31
0.0
 11
358.2297649945071
 21
29.34689593215488
 31
0.0
 11
358.3078264465086
 21
29.57418955188973
 31
0.0
 11
358.3673339927335
 21
29.80752228620641
 31
0.0
 11
358.4085224508841
 21
30.02633601011004
 31
0.0
 11
358.430780681983
 21
30.02160681233345
 31
0.0
 11
358.4838580022954
 21
30.01032949455849
 31
0.0
 11
358.5472083523459
 21
29.99686947011742
 31
0.0
 11
358.6002856726584
 21
29.98559215234246
 31
0.0
 11
358.6225439037572
 21
29.98086295456587
 31
0.0
 11
358.6047720155075
 21
29.9591704285296
 31
0.0
 11
358.5689745995686
 21
29.95149420457317
 31
0.0
 11
358.5365576299094
 21
29.80263080183263
 31
0.0
 11
358.4941327959224
 21
29.63574927409655
 31
0.0
  0
LWPOLYLINE
  5
B1
102
{ACAD_REACTORS
330
CC
102
}
330
48
100
AcDbEntity
  8
_U_30EC_U_30A4_U_30E4_U_30FC_1
  6
Continuous
 62
     2
100
AcDbPolyline
 90
        5
 70
     1
 43
0.0
 10
363.6686594694646
 20
29.27453128807576
 10
364.9661761030287
 20
29.27453128807576
 10
364.9661761030287
 20
29.10606226034007
 10
363.6686594694646
 20
29.10606226034007
 10
363.6686594694646
 20
29.27453128807576
  0
MTEXT
  5
B3
330
48
100
AcDbEntity
  8
1
 62
   250
100
AcDbMText
 10
197.5083622997614
 20
18.8773079201195
 30
0.0
 40
3.5
 41
0.0
 71
     4
 72
     1
  1
備考欄の文字列 原点位置=4
  7
CONVERTER_11
 73
     1
 44
0.54545454545455
  0
MTEXT
  5
B4
330
48
100
AcDbEntity
  8
1
 62
     2
100
AcDbMText
 10
262.0083622997614
 20
37.87730792011951
 30
0.0
 40
3.5
 41
0.0
 71
     5
 72
     1
  1
尺度
  7
CONVERTER_11
 73
     1
 44
0.54545454545455
  0
MTEXT
  5
B5
330
48
100
AcDbEntity
  8
1
 62
     2
100
AcDbMText
 10
308.0083622997614
 20
38.87730792011951
 30
0.0
 40
3.0
 41
0.0
 71
     5
 72
     1
  1
製図
  7
CONVERTER_11
 73
     1
 44
0.59090909090909
  0
MTEXT
  5
B6
330
48
100
AcDbEntity
  8
1
 62
     2
100
AcDbMText
 10
325.0083622997614
 20
38.87730792011951
 30
0.0
 40
3.0
 41
0.0
 71
     5
 72
     1
  1
設計
  7
CONVERTER_11
 73
     1
 44
0.59090909090909
  0
MTEXT
  5
B7
330
48
100
AcDbEntity
  8
1
 62
     2
100
AcDbMText
 10
291.0083622997614
 20
38.87730792011951
 30
0.0
 40
3.0
 41
0.0
 71
     5
 72
     1
  1
検図
  7
CONVERTER_11
 73
     1
 44
0.59090909090909
  0
MTEXT
  5
B8
330
48
100
AcDbEntity
  8
1
 62
     2
100
AcDbMText
 10
347.5083622997614
 20
37.37730792011951
 30
0.0
 40
3.5
 41
0.0
 71
     5
 72
     1
  1
第三角法
  7
CONVERTER_11
 73
     1
 44
0.54545454545455
  0
MTEXT
  5
B9
330
48
100
AcDbEntity
  8
1
 62
     2
100
AcDbMText
 10
274.0083622997614
 20
38.87730792011951
 30
0.0
 40
3.0
 41
0.0
 71
     5
 72
     1
  1
承認
  7
CONVERTER_11
 73
     1
 44
0.59090909090909
  0
MTEXT
  5
BA
330
48
100
AcDbEntity
  8
1
 62
     2
100
AcDbMText
 10
201.5083622997614
 20
28.1273079201195
 30
0.0
 40
3.5
 41
0.0
 71
     5
 72
     1
  1
品番
  7
CONVERTER_11
 73
     1
 44
0.72727272727273
  0
MTEXT
  5
BB
330
48
100
AcDbEntity
  8
1
 62
     2
100
AcDbMText
 10
201.5083622997614
 20
36.6273079201195
 30
0.0
 40
3.5
 41
0.0
 71
     5
 72
     1
  1
品名
  7
CONVERTER_11
 73
     1
 44
0.72727272727273
  0
MTEXT
  5
BC
330
48
100
AcDbEntity
  8
1
 62
     2
100
AcDbMText
 10
201.5083622997614
 20
47.8773079201195
 30
0.0
 40
3.5
 41
0.0
 71
     5
 72
     1
  1
備考
  7
CONVERTER_11
 73
     1
 44
0.45454545454545
  0
MTEXT
  5
BD
330
48
100
AcDbEntity
  8
1
 62
     2
100
AcDbMText
 10
205.0083622997614
 20
295.8773079201198
 30
0.0
 40
5.0
 41
0.0
 71
     5
 72
     1
  1
図番
  7
CONVERTER_11
 73
     1
 44
0.45454545454545
  0
HATCH
  5
BE
330
48
100
AcDbEntity
  8
1
  6
Continuous
 62
     2
100
AcDbHatch
 10
0.0
 20
0.0
 30
0.0
210
0.0
220
0.0
230
1.0
  2
CUSTOM0
 70
     0
 71
     1
 91
        1
 92
        1
 93
        1
 72
     4
 94
        3
 73
     0
 74
     0
 95
       99
 96
       95
 40
0.0
 40
0.0
 40
0.0
 40
0.0
 40
0.0796417172272876
 40
0.1621768542355971
 40
0.2486489160958112
 40
0.3404969668525337
 40
0.4381912511165347
 40
0.5434463660245369
 40
0.6518115192847125
 40
0.7530190937887795
 40
0.8492196919726547
 40
0.9419290312999121
 40
1.034249663570138
 40
1.129078600620271
 40
1.226697027573325
 40
1.327220425421783
 40
1.470572134938088
 40
1.595489863371285
 40
1.719934125348513
 40
1.850576620127554
 40
1.989059629987445
 40
2.134139054226957
 40
2.280698007207323
 40
2.424529739039563
 40
2.565929576985935
 40
2.708239260773659
 40
2.861717887443774
 40
3.045168540347471
 40
3.183798301138723
 40
3.314813961455564
 40
3.442083470447406
 40
3.569912708372989
 40
3.702177512509409
 40
3.842307559659652
 40
3.992872223246029
 40
4.156750662218418
 40
4.310981861107554
 40
4.445859909322683
 40
4.572393936131596
 40
4.701656719782062
 40
4.768279086008549
 40
4.835960697898486
 40
4.912788918729435
 40
5.006285208481615
 40
5.02690947875172
 40
5.047533749021256
 40
5.101808031471361
 40
5.162325165538658
 40
5.226919745996007
 40
5.294231806596779
 40
5.364544852554862
 40
5.438319055468006
 40
5.517877651324317
 40
5.607647714861599
 40
5.700449642544474
 40
5.788251142364206
 40
5.872714706039886
 40
5.955167292575445
 40
6.037192395190461
 40
6.120669181469221
 40
6.206848616686438
 40
6.296680855416864
 40
6.442558392872686
 40
6.568190371608398
 40
6.692904567360397
 40
6.824220446557271
 40
6.963121850329381
 40
7.107843738851194
 40
7.253431663907334
 40
7.395187468036805
 40
7.533140753237837
 40
7.670550457175373
 40
7.816236511769349
 40
7.987691657359316
 40
8.14227742196934
 40
8.293662615415128
 40
8.442962460879373
 40
8.591598316185483
 40
8.743678992361932
 40
8.903725323699291
 40
9.076307008890666
 40
9.26557860468072
 40
9.459203795360837
 40
9.617619810273734
 40
9.753609671362018
 40
9.874873300004234
 40
9.954520184977948
 40
10.02416413719263
 40
10.09769764405462
 40
10.18909955924989
 40
10.20974586420148
 40
10.23039218263393
 40
10.30057101881274
 40
10.37632012987554
 40
10.37632012987554
 40
10.37632012987554
 40
10.37632012987554
 10
342.6549577833465
 20
28.01526455227944
 10
342.6715840848834
 20
27.99451400857263
 10
342.705440720419
 20
27.95225903723855
 10
342.768344553865
 20
27.89760603404018
 10
342.8416123938008
 20
27.85029817133002
 10
342.9259592236251
 20
27.81258023449884
 10
343.0215863613075
 20
27.78771411743902
 10
343.1255476772961
 20
27.78040351357887
 10
343.2307643218018
 20
27.78873114806004
 10
343.3290249368949
 20
27.81879971663479
 10
343.4142609425163
 20
27.86579614983822
 10
343.4862843203719
 20
27.92683783262809
 10
343.5434540706711
 20
28.0014376159053
 10
343.5851491745053
 20
28.08733256672126
 10
343.6110575843908
 20
28.1821664244416
 10
343.6201660330267
 20
28.29585771050317
 10
343.6070487794102
 20
28.42063379782728
 10
343.5408953332029
 20
28.53745511183844
 10
343.4452993917184
 20
28.62243331589321
 10
343.3333304019983
 20
28.69147476471111
 10
343.2077282580884
 20
28.74934934057837
 10
343.074031461847
 20
28.80104515296295
 10
342.9396745816445
 20
28.85629884409127
 10
342.8135606984491
 20
28.92670562653599
 10
342.701020298515
 20
29.01516332743201
 10
342.6053586062071
 20
29.12711859880418
 10
342.541778014944
 20
29.27680702113334
 10
342.528432950263
 20
29.43663586397091
 10
342.5404133985064
 20
29.58779197318794
 10
342.5795921926456
 20
29.71540036603488
 10
342.6438610748526
 20
29.82811666042791
 10
342.7321827997353
 20
29.92379401280641
 10
342.8421714205242
 20
30.00085006997703
 10
342.9715907398879
 20
30.05882188948225
 10
343.1195461965409
 20
30.09469969600773
 10
343.27656924531
 20
30.10477511062514
 10
343.4258563464044
 20
30.09594429774538
 10
343.5679876611785
 20
30.06805691352306
 10
343.6679545607239
 20
30.01144106713082
 10
343.82086977338
 20
29.9640539411746
 10
343.7538754714782
 20
29.87928345013135
 10
343.7380102117884
 20
29.81169693885432
 10
343.706237352891
 20
29.74656884805143
 10
343.7233825207185
 20
29.644542452689
 10
343.6750050205848
 20
29.65224003693852
 10
343.639941243838
 20
29.64537563736758
 10
343.6380320983333
 20
29.70994623170145
 10
343.6069315929603
 20
29.75556431633346
 10
343.574817462607
 20
29.81291828640398
 10
343.5291661472783
 20
29.86271254704508
 10
343.4742131216003
 20
29.9072560573095
 10
343.4094464170622
 20
29.94494780848495
 10
343.3316000308212
 20
29.97014167803303
 10
343.2438783550966
 20
29.97662023010059
 10
343.1536526275422
 20
29.96966501297557
 10
343.0678217691679
 20
29.94639982472869
 10
342.9911966636211
 20
29.90862436119494
 10
342.9248888633814
 20
29.85782433101529
 10
342.870618353458
 20
29.79461935419154
 10
342.8308548343072
 20
29.72007247722321
 10
342.8060398508204
 20
29.6364810600971
 10
342.7975747260484
 20
29.52923740394236
 10
342.8103320984716
 20
29.40696249279505
 10
342.8765171406889
 20
29.28880516303169
 10
342.9724600397446
 20
29.20337117721468
 10
343.0841537960798
 20
29.13314154318681
 10
343.2094486666316
 20
29.07389954317247
 10
343.3433446939061
 20
29.02347500098084
 10
343.4773553330763
 20
28.97053308996329
 10
343.6034508314531
 20
28.9048096263713
 10
343.7159839636032
 20
28.82211144549268
 10
343.8114993281849
 20
28.71726798322028
 10
343.8756329484576
 20
28.57667909263515
 10
343.8894726722895
 20
28.41796201463543
 10
343.8757577709845
 20
28.25883947229825
 10
343.8328362151601
 20
28.1121462083116
 10
343.7629529326681
 20
27.97850588599089
 10
343.6658215211443
 20
27.86263179711245
 10
343.5431429021272
 20
27.76820773782036
 10
343.3958031410783
 20
27.69910062663931
 10
343.2260755494738
 20
27.65684002870802
 10
343.0401027977212
 20
27.64512528242357
 10
342.8612578923798
 20
27.65540278695389
 10
342.6965356751358
 20
27.69697365781098
 10
342.591803383867
 20
27.76528434895895
 10
342.443458378798
 20
27.81406011044055
 10
342.5064001192343
 20
27.90707383302792
 10
342.5155897427675
 20
27.98027328260228
 10
342.5387334298846
 20
28.04667086513298
 10
342.5118211332933
 20
28.14705601539529
 10
342.5604961953953
 20
28.13964825529328
 10
342.6000153578312
 20
28.14624855632844
 10
342.6079827942316
 20
28.06809495230879
 10
342.6389059965538
 20
28.03331719387807
 10
342.6549577833465
 20
28.01526455227944
 97
        1
330
A0
 75
     1
 76
     2
 52
45.0
 41
0.1
 77
     0
 78
     1
 53
45.0
 43
0.0
 44
0.0
 45
-0.282842712474619
 46
0.0
 79
     0
 98
        1
 10
0.0
 20
0.0
  0
HATCH
  5
BF
330
48
100
AcDbEntity
  8
1
  6
Continuous
 62
     2
100
AcDbHatch
 10
0.0
 20
0.0
 30
0.0
210
0.0
220
0.0
230
1.0
  2
CUSTOM1
 70
     0
 71
     1
 91
        2
 92
        1
 93
        1
 72
     4
 94
        3
 73
     0
 74
     0
 95
       57
 96
       53
 40
0.0
 40
0.0
 40
0.0
 40
0.0
 40
0.0471632082808958
 40
0.0914861054632162
 40
0.1357762519701829
 40
0.1826527001610977
 40
0.2295203288573454
 40
0.2737751972221624
 40
0.318131046154365
 40
0.3652607198398538
 40
0.4571007286314644
 40
0.5671851029165609
 40
0.6894623283868544
 40
0.8181758272546091
 40
0.9510087229274065
 40
1.08585222967408
 40
1.218126164475311
 40
1.343545131142384
 40
1.454537202956857
 40
1.567187607530894
 40
1.680710966642513
 40
1.794226869736792
 40
1.900009184247705
 40
2.004085860447899
 40
2.108162674451787
 40
2.214000150155332
 40
2.49603857735218
 40
2.762350745479324
 40
2.997275353279456
 40
3.185110082137772
 40
3.246407890063999
 40
3.312607550212815
 40
3.378877742711689
 40
3.440140399651487
 40
4.100501696006532
 40
4.754913085563546
 40
5.411331693423936
 40
6.077890432568769
 40
6.110575292671048
 40
6.143260152775828
 40
6.367989363395202
 40
6.610525374951607
 40
6.863389136467383
 40
7.119380025547612
 40
7.376036605091175
 40
7.631164770966318
 40
7.876722425456507
 40
8.10495373585597
 40
8.312916685924366
 40
8.497730294941361
 40
8.651018984313916
 40
8.764738853624651
 40
8.764738853624651
 40
8.764738853624651
 40
8.764738853624651
 10
347.3006272498128
 20
27.69357531624876
 10
347.2850239724546
 20
27.69557023091027
 10
347.2547570957917
 20
27.69943993372249
 10
347.2094617199867
 20
27.70072776979217
 10
347.1643176126964
 20
27.70039475566
 10
347.1182640121013
 20
27.70045450686173
 10
347.0724119169711
 20
27.7005660566195
 10
347.0267334645778
 20
27.70008625468541
 10
346.9834434539222
 20
27.70191901630671
 10
346.9123570949129
 20
27.67780348826606
 10
346.9141100259056
 20
27.79915485989204
 10
346.8669819368185
 20
27.8845703176318
 10
346.8275101249375
 20
28.00217721357086
 10
346.779025853026
 20
28.11963544552388
 10
346.7284640400137
 20
28.24136727773461
 10
346.6802257608092
 20
28.36806759874413
 10
346.621885594521
 20
28.47664479796903
 10
346.6064515664876
 20
28.63351449146362
 10
346.465020932825
 20
28.60104238560269
 10
346.3592020412518
 20
28.6124368069413
 10
346.2442192722837
 20
28.61123383526565
 10
346.1336765249754
 20
28.61237737359358
 10
346.0260206520398
 20
28.61149142049477
 10
345.9204945526857
 20
28.61147394402469
 10
345.8192815679629
 20
28.60444824484364
 10
345.6350427825366
 20
28.62866651871817
 10
345.6241016683026
 20
28.32472483133835
 10
345.5171314632365
 20
28.10083969265345
 10
345.418177160196
 20
27.91626106304449
 10
345.4308713521622
 20
27.67260996816154
 10
345.3133714714012
 20
27.70238838765148
 10
345.2505678865924
 20
27.69988881521552
 10
345.1869495091015
 20
27.70074867114756
 10
344.902963719169
 20
27.65828831953888
 10
345.5335261496997
 20
28.37812744456738
 10
345.6171268286686
 20
28.89007331447677
 10
346.0012875786949
 20
29.41084535561995
 10
345.9860831286187
 20
30.11250418265166
 10
346.2322888720311
 20
30.10076425093206
 10
346.3339969155178
 20
30.10955796464723
 10
346.3333375033432
 20
29.85790442742293
 10
346.4511940153443
 20
29.67548812745908
 10
346.5399138258101
 20
29.4329453267482
 10
346.6405915482873
 20
29.20070822542072
 10
346.7394765709859
 20
28.96405436578871
 10
346.8383299988282
 20
28.73192531182035
 10
346.9339789388542
 20
28.50853014800748
 10
347.0243527570884
 20
28.30003341061256
 10
347.1073567565804
 20
28.11039240541274
 10
347.1809711580414
 20
27.94393898080047
 10
347.2426438893161
 20
27.80648491638049
 10
347.2833081883219
 20
27.72730031441985
 10
347.3006272498128
 20
27.69357531624876
 97
        1
330
A1
 92
       16
 93
        1
 72
     4
 94
        3
 73
     0
 74
     0
 95
       25
 96
       21
 40
0.0
 40
0.0
 40
0.0
 40
0.0
 40
0.091147996906539
 40
0.1858117896205237
 40
0.2804128399735059
 40
0.3715889190715078
 40
0.4679080494218707
 40
0.5642683809229513
 40
0.6605683222644706
 40
0.7569653015810538
 40
0.8561348172523054
 40
1.092615965104343
 40
1.374867658141939
 40
1.611348812011627
 40
1.710518328425287
 40
1.809403163726593
 40
2.045205463294135
 40
2.326646917622158
 40
2.562449217190629
 40
2.661334043833947
 40
2.661334043833947
 40
2.661334043833947
 40
2.661334043833947
 10
345.7767323564814
 20
28.76345330209242
 10
345.8071148915539
 20
28.76328871726504
 10
345.8690518886726
 20
28.76295320701872
 10
345.9624979957946
 20
28.75999847463948
 10
346.0558718233971
 20
28.757085448891
 10
346.1501383751092
 20
28.75624993655367
 10
346.2438587788582
 20
28.75727436669997
 10
346.343566330082
 20
28.75647769482921
 10
346.4272572543927
 20
28.76652202247169
 10
346.5721619312661
 20
28.73965409686113
 10
346.4479755442414
 20
28.91396322291999
 10
346.4049490283896
 20
29.07382503018042
 10
346.2892545139824
 20
29.33249250562162
 10
346.2101188428871
 20
29.4696184487381
 10
346.1515199619431
 20
29.68667825146027
 10
346.0948426937052
 20
29.46996926225373
 10
346.0136432898091
 20
29.33057804450193
 10
345.9147324279102
 20
29.0813776138214
 10
345.8337248091875
 20
28.89656622238023
 10
345.7897306323452
 20
28.79381238868067
 10
345.7767323564814
 20
28.76345330209242
 97
        1
330
A2
 75
     1
 76
     2
 52
45.0
 41
0.1
 77
     0
 78
     1
 53
45.0
 43
0.0
 44
0.0
 45
-0.282842712474619
 46
0.0
 79
     0
 98
        1
 10
0.0
 20
0.0
  0
HATCH
  5
C0
330
48
100
AcDbEntity
  8
1
  6
Continuous
 62
     2
100
AcDbHatch
 10
0.0
 20
0.0
 30
0.0
210
0.0
220
0.0
230
1.0
  2
CUSTOM2
 70
     0
 71
     1
 91
        1
 92
        1
 93
        1
 72
     4
 94
        3
 73
     0
 74
     0
 95
       95
 96
       91
 40
0.0
 40
0.0
 40
0.0
 40
0.0
 40
0.655040665691077
 40
1.308087289031883
 40
1.420803739835757
 40
1.566130759770747
 40
1.757067341888421
 40
2.006513545026431
 40
2.087328263121516
 40
2.185328872295588
 40
2.29461245474832
 40
2.408936380534782
 40
2.526802767798523
 40
2.646360524615566
 40
2.762535723971542
 40
2.870057342870115
 40
2.966883448431607
 40
3.050803243518259
 40
3.115818222436567
 40
3.156030057150209
 40
3.213914225080083
 40
3.276689026450455
 40
3.342960320981289
 40
3.404230667150567
 40
3.453822809493409
 40
3.532499827188444
 40
3.63477518850719
 40
3.754909333008191
 40
3.889736761660685
 40
4.035769602175251
 40
4.187256681197636
 40
4.338733685675984
 40
4.488478734676147
 40
4.634708317831614
 40
4.771493189921296
 40
4.892686571561235
 40
5.199775528944469
 40
5.460353566929665
 40
5.667603142345543
 40
5.814722905404518
 40
5.828990806219816
 40
5.855488336304485
 40
5.869756237118874
 40
6.189796507762865
 40
6.531890469873035
 40
6.883053637016948
 40
7.230512024911453
 40
7.566966656764602
 40
7.88520355970739
 40
8.172887439719217
 40
8.41801159406281
 40
8.44392672119073
 40
8.510760470613219
 40
8.602145393795736
 40
8.70171404164717
 40
8.793098965075407
 40
8.859932715057978
 40
8.88584784260363
 40
9.24230125661284
 40
9.589275455016796
 40
9.921808543164198
 40
10.23479624298471
 40
10.2996815088919
 40
10.35323493887784
 40
10.40154625355166
 40
10.46482922477839
 40
10.55973900668419
 40
10.69239545985631
 40
10.84920353475685
 40
11.01626328594793
 40
11.18672024367457
 40
11.35372582577224
 40
11.50257442292441
 40
11.61866495023305
 40
11.71329869152889
 40
11.82511050573922
 40
11.94464880845729
 40
12.0692924264252
 40
12.1970729043519
 40
12.32562632860542
 40
12.45034565331293
 40
12.56646595170341
 40
12.67099007414649
 40
12.76077625936796
 40
12.82703233506708
 40
12.87429132786007
 40
12.89831990323352
 40
12.92234847860037
 40
13.53984767410337
 40
14.18294284359386
 40
14.18294284359386
 40
14.18294284359386
 40
14.18294284359386
 10
349.8151558645635
 20
28.58628830213674
 10
349.6835642756166
 20
28.69995850615184
 10
349.4207816800342
 20
28.92695288328112
 10
348.9081016438637
 20
29.76945254968238
 10
348.9190277592977
 20
29.4115416958897
 10
348.9124849525605
 20
29.26998184284083
 10
348.9111649629388
 20
29.07152097311231
 10
348.9101740600152
 20
28.89881088057933
 10
348.910772474959
 20
28.75596165269528
 10
348.9122617299498
 20
28.65995797425309
 10
348.9139306586088
 20
28.5527629527509
 10
348.9155557952234
 20
28.43895003529532
 10
348.91760524993
 20
28.32172364616539
 10
348.9206788499542
 20
28.2038720324492
 10
348.9239962694657
 20
28.0895887933257
 10
348.9277228337895
 20
27.98252193879226
 10
348.930096115904
 20
27.88738200778872
 10
348.9362341885973
 20
27.80289349217645
 10
348.9323407493561
 20
27.7465387931009
 10
348.9538853440692
 20
27.67555814484306
 10
348.8764563056233
 20
27.70633469616432
 10
348.8199976237805
 20
27.69742034529563
 10
348.7624118894421
 20
27.70627010410225
 10
348.6773786476086
 20
27.67469017237894
 10
348.7093337143999
 20
27.75825948004137
 10
348.7074328280154
 20
27.82613400980261
 10
348.7191583044915
 20
27.92964048776368
 10
348.7247864050615
 20
28.04732917628645
 10
348.7321525176555
 20
28.18119401176373
 10
348.7404382699225
 20
28.32494944884581
 10
348.7482474895041
 20
28.47444814855395
 10
348.7541194220273
 20
28.62523341414028
 10
348.7587290815583
 20
28.77430735890388
 10
348.7626255115157
 20
28.91853705174972
 10
348.7654338124179
 20
29.05314697224967
 10
348.7660321752637
 20
29.24200406359304
 10
348.7699646864764
 20
29.46706286325103
 10
348.7525798376116
 20
29.74097883137659
 10
348.7934040340191
 20
29.90517904110544
 10
348.7078776253622
 20
30.10480453477049
 10
348.7744181905302
 20
30.10116250415928
 10
348.7922347270846
 20
30.10144239172804
 10
348.9140424795118
 20
30.10363719410564
 10
349.0164393333077
 20
29.82405910733463
 10
349.2663644506972
 20
29.62293800547955
 10
349.4953658328724
 20
29.35523406999861
 10
349.7328774210723
 20
29.10377205874326
 10
349.9569713738385
 20
28.86700766073312
 10
350.1834339280624
 20
28.60949484595027
 10
350.3409310884128
 20
28.49380127068871
 10
350.5555752610287
 20
28.1572794455074
 10
350.5506268972233
 20
28.28195546103553
 10
350.551755460016
 20
28.34058483947685
 10
350.5512500839131
 20
28.42774454383927
 10
350.5514098155729
 20
28.52146935194822
 10
350.5513677888932
 20
28.60749763308985
 10
350.5513825037987
 20
28.66884683957445
 10
350.5513329253603
 20
28.81866023532944
 10
350.5542434520424
 20
29.05720404522054
 10
350.5343144038774
 20
29.42217301880649
 10
350.5834056933863
 20
29.68530424005366
 10
350.4261574506791
 20
30.09659696959697
 10
350.5845735870037
 20
30.04129074563698
 10
350.6395303476243
 20
30.03930478512124
 10
350.6911510764356
 20
30.03995570260203
 10
350.7796821962979
 20
30.08100319750194
 10
350.7288521300784
 20
29.93427118634936
 10
350.7397012927899
 20
29.82750763966382
 10
350.724965999246
 20
29.66816497426062
 10
350.7183599443821
 20
29.50583853664823
 10
350.7098584397528
 20
29.33723313904346
 10
350.7026850199813
 20
29.1754560671549
 10
350.6972686213004
 20
29.03153123469882
 10
350.6955336965262
 20
28.91168285478874
 10
350.6959063669934
 20
28.80416893602464
 10
350.6957279123879
 20
28.69550816657536
 10
350.6960633860754
 20
28.5768436217748
 10
350.6973663619798
 20
28.45285955524692
 10
350.6992510349189
 20
28.32589086183054
 10
350.7008627452463
 20
28.19884653562981
 10
350.7025026135046
 20
28.07585676504128
 10
350.7046193743365
 20
27.96031723395708
 10
350.7047471419979
 20
27.85821695967788
 10
350.7090137394168
 20
27.76740640850107
 10
350.6992063082904
 20
27.70944413220736
 10
350.7202097769305
 20
27.64247922143978
 10
350.6809262737511
 20
27.65021945978637
 10
350.4678930115363
 20
27.63486046157148
 10
350.27199209408
 20
28.1913385010642
 10
349.9694820629159
 20
28.45286827360462
 10
349.8151558645635
 20
28.58628830213674
 97
        1
330
A3
 75
     1
 76
     2
 52
45.0
 41
0.1
 77
     0
 78
     1
 53
45.0
 43
0.0
 44
0.0
 45
-0.282842712474619
 46
0.0
 79
     0
 98
        1
 10
0.0
 20
0.0
  0
HATCH
  5
C1
330
48
100
AcDbEntity
  8
1
  6
Continuous
 62
     2
100
AcDbHatch
 10
0.0
 20
0.0
 30
0.0
210
0.0
220
0.0
230
1.0
  2
CUSTOM3
 70
     0
 71
     1
 91
        1
 92
        1
 93
        1
 72
     4
 94
        3
 73
     0
 74
     0
 95
      110
 96
      106
 40
0.0
 40
0.0
 40
0.0
 40
0.0
 40
0.2203406257277761
 40
0.4407808782838115
 40
0.5952494494614241
 40
0.7488431659393383
 40
0.9023581831308799
 40
1.056801968670435
 40
1.210736449099936
 40
1.363041386539786
 40
1.515315729683129
 40
1.669377239148136
 40
1.721611652756624
 40
1.773199502943009
 40
1.824933793210061
 40
1.877110426488043
 40
1.982682281206863
 40
2.078781667087756
 40
2.172809640822477
 40
2.271937807379046
 40
2.378349933379496
 40
2.494131557736599
 40
2.626681683943705
 40
2.783145050796218
 40
2.890701232941067
 40
2.993130312454969
 40
3.09986973069195
 40
3.220237816691436
 40
3.352695482737728
 40
3.481732806389976
 40
3.593499473690509
 40
3.674323013332021
 40
3.817951711952885
 40
3.946167120793968
 40
4.061405053453568
 40
4.166480796003294
 40
4.26247877505936
 40
4.350736673551259
 40
4.433071991254115
 40
4.511216293814774
 40
4.5642624541181
 40
4.618474415571704
 40
4.670128488754315
 40
4.722296879126515
 40
4.819540945314384
 40
4.93119498412824
 40
5.049996040257882
 40
5.168643755415541
 40
5.283970811762695
 40
5.392260784910578
 40
5.486512254876624
 40
5.559178233949938
 40
5.591425852853599
 40
5.626215969637975
 40
5.667155838674526
 40
5.717449290214326
 40
5.738402360944939
 40
5.784499116553913
 40
5.830595872164889
 40
5.85154894289775
 40
5.873019280661868
 40
5.924217778408408
 40
5.985325662817782
 40
6.036524160567794
 40
6.057994498334324
 40
6.236847789607577
 40
6.381409928945745
 40
6.493190424178776
 40
6.574067534230589
 40
6.691018086205683
 40
6.814881554220544
 40
6.944307823240525
 40
7.071266716066206
 40
7.193488604462022
 40
7.309042773128278
 40
7.414007203170875
 40
7.505140441886575
 40
7.531150360599709
 40
7.559221645322295
 40
7.587202218920964
 40
7.612569159499172
 40
7.662550809481048
 40
7.702878875764178
 40
7.857328205230907
 40
8.01079956808861
 40
8.16525639965756
 40
8.322232698713956
 40
8.479564855016585
 40
8.635216230290732
 40
8.790882550925735
 40
8.948305154947244
 40
9.16827183903294
 40
9.387358980987207
 40
9.608047961033455
 40
9.83291423479266
 40
9.858338694962995
 40
9.925366817230003
 40
10.02013071422759
 40
10.12876249858997
 40
10.23739428295248
 40
10.33215817995189
 40
10.39918630222393
 40
10.42461076239782
 40
10.64992019336941
 40
10.87188524531186
 40
10.87188524531186
 40
10.87188524531186
 40
10.87188524531186
 10
352.4141411374233
 20
29.6165405241014
 10
352.4176487931157
 20
29.68347254085755
 10
352.4246656985277
 20
29.81736683927809
 10
352.3281650596685
 20
30.10279346983415
 10
352.5593757723723
 20
30.04015178202233
 10
352.7002913054769
 20
30.04732346067939
 10
352.8574040755203
 20
30.03966675090194
 10
353.0109536424902
 20
30.03983544294989
 10
353.1628727932695
 20
30.03912832547382
 10
353.3225837810847
 20
30.0494095036359
 10
353.449259559873
 20
30.03227303092699
 10
353.6454444119696
 20
30.10458052119097
 10
353.6118018276693
 20
30.00371491092067
 10
353.6135634314797
 20
29.9535004595962
 10
353.6110965071074
 20
29.90443127598417
 10
353.6430699963626
 20
29.81794282858947
 10
353.509402290087
 20
29.86728230620287
 10
353.425583168567
 20
29.86161426326117
 10
353.3257484136939
 20
29.87196308718247
 10
353.2270199717759
 20
29.87817242423036
 10
353.1205155768725
 20
29.88428555828726
 10
352.9994134695675
 20
29.89319675496537
 10
352.8787004500067
 20
29.88252397924332
 10
352.6896176841053
 20
29.9419929509232
 10
352.7212651502925
 20
29.78289112089489
 10
352.7079186314447
 20
29.68569920351854
 10
352.7058581424066
 20
29.57364857122052
 10
352.7041811042285
 20
29.454304776413
 10
352.7056959791847
 20
29.3276338416706
 10
352.7040205476284
 20
29.20032380028066
 10
352.7142467269273
 20
29.10182358416414
 10
352.6862629594197
 20
28.96119494637583
 10
352.8591652996919
 20
29.01720343146045
 10
352.9728643200387
 20
29.00450743490447
 10
353.0923774669853
 20
29.01179169063204
 10
353.1972114422687
 20
29.01608809068705
 10
353.2926707896225
 20
29.02061360270926
 10
353.3847446504648
 20
29.02879993158151
 10
353.4560174780053
 20
29.02374642650059
 10
353.5628554703301
 20
29.06267217043627
 10
353.5310226595651
 20
28.9824791401783
 10
353.5349787501544
 20
28.93293728857982
 10
353.5318125389628
 20
28.8828827005177
 10
353.5634414488199
 20
28.79859639623972
 10
353.4293756675307
 20
28.85156157507107
 10
353.3375945790815
 20
28.84270872902389
 10
353.2163352187217
 20
28.85300841977105
 10
353.0997736117385
 20
28.85479703779452
 10
352.9866998743493
 20
28.85517809121645
 10
352.8762869306083
 20
28.86146241484126
 10
352.7981747065455
 20
28.84919925267316
 10
352.6997248831258
 20
28.88184679628072
 10
352.7095978171176
 20
28.82500540066155
 10
352.7057546242017
 20
28.79122922569934
 10
352.7050412881884
 20
28.74850396721362
 10
352.7046992640589
 20
28.71132399274104
 10
352.704745725296
 20
28.67218029382721
 10
352.7047272427541
 20
28.63447641509635
 10
352.7047326429422
 20
28.59675747244352
 10
352.7047320211815
 20
28.56725116757099
 10
352.7047321149159
 20
28.5360436971125
 10
352.7047327285537
 20
28.49145216920033
 10
352.7047294496953
 20
28.436947485208
 10
352.7047382621096
 20
28.39236332213398
 10
352.7046982651032
 20
28.3084860059769
 10
352.7059647267869
 20
28.19468312689628
 10
352.7033897115455
 20
28.04561187945659
 10
352.7148632379335
 20
27.94327995825856
 10
352.6907129219877
 20
27.81069695897783
 10
352.8416616944091
 20
27.8562652428397
 10
352.951205966917
 20
27.84157804174299
 10
353.0817593471535
 20
27.84651227137013
 10
353.2073935207128
 20
27.84988497335311
 10
353.3272353623216
 20
27.85442289510722
 10
353.4474985609042
 20
27.86779328193957
 10
353.530638466113
 20
27.85799504794543
 10
353.6539703418687
 20
27.91857006635272
 10
353.6327892201572
 20
27.86263252145968
 10
353.6319573267733
 20
27.83670041384297
 10
353.6302586705172
 20
27.80928048202888
 10
353.6301597886444
 20
27.77468987218335
 10
353.6287282298945
 20
27.73781200232719
 10
353.6616427189803
 20
27.64577633033755
 10
353.4634929985722
 20
27.71862807986783
 10
353.3384171292506
 20
27.69556518520556
 10
353.1756694292769
 20
27.70184813997735
 10
353.0212989447616
 20
27.69991735921876
 10
352.8650293434558
 20
27.70124554611218
 10
352.7054167462896
 20
27.69790664499812
 10
352.5623949339852
 20
27.70996587740192
 10
352.3280767879243
 20
27.64682793988868
 10
352.4257433748812
 20
27.93351319478268
 10
352.4090491777674
 20
28.12719100154609
 10
352.4229919707299
 20
28.35579034892245
 10
352.4226610844248
 20
28.51115385966997
 10
352.4226701116878
 20
28.61697128456076
 10
352.4226678873931
 20
28.67936576136163
 10
352.4226688549503
 20
28.76951217260276
 10
352.4226688470875
 20
28.87351959169388
 10
352.4226676858718
 20
28.97752923387245
 10
352.4226713969117
 20
29.06767035700718
 10
352.4226634048664
 20
29.13007595109164
 10
352.4226957272637
 20
29.23599627973071
 10
352.4215063785932
 20
29.39357508556688
 10
352.416583948687
 20
29.54259011834015
 10
352.4141411374233
 20
29.6165405241014
 97
        1
330
A4
 75
     1
 76
     2
 52
45.0
 41
0.1
 77
     0
 78
     1
 53
45.0
 43
0.0
 44
0.0
 45
-0.282842712474619
 46
0.0
 79
     0
 98
        1
 10
0.0
 20
0.0
  0
HATCH
  5
C2
330
48
100
AcDbEntity
  8
1
  6
Continuous
 62
     2
100
AcDbHatch
 10
0.0
 20
0.0
 30
0.0
210
0.0
220
0.0
230
1.0
  2
CUSTOM4
 70
     0
 71
     1
 91
        1
 92
        1
 93
        1
 72
     4
 94
        3
 73
     0
 74
     0
 95
       47
 96
       43
 40
0.0
 40
0.0
 40
0.0
 40
0.0
 40
0.2207912809957178
 40
0.4459404186303026
 40
0.4902387190459241
 40
0.5327473892721354
 40
0.5742260451225811
 40
0.615543263056082
 40
0.656816406631517
 40
0.6982511618780942
 40
0.740766392931717
 40
0.7851366743175235
 40
1.010288833836321
 40
1.231080507002173
 40
1.451765243652405
 40
1.676638205891685
 40
1.720461045359652
 40
1.830018144043518
 40
1.972442372353154
 40
2.114866600677519
 40
2.22442369939515
 40
2.268246538883385
 40
2.49362880120722
 40
2.715602830286616
 40
2.934211330706375
 40
3.149502369855372
 40
3.231387784851075
 40
3.318231873854053
 40
3.405143198198098
 40
3.48697030172045
 40
3.702258172493901
 40
3.920866283534132
 40
4.142839325931919
 40
4.368221903865378
 40
4.41204474335986
 40
4.521601842095879
 40
4.664026070452354
 40
4.806450298809067
 40
4.91600739754676
 40
4.959830237043081
 40
5.184703515847111
 40
5.405387250767488
 40
5.405387250767488
 40
5.405387250767488
 40
5.405387250767488
 10
355.159105025626
 20
29.61137232965822
 10
355.1651762417618
 20
29.6748927451316
 10
355.1774385104858
 20
29.80318730701577
 10
355.068832987703
 20
30.07897012186027
 10
355.1845608894218
 20
30.04918925444004
 10
355.2255465506631
 20
30.04496348274769
 10
355.2674828795133
 20
30.04041238401557
 10
355.3087819623324
 20
30.03932774941435
 10
355.3500655113171
 20
30.04041130207177
 10
355.3919771268262
 20
30.04496904723293
 10
355.4329606546635
 20
30.04918222221678
 10
355.5488545841101
 20
30.07908403329483
 10
355.4379275725072
 20
29.80070598621839
 10
355.4658479362881
 20
29.62013932836902
 10
355.4487890344584
 20
29.38691834358421
 10
355.4498260279718
 20
29.22637414555095
 10
355.4497722397019
 20
29.10015609570673
 10
355.4497900370096
 20
29.00159755348191
 10
355.4497811578696
 20
28.87011494454913
 10
355.4497886925648
 20
28.738636369806
 10
355.4497752402743
 20
28.6400701470604
 10
355.4498154715106
 20
28.51370527636102
 10
355.4490369401434
 20
28.3521286083482
 10
355.464958131688
 20
28.12092613904863
 10
355.4417091883023
 20
27.93605143983951
 10
355.544380644198
 20
27.66666394782001
 10
355.3903861360452
 20
27.70390904697767
 10
355.3087752800446
 20
27.69868786692484
 10
355.2271815290197
 20
27.70391412390302
 10
355.0732136664457
 20
27.66667861897336
 10
355.1757806419532
 20
27.9360592187483
 10
355.1525668313703
 20
28.12092377337364
 10
355.1684067652753
 20
28.35213010577589
 10
355.1676919311041
 20
28.51370504320452
 10
355.1677287567521
 20
28.64007023222471
 10
355.1677171997885
 20
28.73863548647931
 10
355.1677198016829
 20
28.8701191942917
 10
355.1677271529393
 20
29.0015834004315
 10
355.1677065538967
 20
29.10018578287276
 10
355.1677705189641
 20
29.22626941366376
 10
355.1665356945207
 20
29.38940883395722
 10
355.1615663394359
 20
29.537849757895
 10
355.159105025626
 20
29.61137232965822
 97
        1
330
A5
 75
     1
 76
     2
 52
45.0
 41
0.1
 77
     0
 78
     1
 53
45.0
 43
0.0
 44
0.0
 45
-0.282842712474619
 46
0.0
 79
     0
 98
        1
 10
0.0
 20
0.0
  0
HATCH
  5
C3
330
48
100
AcDbEntity
  8
1
  6
Continuous
 62
     2
100
AcDbHatch
 10
0.0
 20
0.0
 30
0.0
210
0.0
220
0.0
230
1.0
  2
CUSTOM5
 70
     0
 71
     1
 91
        1
 92
        1
 93
        1
 72
     4
 94
        3
 73
     0
 74
     0
 95
      118
 96
      114
 40
0.0
 40
0.0
 40
0.0
 40
0.0
 40
0.105470816297341
 40
0.2466098270052302
 40
0.3965912874591805
 40
0.5285525069754546
 40
0.6156245055642932
 40
0.6431434105798596
 40
0.7036850037986809
 40
0.7642265984505433
 40
0.7917455052355737
 40
0.9287404319990934
 40
1.10657281908813
 40
1.287544879681204
 40
1.317578308030719
 40
1.399928030857354
 40
1.52296820480013
 40
1.675072986590753
 40
1.84461653318083
 40
2.019973001638889
 40
2.189516548880204
 40
2.341621331585547
 40
2.464661506320678
 40
2.54701122964724
 40
2.57704465816821
 40
2.603797890893223
 40
2.66265500290891
 40
2.721512114949665
 40
2.748265347702817
 40
2.774215307344893
 40
2.845959313407222
 40
2.954338556588426
 40
3.0901942275856
 40
3.244367517100565
 40
3.40769961584432
 40
3.571031714539473
 40
3.725205003920153
 40
3.861060674729651
 40
3.969439917716341
 40
4.041183923629018
 40
4.067133883213008
 40
4.311886746012181
 40
4.547897258335557
 40
4.76474708304402
 40
4.9527496799518
 40
5.045772974195942
 40
5.137862019645042
 40
5.330543169793082
 40
5.553448265244088
 40
5.795083855888256
 40
6.043293412177325
 40
6.285761695541252
 40
6.313902908752736
 40
6.384255941793269
 40
6.475714884766914
 40
6.56717382775892
 40
6.637526860839698
 40
6.665668074074032
 40
6.692018920328005
 40
6.749990782071078
 40
6.807962643790448
 40
6.834313490017921
 40
6.856393084245171
 40
6.913335195649795
 40
6.991194817302487
 40
7.076026942283663
 40
7.153886563725296
 40
7.210828674844793
 40
7.232908268931128
 40
7.258199334923647
 40
7.324875781592302
 40
7.419142481924956
 40
7.527204308841901
 40
7.635266135230479
 40
7.729532834168465
 40
7.796209279292794
 40
7.821500344594737
 40
7.844652988850836
 40
7.899863140541615
 40
7.96575912805381
 40
8.020969279771066
 40
8.044121924046589
 40
8.069356610160694
 40
8.109134395441545
 40
8.132238100191257
 40
8.193147867786623
 40
8.279261678876798
 40
8.377977512674013
 40
8.476693347146798
 40
8.562807160411856
 40
8.62371693082664
 40
8.646820636853592
 40
8.671988793774405
 40
8.734909185828373
 40
8.816705695189059
 40
8.898502204815658
 40
8.96142259737809
 40
8.986590754551289
 40
9.012941600733443
 40
9.070913462380526
 40
9.128885324082026
 40
9.155236170325344
 40
9.180404327929415
 40
9.24332472194846
 40
9.32512123421231
 40
9.406917746637935
 40
9.46983814197842
 40
9.495006288271222
 40
9.517811184379363
 40
9.572192090487357
 40
9.637098333281584
 40
9.691479239515774
 40
9.714284125643813
 40
9.714284125643813
 40
9.714284125643813
 40
9.714284125643813
 10
357.7958092026267
 20
29.1461995519967
 10
357.8174613566651
 20
29.11842661254761
 10
357.8680880107088
 20
29.05348846573186
 10
357.9433006200205
 20
28.94621852324848
 10
358.033210527196
 20
28.83108230278576
 10
358.0792792674287
 20
28.7308783776027
 10
358.1739448292271
 20
28.66164798826888
 10
358.1288062318026
 20
28.61502431690228
 10
358.1030670783406
 20
28.57391100877983
 10
358.0728819705626
 20
28.53796763739889
 10
358.0277307728178
 20
28.4631057460804
 10
357.9794127456177
 20
28.68513316265553
 10
357.9052162710688
 20
28.72241469349665
 10
357.7919670322221
 20
28.99340994142553
 10
357.7968756575783
 20
28.87826120458178
 10
357.7952109553918
 20
28.80567467793577
 10
357.7960453074327
 20
28.68356380495936
 10
357.7957232537878
 20
28.53644592822411
 10
357.795869991007
 20
28.37037855968507
 10
357.7956573090335
 20
28.19918346620552
 10
357.7963120249648
 20
28.03283620647448
 10
357.7942815458753
 20
27.88665965067643
 10
357.7997083397543
 20
27.7620183948656
 10
357.7888553866321
 20
27.69449448552578
 10
357.8040362153168
 20
27.63279853428973
 10
357.7541518105749
 20
27.64458295908953
 10
357.7100773340136
 20
27.63674614791919
 10
357.6665994627816
 20
27.64491233384652
 10
357.6175969784103
 20
27.63268848750419
 10
357.630235423244
 20
27.68691459261264
 10
357.6213805966064
 20
27.74667710919507
 10
357.6258681767929
 20
27.85652821056321
 10
357.6241583133605
 20
27.98760767417628
 10
357.6247173913601
 20
28.13928803456279
 10
357.6245551766308
 20
28.29941866941903
 10
357.6245892922288
 20
28.45967657686516
 10
357.6246137957741
 20
28.61101039532389
 10
357.6245076540841
 20
28.74312948350551
 10
357.6247922139545
 20
28.85025594545143
 10
357.6242298545183
 20
28.91539411591424
 10
357.6264388081303
 20
29.04349749870624
 10
357.5403058996217
 20
28.66828402403525
 10
357.4638763816115
 20
28.51648985135343
 10
357.3743663765447
 20
28.35496998458258
 10
357.2724036214942
 20
28.08202640832121
 10
357.2271599488653
 20
28.2444813860846
 10
357.1185978939285
 20
28.33336224070067
 10
357.3079414749366
 20
28.4828058697336
 10
357.3648963543316
 20
28.67479928986875
 10
357.4801143990966
 20
28.90630414918706
 10
357.5023774627748
 20
29.0952805177101
 10
357.6855528149754
 20
29.3718488133788
 10
357.5621656595166
 20
29.36429770844042
 10
357.5009307164448
 20
29.36587564378067
 10
357.4165622614679
 20
29.36613384585623
 10
357.328785808358
 20
29.36275637763155
 10
357.2740391693738
 20
29.37125606993969
 10
357.2188326023639
 20
29.35779353061737
 10
357.2306446033152
 20
29.40662234138713
 10
357.2226119149408
 20
29.44999796908657
 10
357.2311809102293
 20
29.49240230321523
 10
357.2186566406772
 20
29.53998588564066
 10
357.2638724536349
 20
29.52998005007059
 10
357.3098438560339
 20
29.5362489718601
 10
357.3860845045326
 20
29.53324353417822
 10
357.4644919129608
 20
29.5350124029049
 10
357.5407615646549
 20
29.53195585993608
 10
357.5866632457087
 20
29.53834763388125
 10
357.6315356963015
 20
29.52824614990845
 10
357.6189175273248
 20
29.57887993593847
 10
357.627555958032
 20
29.63232053894018
 10
357.6235984593059
 20
29.72594047143629
 10
357.6245948065948
 20
29.82843398700873
 10
357.6255550410689
 20
29.93084062260113
 10
357.6216834455621
 20
30.02466721621271
 10
357.6301412811978
 20
30.07767334852302
 10
357.617669893045
 20
30.1294222766314
 10
357.6625729387464
 20
30.11581539238705
 10
357.7038706834387
 20
30.11831272332536
 10
357.7678967278665
 20
30.11378852586437
 10
357.8069734146401
 20
30.10511795055258
 10
357.8560166496356
 20
30.11245894082638
 10
357.8308703028205
 20
30.07333688063705
 10
357.7899524331337
 20
30.08294634467761
 10
357.7993732614217
 20
30.03270940181728
 10
357.793927031636
 20
29.9811673765144
 10
357.796532259942
 20
29.8969049959647
 10
357.7953725199767
 20
29.80289927595358
 10
357.7967214061845
 20
29.70927657407475
 10
357.7933593099124
 20
29.62410309564172
 10
357.8004582915382
 20
29.57447648083993
 10
357.789619215216
 20
29.52724486981938
 10
357.8387633222858
 20
29.539324669488
 10
357.8878500627761
 20
29.5317818537496
 10
357.9657337278256
 20
29.53416862373381
 10
358.0433988170511
 20
29.53630173917365
 10
358.0929016928968
 20
29.52924183934403
 10
358.1428217748255
 20
29.54090943948166
 10
358.1306821514492
 20
29.49271027383342
 10
358.138946122676
 20
29.44980011813184
 10
358.1306821648398
 20
29.40688993863334
 10
358.1428217547468
 20
29.35869080766812
 10
358.0929018156361
 20
29.37035826483459
 10
358.0433973648817
 20
29.36329994446994
 10
357.9657407380586
 20
29.36542457240552
 10
357.8878266863375
 20
29.3678418137771
 10
357.838812335033
 20
29.36022640206434
 10
357.7896869106556
 20
29.37238744569542
 10
357.7999182986185
 20
29.32803805436107
 10
357.7940300675667
 20
29.2865622821486
 10
357.7962411303183
 20
29.22646186327253
 10
357.7957732343759
 20
29.17956574774839
 10
357.7958009990527
 20
29.15380938430147
 10
357.7958092026267
 20
29.1461995519967
 97
        1
330
A6
 75
     1
 76
     2
 52
45.0
 41
0.1
 77
     0
 78
     1
 53
45.0
 43
0.0
 44
0.0
 45
-0.282842712474619
 46
0.0
 79
     0
 98
        1
 10
0.0
 20
0.0
  0
HATCH
  5
C4
330
48
100
AcDbEntity
  8
1
  6
Continuous
 62
     2
100
AcDbHatch
 10
0.0
 20
0.0
 30
0.0
210
0.0
220
0.0
230
1.0
  2
CUSTOM6
 70
     0
 71
     1
 91
        1
 92
        1
 93
        1
 72
     4
 94
        3
 73
     0
 74
     0
 95
       91
 96
       87
 40
0.0
 40
0.0
 40
0.0
 40
0.0
 40
0.034598705169515
 40
0.1258134969461938
 40
0.2547723404888418
 40
0.4026032099154125
 40
0.5504340793416989
 40
0.679392922883608
 40
0.7706077146571604
 40
0.8052064287780925
 40
1.124852390615268
 40
1.42740223630886
 40
1.706356627453494
 40
1.955541417875168
 40
2.169485938566325
 40
2.344350786664757
 40
2.480568411561933
 40
2.590440557428928
 40
2.649189927151109
 40
2.749320643306322
 40
2.912632739880025
 40
3.147745656000216
 40
3.244827496385156
 40
3.338490056946795
 40
3.583815413207219
 40
3.761423943238587
 40
3.886956104362738
 40
3.985855451886966
 40
4.091766255337851
 40
4.250186473812044
 40
4.422734315084646
 40
4.62828568483877
 40
4.872093227758587
 40
5.152549652145715
 40
5.464967135837683
 40
5.80320147785261
 40
6.160362988814079
 40
6.193449448276162
 40
6.284170385501731
 40
6.419718138764658
 40
6.58728504638588
 40
6.774063446723851
 40
6.967245678113834
 40
7.154024078817876
 40
7.321590987026234
 40
7.457138740890564
 40
7.547859678556385
 40
7.58094613818286
 40
7.608533084714917
 40
7.669224367077899
 40
7.729915649430126
 40
7.757502595950182
 40
7.790278062553551
 40
7.880146277431077
 40
8.01441996318054
 40
8.180411842398126
 40
8.365434637679567
 40
8.556801071622868
 40
8.741823866831037
 40
8.907815745916576
 40
9.042089431507787
 40
9.131957646249855
 40
9.16473311279746
 40
9.415425063140377
 40
9.667986180958838
 40
9.694169807462892
 40
9.756607686047907
 40
9.831130315322856
 40
9.89356819390032
 40
9.919751820399137
 40
9.950967964690964
 40
9.996421631211074
 40
10.22087981037496
 40
10.44341866197584
 40
10.47847970788899
 40
10.570913374388
 40
10.70159545461274
 40
10.85140174170402
 40
11.00120802880525
 40
11.13189010907427
 40
11.22432377583055
 40
11.25938480938993
 40
11.28697175596182
 40
11.34766303835956
 40
11.40835432042107
 40
11.43594125892142
 40
11.43594125892142
 40
11.43594125892142
 40
11.43594125892142
 10
362.5901737330904
 20
29.42973587137026
 10
362.5786408842555
 20
29.42973582299864
 10
362.5367032442614
 20
29.42973565716113
 10
362.451775271664
 20
29.42973917812858
 10
362.3291311550743
 20
29.42971718447826
 10
362.1874829914607
 20
29.42981593189003
 10
362.0463376696105
 20
29.42945478244369
 10
361.9224974315518
 20
29.43052675621038
 10
361.8400840822995
 20
29.42823041103217
 10
361.681141422731
 20
29.43779361385369
 10
361.8587025350989
 20
29.07516186323318
 10
361.8463362203067
 20
28.82973919735064
 10
361.9148142471478
 20
28.54593293336784
 10
361.9776647318583
 20
28.30981791950984
 10
362.0535876429343
 20
28.1105753240808
 10
362.138681257463
 20
27.95476139463322
 10
362.232823059055
 20
27.85388649793343
 10
362.3366271205342
 20
27.80196644650916
 10
362.4209495028387
 20
27.85337276391565
 10
362.4434945177068
 20
27.96875336049467
 10
362.4829353972984
 20
28.0961594171433
 10
362.4286542732556
 20
28.41353120098704
 10
362.5534841070088
 20
28.26712972152854
 10
362.7102914511217
 20
28.23526092343125
 10
362.6031343004672
 20
28.00152149779576
 10
362.5892334207481
 20
27.83703568595608
 10
362.531833246484
 20
27.70861661134429
 10
362.4418643142623
 20
27.63749594364779
 10
362.3178897655492
 20
27.62163116154203
 10
362.1717896194475
 20
27.65724589566121
 10
362.0327517317899
 20
27.7773136251223
 10
361.9185626959758
 20
27.95166474562267
 10
361.8229764299101
 20
28.17677395123192
 10
361.7402275570239
 20
28.44119038018389
 10
361.6890802254026
 20
28.75918725110494
 10
361.5853812204952
 20
29.0327452050086
 10
361.7126464206134
 20
29.43736610624817
 10
361.5441513620633
 20
29.42843159861627
 10
361.4595618784691
 20
29.43046753430313
 10
361.3273499385243
 20
29.42944729400354
 10
361.1644128091718
 20
29.42984022330379
 10
360.9817382168147
 20
29.42966488325317
 10
360.7930680370997
 20
29.42990897319418
 10
360.6098092017803
 20
29.42916449918184
 10
360.4488369830332
 20
29.43147152534373
 10
360.3113431332889
 20
29.42530596895611
 10
360.2373213369924
 20
29.43763630470161
 10
360.1696838184471
 20
29.42060115735507
 10
360.1815996716883
 20
29.47255230459477
 10
360.1739300283308
 20
29.51802216978478
 10
360.181621522273
 20
29.56345245715654
 10
360.1696764795375
 20
29.61533187996518
 10
360.236721130348
 20
29.59849935502214
 10
360.310099866329
 20
29.61066201104623
 10
360.4462751302885
 20
29.60458023086906
 10
360.6057434799127
 20
29.60685626327009
 10
360.7872796083449
 20
29.60612026010911
 10
360.9741657859794
 20
29.60636746208085
 10
361.1551635314449
 20
29.60617192811203
 10
361.3164425576492
 20
29.60663026726787
 10
361.4477505122502
 20
29.60543465763157
 10
361.5308674320211
 20
29.60782139331693
 10
361.6639859545429
 20
29.59961397737412
 10
361.5729516500273
 20
29.85483660964603
 10
361.4873256072032
 20
30.11895150340192
 10
361.607421200107
 20
30.10635234981115
 10
361.6597887946157
 20
30.10425027775023
 10
361.729812056733
 20
30.10266191901606
 10
361.7755545335433
 20
30.09333359550062
 10
361.8304435644547
 20
30.10276758927375
 10
361.8047197783296
 20
30.05463820667123
 10
361.6909020569066
 20
30.05997621756115
 10
361.824296961875
 20
29.83179966588725
 10
361.7027281733086
 20
29.59887648607874
 10
361.8306811767029
 20
29.60818050896388
 10
361.9132671404076
 20
29.60531793766631
 10
362.039083784844
 20
29.60654229424252
 10
362.1825092835673
 20
29.60663223900914
 10
362.3241043949344
 20
29.60476955195804
 10
362.4542750247584
 20
29.61063867949112
 10
362.5277075283807
 20
29.59801132835156
 10
362.597473591971
 20
29.61608355122359
 10
362.5859395603012
 20
29.56343642558276
 10
362.5916807344296
 20
29.51952109698496
 10
362.5900238768527
 20
29.46820774688499
 10
362.5901380559284
 20
29.43889584033583
 10
362.5901737330904
 20
29.42973587137026
 97
        1
330
A7
 75
     1
 76
     2
 52
45.0
 41
0.1
 77
     0
 78
     1
 53
45.0
 43
0.0
 44
0.0
 45
-0.282842712474619
 46
0.0
 79
     0
 98
        1
 10
0.0
 20
0.0
  0
HATCH
  5
C5
330
48
100
AcDbEntity
  8
1
  6
Continuous
 62
     2
100
AcDbHatch
 10
0.0
 20
0.0
 30
0.0
210
0.0
220
0.0
230
1.0
  2
CUSTOM7
 70
     0
 71
     1
 91
        1
 92
        1
 93
        1
 72
     4
 94
        3
 73
     0
 74
     0
 95
       75
 96
       71
 40
0.0
 40
0.0
 40
0.0
 40
0.0
 40
0.0342546099129673
 40
0.12456224144324
 40
0.25223854808975
 40
0.3985991922940644
 40
0.5449598364980768
 40
0.6726361431438799
 40
0.7629437746736836
 40
0.7971983935297866
 40
1.101723623449702
 40
1.40859124403668
 40
1.433332471690393
 40
1.487763172450174
 40
1.542193873082012
 40
1.566935100592563
 40
1.923523931821984
 40
2.271755704953728
 40
2.590579755100998
 40
2.858943305581171
 40
2.889120339309208
 40
2.918305855191157
 40
2.941366645531309
 40
2.996357760973167
 40
3.061992318140712
 40
3.116983433626885
 40
3.140044223997585
 40
3.411273122936478
 40
3.732441619741143
 40
3.761068217532842
 40
3.837787499630402
 40
3.948858699126046
 40
4.080541049104419
 40
4.219093782625809
 40
4.350776132722356
 40
4.461847332405694
 40
4.538566614678428
 40
4.567193212544674
 40
4.59490757399896
 40
4.666381453557499
 40
4.764111044011138
 40
4.870592538125885
 40
4.968322128642449
 40
5.039796008287106
 40
5.067510369784537
 40
5.094263603185749
 40
5.153120716668387
 40
5.211977830150837
 40
5.23873106355184
 40
5.272290535139079
 40
5.363380529444911
 40
5.497618415781646
 40
5.660621563453859
 40
5.838007341749532
 40
6.015393119910827
 40
6.178396267038594
 40
6.312634151842432
 40
6.403724143059507
 40
6.437283612672574
 40
6.464036846261192
 40
6.522893960004805
 40
6.581751071484075
 40
6.60850430159102
 40
6.637253941281224
 40
6.711397748902962
 40
6.812778057283574
 40
6.923237199249322
 40
7.024617507623966
 40
7.098761315207619
 40
7.127510946007569
 40
7.127510946007569
 40
7.127510946007569
 40
7.127510946007569
 10
360.9502245388179
 20
28.83579920485214
 10
360.9502245817321
 20
28.8243810542067
 10
360.9502247478742
 20
28.78286049854578
 10
360.9502216079402
 20
28.69877714015723
 10
360.9502411277415
 20
28.57735289334278
 10
360.9501535185352
 20
28.43711286059398
 10
360.9504739232844
 20
28.29737348806526
 10
360.9495228907356
 20
28.1747583090688
 10
360.9515601593581
 20
28.09317866449993
 10
360.9433056176362
 20
27.94002059089649
 10
361.2514420938519
 20
28.10291028066668
 10
361.5434268171344
 20
28.27213730699947
 10
361.5491977446325
 20
28.13704027793862
 10
361.5539094717506
 20
28.09348013172393
 10
361.5566158409533
 20
28.04942041362494
 10
361.5756168670576
 20
27.90003382375082
 10
361.1667565244916
 20
27.96411964253213
 10
360.8877333346447
 20
27.85027133422964
 10
360.610170458478
 20
27.75094887823096
 10
360.3183460182015
 20
27.79361479608299
 10
360.2952767676273
 20
27.69052471756492
 10
360.2621097380949
 20
27.6642188325642
 10
360.2564276960351
 20
27.71186101048249
 10
360.2367837556659
 20
27.74911128127022
 10
360.2178712483238
 20
27.80738179859511
 10
360.2026472865323
 20
27.85115993019757
 10
360.1560869370547
 20
27.9649021305825
 10
360.4974520310067
 20
27.93307093132
 10
360.7763272364998
 20
27.8989222711843
 10
360.7701376032522
 20
28.046447684916
 10
360.7714558450387
 20
28.11743942920782
 10
360.7708454687564
 20
28.22450559970611
 10
360.7709494568339
 20
28.35129321797947
 10
360.7713610961671
 20
28.48580035507999
 10
360.7697530839583
 20
28.61126341963134
 10
360.7743525565539
 20
28.72236038731067
 10
360.7647809499826
 20
28.78492678812638
 10
360.7787624781305
 20
28.84326180306951
 10
360.723100738432
 20
28.83020502594189
 10
360.6659278195435
 20
28.83867099761448
 10
360.5699671923262
 20
28.83460768092587
 10
360.4717390520436
 20
28.83701681864424
 10
360.3756205455172
 20
28.83282392625336
 10
360.3188271523426
 20
28.84160138453112
 10
360.2633979870998
 20
28.82825728862071
 10
360.2754302425531
 20
28.87767702971207
 10
360.2675626171551
 20
28.92124780042345
 10
360.2749918561442
 20
28.96561261130475
 10
360.2635553561758
 20
29.01633089775941
 10
360.3315725367747
 20
28.99893252769694
 10
360.4052119877361
 20
29.01148242249138
 10
360.5408687055825
 20
29.00530469023048
 10
360.696853202214
 20
29.00759995105035
 10
360.8699549355757
 20
29.0067176027448
 10
361.0430565961796
 20
29.00759999154359
 10
361.1990412808831
 20
29.005304549675
 10
361.3346974887411
 20
29.01148278274382
 10
361.4083379703267
 20
28.99893186230284
 10
361.4763537172338
 20
29.01633165024092
 10
361.4649213883536
 20
28.96560922426504
 10
361.4723162455911
 20
28.92127852823058
 10
361.4645662909885
 20
28.87759099562145
 10
361.4764826739491
 20
28.82794382110425
 10
361.4191793221231
 20
28.84192203350375
 10
361.3603768787386
 20
28.83270547685203
 10
361.2608916630815
 20
28.8368306017688
 10
361.1577903095964
 20
28.83553552037838
 10
361.0621469352188
 20
28.8358486908959
 10
360.9941090969232
 20
28.83579568709094
 10
360.9598085211057
 20
28.83579843883605
 10
360.9502245388179
 20
28.83579920485214
 97
        1
330
A8
 75
     1
 76
     2
 52
45.0
 41
0.1
 77
     0
 78
     1
 53
45.0
 43
0.0
 44
0.0
 45
-0.282842712474619
 46
0.0
 79
     0
 98
        1
 10
0.0
 20
0.0
  0
HATCH
  5
C6
330
48
100
AcDbEntity
  8
1
  6
Continuous
 62
     2
100
AcDbHatch
 10
0.0
 20
0.0
 30
0.0
210
0.0
220
0.0
230
1.0
  2
CUSTOM8
 70
     0
 71
     1
 91
        1
 92
        1
 93
        1
 72
     4
 94
        3
 73
     0
 74
     0
 95
       15
 96
       11
 40
0.0
 40
0.0
 40
0.0
 40
0.0
 40
0.2785535985096574
 40
0.5215624748198446
 40
0.607691737604029
 40
0.6938210001741023
 40
0.9405019146454018
 40
1.221691403489099
 40
1.300471877081018
 40
1.379252341684829
 40
1.379252341684829
 40
1.379252341684829
 40
1.379252341684829
 10
362.0765116628614
 20
30.10661059342331
 10
362.1379640791793
 20
30.05422438604666
 10
362.2530272971728
 20
29.95613668810175
 10
362.5480971494859
 20
29.80620577909169
 10
362.410877062947
 20
29.72074019526965
 10
362.3124850841392
 20
29.58816577213505
 10
362.2213656588264
 20
29.89347777793378
 10
361.8720462478269
 20
29.95698661477322
 10
362.0202881374184
 20
30.05627301892829
 10
362.0577704871851
 20
30.08983140414333
 10
362.0765116628614
 20
30.10661059342331
 97
        1
330
A9
 75
     1
 76
     2
 52
45.0
 41
0.1
 77
     0
 78
     1
 53
45.0
 43
0.0
 44
0.0
 45
-0.282842712474619
 46
0.0
 79
     0
 98
        1
 10
0.0
 20
0.0
  0
HATCH
  5
C7
330
48
100
AcDbEntity
  8
1
  6
Continuous
 62
     2
100
AcDbHatch
 10
0.0
 20
0.0
 30
0.0
210
0.0
220
0.0
230
1.0
  2
CUSTOM9
 70
     0
 71
     1
 91
        1
 92
        1
 93
        1
 72
     4
 94
        3
 73
     0
 74
     0
 95
       35
 96
       31
 40
0.0
 40
0.0
 40
0.0
 40
0.0
 40
0.0335231036620466
 40
0.07132185717124
 40
0.4278866681487218
 40
0.81168658419651
 40
1.198190238000099
 40
1.561379546812732
 40
1.659983174622076
 40
1.759315573807192
 40
2.132719617231173
 40
2.525233363588855
 40
2.910815397779746
 40
3.265244364303291
 40
3.592606723582045
 40
3.96438615460393
 40
4.35994213173784
 40
4.758154118639323
 40
4.843846538699911
 40
4.936650065543327
 40
5.256616602537427
 40
5.581707404416234
 40
5.899719158308308
 40
6.198363494280913
 40
6.466301046615913
 40
6.493895311537291
 40
6.559697020197084
 40
6.63823454344266
 40
6.70403625215444
 40
6.731630508423247
 40
6.731630508423247
 40
6.731630508423247
 40
6.731630508423247
 10
364.4819633566284
 20
30.11194635731084
 10
364.4759629095403
 20
30.10211482554272
 10
364.4631967096772
 20
30.08119780591745
 10
364.3032985004168
 20
30.0485791854465
 10
364.7405648839954
 20
29.75937472348642
 10
364.9429017825876
 20
29.55771930370395
 10
365.1903187265589
 20
29.31480179615222
 10
365.6915136622219
 20
29.23778454769727
 10
365.5209185196586
 20
29.09607731186606
 10
365.4466922460816
 20
28.89441158221054
 10
365.1215055245801
 20
29.24687079186668
 10
364.836136466828
 20
29.40906004571516
 10
364.5421227075271
 20
29.61417922064995
 10
364.316807568875
 20
30.09558280607403
 10
364.1076708053137
 20
29.63073838621177
 10
363.8291496672451
 20
29.42081744264855
 10
363.5455006174823
 20
29.25155248371944
 10
363.2162262525446
 20
28.87873152919884
 10
363.136063531584
 20
29.07438806470957
 10
362.9843347907356
 20
29.20221896202536
 10
363.416701882441
 20
29.28184823777891
 10
363.604618832738
 20
29.47757426927418
 10
363.8552100418119
 20
29.69363788928708
 10
364.0797973467774
 20
29.85921784312006
 10
364.1343398407329
 20
30.13864756648778
 10
364.2578284026626
 20
30.12468742420029
 10
364.3143896342135
 20
30.12252060879598
 10
364.3845493982559
 20
30.11777651893308
 10
364.441703701972
 20
30.11440221362493
 10
364.4727813318453
 20
30.11250646723069
 10
364.4819633566284
 20
30.11194635731084
 97
        1
330
AA
 75
     1
 76
     2
 52
45.0
 41
0.1
 77
     0
 78
     1
 53
45.0
 43
0.0
 44
0.0
 45
-0.282842712474619
 46
0.0
 79
     0
 98
        1
 10
0.0
 20
0.0
  0
HATCH
  5
C8
330
48
100
AcDbEntity
  8
1
  6
Continuous
 62
     2
100
AcDbHatch
 10
0.0
 20
0.0
 30
0.0
210
0.0
220
0.0
230
1.0
  2
CUSTOM10
 70
     0
 71
     1
 91
        1
 92
        1
 93
        1
 72
     4
 94
        3
 73
     0
 74
     0
 95
       91
 96
       87
 40
0.0
 40
0.0
 40
0.0
 40
0.0
 40
0.0267532254356701
 40
0.085610338646412
 40
0.1444674521996603
 40
0.1712206856618514
 40
0.2039416005642252
 40
0.2955601971652769
 40
0.4362601844616634
 40
0.6162252844506966
 40
0.8256392189704698
 40
1.054685709844354
 40
1.29354847889356
 40
1.532411247938275
 40
1.761457738799596
 40
1.970871673298451
 40
2.150836773256732
 40
2.291536760495593
 40
2.3831553568367
 40
2.415876284101263
 40
2.44262951748791
 40
2.50148663094904
 40
2.560343744424189
 40
2.58709697782646
 40
2.617068194440859
 40
2.699247336756085
 40
2.822032643466312
 40
2.973822353257813
 40
3.143014704823284
 40
3.318007936879863
 40
3.48720028818664
 40
3.638989997548177
 40
3.761775303794676
 40
3.843954445752982
 40
3.873925662229706
 40
3.890812773500415
 40
3.90769988477165
 40
3.937960767857315
 40
3.980983618142374
 40
4.199085915228526
 40
4.439444339237274
 40
4.677588241260929
 40
5.050698317837843
 40
5.448212454763172
 40
5.85529121804464
 40
6.138575438885229
 40
6.417434507584067
 40
6.444551104393678
 40
6.504207617363004
 40
6.563864130314329
 40
6.590980727103896
 40
6.848609460381278
 40
7.109611990668219
 40
7.352910904445936
 40
7.557830220705256
 40
7.587518925913125
 40
7.652834077375569
 40
7.718149228845552
 40
7.747837934061783
 40
7.854880190300731
 40
7.976511257403242
 40
8.369487896592071
 40
8.757514959223393
 40
9.126072419330912
 40
9.46063938039192
 40
9.746695593035575
 40
9.77756994311834
 40
9.807050320931465
 40
9.83037733612861
 40
9.886003295435659
 40
9.952395569429584
 40
10.00802152870595
 40
10.03134854388187
 40
10.21356951009552
 40
10.42203479292829
 40
10.66154556731023
 40
10.91693789564263
 40
11.15832906556526
 40
11.1898267459658
 40
11.27286608520368
 40
11.3902665303331
 40
11.5248475284084
 40
11.65942852648399
 40
11.77682897161438
 40
11.85986831085634
 40
11.89136598230383
 40
11.89136598230383
 40
11.89136598230383
 40
11.89136598230383
 10
363.2111508005811
 20
28.58430392713722
 10
363.2111860762903
 20
28.59318639323935
 10
363.211298970841
 20
28.62161029059296
 10
363.2096607566103
 20
28.67140431181753
 10
363.2153373290525
 20
28.71388356490104
 10
363.2040551729321
 20
28.76460946868796
 10
363.2715919976648
 20
28.7474369275206
 10
363.3471652208314
 20
28.76021019177945
 10
363.4911980053615
 20
28.75360521469332
 10
363.6653042183041
 20
28.75619254218417
 10
363.8723222608618
 20
28.75531383967502
 10
364.0978311169993
 20
28.75558999931978
 10
364.3334785291019
 20
28.75549131670612
 10
364.5691263528964
 20
28.75558976424717
 10
364.7946340578241
 20
28.75531470202739
 10
365.001655763042
 20
28.75618978282684
 10
365.1757511912903
 20
28.75361314690396
 10
365.3198115069601
 20
28.76019082461164
 10
365.3953314912908
 20
28.74747035417555
 10
365.4629399034644
 20
28.76457192203635
 10
365.4514463138291
 20
28.7140557781489
 10
365.4588727579347
 20
28.6698404423845
 10
365.4512461925603
 20
28.62598758515561
 10
365.4630112457038
 20
28.57609166491278
 10
365.4014411489598
 20
28.59124019724463
 10
365.3340414736284
 20
28.58041457362623
 10
365.2096627053837
 20
28.58582823638186
 10
365.0638051234185
 20
28.58379997402735
 10
364.8977199437699
 20
28.58446569590336
 10
364.727203561934
 20
28.58420435533192
 10
364.5603413853003
 20
28.58452345403044
 10
364.4170969824721
 20
28.58366094602712
 10
364.2856936867448
 20
28.58594092494938
 10
364.2323482132271
 20
28.58138496386152
 10
364.1568811454527
 20
28.58730707004829
 10
364.1852698776847
 20
28.57824961355301
 10
364.2117275407159
 20
28.57456704280881
 10
364.1717145905316
 20
28.54385063980225
 10
364.0797286689483
 20
28.55398383186584
 10
364.0523019204683
 20
28.30763294259738
 10
363.956241696485
 20
28.15230350776323
 10
363.7000900962088
 20
27.82256209943518
 10
364.2711160730376
 20
27.961608142224
 10
364.5257279318131
 20
27.96022571985316
 10
365.1363270046231
 20
27.8752136125403
 10
364.8424321575696
 20
28.17416209570164
 10
364.5216927284135
 20
28.32061648913712
 10
364.6397166358047
 20
28.37756332830241
 10
364.6808339463876
 20
28.40150891885296
 10
364.7240435392025
 20
28.42330550823179
 10
364.8258197092065
 20
28.48659513265856
 10
364.9412490622861
 20
28.2287794342073
 10
365.1413214639891
 20
28.09346833125629
 10
365.2352700384843
 20
27.91523587150835
 10
365.4642452744005
 20
27.75728613039004
 10
365.3679654844322
 20
27.70646764588247
 10
365.3251582761393
 20
27.67612084535003
 10
365.2801866526393
 20
27.65196922293415
 10
365.2205343922827
 20
27.60282938759514
 10
365.187335405894
 20
27.73728267685561
 10
365.066563634841
 20
27.89325057298531
 10
364.7054599003593
 20
27.76300720071506
 10
364.3468684953155
 20
27.77955486421433
 10
363.9654543447693
 20
27.77062021363817
 10
363.6787078280507
 20
27.70613463684355
 10
363.3675678597326
 20
27.81961460204779
 10
363.3352360816403
 20
27.70853051939715
 10
363.2979801250933
 20
27.68927105861963
 10
363.2949360630369
 20
27.73605576099245
 10
363.2763515858222
 20
27.77537645931087
 10
363.2596059614393
 20
27.83496775490183
 10
363.2467353913368
 20
27.87932761883231
 10
363.2125950804045
 20
27.96837123132151
 10
363.4566337455367
 20
27.89911834955717
 10
363.6525017484284
 20
27.87761161069696
 10
363.7479049378893
 20
28.15957276490411
 10
363.802875876721
 20
28.32093837433074
 10
364.024324235477
 20
28.59121969601686
 10
363.8932862378832
 20
28.58279238865686
 10
363.8193649553468
 20
28.58509800508919
 10
363.7061082873859
 20
28.58402170333608
 10
363.5777874805099
 20
28.58438431088459
 10
363.448787502803
 20
28.58428516478036
 10
363.3371463943906
 20
28.58430724724522
 10
363.2598286967641
 20
28.58430371201621
 10
363.2216499529625
 20
28.58430387857031
 10
363.2111508005811
 20
28.58430392713722
 97
        1
330
AB
 75
     1
 76
     2
 52
45.0
 41
0.1
 77
     0
 78
     1
 53
45.0
 43
0.0
 44
0.0
 45
-0.282842712474619
 46
0.0
 79
     0
 98
        1
 10
0.0
 20
0.0
  0
HATCH
  5
C9
330
48
100
AcDbEntity
  8
1
  6
Continuous
 62
     2
100
AcDbHatch
 10
0.0
 20
0.0
 30
0.0
210
0.0
220
0.0
230
1.0
  2
CUSTOM11
 70
     0
 71
     1
 91
        1
 92
        1
 93
        1
 72
     4
 94
        3
 73
     0
 74
     0
 95
      131
 96
      127
 40
0.0
 40
0.0
 40
0.0
 40
0.0
 40
0.0195577029826226
 40
0.0426490537461495
 40
0.2863607575856683
 40
0.5344948436189467
 40
0.7842238845573561
 40
0.8737315789467747
 40
0.9803832810313413
 40
1.092842274516994
 40
1.199761146656799
 40
1.289788768186549
 40
1.351573580786244
 40
1.370727117561481
 40
1.416400936017899
 40
1.470914848356009
 40
1.516588666791834
 40
1.535742203552912
 40
1.634216592293244
 40
1.7602833411751
 40
1.897966686682183
 40
2.031216387368978
 40
2.049689751137976
 40
2.101115601646907
 40
2.179502577740024
 40
2.27885931831414
 40
2.393194462258794
 40
2.516516648383906
 40
2.642834515406033
 40
2.766156701983537
 40
2.880491846754648
 40
2.979848588358688
 40
3.058235565443869
 40
3.109661416669017
 40
3.128134780704194
 40
3.146783742386596
 40
3.191254343315428
 40
3.244332157316116
 40
3.288802758225962
 40
3.307451719895234
 40
3.327717853844849
 40
3.383747753580206
 40
3.4683886659246
 40
3.574487837698907
 40
3.694892515729009
 40
3.822449946852149
 40
3.950007377920539
 40
4.070412055800631
 40
4.176511227368184
 40
4.261152139501636
 40
4.317182039076823
 40
4.337448172964745
 40
4.620011002696321
 40
4.885096638397611
 40
4.945373043518432
 40
5.014107710488793
 40
5.070481727652168
 40
5.319246955636669
 40
5.584812164506181
 40
5.859000912057036
 40
6.133746937542202
 40
6.401732212969001
 40
6.42073668399562
 40
6.472845717451185
 40
6.55070274389417
 40
6.646951193874407
 40
6.754234497930759
 40
6.865196086587537
 40
6.972479390357967
 40
7.068727839772158
 40
7.146584865451223
 40
7.198693898189368
 40
7.217698368905565
 40
7.234950401631049
 40
7.27608986427009
 40
7.325191803516197
 40
7.366331266090586
 40
7.383583298769934
 40
7.402779163492283
 40
7.453386443254742
 40
7.524934666445772
 40
7.606953361406084
 40
7.688972056429264
 40
7.760520279784457
 40
7.811127559734728
 40
7.830323424546434
 40
7.847844055300068
 40
7.894799345667106
 40
7.962779392744795
 40
8.043374293560845
 40
8.12817414514975
 40
8.20876904481755
 40
8.276749090377255
 40
8.323704379669817
 40
8.341225010056547
 40
8.358497614800696
 40
8.4016791266869
 40
8.45781509218593
 40
8.513951057728391
 40
8.557132569708319
 40
8.57440517450539
 40
8.602340668616739
 40
8.643455660540306
 40
8.663225271966978
 40
8.715345156564618
 40
8.78903188962896
 40
8.873502045520683
 40
8.957972194324311
 40
9.031658925568204
 40
9.083778811234888
 40
9.103548423003355
 40
9.119550083123949
 40
9.160817522380109
 40
9.217244429110503
 40
9.278724491644988
 40
9.335151398295745
 40
9.376418837358068
 40
9.392420497300856
 40
9.401196302735075
 40
9.417494229384578
 40
9.426270027749878
 40
9.440875075477958
 40
9.475702496999089
 40
9.517270709866203
 40
9.552098131994443
 40
9.566703169884628
 40
9.566703169884628
 40
9.566703169884628
 40
9.566703169884628
 10
367.1253877146094
 20
29.54746663522978
 10
367.1217968090987
 20
29.54184482714111
 10
367.1139662121238
 20
29.52958546431061
 10
367.021359197217
 20
29.49332708052933
 10
366.9971245230859
 20
29.27879236224661
 10
366.8942332843554
 20
29.09928076521657
 10
366.630411536192
 20
28.91346365810096
 10
366.7929094566795
 20
28.83690128578028
 10
366.8690848758453
 20
28.77587485207397
 10
366.9575794070373
 20
28.71246596556705
 10
367.0473553230726
 20
28.6525642623151
 10
367.0967440633661
 20
28.5983294686116
 10
367.1829331154996
 20
28.57017032553782
 10
367.1494883671844
 20
28.53444101664763
 10
367.1298294163926
 20
28.50281180003858
 10
367.1003511215498
 20
28.46206664808015
 10
367.0772612443646
 20
28.43235455501595
 10
367.0463828965971
 20
28.37942214680444
 10
366.9812816363356
 20
28.50471126950855
 10
366.887962312003
 20
28.55944692245884
 10
366.8034259282753
 20
28.61647215951291
 10
366.6806121123357
 20
28.7740607943947
 10
366.6848073844916
 20
28.69766598778785
 10
366.6835101650292
 20
28.65092072173244
 10
366.6841749445692
 20
28.5731557782455
 10
366.6839172984571
 20
28.47632860336371
 10
366.6840054237537
 20
28.36381071090759
 10
366.6839700299897
 20
28.24254877957649
 10
366.6840134755894
 20
28.11817689870912
 10
366.683882294002
 20
27.99698475643285
 10
366.684310055966
 20
27.88421940931694
 10
366.6830301199927
 20
27.78813705780694
 10
366.6863382848657
 20
27.7084461848065
 10
366.6798820737702
 20
27.66545967800734
 10
366.6889831703171
 20
27.6268622438399
 10
366.6531533337549
 20
27.63541679736021
 10
366.6198846812867
 20
27.63073311997397
 10
366.5688185573656
 20
27.63082090771734
 10
366.5353346970427
 20
27.6352522229577
 10
366.4991208406368
 20
27.62691585854459
 10
366.5093405566281
 20
27.66876069191234
 10
366.5020110885387
 20
27.71509352832124
 10
366.5057256133717
 20
27.80105623117964
 10
366.504310355251
 20
27.903359347168
 10
366.5047728552253
 20
28.02184015943461
 10
366.5046396683846
 20
28.14688475165307
 10
366.5046638907659
 20
28.27206620118999
 10
366.5046977923166
 20
28.39017437391009
 10
366.5045683290748
 20
28.49359540721466
 10
366.5049130546695
 20
28.57662828165616
 10
366.5042321276305
 20
28.62874160533193
 10
366.5078209598237
 20
28.7564369983331
 10
366.2909794384053
 20
28.45779508831565
 10
366.1104977919567
 20
28.22994773523462
 10
366.0573945293226
 20
28.37104235301766
 10
366.0284052130763
 20
28.4205655957289
 10
365.9280271060435
 20
28.5237257180206
 10
366.2488750720875
 20
28.6042582703573
 10
366.3773520003045
 20
28.78797075048382
 10
366.5990077322973
 20
28.99662787783711
 10
366.6853847891686
 20
29.17070003240298
 10
366.9633017226683
 20
29.44697843354456
 10
366.84298708369
 20
29.44265351563065
 10
366.7946820348963
 20
29.44345648214502
 10
366.718600045252
 20
29.44305374158533
 10
366.6250633007364
 20
29.4432106762356
 10
366.5201217786171
 20
29.44313294588173
 10
366.4117510736332
 20
29.44326256390505
 10
366.306507723351
 20
29.4428518550264
 10
366.2139860817026
 20
29.44412865683542
 10
366.1351753798322
 20
29.44071558546799
 10
366.0923297562993
 20
29.4475414204827
 10
366.0533122584129
 20
29.43795856213072
 10
366.0609988269478
 20
29.47151571577493
 10
366.0569087401925
 20
29.50254342334182
 10
366.056915436643
 20
29.54967321282852
 10
366.0609862722526
 20
29.58071733658728
 10
366.0533118572197
 20
29.61432653647851
 10
366.0918442403108
 20
29.60479202432822
 10
366.1324851012093
 20
29.6112822751002
 10
366.2035094848077
 20
29.60830942662204
 10
366.2812941147248
 20
29.60905553411107
 10
366.3590915244089
 20
29.60978606056476
 10
366.4300855087521
 20
29.6068502752611
 10
366.4707902789435
 20
29.61326260784903
 10
366.5093476487524
 20
29.60381316187951
 10
366.5010965752542
 20
29.63995484170734
 10
366.5065969666973
 20
29.67860629625177
 10
366.5039377203778
 20
29.74644320573789
 10
366.5049438469146
 20
29.82322433550689
 10
366.5043801015935
 20
29.90580185594708
 10
366.5054337524207
 20
29.98248121241827
 10
366.5026298860745
 20
30.05062782788649
 10
366.5084325718918
 20
30.08863191821295
 10
366.4999277548773
 20
30.12489240089596
 10
366.533923323074
 20
30.11486515783801
 10
366.5678198680714
 20
30.11804058825657
 10
366.621029205796
 20
30.11239757652557
 10
366.6744391572098
 20
30.11165566448376
 10
366.7079537647105
 20
30.10550015494929
 10
366.7471709180653
 20
30.11076821785543
 10
366.7203886696108
 20
30.06984172805437
 10
366.6791733999339
 20
30.08101996550063
 10
366.6866264538488
 20
30.03597848204073
 10
366.6825850949801
 20
29.99143070040095
 10
366.6845337047253
 20
29.91954364633651
 10
366.6835987847376
 20
29.83899422600721
 10
366.6848730187643
 20
29.75904787416944
 10
366.6815666791481
 20
29.68572629095134
 10
366.6885729177576
 20
29.64419435014516
 10
366.678506337774
 20
29.60483210580061
 10
366.7113437801537
 20
29.6119885544293
 10
366.7448200294095
 20
29.60758035149895
 10
366.7998676473633
 20
29.60948735359846
 10
366.857312559293
 20
29.60916158419239
 10
366.9106649245925
 20
29.60837100745032
 10
366.9482163894252
 20
29.61044751130023
 10
366.9706795520851
 20
29.60753130179059
 10
366.9835301071345
 20
29.61303344656005
 10
366.9941878683502
 20
29.61531910209739
 10
367.007025864776
 20
29.62225764600004
 10
367.0229614030686
 20
29.60583838325627
 10
367.0494246918507
 20
29.59439914331397
 10
367.0810428251372
 20
29.57375479847136
 10
367.1070878889767
 20
29.55847661640249
 10
367.1212140721588
 20
29.54997768335134
 10
367.1253877146094
 20
29.54746663522978
 97
        1
330
AC
 75
     1
 76
     2
 52
45.0
 41
0.1
 77
     0
 78
     1
 53
45.0
 43
0.0
 44
0.0
 45
-0.282842712474619
 46
0.0
 79
     0
 98
        1
 10
0.0
 20
0.0
  0
HATCH
  5
CA
330
48
100
AcDbEntity
  8
1
  6
Continuous
 62
     2
100
AcDbHatch
 10
0.0
 20
0.0
 30
0.0
210
0.0
220
0.0
230
1.0
  2
CUSTOM12
 70
     0
 71
     1
 91
        1
 92
        1
 93
        1
 72
     4
 94
        3
 73
     0
 74
     0
 95
      124
 96
      120
 40
0.0
 40
0.0
 40
0.0
 40
0.0
 40
0.0278187229625363
 40
0.1011590162383985
 40
0.2048470170590239
 40
0.3237088716558677
 40
0.4425707262520863
 40
0.5462587270698694
 40
0.6195990203311798
 40
0.6474177522578092
 40
0.6750060736114674
 40
0.735700385524219
 40
0.7963946998053906
 40
0.8239830245571234
 40
0.8540933811101759
 40
0.9373396629409008
 40
1.063094687343125
 40
1.220731268637991
 40
1.399622220914723
 40
1.58914035863765
 40
1.778658496423731
 40
1.957549448940342
 40
2.115186030873049
 40
2.240941056914296
 40
2.324187341760394
 40
2.354297700109243
 40
2.381886024671748
 40
2.442580338710337
 40
2.503274652750357
 40
2.530862977314468
 40
2.560983949278449
 40
2.640393784452766
 40
2.752662861758989
 40
2.881361560118006
 40
3.010060258455025
 40
3.122329335705143
 40
3.201739170817786
 40
3.231860142753175
 40
3.264298024030233
 40
3.352343701778101
 40
3.482095226868631
 40
3.639650650172887
 40
3.811108022565343
 40
3.982565394927851
 40
4.140120818152426
 40
4.269872343141143
 40
4.357918020802203
 40
4.39035590204383
 40
4.423256253992457
 40
4.508104530072836
 40
4.624121560636632
 40
4.750528176031417
 40
4.866545206601864
 40
4.951393482691906
 40
4.984293834645251
 40
5.011450833242166
 40
5.071196230151949
 40
5.130941627057021
 40
5.158098625648685
 40
5.19099897760129
 40
5.275847253689116
 40
5.391864284256664
 40
5.518270899648209
 40
5.634287930209163
 40
5.719136206287836
 40
5.752036558235724
 40
5.782130946282749
 40
5.862783906228924
 40
5.979550131774791
 40
6.117984316640194
 40
6.263641154587739
 40
6.402075339413945
 40
6.518841564907739
 40
6.599494524815325
 40
6.629588912848562
 40
6.654403028226138
 40
6.713575149487877
 40
6.784199939329166
 40
6.843372060493325
 40
6.868186175802485
 40
6.896246243201583
 40
6.9395862337579
 40
6.967846564564531
 40
7.043584251089466
 40
7.153234334451322
 40
7.283231855734072
 40
7.420011856035106
 40
7.550009376579456
 40
7.659659458834851
 40
7.735397144416846
 40
7.763657474851018
 40
7.796409728010647
 40
7.880876065096007
 40
7.996370852465364
 40
8.122208446418202
 40
8.237703224798853
 40
8.322169562010576
 40
8.35492181520556
 40
8.382078813307338
 40
8.441824209206644
 40
8.50156960523979
 40
8.528726603485367
 40
8.561478856695473
 40
8.645945193877523
 40
8.761439980865006
 40
8.88727758076412
 40
9.002772362000698
 40
9.08723869666089
 40
9.119990949235316
 40
9.152428830613015
 40
9.240474508638233
 40
9.370226034149177
 40
9.527781457984062
 40
9.699238830981056
 40
9.870696203978248
 40
10.02825162781367
 40
10.15800315332528
 40
10.24604883135084
 40
10.27848670378486
 40
10.27848670378486
 40
10.27848670378486
 40
10.27848670378486
 10
367.8905450561998
 20
27.89141309397707
 10
367.8998177735139
 20
27.89141290523224
 10
367.9335367534476
 20
27.89141222888665
 10
368.0018329810081
 20
27.89142599255255
 10
368.1003764709194
 20
27.89134016231495
 10
368.2145689462427
 20
27.89172547624201
 10
368.3269517414685
 20
27.89031627909494
 10
368.4297999597733
 20
27.89449909434193
 10
368.4890462872463
 20
27.88553881263933
 10
368.5454888934647
 20
27.89895226538009
 10
368.5329878584569
 20
27.84817990625311
 10
368.5413172633317
 20
27.80320112951016
 10
368.5331793838734
 20
27.75787545002439
 10
368.5454152212072
 20
27.70662724420418
 10
368.4831396487947
 20
27.72178747377226
 10
368.4144136024483
 20
27.71090542722694
 10
368.2866379747205
 20
27.71642096759921
 10
368.1346607509258
 20
27.71431643265648
 10
367.9586318970138
 20
27.71501794600424
 10
367.7728054931901
 20
27.71476029543241
 10
367.5869790434791
 20
27.71501797156554
 10
367.4109503139783
 20
27.71431633859681
 10
367.2589727151809
 20
27.71642124241938
 10
367.1311980662169
 20
27.71090472779591
 10
367.0624700834196
 20
27.72178869137892
 10
367.0001972040498
 20
27.7066257869616
 10
367.0124239287632
 20
27.75788302817121
 10
367.0043627460212
 20
27.80313265284375
 10
367.0124298807507
 20
27.84837149967272
 10
367.0001861484699
 20
27.89964968921909
 10
367.0608640118313
 20
27.88480369375085
 10
367.1246433743351
 20
27.89487240182684
 10
367.2360937351118
 20
27.8902543622395
 10
367.3581156441439
 20
27.89144120917419
 10
367.4803161135437
 20
27.89246655912584
 10
367.5913417285008
 20
27.88823267635352
 10
367.6560140411572
 20
27.89749376533689
 10
367.7174785808116
 20
27.88335215061632
 10
367.7013688598953
 20
27.94966319896467
 10
367.7126603324974
 20
28.02178582133926
 10
367.7071023820175
 20
28.15244552900236
 10
367.7091658059304
 20
28.30338115720191
 10
367.708379012491
 20
28.47066665119837
 10
367.7091468213242
 20
28.63791902344252
 10
367.7071661783243
 20
28.78894081281866
 10
367.7124929154235
 20
28.91936861564944
 10
367.7016724386039
 20
28.99196234617851
 10
367.7173949427491
 20
29.0588126144875
 10
367.6516331130105
 20
29.04311304502776
 10
367.5839990828378
 20
29.05340035095946
 10
367.4699508291426
 20
29.04844578859073
 10
367.3534865672517
 20
29.05144920042425
 10
367.2390177119092
 20
29.04611095155341
 10
367.1723947655427
 20
29.05732060086775
 10
367.1074392712799
 20
29.04079924676963
 10
367.1191612756323
 20
29.0920451248901
 10
367.1116453186736
 20
29.13681125796041
 10
367.1191612876451
 20
29.18157736909912
 10
367.1074392502962
 20
29.23282328141687
 10
367.1723949336813
 20
29.21630173778766
 10
367.2390156337436
 20
29.22751363385893
 10
367.3534975855678
 20
29.22216228722614
 10
367.4699077434577
 20
29.22521980783067
 10
367.5841283172257
 20
29.22009291022659
 10
367.6513773436839
 20
29.23076525367547
 10
367.7166948939054
 20
29.21472874681027
 10
367.7025014446166
 20
29.27680477762003
 10
367.711968246061
 20
29.34317553640713
 10
367.70738920017
 20
29.45970764753916
 10
367.7091319553563
 20
29.59157477034326
 10
367.7081174493006
 20
29.73346752162222
 10
367.7100814341989
 20
29.8649984271453
 10
367.7048291551464
 20
29.98255369294951
 10
367.7157031761089
 20
30.04678581013532
 10
367.7003159639468
 20
30.10839594556997
 10
367.7491214535415
 20
30.09433199394061
 10
367.7937618562341
 20
30.09685534087265
 10
367.8622266944357
 20
30.09243589413658
 10
367.9042729166716
 20
30.08343817555987
 10
367.957116775639
 20
30.09142506878457
 10
367.9290657999629
 20
30.04844709623628
 10
367.8832765246209
 20
30.05990344055783
 10
367.895316207088
 20
29.99904312017086
 10
367.8879709068256
 20
29.93500091480723
 10
367.8914818823777
 20
29.8264016087586
 10
367.8903429757789
 20
29.70225111156702
 10
367.8902797777877
 20
29.56920511841826
 10
367.8916495964484
 20
29.44528173261506
 10
367.8875261798927
 20
29.33599129861287
 10
367.8961386101179
 20
29.2733937210612
 10
367.8830380452016
 20
29.21470925308316
 10
367.9477507325813
 20
29.23092905822853
 10
368.014402895077
 20
29.22001052395261
 10
368.1282402538718
 20
29.22524532185705
 10
368.2440882119712
 20
29.22216339528865
 10
368.3580547260894
 20
29.22749051824462
 10
368.4243964015714
 20
29.21635000178492
 10
368.4890811523094
 20
29.23277771605127
 10
368.4773443770338
 20
29.18156717222
 10
368.4848791060656
 20
29.13681126132952
 10
368.4773443989875
 20
29.09205531021977
 10
368.4890811138351
 20
29.04084482882989
 10
368.4243967072866
 20
29.0572721980617
 10
368.358050942844
 20
29.0461357645922
 10
368.2441082484626
 20
29.05143907905071
 10
368.128161862067
 20
29.04845556605495
 10
368.0146379879736
 20
29.05337684280344
 10
367.9472854316419
 20
29.04315879525469
 10
367.881790812011
 20
29.05876788150766
 10
367.8975336616833
 20
28.99194643839361
 10
367.8866898995827
 20
28.91937849827828
 10
367.8920204627408
 20
28.78893039626368
 10
367.8900759149471
 20
28.63795350197176
 10
367.8906756680828
 20
28.47053035946109
 10
367.890512955722
 20
28.30386968130322
 10
367.8905518485749
 20
28.15090934933586
 10
367.8905439410716
 20
28.02579970997656
 10
367.8905451380359
 20
27.94238683003369
 10
367.8905450713823
 20
27.90222570293926
 10
367.8905450561998
 20
27.89141309397707
 97
        1
330
AD
 75
     1
 76
     2
 52
45.0
 41
0.1
 77
     0
 78
     1
 53
45.0
 43
0.0
 44
0.0
 45
-0.282842712474619
 46
0.0
 79
     0
 98
        1
 10
0.0
 20
0.0
  0
HATCH
  5
CB
330
48
100
AcDbEntity
  8
1
  6
Continuous
 62
     2
100
AcDbHatch
 10
0.0
 20
0.0
 30
0.0
210
0.0
220
0.0
230
1.0
  2
CUSTOM13
 70
     0
 71
     1
 91
        1
 92
        1
 93
        3
 72
     4
 94
        3
 73
     0
 74
     0
 95
       24
 96
       20
 40
0.0
 40
0.0
 40
0.0
 40
0.0
 40
0.2211075008753741
 40
0.4273218586245501
 40
0.5080174679239272
 40
0.5914835907870701
 40
0.8143265690193632
 40
1.054651302686645
 40
1.295452694023226
 40
1.518109231328887
 40
1.540864321905557
 40
1.595126460622735
 40
1.659890947896049
 40
1.714153085187324
 40
1.736908174961679
 40
1.764951100735384
 40
1.801562291220863
 40
1.95391442454356
 40
2.126104167379628
 40
2.126104167379628
 40
2.126104167379628
 40
2.126104167379628
 10
358.4458992554504
 20
29.46720087124967
 10
358.4196202079427
 20
29.40828420246324
 10
358.3688321892041
 20
29.29441931691206
 10
358.3215407836727
 20
29.02172750245066
 10
358.2127105800232
 20
29.12176274587406
 10
358.0598423277251
 20
29.14849385379278
 10
358.2769778178815
 20
29.36248927029578
 10
358.2922106671995
 20
29.58062909794437
 10
358.3990512489615
 20
29.7618237107838
 10
358.3389003944692
 20
30.04644018323346
 10
358.4417940393017
 20
30.01844881234404
 10
358.4863556465765
 20
30.00974043614247
 10
358.546446539301
 20
29.99870446195306
 10
358.5840242585053
 20
29.98498315067508
 10
358.633608992622
 20
29.98486868172174
 10
358.6013781916939
 20
29.95037384410578
 10
358.5255425219496
 20
29.96134896549903
 10
358.5513070157308
 20
29.77589761594404
 10
358.5139519761463
 20
29.6843310556154
 10
358.4941327959224
 20
29.63574927409655
 72
     4
 94
        3
 73
     0
 74
     0
 95
       70
 96
       66
 40
0.0
 40
0.0
 40
0.0
 40
0.0
 40
0.0241731073021472
 40
0.0846058988987582
 40
0.1631685280353284
 40
0.241731157179004
 40
0.3021639488292751
 40
0.3263370654896109
 40
0.3533118254249432
 40
0.4228783438922662
 40
0.5179999095314024
 40
0.6216398239466671
 40
0.7167613891500274
 40
0.7863279069650467
 40
0.8133026791762404
 40
0.8372943998772244
 40
0.8945054261373153
 40
0.9627895541963488
 40
1.020000580349131
 40
1.043992300975257
 40
1.071934345523005
 40
1.113121768773017
 40
1.145225199332345
 40
1.22548377541288
 40
1.329819923771585
 40
1.43415607199448
 40
1.514414647795896
 40
1.546518078208504
 40
1.578974764260221
 40
1.662678849314244
 40
1.777131373668493
 40
1.901833377474856
 40
2.016285900500674
 40
2.099989982528013
 40
2.132446666570371
 40
2.158782354486093
 40
2.216720867907886
 40
2.274659381334307
 40
2.300995069256243
 40
2.333451754066272
 40
2.417155836543981
 40
2.531608358985392
 40
2.656310362283858
 40
2.770762886389019
 40
2.854466971340213
 40
2.886923657363963
 40
2.913597976833395
 40
2.982389642875202
 40
3.07645171694706
 40
3.178937260458679
 40
3.272999334740086
 40
3.341791001059307
 40
3.368465320663618
 40
3.396976080738896
 40
3.472140811846075
 40
3.578408190308765
 40
3.700226892456201
 40
3.82204559463439
 40
3.928312973256411
 40
4.003477705314865
 40
4.031988456866931
 40
4.058324144797731
 40
4.116262658236896
 40
4.174201171400697
 40
4.200536849608633
 40
4.200536849608633
 40
4.200536849608633
 40
4.200536849608633
 10
358.4941327959224
 20
29.63574927409655
 10
358.5021882542295
 20
29.63575151823637
 10
358.5303823660854
 20
29.63575938044746
 10
358.5849157801288
 20
29.63561546840322
 10
358.6566514806219
 20
29.63639912511848
 10
358.7319863134676
 20
29.63358362475759
 10
358.7796675364053
 20
29.64029195412907
 10
358.8278694243231
 20
29.6292835570438
 10
358.8146194797487
 20
29.68277195008982
 10
358.8234716962153
 20
29.73780375555042
 10
358.81923210339
 20
29.83150700738059
 10
358.8217106478896
 20
29.92690274230483
 10
358.8174561703676
 20
30.02087613995337
 10
358.8263441663462
 20
30.07525854449962
 10
358.8130600407559
 20
30.1296478970341
 10
358.8597742274723
 20
30.11573008347307
 10
358.9026877543352
 20
30.11834669385993
 10
358.9689066454298
 20
30.11379214462705
 10
359.0096965269414
 20
30.10508954146111
 10
359.0608768688434
 20
30.11262591902146
 10
359.0337343484813
 20
30.07080762235234
 10
358.9886719053322
 20
30.08015784084547
 10
359.0025688042663
 20
30.01571999383785
 10
358.994203742927
 20
29.9510901163935
 10
358.9987255176013
 20
29.85259933205837
 10
358.9938364308782
 20
29.7532672485452
 10
359.0033881989694
 20
29.69023907564919
 10
358.9883384452815
 20
29.6269480351174
 10
359.0532782454823
 20
29.64245864956218
 10
359.1199869397112
 20
29.63230179709763
 10
359.2325058468443
 20
29.63719592111318
 10
359.3473858446568
 20
29.63421996744734
 10
359.4603494997362
 20
29.63952456196942
 10
359.5259890595292
 20
29.62838098484038
 10
359.5899899688668
 20
29.64475324331807
 10
359.5786765886805
 20
29.59492481917225
 10
359.5858962869124
 20
29.55147507224073
 10
359.5786765608883
 20
29.50802537599394
 10
359.5899900173609
 20
29.45819687208824
 10
359.5259886596587
 20
29.47456958103314
 10
359.4603544238074
 20
29.46342063673536
 10
359.3473597314945
 20
29.46875649218805
 10
359.2326079546258
 20
29.4656513767577
 10
359.1196806684476
 20
29.47095686694539
 10
359.0538843901201
 20
29.45988092031545
 10
358.9899720972972
 20
29.47618389859565
 10
359.0019638162743
 20
29.42154316407692
 10
358.9945727610619
 20
29.36585087059792
 10
358.9976307839598
 20
29.2738048115252
 10
358.9977045783297
 20
29.1790990188505
 10
358.9943936575976
 20
29.08683574914216
 10
359.0023128987518
 20
29.03166560748088
 10
358.9898699609232
 20
28.97788961112085
 10
359.0472739549245
 20
28.9918456087473
 10
359.1078331137999
 20
28.98242249896178
 10
359.2132303852694
 20
28.98673677940653
 10
359.3287917068237
 20
28.98566296623983
 10
359.4443311875411
 20
28.98456757912945
 10
359.5497804128455
 20
28.98893317782582
 10
359.6102303469417
 20
28.9794021804262
 10
359.6676460736724
 20
28.99348081618329
 10
359.656139687432
 20
28.94437945277632
 10
359.6621189779365
 20
28.90295450030599
 10
359.6603934048414
 20
28.85382469978644
 10
359.6605123120585
 20
28.82585220459557
 10
359.6605494689447
 20
28.81711080207899
 72
     4
 94
        3
 73
     0
 74
     0
 95
       62
 96
       58
 40
0.0
 40
0.0
 40
0.0
 40
0.0
 40
0.0598250028307916
 40
0.2024846486896763
 40
0.3727558389219894
 40
0.5154154847934365
 40
0.5752404975784202
 40
0.933232677548605
 40
1.29045176283939
 40
1.602077253145748
 40
1.699931634111982
 40
1.79935975642488
 40
2.270120149656992
 40
2.80466192846145
 40
2.882342287383165
 40
3.076543185719012
 40
3.329004354835473
 40
3.581465524568299
 40
3.775666424543581
 40
3.853346784558199
 40
3.899120679594888
 40
3.984129341791914
 40
4.029903236817291
 40
4.105797496059446
 40
4.295533144152409
 40
4.542189486611648
 40
4.788845828875599
 40
4.978581476409979
 40
5.054475735244226
 40
5.621734664339246
 40
6.130867242037294
 40
6.225249780948523
 40
6.318913039727179
 40
6.663579954558753
 40
7.047498900224546
 40
7.435230791575472
 40
7.498943906667884
 40
7.650875181209821
 40
7.832212509001303
 40
7.984143783696717
 40
8.047856898902815
 40
8.091554632732322
 40
8.172707566963982
 40
8.216405300767711
 40
8.289021782160681
 40
8.46218416075694
 40
8.668861838005078
 40
8.842024215263642
 40
8.914640695474837
 40
8.989881580861045
 40
9.15541152882695
 40
9.320941477743734
 40
9.396182352486983
 40
9.45470901114353
 40
9.583467660170493
 40
9.712226309012715
 40
9.770752957989226
 40
9.770752957989226
 40
9.770752957989226
 40
9.770752957989226
 10
359.6605494689447
 20
28.81711080207899
 10
359.6405971169237
 20
28.8171166758062
 10
359.5730660714079
 20
28.81713655818107
 10
359.4494235159403
 20
28.81680154532275
 10
359.2946803147671
 20
28.8183846576246
 10
359.1780972480095
 20
28.81416870872446
 10
358.9634565631856
 20
28.82945997343574
 10
359.3602571404843
 20
28.46929513298141
 10
359.4029279066883
 20
28.25241295409119
 10
359.8272785144226
 20
28.07055854523396
 10
359.6523444493689
 20
27.96715988580022
 10
359.52781469227
 20
27.7556231522467
 10
359.2749900233557
 20
28.22536873013507
 10
358.9881225891242
 20
28.8724230899647
 10
358.9989958924273
 20
28.56513464166644
 10
358.9966515775575
 20
28.40019408983728
 10
358.9944719124026
 20
28.16610462723644
 10
359.0064397393962
 20
27.92228864433731
 10
358.9771607738245
 20
27.77586588872936
 10
359.0198145623085
 20
27.62844282186489
 10
358.9323437003255
 20
27.64416589318171
 10
358.8852150604358
 20
27.64425095555404
 10
358.7982596205329
 20
27.62840217494859
 10
358.8397097019337
 20
27.77258563434711
 10
358.8113498001901
 20
27.91585844710406
 10
358.8229596772913
 20
28.15405739377215
 10
358.8207798645888
 20
28.38248027252295
 10
358.8186734125609
 20
28.54436521387946
 10
358.8291658435938
 20
28.858845013457
 10
358.5212586250507
 20
28.16960262884383
 10
358.2138881265071
 20
27.69207542255
 10
358.093499006389
 20
27.91471904649376
 10
357.9158230908337
 20
28.02741826967521
 10
358.393694936051
 20
28.2027893547741
 10
358.443758205482
 20
28.43822721263983
 10
358.8667422619333
 20
28.83053781356559
 10
358.6360377271154
 20
28.81386099041013
 10
358.5133308856956
 20
28.82000310960721
 10
358.3409106093276
 20
28.81043614711523
 10
358.2296847692065
 20
28.83179610501614
 10
358.1109402625062
 20
28.7986705736937
 10
358.1266792704301
 20
28.87934692618833
 10
358.1262173931377
 20
28.92376206302803
 10
358.1111504887546
 20
29.00697873790487
 10
358.2456003933058
 20
28.96793443995833
 10
358.3703378543362
 20
28.99470521340373
 10
358.5712378234894
 20
28.97794741056001
 10
358.7005163946968
 20
28.99935017924955
 10
358.8412042925908
 20
28.96599570865369
 10
358.806455045023
 20
29.10382667797018
 10
358.8305808664327
 20
29.22694049361431
 10
358.8050709180008
 20
29.34754847682285
 10
358.8416874144299
 20
29.48270657153444
 10
358.7295040025385
 20
29.45825337793842
 10
358.636397945475
 20
29.47038541853971
 10
358.5275170577436
 20
29.46688422081945
 10
358.4653320638578
 20
29.46712547963552
 10
358.4458992554861
 20
29.46720087136094
 97
        3
330
AF
330
B0
330
AE
 75
     1
 76
     2
 52
45.0
 41
0.1
 77
     0
 78
     1
 53
45.0
 43
0.0
 44
0.0
 45
-0.282842712474619
 46
0.0
 79
     0
 98
        1
 10
0.0
 20
0.0
  0
HATCH
  5
CC
330
48
100
AcDbEntity
  8
1
  6
Continuous
 62
     2
100
AcDbHatch
 10
0.0
 20
0.0
 30
0.0
210
0.0
220
0.0
230
1.0
  2
CUSTOM14
 70
     0
 71
     1
 91
        1
 92
        1
 93
        4
 72
     1
 10
364.9661761030287
 20
29.10606226034007
 11
363.6686594694646
 21
29.10606226034007
 72
     1
 10
363.6686594694646
 20
29.10606226034007
 11
363.6686594694646
 21
29.27453128807576
 72
     1
 10
363.6686594694646
 20
29.27453128807576
 11
364.9661761030287
 21
29.27453128807576
 72
     1
 10
364.9661761030287
 20
29.27453128807576
 11
364.9661761030287
 21
29.10606226034007
 97
        1
330
B1
 75
     1
 76
     2
 52
45.0
 41
0.1
 77
     0
 78
     1
 53
45.0
 43
0.0
 44
0.0
 45
-0.282842712474619
 46
0.0
 79
     0
 98
        1
 10
0.0
 20
0.0
  0
ENDBLK
  5
4A
330
48
100
AcDbEntity
  8
0
100
AcDbBlockEnd
  0
BLOCK
  5
4D
330
4B
100
AcDbEntity
  8
0
100
AcDbBlockBegin
  2
開示A4枠
 70
     0
 10
345.0167245995228
 20
27.754615840239
 30
0.0
  3
開示A4枠
  1

  0
INSERT
  5
4C
330
4B
100
AcDbEntity
  8
1
100
AcDbBlockReference
  2
開示A4
 10
345.0167245995228
 20
27.754615840239
 30
0.0
 41
2.0
 42
2.0
 43
2.0
  0
ENDBLK
  5
4E
330
4B
100
AcDbEntity
  8
0
100
AcDbBlockEnd
  0
BLOCK
  5
12F
330
127
100
AcDbEntity
  8
0
100
AcDbBlockBegin
  2
*D3
 70
     1
 10
0.0
 20
0.0
 30
0.0
  3
*D3
  1

  0
LINE
  5
128
330
127
100
AcDbEntity
  8
1
  6
Continuous
 62
     2
100
AcDbLine
 10
587.3236600668461
 20
302.8522397144987
 30
0.0
 11
587.3236600668461
 21
326.8522397144987
 31
0.0
  0
LINE
  5
129
330
127
100
AcDbEntity
  8
1
  6
Continuous
 62
     2
100
AcDbLine
 10
587.3236600668461
 20
326.8522397144987
 30
0.0
 11
587.3236600668461
 21
349.6414066476671
 31
0.0
  0
LINE
  5
12A
330
127
100
AcDbEntity
  8
1
  6
Continuous
 62
     2
100
AcDbLine
 10
580.5337574349221
 20
298.9320876021861
 30
0.0
 11
590.7877616819839
 21
304.8522397144987
 31
0.0
  0
LINE
  5
12B
330
127
100
AcDbEntity
  8
1
  6
Continuous
 62
     2
100
AcDbLine
 10
580.5337574349221
 20
322.9320876021861
 30
0.0
 11
590.7877616819839
 21
328.8522397144987
 31
0.0
  0
SOLID
  5
12C
330
127
100
AcDbEntity
  8
1
 62
     2
100
AcDbTrace
 10
588.2452275499578
 20
319.8522397144987
 30
0.0
 11
586.4020925837343
 21
319.8522397144987
 31
0.0
 12
587.3236600668461
 22
326.8522397144987
 32
0.0
 13
587.3236600668461
 23
326.8522397144987
 33
0.0
  0
SOLID
  5
12D
330
127
100
AcDbEntity
  8
1
 62
     2
100
AcDbTrace
 10
586.4020925837343
 20
309.8522397144987
 30
0.0
 11
588.2452275499578
 21
309.8522397144987
 31
0.0
 12
587.3236600668461
 22
302.8522397144987
 32
0.0
 13
587.3236600668461
 23
302.8522397144987
 33
0.0
  0
MTEXT
  5
12E
330
127
100
AcDbEntity
  8
1
 62
     7
100
AcDbMText
 10
583.3236600668461
 20
340.6414066476671
 30
0.0
 40
6.0
 41
0.0
 71
     7
 72
     1
  1
24
  7
CONVERTER_12
 11
0.0
 21
1.0
 31
0.0
 73
     1
 44
0.60024009603842
  0
ENDBLK
  5
130
330
127
100
AcDbEntity
  8
0
100
AcDbBlockEnd
  0
BLOCK
  5
13A
330
133
100
AcDbEntity
  8
0
100
AcDbBlockBegin
  2
*D4
 70
     1
 10
0.0
 20
0.0
 30
0.0
  3
*D4
  1

  0
LINE
  5
134
330
133
100
AcDbEntity
  8
1
  6
Continuous
 62
     2
100
AcDbLine
 10
492.2794018454115
 20
412.5723000782668
 30
0.0
 11
655.1092887243749
 21
412.5723000782668
 31
0.0
  0
LINE
  5
135
330
133
100
AcDbEntity
  8
1
  6
Continuous
 62
     2
100
AcDbLine
 10
492.2794018454115
 20
432.5723000782668
 30
0.0
 11
492.2794018454115
 21
408.5723000782668
 31
0.0
  0
LINE
  5
136
330
133
100
AcDbEntity
  8
1
  6
Continuous
 62
     2
100
AcDbLine
 10
655.1092887243749
 20
432.5723000782668
 30
0.0
 11
655.1092887243749
 21
408.5723000782668
 31
0.0
  0
SOLID
  5
137
330
133
100
AcDbEntity
  8
1
 62
     2
100
AcDbTrace
 10
499.2794018454115
 20
413.4938675613785
 30
0.0
 11
499.2794018454115
 21
411.650732595155
 31
0.0
 12
492.2794018454115
 22
412.5723000782668
 32
0.0
 13
492.2794018454115
 23
412.5723000782668
 33
0.0
  0
SOLID
  5
138
330
133
100
AcDbEntity
  8
1
 62
     2
100
AcDbTrace
 10
648.1092887243749
 20
411.650732595155
 30
0.0
 11
648.1092887243749
 21
413.4938675613785
 31
0.0
 12
655.1092887243749
 22
412.5723000782668
 32
0.0
 13
655.1092887243749
 23
412.5723000782668
 33
0.0
  0
MTEXT
  5
139
330
133
100
AcDbEntity
  8
1
 62
     7
100
AcDbMText
 10
565.8851733709841
 20
416.5723000782668
 30
0.0
 40
6.0
 41
0.0
 71
     7
 72
     1
  1
163
  7
CONVERTER_12
 11
0.9999999999970619
 21
2.424068405545306E-6
 31
0.0
 73
     1
 44
0.60024009603842
  0
ENDBLK
  5
13B
330
133
100
AcDbEntity
  8
0
100
AcDbBlockEnd
  0
BLOCK
  5
147
330
13E
100
AcDbEntity
  8
0
100
AcDbBlockBegin
  2
*D5
 70
     1
 10
0.0
 20
0.0
 30
0.0
  3
*D5
  1

  0
LINE
  5
13F
330
13E
100
AcDbEntity
  8
1
  6
Continuous
 62
     2
100
AcDbLine
 10
675.1092887243749
 20
418.5723000782668
 30
0.0
 11
675.1092887243749
 21
432.5723000782668
 31
0.0
  0
LINE
  5
140
330
13E
100
AcDbEntity
  8
1
  6
Continuous
 62
     2
100
AcDbLine
 10
675.1092887243749
 20
432.5723000782668
 30
0.0
 11
675.1092887243749
 21
437.0723000782664
 31
0.0
  0
LINE
  5
141
330
13E
100
AcDbEntity
  8
1
  6
Continuous
 62
     2
100
AcDbLine
 10
675.1092887243749
 20
437.0723000782664
 30
0.0
 11
675.1092887243749
 21
455.39400987781
 31
0.0
  0
LINE
  5
142
330
13E
100
AcDbEntity
  8
1
  6
Continuous
 62
     2
100
AcDbLine
 10
655.1092887243749
 20
432.5723000782668
 30
0.0
 11
679.1092887243749
 21
432.5723000782668
 31
0.0
  0
LINE
  5
143
330
13E
100
AcDbEntity
  8
1
  6
Continuous
 62
     2
100
AcDbLine
 10
655.1092887243749
 20
437.0723000782664
 30
0.0
 11
679.1092887243749
 21
437.0723000782664
 31
0.0
  0
SOLID
  5
144
330
13E
100
AcDbEntity
  8
1
 62
     2
100
AcDbTrace
 10
674.1877212412631
 20
444.0723000782664
 30
0.0
 11
676.0308562074866
 21
444.0723000782664
 31
0.0
 12
675.1092887243749
 22
437.0723000782664
 32
0.0
 13
675.1092887243749
 23
437.0723000782664
 33
0.0
  0
SOLID
  5
145
330
13E
100
AcDbEntity
  8
1
 62
     2
100
AcDbTrace
 10
676.0308562074866
 20
425.5723000782668
 30
0.0
 11
674.1877212412631
 21
425.5723000782668
 31
0.0
 12
675.1092887243749
 22
432.5723000782668
 32
0.0
 13
675.1092887243749
 23
432.5723000782668
 33
0.0
  0
MTEXT
  5
146
330
13E
100
AcDbEntity
  8
1
 62
     7
100
AcDbMText
 10
671.1092887243749
 20
451.79400987781
 30
0.0
 40
6.0
 41
0.0
 71
     7
 72
     1
  1
5
  7
CONVERTER_12
 11
0.0
 21
1.0
 31
0.0
 73
     1
 44
0.60024009603842
  0
ENDBLK
  5
148
330
13E
100
AcDbEntity
  8
0
100
AcDbBlockEnd
  0
BLOCK
  5
152
330
14B
100
AcDbEntity
  8
0
100
AcDbBlockBegin
  2
*D6
 70
     1
 10
0.0
 20
0.0
 30
0.0
  3
*D6
  1

  0
LINE
  5
14C
330
14B
100
AcDbEntity
  8
0
  6
Continuous
 62
     2
100
AcDbLine
 10
454.2226408977359
 20
265.3791243081562
 30
0.0
 11
464.8930326162409
 21
236.0594744579396
 31
0.0
  0
LINE
  5
14D
330
14B
100
AcDbEntity
  8
0
  6
Continuous
 62
     2
100
AcDbLine
 10
493.5611146095233
 20
312.2577716797115
 30
0.0
 11
451.6513900442984
 21
262.3150307964147
 31
0.0
  0
LINE
  5
14E
330
14B
100
AcDbEntity
  8
0
  6
Continuous
 62
     2
100
AcDbLine
 10
504.2315063280283
 20
282.9381218294949
 30
0.0
 11
462.3217817628034
 21
232.995380946198
 31
0.0
  0
SOLID
  5
14F
330
14B
100
AcDbEntity
  8
0
 62
     2
100
AcDbTrace
 10
457.4825668294768
 20
259.1163637710215
 30
0.0
 11
455.7505658450669
 21
258.4860312447157
 31
0.0
 12
454.2226408977359
 22
265.3791243081562
 32
0.0
 13
454.2226408977359
 23
265.3791243081562
 33
0.0
  0
SOLID
  5
150
330
14B
100
AcDbEntity
  8
0
 62
     2
100
AcDbTrace
 10
461.6331066845
 20
242.3222349950744
 30
0.0
 11
463.3651076689098
 21
242.9525675213802
 31
0.0
 12
464.8930326162409
 22
236.0594744579396
 32
0.0
 13
464.8930326162409
 23
236.0594744579396
 33
0.0
  0
MTEXT
  5
151
330
14B
100
AcDbEntity
  8
0
 62
     7
100
AcDbMText
 10
461.7560396227182
 20
256.375441480636
 30
0.0
 40
6.0
 41
0.0
 71
     7
 72
     1
  1
31
  7
CONVERTER_12
 11
0.3419893485051423
 21
-0.9397038286125201
 31
0.0
 73
     1
 44
0.60024009603842
  0
ENDBLK
  5
153
330
14B
100
AcDbEntity
  8
0
100
AcDbBlockEnd
  0
BLOCK
  5
15E
330
156
100
AcDbEntity
  8
0
100
AcDbBlockBegin
  2
*D7
 70
     1
 10
0.0
 20
0.0
 30
0.0
  3
*D7
  1

  0
LINE
  5
157
330
156
100
AcDbEntity
  8
0
  6
Continuous
 62
     2
100
AcDbLine
 10
479.9238567429315
 20
241.4275757986229
 30
0.0
 11
485.7763473519856
 21
225.3479900026764
 31
0.0
  0
LINE
  5
158
330
156
100
AcDbEntity
  8
0
  6
Continuous
 62
     2
100
AcDbLine
 10
469.7658584861593
 20
269.3364466359645
 30
0.0
 11
479.9238567429315
 21
241.4275757986229
 31
0.0
  0
LINE
  5
159
330
156
100
AcDbEntity
  8
0
  6
Continuous
 62
     2
100
AcDbLine
 10
520.346417746693
 20
289.6013080967136
 30
0.0
 11
477.3527063041853
 21
238.363398026147
 31
0.0
  0
LINE
  5
15A
330
156
100
AcDbEntity
  8
0
  6
Continuous
 62
     2
100
AcDbLine
 10
510.1884194899208
 20
317.5101789340552
 30
0.0
 11
467.1947080474131
 21
266.2722688634886
 31
0.0
  0
SOLID
  5
15B
330
156
100
AcDbEntity
  8
0
 62
     2
100
AcDbTrace
 10
473.0259896528754
 20
263.0737929331213
 30
0.0
 11
471.2940093260026
 21
262.443403647805
 31
0.0
 12
469.7658584861593
 22
269.3364466359645
 32
0.0
 13
469.7658584861593
 23
269.3364466359645
 33
0.0
  0
SOLID
  5
15C
330
156
100
AcDbEntity
  8
0
 62
     2
100
AcDbTrace
 10
476.6637255762155
 20
247.6902295014661
 30
0.0
 11
478.3957059030882
 21
248.3206187867824
 31
0.0
 12
479.9238567429315
 22
241.4275757986229
 32
0.0
 13
479.9238567429315
 23
241.4275757986229
 33
0.0
  0
MTEXT
  5
15D
330
156
100
AcDbEntity
  8
0
 62
     7
100
AcDbMText
 10
484.4556010427273
 20
242.426210904942
 30
0.0
 40
6.0
 41
0.0
 71
     7
 72
     1
  1
29,5
  7
CONVERTER_12
 11
0.342020143325663
 21
-0.9396926207859104
 31
0.0
 73
     1
 44
0.60024009603842
  0
ENDBLK
  5
15F
330
156
100
AcDbEntity
  8
0
100
AcDbBlockEnd
  0
BLOCK
  5
16A
330
162
100
AcDbEntity
  8
0
100
AcDbBlockBegin
  2
*D8
 70
     1
 10
0.0
 20
0.0
 30
0.0
  3
*D8
  1

  0
LINE
  5
163
330
162
100
AcDbEntity
  8
0
  6
Continuous
 62
     2
100
AcDbLine
 10
484.6923564824804
 20
275.2246151934062
 30
0.0
 11
494.3373245242646
 21
248.7252832872434
 31
0.0
  0
LINE
  5
164
330
162
100
AcDbEntity
  8
0
  6
Continuous
 62
     2
100
AcDbLine
 10
494.3373245242646
 20
248.7252832872434
 30
0.0
 11
499.3012844679789
 21
235.0869154308116
 31
0.0
  0
LINE
  5
165
330
162
100
AcDbEntity
  8
0
  6
Continuous
 62
     2
100
AcDbLine
 10
523.6006312884174
 20
321.5936914750251
 30
0.0
 11
482.1212060437343
 21
272.1604374209302
 31
0.0
  0
LINE
  5
166
330
162
100
AcDbEntity
  8
0
  6
Continuous
 62
     2
100
AcDbLine
 10
533.2455993302016
 20
295.0943595688623
 30
0.0
 11
491.7661740855185
 21
245.6611055147674
 31
0.0
  0
SOLID
  5
167
330
162
100
AcDbEntity
  8
0
 62
     2
100
AcDbTrace
 10
487.9524876491964
 20
268.9619614905629
 30
0.0
 11
486.2205073223237
 21
268.3315722052466
 31
0.0
 12
484.6923564824804
 22
275.2246151934062
 32
0.0
 13
484.6923564824804
 23
275.2246151934062
 33
0.0
  0
SOLID
  5
168
330
162
100
AcDbEntity
  8
0
 62
     2
100
AcDbTrace
 10
491.0771933575485
 20
254.9879369900866
 30
0.0
 11
492.8091736844213
 21
255.6183262754029
 31
0.0
 12
494.3373245242646
 22
248.7252832872434
 32
0.0
 13
494.3373245242646
 23
248.7252832872434
 33
0.0
  0
MTEXT
  5
169
330
162
100
AcDbEntity
  8
0
 62
     7
100
AcDbMText
 10
499.9818736611914
 20
244.9122295911874
 30
0.0
 40
6.0
 41
0.0
 71
     7
 72
     1
  1
28
  7
CONVERTER_12
 11
0.3420201433256769
 21
-0.9396926207859052
 31
0.0
 73
     1
 44
0.60024009603842
  0
ENDBLK
  5
16B
330
162
100
AcDbEntity
  8
0
100
AcDbBlockEnd
  0
BLOCK
  5
175
330
16E
100
AcDbEntity
  8
0
100
AcDbBlockBegin
  2
*D9
 70
     1
 10
0.0
 20
0.0
 30
0.0
  3
*D9
  1

  0
LINE
  5
16F
330
16E
100
AcDbEntity
  8
0
  6
Continuous
 62
     2
100
AcDbLine
 10
670.9609735555769
 20
366.2682490633978
 30
0.0
 11
681.2899818840126
 21
337.8895319156636
 31
0.0
  0
LINE
  5
170
330
16E
100
AcDbEntity
  8
0
  6
Continuous
 62
     2
100
AcDbLine
 10
643.4985676318277
 20
333.539828142488
 30
0.0
 11
673.532123994323
 21
369.3324268358738
 31
0.0
  0
LINE
  5
171
330
16E
100
AcDbEntity
  8
0
  6
Continuous
 62
     2
100
AcDbLine
 10
653.8275759602634
 20
305.1611109947537
 30
0.0
 11
683.8611323227587
 21
340.9537096881395
 31
0.0
  0
SOLID
  5
172
330
16E
100
AcDbEntity
  8
0
 62
     2
100
AcDbTrace
 10
674.2211047222933
 20
360.0055953605548
 30
0.0
 11
672.4891243954206
 21
359.3752060752384
 31
0.0
 12
670.9609735555769
 22
366.2682490633978
 32
0.0
 13
670.9609735555769
 23
366.2682490633978
 33
0.0
  0
SOLID
  5
173
330
16E
100
AcDbEntity
  8
0
 62
     2
100
AcDbTrace
 10
678.0298507172962
 20
344.1521856185066
 30
0.0
 11
679.7618310441688
 21
344.782574903823
 31
0.0
 12
681.2899818840126
 22
337.8895319156636
 32
0.0
 13
681.2899818840126
 23
337.8895319156636
 33
0.0
  0
MTEXT
  5
174
330
16E
100
AcDbEntity
  8
0
 62
     7
100
AcDbMText
 10
678.3409433067217
 20
357.6871664165223
 30
0.0
 40
6.0
 41
0.0
 71
     7
 72
     1
  1
30
  7
CONVERTER_12
 11
0.3420201433256868
 21
-0.9396926207859018
 31
0.0
 73
     1
 44
0.60024009603842
  0
ENDBLK
  5
176
330
16E
100
AcDbEntity
  8
0
100
AcDbBlockEnd
  0
BLOCK
  5
180
330
179
100
AcDbEntity
  8
0
100
AcDbBlockBegin
  2
*D10
 70
     1
 10
0.0
 20
0.0
 30
0.0
  3
*D10
  1

  0
LINE
  5
17A
330
179
100
AcDbEntity
  8
0
  6
Continuous
 62
     2
100
AcDbLine
 10
655.9187135023664
 20
360.8156490293686
 30
0.0
 11
665.9057016874759
 21
333.3766245024202
 31
0.0
  0
LINE
  5
17B
330
179
100
AcDbEntity
  8
0
  6
Continuous
 62
     2
100
AcDbLine
 10
627.7865384148713
 20
327.2890283013568
 30
0.0
 11
658.4898639411125
 21
363.8798268018446
 31
0.0
  0
LINE
  5
17C
330
179
100
AcDbEntity
  8
0
  6
Continuous
 62
     2
100
AcDbLine
 10
637.7735265999809
 20
299.8500037744084
 30
0.0
 11
668.4768521262221
 21
336.4408022748962
 31
0.0
  0
SOLID
  5
17D
330
179
100
AcDbEntity
  8
0
 62
     2
100
AcDbTrace
 10
659.1788446690827
 20
354.5529953265255
 30
0.0
 11
657.44686434221
 21
353.9226060412092
 31
0.0
 12
655.9187135023664
 22
360.8156490293686
 32
0.0
 13
655.9187135023664
 23
360.8156490293686
 33
0.0
  0
SOLID
  5
17E
330
179
100
AcDbEntity
  8
0
 62
     2
100
AcDbTrace
 10
662.6455705207596
 20
339.6392782052633
 30
0.0
 11
664.3775508476323
 21
340.2696674905796
 31
0.0
 12
665.9057016874759
 22
333.3766245024202
 32
0.0
 13
665.9057016874759
 23
333.3766245024202
 33
0.0
  0
MTEXT
  5
17F
330
179
100
AcDbEntity
  8
0
 62
     7
100
AcDbMText
 10
663.86491127522
 20
350.6788676785849
 30
0.0
 40
6.0
 41
0.0
 71
     7
 72
     1
  1
29
  7
CONVERTER_12
 11
0.3420201433256711
 21
-0.9396926207859075
 31
0.0
 73
     1
 44
0.60024009603842
  0
ENDBLK
  5
181
330
179
100
AcDbEntity
  8
0
100
AcDbBlockEnd
  0
BLOCK
  5
18D
330
184
100
AcDbEntity
  8
0
100
AcDbBlockBegin
  2
*D11
 70
     1
 10
0.0
 20
0.0
 30
0.0
  3
*D11
  1

  0
LINE
  5
185
330
184
100
AcDbEntity
  8
1
  6
Continuous
 62
     2
100
AcDbLine
 10
703.2502631937972
 20
310.9320876021861
 30
0.0
 11
707.2502631937972
 21
310.9320876021861
 31
0.0
  0
LINE
  5
186
330
184
100
AcDbEntity
  8
1
  6
Continuous
 62
     2
100
AcDbLine
 10
698.5633844098057
 20
337.5126980405982
 30
0.0
 11
702.3221548929496
 21
338.8807786139004
 31
0.0
  0
LINE
  5
187
330
184
100
AcDbEntity
  8
1
  6
Continuous
 62
     2
100
AcDbLine
 10
658.1528178807396
 20
310.9320876021861
 30
0.0
 11
703.2502631937972
 21
310.9320876021861
 31
0.0
  0
LINE
  5
188
330
184
100
AcDbEntity
  8
1
  6
Continuous
 62
     2
100
AcDbLine
 10
656.8255217070937
 20
322.321358374927
 30
0.0
 11
698.5633844098057
 21
337.5126980405982
 31
0.0
  0
ARC
  5
189
330
184
100
AcDbEntity
  8
1
  6
Continuous
 62
     2
100
AcDbCircle
 10
625.5337574349221
 20
310.9320876021861
 30
0.0
 40
77.71650575887509
100
AcDbArc
 50
0.0
 51
19.99999999999332
  0
SOLID
  5
18A
330
184
100
AcDbEntity
  8
1
 62
     2
100
AcDbTrace
 10
702.0144883177204
 20
317.8835009175908
 30
0.0
 11
703.8557544819214
 21
317.9664793261331
 31
0.0
 12
703.2502631937972
 22
310.9320876021861
 32
0.0
 13
703.2502631937972
 23
310.9320876021861
 33
0.0
  0
SOLID
  5
18B
330
184
100
AcDbEntity
  8
1
 62
     2
100
AcDbTrace
 10
701.5382637708383
 20
331.1096222630338
 30
0.0
 11
699.779659256253
 21
330.5578463438451
 31
0.0
 12
698.5633844098057
 22
337.5126980405982
 32
0.0
 13
698.5633844098057
 23
337.5126980405982
 33
0.0
  0
MTEXT
  5
18C
330
184
100
AcDbEntity
  8
1
 62
     7
100
AcDbMText
 10
705.2088789954481
 20
330.2458732941646
 30
0.0
 40
6.0
 41
0.0
 71
     7
 72
     1
  1
20{\Fgdt;~}
  7
CONVERTER_12
 11
0.15658030219339
 21
-0.9876652312221114
 31
0.0
 73
     1
 44
0.60024009603842
  0
ENDBLK
  5
18E
330
184
100
AcDbEntity
  8
0
100
AcDbBlockEnd
  0
BLOCK
  5
19A
330
191
100
AcDbEntity
  8
0
100
AcDbBlockBegin
  2
*D12
 70
     1
 10
0.0
 20
0.0
 30
0.0
  3
*D12
  1

  0
LINE
  5
192
330
191
100
AcDbEntity
  8
0
  6
Continuous
 62
     2
100
AcDbLine
 10
427.6697317839507
 20
310.932087602186
 30
0.0
 11
423.6697317839507
 21
310.932087602186
 31
0.0
  0
LINE
  5
193
330
191
100
AcDbEntity
  8
0
  6
Continuous
 62
     2
100
AcDbLine
 10
434.1747284824424
 20
274.040418089357
 30
0.0
 11
430.4159579992987
 21
272.6723375160544
 31
0.0
  0
LINE
  5
194
330
191
100
AcDbEntity
  8
0
  6
Continuous
 62
     2
100
AcDbLine
 10
489.1922259008134
 20
310.932087602186
 30
0.0
 11
427.6697317839507
 21
310.932087602186
 31
0.0
  0
LINE
  5
195
330
191
100
AcDbEntity
  8
0
  6
Continuous
 62
     2
100
AcDbLine
 10
487.7377273028192
 20
293.53575531801
 30
0.0
 11
434.1747284824424
 21
274.040418089357
 31
0.0
  0
ARC
  5
196
330
191
100
AcDbEntity
  8
0
  6
Continuous
 62
     2
100
AcDbCircle
 10
535.5337574349221
 20
310.932087602186
 30
0.0
 40
107.8640256509714
100
AcDbArc
 50
180.0
 51
200.0
  0
SOLID
  5
197
330
191
100
AcDbEntity
  8
0
 62
     2
100
AcDbTrace
 10
428.8179121221168
 20
303.9656704070291
 30
0.0
 11
426.9757473795863
 21
303.90587437795
 31
0.0
 12
427.6697317839507
 22
310.932087602186
 32
0.0
 13
427.6697317839507
 23
310.932087602186
 33
0.0
  0
SOLID
  5
198
330
191
100
AcDbEntity
  8
0
 62
     2
100
AcDbTrace
 10
431.1194900047308
 20
280.4055421627935
 30
0.0
 11
432.8710100659946
 21
280.9794097247853
 31
0.0
 12
434.1747284824424
 22
274.040418089357
 32
0.0
 13
434.1747284824424
 23
274.040418089357
 33
0.0
  0
MTEXT
  5
199
330
191
100
AcDbEntity
  8
0
 62
     7
100
AcDbMText
 10
432.1479285379962
 20
298.9877915693003
 30
0.0
 40
6.0
 41
0.0
 71
     7
 72
     1
  1
20{\Fgdt;~}
  7
CONVERTER_12
 11
0.1775345417051341
 21
-0.9841145698045264
 31
0.0
 73
     1
 44
0.60024009603842
  0
ENDBLK
  5
19B
330
191
100
AcDbEntity
  8
0
100
AcDbBlockEnd
  0
ENDSEC
  0
SECTION
  2
ENTITIES
  0
INSERT
  5
4F
330
1F
100
AcDbEntity
  8
0
100
AcDbBlockReference
  2
開示A4枠
 10
345.0167245995228
 20
27.754615840239
 30
0.0
  0
LINE
  5
CD
330
1F
100
AcDbEntity
  8
1
  6
DASH_CENTER
 62
     2
100
AcDbLine
 10
607.9285329409747
 20
304.5243099188148
 30
0.0
 11
625.5337574349221
 21
310.932087602186
 31
0.0
  0
LINE
  5
CE
330
1F
100
AcDbEntity
  8
1
  6
Continuous
 62
     7
100
AcDbLine
 10
580.5337574349221
 20
322.932087602186
 30
0.0
 11
589.7402742609081
 21
322.932087602186
 31
0.0
  0
LINE
  5
CF
330
1F
100
AcDbEntity
  8
1
  6
Continuous
 62
     7
100
AcDbLine
 10
580.5337574349221
 20
298.932087602186
 30
0.0
 11
592.478512664012
 21
298.932087602186
 31
0.0
  0
LINE
  5
D0
330
1F
100
AcDbEntity
  8
1
  6
Continuous
 62
     7
100
AcDbLine
 10
570.0337574349221
 20
322.932087602186
 30
0.0
 11
580.5337574349221
 21
322.932087602186
 31
0.0
  0
LINE
  5
D1
330
1F
100
AcDbEntity
  8
1
  6
DASH_CENTER
 62
     2
100
AcDbLine
 10
625.5337574349221
 20
310.932087602186
 30
0.0
 11
656.8255217070937
 21
322.3213583749269
 31
0.0
  0
LINE
  5
D2
330
1F
100
AcDbEntity
  8
1
  6
Continuous
 62
     7
100
AcDbLine
 10
520.3464177466931
 20
289.6013080967136
 30
0.0
 11
520.1960340135125
 21
288.7484395647613
 31
0.0
  0
LINE
  5
D3
330
1F
100
AcDbEntity
  8
1
  6
Continuous
 62
     7
100
AcDbLine
 10
533.095215597021
 20
294.2414910369099
 30
0.0
 11
520.3464177466931
 21
289.6013080967136
 31
0.0
  0
LINE
  5
D4
330
1F
100
AcDbEntity
  8
1
  6
Continuous
 62
     7
100
AcDbLine
 10
533.2455993302016
 20
295.0943595688623
 30
0.0
 11
533.095215597021
 21
294.2414910369099
 31
0.0
  0
LINE
  5
D5
330
1F
100
AcDbEntity
  8
1
  6
Continuous
 62
     7
100
AcDbLine
 10
522.9372173402487
 20
322.1503618742514
 30
0.0
 11
510.1884194899209
 21
317.5101789340552
 31
0.0
  0
LINE
  5
D6
330
1F
100
AcDbEntity
  8
1
  6
Continuous
 62
     7
100
AcDbLine
 10
523.6006312884174
 20
321.5936914750251
 30
0.0
 11
522.9372173402487
 21
322.1503618742514
 31
0.0
  0
LINE
  5
D7
330
1F
100
AcDbEntity
  8
1
  6
Continuous
 62
     7
100
AcDbLine
 10
637.7735265999809
 20
299.8500037744085
 30
0.0
 11
624.3423891492216
 21
294.9614695299939
 31
0.0
  0
LINE
  5
D8
330
1F
100
AcDbEntity
  8
1
  6
Continuous
 62
     7
100
AcDbLine
 10
614.3554009641122
 20
322.4004940569425
 30
0.0
 11
611.4279309581996
 21
305.7979866349349
 31
0.0
  0
LINE
  5
D9
330
1F
100
AcDbEntity
  8
1
  6
Continuous
 62
     7
100
AcDbLine
 10
627.7865384148713
 20
327.2890283013569
 30
0.0
 11
614.3554009641122
 21
322.4004940569425
 31
0.0
  0
LINE
  5
DA
330
1F
100
AcDbEntity
  8
1
  6
Continuous
 62
     7
100
AcDbLine
 10
627.8867942369918
 20
327.8576073226585
 30
0.0
 11
627.7865384148713
 21
327.2890283013569
 31
0.0
  0
LINE
  5
DB
330
1F
100
AcDbEntity
  8
1
  6
DASH_CENTER
 62
     2
100
AcDbLine
 10
613.2217803562197
 20
344.7589548364022
 30
0.0
 11
625.5337574349221
 21
310.932087602186
 31
0.0
  0
LINE
  5
DC
330
1F
100
AcDbEntity
  8
1
  6
DASH_CENTER
 62
     2
100
AcDbLine
 10
580.5337574349221
 20
325.932087602186
 30
0.0
 11
580.5337574349221
 21
295.932087602186
 31
0.0
  0
LINE
  5
DD
330
1F
100
AcDbEntity
  8
1
  6
Continuous
 62
     7
100
AcDbLine
 10
533.2455993302016
 20
295.0943595688623
 30
0.0
 11
545.8622399421328
 21
299.6864412080395
 31
0.0
  0
LINE
  5
DE
330
1F
100
AcDbEntity
  8
1
  6
Continuous
 62
     7
100
AcDbLine
 10
523.6006312884174
 20
321.5936914750251
 30
0.0
 11
536.2172719003488
 21
326.1857731142021
 31
0.0
  0
LINE
  5
DF
330
1F
100
AcDbEntity
  8
1
  6
Continuous
 62
     7
100
AcDbLine
 10
504.2315063280283
 20
282.9381218294949
 30
0.0
 11
520.1960340135125
 21
288.7484395647613
 31
0.0
  0
LINE
  5
E0
330
1F
100
AcDbEntity
  8
1
  6
Continuous
 62
     7
100
AcDbLine
 10
509.5250055417517
 20
318.0668493332815
 30
0.0
 11
510.1884194899209
 21
317.5101789340552
 31
0.0
  0
LINE
  5
E1
330
1F
100
AcDbEntity
  8
1
  6
Continuous
 62
     7
100
AcDbLine
 10
548.6894541259248
 20
315.7203696087454
 30
0.0
 11
545.8622399421328
 21
299.6864412080395
 31
0.0
  0
LINE
  5
E2
330
1F
100
AcDbEntity
  8
1
  6
Continuous
 62
     7
100
AcDbLine
 10
536.2172719003488
 20
326.1857731142021
 30
0.0
 11
548.6894541259248
 21
315.7203696087454
 31
0.0
  0
LINE
  5
E3
330
1F
100
AcDbEntity
  8
1
  6
DASH_CENTER
 62
     2
100
AcDbLine
 10
625.5337574349221
 20
443.0723000782667
 30
0.0
 11
625.5337574349221
 21
426.5723000782668
 31
0.0
  0
LINE
  5
E4
330
1F
100
AcDbEntity
  8
1
  6
DASH_CENTER
 62
     2
100
AcDbLine
 10
562.5337574349221
 20
443.0723000782667
 30
0.0
 11
562.5337574349221
 21
426.5723000782668
 31
0.0
  0
LINE
  5
E5
330
1F
100
AcDbEntity
  8
1
  6
DASH_CENTER
 62
     2
100
AcDbLine
 10
487.7377273028193
 20
293.5357553180101
 30
0.0
 11
535.5337574349221
 21
310.932087602186
 31
0.0
  0
LINE
  5
E6
330
1F
100
AcDbEntity
  8
1
  6
Continuous
 62
     7
100
AcDbLine
 10
655.1092887243749
 20
437.0723000782664
 30
0.0
 11
653.8275759602634
 21
437.0723000782664
 31
0.0
  0
LINE
  5
E7
330
1F
100
AcDbEntity
  8
1
  6
Continuous
 62
     7
100
AcDbLine
 10
655.1092887243749
 20
432.5723000782668
 30
0.0
 11
655.1092887243749
 21
437.0723000782664
 31
0.0
  0
LINE
  5
E8
330
1F
100
AcDbEntity
  8
1
  6
Continuous
 62
     7
100
AcDbLine
 10
492.2794018454115
 20
437.0723000782664
 30
0.0
 11
492.2794018454115
 21
432.5723000782668
 31
0.0
  0
LINE
  5
E9
330
1F
100
AcDbEntity
  8
1
  6
DASH_CENTER
 62
     2
100
AcDbLine
 10
562.5337574349221
 20
321.232087602186
 30
0.0
 11
562.5337574349221
 21
311.632087602186
 31
0.0
  0
LINE
  5
EA
330
1F
100
AcDbEntity
  8
1
  6
DASH_CENTER
 62
     2
100
AcDbLine
 10
567.3337574349222
 20
316.432087602186
 30
0.0
 11
565.683757434922
 21
316.432087602186
 31
0.0
  0
LINE
  5
EB
330
1F
100
AcDbEntity
  8
1
  6
DASH_CENTER
 62
     2
100
AcDbLine
 10
535.5337574349221
 20
310.932087602186
 30
0.0
 11
550.5294421986048
 21
316.3900704986056
 31
0.0
  0
LINE
  5
EC
330
1F
100
AcDbEntity
  8
1
  6
DASH_CENTER
 62
     2
100
AcDbLine
 10
535.5337574349221
 20
442.9227062469748
 30
0.0
 11
535.5337574349221
 21
426.3754605513544
 31
0.0
  0
LINE
  5
ED
330
1F
100
AcDbEntity
  8
1
  6
DASH_CENTER
 62
     2
100
AcDbLine
 10
565.683757434922
 20
316.432087602186
 30
0.0
 11
557.7337574349223
 21
316.432087602186
 31
0.0
  0
LINE
  5
EE
330
1F
100
AcDbEntity
  8
1
  6
DASH_CENTER
 62
     2
100
AcDbLine
 10
637.8457345366412
 20
277.1052203047281
 30
0.0
 11
625.5337574349221
 21
310.932087602186
 31
0.0
  0
LINE
  5
EF
330
1F
100
AcDbEntity
  8
1
  6
Continuous
 62
     7
100
AcDbLine
 10
638.2158025654269
 20
299.4788901749241
 30
0.0
 11
637.7735265999809
 21
299.8500037744085
 31
0.0
  0
LINE
  5
F0
330
1F
100
AcDbEntity
  8
1
  6
Continuous
 62
     7
100
AcDbLine
 10
492.2794018454115
 20
432.5723000782668
 30
0.0
 11
644.0962401092881
 21
432.5723000782668
 31
0.0
  0
LINE
  5
F1
330
1F
100
AcDbEntity
  8
1
  6
DASH_CENTER
 62
     2
100
AcDbLine
 10
521.4383693213763
 20
443.0723000782667
 30
0.0
 11
521.4383693213763
 21
426.5723000782668
 31
0.0
  0
LINE
  5
F2
330
1F
100
AcDbEntity
  8
1
  6
Continuous
 62
     7
100
AcDbLine
 10
611.4279309581996
 20
305.7979866349349
 30
0.0
 11
624.3423891492216
 21
294.9614695299939
 31
0.0
  0
LINE
  5
F3
330
1F
100
AcDbEntity
  8
0
  6
Continuous
 62
     7
100
AcDbLine
 10
525.273159450073
 20
339.1228488756608
 30
0.0
 11
511.1777696015182
 21
333.9925465304088
 31
0.0
  0
LINE
  5
F4
330
1F
100
AcDbEntity
  8
0
  6
Continuous
 62
     7
100
AcDbLine
 10
531.698978201058
 20
277.6109892832542
 30
0.0
 11
545.7943617346921
 21
282.7413089786087
 31
0.0
  0
LINE
  5
F5
330
1F
100
AcDbEntity
  8
1
  6
Continuous
 62
     7
100
AcDbLine
 10
570.0337574349221
 20
298.932087602186
 30
0.0
 11
580.5337574349221
 21
298.932087602186
 31
0.0
  0
LINE
  5
F6
330
1F
100
AcDbEntity
  8
1
  6
Continuous
 62
     7
100
AcDbLine
 10
638.2158025654269
 20
299.4788901749241
 30
0.0
 11
653.8275759602634
 21
305.1611109947536
 31
0.0
  0
LINE
  5
F7
330
1F
100
AcDbEntity
  8
0
  6
Continuous
 62
     7
100
AcDbLine
 10
644.0962401092881
 20
334.8215409065995
 30
0.0
 11
643.4985676318277
 21
333.5398281424879
 31
0.0
  0
LINE
  5
F8
330
1F
100
AcDbEntity
  8
1
  6
Continuous
 62
     7
100
AcDbLine
 10
643.4985676318277
 20
333.5398281424879
 30
0.0
 11
627.8867942369918
 21
327.8576073226585
 31
0.0
  0
LINE
  5
F9
330
1F
100
AcDbEntity
  8
0
  6
Continuous
 62
     7
100
AcDbLine
 10
653.8275759602634
 20
305.1611109947536
 30
0.0
 11
655.1092887243749
 21
304.5634385172936
 31
0.0
  0
LINE
  5
FA
330
1F
100
AcDbEntity
  8
0
  6
Continuous
 62
     7
100
AcDbLine
 10
503.6338338505681
 20
281.6564090653833
 30
0.0
 11
504.2315063280283
 21
282.9381218294949
 31
0.0
  0
LINE
  5
FB
330
1F
100
AcDbEntity
  8
1
  6
DASH_CENTER
 62
     2
100
AcDbLine
 10
533.7510988617171
 20
271.9728453936457
 30
0.0
 11
509.1256485838356
 21
339.6307021977158
 31
0.0
  0
LINE
  5
FC
330
1F
100
AcDbEntity
  8
0
  6
Continuous
 62
     7
100
AcDbLine
 10
653.8275759602634
 20
437.0723000782664
 30
0.0
 11
653.8275759602634
 21
432.5723000782668
 31
0.0
  0
LINE
  5
FD
330
1F
100
AcDbEntity
  8
1
  6
Continuous
 62
     7
100
AcDbLine
 10
653.8275759602634
 20
437.0723000782664
 30
0.0
 11
644.0962401092881
 21
437.0723000782667
 31
0.0
  0
LINE
  5
FE
330
1F
100
AcDbEntity
  8
1
  6
Continuous
 62
     7
100
AcDbLine
 10
653.8275759602634
 20
432.5723000782668
 30
0.0
 11
655.1092887243749
 21
432.5723000782668
 31
0.0
  0
LINE
  5
FF
330
1F
100
AcDbEntity
  8
0
  6
Continuous
 62
     7
100
AcDbLine
 10
644.0962401092881
 20
437.0723000782667
 30
0.0
 11
644.0962401092881
 21
432.5723000782668
 31
0.0
  0
LINE
  5
100
330
1F
100
AcDbEntity
  8
1
  6
Continuous
 62
     7
100
AcDbLine
 10
644.0962401092881
 20
437.0723000782667
 30
0.0
 11
492.2794018454115
 21
437.0723000782664
 31
0.0
  0
LINE
  5
101
330
1F
100
AcDbEntity
  8
1
  6
Continuous
 62
     7
100
AcDbLine
 10
644.0962401092881
 20
432.5723000782668
 30
0.0
 11
653.8275759602634
 21
432.5723000782668
 31
0.0
  0
LINE
  5
102
330
1F
100
AcDbEntity
  8
1
  6
DASH_CENTER
 62
     2
100
AcDbLine
 10
547.8464887102718
 20
277.1031477388976
 30
0.0
 11
523.2210384323906
 21
344.7610045429678
 31
0.0
  0
LINE
  5
103
330
1F
100
AcDbEntity
  8
0
  6
Continuous
 62
     7
100
AcDbLine
 10
492.2794018454115
 20
312.8554441571718
 30
0.0
 11
493.5611146095233
 21
312.2577716797115
 31
0.0
  0
LINE
  5
104
330
1F
100
AcDbEntity
  8
1
  6
Continuous
 62
     7
100
AcDbLine
 10
509.5250055417517
 20
318.0668493332815
 30
0.0
 11
493.5611146095233
 21
312.2577716797115
 31
0.0
  0
LINE
  5
105
330
1F
100
AcDbEntity
  8
1
  6
DASH_CENTER
 62
     2
100
AcDbLine
 10
489.1922259008135
 20
310.932087602186
 30
0.0
 11
658.1528178807396
 21
310.932087602186
 31
0.0
  0
ARC
  5
106
330
1F
100
AcDbEntity
  8
1
  6
Continuous
 62
     7
100
AcDbCircle
 10
592.478512664012
 20
288.932087602186
 30
0.0
 40
9.999999999999595
100
AcDbArc
 50
33.54423447394115
 51
90.0
  0
ARC
  5
107
330
1F
100
AcDbEntity
  8
1
  6
Continuous
 62
     7
100
AcDbCircle
 10
625.816314815226
 20
311.0349300780825
 30
0.0
 40
29.99930871637423
100
AcDbArc
 50
213.5442344739434
 51
221.9670092520905
  0
ARC
  5
108
330
1F
100
AcDbEntity
  8
0
  6
Continuous
 62
     7
100
AcDbCircle
 10
625.8163148152516
 20
311.0349300780981
 30
0.0
 40
29.99930871640439
100
AcDbArc
 50
52.45785111688976
 51
143.292950265298
  0
ARC
  5
109
330
1F
100
AcDbEntity
  8
1
  6
Continuous
 62
     7
100
AcDbCircle
 10
589.7402742609081
 20
337.932087602186
 30
0.0
 40
15.0
100
AcDbArc
 50
270.0
 51
323.2929502652988
  0
ARC
  5
10A
330
1F
100
AcDbEntity
  8
0
  6
Continuous
 62
     7
100
AcDbCircle
 10
535.5337574349221
 20
310.932087602186
 30
0.0
 40
30.00000000000004
100
AcDbArc
 50
289.9999999999998
 51
321.9575672061134
  0
ARC
  5
10B
330
1F
100
AcDbEntity
  8
0
  6
Continuous
 62
     7
100
AcDbCircle
 10
571.5645017031231
 20
284.0103979530448
 30
0.0
 40
14.99999999999729
100
AcDbArc
 50
95.85720884812868
 51
145.785719166414
  0
ARC
  5
10C
330
1F
100
AcDbEntity
  8
0
  6
Continuous
 62
     7
100
AcDbCircle
 10
571.5577039161003
 20
337.8544730389226
 30
0.0
 40
15.00000000000086
100
AcDbArc
 50
213.9471211115917
 51
264.1688924465907
  0
ARC
  5
10D
330
1F
100
AcDbEntity
  8
0
  6
Continuous
 62
     7
100
AcDbCircle
 10
535.5338433744712
 20
310.9323317126294
 30
0.0
 40
29.99978154113087
100
AcDbArc
 50
38.18447563047446
 51
110.0003136918048
  0
ARC
  5
10E
330
1F
100
AcDbEntity
  8
0
  6
Continuous
 62
     7
100
AcDbCircle
 10
625.8163148152516
 20
311.0349300780981
 30
0.0
 40
29.99930871640411
100
AcDbArc
 50
221.9670092520799
 51
347.5421488831112
  0
ARC
  5
10F
330
1F
100
AcDbEntity
  8
0
  6
Continuous
 62
     7
100
AcDbCircle
 10
521.4383739012882
 20
305.8017679068315
 30
0.0
 40
29.99999999999999
100
AcDbArc
 50
109.9999999999998
 51
166.4011537060599
  0
ARC
  5
110
330
1F
100
AcDbEntity
  8
0
  6
Continuous
 62
     7
100
AcDbCircle
 10
521.4383739012882
 20
305.8017679068315
 30
0.0
 40
29.99999999999994
100
AcDbArc
 50
233.5953172326264
 51
289.9999999999995
  0
CIRCLE
  5
111
330
1F
100
AcDbEntity
  8
1
  6
Continuous
 62
     7
100
AcDbCircle
 10
562.5337574349221
 20
316.432087602186
 30
0.0
 40
3.149999999999864
  0
MTEXT
  5
113
330
1F
100
AcDbEntity
  8
1
 62
     7
100
AcDbMText
 10
660.0167245995228
 20
52.754615840239
 30
0.0
 40
5.0
 41
0.0
 71
     5
 72
     1
  1
3
  7
CONVERTER_12
 73
     1
 44
0.7202881152461
  0
MTEXT
  5
114
330
1F
100
AcDbEntity
  8
1
 62
     7
100
AcDbMText
 10
648.5167245995228
 20
52.754615840239
 30
0.0
 40
5.0
 41
0.0
 71
     5
 72
     1
  1
04
  7
CONVERTER_12
 73
     1
 44
0.7202881152461
  0
MTEXT
  5
115
330
1F
100
AcDbEntity
  8
1
 62
     7
100
AcDbMText
 10
626.0167245995228
 20
52.754615840239
 30
0.0
 40
5.0
 41
0.0
 71
     5
 72
     1
  1
4
  7
CONVERTER_12
 73
     1
 44
0.7202881152461
  0
MTEXT
  5
116
330
1F
100
AcDbEntity
  8
1
 62
     7
100
AcDbMText
 10
637.5167245995228
 20
52.754615840239
 30
0.0
 40
5.0
 41
0.0
 71
     5
 72
     1
  1
21
  7
CONVERTER_12
 73
     1
 44
0.7202881152461
  0
MTEXT
  5
117
330
1F
100
AcDbEntity
  8
1
 62
     7
100
AcDbMText
 10
614.5167245995228
 20
52.754615840239
 30
0.0
 40
5.0
 41
0.0
 71
     5
 72
     1
  1
22
  7
CONVERTER_12
 73
     1
 44
0.7202881152461
  0
MTEXT
  5
118
330
1F
100
AcDbEntity
  8
1
 62
     7
100
AcDbMText
 10
592.0167245995228
 20
52.754615840239
 30
0.0
 40
5.0
 41
0.0
 71
     5
 72
     1
  1
4
  7
CONVERTER_12
 73
     1
 44
0.7202881152461
  0
MTEXT
  5
119
330
1F
100
AcDbEntity
  8
1
 62
     7
100
AcDbMText
 10
603.5167245995228
 20
52.754615840239
 30
0.0
 40
5.0
 41
0.0
 71
     5
 72
     1
  1
21
  7
CONVERTER_12
 73
     1
 44
0.7202881152461
  0
MTEXT
  5
11A
330
1F
100
AcDbEntity
  8
1
 62
     7
100
AcDbMText
 10
580.5167245995228
 20
52.754615840239
 30
0.0
 40
5.0
 41
0.0
 71
     5
 72
     1
  1
22
  7
CONVERTER_12
 73
     1
 44
0.7202881152461
  0
MTEXT
  5
11B
330
1F
100
AcDbEntity
  8
1
 62
     7
100
AcDbMText
 10
546.5167245995228
 20
52.754615840239
 30
0.0
 40
5.0
 41
0.0
 71
     5
 72
     1
  1
22
  7
CONVERTER_12
 73
     1
 44
0.7202881152461
  0
MTEXT
  5
11C
330
1F
100
AcDbEntity
  8
1
 62
     7
100
AcDbMText
 10
569.5167245995228
 20
52.754615840239
 30
0.0
 40
5.0
 41
0.0
 71
     5
 72
     1
  1
21
  7
CONVERTER_12
 73
     1
 44
0.7202881152461
  0
MTEXT
  5
11D
330
1F
100
AcDbEntity
  8
1
 62
     7
100
AcDbMText
 10
558.0167245995228
 20
52.754615840239
 30
0.0
 40
5.0
 41
0.0
 71
     5
 72
     1
  1
4
  7
CONVERTER_12
 73
     1
 44
0.7202881152461
  0
MTEXT
  5
11E
330
1F
100
AcDbEntity
  8
0
 62
     2
100
AcDbMText
 10
562.5337574349223
 20
305.432087602186
 30
0.0
 40
3.0
 41
0.0
 71
     5
 72
     1
  1
31
  7
CONVERTER_12
 11
6.123031769111886E-17
 21
1.0
 31
0.0
 73
     1
 44
0.7202881152461
  0
MTEXT
  5
11F
330
1F
100
AcDbEntity
  8
0
 62
     2
100
AcDbMText
 10
600.0337574349221
 20
305.4320876021859
 30
0.0
 40
3.0
 41
0.0
 71
     5
 72
     1
  1
30
  7
CONVERTER_12
 11
6.123031769111886E-17
 21
-1.0
 31
0.0
 73
     1
 44
0.7202881152461
  0
MTEXT
  5
120
330
1F
100
AcDbEntity
  8
0
 62
     2
100
AcDbMText
 10
592.5337574349221
 20
305.4320876021859
 30
0.0
 40
3.0
 41
0.0
 71
     5
 72
     1
  1
29
  7
CONVERTER_12
 11
6.123031769111886E-17
 21
-1.0
 31
0.0
 73
     1
 44
0.7202881152461
  0
MTEXT
  5
121
330
1F
100
AcDbEntity
  8
0
 62
     2
100
AcDbMText
 10
577.5337574349223
 20
305.432087602186
 30
0.0
 40
3.0
 41
0.0
 71
     5
 72
     1
  1
28
  7
CONVERTER_12
 11
6.123031769111886E-17
 21
1.0
 31
0.0
 73
     1
 44
0.7202881152461
  0
MTEXT
  5
122
330
1F
100
AcDbEntity
  8
0
 62
     2
100
AcDbMText
 10
570.0337574349223
 20
307.1196394098221
 30
0.0
 40
3.0
 41
0.0
 71
     5
 72
     1
  1
29.5
  7
CONVERTER_12
 11
6.123031769111886E-17
 21
1.0
 31
0.0
 73
     1
 44
0.7202881152461
  0
MTEXT
  5
123
330
1F
100
AcDbEntity
  8
1
 62
     7
100
AcDbMText
 10
532.5167245995228
 20
61.754615840239
 30
0.0
 40
7.0
 41
0.0
 71
     5
 72
     1
  1
2
  7
CONVERTER_12
 73
     1
 44
0.7202881152461
  0
MTEXT
  5
124
330
1F
100
AcDbEntity
  8
1
 62
     7
100
AcDbMText
 10
459.0167245995228
 20
56.254615840239
 30
0.0
 40
7.0
 41
0.0
 71
     5
 72
     1
  1
R3351
  7
CONVERTER_12
 73
     1
 44
0.7202881152461
  0
MTEXT
  5
125
330
1F
100
AcDbEntity
  8
1
 62
     7
100
AcDbMText
 10
459.0167245995228
 20
73.25461584023903
 30
0.0
 40
7.0
 41
0.0
 71
     5
 72
     1
  1
水栓スパナ
  7
CONVERTER_11
 73
     1
 44
0.54545454545455
  0
MTEXT
  5
126
330
1F
100
AcDbEntity
  8
1
 62
     7
100
AcDbMText
 10
515.5167245995228
 20
61.754615840239
 30
0.0
 40
7.0
 41
0.0
 71
     5
 72
     1
  1
1
  7
CONVERTER_12
 73
     1
 44
0.7202881152461
  0
DIMENSION
  5
132
330
1F
100
AcDbEntity
  8
1
100
AcDbDimension
  2
*D3
 10
587.3236600668461
 20
326.8522397144987
 30
0.0
 11
580.3236600668461
 21
345.1414066476671
 31
0.0
 70
    33
  1
<>
 71
     5
 42
-1.0
 52
120.0
 53
90.0
  3
ME10_DIM_10
100
AcDbAlignedDimension
 13
580.5337574349221
 23
298.932087602186
 33
0.0
 14
580.5337574349221
 24
322.932087602186
 34
0.0
  0
DIMENSION
  5
13D
330
1F
100
AcDbEntity
  8
1
100
AcDbDimension
  2
*D4
 10
492.2794018454115
 20
412.5723000782668
 30
0.0
 11
572.1851733709841
 21
419.5723000782668
 31
0.0
 70
    32
  1
<>
 71
     5
 42
-1.0
 53
0.00013888888889
  3
ME10_DIM_11
100
AcDbAlignedDimension
 13
655.1092887243749
 23
432.5723000782668
 33
0.0
 14
492.2794018454115
 24
432.5723000782668
 34
0.0
100
AcDbRotatedDimension
  0
DIMENSION
  5
14A
330
1F
100
AcDbEntity
  8
1
100
AcDbDimension
  2
*D5
 10
675.1092887243749
 20
437.0723000782664
 30
0.0
 11
668.1092887243749
 21
453.59400987781
 31
0.0
 70
    32
  1
5
 71
     5
 42
-1.0
 53
90.0
  3
ME10_DIM_12
100
AcDbAlignedDimension
 13
655.1092887243749
 23
432.5723000782668
 33
0.0
 14
655.1092887243749
 24
437.0723000782664
 34
0.0
 50
90.0
100
AcDbRotatedDimension
  0
DIMENSION
  5
155
330
1F
100
AcDbEntity
  8
0
100
AcDbDimension
  2
*D6
 10
454.2226408977359
 20
265.3791243081562
 30
0.0
 11
465.8063127631742
 21
254.0184757431464
 31
0.0
 70
    33
  1
31
 71
     5
 42
-1.0
 52
120.0
 53
-70.00187763816143
  3
ME10_DIM_13
100
AcDbAlignedDimension
 13
504.2315063280283
 23
282.9381218294949
 33
0.0
 14
493.5611146095233
 24
312.2577716797115
 34
0.0
  0
DIMENSION
  5
161
330
1F
100
AcDbEntity
  8
0
100
AcDbDimension
  2
*D7
 10
469.7658584861593
 20
269.3364466359645
 30
0.0
 11
489.814437301286
 21
235.5972011704375
 31
0.0
 70
    33
  1
29,5
 71
     5
 42
-1.0
 52
120.0
 53
-70.0000000000004
  3
ME10_DIM_14
100
AcDbAlignedDimension
 13
520.3464177466931
 23
289.6013080967136
 33
0.0
 14
510.1884194899209
 24
317.5101789340552
 34
0.0
  0
DIMENSION
  5
16D
330
1F
100
AcDbEntity
  8
0
100
AcDbDimension
  2
*D8
 10
484.6923564824804
 20
275.2246151934062
 30
0.0
 11
504.3400421685147
 21
241.7096732276279
 31
0.0
 70
    33
  1
28
 71
     5
 42
-1.0
 52
120.0
 53
-69.99999999999952
  3
ME10_DIM_15
100
AcDbAlignedDimension
 13
533.2455993302016
 23
295.0943595688623
 33
0.0
 14
523.6006312884174
 24
321.5936914750251
 34
0.0
  0
DIMENSION
  5
178
330
1F
100
AcDbEntity
  8
0
100
AcDbDimension
  2
*D9
 10
670.9609735555769
 20
366.2682490633978
 30
0.0
 11
682.699111814045
 21
354.4846100529628
 31
0.0
 70
    33
  1
30
 71
     5
 42
-1.0
 52
120.0
 53
-69.99999999999896
  3
ME10_DIM_16
100
AcDbAlignedDimension
 13
653.8275759602634
 23
305.1611109947536
 33
0.0
 14
643.4985676318277
 24
333.5398281424879
 34
0.0
  0
DIMENSION
  5
183
330
1F
100
AcDbEntity
  8
0
100
AcDbDimension
  2
*D10
 10
655.9187135023664
 20
360.8156490293686
 30
0.0
 11
668.2230797825433
 21
347.4763113150254
 31
0.0
 70
    33
  1
29
 71
     5
 42
-1.0
 52
120.0
 53
-69.99999999999984
  3
ME10_DIM_17
100
AcDbAlignedDimension
 13
637.7735265999809
 23
299.8500037744085
 33
0.0
 14
627.7865384148713
 24
327.2890283013569
 34
0.0
  0
DIMENSION
  5
190
330
1F
100
AcDbEntity
  8
1
100
AcDbDimension
  2
*D11
 10
702.0695748432811
 20
324.4274172018515
 30
0.0
 11
709.2053046835908
 21
324.1970236746788
 31
0.0
 70
    37
  1
<>
 71
     5
 42
-1.0
  3
ME10_DIM_18
100
AcDb3PointAngularDimension
 13
658.1528178807396
 23
310.932087602186
 33
0.0
 14
656.8255217070937
 24
322.3213583749269
 34
0.0
 15
625.5337574349221
 25
310.9320876021861
 35
0.0
  0
DIMENSION
  5
19D
330
1F
100
AcDbEntity
  8
0
100
AcDbDimension
  2
*D12
 10
429.3084287027377
 20
292.2016961120759
 30
0.0
 11
436.2720002226637
 21
293.0252390337059
 31
0.0
 70
    37
  1
<>
 71
     5
 42
-1.0
  3
ME10_DIM_19
100
AcDb3PointAngularDimension
 13
489.1922259008135
 23
310.932087602186
 33
0.0
 14
487.7377273028193
 24
293.5357553180101
 34
0.0
 15
535.5337574349221
 25
310.932087602186
 35
0.0
  0
ENDSEC
  0
SECTION
  2
OBJECTS
  0
DICTIONARY
  5
C
330
0
100
AcDbDictionary
281
     1
  3
ACAD_GROUP
350
D
  3
ACAD_LAYOUT
350
1A
  3
ACAD_MATERIAL
350
3B
  3
ACAD_MLEADERSTYLE
350
1A0
  3
ACAD_MLINESTYLE
350
17
  3
ACAD_PLOTSETTINGS
350
19
  3
ACAD_PLOTSTYLENAME
350
E
  3
ACAD_VISUALSTYLE
350
2A
  3
AcDbVariableDictionary
350
19E
  0
DICTIONARY
  5
D
102
{ACAD_REACTORS
330
C
102
}
330
C
100
AcDbDictionary
281
     1
  0
DICTIONARY
  5
1A
102
{ACAD_REACTORS
330
C
102
}
330
C
100
AcDbDictionary
281
     1
  3
Layout1
350
1E
  3
Layout2
350
26
  3
Model
350
22
  0
DICTIONARY
  5
3B
102
{ACAD_REACTORS
330
C
102
}
330
C
100
AcDbDictionary
281
     1
  3
ByBlock
350
3D
  3
ByLayer
350
3C
  3
Global
350
3E
  0
DICTIONARY
  5
1A0
102
{ACAD_REACTORS
330
C
102
}
330
C
100
AcDbDictionary
281
     1
  0
DICTIONARY
  5
17
102
{ACAD_REACTORS
330
C
102
}
330
C
100
AcDbDictionary
281
     1
  3
Standard
350
18
  0
DICTIONARY
  5
19
102
{ACAD_REACTORS
330
C
102
}
330
C
100
AcDbDictionary
281
     1
  0
ACDBDICTIONARYWDFLT
  5
E
102
{ACAD_REACTORS
330
C
102
}
330
C
100
AcDbDictionary
281
     1
  3
Normal
350
F
100
AcDbDictionaryWithDefault
340
F
  0
DICTIONARY
  5
2A
102
{ACAD_REACTORS
330
C
102
}
330
C
100
AcDbDictionary
281
     1
  3
2dWireframe
350
2F
  3
3D Hidden
350
31
  3
3dWireframe
350
30
  3
Basic
350
32
  3
Brighten
350
36
  3
ColorChange
350
3A
  3
Conceptual
350
34
  3
Dim
350
35
  3
Facepattern
350
39
  3
Flat
350
2B
  3
FlatWithEdges
350
2C
  3
Gouraud
350
2D
  3
GouraudWithEdges
350
2E
  3
Linepattern
350
38
  3
Realistic
350
33
  3
Thicken
350
37
  0
DICTIONARY
  5
19E
102
{ACAD_REACTORS
330
C
102
}
330
C
100
AcDbDictionary
281
     1
  3
DIMASSOC
350
1A1
  3
HIDETEXT
350
1A2
  0
LAYOUT
  5
1E
102
{ACAD_REACTORS
330
1A
102
}
330
1A
100
AcDbPlotSettings
  1

  2
none_device
  4

  6

 40
0.0
 41
0.0
 42
0.0
 43
0.0
 44
0.0
 45
0.0
 46
0.0
 47
0.0
 48
0.0
 49
0.0
140
0.0
141
0.0
142
1.0
143
1.0
 70
   688
 72
     0
 73
     0
 74
     5
  7

 75
    16
147
1.0
148
0.0
149
0.0
100
AcDbLayout
  1
Layout1
 70
     1
 71
     1
 10
0.0
 20
0.0
 11
12.0
 21
9.0
 12
0.0
 22
0.0
 32
0.0
 14
1.00000000000000E+20
 24
1.00000000000000E+20
 34
1.00000000000000E+20
 15
-1.00000000000000E+20
 25
-1.00000000000000E+20
 35
-1.00000000000000E+20
146
0.0
 13
0.0
 23
0.0
 33
0.0
 16
1.0
 26
0.0
 36
0.0
 17
0.0
 27
1.0
 37
0.0
 76
     0
330
1B
  0
LAYOUT
  5
26
102
{ACAD_REACTORS
330
1A
102
}
330
1A
100
AcDbPlotSettings
  1

  2
none_device
  4

  6

 40
0.0
 41
0.0
 42
0.0
 43
0.0
 44
0.0
 45
0.0
 46
0.0
 47
0.0
 48
0.0
 49
0.0
140
0.0
141
0.0
142
1.0
143
1.0
 70
   688
 72
     0
 73
     0
 74
     5
  7

 75
    16
147
1.0
148
0.0
149
0.0
100
AcDbLayout
  1
Layout2
 70
     1
 71
     2
 10
0.0
 20
0.0
 11
0.0
 21
0.0
 12
0.0
 22
0.0
 32
0.0
 14
0.0
 24
0.0
 34
0.0
 15
0.0
 25
0.0
 35
0.0
146
0.0
 13
0.0
 23
0.0
 33
0.0
 16
1.0
 26
0.0
 36
0.0
 17
0.0
 27
1.0
 37
0.0
 76
     0
330
23
  0
LAYOUT
  5
22
102
{ACAD_REACTORS
330
1A
102
}
330
1A
100
AcDbPlotSettings
  1

  2
none_device
  4

  6

 40
0.0
 41
0.0
 42
0.0
 43
0.0
 44
0.0
 45
0.0
 46
0.0
 47
0.0
 48
0.0
 49
0.0
140
0.0
141
0.0
142
1.0
143
1.0
 70
  1712
 72
     0
 73
     0
 74
     0
  7

 75
     0
147
1.0
148
0.0
149
0.0
100
AcDbLayout
  1
Model
 70
     1
 71
     0
 10
0.0
 20
0.0
 11
12.0
 21
9.0
 12
0.0
 22
0.0
 32
0.0
 14
345.0167245995228
 24
27.754615840239
 34
0.0
 15
765.0167245995228
 25
621.754615840239
 35
0.0
146
0.0
 13
0.0
 23
0.0
 33
0.0
 16
1.0
 26
0.0
 36
0.0
 17
0.0
 27
1.0
 37
0.0
 76
     0
330
1F
331
29
  0
MATERIAL
  5
3D
102
{ACAD_REACTORS
330
3B
102
}
102
{ACAD_XDICTIONARY
360
1C5
102
}
330
3B
100
AcDbMaterial
  1
ByBlock
  0
MATERIAL
  5
3C
102
{ACAD_REACTORS
330
3B
102
}
102
{ACAD_XDICTIONARY
360
1C3
102
}
330
3B
100
AcDbMaterial
  1
ByLayer
  0
MATERIAL
  5
3E
102
{ACAD_REACTORS
330
3B
102
}
102
{ACAD_XDICTIONARY
360
1C7
102
}
330
3B
100
AcDbMaterial
  1
Global
  0
MLINESTYLE
  5
18
102
{ACAD_REACTORS
330
17
102
}
330
17
100
AcDbMlineStyle
  2
Standard
 70
     0
  3

 62
   256
 51
90.0
 52
90.0
 71
     2
 49
0.5
 62
   256
  6
BYLAYER
 49
-0.5
 62
   256
  6
BYLAYER
  0
ACDBPLACEHOLDER
  5
F
102
{ACAD_REACTORS
330
E
102
}
330
E
  0
VISUALSTYLE
  5
2F
102
{ACAD_REACTORS
330
2A
102
}
102
{ACAD_XDICTIONARY
360
1AB
102
}
330
2A
100
AcDbVisualStyle
  2
2dWireframe
 70
     4
 71
     0
 72
     2
 73
     0
 90
        0
 40
-0.6
 41
-30.0
 62
     5
 63
     7
 74
     1
 91
        4
 64
     7
 65
   257
 75
     1
175
     1
 42
1.0
 92
        0
 66
   257
 43
1.0
 76
     1
 77
     6
 78
     2
 67
     7
 79
     5
170
     0
171
     0
290
     0
174
     0
 93
        1
 44
0.0
173
     0
291
     0
 45
0.0
1001
ACAD
1000
AcDbSavedByObjectVersion
1070
     0
  0
VISUALSTYLE
  5
31
102
{ACAD_REACTORS
330
2A
102
}
102
{ACAD_XDICTIONARY
360
1AF
102
}
330
2A
100
AcDbVisualStyle
  2
3D Hidden
 70
     6
 71
     1
 72
     2
 73
     2
 90
        0
 40
-0.6
 41
-30.0
 62
     5
 63
     7
 74
     2
 91
        2
 64
     7
 65
   257
 75
     2
175
     1
 42
40.0
 92
        0
 66
   257
 43
1.0
 76
     1
 77
     6
 78
     2
 67
     7
 79
     3
170
     0
171
     0
290
     0
174
     0
 93
        1
 44
0.0
173
     0
291
     0
 45
0.0
1001
ACAD
1000
AcDbSavedByObjectVersion
1070
     0
  0
VISUALSTYLE
  5
30
102
{ACAD_REACTORS
330
2A
102
}
102
{ACAD_XDICTIONARY
360
1AD
102
}
330
2A
100
AcDbVisualStyle
  2
3dWireframe
 70
     5
 71
     0
 72
     2
 73
     0
 90
        0
 40
-0.6
 41
-30.0
 62
     5
 63
     7
 74
     1
 91
        4
 64
     7
 65
   257
 75
     1
175
     1
 42
1.0
 92
        0
 66
   257
 43
1.0
 76
     1
 77
     6
 78
     2
 67
     7
 79
     5
170
     0
171
     0
290
     0
174
     0
 93
        1
 44
0.0
173
     0
291
     0
 45
0.0
1001
ACAD
1000
AcDbSavedByObjectVersion
1070
     0
  0
VISUALSTYLE
  5
32
102
{ACAD_REACTORS
330
2A
102
}
102
{ACAD_XDICTIONARY
360
1B1
102
}
330
2A
100
AcDbVisualStyle
  2
Basic
 70
     7
 71
     1
 72
     0
 73
     1
 90
        0
 40
-0.6
 41
-30.0
 62
     5
 63
     7
 74
     0
 91
        4
 64
     7
 65
   257
 75
     1
175
     1
 42
1.0
 92
        8
 66
     7
 43
1.0
 76
     1
 77
     6
 78
     2
 67
     7
 79
     5
170
     0
171
     0
290
     0
174
     0
 93
        1
 44
0.0
173
     0
291
     1
 45
0.0
1001
ACAD
1000
AcDbSavedByObjectVersion
1070
     0
  0
VISUALSTYLE
  5
36
102
{ACAD_REACTORS
330
2A
102
}
102
{ACAD_XDICTIONARY
360
1B9
102
}
330
2A
100
AcDbVisualStyle
  2
Brighten
 70
    12
 71
     2
 72
     2
 73
     0
 90
        0
 40
-0.6
 41
-30.0
 62
     5
 63
     7
 74
     1
 91
        4
 64
     7
 65
   257
 75
     1
175
     1
 42
1.0
 92
        8
 66
     7
 43
1.0
 76
     1
 77
     6
 78
     2
 67
     7
 79
     5
170
     0
171
     0
290
     0
174
     0
 93
        1
 44
50.0
173
     0
291
     1
 45
0.0
1001
ACAD
1000
AcDbSavedByObjectVersion
1070
     0
  0
VISUALSTYLE
  5
3A
102
{ACAD_REACTORS
330
2A
102
}
102
{ACAD_XDICTIONARY
360
1C1
102
}
330
2A
100
AcDbVisualStyle
  2
ColorChange
 70
    16
 71
     2
 72
     2
 73
     3
 90
        0
 40
-0.6
 41
-30.0
 62
     5
 63
     8
 74
     1
 91
        4
 64
     7
 65
   257
 75
     1
175
     1
 42
1.0
 92
        8
 66
     8
 43
1.0
 76
     1
 77
     6
 78
     2
 67
     7
 79
     5
170
     0
171
     0
290
     0
174
     0
 93
        1
 44
0.0
173
     0
291
     1
 45
0.0
1001
ACAD
1000
AcDbSavedByObjectVersion
1070
     0
  0
VISUALSTYLE
  5
34
102
{ACAD_REACTORS
330
2A
102
}
102
{ACAD_XDICTIONARY
360
1B5
102
}
330
2A
100
AcDbVisualStyle
  2
Conceptual
 70
     9
 71
     3
 72
     2
 73
     0
 90
        0
 40
-0.6
 41
-30.0
 62
     5
 63
     7
 74
     2
 91
        2
 64
     7
 65
   257
 75
     1
175
     1
 42
40.0
 92
        8
 66
     7
 43
1.0
 76
     1
 77
     6
 78
     2
 67
     7
 79
     3
170
     0
171
     0
290
     0
174
     0
 93
        1
 44
0.0
173
     0
291
     0
 45
0.0
1001
ACAD
1000
AcDbSavedByObjectVersion
1070
     0
  0
VISUALSTYLE
  5
35
102
{ACAD_REACTORS
330
2A
102
}
102
{ACAD_XDICTIONARY
360
1B7
102
}
330
2A
100
AcDbVisualStyle
  2
Dim
 70
    11
 71
     2
 72
     2
 73
     0
 90
        0
 40
-0.6
 41
-30.0
 62
     5
 63
     7
 74
     1
 91
        4
 64
     7
 65
   257
 75
     1
175
     1
 42
1.0
 92
        8
 66
     7
 43
1.0
 76
     1
 77
     6
 78
     2
 67
     7
 79
     5
170
     0
171
     0
290
     0
174
     0
 93
        1
 44
-50.0
173
     0
291
     1
 45
0.0
1001
ACAD
1000
AcDbSavedByObjectVersion
1070
     0
  0
VISUALSTYLE
  5
39
102
{ACAD_REACTORS
330
2A
102
}
102
{ACAD_XDICTIONARY
360
1BF
102
}
330
2A
100
AcDbVisualStyle
  2
Facepattern
 70
    15
 71
     2
 72
     2
 73
     0
 90
        0
 40
-0.6
 41
-30.0
 62
     5
 63
     7
 74
     1
 91
        4
 64
     7
 65
   257
 75
     1
175
     1
 42
1.0
 92
        8
 66
     7
 43
1.0
 76
     1
 77
     6
 78
     2
 67
     7
 79
     5
170
     0
171
     0
290
     0
174
     0
 93
        1
 44
0.0
173
     0
291
     1
 45
0.0
1001
ACAD
1000
AcDbSavedByObjectVersion
1070
     0
  0
VISUALSTYLE
  5
2B
102
{ACAD_REACTORS
330
2A
102
}
102
{ACAD_XDICTIONARY
360
1A3
102
}
330
2A
100
AcDbVisualStyle
  2
Flat
 70
     0
 71
     2
 72
     1
 73
     1
 90
        2
 40
-0.6
 41
30.0
 62
     5
 63
     7
 74
     0
 91
        4
 64
     7
 65
   257
 75
     1
175
     1
 42
1.0
 92
        8
 66
     7
 43
1.0
 76
     1
 77
     6
 78
     2
 67
     7
 79
     5
170
     0
171
     0
290
     0
174
     0
 93
       13
 44
0.0
173
     0
291
     1
 45
0.0
1001
ACAD
1000
AcDbSavedByObjectVersion
1070
     0
  0
VISUALSTYLE
  5
2C
102
{ACAD_REACTORS
330
2A
102
}
102
{ACAD_XDICTIONARY
360
1A5
102
}
330
2A
100
AcDbVisualStyle
  2
FlatWithEdges
 70
     1
 71
     2
 72
     1
 73
     1
 90
        2
 40
-0.6
 41
30.0
 62
     5
 63
     7
 74
     1
 91
        4
 64
     7
 65
   257
 75
     1
175
     1
 42
1.0
 92
        0
 66
   257
 43
1.0
 76
     1
 77
     6
 78
     2
 67
     7
 79
     5
170
     0
171
     0
290
     0
174
     0
 93
       13
 44
0.0
173
     0
291
     1
 45
0.0
1001
ACAD
1000
AcDbSavedByObjectVersion
1070
     0
  0
VISUALSTYLE
  5
2D
102
{ACAD_REACTORS
330
2A
102
}
102
{ACAD_XDICTIONARY
360
1A7
102
}
330
2A
100
AcDbVisualStyle
  2
Gouraud
 70
     2
 71
     2
 72
     2
 73
     1
 90
        2
 40
-0.6
 41
30.0
 62
     5
 63
     7
 74
     0
 91
        4
 64
     7
 65
   257
 75
     1
175
     1
 42
1.0
 92
        0
 66
     7
 43
1.0
 76
     1
 77
     6
 78
     2
 67
     7
 79
     5
170
     0
171
     0
290
     0
174
     0
 93
       13
 44
0.0
173
     0
291
     1
 45
0.0
1001
ACAD
1000
AcDbSavedByObjectVersion
1070
     0
  0
VISUALSTYLE
  5
2E
102
{ACAD_REACTORS
330
2A
102
}
102
{ACAD_XDICTIONARY
360
1A9
102
}
330
2A
100
AcDbVisualStyle
  2
GouraudWithEdges
 70
     3
 71
     2
 72
     2
 73
     1
 90
        2
 40
-0.6
 41
30.0
 62
     5
 63
     7
 74
     1
 91
        4
 64
     7
 65
   257
 75
     1
175
     1
 42
1.0
 92
        0
 66
   257
 43
1.0
 76
     1
 77
     6
 78
     2
 67
     7
 79
     5
170
     0
171
     0
290
     0
174
     0
 93
       13
 44
0.0
173
     0
291
     1
 45
0.0
1001
ACAD
1000
AcDbSavedByObjectVersion
1070
     0
  0
VISUALSTYLE
  5
38
102
{ACAD_REACTORS
330
2A
102
}
102
{ACAD_XDICTIONARY
360
1BD
102
}
330
2A
100
AcDbVisualStyle
  2
Linepattern
 70
    14
 71
     2
 72
     2
 73
     0
 90
        0
 40
-0.6
 41
-30.0
 62
     5
 63
     7
 74
     1
 91
        4
 64
     7
 65
   257
 75
     7
175
     7
 42
1.0
 92
        8
 66
     7
 43
1.0
 76
     1
 77
     6
 78
     2
 67
     7
 79
     5
170
     0
171
     0
290
     0
174
     0
 93
        1
 44
0.0
173
     0
291
     1
 45
0.0
1001
ACAD
1000
AcDbSavedByObjectVersion
1070
     0
  0
VISUALSTYLE
  5
33
102
{ACAD_REACTORS
330
2A
102
}
102
{ACAD_XDICTIONARY
360
1B3
102
}
330
2A
100
AcDbVisualStyle
  2
Realistic
 70
     8
 71
     2
 72
     2
 73
     0
 90
        0
 40
-0.6
 41
-30.0
 62
     5
 63
     7
 74
     1
 91
        0
 64
     7
 65
   257
 75
     1
175
     1
 42
1.0
 92
        8
 66
     8
 43
1.0
 76
     1
 77
     6
 78
     2
 67
     7
 79
     5
170
     0
171
     0
290
     0
174
     0
 93
       13
 44
0.0
173
     0
291
     0
 45
0.0
1001
ACAD
1000
AcDbSavedByObjectVersion
1070
     0
  0
VISUALSTYLE
  5
37
102
{ACAD_REACTORS
330
2A
102
}
102
{ACAD_XDICTIONARY
360
1BB
102
}
330
2A
100
AcDbVisualStyle
  2
Thicken
 70
    13
 71
     2
 72
     2
 73
     0
 90
        0
 40
-0.6
 41
-30.0
 62
     5
 63
     7
 74
     1
 91
        4
 64
     7
 65
   257
 75
     1
175
     1
 42
1.0
 92
       12
 66
     7
 43
1.0
 76
     1
 77
     6
 78
     2
 67
     7
 79
     5
170
     0
171
     0
290
     0
174
     0
 93
        1
 44
0.0
173
     0
291
     1
 45
0.0
1001
ACAD
1000
AcDbSavedByObjectVersion
1070
     0
  0
DICTIONARYVAR
  5
1A1
102
{ACAD_REACTORS
330
19E
102
}
330
19E
100
DictionaryVariables
280
     0
  1
2
  0
DICTIONARYVAR
  5
1A2
102
{ACAD_REACTORS
330
19E
102
}
330
19E
100
DictionaryVariables
280
     0
  1
1
  0
DICTIONARY
  5
1C5
330
3D
100
AcDbDictionary
280
     1
281
     1
  3
ACAD_XREC_ROUNDTRIP
360
1C6
  0
DICTIONARY
  5
1C3
330
3C
100
AcDbDictionary
280
     1
281
     1
  3
ACAD_XREC_ROUNDTRIP
360
1C4
  0
DICTIONARY
  5
1C7
330
3E
100
AcDbDictionary
280
     1
281
     1
  3
ACAD_XREC_ROUNDTRIP
360
1C8
  0
DICTIONARY
  5
1AB
330
2F
100
AcDbDictionary
280
     1
281
     1
  3
ACAD_XREC_ROUNDTRIP
360
1AC
  0
DICTIONARY
  5
1AF
330
31
100
AcDbDictionary
280
     1
281
     1
  3
ACAD_XREC_ROUNDTRIP
360
1B0
  0
DICTIONARY
  5
1AD
330
30
100
AcDbDictionary
280
     1
281
     1
  3
ACAD_XREC_ROUNDTRIP
360
1AE
  0
DICTIONARY
  5
1B1
330
32
100
AcDbDictionary
280
     1
281
     1
  3
ACAD_XREC_ROUNDTRIP
360
1B2
  0
DICTIONARY
  5
1B9
330
36
100
AcDbDictionary
280
     1
281
     1
  3
ACAD_XREC_ROUNDTRIP
360
1BA
  0
DICTIONARY
  5
1C1
330
3A
100
AcDbDictionary
280
     1
281
     1
  3
ACAD_XREC_ROUNDTRIP
360
1C2
  0
DICTIONARY
  5
1B5
330
34
100
AcDbDictionary
280
     1
281
     1
  3
ACAD_XREC_ROUNDTRIP
360
1B6
  0
DICTIONARY
  5
1B7
330
35
100
AcDbDictionary
280
     1
281
     1
  3
ACAD_XREC_ROUNDTRIP
360
1B8
  0
DICTIONARY
  5
1BF
330
39
100
AcDbDictionary
280
     1
281
     1
  3
ACAD_XREC_ROUNDTRIP
360
1C0
  0
DICTIONARY
  5
1A3
330
2B
100
AcDbDictionary
280
     1
281
     1
  3
ACAD_XREC_ROUNDTRIP
360
1A4
  0
DICTIONARY
  5
1A5
330
2C
100
AcDbDictionary
280
     1
281
     1
  3
ACAD_XREC_ROUNDTRIP
360
1A6
  0
DICTIONARY
  5
1A7
330
2D
100
AcDbDictionary
280
     1
281
     1
  3
ACAD_XREC_ROUNDTRIP
360
1A8
  0
DICTIONARY
  5
1A9
330
2E
100
AcDbDictionary
280
     1
281
     1
  3
ACAD_XREC_ROUNDTRIP
360
1AA
  0
DICTIONARY
  5
1BD
330
38
100
AcDbDictionary
280
     1
281
     1
  3
ACAD_XREC_ROUNDTRIP
360
1BE
  0
DICTIONARY
  5
1B3
330
33
100
AcDbDictionary
280
     1
281
     1
  3
ACAD_XREC_ROUNDTRIP
360
1B4
  0
DICTIONARY
  5
1BB
330
37
100
AcDbDictionary
280
     1
281
     1
  3
ACAD_XREC_ROUNDTRIP
360
1BC
  0
XRECORD
  5
1C6
102
{ACAD_REACTORS
330
1C5
102
}
330
1C5
100
AcDbXrecord
280
     1
102
MATERIAL
148
0.0
149
0.0
149
0.0
 93
        0
 94
      127
282
     0
 72
     1
 77
     1
171
     1
175
     1
179
     1
273
     0
  0
XRECORD
  5
1C4
102
{ACAD_REACTORS
330
1C3
102
}
330
1C3
100
AcDbXrecord
280
     1
102
MATERIAL
148
0.0
149
0.0
149
0.0
 93
        0
 94
      127
282
     0
 72
     1
 77
     1
171
     1
175
     1
179
     1
273
     0
  0
XRECORD
  5
1C8
102
{ACAD_REACTORS
330
1C7
102
}
330
1C7
100
AcDbXrecord
280
     1
102
MATERIAL
148
0.0
149
0.0
149
0.0
 93
        0
 94
      127
282
     0
 72
     1
 77
     1
171
     1
175
     1
179
     1
273
     0
  0
XRECORD
  5
1AC
102
{ACAD_REACTORS
330
1AB
102
}
330
1AB
100
AcDbXrecord
280
     1
102
RTVSPropertyOp0
 70
     1
102
RTVSPropertyOp1
 70
     1
102
RTVSPropertyOp2
 70
     1
102
RTVSPropertyOp3
 70
     1
102
RTVSPropertyOp4
 70
     1
102
RTVSPropertyOp5
 70
     1
102
RTVSPropertyOp6
 70
     1
102
RTVSPropertyOp7
 70
     1
102
RTVSPropertyOp8
 70
     1
102
RTVSPropertyOp9
 70
     1
102
RTVSPropertyOp10
 70
     1
102
RTVSPropertyOp11
 70
     1
102
RTVSPropertyOp12
 70
     1
102
RTVSPropertyOp13
 70
     1
102
RTVSPropertyOp14
 70
     1
102
RTVSPropertyOp15
 70
     1
102
RTVSPropertyOp16
 70
     1
102
RTVSPropertyOp17
 70
     1
102
RTVSPropertyOp18
 70
     1
102
RTVSPropertyOp19
 70
     1
102
RTVSPropertyOp20
 70
     1
102
RTVSPropertyOp21
 70
     1
102
RTVSPropertyOp22
 70
     1
102
RTVSPropertyOp23
 70
     1
102
RTVSPropertyOp24
 70
     1
102
RTVSPropertyOp25
 70
     1
102
RTVSPropertyOp26
 70
     1
102
RTVSPropertyOp27
 70
     1
102
RTVSPropertyOp28
 70
     1
102
RTVSPropertyOp29
 70
     1
102
RTVSPropertyOp30
 70
     1
102
RTVSPropertyOp31
 70
     1
102
RTVSPropertyOp32
 70
     1
  0
XRECORD
  5
1B0
102
{ACAD_REACTORS
330
1AF
102
}
330
1AF
100
AcDbXrecord
280
     1
102
RTVSPropertyOp0
 70
     1
102
RTVSPropertyOp1
 70
     1
102
RTVSPropertyOp2
 70
     1
102
RTVSPropertyOp3
 70
     1
102
RTVSPropertyOp4
 70
     1
102
RTVSPropertyOp5
 70
     1
102
RTVSPropertyOp6
 70
     1
102
RTVSPropertyOp7
 70
     1
102
RTVSPropertyOp8
 70
     1
102
RTVSPropertyOp9
 70
     1
102
RTVSPropertyOp10
 70
     1
102
RTVSPropertyOp11
 70
     1
102
RTVSPropertyOp12
 70
     1
102
RTVSPropertyOp13
 70
     1
102
RTVSPropertyOp14
 70
     1
102
RTVSPropertyOp15
 70
     1
102
RTVSPropertyOp16
 70
     1
102
RTVSPropertyOp17
 70
     1
102
RTVSPropertyOp18
 70
     1
102
RTVSPropertyOp19
 70
     1
102
RTVSPropertyOp20
 70
     1
102
RTVSPropertyOp21
 70
     1
102
RTVSPropertyOp22
 70
     1
102
RTVSPropertyOp23
 70
     1
102
RTVSPropertyOp24
 70
     1
102
RTVSPropertyOp25
 70
     1
102
RTVSPropertyOp26
 70
     1
102
RTVSPropertyOp27
 70
     1
102
RTVSPropertyOp28
 70
     1
102
RTVSPropertyOp29
 70
     1
102
RTVSPropertyOp30
 70
     1
102
RTVSPropertyOp31
 70
     1
102
RTVSPropertyOp32
 70
     1
  0
XRECORD
  5
1AE
102
{ACAD_REACTORS
330
1AD
102
}
330
1AD
100
AcDbXrecord
280
     1
102
RTVSPropertyOp0
 70
     1
102
RTVSPropertyOp1
 70
     1
102
RTVSPropertyOp2
 70
     1
102
RTVSPropertyOp3
 70
     1
102
RTVSPropertyOp4
 70
     1
102
RTVSPropertyOp5
 70
     1
102
RTVSPropertyOp6
 70
     1
102
RTVSPropertyOp7
 70
     1
102
RTVSPropertyOp8
 70
     1
102
RTVSPropertyOp9
 70
     1
102
RTVSPropertyOp10
 70
     1
102
RTVSPropertyOp11
 70
     1
102
RTVSPropertyOp12
 70
     1
102
RTVSPropertyOp13
 70
     1
102
RTVSPropertyOp14
 70
     1
102
RTVSPropertyOp15
 70
     1
102
RTVSPropertyOp16
 70
     1
102
RTVSPropertyOp17
 70
     1
102
RTVSPropertyOp18
 70
     1
102
RTVSPropertyOp19
 70
     1
102
RTVSPropertyOp20
 70
     1
102
RTVSPropertyOp21
 70
     1
102
RTVSPropertyOp22
 70
     1
102
RTVSPropertyOp23
 70
     1
102
RTVSPropertyOp24
 70
     1
102
RTVSPropertyOp25
 70
     1
102
RTVSPropertyOp26
 70
     1
102
RTVSPropertyOp27
 70
     1
102
RTVSPropertyOp28
 70
     1
102
RTVSPropertyOp29
 70
     1
102
RTVSPropertyOp30
 70
     1
102
RTVSPropertyOp31
 70
     1
102
RTVSPropertyOp32
 70
     1
  0
XRECORD
  5
1B2
102
{ACAD_REACTORS
330
1B1
102
}
330
1B1
100
AcDbXrecord
280
     1
102
RTVSPropertyOp0
 70
     1
102
RTVSPropertyOp1
 70
     1
102
RTVSPropertyOp2
 70
     1
102
RTVSPropertyOp3
 70
     1
102
RTVSPropertyOp4
 70
     1
102
RTVSPropertyOp5
 70
     1
102
RTVSPropertyOp6
 70
     1
102
RTVSPropertyOp7
 70
     1
102
RTVSPropertyOp8
 70
     1
102
RTVSPropertyOp9
 70
     1
102
RTVSPropertyOp10
 70
     1
102
RTVSPropertyOp11
 70
     1
102
RTVSPropertyOp12
 70
     1
102
RTVSPropertyOp13
 70
     1
102
RTVSPropertyOp14
 70
     1
102
RTVSPropertyOp15
 70
     1
102
RTVSPropertyOp16
 70
     1
102
RTVSPropertyOp17
 70
     1
102
RTVSPropertyOp18
 70
     1
102
RTVSPropertyOp19
 70
     1
102
RTVSPropertyOp20
 70
     1
102
RTVSPropertyOp21
 70
     1
102
RTVSPropertyOp22
 70
     1
102
RTVSPropertyOp23
 70
     1
102
RTVSPropertyOp24
 70
     1
102
RTVSPropertyOp25
 70
     1
102
RTVSPropertyOp26
 70
     1
102
RTVSPropertyOp27
 70
     1
102
RTVSPropertyOp28
 70
     1
102
RTVSPropertyOp29
 70
     1
102
RTVSPropertyOp30
 70
     1
102
RTVSPropertyOp31
 70
     1
102
RTVSPropertyOp32
 70
     1
  0
XRECORD
  5
1BA
102
{ACAD_REACTORS
330
1B9
102
}
330
1B9
100
AcDbXrecord
280
     1
102
RTVSPropertyOp0
 70
     1
102
RTVSPropertyOp1
 70
     1
102
RTVSPropertyOp2
 70
     1
102
RTVSPropertyOp3
 70
     1
102
RTVSPropertyOp4
 70
     1
102
RTVSPropertyOp5
 70
     1
102
RTVSPropertyOp6
 70
     1
102
RTVSPropertyOp7
 70
     1
102
RTVSPropertyOp8
 70
     1
102
RTVSPropertyOp9
 70
     1
102
RTVSPropertyOp10
 70
     1
102
RTVSPropertyOp11
 70
     1
102
RTVSPropertyOp12
 70
     1
102
RTVSPropertyOp13
 70
     1
102
RTVSPropertyOp14
 70
     1
102
RTVSPropertyOp15
 70
     1
102
RTVSPropertyOp16
 70
     1
102
RTVSPropertyOp17
 70
     1
102
RTVSPropertyOp18
 70
     1
102
RTVSPropertyOp19
 70
     1
102
RTVSPropertyOp20
 70
     1
102
RTVSPropertyOp21
 70
     1
102
RTVSPropertyOp22
 70
     1
102
RTVSPropertyOp23
 70
     1
102
RTVSPropertyOp24
 70
     1
102
RTVSPropertyOp25
 70
     1
102
RTVSPropertyOp26
 70
     1
102
RTVSPropertyOp27
 70
     1
102
RTVSPropertyOp28
 70
     1
102
RTVSPropertyOp29
 70
     1
102
RTVSPropertyOp30
 70
     1
102
RTVSPropertyOp31
 70
     1
102
RTVSPropertyOp32
 70
     1
  0
XRECORD
  5
1C2
102
{ACAD_REACTORS
330
1C1
102
}
330
1C1
100
AcDbXrecord
280
     1
102
RTVSPropertyOp0
 70
     1
102
RTVSPropertyOp1
 70
     1
102
RTVSPropertyOp2
 70
     1
102
RTVSPropertyOp3
 70
     1
102
RTVSPropertyOp4
 70
     1
102
RTVSPropertyOp5
 70
     1
102
RTVSPropertyOp6
 70
     1
102
RTVSPropertyOp7
 70
     1
102
RTVSPropertyOp8
 70
     1
102
RTVSPropertyOp9
 70
     1
102
RTVSPropertyOp10
 70
     1
102
RTVSPropertyOp11
 70
     1
102
RTVSPropertyOp12
 70
     1
102
RTVSPropertyOp13
 70
     1
102
RTVSPropertyOp14
 70
     1
102
RTVSPropertyOp15
 70
     1
102
RTVSPropertyOp16
 70
     1
102
RTVSPropertyOp17
 70
     1
102
RTVSPropertyOp18
 70
     1
102
RTVSPropertyOp19
 70
     1
102
RTVSPropertyOp20
 70
     1
102
RTVSPropertyOp21
 70
     1
102
RTVSPropertyOp22
 70
     1
102
RTVSPropertyOp23
 70
     1
102
RTVSPropertyOp24
 70
     1
102
RTVSPropertyOp25
 70
     1
102
RTVSPropertyOp26
 70
     1
102
RTVSPropertyOp27
 70
     1
102
RTVSPropertyOp28
 70
     1
102
RTVSPropertyOp29
 70
     1
102
RTVSPropertyOp30
 70
     1
102
RTVSPropertyOp31
 70
     1
102
RTVSPropertyOp32
 70
     1
  0
XRECORD
  5
1B6
102
{ACAD_REACTORS
330
1B5
102
}
330
1B5
100
AcDbXrecord
280
     1
102
RTVSPropertyOp0
 70
     1
102
RTVSPropertyOp1
 70
     1
102
RTVSPropertyOp2
 70
     1
102
RTVSPropertyOp3
 70
     1
102
RTVSPropertyOp4
 70
     1
102
RTVSPropertyOp5
 70
     1
102
RTVSPropertyOp6
 70
     1
102
RTVSPropertyOp7
 70
     1
102
RTVSPropertyOp8
 70
     1
102
RTVSPropertyOp9
 70
     1
102
RTVSPropertyOp10
 70
     1
102
RTVSPropertyOp11
 70
     1
102
RTVSPropertyOp12
 70
     1
102
RTVSPropertyOp13
 70
     1
102
RTVSPropertyOp14
 70
     1
102
RTVSPropertyOp15
 70
     1
102
RTVSPropertyOp16
 70
     1
102
RTVSPropertyOp17
 70
     1
102
RTVSPropertyOp18
 70
     1
102
RTVSPropertyOp19
 70
     1
102
RTVSPropertyOp20
 70
     1
102
RTVSPropertyOp21
 70
     1
102
RTVSPropertyOp22
 70
     1
102
RTVSPropertyOp23
 70
     1
102
RTVSPropertyOp24
 70
     1
102
RTVSPropertyOp25
 70
     1
102
RTVSPropertyOp26
 70
     1
102
RTVSPropertyOp27
 70
     1
102
RTVSPropertyOp28
 70
     1
102
RTVSPropertyOp29
 70
     1
102
RTVSPropertyOp30
 70
     1
102
RTVSPropertyOp31
 70
     1
102
RTVSPropertyOp32
 70
     1
  0
XRECORD
  5
1B8
102
{ACAD_REACTORS
330
1B7
102
}
330
1B7
100
AcDbXrecord
280
     1
102
RTVSPropertyOp0
 70
     1
102
RTVSPropertyOp1
 70
     1
102
RTVSPropertyOp2
 70
     1
102
RTVSPropertyOp3
 70
     1
102
RTVSPropertyOp4
 70
     1
102
RTVSPropertyOp5
 70
     1
102
RTVSPropertyOp6
 70
     1
102
RTVSPropertyOp7
 70
     1
102
RTVSPropertyOp8
 70
     1
102
RTVSPropertyOp9
 70
     1
102
RTVSPropertyOp10
 70
     1
102
RTVSPropertyOp11
 70
     1
102
RTVSPropertyOp12
 70
     1
102
RTVSPropertyOp13
 70
     1
102
RTVSPropertyOp14
 70
     1
102
RTVSPropertyOp15
 70
     1
102
RTVSPropertyOp16
 70
     1
102
RTVSPropertyOp17
 70
     1
102
RTVSPropertyOp18
 70
     1
102
RTVSPropertyOp19
 70
     1
102
RTVSPropertyOp20
 70
     1
102
RTVSPropertyOp21
 70
     1
102
RTVSPropertyOp22
 70
     1
102
RTVSPropertyOp23
 70
     1
102
RTVSPropertyOp24
 70
     1
102
RTVSPropertyOp25
 70
     1
102
RTVSPropertyOp26
 70
     1
102
RTVSPropertyOp27
 70
     1
102
RTVSPropertyOp28
 70
     1
102
RTVSPropertyOp29
 70
     1
102
RTVSPropertyOp30
 70
     1
102
RTVSPropertyOp31
 70
     1
102
RTVSPropertyOp32
 70
     1
  0
XRECORD
  5
1C0
102
{ACAD_REACTORS
330
1BF
102
}
330
1BF
100
AcDbXrecord
280
     1
102
RTVSPropertyOp0
 70
     1
102
RTVSPropertyOp1
 70
     1
102
RTVSPropertyOp2
 70
     1
102
RTVSPropertyOp3
 70
     1
102
RTVSPropertyOp4
 70
     1
102
RTVSPropertyOp5
 70
     1
102
RTVSPropertyOp6
 70
     1
102
RTVSPropertyOp7
 70
     1
102
RTVSPropertyOp8
 70
     1
102
RTVSPropertyOp9
 70
     1
102
RTVSPropertyOp10
 70
     1
102
RTVSPropertyOp11
 70
     1
102
RTVSPropertyOp12
 70
     1
102
RTVSPropertyOp13
 70
     1
102
RTVSPropertyOp14
 70
     1
102
RTVSPropertyOp15
 70
     1
102
RTVSPropertyOp16
 70
     1
102
RTVSPropertyOp17
 70
     1
102
RTVSPropertyOp18
 70
     1
102
RTVSPropertyOp19
 70
     1
102
RTVSPropertyOp20
 70
     1
102
RTVSPropertyOp21
 70
     1
102
RTVSPropertyOp22
 70
     1
102
RTVSPropertyOp23
 70
     1
102
RTVSPropertyOp24
 70
     1
102
RTVSPropertyOp25
 70
     1
102
RTVSPropertyOp26
 70
     1
102
RTVSPropertyOp27
 70
     1
102
RTVSPropertyOp28
 70
     1
102
RTVSPropertyOp29
 70
     1
102
RTVSPropertyOp30
 70
     1
102
RTVSPropertyOp31
 70
     1
102
RTVSPropertyOp32
 70
     1
  0
XRECORD
  5
1A4
102
{ACAD_REACTORS
330
1A3
102
}
330
1A3
100
AcDbXrecord
280
     1
102
RTVSPropertyOp0
 70
     1
102
RTVSPropertyOp1
 70
     1
102
RTVSPropertyOp2
 70
     1
102
RTVSPropertyOp3
 70
     1
102
RTVSPropertyOp4
 70
     1
102
RTVSPropertyOp5
 70
     1
102
RTVSPropertyOp6
 70
     1
102
RTVSPropertyOp7
 70
     1
102
RTVSPropertyOp8
 70
     1
102
RTVSPropertyOp9
 70
     1
102
RTVSPropertyOp10
 70
     1
102
RTVSPropertyOp11
 70
     1
102
RTVSPropertyOp12
 70
     1
102
RTVSPropertyOp13
 70
     1
102
RTVSPropertyOp14
 70
     1
102
RTVSPropertyOp15
 70
     1
102
RTVSPropertyOp16
 70
     1
102
RTVSPropertyOp17
 70
     1
102
RTVSPropertyOp18
 70
     1
102
RTVSPropertyOp19
 70
     1
102
RTVSPropertyOp20
 70
     1
102
RTVSPropertyOp21
 70
     1
102
RTVSPropertyOp22
 70
     1
102
RTVSPropertyOp23
 70
     1
102
RTVSPropertyOp24
 70
     1
102
RTVSPropertyOp25
 70
     1
102
RTVSPropertyOp26
 70
     1
102
RTVSPropertyOp27
 70
     1
102
RTVSPropertyOp28
 70
     1
102
RTVSPropertyOp29
 70
     1
102
RTVSPropertyOp30
 70
     1
102
RTVSPropertyOp31
 70
     1
102
RTVSPropertyOp32
 70
     1
  0
XRECORD
  5
1A6
102
{ACAD_REACTORS
330
1A5
102
}
330
1A5
100
AcDbXrecord
280
     1
102
RTVSPropertyOp0
 70
     1
102
RTVSPropertyOp1
 70
     1
102
RTVSPropertyOp2
 70
     1
102
RTVSPropertyOp3
 70
     1
102
RTVSPropertyOp4
 70
     1
102
RTVSPropertyOp5
 70
     1
102
RTVSPropertyOp6
 70
     1
102
RTVSPropertyOp7
 70
     1
102
RTVSPropertyOp8
 70
     1
102
RTVSPropertyOp9
 70
     1
102
RTVSPropertyOp10
 70
     1
102
RTVSPropertyOp11
 70
     1
102
RTVSPropertyOp12
 70
     1
102
RTVSPropertyOp13
 70
     1
102
RTVSPropertyOp14
 70
     1
102
RTVSPropertyOp15
 70
     1
102
RTVSPropertyOp16
 70
     1
102
RTVSPropertyOp17
 70
     1
102
RTVSPropertyOp18
 70
     1
102
RTVSPropertyOp19
 70
     1
102
RTVSPropertyOp20
 70
     1
102
RTVSPropertyOp21
 70
     1
102
RTVSPropertyOp22
 70
     1
102
RTVSPropertyOp23
 70
     1
102
RTVSPropertyOp24
 70
     1
102
RTVSPropertyOp25
 70
     1
102
RTVSPropertyOp26
 70
     1
102
RTVSPropertyOp27
 70
     1
102
RTVSPropertyOp28
 70
     1
102
RTVSPropertyOp29
 70
     1
102
RTVSPropertyOp30
 70
     1
102
RTVSPropertyOp31
 70
     1
102
RTVSPropertyOp32
 70
     1
  0
XRECORD
  5
1A8
102
{ACAD_REACTORS
330
1A7
102
}
330
1A7
100
AcDbXrecord
280
     1
102
RTVSPropertyOp0
 70
     1
102
RTVSPropertyOp1
 70
     1
102
RTVSPropertyOp2
 70
     1
102
RTVSPropertyOp3
 70
     1
102
RTVSPropertyOp4
 70
     1
102
RTVSPropertyOp5
 70
     1
102
RTVSPropertyOp6
 70
     1
102
RTVSPropertyOp7
 70
     1
102
RTVSPropertyOp8
 70
     1
102
RTVSPropertyOp9
 70
     1
102
RTVSPropertyOp10
 70
     1
102
RTVSPropertyOp11
 70
     1
102
RTVSPropertyOp12
 70
     1
102
RTVSPropertyOp13
 70
     1
102
RTVSPropertyOp14
 70
     1
102
RTVSPropertyOp15
 70
     1
102
RTVSPropertyOp16
 70
     1
102
RTVSPropertyOp17
 70
     1
102
RTVSPropertyOp18
 70
     1
102
RTVSPropertyOp19
 70
     1
102
RTVSPropertyOp20
 70
     1
102
RTVSPropertyOp21
 70
     1
102
RTVSPropertyOp22
 70
     1
102
RTVSPropertyOp23
 70
     1
102
RTVSPropertyOp24
 70
     1
102
RTVSPropertyOp25
 70
     1
102
RTVSPropertyOp26
 70
     1
102
RTVSPropertyOp27
 70
     1
102
RTVSPropertyOp28
 70
     1
102
RTVSPropertyOp29
 70
     1
102
RTVSPropertyOp30
 70
     1
102
RTVSPropertyOp31
 70
     1
102
RTVSPropertyOp32
 70
     1
  0
XRECORD
  5
1AA
102
{ACAD_REACTORS
330
1A9
102
}
330
1A9
100
AcDbXrecord
280
     1
102
RTVSPropertyOp0
 70
     1
102
RTVSPropertyOp1
 70
     1
102
RTVSPropertyOp2
 70
     1
102
RTVSPropertyOp3
 70
     1
102
RTVSPropertyOp4
 70
     1
102
RTVSPropertyOp5
 70
     1
102
RTVSPropertyOp6
 70
     1
102
RTVSPropertyOp7
 70
     1
102
RTVSPropertyOp8
 70
     1
102
RTVSPropertyOp9
 70
     1
102
RTVSPropertyOp10
 70
     1
102
RTVSPropertyOp11
 70
     1
102
RTVSPropertyOp12
 70
     1
102
RTVSPropertyOp13
 70
     1
102
RTVSPropertyOp14
 70
     1
102
RTVSPropertyOp15
 70
     1
102
RTVSPropertyOp16
 70
     1
102
RTVSPropertyOp17
 70
     1
102
RTVSPropertyOp18
 70
     1
102
RTVSPropertyOp19
 70
     1
102
RTVSPropertyOp20
 70
     1
102
RTVSPropertyOp21
 70
     1
102
RTVSPropertyOp22
 70
     1
102
RTVSPropertyOp23
 70
     1
102
RTVSPropertyOp24
 70
     1
102
RTVSPropertyOp25
 70
     1
102
RTVSPropertyOp26
 70
     1
102
RTVSPropertyOp27
 70
     1
102
RTVSPropertyOp28
 70
     1
102
RTVSPropertyOp29
 70
     1
102
RTVSPropertyOp30
 70
     1
102
RTVSPropertyOp31
 70
     1
102
RTVSPropertyOp32
 70
     1
  0
XRECORD
  5
1BE
102
{ACAD_REACTORS
330
1BD
102
}
330
1BD
100
AcDbXrecord
280
     1
102
RTVSPropertyOp0
 70
     1
102
RTVSPropertyOp1
 70
     1
102
RTVSPropertyOp2
 70
     1
102
RTVSPropertyOp3
 70
     1
102
RTVSPropertyOp4
 70
     1
102
RTVSPropertyOp5
 70
     1
102
RTVSPropertyOp6
 70
     1
102
RTVSPropertyOp7
 70
     1
102
RTVSPropertyOp8
 70
     1
102
RTVSPropertyOp9
 70
     1
102
RTVSPropertyOp10
 70
     1
102
RTVSPropertyOp11
 70
     1
102
RTVSPropertyOp12
 70
     1
102
RTVSPropertyOp13
 70
     1
102
RTVSPropertyOp14
 70
     1
102
RTVSPropertyOp15
 70
     1
102
RTVSPropertyOp16
 70
     1
102
RTVSPropertyOp17
 70
     1
102
RTVSPropertyOp18
 70
     1
102
RTVSPropertyOp19
 70
     1
102
RTVSPropertyOp20
 70
     1
102
RTVSPropertyOp21
 70
     1
102
RTVSPropertyOp22
 70
     1
102
RTVSPropertyOp23
 70
     1
102
RTVSPropertyOp24
 70
     1
102
RTVSPropertyOp25
 70
     1
102
RTVSPropertyOp26
 70
     1
102
RTVSPropertyOp27
 70
     1
102
RTVSPropertyOp28
 70
     1
102
RTVSPropertyOp29
 70
     1
102
RTVSPropertyOp30
 70
     1
102
RTVSPropertyOp31
 70
     1
102
RTVSPropertyOp32
 70
     1
  0
XRECORD
  5
1B4
102
{ACAD_REACTORS
330
1B3
102
}
330
1B3
100
AcDbXrecord
280
     1
102
RTVSPropertyOp0
 70
     1
102
RTVSPropertyOp1
 70
     1
102
RTVSPropertyOp2
 70
     1
102
RTVSPropertyOp3
 70
     1
102
RTVSPropertyOp4
 70
     1
102
RTVSPropertyOp5
 70
     1
102
RTVSPropertyOp6
 70
     1
102
RTVSPropertyOp7
 70
     1
102
RTVSPropertyOp8
 70
     1
102
RTVSPropertyOp9
 70
     1
102
RTVSPropertyOp10
 70
     1
102
RTVSPropertyOp11
 70
     1
102
RTVSPropertyOp12
 70
     1
102
RTVSPropertyOp13
 70
     1
102
RTVSPropertyOp14
 70
     1
102
RTVSPropertyOp15
 70
     1
102
RTVSPropertyOp16
 70
     1
102
RTVSPropertyOp17
 70
     1
102
RTVSPropertyOp18
 70
     1
102
RTVSPropertyOp19
 70
     1
102
RTVSPropertyOp20
 70
     1
102
RTVSPropertyOp21
 70
     1
102
RTVSPropertyOp22
 70
     1
102
RTVSPropertyOp23
 70
     1
102
RTVSPropertyOp24
 70
     1
102
RTVSPropertyOp25
 70
     1
102
RTVSPropertyOp26
 70
     1
102
RTVSPropertyOp27
 70
     1
102
RTVSPropertyOp28
 70
     1
102
RTVSPropertyOp29
 70
     1
102
RTVSPropertyOp30
 70
     1
102
RTVSPropertyOp31
 70
     1
102
RTVSPropertyOp32
 70
     1
  0
XRECORD
  5
1BC
102
{ACAD_REACTORS
330
1BB
102
}
330
1BB
100
AcDbXrecord
280
     1
102
RTVSPropertyOp0
 70
     1
102
RTVSPropertyOp1
 70
     1
102
RTVSPropertyOp2
 70
     1
102
RTVSPropertyOp3
 70
     1
102
RTVSPropertyOp4
 70
     1
102
RTVSPropertyOp5
 70
     1
102
RTVSPropertyOp6
 70
     1
102
RTVSPropertyOp7
 70
     1
102
RTVSPropertyOp8
 70
     1
102
RTVSPropertyOp9
 70
     1
102
RTVSPropertyOp10
 70
     1
102
RTVSPropertyOp11
 70
     1
102
RTVSPropertyOp12
 70
     1
102
RTVSPropertyOp13
 70
     1
102
RTVSPropertyOp14
 70
     1
102
RTVSPropertyOp15
 70
     1
102
RTVSPropertyOp16
 70
     1
102
RTVSPropertyOp17
 70
     1
102
RTVSPropertyOp18
 70
     1
102
RTVSPropertyOp19
 70
     1
102
RTVSPropertyOp20
 70
     1
102
RTVSPropertyOp21
 70
     1
102
RTVSPropertyOp22
 70
     1
102
RTVSPropertyOp23
 70
     1
102
RTVSPropertyOp24
 70
     1
102
RTVSPropertyOp25
 70
     1
102
RTVSPropertyOp26
 70
     1
102
RTVSPropertyOp27
 70
     1
102
RTVSPropertyOp28
 70
     1
102
RTVSPropertyOp29
 70
     1
102
RTVSPropertyOp30
 70
     1
102
RTVSPropertyOp31
 70
     1
102
RTVSPropertyOp32
 70
     1
  0
ENDSEC
  0
EOF
