  0
SECTION
  2
HEADER
  9
$ACADVER
  1
AC1015
  9
$ACADMAINTVER
 70
     6
  9
$DWGCODEPAGE
  3
ANSI_932
  9
$INSBASE
 10
0.0
 20
0.0
 30
0.0
  9
$EXTMIN
 10
0.0
 20
0.0
 30
0.0
  9
$EXTMAX
 10
419.9999999999999
 20
594.0
 30
0.0
  9
$LIMMIN
 10
0.0
 20
0.0
  9
$LIMMAX
 10
12.0
 20
9.0
  9
$ORTHOMODE
 70
     0
  9
$REGENMODE
 70
     1
  9
$FILLMODE
 70
     1
  9
$QTEXTMODE
 70
     0
  9
$MIRRTEXT
 70
     1
  9
$LTSCALE
 40
1.0
  9
$ATTMODE
 70
     1
  9
$TEXTSIZE
 40
0.2
  9
$TRACEWID
 40
0.05
  9
$TEXTSTYLE
  7
Standard
  9
$CLAYER
  8
0
  9
$CELTYPE
  6
ByLayer
  9
$CECOLOR
 62
   256
  9
$CELTSCALE
 40
1.0
  9
$DISPSILH
 70
     0
  9
$DIMSCALE
 40
1.0
  9
$DIMASZ
 40
0.18
  9
$DIMEXO
 40
0.0625
  9
$DIMDLI
 40
0.38
  9
$DIMRND
 40
0.0
  9
$DIMDLE
 40
0.0
  9
$DIMEXE
 40
0.18
  9
$DIMTP
 40
0.0
  9
$DIMTM
 40
0.0
  9
$DIMTXT
 40
0.18
  9
$DIMCEN
 40
0.09
  9
$DIMTSZ
 40
0.0
  9
$DIMTOL
 70
     0
  9
$DIMLIM
 70
     0
  9
$DIMTIH
 70
     1
  9
$DIMTOH
 70
     1
  9
$DIMSE1
 70
     0
  9
$DIMSE2
 70
     0
  9
$DIMTAD
 70
     0
  9
$DIMZIN
 70
     0
  9
$DIMBLK
  1

  9
$DIMASO
 70
     1
  9
$DIMSHO
 70
     1
  9
$DIMPOST
  1

  9
$DIMAPOST
  1

  9
$DIMALT
 70
     0
  9
$DIMALTD
 70
     2
  9
$DIMALTF
 40
25.4
  9
$DIMLFAC
 40
1.0
  9
$DIMTOFL
 70
     0
  9
$DIMTVP
 40
0.0
  9
$DIMTIX
 70
     0
  9
$DIMSOXD
 70
     0
  9
$DIMSAH
 70
     0
  9
$DIMBLK1
  1

  9
$DIMBLK2
  1

  9
$DIMSTYLE
  2
Standard
  9
$DIMCLRD
 70
     0
  9
$DIMCLRE
 70
     0
  9
$DIMCLRT
 70
     0
  9
$DIMTFAC
 40
1.0
  9
$DIMGAP
 40
0.09
  9
$DIMJUST
 70
     0
  9
$DIMSD1
 70
     0
  9
$DIMSD2
 70
     0
  9
$DIMTOLJ
 70
     1
  9
$DIMTZIN
 70
     0
  9
$DIMALTZ
 70
     0
  9
$DIMALTTZ
 70
     0
  9
$DIMUPT
 70
     0
  9
$DIMDEC
 70
     4
  9
$DIMTDEC
 70
     4
  9
$DIMALTU
 70
     2
  9
$DIMALTTD
 70
     2
  9
$DIMTXSTY
  7
Standard
  9
$DIMAUNIT
 70
     0
  9
$DIMADEC
 70
     0
  9
$DIMALTRND
 40
0.0
  9
$DIMAZIN
 70
     0
  9
$DIMDSEP
 70
    46
  9
$DIMATFIT
 70
     3
  9
$DIMFRAC
 70
     0
  9
$DIMLDRBLK
  1

  9
$DIMLUNIT
 70
     2
  9
$DIMLWD
 70
    -2
  9
$DIMLWE
 70
    -2
  9
$DIMTMOVE
 70
     0
  9
$LUNITS
 70
     2
  9
$LUPREC
 70
     4
  9
$SKETCHINC
 40
0.1
  9
$FILLETRAD
 40
0.5
  9
$AUNITS
 70
     0
  9
$AUPREC
 70
     0
  9
$MENU
  1
.
  9
$ELEVATION
 40
0.0
  9
$PELEVATION
 40
0.0
  9
$THICKNESS
 40
0.0
  9
$LIMCHECK
 70
     0
  9
$CHAMFERA
 40
0.5
  9
$CHAMFERB
 40
0.5
  9
$CHAMFERC
 40
1.0
  9
$CHAMFERD
 40
0.0
  9
$SKPOLY
 70
     0
  9
$TDCREATE
 40
2459808.706923854
  9
$TDUCREATE
 40
2459808.331923854
  9
$TDUPDATE
 40
2459808.706925301
  9
$TDUUPDATE
 40
2459808.331925301
  9
$TDINDWG
 40
0.0000000116
  9
$TDUSRTIMER
 40
0.0000000116
  9
$USRTIMER
 70
     1
  9
$ANGBASE
 50
0.0
  9
$ANGDIR
 70
     0
  9
$PDMODE
 70
     0
  9
$PDSIZE
 40
0.0
  9
$PLINEWID
 40
0.0
  9
$SPLFRAME
 70
     0
  9
$SPLINETYPE
 70
     6
  9
$SPLINESEGS
 70
     8
  9
$HANDSEED
  5
1BE
  9
$SURFTAB1
 70
     6
  9
$SURFTAB2
 70
     6
  9
$SURFTYPE
 70
     6
  9
$SURFU
 70
     6
  9
$SURFV
 70
     6
  9
$UCSBASE
  2

  9
$UCSNAME
  2

  9
$UCSORG
 10
0.0
 20
0.0
 30
0.0
  9
$UCSXDIR
 10
1.0
 20
0.0
 30
0.0
  9
$UCSYDIR
 10
0.0
 20
1.0
 30
0.0
  9
$UCSORTHOREF
  2

  9
$UCSORTHOVIEW
 70
     0
  9
$UCSORGTOP
 10
0.0
 20
0.0
 30
0.0
  9
$UCSORGBOTTOM
 10
0.0
 20
0.0
 30
0.0
  9
$UCSORGLEFT
 10
0.0
 20
0.0
 30
0.0
  9
$UCSORGRIGHT
 10
0.0
 20
0.0
 30
0.0
  9
$UCSORGFRONT
 10
0.0
 20
0.0
 30
0.0
  9
$UCSORGBACK
 10
0.0
 20
0.0
 30
0.0
  9
$PUCSBASE
  2

  9
$PUCSNAME
  2

  9
$PUCSORG
 10
0.0
 20
0.0
 30
0.0
  9
$PUCSXDIR
 10
1.0
 20
0.0
 30
0.0
  9
$PUCSYDIR
 10
0.0
 20
1.0
 30
0.0
  9
$PUCSORTHOREF
  2

  9
$PUCSORTHOVIEW
 70
     0
  9
$PUCSORGTOP
 10
0.0
 20
0.0
 30
0.0
  9
$PUCSORGBOTTOM
 10
0.0
 20
0.0
 30
0.0
  9
$PUCSORGLEFT
 10
0.0
 20
0.0
 30
0.0
  9
$PUCSORGRIGHT
 10
0.0
 20
0.0
 30
0.0
  9
$PUCSORGFRONT
 10
0.0
 20
0.0
 30
0.0
  9
$PUCSORGBACK
 10
0.0
 20
0.0
 30
0.0
  9
$USERI1
 70
     0
  9
$USERI2
 70
     0
  9
$USERI3
 70
     0
  9
$USERI4
 70
     0
  9
$USERI5
 70
     0
  9
$USERR1
 40
18.1
  9
$USERR2
 40
0.0
  9
$USERR3
 40
0.0
  9
$USERR4
 40
0.0
  9
$USERR5
 40
0.0
  9
$WORLDVIEW
 70
     1
  9
$SHADEDGE
 70
     3
  9
$SHADEDIF
 70
    70
  9
$TILEMODE
 70
     1
  9
$MAXACTVP
 70
    64
  9
$PINSBASE
 10
0.0
 20
0.0
 30
0.0
  9
$PLIMCHECK
 70
     0
  9
$PEXTMIN
 10
1.00000000000000E+20
 20
1.00000000000000E+20
 30
1.00000000000000E+20
  9
$PEXTMAX
 10
-1.00000000000000E+20
 20
-1.00000000000000E+20
 30
-1.00000000000000E+20
  9
$PLIMMIN
 10
0.0
 20
0.0
  9
$PLIMMAX
 10
12.0
 20
9.0
  9
$UNITMODE
 70
     0
  9
$VISRETAIN
 70
     1
  9
$PLINEGEN
 70
     0
  9
$PSLTSCALE
 70
     1
  9
$TREEDEPTH
 70
  3020
  9
$CMLSTYLE
  2
Standard
  9
$CMLJUST
 70
     0
  9
$CMLSCALE
 40
1.0
  9
$PROXYGRAPHICS
 70
     1
  9
$MEASUREMENT
 70
     1
  9
$CELWEIGHT
370
    -1
  9
$ENDCAPS
280
     0
  9
$JOINSTYLE
280
     0
  9
$LWDISPLAY
290
     0
  9
$INSUNITS
 70
     4
  9
$HYPERLINKBASE
  1

  9
$STYLESHEET
  1

  9
$XEDIT
290
     1
  9
$CEPSNTYPE
380
     0
  9
$PSTYLEMODE
290
     1
  9
$FINGERPRINTGUID
  2
{BB7A01D9-B8CF-460C-A6F1-EF1D27F13B0F}
  9
$VERSIONGUID
  2
{FAEB1C32-E019-11D5-929B-00C0DF256EC4}
  9
$EXTNAMES
290
     1
  9
$PSVPSCALE
 40
0.0
  9
$OLESTARTUP
290
     0
  0
ENDSEC
  0
SECTION
  2
CLASSES
  0
CLASS
  1
ACDBDICTIONARYWDFLT
  2
AcDbDictionaryWithDefault
  3
ObjectDBX Classes
 90
        0
280
     0
281
     0
  0
CLASS
  1
VISUALSTYLE
  2
AcDbVisualStyle
  3
ObjectDBX Classes
 90
     4095
280
     0
281
     0
  0
CLASS
  1
MATERIAL
  2
AcDbMaterial
  3
ObjectDBX Classes
 90
     1153
280
     0
281
     0
  0
CLASS
  1
DICTIONARYVAR
  2
AcDbDictionaryVar
  3
ObjectDBX Classes
 90
        0
280
     0
281
     0
  0
CLASS
  1
ACDBPLACEHOLDER
  2
AcDbPlaceHolder
  3
ObjectDBX Classes
 90
        0
280
     0
281
     0
  0
CLASS
  1
LAYOUT
  2
AcDbLayout
  3
ObjectDBX Classes
 90
        0
280
     0
281
     0
  0
ENDSEC
  0
SECTION
  2
TABLES
  0
TABLE
  2
VPORT
  5
8
330
0
100
AcDbSymbolTable
 70
     1
  0
VPORT
  5
29
330
8
100
AcDbSymbolTableRecord
100
AcDbViewportTableRecord
  2
*Active
 70
     0
 10
0.0
 20
0.0
 11
1.0
 21
1.0
 12
209.9999999999999
 22
297.0
 13
0.0
 23
0.0
 14
0.5
 24
0.5
 15
0.5
 25
0.5
 16
0.0
 26
0.0
 36
1.0
 17
0.0
 27
0.0
 37
0.0
 40
653.4000000000001
 41
1.60267857142857
 42
50.0
 43
0.0
 44
0.0
 50
0.0
 51
0.0
 71
     0
 72
   100
 73
     1
 74
     3
 75
     0
 76
     0
 77
     0
 78
     0
281
     0
 65
     1
110
0.0
120
0.0
130
0.0
111
1.0
121
0.0
131
0.0
112
0.0
122
1.0
132
0.0
 79
     0
146
0.0
  0
ENDTAB
  0
TABLE
  2
LTYPE
  5
5
330
0
100
AcDbSymbolTable
 70
     8
  0
LTYPE
  5
14
330
5
100
AcDbSymbolTableRecord
100
AcDbLinetypeTableRecord
  2
ByBlock
 70
     0
  3

 72
    65
 73
     0
 40
0.0
  0
LTYPE
  5
15
330
5
100
AcDbSymbolTableRecord
100
AcDbLinetypeTableRecord
  2
ByLayer
 70
     0
  3

 72
    65
 73
     0
 40
0.0
  0
LTYPE
  5
16
330
5
100
AcDbSymbolTableRecord
100
AcDbLinetypeTableRecord
  2
Continuous
 70
     0
  3
Solid line
 72
    65
 73
     0
 40
0.0
  0
LTYPE
  5
3F
330
5
100
AcDbSymbolTableRecord
100
AcDbLinetypeTableRecord
  2
DASHED
 70
     0
  3
Dashed
 72
    65
 73
     2
 40
15.0
 49
7.0
 74
     0
 49
-8.0
 74
     0
  0
LTYPE
  5
40
330
5
100
AcDbSymbolTableRecord
100
AcDbLinetypeTableRecord
  2
DOTTED
 70
     0
  3
Dotted
 72
    65
 73
     2
 40
1.0
 49
0.0
 74
     0
 49
-1.0
 74
     0
  0
LTYPE
  5
41
330
5
100
AcDbSymbolTableRecord
100
AcDbLinetypeTableRecord
  2
DOT_CENTER
 70
     0
  3
Dot_Center
 72
    65
 73
     4
 40
14.0
 49
12.0
 74
     0
 49
-1.0
 74
     0
 49
0.0
 74
     0
 49
-1.0
 74
     0
  0
LTYPE
  5
42
330
5
100
AcDbSymbolTableRecord
100
AcDbLinetypeTableRecord
  2
LONG_DASHED
 70
     0
  3
Long_Dashed
 72
    65
 73
     2
 40
15.0
 49
10.0
 74
     0
 49
-5.0
 74
     0
  0
LTYPE
  5
43
330
5
100
AcDbSymbolTableRecord
100
AcDbLinetypeTableRecord
  2
DASH_CENTER
 70
     0
  3
Dash_Center
 72
    65
 73
     4
 40
14.0
 49
11.0
 74
     0
 49
-1.0
 74
     0
 49
1.0
 74
     0
 49
-1.0
 74
     0
  0
LTYPE
  5
44
330
5
100
AcDbSymbolTableRecord
100
AcDbLinetypeTableRecord
  2
PHANTOM
 70
     0
  3
Phantom
 72
    65
 73
     6
 40
13.0
 49
10.0
 74
     0
 49
-1.0
 74
     0
 49
0.0
 74
     0
 49
-1.0
 74
     0
 49
0.0
 74
     0
 49
-1.0
 74
     0
  0
LTYPE
  5
45
330
5
100
AcDbSymbolTableRecord
100
AcDbLinetypeTableRecord
  2
CENTER_DASH_DASH
 70
     0
  3
Center_Dash_Dash
 72
    65
 73
     6
 40
14.0
 49
9.0
 74
     0
 49
-1.0
 74
     0
 49
1.0
 74
     0
 49
-1.0
 74
     0
 49
1.0
 74
     0
 49
-1.0
 74
     0
  0
ENDTAB
  0
TABLE
  2
LAYER
  5
2
330
0
100
AcDbSymbolTable
 70
     3
  0
LAYER
  5
10
330
2
100
AcDbSymbolTableRecord
100
AcDbLayerTableRecord
  2
0
 70
     0
 62
     7
  6
Continuous
370
    -3
390
F
  0
LAYER
  5
46
330
2
100
AcDbSymbolTableRecord
100
AcDbLayerTableRecord
  2
1
 70
     0
 62
     7
  6
Continuous
370
    -3
390
F
  0
LAYER
  5
47
330
2
100
AcDbSymbolTableRecord
100
AcDbLayerTableRecord
  2
_U_30EC_U_30A4_U_30E4_U_30FC_1
 70
     0
 62
     7
  6
Continuous
370
    -3
390
F
  0
ENDTAB
  0
TABLE
  2
STYLE
  5
3
330
0
100
AcDbSymbolTable
 70
     3
  0
STYLE
  5
11
330
3
100
AcDbSymbolTableRecord
100
AcDbTextStyleTableRecord
  2
Standard
 70
     0
 40
0.0
 41
1.0
 50
0.0
 71
     0
 42
0.2
  3
txt
  4

  0
STYLE
  5
BA
330
3
100
AcDbSymbolTableRecord
100
AcDbTextStyleTableRecord
  2
CONVERTER_11
 70
     0
 40
0.0
 41
0.89
 50
0.0
 71
     0
 42
0.2
  3
MS Mincho.ttf
  4

1001
ACAD
1000
MS Mincho
1071
    32785
  0
STYLE
  5
128
330
3
100
AcDbSymbolTableRecord
100
AcDbTextStyleTableRecord
  2
CONVERTER_12
 70
     0
 40
0.0
 41
0.9
 50
0.0
 71
     0
 42
0.2
  3
txt.shx
  4

  0
ENDTAB
  0
TABLE
  2
VIEW
  5
6
330
0
100
AcDbSymbolTable
 70
     0
  0
ENDTAB
  0
TABLE
  2
UCS
  5
7
330
0
100
AcDbSymbolTable
 70
     0
  0
ENDTAB
  0
TABLE
  2
APPID
  5
9
330
0
100
AcDbSymbolTable
 70
     1
  0
APPID
  5
12
330
9
100
AcDbSymbolTableRecord
100
AcDbRegAppTableRecord
  2
ACAD
 70
     0
  0
ENDTAB
  0
TABLE
  2
DIMSTYLE
  5
A
330
0
100
AcDbSymbolTable
 70
     9
100
AcDbDimStyleTable
  0
DIMSTYLE
105
27
330
A
100
AcDbSymbolTableRecord
100
AcDbDimStyleTableRecord
  2
Standard
 70
     0
178
     0
340
11
  0
DIMSTYLE
105
13E
102
{ACAD_REACTORS
330
13F
102
}
330
A
100
AcDbSymbolTableRecord
100
AcDbDimStyleTableRecord
  2
ME10_DIM_10
 70
     0
 41
7.0
 42
0.0
 44
2.0
 73
     0
 74
     0
 77
     1
 78
     8
140
7.0
147
2.0
172
     1
173
     1
174
     1
175
     1
176
     2
177
     2
271
     2
178
     7
271
     2
340
128
  0
DIMSTYLE
105
149
102
{ACAD_REACTORS
330
14A
102
}
330
A
100
AcDbSymbolTableRecord
100
AcDbDimStyleTableRecord
  2
ME10_DIM_11
 70
     0
 41
7.0
 42
0.0
 44
2.0
 73
     0
 74
     0
 77
     1
 78
     8
140
7.0
147
2.0
172
     1
173
     1
174
     1
175
     1
176
     2
177
     2
271
     2
178
     7
271
     2
340
128
  0
DIMSTYLE
105
156
102
{ACAD_REACTORS
330
157
102
}
330
A
100
AcDbSymbolTableRecord
100
AcDbDimStyleTableRecord
  2
ME10_DIM_12
 70
     0
  3
{\Fgdt;n}<>
 41
7.0
 42
0.0
 44
2.0
 73
     0
 74
     0
 77
     1
 78
     8
140
7.0
147
2.0
172
     1
173
     1
174
     1
175
     1
176
     2
177
     2
271
     2
178
     7
271
     2
340
128
  0
DIMSTYLE
105
161
102
{ACAD_REACTORS
330
162
102
}
330
A
100
AcDbSymbolTableRecord
100
AcDbDimStyleTableRecord
  2
ME10_DIM_13
 70
     0
 41
7.0
 42
0.0
 44
2.0
 73
     0
 74
     0
 77
     1
 78
     8
140
7.0
147
2.0
172
     1
173
     1
174
     1
175
     1
176
     2
177
     2
271
     2
178
     7
271
     2
340
128
  0
DIMSTYLE
105
16C
102
{ACAD_REACTORS
330
16D
102
}
330
A
100
AcDbSymbolTableRecord
100
AcDbDimStyleTableRecord
  2
ME10_DIM_14
 70
     0
 41
7.0
 42
0.0
 44
2.0
 73
     0
 74
     0
 77
     1
 78
     8
140
7.0
147
2.0
172
     1
173
     1
174
     1
175
     1
176
     2
177
     2
271
     2
178
     7
271
     2
340
128
  0
DIMSTYLE
105
179
102
{ACAD_REACTORS
330
17A
102
}
330
A
100
AcDbSymbolTableRecord
100
AcDbDimStyleTableRecord
  2
ME10_DIM_15
 70
     0
 41
7.0
 42
0.0
 44
2.0
 73
     0
 74
     0
 77
     1
 78
     8
140
7.0
147
2.0
172
     1
173
     1
174
     1
175
     1
176
     2
177
     2
271
     2
178
     7
271
     2
340
128
  0
DIMSTYLE
105
184
102
{ACAD_REACTORS
330
185
102
}
330
A
100
AcDbSymbolTableRecord
100
AcDbDimStyleTableRecord
  2
ME10_DIM_16
 70
     0
 41
7.0
 42
0.0
 44
2.0
 73
     0
 74
     0
 77
     1
 78
     8
140
7.0
147
2.0
172
     1
173
     1
174
     1
175
     1
176
     2
177
     2
271
     2
178
     7
271
     2
340
128
  0
DIMSTYLE
105
191
102
{ACAD_REACTORS
330
192
102
}
330
A
100
AcDbSymbolTableRecord
100
AcDbDimStyleTableRecord
  2
ME10_DIM_17
 70
     0
 41
7.0
 42
0.0
 44
2.0
 73
     0
 74
     0
 77
     1
 78
     8
140
7.0
147
2.0
172
     1
173
     1
174
     1
175
     1
176
     2
177
     2
271
     2
178
     7
271
     2
340
128
  0
ENDTAB
  0
TABLE
  2
BLOCK_RECORD
  5
1
330
0
100
AcDbSymbolTable
 70
    13
  0
BLOCK_RECORD
  5
1F
330
1
100
AcDbSymbolTableRecord
100
AcDbBlockTableRecord
  2
*Model_Space
340
22
  0
BLOCK_RECORD
  5
1B
330
1
100
AcDbSymbolTableRecord
100
AcDbBlockTableRecord
  2
*Paper_Space
340
1E
  0
BLOCK_RECORD
  5
23
330
1
100
AcDbSymbolTableRecord
100
AcDbBlockTableRecord
  2
*Paper_Space0
340
26
  0
BLOCK_RECORD
  5
48
330
1
100
AcDbSymbolTableRecord
100
AcDbBlockTableRecord
  2
開示A4
340
0
102
{BLKREFS
331
4C
102
}
  0
BLOCK_RECORD
  5
4B
330
1
100
AcDbSymbolTableRecord
100
AcDbBlockTableRecord
  2
開示A4枠
340
0
102
{BLKREFS
331
55
102
}
  0
BLOCK_RECORD
  5
4F
330
1
100
AcDbSymbolTableRecord
100
AcDbBlockTableRecord
  2
cover
340
0
102
{BLKREFS
331
56
102
}
  0
BLOCK_RECORD
  5
52
330
1
100
AcDbSymbolTableRecord
100
AcDbBlockTableRecord
  2
s-renchi
340
0
102
{BLKREFS
331
57
102
}
  0
BLOCK_RECORD
  5
135
330
1
100
AcDbSymbolTableRecord
100
AcDbBlockTableRecord
  2
*D5
340
0
  0
BLOCK_RECORD
  5
140
330
1
100
AcDbSymbolTableRecord
100
AcDbBlockTableRecord
  2
*D6
340
0
  0
BLOCK_RECORD
  5
14B
330
1
100
AcDbSymbolTableRecord
100
AcDbBlockTableRecord
  2
*D7
340
0
  0
BLOCK_RECORD
  5
158
330
1
100
AcDbSymbolTableRecord
100
AcDbBlockTableRecord
  2
*D8
340
0
  0
BLOCK_RECORD
  5
163
330
1
100
AcDbSymbolTableRecord
100
AcDbBlockTableRecord
  2
*D9
340
0
  0
BLOCK_RECORD
  5
16E
330
1
100
AcDbSymbolTableRecord
100
AcDbBlockTableRecord
  2
*D10
340
0
  0
BLOCK_RECORD
  5
17B
330
1
100
AcDbSymbolTableRecord
100
AcDbBlockTableRecord
  2
*D11
340
0
  0
BLOCK_RECORD
  5
186
330
1
100
AcDbSymbolTableRecord
100
AcDbBlockTableRecord
  2
*D12
340
0
  0
ENDTAB
  0
ENDSEC
  0
SECTION
  2
BLOCKS
  0
BLOCK
  5
20
330
1F
100
AcDbEntity
  8
0
100
AcDbBlockBegin
  2
*Model_Space
 70
     0
 10
0.0
 20
0.0
 30
0.0
  3
*Model_Space
  1

  0
ENDBLK
  5
21
330
1F
100
AcDbEntity
  8
0
100
AcDbBlockEnd
  0
BLOCK
  5
1C
330
1B
100
AcDbEntity
 67
     1
  8
0
100
AcDbBlockBegin
  2
*Paper_Space
 70
     0
 10
0.0
 20
0.0
 30
0.0
  3
*Paper_Space
  1

  0
ENDBLK
  5
1D
330
1B
100
AcDbEntity
 67
     1
  8
0
100
AcDbBlockEnd
  0
BLOCK
  5
24
330
23
100
AcDbEntity
  8
0
100
AcDbBlockBegin
  2
*Paper_Space0
 70
     0
 10
0.0
 20
0.0
 30
0.0
  3
*Paper_Space0
  1

  0
ENDBLK
  5
25
330
23
100
AcDbEntity
  8
0
100
AcDbBlockEnd
  0
BLOCK
  5
49
330
48
100
AcDbEntity
  8
0
100
AcDbBlockBegin
  2
開示A4
 70
     0
 10
0.0
 20
0.0
 30
0.0
  3
開示A4
  1

  0
POINT
  5
58
330
48
100
AcDbEntity
  8
1
 62
     4
100
AcDbPoint
 10
34.0
 20
34.00000000000003
 30
0.0
  0
POINT
  5
59
330
48
100
AcDbEntity
  8
1
 62
     4
100
AcDbPoint
 10
57.0
 20
12.25
 30
0.0
  0
POINT
  5
5A
330
48
100
AcDbEntity
  8
1
 62
     4
100
AcDbPoint
 10
57.0
 20
20.75
 30
0.0
  0
POINT
  5
5B
330
48
100
AcDbEntity
  8
1
 62
     4
100
AcDbPoint
 10
57.0
 20
24.75
 30
0.0
  0
POINT
  5
5C
330
48
100
AcDbEntity
  8
1
 62
     4
100
AcDbPoint
 10
57.0
 20
16.25
 30
0.0
  0
POINT
  5
5D
330
48
100
AcDbEntity
  8
1
 62
     4
100
AcDbPoint
 10
157.5
 20
19.0
 30
0.0
  0
POINT
  5
5E
330
48
100
AcDbEntity
  8
1
 62
     4
100
AcDbPoint
 10
47.5
 20
282.0000000000003
 30
0.0
  0
POINT
  5
5F
330
48
100
AcDbEntity
  8
1
 62
     4
100
AcDbPoint
 10
57.0
 20
22.75
 30
0.0
  0
POINT
  5
60
330
48
100
AcDbEntity
  8
1
 62
     4
100
AcDbPoint
 10
57.0
 20
14.25
 30
0.0
  0
POINT
  5
61
330
48
100
AcDbEntity
  8
1
 62
     4
100
AcDbPoint
 10
157.5
 20
12.5
 30
0.0
  0
POINT
  5
62
330
48
100
AcDbEntity
  8
1
 62
     4
100
AcDbPoint
 10
163.25
 20
12.5
 30
0.0
  0
POINT
  5
63
330
48
100
AcDbEntity
  8
1
 62
     4
100
AcDbPoint
 10
151.75
 20
12.5
 30
0.0
  0
POINT
  5
64
330
48
100
AcDbEntity
  8
1
 62
     4
100
AcDbPoint
 10
134.75
 20
12.5
 30
0.0
  0
POINT
  5
65
330
48
100
AcDbEntity
  8
1
 62
     4
100
AcDbPoint
 10
146.25
 20
12.5
 30
0.0
  0
POINT
  5
66
330
48
100
AcDbEntity
  8
1
 62
     4
100
AcDbPoint
 10
140.5
 20
12.5
 30
0.0
  0
POINT
  5
67
330
48
100
AcDbEntity
  8
1
 62
     4
100
AcDbPoint
 10
140.5
 20
19.0
 30
0.0
  0
POINT
  5
68
330
48
100
AcDbEntity
  8
1
 62
     4
100
AcDbPoint
 10
117.75
 20
12.5
 30
0.0
  0
POINT
  5
69
330
48
100
AcDbEntity
  8
1
 62
     4
100
AcDbPoint
 10
129.25
 20
12.5
 30
0.0
  0
POINT
  5
6A
330
48
100
AcDbEntity
  8
1
 62
     4
100
AcDbPoint
 10
123.5
 20
12.5
 30
0.0
  0
POINT
  5
6B
330
48
100
AcDbEntity
  8
1
 62
     4
100
AcDbPoint
 10
123.5
 20
19.0
 30
0.0
  0
POINT
  5
6C
330
48
100
AcDbEntity
  8
1
 62
     4
100
AcDbPoint
 10
100.75
 20
12.5
 30
0.0
  0
POINT
  5
6D
330
48
100
AcDbEntity
  8
1
 62
     4
100
AcDbPoint
 10
112.25
 20
12.5
 30
0.0
  0
POINT
  5
6E
330
48
100
AcDbEntity
  8
1
 62
     4
100
AcDbPoint
 10
106.5
 20
12.5
 30
0.0
  0
POINT
  5
6F
330
48
100
AcDbEntity
  8
1
 62
     4
100
AcDbPoint
 10
106.5
 20
19.0
 30
0.0
  0
POINT
  5
70
330
48
100
AcDbEntity
  8
1
 62
     4
100
AcDbPoint
 10
85.24999999999997
 20
17.0
 30
0.0
  0
POINT
  5
71
330
48
100
AcDbEntity
  8
1
 62
     4
100
AcDbPoint
 10
93.74999999999997
 20
17.0
 30
0.0
  0
POINT
  5
72
330
48
100
AcDbEntity
  8
1
 62
     4
100
AcDbPoint
 10
183.0
 20
15.0
 30
0.0
  0
LINE
  5
73
330
48
100
AcDbEntity
  8
1
  6
Continuous
 62
     2
100
AcDbLine
 10
81.0
 20
27.0
 30
0.0
 11
81.0
 21
10.0
 31
0.0
  0
LINE
  5
74
330
48
100
AcDbEntity
  8
1
  6
DOT_CENTER
 62
     2
100
AcDbLine
 10
187.0
 20
26.5
 30
0.0
 11
187.0
 21
20.5
 31
0.0
  0
LINE
  5
75
330
48
100
AcDbEntity
  8
1
  6
DOT_CENTER
 62
     2
100
AcDbLine
 10
184.0
 20
23.5
 30
0.0
 11
197.0
 21
23.5
 31
0.0
  0
LINE
  5
76
330
48
100
AcDbEntity
  8
1
  6
Continuous
 62
     7
100
AcDbLine
 10
196.0
 20
21.5
 30
0.0
 11
191.0
 21
22.3
 31
0.0
  0
LINE
  5
77
330
48
100
AcDbEntity
  8
1
  6
Continuous
 62
     7
100
AcDbLine
 10
196.0
 20
25.5
 30
0.0
 11
196.0
 21
21.5
 31
0.0
  0
LINE
  5
78
330
48
100
AcDbEntity
  8
1
  6
Continuous
 62
     7
100
AcDbLine
 10
191.0
 20
24.69999999999999
 30
0.0
 11
196.0
 21
25.5
 31
0.0
  0
LINE
  5
79
330
48
100
AcDbEntity
  8
1
  6
Continuous
 62
     7
100
AcDbLine
 10
191.0
 20
24.69999999999999
 30
0.0
 11
191.0
 21
22.3
 31
0.0
  0
LINE
  5
7A
330
48
100
AcDbEntity
  8
1
  6
Continuous
 62
     2
100
AcDbLine
 10
33.0
 20
27.0
 30
0.0
 11
33.0
 21
10.0
 31
0.0
  0
LINE
  5
7B
330
48
100
AcDbEntity
  8
1
  6
Continuous
 62
     2
100
AcDbLine
 10
25.0
 20
18.5
 30
0.0
 11
81.0
 21
18.5
 31
0.0
  0
LINE
  5
7C
330
48
100
AcDbEntity
  8
1
  6
Continuous
 62
     7
100
AcDbLine
 10
200.0
 20
287.0000000000003
 30
0.0
 11
105.0
 21
287.0000000000003
 31
0.0
  0
LINE
  5
7D
330
48
100
AcDbEntity
  8
1
  6
Continuous
 62
     7
100
AcDbLine
 10
200.0
 20
10.0
 30
0.0
 11
200.0
 21
148.5
 31
0.0
  0
LINE
  5
7E
330
48
100
AcDbEntity
  8
1
  6
Continuous
 62
     7
100
AcDbLine
 10
25.0
 20
10.0
 30
0.0
 11
105.0
 21
10.0
 31
0.0
  0
LINE
  5
7F
330
48
100
AcDbEntity
  8
1
  6
PHANTOM
 62
     4
100
AcDbLine
 10
0.0
 20
297.0
 30
0.0
 11
0.0
 21
0.0
 31
0.0
  0
LINE
  5
80
330
48
100
AcDbEntity
  8
1
  6
PHANTOM
 62
     4
100
AcDbLine
 10
210.0
 20
297.0
 30
0.0
 11
0.0
 21
297.0
 31
0.0
  0
LINE
  5
81
330
48
100
AcDbEntity
  8
1
  6
PHANTOM
 62
     4
100
AcDbLine
 10
210.0
 20
0.0
 30
0.0
 11
210.0
 21
297.0
 31
0.0
  0
LINE
  5
82
330
48
100
AcDbEntity
  8
1
  6
PHANTOM
 62
     4
100
AcDbLine
 10
0.0
 20
0.0
 30
0.0
 11
210.0
 21
0.0
 31
0.0
  0
LINE
  5
83
330
48
100
AcDbEntity
  8
1
  6
Continuous
 62
     7
100
AcDbLine
 10
25.0
 20
41.00000000000003
 30
0.0
 11
200.0
 21
41.00000000000003
 31
0.0
  0
LINE
  5
84
330
48
100
AcDbEntity
  8
1
  6
Continuous
 62
     7
100
AcDbLine
 10
200.0
 20
27.0
 30
0.0
 11
25.0
 21
27.0
 31
0.0
  0
LINE
  5
85
330
48
100
AcDbEntity
  8
1
  6
Continuous
 62
     2
100
AcDbLine
 10
33.0
 20
41.00000000000003
 30
0.0
 11
33.0
 21
27.0
 31
0.0
  0
LINE
  5
86
330
48
100
AcDbEntity
  8
1
  6
Continuous
 62
     2
100
AcDbLine
 10
55.0
 20
287.0000000000003
 30
0.0
 11
55.0
 21
277.0000000000003
 31
0.0
  0
LINE
  5
87
330
48
100
AcDbEntity
  8
1
  6
Continuous
 62
     2
100
AcDbLine
 10
40.0
 20
287.0000000000003
 30
0.0
 11
40.0
 21
277.0000000000003
 31
0.0
  0
LINE
  5
88
330
48
100
AcDbEntity
  8
1
  6
Continuous
 62
     7
100
AcDbLine
 10
25.0
 20
10.0
 30
0.0
 11
25.0
 21
148.5
 31
0.0
  0
LINE
  5
89
330
48
100
AcDbEntity
  8
1
  6
Continuous
 62
     2
100
AcDbLine
 10
55.0
 20
277.0000000000003
 30
0.0
 11
25.0
 21
277.0000000000003
 31
0.0
  0
LINE
  5
8A
330
48
100
AcDbEntity
  8
1
  6
Continuous
 62
     2
100
AcDbLine
 10
166.0
 20
27.0
 30
0.0
 11
166.0
 21
10.0
 31
0.0
  0
LINE
  5
8B
330
48
100
AcDbEntity
  8
1
  6
Continuous
 62
     2
100
AcDbLine
 10
132.0
 20
27.0
 30
0.0
 11
132.0
 21
10.0
 31
0.0
  0
LINE
  5
8C
330
48
100
AcDbEntity
  8
1
  6
Continuous
 62
     2
100
AcDbLine
 10
149.0
 20
27.0
 30
0.0
 11
149.0
 21
10.0
 31
0.0
  0
LINE
  5
8D
330
48
100
AcDbEntity
  8
1
  6
Continuous
 62
     2
100
AcDbLine
 10
115.0
 20
27.0
 30
0.0
 11
115.0
 21
10.0
 31
0.0
  0
LINE
  5
8E
330
48
100
AcDbEntity
  8
1
  6
Continuous
 62
     2
100
AcDbLine
 10
97.99999999999997
 20
27.0
 30
0.0
 11
97.99999999999997
 21
10.0
 31
0.0
  0
LINE
  5
8F
330
48
100
AcDbEntity
  8
1
  6
Continuous
 62
     2
100
AcDbLine
 10
166.0
 20
20.0
 30
0.0
 11
200.0
 21
20.0
 31
0.0
  0
LINE
  5
90
330
48
100
AcDbEntity
  8
1
  6
Continuous
 62
     2
100
AcDbLine
 10
105.0
 20
287.0000000000003
 30
0.0
 11
105.0
 21
292.0000000000003
 31
0.0
  0
LINE
  5
91
330
48
100
AcDbEntity
  8
1
  6
Continuous
 62
     7
100
AcDbLine
 10
105.0
 20
287.0000000000003
 30
0.0
 11
25.0
 21
287.0000000000003
 31
0.0
  0
LINE
  5
92
330
48
100
AcDbEntity
  8
1
  6
Continuous
 62
     2
100
AcDbLine
 10
25.0
 20
148.5
 30
0.0
 11
20.0
 21
148.5
 31
0.0
  0
LINE
  5
93
330
48
100
AcDbEntity
  8
1
  6
Continuous
 62
     7
100
AcDbLine
 10
25.0
 20
148.5
 30
0.0
 11
25.0
 21
287.0000000000003
 31
0.0
  0
LINE
  5
94
330
48
100
AcDbEntity
  8
1
  6
Continuous
 62
     2
100
AcDbLine
 10
200.0
 20
148.5
 30
0.0
 11
205.0
 21
148.5
 31
0.0
  0
LINE
  5
95
330
48
100
AcDbEntity
  8
1
  6
Continuous
 62
     7
100
AcDbLine
 10
200.0
 20
148.5
 30
0.0
 11
200.0
 21
287.0000000000003
 31
0.0
  0
LINE
  5
96
330
48
100
AcDbEntity
  8
1
  6
Continuous
 62
     2
100
AcDbLine
 10
105.0
 20
10.0
 30
0.0
 11
105.0
 21
5.0
 31
0.0
  0
LINE
  5
97
330
48
100
AcDbEntity
  8
1
  6
Continuous
 62
     7
100
AcDbLine
 10
105.0
 20
10.0
 30
0.0
 11
200.0
 21
10.0
 31
0.0
  0
CIRCLE
  5
9C
330
48
100
AcDbEntity
  8
1
  6
DOT_CENTER
 62
     7
100
AcDbCircle
 10
89.49999999999997
 20
18.0
 30
0.0
 40
0.1000000000000938
  0
CIRCLE
  5
9D
330
48
100
AcDbEntity
  8
1
  6
DOT_CENTER
 62
     7
100
AcDbCircle
 10
89.49999999999997
 20
16.0
 30
0.0
 40
0.1000000000000938
  0
CIRCLE
  5
9E
330
48
100
AcDbEntity
  8
1
  6
Continuous
 62
     7
100
AcDbCircle
 10
187.0
 20
23.5
 30
0.0
 40
2.0
  0
CIRCLE
  5
9F
330
48
100
AcDbEntity
  8
1
  6
Continuous
 62
     7
100
AcDbCircle
 10
187.0
 20
23.5
 30
0.0
 40
1.200000000000102
  0
CIRCLE
  5
A0
330
48
100
AcDbEntity
  8
1
  6
Continuous
 62
     7
100
AcDbCircle
 10
154.5
 20
12.5
 30
0.0
 40
0.3000000000000114
  0
CIRCLE
  5
A1
330
48
100
AcDbEntity
  8
1
  6
Continuous
 62
     7
100
AcDbCircle
 10
160.5
 20
12.5
 30
0.0
 40
0.3000000000000114
  0
CIRCLE
  5
A2
330
48
100
AcDbEntity
  8
1
  6
Continuous
 62
     7
100
AcDbCircle
 10
143.5
 20
12.5
 30
0.0
 40
0.3000000000000114
  0
CIRCLE
  5
A3
330
48
100
AcDbEntity
  8
1
  6
Continuous
 62
     7
100
AcDbCircle
 10
137.5
 20
12.5
 30
0.0
 40
0.3000000000000114
  0
CIRCLE
  5
A4
330
48
100
AcDbEntity
  8
1
  6
Continuous
 62
     7
100
AcDbCircle
 10
126.5
 20
12.5
 30
0.0
 40
0.2999999999999972
  0
CIRCLE
  5
A5
330
48
100
AcDbEntity
  8
1
  6
Continuous
 62
     7
100
AcDbCircle
 10
120.5
 20
12.5
 30
0.0
 40
0.2999999999999972
  0
CIRCLE
  5
A6
330
48
100
AcDbEntity
  8
1
  6
Continuous
 62
     7
100
AcDbCircle
 10
109.5
 20
12.5
 30
0.0
 40
0.2999999999999972
  0
CIRCLE
  5
A7
330
48
100
AcDbEntity
  8
1
  6
Continuous
 62
     7
100
AcDbCircle
 10
103.5
 20
12.5
 30
0.0
 40
0.2999999999999972
  0
SPLINE
  5
A8
102
{ACAD_REACTORS
330
C6
102
}
330
48
100
AcDbEntity
  8
_U_30EC_U_30A4_U_30E4_U_30FC_1
  6
Continuous
 62
     2
100
AcDbSpline
210
0.0
220
0.0
230
1.0
 70
    11
 71
     3
 72
    99
 73
    95
 74
    93
 42
0.000000001
 43
0.0000000001
 44
0.00000001
 40
0.0
 40
0.0
 40
0.0
 40
0.0
 40
0.0796417172273317
 40
0.1621768542356376
 40
0.2486489160958076
 40
0.3404969668525575
 40
0.4381912511165931
 40
0.5434463660245128
 40
0.6518115192847467
 40
0.7530190937887797
 40
0.8492196919725956
 40
0.9419290312999168
 40
1.034249663570118
 40
1.129078600620232
 40
1.226697027573313
 40
1.327220425421768
 40
1.470572134938104
 40
1.595489863371303
 40
1.71993412534845
 40
1.850576620127514
 40
1.989059629987342
 40
2.134139054226902
 40
2.28069800720723
 40
2.424529739039551
 40
2.565929576985896
 40
2.708239260773628
 40
2.861717887443731
 40
3.045168540347453
 40
3.183798301138697
 40
3.314813961455511
 40
3.442083470447347
 40
3.569912708372935
 40
3.702177512509357
 40
3.842307559659521
 40
3.99287222324597
 40
4.156750662218415
 40
4.310981861107522
 40
4.445859909322561
 40
4.572393936131609
 40
4.701656719781949
 40
4.7682790860084
 40
4.83596069789839
 40
4.912788918729333
 40
5.006285208481497
 40
5.02690947875163
 40
5.047533749021252
 40
5.101808031471336
 40
5.162325165538605
 40
5.226919745995917
 40
5.294231806596699
 40
5.364544852554882
 40
5.438319055467917
 40
5.517877651324333
 40
5.607647714861532
 40
5.700449642544377
 40
5.788251142364209
 40
5.872714706039817
 40
5.955167292575396
 40
6.037192395190446
 40
6.120669181469172
 40
6.206848616686404
 40
6.296680855416783
 40
6.442558392872638
 40
6.568190371608349
 40
6.692904567360468
 40
6.824220446557261
 40
6.963121850329457
 40
7.107843738851228
 40
7.25343166390732
 40
7.395187468036837
 40
7.533140753237825
 40
7.670550457175382
 40
7.816236511769376
 40
7.987691657359327
 40
8.142277421969297
 40
8.293662615415084
 40
8.442962460879333
 40
8.591598316185438
 40
8.74367899236186
 40
8.90372532369923
 40
9.076307008890632
 40
9.26557860468063
 40
9.459203795360779
 40
9.617619810273673
 40
9.753609671362044
 40
9.874873300004143
 40
9.954520184977827
 40
10.02416413719246
 40
10.09769764405451
 40
10.18909955924978
 40
10.20974586420133
 40
10.23039218263373
 40
10.30057101881256
 40
10.37632012987534
 40
10.37632012987534
 40
10.37632012987534
 40
10.37632012987534
 10
170.1465954835851
 20
14.13795663216
 30
0.0
 10
170.163221785122
 20
14.11720608845318
 30
0.0
 10
170.1970784206578
 20
14.07495111711909
 30
0.0
 10
170.2599822541036
 20
14.02029811392067
 30
0.0
 10
170.3332500940393
 20
13.97299025121054
 30
0.0
 10
170.4175969238637
 20
13.93527231437938
 30
0.0
 10
170.513224061546
 20
13.91040619731954
 30
0.0
 10
170.6171853775346
 20
13.90309559345931
 30
0.0
 10
170.7224020220405
 20
13.91142322794056
 30
0.0
 10
170.8206626371335
 20
13.94149179651521
 30
0.0
 10
170.9058986427548
 20
13.98848822971879
 30
0.0
 10
170.9779220206104
 20
14.04952991250854
 30
0.0
 10
171.0350917709096
 20
14.12412969578581
 30
0.0
 10
171.076786874744
 20
14.21002464660174
 30
0.0
 10
171.1026952846292
 20
14.3048585043221
 30
0.0
 10
171.1118037332653
 20
14.41854979038368
 30
0.0
 10
171.0986864796487
 20
14.5433258777078
 30
0.0
 10
171.0325330334414
 20
14.66014719171893
 30
0.0
 10
170.9369370919569
 20
14.7451253957738
 30
0.0
 10
170.8249681022369
 20
14.81416684459161
 30
0.0
 10
170.699365958327
 20
14.87204142045892
 30
0.0
 10
170.5656691620857
 20
14.92373723284339
 30
0.0
 10
170.4313122818832
 20
14.97899092397187
 30
0.0
 10
170.3051983986877
 20
15.04939770641641
 30
0.0
 10
170.1926579987536
 20
15.13785540731256
 30
0.0
 10
170.0969963064457
 20
15.2498106786847
 30
0.0
 10
170.0334157151827
 20
15.3994991010139
 30
0.0
 10
170.0200706505016
 20
15.55932794385146
 30
0.0
 10
170.0320510987449
 20
15.7104840530685
 30
0.0
 10
170.0712298928842
 20
15.83809244591539
 30
0.0
 10
170.1354987750911
 20
15.95080874030844
 30
0.0
 10
170.223820499974
 20
16.04648609268688
 30
0.0
 10
170.3338091207628
 20
16.12354214985756
 30
0.0
 10
170.4632284401265
 20
16.18151396936282
 30
0.0
 10
170.6111838967794
 20
16.2173917758882
 30
0.0
 10
170.7682069455487
 20
16.22746719050561
 30
0.0
 10
170.917494046643
 20
16.21863637762588
 30
0.0
 10
171.059625361417
 20
16.19074899340355
 30
0.0
 10
171.1595922609626
 20
16.13413314701141
 30
0.0
 10
171.3125074736184
 20
16.0867460210551
 30
0.0
 10
171.2455131717169
 20
16.00197553001185
 30
0.0
 10
171.2296479120269
 20
15.93438901873487
 30
0.0
 10
171.1978750531296
 20
15.86926092793191
 30
0.0
 10
171.2150202209573
 20
15.76723453256953
 30
0.0
 10
171.1666427208232
 20
15.77493211681904
 30
0.0
 10
171.1315789440766
 20
15.76806771724807
 30
0.0
 10
171.1296697985718
 20
15.83263831158197
 30
0.0
 10
171.0985692931988
 20
15.87825639621397
 30
0.0
 10
171.0664551628456
 20
15.93561036628451
 30
0.0
 10
171.0208038475169
 20
15.98540462692561
 30
0.0
 10
170.9658508218388
 20
16.02994813718994
 30
0.0
 10
170.9010841173008
 20
16.0676398883655
 30
0.0
 10
170.8232377310597
 20
16.09283375791347
 30
0.0
 10
170.7355160553353
 20
16.09931230998109
 30
0.0
 10
170.6452903277808
 20
16.09235709285606
 30
0.0
 10
170.5594594694064
 20
16.06909190460929
 30
0.0
 10
170.4828343638596
 20
16.03131644107547
 30
0.0
 10
170.4165265636201
 20
15.98051641089571
 30
0.0
 10
170.3622560536964
 20
15.91731143407213
 30
0.0
 10
170.3224925345459
 20
15.8427645571037
 30
0.0
 10
170.2976775510588
 20
15.75917313997768
 30
0.0
 10
170.2892124262869
 20
15.6519294838229
 30
0.0
 10
170.3019697987104
 20
15.52965457267564
 30
0.0
 10
170.3681548409273
 20
15.41149724291212
 30
0.0
 10
170.4640977399832
 20
15.3260632570953
 30
0.0
 10
170.5757914963183
 20
15.25583362306729
 30
0.0
 10
170.7010863668702
 20
15.19659162305305
 30
0.0
 10
170.8349823941447
 20
15.14616708086129
 30
0.0
 10
170.968993033315
 20
15.09322516984385
 30
0.0
 10
171.0950885316915
 20
15.0275017062518
 30
0.0
 10
171.2076216638417
 20
14.94480352537315
 30
0.0
 10
171.3031370284233
 20
14.83996006310076
 30
0.0
 10
171.3672706486963
 20
14.69937117251568
 30
0.0
 10
171.3811103725279
 20
14.54065409451594
 30
0.0
 10
171.3673954712229
 20
14.3815315521788
 30
0.0
 10
171.3244739153986
 20
14.23483828819212
 30
0.0
 10
171.2545906329066
 20
14.10119796587144
 30
0.0
 10
171.1574592213829
 20
13.98532387699296
 30
0.0
 10
171.0347806023657
 20
13.89089981770091
 30
0.0
 10
170.8874408413168
 20
13.82179270651979
 30
0.0
 10
170.7177132497126
 20
13.77953210858855
 30
0.0
 10
170.5317404979597
 20
13.76781736230405
 30
0.0
 10
170.3528955926184
 20
13.7780948668344
 30
0.0
 10
170.1881733753743
 20
13.8196657376915
 30
0.0
 10
170.0834410841056
 20
13.88797642883941
 30
0.0
 10
169.9350960790366
 20
13.9367521903211
 30
0.0
 10
169.9980378194729
 20
14.02976591290842
 30
0.0
 10
170.0072274430061
 20
14.10296536248279
 30
0.0
 10
170.0303711301232
 20
14.16936294501345
 30
0.0
 10
170.0034588335318
 20
14.2697480952758
 30
0.0
 10
170.0521338956339
 20
14.2623403351738
 30
0.0
 10
170.0916530580697
 20
14.26894063620894
 30
0.0
 10
170.0996204944702
 20
14.19078703218936
 30
0.0
 10
170.1305436967923
 20
14.15600927375862
 30
0.0
 10
170.1465954835851
 20
14.13795663216
 30
0.0
 11
170.1465954835851
 21
14.13795663216
 31
0.0
 11
170.1982038075865
 21
14.07729869814738
 31
0.0
 11
170.2601105501335
 21
14.0227129516332
 31
0.0
 11
170.3327764009802
 21
13.97583980928386
 31
0.0
 11
170.4166468655844
 21
13.9383990627654
 31
0.0
 11
170.5112210732411
 21
13.91390636311878
 31
0.0
 11
170.6161603327165
 21
13.90575829888469
 31
0.0
 11
170.7240739497552
 21
13.91564048638222
 31
0.0
 11
170.8208419941617
 21
13.94528704887479
 31
0.0
 11
170.9050776083319
 21
13.99175118948819
 31
0.0
 11
170.9756144207687
 21
14.05191413218149
 31
0.0
 11
171.031944210998
 21
14.12505819466318
 31
0.0
 11
171.0736690016003
 21
14.21021434047519
 31
0.0
 11
171.0994680808032
 21
14.30436190989613
 31
0.0
 11
171.1080824729446
 21
14.4045155209822
 31
0.0
 11
171.0878517703357
 21
14.54643250879399
 31
0.0
 11
171.0272522666731
 21
14.65566684036389
 31
0.0
 11
170.9364971286286
 21
14.74081306430097
 31
0.0
 11
170.826010188474
 21
14.81052746532519
 31
0.0
 11
170.7008523531255
 21
14.86979854169923
 31
0.0
 11
170.5662951950999
 21
14.92404253474119
 31
0.0
 11
170.4316884277008
 21
14.98201274306006
 31
0.0
 11
170.3065802017258
 21
15.0529739930423
 31
0.0
 11
170.196027609828
 21
15.14113315968696
 31
0.0
 11
170.1053381235265
 21
15.25080295132619
 31
0.0
 11
170.0447055469485
 21
15.39179720476319
 31
0.0
 11
170.0245079172554
 21
15.57413260402319
 31
0.0
 11
170.0374030471348
 21
15.71216131926647
 31
0.0
 11
170.0761016659392
 21
15.8373312845129
 31
0.0
 11
170.1393141731507
 21
15.94779262129085
 31
0.0
 11
170.2257499954545
 21
16.0419688539062
 31
0.0
 11
170.3336492808962
 21
16.11846540770654
 31
0.0
 11
170.4613526283328
 21
16.1761567010949
 31
0.0
 11
170.6075393259923
 21
16.21220066809972
 31
0.0
 11
170.7709768565451
 21
16.22421385386059
 31
0.0
 11
170.9248918431289
 21
16.21434269066863
 31
0.0
 11
171.0564887242607
 21
16.18477329831499
 31
0.0
 11
171.172563634494
 21
16.13439993895253
 31
0.0
 11
171.2800792741122
 21
16.0626416316788
 31
0.0
 11
171.2516994050445
 21
16.00236624106891
 31
0.0
 11
171.2284855254283
 21
15.93879017337649
 31
0.0
 11
171.2078381040801
 21
15.86478841992269
 31
0.0
 11
171.1871840681488
 21
15.77360197897329
 31
0.0
 11
171.1665597978416
 21
15.77360197897329
 31
0.0
 11
171.1459355275343
 21
15.77360197897329
 31
0.0
 11
171.1256706495791
 21
15.82395108486349
 31
0.0
 11
171.0994658759421
 21
15.8785004511693
 31
0.0
 11
171.0650468924451
 21
15.93316116296115
 31
0.0
 11
171.0203554612938
 21
15.98349593725409
 31
0.0
 11
170.9657333359511
 21
16.02777175321529
 31
0.0
 11
170.9016722004327
 21
16.06436142334499
 31
0.0
 11
170.825968296114
 21
16.08882545979725
 31
0.0
 11
170.736572204645
 21
16.0970110066702
 31
0.0
 11
170.6440937174208
 21
16.08926973931102
 31
0.0
 11
170.5594072091645
 21
16.0660900344557
 31
0.0
 11
170.483702448884
 21
16.02863495634012
 31
0.0
 11
170.4183754766516
 21
15.97832774281099
 31
0.0
 11
170.3650487887664
 21
15.91600293379882
 31
0.0
 11
170.3254809233901
 21
15.8424994789561
 31
0.0
 11
170.3009523754711
 21
15.75988443557395
 31
0.0
 11
170.2927954104108
 21
15.6704232984436
 31
0.0
 11
170.3130095765617
 21
15.52595308146578
 31
0.0
 11
170.373625616682
 21
15.41591177072939
 31
0.0
 11
170.4643479320758
 21
15.33033670130634
 31
0.0
 11
170.5748676948814
 21
15.25941954854629
 31
0.0
 11
170.7000089937719
 21
15.19914305550581
 31
0.0
 11
170.8345826882553
 21
15.1459044791302
 31
0.0
 11
170.9691729191968
 21
15.09039489581078
 31
0.0
 11
171.0942976816298
 21
15.0237728124941
 31
0.0
 11
171.204800907977
 21
14.94118863716749
 31
0.0
 11
171.2955397598289
 21
14.8380000347627
 31
0.0
 11
171.3561557999489
 21
14.70552315979584
 31
0.0
 11
171.3763699660998
 21
14.53526378483839
 31
0.0
 11
171.3621839747998
 21
14.38133030397419
 31
0.0
 11
171.3196087009194
 21
14.23605531269099
 31
0.0
 11
171.2499752884266
 21
14.10398854189072
 31
0.0
 11
171.1544992078713
 21
13.99007218775249
 31
0.0
 11
171.0341060772624
 21
13.8971527259702
 31
0.0
 11
170.8896160201847
 21
13.8283235766818
 31
0.0
 11
170.7223519532714
 21
13.78581275203967
 31
0.0
 11
170.5336103348227
 21
13.7716586461404
 31
0.0
 11
170.3405031726388
 21
13.78581275203967
 31
0.0
 11
170.1878975900911
 21
13.8283235766818
 31
0.0
 11
170.0661897942203
 21
13.88899033013892
 31
0.0
 11
169.9660261826364
 21
13.95734322942739
 31
0.0
 11
169.992232058704
 21
14.03255545163077
 31
0.0
 11
170.0090121537619
 21
14.10014767383609
 31
0.0
 11
170.0206196447853
 21
14.17275926235963
 31
0.0
 11
170.031360625414
 21
14.2635278821286
 31
0.0
 11
170.0520069443316
 21
14.2635278821286
 31
0.0
 11
170.0726532632492
 21
14.2635278821286
 31
0.0
 11
170.1048916391629
 21
14.20119204881088
 31
0.0
 11
170.1465954835851
 21
14.13795663216
 31
0.0
  0
SPLINE
  5
A9
102
{ACAD_REACTORS
330
C7
102
}
330
48
100
AcDbEntity
  8
_U_30EC_U_30A4_U_30E4_U_30FC_1
  6
Continuous
 62
     2
100
AcDbSpline
210
0.0
220
0.0
230
1.0
 70
    11
 71
     3
 72
    57
 73
    53
 74
    51
 42
0.000000001
 43
0.0000000001
 44
0.00000001
 40
0.0
 40
0.0
 40
0.0
 40
0.0
 40
0.0471632082810125
 40
0.0914861054631915
 40
0.1357762519702151
 40
0.1826527001611583
 40
0.2295203288573491
 40
0.2737751972221661
 40
0.3181310461543978
 40
0.3652607198398616
 40
0.4571007286314916
 40
0.5671851029165488
 40
0.689462328386894
 40
0.8181758272545847
 40
0.9510087229274143
 40
1.08585222967408
 40
1.21812616447533
 40
1.343545131142399
 40
1.454537202956787
 40
1.567187607530909
 40
1.680710966642528
 40
1.794226869736892
 40
1.900009184247663
 40
2.004085860447971
 40
2.10816267445183
 40
2.214000150155317
 40
2.496038577352207
 40
2.762350745479353
 40
2.997275353279437
 40
3.185110082137753
 40
3.24640789006404
 40
3.312607550212828
 40
3.378877742711702
 40
3.440140399651475
 40
4.100501696006468
 40
4.754913085563532
 40
5.411331693423935
 40
6.077890432568694
 40
6.110575292670973
 40
6.143260152775753
 40
6.36798936339508
 40
6.610525374951477
 40
6.863389136467262
 40
7.119380025547472
 40
7.376036605090996
 40
7.631164770966222
 40
7.876722425456366
 40
8.10495373585587
 40
8.312916685924188
 40
8.49773029494123
 40
8.651018984313756
 40
8.764738853624525
 40
8.764738853624525
 40
8.764738853624525
 40
8.764738853624525
 10
174.7922649500514
 20
13.81626739612929
 30
0.0
 10
174.7766616726932
 20
13.81826231079081
 30
0.0
 10
174.7463947960303
 20
13.82213201360304
 30
0.0
 10
174.7010994202253
 20
13.82341984967277
 30
0.0
 10
174.6559553129349
 20
13.82308683554058
 30
0.0
 10
174.60990171234
 20
13.82314658674231
 30
0.0
 10
174.5640496172096
 20
13.82325813650009
 30
0.0
 10
174.5183711648164
 20
13.82277833456598
 30
0.0
 10
174.4750811541608
 20
13.82461109618728
 30
0.0
 10
174.4039947951515
 20
13.80049556814658
 30
0.0
 10
174.4057477261441
 20
13.92184693977254
 30
0.0
 10
174.358619637057
 20
14.00726239751235
 30
0.0
 10
174.3191478251761
 20
14.12486929345135
 30
0.0
 10
174.2706635532646
 20
14.24232752540444
 30
0.0
 10
174.2201017402522
 20
14.36405935761506
 30
0.0
 10
174.1718634610478
 20
14.49075967862469
 30
0.0
 10
174.1135232947596
 20
14.59933687784957
 30
0.0
 10
174.0980892667262
 20
14.75620657134411
 30
0.0
 10
173.9566586330636
 20
14.72373446548325
 30
0.0
 10
173.8508397414904
 20
14.73512888682179
 30
0.0
 10
173.7358569725222
 20
14.73392591514613
 30
0.0
 10
173.6253142252141
 20
14.73506945347404
 30
0.0
 10
173.5176583522783
 20
14.73418350037524
 30
0.0
 10
173.4121322529243
 20
14.73416602390518
 30
0.0
 10
173.3109192682013
 20
14.7271403247242
 30
0.0
 10
173.1266804827753
 20
14.75135859859867
 30
0.0
 10
173.1157393685411
 20
14.44741691121888
 30
0.0
 10
173.0087691634749
 20
14.22353177253398
 30
0.0
 10
172.9098148604347
 20
14.038953142925
 30
0.0
 10
172.9225090524008
 20
13.79530204804202
 30
0.0
 10
172.8050091716398
 20
13.82508046753204
 30
0.0
 10
172.7422055868309
 20
13.82258089509611
 30
0.0
 10
172.67858720934
 20
13.82344075102811
 30
0.0
 10
172.3946014194075
 20
13.78098039941931
 30
0.0
 10
173.0251638499381
 20
14.50081952444802
 30
0.0
 10
173.1087645289072
 20
15.01276539435732
 30
0.0
 10
173.4929252789338
 20
15.53353743550044
 30
0.0
 10
173.4777208288569
 20
16.23519626253216
 30
0.0
 10
173.7239265722697
 20
16.22345633081253
 30
0.0
 10
173.8256346157564
 20
16.23225004452771
 30
0.0
 10
173.8249752035817
 20
15.98059650730342
 30
0.0
 10
173.942831715583
 20
15.79818020733962
 30
0.0
 10
174.0315515260486
 20
15.5556374066287
 30
0.0
 10
174.1322292485259
 20
15.32340030530128
 30
0.0
 10
174.2311142712243
 20
15.08674644566917
 30
0.0
 10
174.3299676990669
 20
14.85461739170091
 30
0.0
 10
174.4256166390926
 20
14.63122222788791
 30
0.0
 10
174.515990457327
 20
14.42272549049315
 30
0.0
 10
174.598994456819
 20
14.23308448529323
 30
0.0
 10
174.67260885828
 20
14.06663106068106
 30
0.0
 10
174.7342815895545
 20
13.92917699626097
 30
0.0
 10
174.7749458885604
 20
13.84999239430035
 30
0.0
 10
174.7922649500514
 20
13.81626739612929
 30
0.0
 11
174.7922649500514
 21
13.81626739612929
 31
0.0
 11
174.7453878317448
 21
13.82145433189191
 31
0.0
 11
174.7010975896126
 21
13.8231553822387
 31
0.0
 11
174.656807443173
 21
13.8231553822387
 31
0.0
 11
174.6099309947159
 21
13.8231553822387
 31
0.0
 11
174.5630633657033
 21
13.8231553822387
 31
0.0
 11
174.5188084970408
 21
13.8231553822387
 31
0.0
 11
174.4744852776854
 21
13.82145433189191
 31
0.0
 11
174.4276419021444
 21
13.81626739612929
 31
0.0
 11
174.3992532136325
 21
13.90360966173248
 31
0.0
 11
174.3622721815898
 21
14.0072965627482
 31
0.0
 11
174.3188386236701
 21
14.12159987001131
 31
0.0
 11
174.2711055866937
 21
14.24113531268969
 31
0.0
 11
174.2208160133237
 21
14.36408057307565
 31
0.0
 11
174.1696467003933
 21
14.4888382292945
 31
0.0
 11
174.1197531801327
 21
14.61134141502776
 31
0.0
 11
174.0733119111842
 21
14.7278451736792
 31
0.0
 11
173.962361190759
 21
14.73087465284509
 31
0.0
 11
173.8497309225089
 21
14.7330045486779
 31
0.0
 11
173.7362152069449
 21
14.73432195319138
 31
0.0
 11
173.62270004768
 21
14.73473315978849
 31
0.0
 11
173.5169185312816
 21
14.73432195319138
 31
0.0
 11
173.4128501919225
 21
14.7330045486779
 31
0.0
 11
173.3087951724045
 21
14.73087465284509
 31
0.0
 11
173.2030010615597
 21
14.7278451736792
 31
0.0
 11
173.0980914750139
 21
14.46604437513351
 31
0.0
 11
173.0034868690331
 21
14.2171023265846
 31
0.0
 11
172.9252231210299
 21
13.99559756969559
 31
0.0
 11
172.8693431224556
 21
13.81626739612929
 31
0.0
 11
172.8082651639442
 21
13.82145433189191
 31
0.0
 11
172.742087361813
 21
13.8231553822387
 31
0.0
 11
172.6758390041282
 21
13.82145433189191
 31
0.0
 11
172.6147963233939
 21
13.81626739612929
 31
0.0
 11
172.889968495193
 21
14.41656508695146
 31
0.0
 11
173.158294573417
 21
15.0134364236078
 31
0.0
 11
173.4240277350405
 21
15.61366245644383
 31
0.0
 11
173.6914740737034
 21
16.22421385386059
 31
0.0
 11
173.7241589339807
 21
16.22421385386059
 31
0.0
 11
173.756843794258
 21
16.22421385386059
 31
0.0
 11
173.8428300681057
 21
16.01658539037084
 31
0.0
 11
173.935728581361
 21
15.7925461456352
 31
0.0
 11
174.0328714521464
 21
15.55908663180469
 31
0.0
 11
174.1317936458031
 21
15.3229812846415
 31
0.0
 11
174.2315341249927
 21
15.08649780379787
 31
0.0
 11
174.3313071129353
 21
14.85168781253709
 31
0.0
 11
174.4280608257449
 21
14.62599492196849
 31
0.0
 11
174.5188084970408
 21
14.4165805209792
 31
0.0
 11
174.6022150834546
 21
14.22607611130466
 31
0.0
 11
174.6770293263378
 21
14.0570823266247
 31
0.0
 11
174.7410729186603
 21
13.9178133770067
 31
0.0
 11
174.7922649500514
 21
13.81626739612929
 31
0.0
  0
SPLINE
  5
AA
102
{ACAD_REACTORS
330
C7
102
}
330
48
100
AcDbEntity
  8
_U_30EC_U_30A4_U_30E4_U_30FC_1
  6
Continuous
 62
     2
100
AcDbSpline
210
0.0
220
0.0
230
1.0
 70
    11
 71
     3
 72
    25
 73
    21
 74
    19
 42
0.000000001
 43
0.0000000001
 44
0.00000001
 40
0.0
 40
0.0
 40
0.0
 40
0.0
 40
0.0911479969065393
 40
0.185811789620468
 40
0.2804128399735072
 40
0.3715889190714524
 40
0.4679080494218722
 40
0.5642683809229243
 40
0.6605683222645289
 40
0.7569653015811149
 40
0.85613481725236
 40
1.09261596510438
 40
1.374867658141964
 40
1.61134881201169
 40
1.710518328425335
 40
1.809403163726647
 40
2.045205463294143
 40
2.326646917622191
 40
2.562449217190645
 40
2.66133404383396
 40
2.66133404383396
 40
2.66133404383396
 40
2.66133404383396
 10
173.2683700567199
 20
14.886145381973
 30
0.0
 10
173.2987525917923
 20
14.88598079714562
 30
0.0
 10
173.3606895889112
 20
14.88564528689928
 30
0.0
 10
173.4541356960331
 20
14.88269055451999
 30
0.0
 10
173.5475095236357
 20
14.87977752877153
 30
0.0
 10
173.6417760753477
 20
14.87894201643416
 30
0.0
 10
173.7354964790967
 20
14.87996644658046
 30
0.0
 10
173.8352040303205
 20
14.87916977470971
 30
0.0
 10
173.9188949546313
 20
14.88921410235217
 30
0.0
 10
174.0637996315046
 20
14.86234617674174
 30
0.0
 10
173.9396132444802
 20
15.03665530280054
 30
0.0
 10
173.8965867286283
 20
15.19651711006099
 30
0.0
 10
173.780892214221
 20
15.45518458550221
 30
0.0
 10
173.7017565431257
 20
15.59231052861863
 30
0.0
 10
173.6431576621816
 20
15.8093703313408
 30
0.0
 10
173.5864803939438
 20
15.59266134213433
 30
0.0
 10
173.5052809900477
 20
15.45327012438241
 30
0.0
 10
173.4063701281488
 20
15.20406969370201
 30
0.0
 10
173.3253625094259
 20
15.01925830226081
 30
0.0
 10
173.2813683325838
 20
14.91650446856124
 30
0.0
 10
173.2683700567199
 20
14.886145381973
 30
0.0
 11
173.2683700567199
 21
14.886145381973
 31
0.0
 11
173.3595137737821
 21
14.88526123266765
 31
0.0
 11
173.4541428297581
 21
14.882696979196
 31
0.0
 11
173.5487082179706
 21
14.88009965280779
 31
0.0
 11
173.6398803250196
 21
14.8792485764191
 31
0.0
 11
173.7361985777706
 21
14.87965978301621
 31
0.0
 11
173.8325499034376
 21
14.8809771875297
 31
0.0
 11
173.9288262638286
 21
14.88310818579312
 31
0.0
 11
174.0251753846344
 21
14.886145381973
 31
0.0
 11
173.9854633323142
 21
14.97701642195028
 31
0.0
 11
173.8907653613969
 21
15.19370890189609
 31
0.0
 11
173.7777387509471
 21
15.45234186183141
 31
0.0
 11
173.6830407800297
 21
15.66903434177721
 31
0.0
 11
173.6433287277095
 21
15.75990538175449
 31
0.0
 11
173.6043330259266
 21
15.66903434177722
 31
0.0
 11
173.5113432755212
 21
15.45234186183141
 31
0.0
 11
173.4003555089082
 21
15.19370890189609
 31
0.0
 11
173.3073657585028
 21
14.97701642195027
 31
0.0
 11
173.2683700567199
 21
14.886145381973
 31
0.0
  0
SPLINE
  5
AB
102
{ACAD_REACTORS
330
C8
102
}
330
48
100
AcDbEntity
  8
_U_30EC_U_30A4_U_30E4_U_30FC_1
  6
Continuous
 62
     2
100
AcDbSpline
210
0.0
220
0.0
230
1.0
 70
    11
 71
     3
 72
    95
 73
    91
 74
    89
 42
0.000000001
 43
0.0000000001
 44
0.00000001
 40
0.0
 40
0.0
 40
0.0
 40
0.0
 40
0.6550406656910731
 40
1.308087289031896
 40
1.420803739835737
 40
1.566130759770777
 40
1.757067341888387
 40
2.006513545026405
 40
2.087328263121492
 40
2.185328872295605
 40
2.294612454748311
 40
2.408936380534769
 40
2.526802767798522
 40
2.646360524615575
 40
2.76253572397155
 40
2.870057342870115
 40
2.96688344843157
 40
3.050803243518294
 40
3.115818222436537
 40
3.15603005715019
 40
3.213914225080067
 40
3.276689026450412
 40
3.342960320981275
 40
3.404230667150527
 40
3.453822809493371
 40
3.532499827188434
 40
3.634775188507116
 40
3.75490933300809
 40
3.889736761660626
 40
4.035769602175221
 40
4.187256681197598
 40
4.338733685675972
 40
4.488478734676118
 40
4.634708317831516
 40
4.771493189921263
 40
4.892686571561168
 40
5.199775528944402
 40
5.460353566929633
 40
5.667603142345495
 40
5.814722905404418
 40
5.828990806219744
 40
5.855488336304413
 40
5.869756237118745
 40
6.189796507762709
 40
6.531890469872873
 40
6.883053637016858
 40
7.230512024911323
 40
7.566966656764444
 40
7.885203559707234
 40
8.172887439719071
 40
8.418011594062662
 40
8.443926721190584
 40
8.51076047061307
 40
8.602145393795578
 40
8.701714041647016
 40
8.793098965075245
 40
8.859932715057816
 40
8.885847842603464
 40
9.242301256612718
 40
9.589275455016672
 40
9.921808543164047
 40
10.23479624298455
 40
10.29968150889171
 40
10.35323493887753
 40
10.4015462535514
 40
10.46482922477821
 40
10.55973900668398
 40
10.69239545985609
 40
10.84920353475668
 40
11.01626328594777
 40
11.18672024367438
 40
11.35372582577207
 40
11.5025744229242
 40
11.61866495023289
 40
11.7132986915287
 40
11.82511050573902
 40
11.94464880845713
 40
12.06929242642503
 40
12.19707290435169
 40
12.32562632860525
 40
12.45034565331275
 40
12.56646595170323
 40
12.67099007414629
 40
12.76077625936782
 40
12.82703233506687
 40
12.87429132785991
 40
12.8983199032333
 40
12.92234847860018
 40
13.53984767410316
 40
14.18294284359368
 40
14.18294284359368
 40
14.18294284359368
 40
14.18294284359368
 10
177.3067935648021
 20
14.7089803820173
 30
0.0
 10
177.1752019758551
 20
14.82265058603238
 30
0.0
 10
176.912419380273
 20
15.04964496316167
 30
0.0
 10
176.399739344102
 20
15.89214462956289
 30
0.0
 10
176.4106654595363
 20
15.5342337757702
 30
0.0
 10
176.404122652799
 20
15.39267392272135
 30
0.0
 10
176.4028026631773
 20
15.19421305299282
 30
0.0
 10
176.4018117602539
 20
15.02150296045986
 30
0.0
 10
176.4024101751975
 20
14.87865373257581
 30
0.0
 10
176.4038994301882
 20
14.78265005413359
 30
0.0
 10
176.4055683588473
 20
14.67545503263142
 30
0.0
 10
176.4071934954618
 20
14.56164211517583
 30
0.0
 10
176.4092429501686
 20
14.44441572604589
 30
0.0
 10
176.4123165501927
 20
14.3265641123297
 30
0.0
 10
176.4156339697042
 20
14.2122808732062
 30
0.0
 10
176.4193605340279
 20
14.10521401867278
 30
0.0
 10
176.4217338161425
 20
14.01007408766923
 30
0.0
 10
176.4278718888357
 20
13.92558557205696
 30
0.0
 10
176.4239784495948
 20
13.86923087298144
 30
0.0
 10
176.4455230443077
 20
13.79825022472356
 30
0.0
 10
176.3680940058618
 20
13.82902677604489
 30
0.0
 10
176.3116353240191
 20
13.82011242517621
 30
0.0
 10
176.2540495896807
 20
13.82896218398283
 30
0.0
 10
176.1690163478472
 20
13.79738225225946
 30
0.0
 10
176.2009714146384
 20
13.88095155992193
 30
0.0
 10
176.1990705282539
 20
13.94882608968312
 30
0.0
 10
176.21079600473
 20
14.05233256764419
 30
0.0
 10
176.2164241053001
 20
14.17002125616694
 30
0.0
 10
176.2237902178941
 20
14.30388609164424
 30
0.0
 10
176.2320759701611
 20
14.44764152872635
 30
0.0
 10
176.2398851897427
 20
14.59714022843449
 30
0.0
 10
176.2457571222657
 20
14.74792549402083
 30
0.0
 10
176.2503667817968
 20
14.8969994387844
 30
0.0
 10
176.2542632117544
 20
15.04122913163024
 30
0.0
 10
176.2570715126563
 20
15.17583905213017
 30
0.0
 10
176.2576698755023
 20
15.36469614347356
 30
0.0
 10
176.261602386715
 20
15.58975494313155
 30
0.0
 10
176.2442175378499
 20
15.86367091125709
 30
0.0
 10
176.2850417342584
 20
16.027871120986
 30
0.0
 10
176.1995153256001
 20
16.22749661465091
 30
0.0
 10
176.2660558907689
 20
16.22385458403976
 30
0.0
 10
176.2838724273231
 20
16.22413447160851
 30
0.0
 10
176.4056801797508
 20
16.22632927398613
 30
0.0
 10
176.5080770335461
 20
15.94675118721515
 30
0.0
 10
176.7580021509356
 20
15.74563008535997
 30
0.0
 10
176.9870035331111
 20
15.47792614987921
 30
0.0
 10
177.2245151213108
 20
15.22646413862373
 30
0.0
 10
177.4486090740772
 20
14.98969974061361
 30
0.0
 10
177.6750716283009
 20
14.73218692583081
 30
0.0
 10
177.8325687886514
 20
14.61649335056921
 30
0.0
 10
178.0472129612675
 20
14.27997152538795
 30
0.0
 10
178.0422645974619
 20
14.40464754091604
 30
0.0
 10
178.0433931602547
 20
14.46327691935738
 30
0.0
 10
178.0428877841517
 20
14.55043662371978
 30
0.0
 10
178.0430475158114
 20
14.64416143182872
 30
0.0
 10
178.0430054891319
 20
14.73018971297035
 30
0.0
 10
178.0430202040374
 20
14.79153891945495
 30
0.0
 10
178.0429706255983
 20
14.94135231520995
 30
0.0
 10
178.0458811522811
 20
15.17989612510106
 30
0.0
 10
178.0259521041163
 20
15.54486509868703
 30
0.0
 10
178.0750433936247
 20
15.80799631993416
 30
0.0
 10
177.917795150918
 20
16.21928904947749
 30
0.0
 10
178.0762112872421
 20
16.1639828255175
 30
0.0
 10
178.1311680478628
 20
16.16199686500179
 30
0.0
 10
178.182788776674
 20
16.16264778248253
 30
0.0
 10
178.2713198965366
 20
16.20369527738246
 30
0.0
 10
178.2204898303169
 20
16.05696326622991
 30
0.0
 10
178.2313389930283
 20
15.95019971954437
 30
0.0
 10
178.2166036994848
 20
15.79085705414114
 30
0.0
 10
178.2099976446205
 20
15.62853061652874
 30
0.0
 10
178.2014961399915
 20
15.45992521892396
 30
0.0
 10
178.19432272022
 20
15.29814814703542
 30
0.0
 10
178.1889063215389
 20
15.15422331457933
 30
0.0
 10
178.1871713967649
 20
15.03437493466926
 30
0.0
 10
178.1875440672319
 20
14.92686101590515
 30
0.0
 10
178.1873656126264
 20
14.81820024645587
 30
0.0
 10
178.187701086314
 20
14.69953570165531
 30
0.0
 10
178.1890040622184
 20
14.57555163512743
 30
0.0
 10
178.1908887351575
 20
14.44858294171106
 30
0.0
 10
178.192500445485
 20
14.32153861551033
 30
0.0
 10
178.194140313743
 20
14.19854884492178
 30
0.0
 10
178.1962570745751
 20
14.08300931383761
 30
0.0
 10
178.1963848422364
 20
13.98090903955837
 30
0.0
 10
178.2006514396554
 20
13.89009848838158
 30
0.0
 10
178.1908440085289
 20
13.83213621208785
 30
0.0
 10
178.2118474771689
 20
13.76517130132028
 30
0.0
 10
178.1725639739897
 20
13.77291153966687
 30
0.0
 10
177.9595307117744
 20
13.75755254145191
 30
0.0
 10
177.7636297943188
 20
14.31403058094477
 30
0.0
 10
177.4611197631544
 20
14.57556035348515
 30
0.0
 10
177.3067935648021
 20
14.7089803820173
 30
0.0
 11
177.3067935648021
 21
14.7089803820173
 31
0.0
 11
176.8595529338511
 21
15.1875763541198
 31
0.0
 11
176.4124049070643
 21
15.6635264928897
 31
0.0
 11
176.4089664262494
 21
15.55086249986235
 31
0.0
 11
176.40556101835
 21
15.40557538184309
 31
0.0
 11
176.4029636920275
 21
15.21465645827972
 31
0.0
 11
176.4021126156604
 21
14.96521170139759
 31
0.0
 11
176.402523923029
 21
14.88439802954282
 31
0.0
 11
176.4038420329817
 21
14.7864062847756
 31
0.0
 11
176.4055192267718
 21
14.67713557299741
 31
0.0
 11
176.4072367127518
 21
14.5628245487204
 31
0.0
 11
176.4094007838772
 21
14.44497802965266
 31
0.0
 11
176.4124049070643
 21
14.32545802100199
 31
0.0
 11
176.4158359733138
 21
14.20933349846156
 31
0.0
 11
176.4192928929998
 21
14.1018674655023
 31
0.0
 11
176.4227085253088
 21
14.00510162351269
 31
0.0
 11
176.4261896983793
 21
13.92125406276969
 31
0.0
 11
176.4296006184313
 21
13.85632862007764
 31
0.0
 11
176.4330776843148
 21
13.81626739612929
 31
0.0
 11
176.3754263821572
 21
13.82145433189191
 31
0.0
 11
176.312674631831
 21
13.8231553822387
 31
0.0
 11
176.2464251717157
 21
13.82145433189191
 31
0.0
 11
176.1853747739675
 21
13.81626739612929
 31
0.0
 11
176.1926772737813
 21
13.86531894125594
 31
0.0
 11
176.2008793569055
 21
13.9435672572086
 31
0.0
 11
176.2090098822349
 21
14.04551893253028
 31
0.0
 11
176.2163406441398
 21
14.16542920159749
 31
0.0
 11
176.2236358280421
 21
14.30005912343891
 31
0.0
 11
176.2318444255596
 21
14.44586107652749
 31
0.0
 11
176.2395504149466
 21
14.59715203135076
 31
0.0
 11
176.2455763002093
 21
14.7485091320074
 31
0.0
 11
176.2503046247416
 21
14.8981795139144
 31
0.0
 11
176.2541928972121
 21
15.04435739582219
 31
0.0
 11
176.2567527408965
 21
15.18111831592699
 31
0.0
 11
176.2576324804574
 21
15.3023085068689
 31
0.0
 11
176.257192610677
 21
15.60939715262544
 31
0.0
 11
176.2559126888348
 21
15.86997204839369
 31
0.0
 11
176.2528658717893
 21
16.07719922716128
 31
0.0
 11
176.2473049112764
 21
16.22421385386059
 31
0.0
 11
176.261572812147
 21
16.22421385386059
 31
0.0
 11
176.2880703423353
 21
16.22421385386059
 31
0.0
 11
176.3023382432059
 21
16.22421385386059
 31
0.0
 11
176.5194743650277
 21
15.98910179662773
 31
0.0
 11
176.7512744123079
 21
15.7375128123156
 31
0.0
 11
176.989481601884
 21
15.47949555543572
 31
0.0
 11
177.2260074557521
 21
15.22497079855489
 31
0.0
 11
177.4555698717706
 21
14.97899759549138
 31
0.0
 11
177.6731797360103
 21
14.7467893403411
 31
0.0
 11
177.8713724913707
 21
14.53826680567101
 31
0.0
 11
178.0430143099087
 21
14.3632669793259
 31
0.0
 11
178.0430143099087
 21
14.38918210687044
 31
0.0
 11
178.0430143099087
 21
14.45601585685372
 31
0.0
 11
178.0430143099087
 21
14.54740078030025
 31
0.0
 11
178.0430143099087
 21
14.64696942823454
 31
0.0
 11
178.0430143099087
 21
14.73835435168107
 31
0.0
 11
178.0430143099087
 21
14.80518810166435
 31
0.0
 11
178.0430143099087
 21
14.83110322920889
 31
0.0
 11
178.0417233637609
 21
15.18755430550871
 31
0.0
 11
178.0378461155959
 21
15.53450684014419
 31
0.0
 11
178.0296197790002
 21
15.86693815950552
 31
0.0
 11
178.0154535467228
 21
16.17960510387179
 31
0.0
 11
178.0790351249619
 21
16.16666367158336
 31
0.0
 11
178.1324170159611
 21
16.1623807288761
 31
0.0
 11
178.1805381084833
 21
16.16666367158336
 31
0.0
 11
178.2424836798198
 21
16.17960510387179
 31
0.0
 11
178.2351216487575
 21
16.08498128445104
 31
0.0
 11
178.2269790968818
 21
15.9525749650397
 31
0.0
 11
178.2183705364005
 21
15.79600336785656
 31
0.0
 11
178.2097547223216
 21
15.62916593734269
 31
0.0
 11
178.2016187850289
 21
15.45890325509362
 31
0.0
 11
178.1942501393836
 21
15.292060312427
 31
0.0
 11
178.1891406931522
 21
15.14329943572812
 31
0.0
 11
178.1874503478905
 21
15.027221215271
 31
0.0
 11
178.1874503478905
 21
14.9325874739752
 31
0.0
 11
178.1874503478905
 21
14.82077565976709
 31
0.0
 11
178.1878461204497
 21
14.70123801222749
 31
0.0
 11
178.1890819450708
 21
14.5766005209392
 31
0.0
 11
178.1908392193318
 21
14.44883212687395
 31
0.0
 11
178.1925303477608
 21
14.32028982655879
 31
0.0
 11
178.1942876220215
 21
14.19558288214556
 31
0.0
 11
178.1959787504505
 21
14.0794748960635
 31
0.0
 11
178.1972884379172
 21
13.9749589672702
 31
0.0
 11
178.1976985420735
 21
13.88517371555649
 31
0.0
 11
178.1976985420735
 21
13.8189176391842
 31
0.0
 11
178.1976985420735
 21
13.7716586461404
 31
0.0
 11
178.1736699662976
 21
13.7716586461404
 31
0.0
 11
178.1496413905217
 21
13.7716586461404
 31
0.0
 11
177.7410729200423
 21
14.23466735262193
 31
0.0
 11
177.3067935648021
 21
14.7089803820173
 31
0.0
  0
SPLINE
  5
AC
102
{ACAD_REACTORS
330
C9
102
}
330
48
100
AcDbEntity
  8
_U_30EC_U_30A4_U_30E4_U_30FC_1
  6
Continuous
 62
     2
100
AcDbSpline
210
0.0
220
0.0
230
1.0
 70
    11
 71
     3
 72
   110
 73
   106
 74
   104
 42
0.000000001
 43
0.0000000001
 44
0.00000001
 40
0.0
 40
0.0
 40
0.0
 40
0.0
 40
0.2203406257278034
 40
0.44078087828382
 40
0.595249449461546
 40
0.7488431659393162
 40
0.9023581831309441
 40
1.056801968670414
 40
1.210736449099971
 40
1.363041386539794
 40
1.515315729683163
 40
1.669377239148086
 40
1.721611652756501
 40
1.773199502942891
 40
1.824933793209975
 40
1.877110426487927
 40
1.982682281206688
 40
2.078781667087497
 40
2.172809640822189
 40
2.271937807378871
 40
2.378349933379265
 40
2.494131557736341
 40
2.62668168394353
 40
2.783145050796015
 40
2.890701232940841
 40
2.993130312454695
 40
3.099869730691731
 40
3.220237816691226
 40
3.352695482737492
 40
3.481732806389727
 40
3.593499473690283
 40
3.674323013331751
 40
3.817951711952729
 40
3.946167120793811
 40
4.061405053453411
 40
4.166480796003137
 40
4.262478775059116
 40
4.350736673551017
 40
4.433071991253904
 40
4.511216293814622
 40
4.564262454117973
 40
4.618474415571622
 40
4.670128488754198
 40
4.722296879126371
 40
4.819540945314293
 40
4.931194984128088
 40
5.04999604025776
 40
5.16864375541539
 40
5.283970811762602
 40
5.392260784910428
 40
5.486512254876475
 40
5.559178233949902
 40
5.591425852853555
 40
5.626215969637942
 40
5.667155838674486
 40
5.717449290214328
 40
5.738402360944943
 40
5.784499116553913
 40
5.830595872164888
 40
5.851548942897746
 40
5.873019280661857
 40
5.924217778408395
 40
5.985325662817769
 40
6.036524160567777
 40
6.057994498334305
 40
6.236847789607558
 40
6.381409928945762
 40
6.49319042417875
 40
6.574067534230519
 40
6.691018086205613
 40
6.814881554220531
 40
6.944307823240483
 40
7.071266716066222
 40
7.193488604461979
 40
7.309042773128266
 40
7.414007203170859
 40
7.505140441886564
 40
7.531150360599795
 40
7.559221645322395
 40
7.587202218921005
 40
7.612569159499276
 40
7.662550809481092
 40
7.702878875764229
 40
7.857328205231044
 40
8.010799568088691
 40
8.165256399657641
 40
8.32223269871398
 40
8.479564855016667
 40
8.63521623029087
 40
8.79088255092576
 40
8.948305154947356
 40
9.16827183903305
 40
9.38735898098729
 40
9.608047961033565
 40
9.832914234792783
 40
9.858338694963116
 40
9.925366817230119
 40
10.0201307142277
 40
10.12876249859007
 40
10.23739428295257
 40
10.33215817995198
 40
10.39918630222401
 40
10.4246107623979
 40
10.64992019336951
 40
10.87188524531194
 40
10.87188524531194
 40
10.87188524531194
 40
10.87188524531194
 10
179.9057788376618
 20
15.73923260398189
 30
0.0
 10
179.9092864933542
 20
15.80616462073804
 30
0.0
 10
179.9163033987663
 20
15.94005891915859
 30
0.0
 10
179.8198027599073
 20
16.22548554971471
 30
0.0
 10
180.0510134726108
 20
16.16284386190282
 30
0.0
 10
180.1919290057157
 20
16.17001554056
 30
0.0
 10
180.3490417757588
 20
16.16235883078243
 30
0.0
 10
180.5025913427288
 20
16.16252752283045
 30
0.0
 10
180.6545104935081
 20
16.16182040535431
 30
0.0
 10
180.8142214813232
 20
16.17210158351649
 30
0.0
 10
180.9408972601118
 20
16.15496511080747
 30
0.0
 10
181.1370821122079
 20
16.22727260107146
 30
0.0
 10
181.103439527908
 20
16.12640699080121
 30
0.0
 10
181.1052011317183
 20
16.07619253947675
 30
0.0
 10
181.1027342073459
 20
16.02712335586471
 30
0.0
 10
181.134707696601
 20
15.94063490847003
 30
0.0
 10
181.0010399903256
 20
15.98997438608338
 30
0.0
 10
180.9172208688057
 20
15.98430634314172
 30
0.0
 10
180.8173861139323
 20
15.99465516706298
 30
0.0
 10
180.7186576720146
 20
16.00086450411086
 30
0.0
 10
180.6121532771111
 20
16.00697763816779
 30
0.0
 10
180.491051169806
 20
16.01588883484594
 30
0.0
 10
180.3703381502455
 20
16.00521605912382
 30
0.0
 10
180.1812553843437
 20
16.06468503080367
 30
0.0
 10
180.2129028505312
 20
15.90558320077541
 30
0.0
 10
180.1995563316833
 20
15.80839128339907
 30
0.0
 10
180.1974958426451
 20
15.69634065110104
 30
0.0
 10
180.195818804467
 20
15.57699685629352
 30
0.0
 10
180.1973336794233
 20
15.45032592155112
 30
0.0
 10
180.1956582478672
 20
15.3230158801612
 30
0.0
 10
180.2058844271657
 20
15.22451566404467
 30
0.0
 10
180.1779006596582
 20
15.08388702625636
 30
0.0
 10
180.3508029999306
 20
15.13989551134101
 30
0.0
 10
180.4645020202772
 20
15.12719951478499
 30
0.0
 10
180.584015167224
 20
15.13448377051258
 30
0.0
 10
180.6888491425072
 20
15.13878017056759
 30
0.0
 10
180.7843084898612
 20
15.14330568258974
 30
0.0
 10
180.8763823507032
 20
15.15149201146203
 30
0.0
 10
180.9476551782438
 20
15.14643850638114
 30
0.0
 10
181.0544931705687
 20
15.18536425031683
 30
0.0
 10
181.0226603598036
 20
15.10517122005884
 30
0.0
 10
181.0266164503929
 20
15.05562936846036
 30
0.0
 10
181.0234502392013
 20
15.00557478039822
 30
0.0
 10
181.0550791490586
 20
14.9212884761203
 30
0.0
 10
180.9210133677693
 20
14.97425365495161
 30
0.0
 10
180.8292322793201
 20
14.96540080890436
 30
0.0
 10
180.7079729189603
 20
14.9757004996516
 30
0.0
 10
180.5914113119772
 20
14.97748911767499
 30
0.0
 10
180.4783375745879
 20
14.97787017109695
 30
0.0
 10
180.3679246308471
 20
14.98415449472182
 30
0.0
 10
180.289812406784
 20
14.97189133255363
 30
0.0
 10
180.1913625833644
 20
15.00453887616128
 30
0.0
 10
180.2012355173561
 20
14.94769748054209
 30
0.0
 10
180.1973923244404
 20
14.91392130557985
 30
0.0
 10
180.1966789884268
 20
14.87119604709412
 30
0.0
 10
180.1963369642974
 20
14.83401607262153
 30
0.0
 10
180.1963834255346
 20
14.79487237370769
 30
0.0
 10
180.1963649429927
 20
14.75716849497684
 30
0.0
 10
180.1963703431807
 20
14.719449552324
 30
0.0
 10
180.19636972142
 20
14.68994324745148
 30
0.0
 10
180.1963698151546
 20
14.658735776993
 30
0.0
 10
180.196370428792
 20
14.61414424908083
 30
0.0
 10
180.1963671499337
 20
14.55963956508851
 30
0.0
 10
180.1963759623481
 20
14.51505540201447
 30
0.0
 10
180.1963359653417
 20
14.43117808585741
 30
0.0
 10
180.1976024270255
 20
14.31737520677677
 30
0.0
 10
180.1950274117843
 20
14.16830395933708
 30
0.0
 10
180.206500938172
 20
14.06597203813906
 30
0.0
 10
180.1823506222263
 20
13.93338903885838
 30
0.0
 10
180.3332993946476
 20
13.97895732272026
 30
0.0
 10
180.4428436671555
 20
13.96427012162355
 30
0.0
 10
180.5733970473921
 20
13.96920435125063
 30
0.0
 10
180.6990312209514
 20
13.97257705323372
 30
0.0
 10
180.8188730625601
 20
13.97711497498774
 30
0.0
 10
180.9391362611427
 20
13.99048536182016
 30
0.0
 10
181.0222761663516
 20
13.98068712782598
 30
0.0
 10
181.1456080421075
 20
14.04126214623325
 30
0.0
 10
181.1244269203956
 20
13.98532460134022
 30
0.0
 10
181.1235950270116
 20
13.95939249372346
 30
0.0
 10
181.1218963707558
 20
13.93197256190938
 30
0.0
 10
181.121797488883
 20
13.89738195206386
 30
0.0
 10
181.120365930133
 20
13.86050408220769
 30
0.0
 10
181.153280419219
 20
13.76846841021807
 30
0.0
 10
180.9551306988107
 20
13.84132015974838
 30
0.0
 10
180.8300548294891
 20
13.81825726508614
 30
0.0
 10
180.6673071295156
 20
13.82454021985793
 30
0.0
 10
180.5129366450001
 20
13.82260943909934
 30
0.0
 10
180.3566670436944
 20
13.82393762599276
 30
0.0
 10
180.1970544465282
 20
13.8205987248787
 30
0.0
 10
180.0540326342237
 20
13.83265795728247
 30
0.0
 10
179.8197144881628
 20
13.76952001976917
 30
0.0
 10
179.9173810751198
 20
14.05620527466318
 30
0.0
 10
179.9006868780058
 20
14.24988308142662
 30
0.0
 10
179.9146296709685
 20
14.47848242880297
 30
0.0
 10
179.9142987846631
 20
14.63384593955051
 30
0.0
 10
179.9143078119264
 20
14.7396633644413
 30
0.0
 10
179.9143055876316
 20
14.80205784124217
 30
0.0
 10
179.9143065551888
 20
14.89220425248329
 30
0.0
 10
179.9143065473261
 20
14.99621167157439
 30
0.0
 10
179.9143053861102
 20
15.10022131375297
 30
0.0
 10
179.9143090971502
 20
15.19036243688768
 30
0.0
 10
179.9143011051051
 20
15.25276803097215
 30
0.0
 10
179.9143334275019
 20
15.35868835961121
 30
0.0
 10
179.9131440788319
 20
15.5162671654474
 30
0.0
 10
179.9082216489256
 20
15.66528219822066
 30
0.0
 10
179.9057788376618
 20
15.73923260398189
 30
0.0
 11
179.9057788376618
 21
15.73923260398189
 31
0.0
 11
179.8966918223741
 21
15.9593857810102
 31
0.0
 11
179.8868249573133
 21
16.17960510387179
 31
0.0
 11
180.04115751414
 21
16.17312391463729
 31
0.0
 11
180.1946500189046
 21
16.1675489233193
 31
0.0
 11
180.3481160653367
 21
16.16367167505632
 31
0.0
 11
180.5025544554939
 21
16.1623807288761
 31
0.0
 11
180.6564835227474
 21
16.16367167505632
 31
0.0
 11
180.80873910046
 21
16.1675489233193
 31
0.0
 11
180.9609113551074
 21
16.17312391463729
 31
0.0
 11
181.1148364762483
 21
16.17960510387179
 31
0.0
 11
181.1070811703124
 21
16.12794961777364
 31
0.0
 11
181.1044991623591
 21
16.0764264233421
 31
0.0
 11
181.1070811703124
 21
16.02475660564663
 31
0.0
 11
181.1148364762483
 21
15.97315954836789
 31
0.0
 11
181.0094874054411
 21
15.98001446156059
 31
0.0
 11
180.913637570006
 21
15.9869355205866
 31
0.0
 11
180.8198593171903
 21
15.993783819196
 31
0.0
 11
180.7209679915881
 21
16.0006321178054
 31
0.0
 11
180.6147532199924
 21
16.00710999974827
 31
0.0
 11
180.4991060528039
 21
16.012688298358
 31
0.0
 11
180.3666126447258
 21
16.01656554662089
 31
0.0
 11
180.2101546018423
 21
16.0178564928011
 31
0.0
 11
180.2062663293722
 21
15.91037061609187
 31
0.0
 11
180.20153800484
 21
15.8080507289647
 31
0.0
 11
180.197660756675
 21
15.70138175329687
 31
0.0
 11
180.1963698105272
 21
15.5810205901325
 31
0.0
 11
180.1967799146836
 21
15.44856355891567
 31
0.0
 11
180.1980896021503
 21
15.31953288186459
 31
0.0
 11
180.1994074577049
 21
15.2077739843231
 31
0.0
 11
180.199819115366
 21
15.1269514930239
 31
0.0
 11
180.3434452935875
 21
15.12780256941254
 31
0.0
 11
180.4716343930759
 21
15.13039989580079
 31
0.0
 11
180.5868078221796
 21
15.13425509545256
 31
0.0
 11
180.6917756312221
 21
15.13901649302079
 31
0.0
 11
180.7876346289422
 21
15.14418027774175
 31
0.0
 11
180.8757413374193
 21
15.14934406246269
 31
0.0
 11
180.9578881438496
 21
15.15491243919742
 31
0.0
 11
181.0357692335572
 21
15.1613208680153
 31
0.0
 11
181.0280180445186
 21
15.10884407115341
 31
0.0
 11
181.0254328449317
 21
15.05469378470859
 31
0.0
 11
181.0280180445186
 21
15.0031044444437
 31
0.0
 11
181.0357692335572
 21
14.9515151041789
 31
0.0
 11
180.9389813454015
 21
14.96092324653761
 31
0.0
 11
180.8275950722016
 21
14.9686512847301
 31
0.0
 11
180.7089261429373
 21
14.97425273438148
 31
0.0
 11
180.5903167449213
 21
14.9772678819501
 31
0.0
 11
180.4750025117521
 21
14.97898767361639
 31
0.0
 11
180.36672619507
 21
14.98070746528259
 31
0.0
 11
180.2724839317708
 21
14.98202486979617
 31
0.0
 11
180.199819115366
 21
14.9824360763933
 31
0.0
 11
180.199407457705
 21
14.95019108508193
 31
0.0
 11
180.1980896021503
 21
14.91542593752119
 31
0.0
 11
180.1967799146836
 21
14.87450702260086
 31
0.0
 11
180.1963698105272
 21
14.8242152430995
 31
0.0
 11
180.1963698105272
 21
14.8032621723582
 31
0.0
 11
180.1963698105272
 21
14.75716541672734
 31
0.0
 11
180.1963698105272
 21
14.71106866109649
 31
0.0
 11
180.1963698105272
 21
14.69011559035519
 31
0.0
 11
180.1963698105272
 21
14.66864525258279
 31
0.0
 11
180.1963698105272
 21
14.61744675481782
 31
0.0
 11
180.1963698105272
 21
14.55633887038867
 31
0.0
 11
180.1963698105272
 21
14.50514037262371
 31
0.0
 11
180.1963698105272
 21
14.4836700348513
 31
0.0
 11
180.1967799146836
 21
14.30481721371547
 31
0.0
 11
180.1980896021503
 21
14.16026100715439
 31
0.0
 11
180.2002868589709
 21
14.0485021096129
 31
0.0
 11
180.2032586986985
 21
13.9676796183137
 31
0.0
 11
180.3202092517447
 21
13.9676796183137
 31
0.0
 11
180.4440727208746
 21
13.9676796183137
 31
0.0
 11
180.5734925526422
 21
13.96897056449392
 31
0.0
 11
180.7003922282245
 21
13.9728478127569
 31
0.0
 11
180.8224658067974
 21
13.97886708358869
 31
0.0
 11
180.9377587499464
 21
13.9866326044201
 31
0.0
 11
181.0421754573519
 21
13.99734161483406
 31
0.0
 11
181.1320599255448
 21
14.01237656274699
 31
0.0
 11
181.1264254031191
 21
13.98698427976715
 31
0.0
 11
181.1234433285423
 21
13.959071840538
 31
0.0
 11
181.12213398812
 21
13.93112191867005
 31
0.0
 11
181.1217235369195
 21
13.90575829888469
 31
0.0
 11
181.1243087365064
 21
13.85584355063329
 31
0.0
 11
181.1320599255448
 21
13.81626739612929
 31
0.0
 11
180.9776977178344
 21
13.82145433189191
 31
0.0
 11
180.8242357818765
 21
13.8231553822387
 31
0.0
 11
180.6697789496483
 21
13.8231553822387
 31
0.0
 11
180.5128026496768
 21
13.8231553822387
 31
0.0
 11
180.3554704921536
 21
13.8231553822387
 31
0.0
 11
180.199819115366
 21
13.8231553822387
 31
0.0
 11
180.0441620874242
 21
13.82145433189191
 31
0.0
 11
179.8868249573133
 21
13.81626739612929
 31
0.0
 11
179.8966918223741
 21
14.03601267385212
 31
0.0
 11
179.9057788376618
 21
14.2549112849085
 31
0.0
 11
179.91217215184
 21
14.47550763902005
 31
0.0
 11
179.9143063455009
 21
14.70036378479719
 31
0.0
 11
179.9143063455009
 21
14.72578824496878
 31
0.0
 11
179.9143063455009
 21
14.79281636723935
 31
0.0
 11
179.9143063455009
 21
14.88758026424256
 31
0.0
 11
179.9143063455009
 21
14.99621204861209
 31
0.0
 11
179.9143063455009
 21
15.10484383298163
 31
0.0
 11
179.9143063455009
 21
15.19960772998484
 31
0.0
 11
179.9143063455009
 21
15.2666358522554
 31
0.0
 11
179.9143063455009
 21
15.292060312427
 31
0.0
 11
179.91217215184
 21
15.51735963528736
 31
0.0
 11
179.9057788376618
 21
15.73923260398189
 31
0.0
  0
SPLINE
  5
AD
102
{ACAD_REACTORS
330
CA
102
}
330
48
100
AcDbEntity
  8
_U_30EC_U_30A4_U_30E4_U_30FC_1
  6
Continuous
 62
     2
100
AcDbSpline
210
0.0
220
0.0
230
1.0
 70
    11
 71
     3
 72
    47
 73
    43
 74
    41
 42
0.000000001
 43
0.0000000001
 44
0.00000001
 40
0.0
 40
0.0
 40
0.0
 40
0.0
 40
0.2207912809957319
 40
0.4459404186303393
 40
0.4902387190459884
 40
0.532747389272249
 40
0.5742260451226417
 40
0.6155432630561137
 40
0.6568164066316619
 40
0.6982511618781863
 40
0.7407663929317743
 40
0.7851366743176641
 40
1.010288833836486
 40
1.231080507002349
 40
1.451765243652522
 40
1.676638205891801
 40
1.720461045359772
 40
1.830018144043636
 40
1.972442372353268
 40
2.114866600677636
 40
2.224423699395261
 40
2.268246538883502
 40
2.493628801207342
 40
2.715602830286773
 40
2.934211330706492
 40
3.149502369855495
 40
3.231387784851228
 40
3.318231873854292
 40
3.405143198198281
 40
3.486970301720719
 40
3.70225817249417
 40
3.920866283534367
 40
4.142839325932187
 40
4.368221903865658
 40
4.412044743360138
 40
4.521601842096151
 40
4.664026070452632
 40
4.806450298809342
 40
4.916007397547036
 40
4.959830237043358
 40
5.184703515847385
 40
5.405387250767702
 40
5.405387250767702
 40
5.405387250767702
 40
5.405387250767702
 10
182.6507427258646
 20
15.73406440953869
 30
0.0
 10
182.6568139420004
 20
15.79758482501207
 30
0.0
 10
182.6690762107244
 20
15.92587938689625
 30
0.0
 10
182.5604706879412
 20
16.20166220174078
 30
0.0
 10
182.6761985896604
 20
16.17188133432052
 30
0.0
 10
182.7171842509016
 20
16.16765556262828
 30
0.0
 10
182.7591205797519
 20
16.16310446389606
 30
0.0
 10
182.800419662571
 20
16.1620198292949
 30
0.0
 10
182.8417032115556
 20
16.16310338195225
 30
0.0
 10
182.8836148270647
 20
16.16766112711352
 30
0.0
 10
182.924598354902
 20
16.17187430209728
 30
0.0
 10
183.0404922843489
 20
16.20177611317537
 30
0.0
 10
182.9295652727457
 20
15.92339806609888
 30
0.0
 10
182.9574856365267
 20
15.74283140824952
 30
0.0
 10
182.940426734697
 20
15.50961042346472
 30
0.0
 10
182.9414637282102
 20
15.34906622543148
 30
0.0
 10
182.9414099399405
 20
15.22284817558725
 30
0.0
 10
182.941427737248
 20
15.12428963336244
 30
0.0
 10
182.9414188581081
 20
14.99280702442966
 30
0.0
 10
182.9414263928033
 20
14.86132844968652
 30
0.0
 10
182.9414129405129
 20
14.76276222694094
 30
0.0
 10
182.9414531717492
 20
14.63639735624154
 30
0.0
 10
182.9406746403818
 20
14.47482068822872
 30
0.0
 10
182.9565958319266
 20
14.24361821892915
 30
0.0
 10
182.9333468885407
 20
14.05874351972002
 30
0.0
 10
183.0360183444367
 20
13.78935602770051
 30
0.0
 10
182.8820238362836
 20
13.82660112685824
 30
0.0
 10
182.8004129802832
 20
13.82137994680542
 30
0.0
 10
182.7188192292583
 20
13.82660620378357
 30
0.0
 10
182.5648513666842
 20
13.78937069885384
 30
0.0
 10
182.6674183421917
 20
14.05875129862881
 30
0.0
 10
182.6442045316089
 20
14.24361585325415
 30
0.0
 10
182.6600444655139
 20
14.4748221856564
 30
0.0
 10
182.6593296313427
 20
14.63639712308505
 30
0.0
 10
182.6593664569907
 20
14.76276231210524
 30
0.0
 10
182.659354900027
 20
14.86132756635984
 30
0.0
 10
182.6593575019213
 20
14.99281127417223
 30
0.0
 10
182.6593648531779
 20
15.12427548031202
 30
0.0
 10
182.659344254135
 20
15.22287786275329
 30
0.0
 10
182.6594082192028
 20
15.3489614935443
 30
0.0
 10
182.658173394759
 20
15.51210091383772
 30
0.0
 10
182.6532040396746
 20
15.66054183777548
 30
0.0
 10
182.6507427258646
 20
15.73406440953869
 30
0.0
 11
182.6507427258646
 21
15.73406440953869
 31
0.0
 11
182.641732820038
 21
15.95467178795575
 31
0.0
 11
182.6318769706146
 21
16.17960510387179
 31
0.0
 11
182.6756985840801
 21
16.17312391463729
 31
0.0
 11
182.7178400934215
 21
16.1675489233193
 31
0.0
 11
182.7591371409791
 21
16.16367167505632
 31
0.0
 11
182.8004341885365
 21
16.1623807288761
 31
0.0
 11
182.8416871388731
 21
16.16367167505632
 31
0.0
 11
182.8829400892098
 21
16.1675489233193
 31
0.0
 11
182.9250882131343
 21
16.17312391463729
 31
0.0
 11
182.9689825870146
 21
16.17960510387179
 31
0.0
 11
182.9590577693891
 21
15.95467178795575
 31
0.0
 11
182.950038420831
 21
15.73406440953869
 31
0.0
 11
182.9435638463435
 21
15.51347467001056
 31
0.0
 11
182.9414218238286
 21
15.2886119096501
 31
0.0
 11
182.9414218238286
 21
15.24478907015489
 31
0.0
 11
182.9414218238286
 21
15.13523197141685
 31
0.0
 11
182.9414218238286
 21
14.9928077430574
 31
0.0
 11
182.9414218238286
 21
14.85038351469795
 31
0.0
 11
182.9414218238286
 21
14.74082641595992
 31
0.0
 11
182.9414218238286
 21
14.6970035764647
 31
0.0
 11
182.9435638463435
 21
14.47163149318768
 31
0.0
 11
182.950038420831
 21
14.24975190990979
 31
0.0
 11
182.9590577693891
 21
14.03132954885331
 31
0.0
 11
182.9689825870146
 21
13.81626739612929
 31
0.0
 11
182.887261616877
 21
13.82145433189191
 31
0.0
 11
182.8004341885365
 21
13.8231553822387
 31
0.0
 11
182.7135395119339
 21
13.82145433189191
 31
0.0
 11
182.6318769706146
 21
13.81626739612929
 31
0.0
 11
182.641732820038
 21
14.03132954885331
 31
0.0
 11
182.6507427258646
 21
14.24975190990979
 31
0.0
 11
182.6571833838798
 21
14.47163149318768
 31
0.0
 11
182.6593583588023
 21
14.6970035764647
 31
0.0
 11
182.6593583588023
 21
14.74082641595991
 31
0.0
 11
182.6593583588023
 21
14.85038351469795
 31
0.0
 11
182.6593583588023
 21
14.9928077430574
 31
0.0
 11
182.6593583588023
 21
15.13523197141685
 31
0.0
 11
182.6593583588023
 21
15.24478907015489
 31
0.0
 11
182.6593583588023
 21
15.2886119096501
 31
0.0
 11
182.6571833838798
 21
15.51347467001057
 31
0.0
 11
182.6507427258646
 21
15.73406440953869
 31
0.0
  0
SPLINE
  5
AE
102
{ACAD_REACTORS
330
CB
102
}
330
48
100
AcDbEntity
  8
_U_30EC_U_30A4_U_30E4_U_30FC_1
  6
Continuous
 62
     2
100
AcDbSpline
210
0.0
220
0.0
230
1.0
 70
    11
 71
     3
 72
   118
 73
   114
 74
   112
 42
0.000000001
 43
0.0000000001
 44
0.00000001
 40
0.0
 40
0.0
 40
0.0
 40
0.0
 40
0.1054708162973396
 40
0.2466098270051939
 40
0.3965912874591456
 40
0.5285525069754242
 40
0.6156245055642757
 40
0.6431434105798055
 40
0.7036850037986885
 40
0.7642265984505422
 40
0.7917455052355894
 40
0.9287404319990622
 40
1.106572819088138
 40
1.287544879681104
 40
1.317578308030619
 40
1.399928030857247
 40
1.522968204800014
 40
1.675072986590625
 40
1.84461653318069
 40
2.01997300163874
 40
2.18951654888004
 40
2.341621331585368
 40
2.464661506320493
 40
2.54701122964705
 40
2.577044658168012
 40
2.603797890893083
 40
2.66265500290877
 40
2.721512114949582
 40
2.748265347702761
 40
2.774215307344836
 40
2.845959313407166
 40
2.954338556588363
 40
3.090194227585537
 40
3.244367517100498
 40
3.407699615844253
 40
3.571031714539398
 40
3.725205003920071
 40
3.861060674729569
 40
3.96943991771626
 40
4.041183923628932
 40
4.067133883212923
 40
4.311886746012118
 40
4.547897258335503
 40
4.764747083043956
 40
4.952749679951743
 40
5.045772974195905
 40
5.137862019645
 40
5.33054316979306
 40
5.553448265244064
 40
5.795083855888255
 40
6.043293412177334
 40
6.285761695541282
 40
6.313902908752766
 40
6.384255941793356
 40
6.475714884766916
 40
6.56717382775895
 40
6.637526860839728
 40
6.665668074074063
 40
6.692018920328024
 40
6.749990782071071
 40
6.807962643790416
 40
6.834313490017879
 40
6.856393084245157
 40
6.913335195649781
 40
6.991194817302416
 40
7.076026942283677
 40
7.153886563725139
 40
7.210828674844693
 40
7.232908268931029
 40
7.258199334923553
 40
7.324875781592208
 40
7.419142481924874
 40
7.527204308841826
 40
7.635266135230415
 40
7.729532834168412
 40
7.796209279292738
 40
7.821500344594687
 40
7.844652988850787
 40
7.899863140541567
 40
7.965759128053763
 40
8.020969279771105
 40
8.044121924046571
 40
8.069356610160686
 40
8.10913439544146
 40
8.132238100191175
 40
8.193147867786541
 40
8.27926167887672
 40
8.377977512673938
 40
8.47669334714673
 40
8.562807160411786
 40
8.623716930826575
 40
8.64682063685353
 40
8.671988793774343
 40
8.734909185828254
 40
8.816705695188968
 40
8.89850220481554
 40
8.961422597378
 40
8.986590754551113
 40
9.012941600733257
 40
9.070913462380318
 40
9.12888532408179
 40
9.155236170325098
 40
9.180404327929141
 40
9.243324721948214
 40
9.325121234212007
 40
9.406917746637662
 40
9.469838141978117
 40
9.495006288270892
 40
9.517811184379037
 40
9.572192090487048
 40
9.63709833328129
 40
9.6914792395155
 40
9.714284125643543
 40
9.714284125643543
 40
9.714284125643543
 40
9.714284125643543
 10
185.2874469028653
 20
15.2688916318772
 30
0.0
 10
185.3090990569038
 20
15.24111869242812
 30
0.0
 10
185.3597257109473
 20
15.17618054561236
 30
0.0
 10
185.4349383202591
 20
15.06891060312897
 30
0.0
 10
185.5248482274347
 20
14.95377438266627
 30
0.0
 10
185.5709169676674
 20
14.85357045748316
 30
0.0
 10
185.6655825294656
 20
14.78434006814944
 30
0.0
 10
185.6204439320413
 20
14.73771639678273
 30
0.0
 10
185.5947047785791
 20
14.6966030886604
 30
0.0
 10
185.5645196708012
 20
14.6606597172794
 30
0.0
 10
185.5193684730561
 20
14.58579782596096
 30
0.0
 10
185.4710504458563
 20
14.80782524253609
 30
0.0
 10
185.3968539713073
 20
14.84510677337708
 30
0.0
 10
185.2836047324607
 20
15.11610202130596
 30
0.0
 10
185.2885133578169
 20
15.00095328446226
 30
0.0
 10
185.2868486556306
 20
14.92836675781625
 30
0.0
 10
185.2876830076714
 20
14.80625588483985
 30
0.0
 10
185.2873609540264
 20
14.65913800810461
 30
0.0
 10
185.2875076912455
 20
14.49307063956558
 30
0.0
 10
185.2872950092723
 20
14.32187554608605
 30
0.0
 10
185.2879497252034
 20
14.15552828635501
 30
0.0
 10
185.2859192461139
 20
14.00935173055698
 30
0.0
 10
185.291346039993
 20
13.88471047474617
 30
0.0
 10
185.2804930868708
 20
13.81718656540633
 30
0.0
 10
185.2956739155554
 20
13.75549061417029
 30
0.0
 10
185.2457895108134
 20
13.76727503897009
 30
0.0
 10
185.2017150342522
 20
13.75943822779976
 30
0.0
 10
185.1582371630201
 20
13.7676044137271
 30
0.0
 10
185.1092346786488
 20
13.75538056738474
 30
0.0
 10
185.1218731234824
 20
13.8096066724932
 30
0.0
 10
185.113018296845
 20
13.86936918907565
 30
0.0
 10
185.1175058770314
 20
13.97922029044376
 30
0.0
 10
185.115796013599
 20
14.11029975405685
 30
0.0
 10
185.1163550915987
 20
14.26198011444334
 30
0.0
 10
185.1161928768693
 20
14.42211074929959
 30
0.0
 10
185.1162269924674
 20
14.58236865674571
 30
0.0
 10
185.1162514960127
 20
14.73370247520444
 30
0.0
 10
185.1161453543224
 20
14.86582156338605
 30
0.0
 10
185.1164299141931
 20
14.97294802533197
 30
0.0
 10
185.1158675547568
 20
15.03808619579478
 30
0.0
 10
185.1180765083689
 20
15.16618957858679
 30
0.0
 10
185.0319435998603
 20
14.79097610391574
 30
0.0
 10
184.9555140818501
 20
14.63918193123395
 30
0.0
 10
184.8660040767833
 20
14.47766206446304
 30
0.0
 10
184.7640413217327
 20
14.20471848820169
 30
0.0
 10
184.7187976491039
 20
14.36717346596512
 30
0.0
 10
184.610235594167
 20
14.45605432058115
 30
0.0
 10
184.7995791751752
 20
14.60549794961408
 30
0.0
 10
184.85653405457
 20
14.79749136974927
 30
0.0
 10
184.9717520993353
 20
15.02899622906757
 30
0.0
 10
184.9940151630133
 20
15.21797259759066
 30
0.0
 10
185.177190515214
 20
15.49454089325934
 30
0.0
 10
185.0538033597552
 20
15.48698978832099
 30
0.0
 10
184.9925684166834
 20
15.48856772366123
 30
0.0
 10
184.9081999617064
 20
15.48882592573678
 30
0.0
 10
184.8204235085967
 20
15.48544845751211
 30
0.0
 10
184.7656768696123
 20
15.49394814982025
 30
0.0
 10
184.7104703026025
 20
15.48048561049794
 30
0.0
 10
184.7222823035536
 20
15.52931442126766
 30
0.0
 10
184.7142496151795
 20
15.5726900489671
 30
0.0
 10
184.7228186104678
 20
15.61509438309573
 30
0.0
 10
184.7102943409158
 20
15.66267796552116
 30
0.0
 10
184.7555101538736
 20
15.65267212995107
 30
0.0
 10
184.8014815562725
 20
15.6589410517406
 30
0.0
 10
184.877722204771
 20
15.65593561405869
 30
0.0
 10
184.9561296131994
 20
15.65770448278539
 30
0.0
 10
185.0323992648933
 20
15.65464793981658
 30
0.0
 10
185.0783009459475
 20
15.66103971376175
 30
0.0
 10
185.12317339654
 20
15.65093822978895
 30
0.0
 10
185.1105552275634
 20
15.70157201581897
 30
0.0
 10
185.1191936582707
 20
15.75501261882069
 30
0.0
 10
185.1152361595442
 20
15.8486325513168
 30
0.0
 10
185.1162325068335
 20
15.95112606688925
 30
0.0
 10
185.1171927413073
 20
16.05353270248165
 30
0.0
 10
185.1133211458006
 20
16.14735929609324
 30
0.0
 10
185.1217789814364
 20
16.20036542840356
 30
0.0
 10
185.1093075932835
 20
16.25211435651192
 30
0.0
 10
185.154210638985
 20
16.2385074722676
 30
0.0
 10
185.1955083836772
 20
16.24100480320587
 30
0.0
 10
185.259534428105
 20
16.23648060574486
 30
0.0
 10
185.2986111148787
 20
16.22781003043309
 30
0.0
 10
185.3476543498743
 20
16.23515102070682
 30
0.0
 10
185.322508003059
 20
16.19602896051764
 30
0.0
 10
185.2815901333723
 20
16.20563842455808
 30
0.0
 10
185.2910109616604
 20
16.1554014816978
 30
0.0
 10
185.2855647318746
 20
16.1038594563949
 30
0.0
 10
185.2881699601803
 20
16.0195970758452
 30
0.0
 10
185.2870102202154
 20
15.92559135583408
 30
0.0
 10
185.2883591064231
 20
15.83196865395524
 30
0.0
 10
185.284997010151
 20
15.74679517552222
 30
0.0
 10
185.2920959917768
 20
15.69716856072042
 30
0.0
 10
185.2812569154546
 20
15.64993694969987
 30
0.0
 10
185.3304010225245
 20
15.6620167493685
 30
0.0
 10
185.3794877630147
 20
15.65447393363009
 30
0.0
 10
185.4573714280641
 20
15.65686070361431
 30
0.0
 10
185.5350365172896
 20
15.65899381905413
 30
0.0
 10
185.5845393931354
 20
15.65193391922452
 30
0.0
 10
185.6344594750639
 20
15.66360151936212
 30
0.0
 10
185.6223198516881
 20
15.61540235371393
 30
0.0
 10
185.6305838229143
 20
15.57249219801237
 30
0.0
 10
185.6223198650784
 20
15.52958201851388
 30
0.0
 10
185.6344594549854
 20
15.48138288754869
 30
0.0
 10
185.5845395158747
 20
15.49305034471516
 30
0.0
 10
185.5350350651202
 20
15.4859920243505
 30
0.0
 10
185.4573784382973
 20
15.48811665228609
 30
0.0
 10
185.379464386576
 20
15.49053389365765
 30
0.0
 10
185.3304500352716
 20
15.48291848194491
 30
0.0
 10
185.2813246108943
 20
15.49507952557597
 30
0.0
 10
185.2915559988571
 20
15.45073013424162
 30
0.0
 10
185.2856677678053
 20
15.40925436202915
 30
0.0
 10
185.2878788305568
 20
15.34915394315305
 30
0.0
 10
185.2874109346146
 20
15.3022578276289
 30
0.0
 10
185.2874386992913
 20
15.27650146418197
 30
0.0
 10
185.2874469028653
 20
15.2688916318772
 30
0.0
 11
185.2874469028653
 21
15.2688916318772
 31
0.0
 11
185.3516977534484
 21
15.18524999634257
 31
0.0
 11
185.4348258835499
 21
15.07118889748221
 31
0.0
 11
185.5216831568896
 21
14.94891767195723
 31
0.0
 11
185.5971214371872
 21
14.84064565642876
 31
0.0
 11
185.6459925881627
 21
14.7685821875579
 31
0.0
 11
185.6296821285094
 21
14.74641782124399
 31
0.0
 11
185.593799117272
 21
14.6976562153534
 31
0.0
 11
185.5579161060346
 21
14.64889460946281
 31
0.0
 11
185.5416056463813
 21
14.6267302431489
 31
0.0
 11
185.4763067109446
 21
14.74716139023815
 31
0.0
 11
185.3848434243234
 21
14.89966983670208
 31
0.0
 11
185.2874469028653
 21
15.05219788193139
 31
0.0
 11
185.2874469028653
 21
15.0221644532825
 31
0.0
 11
185.2874469028653
 21
14.93981472956781
 31
0.0
 11
185.2874469028653
 21
14.81677455413527
 31
0.0
 11
185.2874469028653
 21
14.66466977033283
 31
0.0
 11
185.2874469028653
 21
14.49512622150846
 31
0.0
 11
185.2874469028653
 21
14.31976975101012
 31
0.0
 11
185.2874469028653
 21
14.15022620218575
 31
0.0
 11
185.2874469028653
 21
13.99812141838331
 31
0.0
 11
185.2874469028653
 21
13.87508124295077
 31
0.0
 11
185.2874469028653
 21
13.79273151923608
 31
0.0
 11
185.2874469028653
 21
13.76269809058719
 31
0.0
 11
185.2606936700409
 21
13.76269809058719
 31
0.0
 11
185.2018365578272
 21
13.76269809058719
 31
0.0
 11
185.1429794456134
 21
13.76269809058719
 31
0.0
 11
185.116226212789
 21
13.76269809058719
 31
0.0
 11
185.116226212789
 21
13.78864805031257
 31
0.0
 11
185.116226212789
 21
13.86039205661215
 31
0.0
 11
185.116226212789
 21
13.96877130017108
 31
0.0
 11
185.116226212789
 21
14.10462697167453
 31
0.0
 11
185.116226212789
 21
14.25880026180767
 31
0.0
 11
185.116226212789
 21
14.42213236125564
 31
0.0
 11
185.116226212789
 21
14.58546446070361
 31
0.0
 11
185.116226212789
 21
14.73963775083675
 31
0.0
 11
185.116226212789
 21
14.8754934223402
 31
0.0
 11
185.116226212789
 21
14.98387266589913
 31
0.0
 11
185.116226212789
 21
15.05561667219871
 31
0.0
 11
185.116226212789
 21
15.08156663192409
 31
0.0
 11
185.0379865861722
 21
14.84965603302373
 31
0.0
 11
184.9497110789304
 21
14.63077616328677
 31
0.0
 11
184.8544106930046
 21
14.43598991333545
 31
0.0
 11
184.7550964303357
 21
14.276360173792
 31
0.0
 11
184.7109198342406
 21
14.35822446196599
 31
0.0
 11
184.658805738348
 21
14.43414885430809
 31
0.0
 11
184.7627302590299
 21
14.59640087926756
 31
0.0
 11
184.8629319864735
 21
14.79551465421781
 31
0.0
 11
184.9550446607902
 21
15.01890447916198
 31
0.0
 11
185.0347020220912
 21
15.25398465410323
 31
0.0
 11
185.097537810488
 21
15.4881694790447
 31
0.0
 11
185.0693965972142
 21
15.4881694790447
 31
0.0
 11
184.9990435640297
 21
15.4881694790447
 31
0.0
 11
184.9075846208898
 21
15.4881694790447
 31
0.0
 11
184.81612567775
 21
15.4881694790447
 31
0.0
 11
184.7457726445655
 21
15.4881694790447
 31
0.0
 11
184.7176314312917
 21
15.4881694790447
 31
0.0
 11
184.7176314312917
 21
15.51452032539226
 31
0.0
 11
184.7176314312917
 21
15.5724921873569
 31
0.0
 11
184.7176314312917
 21
15.63046404932154
 31
0.0
 11
184.7176314312917
 21
15.6568148956691
 31
0.0
 11
184.739711025602
 21
15.6568148956691
 31
0.0
 11
184.7966531372445
 21
15.6568148956691
 31
0.0
 11
184.8745127592863
 21
15.6568148956691
 31
0.0
 11
184.9593448847945
 21
15.6568148956691
 31
0.0
 11
185.0372045068362
 21
15.6568148956691
 31
0.0
 11
185.0941466184786
 21
15.6568148956691
 31
0.0
 11
185.116226212789
 21
15.6568148956691
 31
0.0
 11
185.116226212789
 21
15.68210596174351
 31
0.0
 11
185.116226212789
 21
15.74878240866696
 31
0.0
 11
185.116226212789
 21
15.84304910948977
 31
0.0
 11
185.116226212789
 21
15.95111093726225
 31
0.0
 11
185.116226212789
 21
16.05917276503473
 31
0.0
 11
185.116226212789
 21
16.15343946585754
 31
0.0
 11
185.116226212789
 21
16.22011591278099
 31
0.0
 11
185.116226212789
 21
16.2454069788554
 31
0.0
 11
185.1393181988666
 21
16.24373213107803
 31
0.0
 11
185.1943837041285
 21
16.23973826330123
 31
0.0
 11
185.2601070491185
 21
16.23497138885796
 31
0.0
 11
185.3151725543804
 21
16.23097752108116
 31
0.0
 11
185.3382645404579
 21
16.22930267330379
 31
0.0
 11
185.3249012644362
 21
16.20789677921193
 31
0.0
 11
185.2874469028653
 21
16.1945011455347
 31
0.0
 11
185.2874469028653
 21
16.17139743948579
 31
0.0
 11
185.2874469028653
 21
16.1104876689932
 31
0.0
 11
185.2874469028653
 21
16.02437385553816
 31
0.0
 11
185.2874469028653
 21
15.9256580206019
 31
0.0
 11
185.2874469028653
 21
15.82694218566564
 31
0.0
 11
185.2874469028653
 21
15.7408283722106
 31
0.0
 11
185.2874469028653
 21
15.67991860171801
 31
0.0
 11
185.2874469028653
 21
15.6568148956691
 31
0.0
 11
185.3126150604809
 21
15.6568148956691
 31
0.0
 11
185.3755354545199
 21
15.6568148956691
 31
0.0
 11
185.4573319667706
 21
15.6568148956691
 31
0.0
 11
185.5391284790212
 21
15.6568148956691
 31
0.0
 11
185.6020488730602
 21
15.6568148956691
 31
0.0
 11
185.6272170306758
 21
15.6568148956691
 31
0.0
 11
185.6272170306758
 21
15.63046404932154
 31
0.0
 11
185.6272170306758
 21
15.5724921873569
 31
0.0
 11
185.6272170306758
 21
15.51452032539226
 31
0.0
 11
185.6272170306758
 21
15.4881694790447
 31
0.0
 11
185.6020488730602
 21
15.4881694790447
 31
0.0
 11
185.5391284790212
 21
15.4881694790447
 31
0.0
 11
185.4573319667705
 21
15.4881694790447
 31
0.0
 11
185.3755354545199
 21
15.4881694790447
 31
0.0
 11
185.3126150604809
 21
15.4881694790447
 31
0.0
 11
185.2874469028653
 21
15.4881694790447
 31
0.0
 11
185.2874469028653
 21
15.46536458293928
 31
0.0
 11
185.2874469028653
 21
15.41098367684174
 31
0.0
 11
185.2874469028653
 21
15.34607743408016
 31
0.0
 11
185.2874469028653
 21
15.29169652798262
 31
0.0
 11
185.2874469028653
 21
15.2688916318772
 31
0.0
  0
SPLINE
  5
AF
102
{ACAD_REACTORS
330
CC
102
}
330
48
100
AcDbEntity
  8
_U_30EC_U_30A4_U_30E4_U_30FC_1
  6
Continuous
 62
     2
100
AcDbSpline
210
0.0
220
0.0
230
1.0
 70
    11
 71
     3
 72
    91
 73
    87
 74
    85
 42
0.000000001
 43
0.0000000001
 44
0.00000001
 40
0.0
 40
0.0
 40
0.0
 40
0.0
 40
0.0345987051695434
 40
0.1258134969461369
 40
0.2547723404888987
 40
0.4026032099154409
 40
0.5504340793417273
 40
0.6793929228836932
 40
0.7706077146571888
 40
0.8052064287781777
 40
1.124852390615365
 40
1.427402236308963
 40
1.706356627453609
 40
1.955541417875303
 40
2.169485938566458
 40
2.34435078666492
 40
2.480568411562075
 40
2.590440557429098
 40
2.649189927151308
 40
2.749320643306535
 40
2.912632739880234
 40
3.147745656000388
 40
3.244827496385307
 40
3.338490056946949
 40
3.583815413207362
 40
3.761423943238713
 40
3.886956104362897
 40
3.985855451887102
 40
4.091766255337986
 40
4.250186473812152
 40
4.422734315084774
 40
4.628285684838866
 40
4.872093227758707
 40
5.152549652145817
 40
5.464967135837797
 40
5.803201477852716
 40
6.160362988814189
 40
6.193449448276244
 40
6.284170385501898
 40
6.41971813876474
 40
6.58728504638599
 40
6.774063446723904
 40
6.967245678113859
 40
7.154024078817873
 40
7.32159098702623
 40
7.45713874089056
 40
7.547859678556296
 40
7.580946138182856
 40
7.608533084714908
 40
7.669224367077883
 40
7.729915649430101
 40
7.757502595950152
 40
7.790278062553634
 40
7.880146277431104
 40
8.014419963180538
 40
8.180411842398067
 40
8.365434637679536
 40
8.55680107162281
 40
8.741823866830922
 40
8.907815745916489
 40
9.042089431507614
 40
9.13195764624974
 40
9.164733112797316
 40
9.41542506314027
 40
9.667986180958678
 40
9.694169807462846
 40
9.756607686047804
 40
9.83113031532261
 40
9.893568193900075
 40
9.919751820398892
 40
9.950967964690673
 40
9.996421631210834
 40
10.22087981037476
 40
10.44341866197564
 40
10.47847970788876
 40
10.57091337438777
 40
10.70159545461257
 40
10.85140174170385
 40
11.00120802880508
 40
11.13189010907413
 40
11.22432377583038
 40
11.25938480938987
 40
11.28697175596175
 40
11.34766303835949
 40
11.408354320421
 40
11.43594125892134
 40
11.43594125892134
 40
11.43594125892134
 40
11.43594125892134
 10
190.081811433329
 20
15.55242795125079
 30
0.0
 10
190.0702785844941
 20
15.55242790287917
 30
0.0
 10
190.0283409445
 20
15.55242773704166
 30
0.0
 10
189.9434129719026
 20
15.55243125800911
 30
0.0
 10
189.8207688553129
 20
15.5524092643588
 30
0.0
 10
189.6791206916993
 20
15.55250801177056
 30
0.0
 10
189.537975369849
 20
15.55214686232422
 30
0.0
 10
189.4141351317904
 20
15.55321883609091
 30
0.0
 10
189.3317217825381
 20
15.5509224909127
 30
0.0
 10
189.1727791229692
 20
15.56048569373422
 30
0.0
 10
189.3503402353376
 20
15.19785394311372
 30
0.0
 10
189.3379739205453
 20
14.95243127723115
 30
0.0
 10
189.4064519473864
 20
14.66862501324835
 30
0.0
 10
189.469302432097
 20
14.43250999939035
 30
0.0
 10
189.5452253431728
 20
14.23326740396129
 30
0.0
 10
189.6303189577016
 20
14.07745347451371
 30
0.0
 10
189.7244607592935
 20
13.97657857781389
 30
0.0
 10
189.8282648207728
 20
13.92465852638962
 30
0.0
 10
189.9125872030774
 20
13.97606484379614
 30
0.0
 10
189.9351322179452
 20
14.09144544037518
 30
0.0
 10
189.9745730975371
 20
14.21885149702382
 30
0.0
 10
189.9202919734942
 20
14.53622328086749
 30
0.0
 10
190.0451218072474
 20
14.38982180140905
 30
0.0
 10
190.2019291513604
 20
14.35795300331174
 30
0.0
 10
190.0947720007057
 20
14.12421357767629
 30
0.0
 10
190.0808711209868
 20
13.95972776583657
 30
0.0
 10
190.0234709467225
 20
13.83130869122485
 30
0.0
 10
189.9335020145008
 20
13.76018802352831
 30
0.0
 10
189.8095274657878
 20
13.74432324142257
 30
0.0
 10
189.663427319686
 20
13.77993797554175
 30
0.0
 10
189.5243894320285
 20
13.90000570500281
 30
0.0
 10
189.4102003962144
 20
14.07435682550323
 30
0.0
 10
189.3146141301486
 20
14.29946603111243
 30
0.0
 10
189.2318652572626
 20
14.56388246006445
 30
0.0
 10
189.1807179256412
 20
14.88187933098546
 30
0.0
 10
189.0770189207337
 20
15.15543728488914
 30
0.0
 10
189.2042841208522
 20
15.5600581861287
 30
0.0
 10
189.0357890623018
 20
15.5511236784968
 30
0.0
 10
188.9511995787077
 20
15.55315961418365
 30
0.0
 10
188.8189876387628
 20
15.55213937388408
 30
0.0
 10
188.6560505094104
 20
15.55253230318431
 30
0.0
 10
188.4733759170533
 20
15.55235696313371
 30
0.0
 10
188.2847057373383
 20
15.5526010530747
 30
0.0
 10
188.1014469020189
 20
15.55185657906238
 30
0.0
 10
187.9404746832719
 20
15.55416360522428
 30
0.0
 10
187.8029808335276
 20
15.54799804883664
 30
0.0
 10
187.7289590372312
 20
15.56032838458212
 30
0.0
 10
187.6613215186857
 20
15.54329323723558
 30
0.0
 10
187.673237371927
 20
15.59524438447529
 30
0.0
 10
187.6655677285694
 20
15.6407142496653
 30
0.0
 10
187.6732592225117
 20
15.68614453703706
 30
0.0
 10
187.6613141797762
 20
15.73802395984572
 30
0.0
 10
187.7283588305868
 20
15.72119143490265
 30
0.0
 10
187.8017375665677
 20
15.73335409092672
 30
0.0
 10
187.9379128305272
 20
15.72727231074959
 30
0.0
 10
188.0973811801513
 20
15.72954834315059
 30
0.0
 10
188.2789173085836
 20
15.72881233998962
 30
0.0
 10
188.465803486218
 20
15.72905954196135
 30
0.0
 10
188.6468012316836
 20
15.72886400799254
 30
0.0
 10
188.8080802578879
 20
15.72932234714841
 30
0.0
 10
188.9393882124887
 20
15.72812673751207
 30
0.0
 10
189.0225051322597
 20
15.73051347319744
 30
0.0
 10
189.1556236547815
 20
15.72230605725465
 30
0.0
 10
189.0645893502659
 20
15.97752868952655
 30
0.0
 10
188.978963307442
 20
16.24164358328245
 30
0.0
 10
189.0990589003455
 20
16.22904442969163
 30
0.0
 10
189.1514264948544
 20
16.22694235763074
 30
0.0
 10
189.2214497569715
 20
16.22535399889657
 30
0.0
 10
189.2671922337817
 20
16.21602567538112
 30
0.0
 10
189.3220812646933
 20
16.22545966915428
 30
0.0
 10
189.2963574785682
 20
16.17733028655173
 30
0.0
 10
189.1825397571451
 20
16.1826682974418
 30
0.0
 10
189.3159346621138
 20
15.95449174576777
 30
0.0
 10
189.194365873547
 20
15.72156856595923
 30
0.0
 10
189.3223188769413
 20
15.7308725888444
 30
0.0
 10
189.4049048406461
 20
15.72801001754681
 30
0.0
 10
189.5307214850824
 20
15.72923437412303
 30
0.0
 10
189.6741469838059
 20
15.72932431888966
 30
0.0
 10
189.8157420951728
 20
15.72746163183854
 30
0.0
 10
189.9459127249968
 20
15.73333075937164
 30
0.0
 10
190.0193452286191
 20
15.72070340823205
 30
0.0
 10
190.0891112922097
 20
15.73877563110414
 30
0.0
 10
190.0775772605396
 20
15.68612850546327
 30
0.0
 10
190.0833184346682
 20
15.64221317686549
 30
0.0
 10
190.0816615770912
 20
15.59089982676551
 30
0.0
 10
190.081775756167
 20
15.56158792021636
 30
0.0
 10
190.081811433329
 20
15.55242795125079
 30
0.0
 11
190.081811433329
 21
15.55242795125079
 31
0.0
 11
190.0472127192052
 21
15.55242795125079
 31
0.0
 11
189.9559979274242
 21
15.55242795125079
 31
0.0
 11
189.8270390838718
 21
15.55242795125079
 31
0.0
 11
189.6792082144336
 21
15.55242795125079
 31
0.0
 11
189.5313773449955
 21
15.55242795125079
 31
0.0
 11
189.402418501443
 21
15.55242795125079
 31
0.0
 11
189.311203709662
 21
15.55242795125079
 31
0.0
 11
189.2766049955382
 21
15.55242795125079
 31
0.0
 11
189.3083140497693
 21
15.23435864930123
 31
0.0
 11
189.3527866656865
 21
14.93509522788082
 31
0.0
 11
189.4092389118319
 21
14.66191269512577
 31
0.0
 11
189.4768868567478
 21
14.42208605917227
 31
0.0
 11
189.5549465689761
 21
14.22289032815653
 31
0.0
 11
189.6426341170591
 21
14.07160051021475
 31
0.0
 11
189.7391655695388
 21
13.97549161348314
 31
0.0
 11
189.8437569949575
 21
13.94183864609789
 31
0.0
 11
189.8943077302786
 21
13.97177376978833
 31
0.0
 11
189.9310588991552
 21
14.06491619815048
 31
0.0
 11
189.9562640977528
 21
14.22627151712056
 31
0.0
 11
189.9721769222368
 21
14.46084531263479
 31
0.0
 11
190.0494082682584
 21
14.40202182306618
 31
0.0
 11
190.1327184184386
 21
14.3592188543269
 31
0.0
 11
190.1066365811218
 21
14.11528388661011
 31
0.0
 11
190.0673317805106
 21
13.94207902887564
 31
0.0
 11
190.0105702596765
 21
13.8301127244592
 31
0.0
 11
189.932118261691
 21
13.76989341669649
 31
0.0
 11
189.8277420296256
 21
13.7519295489232
 31
0.0
 11
189.6738595065097
 21
13.78957440012364
 31
0.0
 11
189.5388902376748
 21
13.89707348877406
 31
0.0
 11
189.4221739916163
 21
14.06627361744811
 31
0.0
 11
189.32305053683
 21
14.28902158871946
 31
0.0
 11
189.2408596418113
 21
14.55716420516174
 31
0.0
 11
189.1749410750559
 21
14.86254826934863
 31
0.0
 11
189.1246346050593
 21
15.19702058385376
 31
0.0
 11
189.0892800003171
 21
15.55242795125079
 31
0.0
 11
189.0561935405844
 21
15.55242795125079
 31
0.0
 11
188.9654726026075
 21
15.55242795125079
 31
0.0
 11
188.8299248482185
 21
15.55242795125079
 31
0.0
 11
188.6623579392495
 21
15.55242795125079
 31
0.0
 11
188.4755795375324
 21
15.55242795125079
 31
0.0
 11
188.2823973048993
 21
15.55242795125079
 31
0.0
 11
188.0956189031822
 21
15.55242795125079
 31
0.0
 11
187.9280519942131
 21
15.55242795125079
 31
0.0
 11
187.7925042398242
 21
15.55242795125079
 31
0.0
 11
187.7017833018473
 21
15.55242795125079
 31
0.0
 11
187.6686968421146
 21
15.55242795125079
 31
0.0
 11
187.6686968421146
 21
15.58001489785848
 31
0.0
 11
187.6686968421146
 21
15.64070618039539
 31
0.0
 11
187.6686968421146
 21
15.7013974629323
 31
0.0
 11
187.6686968421146
 21
15.72898440953999
 31
0.0
 11
187.7014723087632
 21
15.72898440953999
 31
0.0
 11
187.7913405237674
 21
15.72898440953999
 31
0.0
 11
187.9256142097149
 21
15.72898440953999
 31
0.0
 11
188.0916060891933
 21
15.72898440953999
 31
0.0
 11
188.2766288847902
 21
15.72898440953999
 31
0.0
 11
188.4679953190933
 21
15.72898440953999
 31
0.0
 11
188.6530181146902
 21
15.72898440953999
 31
0.0
 11
188.8190099941686
 21
15.72898440953999
 31
0.0
 11
188.9532836801161
 21
15.72898440953999
 31
0.0
 11
189.0431518951203
 21
15.72898440953999
 31
0.0
 11
189.0759273617689
 21
15.72898440953999
 31
0.0
 11
189.0659183950103
 21
15.97947647544962
 31
0.0
 11
189.0599112510663
 21
16.23196614552529
 31
0.0
 11
189.0860575870659
 21
16.2305692160812
 31
0.0
 11
189.1484065421419
 21
16.2272380766376
 31
0.0
 11
189.2228230369099
 21
16.22326220052749
 31
0.0
 11
189.2851719919859
 21
16.21993106108389
 31
0.0
 11
189.3113183279855
 21
16.2185341316398
 31
0.0
 11
189.298293111304
 21
16.19016528616084
 31
0.0
 11
189.2551649266405
 21
16.17581274276169
 31
0.0
 11
189.2574991961821
 21
15.95136670115109
 31
0.0
 11
189.2658452735903
 21
15.72898440953999
 31
0.0
 11
189.3009063195165
 21
15.72898440953999
 31
0.0
 11
189.3933399860495
 21
15.72898440953999
 31
0.0
 11
189.5240220663201
 21
15.72898440953999
 31
0.0
 11
189.6738283534596
 21
15.72898440953999
 31
0.0
 11
189.8236346405992
 21
15.72898440953999
 31
0.0
 11
189.9543167208698
 21
15.72898440953999
 31
0.0
 11
190.0467503874027
 21
15.72898440953999
 31
0.0
 11
190.081811433329
 21
15.72898440953999
 31
0.0
 11
190.081811433329
 21
15.7013974629323
 31
0.0
 11
190.081811433329
 21
15.64070618039539
 31
0.0
 11
190.081811433329
 21
15.58001489785848
 31
0.0
 11
190.081811433329
 21
15.55242795125079
 31
0.0
  0
SPLINE
  5
B0
102
{ACAD_REACTORS
330
CD
102
}
330
48
100
AcDbEntity
  8
_U_30EC_U_30A4_U_30E4_U_30FC_1
  6
Continuous
 62
     2
100
AcDbSpline
210
0.0
220
0.0
230
1.0
 70
    11
 71
     3
 72
    75
 73
    71
 74
    69
 42
0.000000001
 43
0.0000000001
 44
0.00000001
 40
0.0
 40
0.0
 40
0.0
 40
0.0
 40
0.0342546099129709
 40
0.1245622414432382
 40
0.2522385480897572
 40
0.3985991922940733
 40
0.5449598364980892
 40
0.6726361431438923
 40
0.7629437746737031
 40
0.7971983935298079
 40
1.101723623449636
 40
1.408591244036575
 40
1.433332471690272
 40
1.487763172450055
 40
1.542193873081877
 40
1.566935100592417
 40
1.923523931821787
 40
2.271755704953586
 40
2.590579755100856
 40
2.858943305581145
 40
2.88912033930912
 40
2.918305855191067
 40
2.941366645531185
 40
2.996357760973061
 40
3.061992318140591
 40
3.116983433626773
 40
3.140044223997448
 40
3.411273122936375
 40
3.732441619741148
 40
3.761068217532848
 40
3.837787499630417
 40
3.948858699126061
 40
4.08054104910445
 40
4.219093782625841
 40
4.350776132722403
 40
4.461847332405745
 40
4.538566614678483
 40
4.567193212544731
 40
4.594907573998989
 40
4.666381453557556
 40
4.764111044011195
 40
4.870592538126027
 40
4.968322128642478
 40
5.039796008287191
 40
5.06751036978465
 40
5.094263603185865
 40
5.153120716668501
 40
5.211977830150947
 40
5.238731063551952
 40
5.272290535139191
 40
5.363380529445052
 40
5.497618415781758
 40
5.660621563454
 40
5.838007341749701
 40
6.015393119911052
 40
6.178396267038706
 40
6.312634151842686
 40
6.403724143059676
 40
6.437283612672771
 40
6.464036846261389
 40
6.522893960005002
 40
6.581751071484269
 40
6.608504301591215
 40
6.637253941281362
 40
6.711397748903242
 40
6.812778057283826
 40
6.923237199249603
 40
7.024617507624218
 40
7.098761315207899
 40
7.12751094600785
 40
7.12751094600785
 40
7.12751094600785
 40
7.12751094600785
 10
188.4418622390565
 20
14.9584912847327
 30
0.0
 10
188.4418622819707
 20
14.94707313408726
 30
0.0
 10
188.4418624481129
 20
14.90555257842634
 30
0.0
 10
188.4418593081787
 20
14.82146922003778
 30
0.0
 10
188.4418788279802
 20
14.70004497322333
 30
0.0
 10
188.4417912187738
 20
14.55980494047453
 30
0.0
 10
188.4421116235231
 20
14.42006556794582
 30
0.0
 10
188.441160590974
 20
14.29745038894934
 30
0.0
 10
188.4431978595968
 20
14.21587074438048
 30
0.0
 10
188.4349433178746
 20
14.06271267077703
 30
0.0
 10
188.7430797940901
 20
14.22560236054721
 30
0.0
 10
189.0350645173737
 20
14.39482938687998
 30
0.0
 10
189.0408354448707
 20
14.25973235781909
 30
0.0
 10
189.0455471719891
 20
14.21617221160443
 30
0.0
 10
189.048253541192
 20
14.17211249350546
 30
0.0
 10
189.0672545672957
 20
14.0227259036313
 30
0.0
 10
188.6583942247304
 20
14.08681172241264
 30
0.0
 10
188.3793710348832
 20
13.97296341411016
 30
0.0
 10
188.1018081587167
 20
13.87364095811144
 30
0.0
 10
187.8099837184401
 20
13.91630687596354
 30
0.0
 10
187.7869144678657
 20
13.81321679744543
 30
0.0
 10
187.7537474383333
 20
13.78691091244474
 30
0.0
 10
187.7480653962738
 20
13.83455309036307
 30
0.0
 10
187.7284214559044
 20
13.87180336115071
 30
0.0
 10
187.7095089485623
 20
13.93007387847564
 30
0.0
 10
187.6942849867707
 20
13.97385201007804
 30
0.0
 10
187.6477246372937
 20
14.08759421046309
 30
0.0
 10
187.989089731245
 20
14.05576301120053
 30
0.0
 10
188.2679649367387
 20
14.02161435106473
 30
0.0
 10
188.2617753034908
 20
14.16913976479653
 30
0.0
 10
188.2630935452774
 20
14.24013150908833
 30
0.0
 10
188.2624831689949
 20
14.34719767958663
 30
0.0
 10
188.2625871570726
 20
14.47398529786
 30
0.0
 10
188.2629987964057
 20
14.60849243496053
 30
0.0
 10
188.2613907841969
 20
14.73395549951189
 30
0.0
 10
188.2659902567927
 20
14.84505246719123
 30
0.0
 10
188.256418650221
 20
14.90761886800694
 30
0.0
 10
188.2704001783692
 20
14.96595388295007
 30
0.0
 10
188.2147384386706
 20
14.95289710582244
 30
0.0
 10
188.1575655197822
 20
14.96136307749504
 30
0.0
 10
188.0616048925648
 20
14.95729976080642
 30
0.0
 10
187.9633767522821
 20
14.9597088985248
 30
0.0
 10
187.867258245756
 20
14.95551600613393
 30
0.0
 10
187.8104648525811
 20
14.96429346441168
 30
0.0
 10
187.7550356873384
 20
14.95094936850127
 30
0.0
 10
187.7670679427916
 20
15.00036910959262
 30
0.0
 10
187.7592003173937
 20
15.04393988030401
 30
0.0
 10
187.7666295563828
 20
15.08830469118531
 30
0.0
 10
187.7551930564143
 20
15.13902297763997
 30
0.0
 10
187.8232102370133
 20
15.12162460757749
 30
0.0
 10
187.8968496879746
 20
15.13417450237194
 30
0.0
 10
188.032506405821
 20
15.12799677011104
 30
0.0
 10
188.1884909024525
 20
15.13029203093089
 30
0.0
 10
188.3615926358144
 20
15.12940968262536
 30
0.0
 10
188.5346942964182
 20
15.13029207142414
 30
0.0
 10
188.6906789811216
 20
15.12799662955555
 30
0.0
 10
188.8263351889798
 20
15.13417486262438
 30
0.0
 10
188.8999756705653
 20
15.1216239421834
 30
0.0
 10
188.9679914174725
 20
15.13902373012148
 30
0.0
 10
188.9565590885923
 20
15.08830130414561
 30
0.0
 10
188.9639539458297
 20
15.04397060811114
 30
0.0
 10
188.9562039912273
 20
15.00028307550202
 30
0.0
 10
188.9681203741877
 20
14.95063590098483
 30
0.0
 10
188.9108170223618
 20
14.96461411338431
 30
0.0
 10
188.8520145789773
 20
14.9553975567326
 30
0.0
 10
188.75252936332
 20
14.95952268164935
 30
0.0
 10
188.6494280098349
 20
14.95822760025893
 30
0.0
 10
188.5537846354575
 20
14.95854077077647
 30
0.0
 10
188.4857467971616
 20
14.9584877669715
 30
0.0
 10
188.4514462213444
 20
14.95849051871662
 30
0.0
 10
188.4418622390565
 20
14.9584912847327
 30
0.0
 11
188.4418622390565
 21
14.9584912847327
 31
0.0
 11
188.4418622390565
 21
14.9242366658719
 31
0.0
 11
188.4418622390565
 21
14.83392903432981
 31
0.0
 11
188.4418622390565
 21
14.70625272766685
 31
0.0
 11
188.4418622390565
 21
14.55989208344345
 31
0.0
 11
188.4418622390565
 21
14.41353143922005
 31
0.0
 11
188.4418622390565
 21
14.28585513255709
 31
0.0
 11
188.4418622390565
 21
14.195547501015
 31
0.0
 11
188.4418622390565
 21
14.1612928821542
 31
0.0
 11
188.7391932644568
 21
14.2270947571377
 31
0.0
 11
189.0384623627245
 21
14.29496038212069
 31
0.0
 11
189.0405487124976
 21
14.27030727882825
 31
0.0
 11
189.0451386819987
 21
14.21607045158489
 31
0.0
 11
189.0497286514997
 21
14.16183362434153
 31
0.0
 11
189.0518150012729
 21
14.13718052104909
 31
0.0
 11
188.705639688924
 21
14.05163370140898
 31
0.0
 11
188.3669653138838
 21
13.97060877629902
 31
0.0
 11
188.0563731516688
 21
13.8986276402493
 31
0.0
 11
187.7944444777955
 21
13.8402121877899
 31
0.0
 11
187.7817515029292
 21
13.81283442738017
 31
0.0
 11
187.7569794787513
 21
13.79740260446739
 31
0.0
 11
187.7491867589501
 21
13.8191068339064
 31
0.0
 11
187.7306041194242
 21
13.87086307333788
 31
0.0
 11
187.70842483999
 21
13.93263664943351
 31
0.0
 11
187.689842200464
 21
13.98439288886499
 31
0.0
 11
187.6820494806628
 21
14.006097118304
 31
0.0
 11
187.9482776335931
 21
14.05794001759667
 31
0.0
 11
188.262633493629
 21
14.1237396877191
 31
0.0
 11
188.262633493629
 21
14.15236628569625
 31
0.0
 11
188.262633493629
 21
14.229085568275
 31
0.0
 11
188.262633493629
 21
14.34015676842633
 31
0.0
 11
188.262633493629
 21
14.4718391191212
 31
0.0
 11
188.262633493629
 21
14.61039185333059
 31
0.0
 11
188.262633493629
 21
14.74207420402547
 31
0.0
 11
188.262633493629
 21
14.8531454041768
 31
0.0
 11
188.262633493629
 21
14.92986468675555
 31
0.0
 11
188.262633493629
 21
14.9584912847327
 31
0.0
 11
188.2349191321109
 21
14.9584912847327
 31
0.0
 11
188.1634452524064
 21
14.9584912847327
 31
0.0
 11
188.0657156617901
 21
14.9584912847327
 31
0.0
 11
187.9592341675364
 21
14.9584912847327
 31
0.0
 11
187.8615045769201
 21
14.9584912847327
 31
0.0
 11
187.7900306972156
 21
14.9584912847327
 31
0.0
 11
187.7623163356975
 21
14.9584912847327
 31
0.0
 11
187.7623163356975
 21
14.98524451823295
 31
0.0
 11
187.7623163356975
 21
15.0441016319335
 31
0.0
 11
187.7623163356975
 21
15.10295874563405
 31
0.0
 11
187.7623163356975
 21
15.1297119791343
 31
0.0
 11
187.7958758072874
 21
15.1297119791343
 31
0.0
 11
187.8869658016031
 21
15.1297119791343
 31
0.0
 11
188.021203687963
 21
15.1297119791343
 31
0.0
 11
188.1842068356856
 21
15.1297119791343
 31
0.0
 11
188.3615926140897
 21
15.1297119791343
 31
0.0
 11
188.5389783924938
 21
15.1297119791343
 31
0.0
 11
188.7019815402165
 21
15.1297119791343
 31
0.0
 11
188.8362194265763
 21
15.1297119791343
 31
0.0
 11
188.9273094208919
 21
15.1297119791343
 31
0.0
 11
188.9608688924819
 21
15.1297119791343
 31
0.0
 11
188.9608688924819
 21
15.10295874563405
 31
0.0
 11
188.9608688924819
 21
15.0441016319335
 31
0.0
 11
188.9608688924819
 21
14.98524451823295
 31
0.0
 11
188.9608688924819
 21
14.9584912847327
 31
0.0
 11
188.9321192527878
 21
14.9584912847327
 31
0.0
 11
188.8579754451555
 21
14.9584912847327
 31
0.0
 11
188.7565951367605
 21
14.9584912847327
 31
0.0
 11
188.6461359947778
 21
14.9584912847327
 31
0.0
 11
188.5447556863828
 21
14.9584912847327
 31
0.0
 11
188.4706118787506
 21
14.9584912847327
 31
0.0
 11
188.4418622390565
 21
14.9584912847327
 31
0.0
  0
SPLINE
  5
B1
102
{ACAD_REACTORS
330
CE
102
}
330
48
100
AcDbEntity
  8
_U_30EC_U_30A4_U_30E4_U_30FC_1
  6
Continuous
 62
     2
100
AcDbSpline
210
0.0
220
0.0
230
1.0
 70
    11
 71
     3
 72
    15
 73
    11
 74
     9
 42
0.000000001
 43
0.0000000001
 44
0.00000001
 40
0.0
 40
0.0
 40
0.0
 40
0.0
 40
0.278553598509632
 40
0.5215624748198988
 40
0.6076917376041232
 40
0.693821000174238
 40
0.9405019146455764
 40
1.221691403489302
 40
1.300471877081189
 40
1.379252341684924
 40
1.379252341684924
 40
1.379252341684924
 40
1.379252341684924
 10
189.5681493630999
 20
16.22930267330379
 30
0.0
 10
189.6296017794178
 20
16.17691646592715
 30
0.0
 10
189.7446649974113
 20
16.07882876798221
 30
0.0
 10
190.0397348497245
 20
15.92889785897226
 30
0.0
 10
189.9025147631857
 20
15.84343227515019
 30
0.0
 10
189.8041227843778
 20
15.71085785201554
 30
0.0
 10
189.7130033590651
 20
16.01616985781424
 30
0.0
 10
189.3636839480655
 20
16.07967869465383
 30
0.0
 10
189.511925837657
 20
16.1789650988088
 30
0.0
 10
189.5494081874237
 20
16.21252348402382
 30
0.0
 10
189.5681493630999
 20
16.22930267330379
 30
0.0
 11
189.5681493630999
 21
16.22930267330379
 31
0.0
 11
189.7919222440596
 21
16.06341774278975
 31
0.0
 11
189.9695046306384
 21
15.8975328122757
 31
0.0
 11
189.9066308127979
 21
15.83866743034595
 31
0.0
 11
189.8437569949575
 21
15.7798020484162
 31
0.0
 11
189.6688535117725
 21
15.95375677059491
 31
0.0
 11
189.447825685614
 21
16.1275792011071
 31
0.0
 11
189.507987524357
 21
16.17844093720544
 31
0.0
 11
189.5681493630999
 21
16.22930267330379
 31
0.0
  0
SPLINE
  5
B2
102
{ACAD_REACTORS
330
CF
102
}
330
48
100
AcDbEntity
  8
_U_30EC_U_30A4_U_30E4_U_30FC_1
  6
Continuous
 62
     2
100
AcDbSpline
210
0.0
220
0.0
230
1.0
 70
    11
 71
     3
 72
    35
 73
    31
 74
    29
 42
0.000000001
 43
0.0000000001
 44
0.00000001
 40
0.0
 40
0.0
 40
0.0
 40
0.0
 40
0.0335231036621168
 40
0.0713218571712113
 40
0.4278866681486597
 40
0.8116865841963572
 40
1.198190237999995
 40
1.56137954681268
 40
1.659983174622056
 40
1.7593155738072
 40
2.132719617231078
 40
2.525233363588819
 40
2.910815397779683
 40
3.265244364303288
 40
3.592606723582033
 40
3.96438615460397
 40
4.359942131737794
 40
4.75815411863925
 40
4.843846538699863
 40
4.936650065543239
 40
5.256616602537321
 40
5.581707404416058
 40
5.899719158308157
 40
6.198363494280759
 40
6.46630104661578
 40
6.493895311537102
 40
6.559697020196923
 40
6.638234543442526
 40
6.704036252154335
 40
6.731630508423141
 40
6.731630508423141
 40
6.731630508423141
 40
6.731630508423141
 10
191.973601056867
 20
16.23463843719139
 30
0.0
 10
191.967600609779
 20
16.22480690542327
 30
0.0
 10
191.9548344099158
 20
16.20388988579804
 30
0.0
 10
191.7949362006556
 20
16.17127126532672
 30
0.0
 10
192.2322025842338
 20
15.88206680336711
 30
0.0
 10
192.4345394828262
 20
15.68041138358441
 30
0.0
 10
192.6819564267974
 20
15.43749387603279
 30
0.0
 10
193.1831513624607
 20
15.36047662757777
 30
0.0
 10
193.0125562198971
 20
15.21876939174659
 30
0.0
 10
192.93832994632
 20
15.01710366209118
 30
0.0
 10
192.6131432248188
 20
15.36956287174729
 30
0.0
 10
192.3277741670663
 20
15.53175212559564
 30
0.0
 10
192.0337604077657
 20
15.7368713005305
 30
0.0
 10
191.8084452691135
 20
16.2182748859546
 30
0.0
 10
191.5993085055521
 20
15.75343046609227
 30
0.0
 10
191.3207873674835
 20
15.54350952252913
 30
0.0
 10
191.0371383177208
 20
15.37424456359987
 30
0.0
 10
190.7078639527832
 20
15.00142360907943
 30
0.0
 10
190.6277012318225
 20
15.19708014459005
 30
0.0
 10
190.4759724909743
 20
15.32491104190596
 30
0.0
 10
190.9083395826795
 20
15.40454031765941
 30
0.0
 10
191.0962565329766
 20
15.60026634915477
 30
0.0
 10
191.3468477420503
 20
15.8163299691676
 30
0.0
 10
191.5714350470161
 20
15.98190992300062
 30
0.0
 10
191.6259775409714
 20
16.26133964636832
 30
0.0
 10
191.7494661029011
 20
16.24737950408081
 30
0.0
 10
191.806027334452
 20
16.24521268867651
 30
0.0
 10
191.8761870984945
 20
16.24046859881364
 30
0.0
 10
191.9333414022107
 20
16.23709429350546
 30
0.0
 10
191.9644190320839
 20
16.23519854711124
 30
0.0
 10
191.973601056867
 20
16.23463843719139
 30
0.0
 11
191.973601056867
 21
16.23463843719139
 31
0.0
 11
191.9525319069885
 21
16.20856374969788
 31
0.0
 11
191.9174464559426
 21
16.1945011455347
 31
0.0
 11
192.1512374769095
 21
15.92527961131385
 31
0.0
 11
192.4414585957567
 21
15.67413407969263
 31
0.0
 11
192.7612797483684
 21
15.45710987618787
 31
0.0
 11
193.083870870629
 21
15.29025232631639
 31
0.0
 11
193.0213299868077
 21
15.21402035584931
 31
0.0
 11
192.9688035818975
 21
15.1297119791343
 31
0.0
 11
192.6436279095814
 21
15.31326404831584
 31
0.0
 11
192.3237227768436
 21
15.54070139743431
 31
0.0
 11
192.0354200158608
 21
15.79673855123312
 31
0.0
 11
191.8050514588095
 21
16.0660900344557
 31
0.0
 11
191.5995531719516
 21
15.81126348721039
 31
0.0
 11
191.3288301341536
 21
15.55645182277758
 31
0.0
 11
191.0119538423247
 21
15.31969466354857
 31
0.0
 11
190.6679957933742
 21
15.11903163191469
 31
0.0
 11
190.6218855341338
 21
15.19126067703554
 31
0.0
 11
190.5636970460348
 21
15.2635558679897
 31
0.0
 11
190.8433040489015
 21
15.41911456961748
 31
0.0
 11
191.1093004621154
 21
15.60601009790409
 31
0.0
 11
191.3499997459746
 21
15.81384496285213
 31
0.0
 11
191.5537153607774
 21
16.0322216744642
 31
0.0
 11
191.7087607668218
 21
16.2507427427429
 31
0.0
 11
191.7363041569865
 21
16.24906789496554
 31
0.0
 11
191.8019845489177
 21
16.24507402718877
 31
0.0
 11
191.8803772747711
 21
16.24030715274552
 31
0.0
 11
191.9460576667023
 21
16.23631328496874
 31
0.0
 11
191.973601056867
 21
16.23463843719139
 31
0.0
  0
SPLINE
  5
B3
102
{ACAD_REACTORS
330
D0
102
}
330
48
100
AcDbEntity
  8
_U_30EC_U_30A4_U_30E4_U_30FC_1
  6
Continuous
 62
     2
100
AcDbSpline
210
0.0
220
0.0
230
1.0
 70
    11
 71
     3
 72
    91
 73
    87
 74
    85
 42
0.000000001
 43
0.0000000001
 44
0.00000001
 40
0.0
 40
0.0
 40
0.0
 40
0.0
 40
0.0267532254356666
 40
0.085610338646396
 40
0.144467452199639
 40
0.171220685661823
 40
0.2039416005642252
 40
0.29556019716522
 40
0.4362601844616634
 40
0.6162252844506966
 40
0.8256392189704698
 40
1.054685709844382
 40
1.293548478893503
 40
1.532411247938246
 40
1.761457738799511
 40
1.97087167329848
 40
2.150836773256676
 40
2.291536760495537
 40
2.383155356836615
 40
2.415876284101263
 40
2.442629517487901
 40
2.501486630949024
 40
2.560343744424164
 40
2.587096977826429
 40
2.617068194440857
 40
2.699247336755998
 40
2.822032643466282
 40
2.973822353257812
 40
3.143014704823254
 40
3.318007936879805
 40
3.487200288186666
 40
3.638989997548147
 40
3.761775303794646
 40
3.84395444575298
 40
3.873925662229676
 40
3.890812773500387
 40
3.907699884771542
 40
3.937960767857192
 40
3.980983618142282
 40
4.199085915228389
 40
4.439444339237169
 40
4.677588241260866
 40
5.050698317837751
 40
5.448212454763137
 40
5.855291218044662
 40
6.138575438885339
 40
6.417434507584183
 40
6.444551104393867
 40
6.50420761736317
 40
6.563864130314496
 40
6.59098072710409
 40
6.848609460381505
 40
7.109611990668468
 40
7.35291090444611
 40
7.557830220705467
 40
7.587518925913381
 40
7.652834077375791
 40
7.718149228845718
 40
7.747837934062018
 40
7.854880190300945
 40
7.976511257403403
 40
8.369487896592233
 40
8.757514959223583
 40
9.126072419331045
 40
9.46063938039205
 40
9.746695593035733
 40
9.777569943118493
 40
9.80705032093167
 40
9.8303773361288
 40
9.886003295435867
 40
9.95239556942977
 40
10.00802152870611
 40
10.03134854388204
 40
10.2135695100958
 40
10.42203479292857
 40
10.66154556731051
 40
10.91693789564294
 40
11.15832906556559
 40
11.18982674596614
 40
11.27286608520401
 40
11.3902665303334
 40
11.52484752840876
 40
11.65942852648432
 40
11.77682897161471
 40
11.85986831085665
 40
11.8913659823041
 40
11.8913659823041
 40
11.8913659823041
 40
11.8913659823041
 10
190.7027885008197
 20
14.70699600701779
 30
0.0
 10
190.7028237765288
 20
14.71587847311992
 30
0.0
 10
190.7029366710797
 20
14.74430237047353
 30
0.0
 10
190.7012984568491
 20
14.79409639169809
 30
0.0
 10
190.7069750292912
 20
14.83657564478159
 30
0.0
 10
190.6956928731708
 20
14.88730154856851
 30
0.0
 10
190.7632296979033
 20
14.87012900740113
 30
0.0
 10
190.8388029210701
 20
14.88290227166
 30
0.0
 10
190.9828357056002
 20
14.87629729457386
 30
0.0
 10
191.1569419185427
 20
14.8788846220647
 30
0.0
 10
191.3639599611005
 20
14.87800591955557
 30
0.0
 10
191.5894688172378
 20
14.87828207920031
 30
0.0
 10
191.8251162293406
 20
14.87818339658666
 30
0.0
 10
192.0607640531349
 20
14.87828184412771
 30
0.0
 10
192.2862717580627
 20
14.87800678190793
 30
0.0
 10
192.4932934632806
 20
14.87888186270739
 30
0.0
 10
192.6673888915289
 20
14.87630522678451
 30
0.0
 10
192.8114492071986
 20
14.88288290449217
 30
0.0
 10
192.8869691915293
 20
14.87016243405608
 30
0.0
 10
192.9545776037031
 20
14.88726400191691
 30
0.0
 10
192.9430840140676
 20
14.83674785802945
 30
0.0
 10
192.9505104581735
 20
14.79253252226507
 30
0.0
 10
192.9428838927986
 20
14.74867966503616
 30
0.0
 10
192.9546489459426
 20
14.69878374479335
 30
0.0
 10
192.8930788491984
 20
14.71393227712519
 30
0.0
 10
192.8256791738672
 20
14.70310665350681
 30
0.0
 10
192.7013004056222
 20
14.70852031626243
 30
0.0
 10
192.5554428236572
 20
14.70649205390792
 30
0.0
 10
192.3893576440086
 20
14.70715777578394
 30
0.0
 10
192.2188412621725
 20
14.70689643521249
 30
0.0
 10
192.051979085539
 20
14.70721553391101
 30
0.0
 10
191.9087346827106
 20
14.70635302590769
 30
0.0
 10
191.7773313869835
 20
14.70863300482995
 30
0.0
 10
191.7239859134657
 20
14.70407704374208
 30
0.0
 10
191.6485188456913
 20
14.70999914992884
 30
0.0
 10
191.6769075779233
 20
14.70094169343359
 30
0.0
 10
191.7033652409542
 20
14.69725912268932
 30
0.0
 10
191.6633522907702
 20
14.66654271968275
 30
0.0
 10
191.5713663691868
 20
14.67667591174635
 30
0.0
 10
191.543939620707
 20
14.43032502247786
 30
0.0
 10
191.4478793967234
 20
14.27499558764376
 30
0.0
 10
191.1917277964473
 20
13.9452541793157
 30
0.0
 10
191.7627537732762
 20
14.08430022210449
 30
0.0
 10
192.0173656320517
 20
14.08291779973365
 30
0.0
 10
192.6279647048616
 20
13.99790569242079
 30
0.0
 10
192.3340698578084
 20
14.29685417558207
 30
0.0
 10
192.0133304286517
 20
14.44330856901777
 30
0.0
 10
192.1313543360434
 20
14.50025540818286
 30
0.0
 10
192.1724716466261
 20
14.52420099873347
 30
0.0
 10
192.215681239441
 20
14.5459975881123
 30
0.0
 10
192.3174574094451
 20
14.60928721253905
 30
0.0
 10
192.4328867625247
 20
14.35147151408779
 30
0.0
 10
192.6329591642278
 20
14.21616041113681
 30
0.0
 10
192.7269077387228
 20
14.0379279513888
 30
0.0
 10
192.9558829746394
 20
13.87997821027047
 30
0.0
 10
192.8596031846707
 20
13.82915972576301
 30
0.0
 10
192.816795976378
 20
13.79881292523057
 30
0.0
 10
192.7718243528779
 20
13.77466130281462
 30
0.0
 10
192.7121720925213
 20
13.72552146747574
 30
0.0
 10
192.6789731061326
 20
13.8599747567361
 30
0.0
 10
192.5582013350795
 20
14.01594265286579
 30
0.0
 10
192.1970976005979
 20
13.88569928059552
 30
0.0
 10
191.838506195554
 20
13.90224694409481
 30
0.0
 10
191.457092045008
 20
13.89331229351862
 30
0.0
 10
191.170345528289
 20
13.82882671672409
 30
0.0
 10
190.8592055599718
 20
13.94230668192819
 30
0.0
 10
190.8268737818788
 20
13.83122259927768
 30
0.0
 10
190.7896178253318
 20
13.81196313850015
 30
0.0
 10
190.7865737632753
 20
13.85874784087298
 30
0.0
 10
190.7679892860608
 20
13.89806853919138
 30
0.0
 10
190.7512436616778
 20
13.95765983478233
 30
0.0
 10
190.7383730915753
 20
14.00201969871284
 30
0.0
 10
190.7042327806429
 20
14.09106331120202
 30
0.0
 10
190.9482714457753
 20
14.02181042943777
 30
0.0
 10
191.1441394486672
 20
14.00030369057741
 30
0.0
 10
191.2395426381276
 20
14.28226484478464
 30
0.0
 10
191.2945135769597
 20
14.44363045421124
 30
0.0
 10
191.5159619357156
 20
14.71391177589746
 30
0.0
 10
191.3849239381216
 20
14.70548446853741
 30
0.0
 10
191.3110026555854
 20
14.70779008496977
 30
0.0
 10
191.1977459876244
 20
14.70671378321665
 30
0.0
 10
191.0694251807485
 20
14.70707639076517
 30
0.0
 10
190.9404252030416
 20
14.70697724466093
 30
0.0
 10
190.8287840946292
 20
14.70699932712579
 30
0.0
 10
190.7514663970027
 20
14.70699579189677
 30
0.0
 10
190.7132876532011
 20
14.70699595845088
 30
0.0
 10
190.7027885008197
 20
14.70699600701779
 30
0.0
 11
190.7027885008197
 21
14.70699600701779
 31
0.0
 11
190.7027885008197
 21
14.73374924051804
 31
0.0
 11
190.7027885008197
 21
14.79260635421859
 31
0.0
 11
190.7027885008197
 21
14.85146346791914
 31
0.0
 11
190.7027885008197
 21
14.87821670141939
 31
0.0
 11
190.735509428099
 21
14.87821670141939
 31
0.0
 11
190.827128024481
 21
14.87821670141939
 31
0.0
 11
190.967828011782
 21
14.87821670141939
 31
0.0
 11
191.1477931118181
 21
14.87821670141939
 31
0.0
 11
191.3572070464055
 21
14.87821670141939
 31
0.0
 11
191.5862535373605
 21
14.87821670141939
 31
0.0
 11
191.8251163064994
 21
14.87821670141939
 31
0.0
 11
192.0639790756382
 21
14.87821670141939
 31
0.0
 11
192.2930255665932
 21
14.87821670141939
 31
0.0
 11
192.5024395011806
 21
14.87821670141939
 31
0.0
 11
192.6824046012168
 21
14.87821670141939
 31
0.0
 11
192.8231045885177
 21
14.87821670141939
 31
0.0
 11
192.9147231848997
 21
14.87821670141939
 31
0.0
 11
192.947444112179
 21
14.87821670141939
 31
0.0
 11
192.947444112179
 21
14.85146346791914
 31
0.0
 11
192.947444112179
 21
14.79260635421859
 31
0.0
 11
192.947444112179
 21
14.73374924051804
 31
0.0
 11
192.947444112179
 21
14.70699600701779
 31
0.0
 11
192.9174728954758
 21
14.70699600701779
 31
0.0
 11
192.8352937529027
 21
14.70699600701779
 31
0.0
 11
192.7125084457641
 21
14.70699600701779
 31
0.0
 11
192.5607187353643
 21
14.70699600701779
 31
0.0
 11
192.3915263830079
 21
14.70699600701779
 31
0.0
 11
192.2165331499992
 21
14.70699600701779
 31
0.0
 11
192.0473407976427
 21
14.70699600701779
 31
0.0
 11
191.8955510872429
 21
14.70699600701779
 31
0.0
 11
191.7727657801043
 21
14.70699600701779
 31
0.0
 11
191.6905866375311
 21
14.70699600701779
 31
0.0
 11
191.660615420828
 21
14.70699600701779
 31
0.0
 11
191.6766359412526
 21
14.701655833408
 31
0.0
 11
191.6926564616772
 21
14.6963156597982
 31
0.0
 11
191.6706155681421
 21
14.67558114591444
 31
0.0
 11
191.6284861855363
 21
14.6668587153611
 31
0.0
 11
191.5365235541378
 21
14.46909247312658
 31
0.0
 11
191.4279078521764
 21
14.25467511978512
 31
0.0
 11
191.3127500824807
 21
14.0462255905162
 31
0.0
 11
191.685736667502
 21
14.05582441253028
 31
0.0
 11
192.083070003615
 21
14.06781232404994
 31
0.0
 11
192.4899342191145
 21
14.08102711828529
 31
0.0
 11
192.2983119496979
 21
14.28966761302481
 31
0.0
 11
192.0966752013698
 21
14.4822942015183
 31
0.0
 11
192.1204947794749
 21
14.49525327269563
 31
0.0
 11
192.1728978513061
 21
14.52376322928575
 31
0.0
 11
192.2253009231374
 21
14.55227318587587
 31
0.0
 11
192.2491205012425
 21
14.5652322570532
 31
0.0
 11
192.4387101558627
 21
14.39079508370266
 31
0.0
 11
192.6200310940436
 21
14.20305846374089
 31
0.0
 11
192.7777729231147
 21
14.01782380992435
 31
0.0
 11
192.8966252504058
 21
13.85089253500949
 31
0.0
 11
192.8715408217923
 21
13.8350120228607
 31
0.0
 11
192.8163550788425
 21
13.80007489613335
 31
0.0
 11
192.7611693358928
 21
13.765137769406
 31
0.0
 11
192.7360849072793
 21
13.7492572572572
 31
0.0
 11
192.6775518151613
 21
13.83887824681812
 31
0.0
 11
192.6050015078458
 21
13.93650288221029
 31
0.0
 11
192.2125412924095
 21
13.91636286943756
 31
0.0
 11
191.824947406956
 21
13.8980330299977
 31
0.0
 11
191.4567378976213
 21
13.88202178722393
 31
0.0
 11
191.1224308105413
 21
13.86883756444946
 31
0.0
 11
190.8365441918519
 21
13.8589887850075
 31
0.0
 11
190.8211862321741
 21
13.83220523466699
 31
0.0
 11
190.7937434290546
 21
13.82143559057249
 31
0.0
 11
190.7867927192319
 21
13.84370299445581
 31
0.0
 11
190.7702179496548
 21
13.89680218833141
 31
0.0
 11
190.7504351601596
 21
13.96017864553778
 31
0.0
 11
190.7338603905825
 21
14.01327783941338
 31
0.0
 11
190.7269096807598
 21
14.0355452432967
 31
0.0
 11
190.9091199859153
 21
14.03751638912955
 31
0.0
 11
191.1174975848588
 21
14.0435621182947
 31
0.0
 11
191.2303203127216
 21
14.25483550301553
 31
0.0
 11
191.3407936722035
 21
14.48509813155882
 31
0.0
 11
191.4358254265627
 21
14.70699600701779
 31
0.0
 11
191.4043277461597
 21
14.70699600701779
 31
0.0
 11
191.3212884069153
 21
14.70699600701779
 31
0.0
 11
191.2038879617768
 21
14.70699600701779
 31
0.0
 11
191.0693069636912
 21
14.70699600701779
 31
0.0
 11
190.9347259656056
 21
14.70699600701779
 31
0.0
 11
190.817325520467
 21
14.70699600701779
 31
0.0
 11
190.7342861812227
 21
14.70699600701779
 31
0.0
 11
190.7027885008197
 21
14.70699600701779
 31
0.0
  0
SPLINE
  5
B4
102
{ACAD_REACTORS
330
D1
102
}
330
48
100
AcDbEntity
  8
_U_30EC_U_30A4_U_30E4_U_30FC_1
  6
Continuous
 62
     2
100
AcDbSpline
210
0.0
220
0.0
230
1.0
 70
    11
 71
     3
 72
   131
 73
   127
 74
   125
 42
0.000000001
 43
0.0000000001
 44
0.00000001
 40
0.0
 40
0.0
 40
0.0
 40
0.0
 40
0.0195577029826128
 40
0.0426490537461458
 40
0.2863607575856243
 40
0.5344948436189072
 40
0.7842238845572744
 40
0.8737315789466401
 40
0.9803832810311645
 40
1.092842274516909
 40
1.199761146656664
 40
1.289788768186386
 40
1.351573580786115
 40
1.370727117561357
 40
1.416400936017785
 40
1.470914848355924
 40
1.516588666791744
 40
1.535742203552825
 40
1.634216592293163
 40
1.760283341174992
 40
1.897966686682046
 40
2.031216387368865
 40
2.04968975113786
 40
2.101115601646798
 40
2.179502577739919
 40
2.278859318314039
 40
2.3931944622587
 40
2.516516648383821
 40
2.642834515405953
 40
2.766156701983462
 40
2.88049184675458
 40
2.979848588358626
 40
3.058235565443807
 40
3.109661416668963
 40
3.128134780704141
 40
3.146783742386457
 40
3.191254343315318
 40
3.244332157315977
 40
3.288802758225881
 40
3.307451719895123
 40
3.327717853844735
 40
3.383747753580099
 40
3.468388665924493
 40
3.574487837698802
 40
3.69489251572891
 40
3.822449946852052
 40
3.950007377920445
 40
4.07041205580054
 40
4.176511227368099
 40
4.261152139501545
 40
4.317182039076741
 40
4.337448172964661
 40
4.620011002696232
 40
4.885096638397466
 40
4.945373043518303
 40
5.01410771048867
 40
5.070481727652025
 40
5.319246955636511
 40
5.584812164505958
 40
5.859000912056785
 40
6.133746937541964
 40
6.401732212968787
 40
6.420736683995377
 40
6.472845717451028
 40
6.550702743893956
 40
6.646951193874164
 40
6.754234497930488
 40
6.865196086587266
 40
6.972479390357725
 40
7.068727839771887
 40
7.146584865450896
 40
7.198693898189125
 40
7.217698368905266
 40
7.234950401630744
 40
7.276089864269784
 40
7.325191803515889
 40
7.366331266090274
 40
7.383583298769624
 40
7.402779163492001
 40
7.453386443254432
 40
7.524934666445434
 40
7.606953361405774
 40
7.688972056428925
 40
7.760520279784176
 40
7.811127559734418
 40
7.830323424546039
 40
7.847844055299666
 40
7.894799345666705
 40
7.962779392744388
 40
8.043374293560428
 40
8.128174145149327
 40
8.208769044817124
 40
8.276749090376821
 40
8.32370437966938
 40
8.34122501005611
 40
8.358497614800287
 40
8.40167912668652
 40
8.457815092185578
 40
8.51395105772804
 40
8.557132569707996
 40
8.574405174505038
 40
8.602340668616456
 40
8.643455660540003
 40
8.66322527196667
 40
8.715345156564307
 40
8.789031889628628
 40
8.873502045520347
 40
8.957972194323958
 40
9.031658925567838
 40
9.083778811234518
 40
9.103548423002978
 40
9.119550083123515
 40
9.160817522379817
 40
9.217244429110183
 40
9.278724491644669
 40
9.335151398295453
 40
9.376418837357749
 40
9.392420497300536
 40
9.401196302734757
 40
9.417494229384236
 40
9.426270027749508
 40
9.440875075477544
 40
9.475702496998728
 40
9.517270709865898
 40
9.552098131994072
 40
9.566703169884283
 40
9.566703169884283
 40
9.566703169884283
 40
9.566703169884283
 10
194.6170254148479
 20
15.67015871511029
 30
0.0
 10
194.6134345093371
 20
15.66453690702161
 30
0.0
 10
194.6056039123624
 20
15.65227754419114
 30
0.0
 10
194.5129968974549
 20
15.61601916040974
 30
0.0
 10
194.4887622233248
 20
15.40148444212711
 30
0.0
 10
194.3858709845939
 20
15.2219728450971
 30
0.0
 10
194.1220492364306
 20
15.03615573798149
 30
0.0
 10
194.284547156918
 20
14.95959336566082
 30
0.0
 10
194.3607225760838
 20
14.89856693195444
 30
0.0
 10
194.4492171072759
 20
14.83515804544762
 30
0.0
 10
194.538993023311
 20
14.77525634219563
 30
0.0
 10
194.5883817636046
 20
14.72102154849211
 30
0.0
 10
194.6745708157383
 20
14.69286240541839
 30
0.0
 10
194.641126067423
 20
14.65713309652818
 30
0.0
 10
194.6214671166311
 20
14.62550387991913
 30
0.0
 10
194.5919888217883
 20
14.58475872796074
 30
0.0
 10
194.5688989446031
 20
14.55504663489652
 30
0.0
 10
194.5380205968357
 20
14.502114226685
 30
0.0
 10
194.472919336574
 20
14.62740334938907
 30
0.0
 10
194.3796000122416
 20
14.68213900233938
 30
0.0
 10
194.2950636285138
 20
14.73916423939347
 30
0.0
 10
194.1722498125743
 20
14.89675287427524
 30
0.0
 10
194.1764450847301
 20
14.82035806766838
 30
0.0
 10
194.1751478652677
 20
14.77361280161297
 30
0.0
 10
194.1758126448077
 20
14.69584785812603
 30
0.0
 10
194.1755549986956
 20
14.59902068324423
 30
0.0
 10
194.1756431239922
 20
14.4865027907881
 30
0.0
 10
194.1756077302281
 20
14.36524085945699
 30
0.0
 10
194.1756511758278
 20
14.2408689785896
 30
0.0
 10
194.1755199942405
 20
14.11967683631335
 30
0.0
 10
194.1759477562046
 20
14.00691148919741
 30
0.0
 10
194.174667820231
 20
13.91082913768742
 30
0.0
 10
194.1779759851043
 20
13.83113826468697
 30
0.0
 10
194.1715197740087
 20
13.78815175788782
 30
0.0
 10
194.1806208705555
 20
13.74955432372039
 30
0.0
 10
194.1447910339935
 20
13.75810887724068
 30
0.0
 10
194.1115223815252
 20
13.75342519985444
 30
0.0
 10
194.0604562576041
 20
13.75351298759782
 30
0.0
 10
194.0269723972812
 20
13.75794430283818
 30
0.0
 10
193.9907585408754
 20
13.74960793842506
 30
0.0
 10
194.0009782568665
 20
13.79145277179282
 30
0.0
 10
193.9936487887774
 20
13.83778560820171
 30
0.0
 10
193.9973633136102
 20
13.92374831106012
 30
0.0
 10
193.9959480554897
 20
14.02605142704847
 30
0.0
 10
193.9964105554638
 20
14.1445322393151
 30
0.0
 10
193.9962773686231
 20
14.26957683153354
 30
0.0
 10
193.9963015910044
 20
14.39475828107048
 30
0.0
 10
193.9963354925551
 20
14.51286645379057
 30
0.0
 10
193.9962060293132
 20
14.61628748709515
 30
0.0
 10
193.996550754908
 20
14.69932036153666
 30
0.0
 10
193.9958698278691
 20
14.75143368521243
 30
0.0
 10
193.9994586600621
 20
14.87912907821359
 30
0.0
 10
193.7826171386437
 20
14.58048716819621
 30
0.0
 10
193.6021354921951
 20
14.35263981511511
 30
0.0
 10
193.5490322295613
 20
14.49373443289817
 30
0.0
 10
193.5200429133149
 20
14.54325767560939
 30
0.0
 10
193.4196648062822
 20
14.64641779790118
 30
0.0
 10
193.7405127723261
 20
14.7269503502378
 30
0.0
 10
193.8689897005429
 20
14.91066283036439
 30
0.0
 10
194.0906454325359
 20
15.11931995771766
 30
0.0
 10
194.1770224894067
 20
15.29339211228346
 30
0.0
 10
194.4549394229075
 20
15.56967051342517
 30
0.0
 10
194.3346247839284
 20
15.56534559551119
 30
0.0
 10
194.2863197351349
 20
15.56614856202558
 30
0.0
 10
194.2102377454905
 20
15.56574582146589
 30
0.0
 10
194.116701000975
 20
15.56590275611614
 30
0.0
 10
194.0117594788557
 20
15.56582502576229
 30
0.0
 10
193.9033887738717
 20
15.56595464378559
 30
0.0
 10
193.7981454235897
 20
15.56554393490697
 30
0.0
 10
193.7056237819412
 20
15.56682073671596
 30
0.0
 10
193.6268130800708
 20
15.56340766534855
 30
0.0
 10
193.5839674565379
 20
15.57023350036325
 30
0.0
 10
193.5449499586516
 20
15.56065064201129
 30
0.0
 10
193.5526365271863
 20
15.59420779565547
 30
0.0
 10
193.5485464404312
 20
15.62523550322238
 30
0.0
 10
193.5485531368814
 20
15.67236529270904
 30
0.0
 10
193.5526239724911
 20
15.70340941646783
 30
0.0
 10
193.5449495574582
 20
15.73701861635905
 30
0.0
 10
193.5834819405495
 20
15.72748410420876
 30
0.0
 10
193.624122801448
 20
15.73397435498075
 30
0.0
 10
193.6951471850463
 20
15.73100150650257
 30
0.0
 10
193.7729318149633
 20
15.73174761399161
 30
0.0
 10
193.8507292246474
 20
15.73247814044529
 30
0.0
 10
193.9217232089907
 20
15.72954235514164
 30
0.0
 10
193.962427979182
 20
15.73595468772956
 30
0.0
 10
194.0009853489909
 20
15.72650524176008
 30
0.0
 10
193.9927342754927
 20
15.76264692158788
 30
0.0
 10
193.9982346669358
 20
15.8012983761323
 30
0.0
 10
193.9955754206163
 20
15.86913528561841
 30
0.0
 10
193.9965815471533
 20
15.94591641538742
 30
0.0
 10
193.9960178018319
 20
16.02849393582758
 30
0.0
 10
193.9970714526592
 20
16.10517329229879
 30
0.0
 10
193.9942675863131
 20
16.173319907767
 30
0.0
 10
194.0000702721303
 20
16.21132399809347
 30
0.0
 10
193.9915654551159
 20
16.24758448077647
 30
0.0
 10
194.0255610233125
 20
16.23755723771852
 30
0.0
 10
194.0594575683099
 20
16.24073266813706
 30
0.0
 10
194.1126669060347
 20
16.23508965640608
 30
0.0
 10
194.1660768574484
 20
16.23434774436424
 30
0.0
 10
194.1995914649492
 20
16.22819223482978
 30
0.0
 10
194.2388086183041
 20
16.2334602977359
 30
0.0
 10
194.2120263698491
 20
16.19253380793491
 30
0.0
 10
194.1708111001723
 20
16.20371204538107
 30
0.0
 10
194.1782641540874
 20
16.15867056192122
 30
0.0
 10
194.1742227952184
 20
16.11412278028142
 30
0.0
 10
194.176171404964
 20
16.04223572621702
 30
0.0
 10
194.1752364849758
 20
15.96168630588771
 30
0.0
 10
194.176510719003
 20
15.88173995404996
 30
0.0
 10
194.1732043793864
 20
15.80841837083185
 30
0.0
 10
194.1802106179961
 20
15.76688643002572
 30
0.0
 10
194.1701440380126
 20
15.72752418568117
 30
0.0
 10
194.2029814803921
 20
15.73468063430985
 30
0.0
 10
194.236457729648
 20
15.73027243137948
 30
0.0
 10
194.2915053476019
 20
15.73217943347901
 30
0.0
 10
194.3489502595314
 20
15.73185366407292
 30
0.0
 10
194.4023026248309
 20
15.73106308733085
 30
0.0
 10
194.4398540896639
 20
15.73313959118078
 30
0.0
 10
194.4623172523236
 20
15.73022338167112
 30
0.0
 10
194.4751678073731
 20
15.73572552644061
 30
0.0
 10
194.4858255685889
 20
15.73801118197796
 30
0.0
 10
194.4986635650143
 20
15.74494972588059
 30
0.0
 10
194.514599103307
 20
15.72853046313677
 30
0.0
 10
194.5410623920892
 20
15.71709122319453
 30
0.0
 10
194.5726805253758
 20
15.69644687835194
 30
0.0
 10
194.598725589215
 20
15.68116869628295
 30
0.0
 10
194.6128517723974
 20
15.67266976323186
 30
0.0
 10
194.6170254148479
 20
15.67015871511029
 30
0.0
 11
194.6170254148479
 21
15.67015871511029
 31
0.0
 11
194.6049990002243
 21
15.6547357116419
 31
0.0
 11
194.5848961795565
 21
15.64337406233919
 31
0.0
 11
194.4778986355814
 21
15.42440620231159
 31
0.0
 11
194.3477039934325
 21
15.21317201512161
 31
0.0
 11
194.1996540366072
 21
15.0120605902748
 31
0.0
 11
194.2734958253735
 21
14.96147384935381
 31
0.0
 11
194.36056643118
 21
14.89988411653741
 31
0.0
 11
194.4518003750405
 21
14.83413160594428
 31
0.0
 11
194.5381321779688
 21
14.77105653169308
 31
0.0
 11
194.6104963609788
 21
14.71749910790246
 31
0.0
 11
194.6598274450844
 21
14.6802995486911
 31
0.0
 11
194.6486940702214
 21
14.664714108695
 31
0.0
 11
194.6221452532403
 21
14.6275488287043
 31
0.0
 11
194.5904579555533
 21
14.58319026871539
 31
0.0
 11
194.5639091385723
 21
14.54602498872469
 31
0.0
 11
194.5527757637093
 21
14.53043954872859
 31
0.0
 11
194.4807013362947
 21
14.59754008690622
 31
0.0
 11
194.385285698538
 21
14.67993354174673
 31
0.0
 11
194.279326415217
 21
14.76785017366919
 31
0.0
 11
194.175621051109
 21
14.85152024309269
 31
0.0
 11
194.175621051109
 21
14.83304687900865
 31
0.0
 11
194.175621051109
 21
14.78162102763957
 31
0.0
 11
194.175621051109
 21
14.70323405031
 31
0.0
 11
194.175621051109
 21
14.60387730834449
 31
0.0
 11
194.175621051109
 21
14.48954216306761
 31
0.0
 11
194.175621051109
 21
14.36621997580389
 31
0.0
 11
194.175621051109
 21
14.23990210787789
 31
0.0
 11
194.175621051109
 21
14.11657992061417
 31
0.0
 11
194.175621051109
 21
14.00224477533729
 31
0.0
 11
194.175621051109
 21
13.90288803337178
 31
0.0
 11
194.175621051109
 21
13.82450105604221
 31
0.0
 11
194.175621051109
 21
13.77307520467313
 31
0.0
 11
194.175621051109
 21
13.75460184058909
 31
0.0
 11
194.1569720893626
 21
13.75460184058909
 31
0.0
 11
194.1125014882749
 21
13.75460184058909
 31
0.0
 11
194.0594236740736
 21
13.75460184058909
 31
0.0
 11
194.0149530729859
 21
13.75460184058909
 31
0.0
 11
193.9963041112395
 21
13.75460184058909
 31
0.0
 11
193.9963041112395
 21
13.77486797460216
 31
0.0
 11
193.9963041112395
 21
13.83089787452064
 31
0.0
 11
193.9963041112395
 21
13.91553878716345
 31
0.0
 11
193.9963041112395
 21
14.02163795934951
 31
0.0
 11
193.9963041112395
 21
14.14204263789773
 31
0.0
 11
193.9963041112395
 21
14.26960006962704
 31
0.0
 11
193.9963041112395
 21
14.39715750135635
 31
0.0
 11
193.9963041112395
 21
14.51756217990457
 31
0.0
 11
193.9963041112395
 21
14.62366135209063
 31
0.0
 11
193.9963041112395
 21
14.70830226473344
 31
0.0
 11
193.9963041112395
 21
14.76433216465192
 31
0.0
 11
193.9963041112395
 21
14.78459829866499
 31
0.0
 11
193.7883272849482
 21
14.59331998274056
 31
0.0
 11
193.5763486358426
 21
14.43414885430809
 31
0.0
 11
193.5495629014484
 21
14.48814671952095
 31
0.0
 11
193.5138765415024
 21
14.54689140572028
 31
0.0
 11
193.4799697494125
 21
14.59192871537979
 31
0.0
 11
193.6830287742319
 21
14.73563387201058
 31
0.0
 11
193.881853195826
 21
14.91168423529992
 31
0.0
 11
194.0677041444178
 21
15.11327514524953
 31
0.0
 11
194.2318427502303
 21
15.33360194186112
 31
0.0
 11
194.3655301434864
 21
15.5658599651364
 31
0.0
 11
194.3465256724482
 21
15.5658599651364
 31
0.0
 11
194.2944166389562
 21
15.5658599651364
 31
0.0
 11
194.2165596124447
 21
15.5658599651364
 31
0.0
 11
194.1203111623478
 21
15.5658599651364
 31
0.0
 11
194.0130278580997
 21
15.5658599651364
 31
0.0
 11
193.9020662691345
 21
15.5658599651364
 31
0.0
 11
193.7947829648864
 21
15.5658599651364
 31
0.0
 11
193.6985345147895
 21
15.5658599651364
 31
0.0
 11
193.620677488278
 21
15.5658599651364
 31
0.0
 11
193.568568454786
 21
15.5658599651364
 31
0.0
 11
193.5495639837478
 21
15.5658599651364
 31
0.0
 11
193.5495639837478
 21
15.58311199790987
 31
0.0
 11
193.5495639837478
 21
15.62425146067736
 31
0.0
 11
193.5495639837478
 21
15.67335340010953
 31
0.0
 11
193.5495639837478
 21
15.71449286287702
 31
0.0
 11
193.5495639837478
 21
15.73174489565049
 31
0.0
 11
193.5687598486009
 21
15.73174489565049
 31
0.0
 11
193.6193671286684
 21
15.73174489565049
 31
0.0
 11
193.690915352212
 21
15.73174489565049
 31
0.0
 11
193.7729340474937
 21
15.73174489565049
 31
0.0
 11
193.8549527427753
 21
15.73174489565049
 31
0.0
 11
193.9265009663189
 21
15.73174489565049
 31
0.0
 11
193.9771082463864
 21
15.73174489565049
 31
0.0
 11
193.9963041112395
 21
15.73174489565049
 31
0.0
 11
193.9963041112395
 21
15.74926552655222
 31
0.0
 11
193.9963041112395
 21
15.79622081736885
 31
0.0
 11
193.9963041112395
 21
15.86420086526756
 31
0.0
 11
193.9963041112395
 21
15.94479576741551
 31
0.0
 11
193.9963041112395
 21
16.02959562097988
 31
0.0
 11
193.9963041112395
 21
16.11019052312783
 31
0.0
 11
193.9963041112395
 21
16.17817057102654
 31
0.0
 11
193.9963041112395
 21
16.22512586184317
 31
0.0
 11
193.9963041112395
 21
16.2426464927449
 31
0.0
 11
194.0135484112111
 21
16.24165806167519
 31
0.0
 11
194.0566591611401
 21
16.23918698400091
 31
0.0
 11
194.1127031360478
 21
16.23597458302434
 31
0.0
 11
194.1687471109555
 21
16.23276218204778
 31
0.0
 11
194.2118578608844
 21
16.2302911043735
 31
0.0
 11
194.229102160856
 21
16.22930267330379
 31
0.0
 11
194.2143774674851
 21
16.20556293372638
 31
0.0
 11
194.175621051109
 21
16.19183767331309
 31
0.0
 11
194.175621051109
 21
16.1720680617729
 31
0.0
 11
194.175621051109
 21
16.11994817680331
 31
0.0
 11
194.175621051109
 21
16.04626144288078
 31
0.0
 11
194.175621051109
 21
15.96179128448179
 31
0.0
 11
194.175621051109
 21
15.8773211260828
 31
0.0
 11
194.175621051109
 21
15.80363439216027
 31
0.0
 11
194.175621051109
 21
15.75151450719068
 31
0.0
 11
194.175621051109
 21
15.73174489565049
 31
0.0
 11
194.1916227112935
 21
15.73174489565049
 31
0.0
 11
194.232890150717
 21
15.73174489565049
 31
0.0
 11
194.2893170576837
 21
15.73174489565049
 31
0.0
 11
194.3507971204981
 21
15.73174489565049
 31
0.0
 11
194.4072240274648
 21
15.73174489565049
 31
0.0
 11
194.4484914668882
 21
15.73174489565049
 31
0.0
 11
194.4644931270728
 21
15.73174489565049
 31
0.0
 11
194.4728206422924
 21
15.73451387455925
 31
0.0
 11
194.4882860277004
 21
15.73965626396124
 31
0.0
 11
194.49661354292
 21
15.74242524287
 31
0.0
 11
194.5091363776005
 21
15.73490952398299
 31
0.0
 11
194.5389985218386
 21
15.71698742509858
 31
0.0
 11
194.5746404359293
 21
15.69559653288171
 31
0.0
 11
194.6045025801674
 21
15.6776744339973
 31
0.0
 11
194.6170254148479
 21
15.67015871511029
 31
0.0
  0
SPLINE
  5
B5
102
{ACAD_REACTORS
330
D2
102
}
330
48
100
AcDbEntity
  8
_U_30EC_U_30A4_U_30E4_U_30FC_1
  6
Continuous
 62
     2
100
AcDbSpline
210
0.0
220
0.0
230
1.0
 70
    11
 71
     3
 72
   124
 73
   120
 74
   118
 42
0.000000001
 43
0.0000000001
 44
0.00000001
 40
0.0
 40
0.0
 40
0.0
 40
0.0
 40
0.0278187229624226
 40
0.1011590162383985
 40
0.2048470170589954
 40
0.3237088716558677
 40
0.4425707262521431
 40
0.5462587270698694
 40
0.6195990203311229
 40
0.6474177522577808
 40
0.6750060736114389
 40
0.7357003855241906
 40
0.7963946998053604
 40
0.8239830245570914
 40
0.8540933811102007
 40
0.9373396629408688
 40
1.063094687343121
 40
1.220731268637959
 40
1.399622220914634
 40
1.589140358637618
 40
1.778658496423728
 40
1.957549448940367
 40
2.115186030872988
 40
2.240941056914292
 40
2.324187341760362
 40
2.354297700109211
 40
2.38188602467172
 40
2.442580338710305
 40
2.503274652750327
 40
2.530862977314436
 40
2.560983949278389
 40
2.640393784452734
 40
2.752662861758957
 40
2.881361560117946
 40
3.010060258454993
 40
3.122329335705197
 40
3.201739170817754
 40
3.231860142753143
 40
3.264298024030198
 40
3.352343701778065
 40
3.482095226868583
 40
3.639650650172837
 40
3.811108022565288
 40
3.98256539492779
 40
4.140120818152366
 40
4.26987234314107
 40
4.357918020802129
 40
4.390355902043756
 40
4.423256253992325
 40
4.508104530072818
 40
4.624121560636586
 40
4.750528176031314
 40
4.866545206601789
 40
4.951393482691747
 40
4.984293834645148
 40
5.011450833242063
 40
5.071196230151849
 40
5.130941627056925
 40
5.158098625648591
 40
5.190998977601253
 40
5.275847253689078
 40
5.391864284256541
 40
5.518270899648058
 40
5.634287930209068
 40
5.719136206287742
 40
5.752036558235658
 40
5.782130946282686
 40
5.862783906228862
 40
5.979550131774736
 40
6.117984316640146
 40
6.263641154587696
 40
6.402075339413909
 40
6.518841564907713
 40
6.599494524815298
 40
6.629588912848535
 40
6.654403028226112
 40
6.713575149487852
 40
6.78419993932917
 40
6.843372060493216
 40
6.868186175802462
 40
6.896246243201515
 40
6.939586233757825
 40
6.96784656456446
 40
7.043584251089398
 40
7.153234334451265
 40
7.283231855734024
 40
7.420011856035068
 40
7.550009376579429
 40
7.659659458834837
 40
7.735397144416836
 40
7.763657474851009
 40
7.796409728010667
 40
7.880876065095941
 40
7.996370852465327
 40
8.122208446418222
 40
8.237703224798816
 40
8.322169562010538
 40
8.354921815205524
 40
8.382078813307304
 40
8.441824209206612
 40
8.50156960523976
 40
8.528726603485339
 40
8.56147885669536
 40
8.64594519387741
 40
8.76143998086495
 40
8.887277580764092
 40
9.002772362000613
 40
9.087238696660805
 40
9.119990949235287
 40
9.152428830612985
 40
9.240474508638197
 40
9.370226034149143
 40
9.527781457984021
 40
9.699238830981004
 40
9.870696203978188
 40
10.0282516278136
 40
10.15800315332522
 40
10.24604883135076
 40
10.27848670378479
 40
10.27848670378479
 40
10.27848670378479
 40
10.27848670378479
 10
195.3821827564384
 20
14.0141051738576
 30
0.0
 10
195.3914554737524
 20
14.01410498511277
 30
0.0
 10
195.4251744536861
 20
14.01410430876717
 30
0.0
 10
195.4934706812466
 20
14.01411807243307
 30
0.0
 10
195.592014171158
 20
14.01403224219548
 30
0.0
 10
195.7062066464812
 20
14.01441755612253
 30
0.0
 10
195.8185894417071
 20
14.01300835897548
 30
0.0
 10
195.9214376600119
 20
14.01719117422246
 30
0.0
 10
195.9806839874849
 20
14.00823089251986
 30
0.0
 10
196.0371265937032
 20
14.02164434526063
 30
0.0
 10
196.0246255586955
 20
13.97087198613363
 30
0.0
 10
196.0329549635703
 20
13.92589320939069
 30
0.0
 10
196.024817084112
 20
13.88056752990491
 30
0.0
 10
196.0370529214457
 20
13.82931932408469
 30
0.0
 10
195.9747773490333
 20
13.84447955365279
 30
0.0
 10
195.9060513026868
 20
13.83359750710746
 30
0.0
 10
195.7782756749592
 20
13.83911304747975
 30
0.0
 10
195.6262984511643
 20
13.83700851253701
 30
0.0
 10
195.4502695972523
 20
13.83771002588476
 30
0.0
 10
195.2644431934287
 20
13.83745237531294
 30
0.0
 10
195.0786167437176
 20
13.83771005144606
 30
0.0
 10
194.9025880142169
 20
13.83700841847734
 30
0.0
 10
194.7506104154195
 20
13.83911332229992
 30
0.0
 10
194.6228357664555
 20
13.83359680767643
 30
0.0
 10
194.5541077836581
 20
13.84448077125945
 30
0.0
 10
194.4918349042884
 20
13.82931786684212
 30
0.0
 10
194.5040616290019
 20
13.88057510805175
 30
0.0
 10
194.4960004462598
 20
13.92582473272428
 30
0.0
 10
194.5040675809893
 20
13.97106357955326
 30
0.0
 10
194.4918238487084
 20
14.02234176909961
 30
0.0
 10
194.5525017120698
 20
14.00749577363138
 30
0.0
 10
194.6162810745737
 20
14.01756448170738
 30
0.0
 10
194.7277314353503
 20
14.01294644212003
 30
0.0
 10
194.8497533443824
 20
14.01413328905471
 30
0.0
 10
194.9719538137824
 20
14.01515863900637
 30
0.0
 10
195.0829794287392
 20
14.01092475623404
 30
0.0
 10
195.1476517413959
 20
14.02018584521742
 30
0.0
 10
195.2091162810502
 20
14.00604423049684
 30
0.0
 10
195.1930065601338
 20
14.07235527884519
 30
0.0
 10
195.2042980327359
 20
14.14447790121978
 30
0.0
 10
195.1987400822562
 20
14.27513760888288
 30
0.0
 10
195.2008035061691
 20
14.42607323708242
 30
0.0
 10
195.2000167127295
 20
14.59335873107887
 30
0.0
 10
195.2007845215628
 20
14.76061110332303
 30
0.0
 10
195.198803878563
 20
14.91163289269914
 30
0.0
 10
195.2041306156621
 20
15.04206069552994
 30
0.0
 10
195.1933101388425
 20
15.11465442605898
 30
0.0
 10
195.2090326429876
 20
15.18150469436797
 30
0.0
 10
195.1432708132491
 20
15.16580512490823
 30
0.0
 10
195.0756367830765
 20
15.17609243083994
 30
0.0
 10
194.9615885293811
 20
15.1711378684712
 30
0.0
 10
194.8451242674903
 20
15.17414128030474
 30
0.0
 10
194.7306554121478
 20
15.16880303143388
 30
0.0
 10
194.6640324657813
 20
15.18001268074823
 30
0.0
 10
194.5990769715187
 20
15.1634913266501
 30
0.0
 10
194.6107989758709
 20
15.21473720477057
 30
0.0
 10
194.6032830189122
 20
15.2595033378409
 30
0.0
 10
194.6107989878836
 20
15.3042694489796
 30
0.0
 10
194.5990769505348
 20
15.35551536129739
 30
0.0
 10
194.6640326339201
 20
15.33899381766814
 30
0.0
 10
194.7306533339822
 20
15.35020571373943
 30
0.0
 10
194.8451352858065
 20
15.34485436710663
 30
0.0
 10
194.9615454436963
 20
15.34791188771116
 30
0.0
 10
195.0757660174641
 20
15.34278499010707
 30
0.0
 10
195.1430150439228
 20
15.35345733355598
 30
0.0
 10
195.2083325941439
 20
15.33742082669075
 30
0.0
 10
195.1941391448553
 20
15.39949685750053
 30
0.0
 10
195.2036059462996
 20
15.46586761628762
 30
0.0
 10
195.1990269004085
 20
15.58239972741966
 30
0.0
 10
195.2007696555949
 20
15.71426685022376
 30
0.0
 10
195.1997551495392
 20
15.85615960150274
 30
0.0
 10
195.2017191344373
 20
15.98769050702581
 30
0.0
 10
195.1964668553852
 20
16.10524577283005
 30
0.0
 10
195.2073408763474
 20
16.16947789001586
 30
0.0
 10
195.1919536641855
 20
16.2310880254505
 30
0.0
 10
195.2407591537801
 20
16.21702407382114
 30
0.0
 10
195.2853995564726
 20
16.21954742075315
 30
0.0
 10
195.3538643946743
 20
16.21512797401711
 30
0.0
 10
195.3959106169102
 20
16.20613025544035
 30
0.0
 10
195.4487544758775
 20
16.21411714866511
 30
0.0
 10
195.4207035002014
 20
16.17113917611681
 30
0.0
 10
195.3749142248595
 20
16.18259552043838
 30
0.0
 10
195.3869539073265
 20
16.12173520005141
 30
0.0
 10
195.3796086070642
 20
16.05769299468777
 30
0.0
 10
195.3831195826162
 20
15.94909368863915
 30
0.0
 10
195.3819806760175
 20
15.82494319144755
 30
0.0
 10
195.3819174780263
 20
15.69189719829879
 30
0.0
 10
195.3832872966869
 20
15.56797381249556
 30
0.0
 10
195.3791638801314
 20
15.45868337849338
 30
0.0
 10
195.3877763103565
 20
15.39608580094169
 30
0.0
 10
195.3746757454402
 20
15.33740133296364
 30
0.0
 10
195.4393884328199
 20
15.35362113810901
 30
0.0
 10
195.5060405953156
 20
15.34270260383311
 30
0.0
 10
195.6198779541104
 20
15.34793740173754
 30
0.0
 10
195.7357259122097
 20
15.34485547516912
 30
0.0
 10
195.8496924263281
 20
15.35018259812512
 30
0.0
 10
195.91603410181
 20
15.33904208166541
 30
0.0
 10
195.980718852548
 20
15.35546979593176
 30
0.0
 10
195.9689820772724
 20
15.3042592521005
 30
0.0
 10
195.9765168063041
 20
15.25950334120999
 30
0.0
 10
195.968982099226
 20
15.21474739010026
 30
0.0
 10
195.9807188140737
 20
15.1635369087104
 30
0.0
 10
195.9160344075253
 20
15.17996427794218
 30
0.0
 10
195.8496886430826
 20
15.16882784447268
 30
0.0
 10
195.7357459487013
 20
15.17413115893119
 30
0.0
 10
195.6197995623055
 20
15.17114764593543
 30
0.0
 10
195.5062756882124
 20
15.17606892268393
 30
0.0
 10
195.4389231318804
 20
15.16585087513518
 30
0.0
 10
195.3734285122496
 20
15.18145996138815
 30
0.0
 10
195.3891713619218
 20
15.1146385182741
 30
0.0
 10
195.3783275998215
 20
15.04207057815877
 30
0.0
 10
195.3836581629792
 20
14.91162247614416
 30
0.0
 10
195.3817136151856
 20
14.76064558185226
 30
0.0
 10
195.3823133683215
 20
14.59322243934159
 30
0.0
 10
195.3821506559606
 20
14.42656176118373
 30
0.0
 10
195.3821895488136
 20
14.27360142921638
 30
0.0
 10
195.38218164131
 20
14.14849178985707
 30
0.0
 10
195.3821828382745
 20
14.06507890991423
 30
0.0
 10
195.382182771621
 20
14.02491778281979
 30
0.0
 10
195.3821827564384
 20
14.0141051738576
 30
0.0
 11
195.3821827564384
 21
14.0141051738576
 31
0.0
 11
195.4100014883675
 21
14.0141051738576
 31
0.0
 11
195.4833417816353
 21
14.0141051738576
 31
0.0
 11
195.5870297824623
 21
14.0141051738576
 31
0.0
 11
195.7058916370687
 21
14.0141051738576
 31
0.0
 11
195.8247534916752
 21
14.0141051738576
 31
0.0
 11
195.928441492502
 21
14.0141051738576
 31
0.0
 11
196.0017817857699
 21
14.0141051738576
 31
0.0
 11
196.029600517699
 21
14.0141051738576
 31
0.0
 11
196.029600517699
 21
13.98651684921172
 31
0.0
 11
196.029600517699
 21
13.9258225349908
 31
0.0
 11
196.029600517699
 21
13.86512822076988
 31
0.0
 11
196.029600517699
 21
13.837539896124
 31
0.0
 11
195.9994901593494
 21
13.837539896124
 31
0.0
 11
195.9162438745004
 21
13.837539896124
 31
0.0
 11
195.7904888484521
 21
13.837539896124
 31
0.0
 11
195.6328522665042
 21
13.837539896124
 31
0.0
 11
195.4539613139565
 21
13.837539896124
 31
0.0
 11
195.2644431761089
 21
13.837539896124
 31
0.0
 11
195.0749250382613
 21
13.837539896124
 31
0.0
 11
194.8960340857137
 21
13.837539896124
 31
0.0
 11
194.7383975037657
 21
13.837539896124
 31
0.0
 11
194.6126424777173
 21
13.837539896124
 31
0.0
 11
194.5293961928684
 21
13.837539896124
 31
0.0
 11
194.4992858345188
 21
13.837539896124
 31
0.0
 11
194.4992858345188
 21
13.86512822076988
 31
0.0
 11
194.4992858345188
 21
13.9258225349908
 31
0.0
 11
194.4992858345188
 21
13.98651684921172
 31
0.0
 11
194.4992858345188
 21
14.0141051738576
 31
0.0
 11
194.5294068064948
 21
14.0141051738576
 31
0.0
 11
194.6088166417041
 21
14.0141051738576
 31
0.0
 11
194.7210857190691
 21
14.0141051738576
 31
0.0
 11
194.8497844175118
 21
14.0141051738576
 31
0.0
 11
194.9784831159546
 21
14.0141051738576
 31
0.0
 11
195.0907521933196
 21
14.0141051738576
 31
0.0
 11
195.1701620285289
 21
14.0141051738576
 31
0.0
 11
195.2002830005049
 21
14.0141051738576
 31
0.0
 11
195.2002830005049
 21
14.04654305523838
 31
0.0
 11
195.2002830005049
 21
14.13458873327193
 31
0.0
 11
195.2002830005049
 21
14.26434025879504
 31
0.0
 11
195.2002830005049
 21
14.42189568264455
 31
0.0
 11
195.2002830005049
 21
14.59335305565724
 31
0.0
 11
195.2002830005049
 21
14.76481042866994
 31
0.0
 11
195.2002830005049
 21
14.92236585251944
 31
0.0
 11
195.2002830005049
 21
15.05211737804256
 31
0.0
 11
195.2002830005049
 21
15.14016305607611
 31
0.0
 11
195.2002830005049
 21
15.17260093745689
 31
0.0
 11
195.1673826485529
 21
15.17260093745689
 31
0.0
 11
195.0825343724663
 21
15.17260093745689
 31
0.0
 11
194.9665173418989
 21
15.17260093745689
 31
0.0
 11
194.8401107265045
 21
15.17260093745689
 31
0.0
 11
194.7240936959371
 21
15.17260093745689
 31
0.0
 11
194.6392454198505
 21
15.17260093745689
 31
0.0
 11
194.6063450678985
 21
15.17260093745689
 31
0.0
 11
194.6063450678985
 21
15.19975793614801
 31
0.0
 11
194.6063450678985
 21
15.25950333326849
 31
0.0
 11
194.6063450678985
 21
15.31924873038897
 31
0.0
 11
194.6063450678985
 21
15.34640572908009
 31
0.0
 11
194.6392454198505
 21
15.34640572908009
 31
0.0
 11
194.7240936959371
 21
15.34640572908009
 31
0.0
 11
194.8401107265045
 21
15.34640572908009
 31
0.0
 11
194.9665173418989
 21
15.34640572908009
 31
0.0
 11
195.0825343724663
 21
15.34640572908009
 31
0.0
 11
195.1673826485529
 21
15.34640572908009
 31
0.0
 11
195.2002830005049
 21
15.34640572908009
 31
0.0
 11
195.2002830005049
 21
15.37650011731369
 31
0.0
 11
195.2002830005049
 21
15.45715307777973
 31
0.0
 11
195.2002830005049
 21
15.57391930412609
 31
0.0
 11
195.2002830005049
 21
15.71235349000064
 31
0.0
 11
195.2002830005049
 21
15.85801032905125
 31
0.0
 11
195.2002830005049
 21
15.9964445149258
 31
0.0
 11
195.2002830005049
 21
16.11321074127216
 31
0.0
 11
195.2002830005049
 21
16.1938637017382
 31
0.0
 11
195.2002830005049
 21
16.2239580899718
 31
0.0
 11
195.2250405288619
 21
16.22228324219444
 31
0.0
 11
195.284077711867
 21
16.21828937441767
 31
0.0
 11
195.3545414464215
 21
16.21352249997442
 31
0.0
 11
195.4135786294265
 21
16.20952863219765
 31
0.0
 11
195.4383361577835
 21
16.20785378442029
 31
0.0
 11
195.423306722403
 21
16.18415814206513
 31
0.0
 11
195.3821827564384
 21
16.17047697887409
 31
0.0
 11
195.3821827564384
 21
16.14221664794837
 31
0.0
 11
195.3821827564384
 21
16.06647896106744
 31
0.0
 11
195.3821827564384
 21
15.95682887707564
 31
0.0
 11
195.3821827564384
 21
15.82683135481733
 31
0.0
 11
195.3821827564384
 21
15.69005135313684
 31
0.0
 11
195.3821827564384
 21
15.56005383087853
 31
0.0
 11
195.3821827564384
 21
15.45040374688674
 31
0.0
 11
195.3821827564384
 21
15.37466606000581
 31
0.0
 11
195.3821827564384
 21
15.34640572908009
 31
0.0
 11
195.4149350096116
 21
15.34640572908009
 31
0.0
 11
195.4994013467423
 21
15.34640572908009
 31
0.0
 11
195.6148961342477
 21
15.34640572908009
 31
0.0
 11
195.7407337385446
 21
15.34640572908009
 31
0.0
 11
195.8562285260499
 21
15.34640572908009
 31
0.0
 11
195.9406948631807
 21
15.34640572908009
 31
0.0
 11
195.9734471163539
 21
15.34640572908009
 31
0.0
 11
195.9734471163539
 21
15.31924873038897
 31
0.0
 11
195.9734471163539
 21
15.25950333326849
 31
0.0
 11
195.9734471163539
 21
15.19975793614801
 31
0.0
 11
195.9734471163539
 21
15.17260093745689
 31
0.0
 11
195.9406948631807
 21
15.17260093745689
 31
0.0
 11
195.85622852605
 21
15.17260093745689
 31
0.0
 11
195.7407337385446
 21
15.17260093745689
 31
0.0
 11
195.6148961342477
 21
15.17260093745689
 31
0.0
 11
195.4994013467423
 21
15.17260093745689
 31
0.0
 11
195.4149350096116
 21
15.17260093745689
 31
0.0
 11
195.3821827564384
 21
15.17260093745689
 31
0.0
 11
195.3821827564384
 21
15.14016305607611
 31
0.0
 11
195.3821827564384
 21
15.05211737804257
 31
0.0
 11
195.3821827564384
 21
14.92236585251944
 31
0.0
 11
195.3821827564384
 21
14.76481042866994
 31
0.0
 11
195.3821827564384
 21
14.59335305565724
 31
0.0
 11
195.3821827564384
 21
14.42189568264455
 31
0.0
 11
195.3821827564384
 21
14.26434025879505
 31
0.0
 11
195.3821827564384
 21
14.13458873327193
 31
0.0
 11
195.3821827564384
 21
14.04654305523838
 31
0.0
 11
195.3821827564384
 21
14.0141051738576
 31
0.0
  0
SPLINE
  5
B6
102
{ACAD_REACTORS
330
D3
102
}
330
48
100
AcDbEntity
  8
_U_30EC_U_30A4_U_30E4_U_30FC_1
  6
Continuous
 62
     2
100
AcDbSpline
210
0.0
220
0.0
230
1.0
 70
     8
 71
     3
 72
    62
 73
    58
 74
    56
 42
0.000000001
 43
0.0000000001
 44
0.00000001
 40
0.0
 40
0.0
 40
0.0
 40
0.0
 40
0.0598250028308485
 40
0.2024846486897331
 40
0.3727558389221031
 40
0.515415484793607
 40
0.5752404975785339
 40
0.9332326775487201
 40
1.290451762839478
 40
1.602077253145908
 40
1.699931634112231
 40
1.799359756425159
 40
2.270120149657211
 40
2.804661928461648
 40
2.882342287383354
 40
3.07654318571919
 40
3.329004354835632
 40
3.58146552456844
 40
3.77566642454371
 40
3.853346784558324
 40
3.89912067959507
 40
3.984129341791954
 40
4.029903236817303
 40
4.105797496059456
 40
4.295533144152412
 40
4.542189486611646
 40
4.788845828875587
 40
4.978581476409966
 40
5.054475735244207
 40
5.621734664339285
 40
6.130867242037308
 40
6.225249780948651
 40
6.31891303972738
 40
6.663579954559027
 40
7.047498900224813
 40
7.435230791575726
 40
7.498943906668138
 40
7.650875181210075
 40
7.832212509001557
 40
7.984143783696942
 40
8.04785689890307
 40
8.091554632732585
 40
8.172707566964256
 40
8.216405300767986
 40
8.289021782160871
 40
8.462184160757216
 40
8.668861838005382
 40
8.842024215263946
 40
8.914640695475141
 40
8.989881580861352
 40
9.155411528827274
 40
9.320941477744073
 40
9.39618235248733
 40
9.45470901114382
 40
9.58346766017084
 40
9.712226309013062
 40
9.770752957989544
 40
9.770752957989544
 40
9.770752957989544
 40
9.770752957989544
 10
187.1521871691833
 20
14.93980288195949
 30
0.0
 10
187.1322348171623
 20
14.93980875568671
 30
0.0
 10
187.0647037716466
 20
14.93982863806156
 30
0.0
 10
186.9410612161788
 20
14.93949362520325
 30
0.0
 10
186.7863180150056
 20
14.9410767375051
 30
0.0
 10
186.669734948248
 20
14.93686078860495
 30
0.0
 10
186.4550942634241
 20
14.95215205331625
 30
0.0
 10
186.8518948407228
 20
14.59198721286191
 30
0.0
 10
186.8945656069267
 20
14.37510503397166
 30
0.0
 10
187.3189162146612
 20
14.19325062511449
 30
0.0
 10
187.1439821496074
 20
14.08985196568072
 30
0.0
 10
187.0194523925083
 20
13.87831523212727
 30
0.0
 10
186.7666277235944
 20
14.34806081001561
 30
0.0
 10
186.4797602893626
 20
14.99511516984519
 30
0.0
 10
186.490633592666
 20
14.68782672154694
 30
0.0
 10
186.488289277796
 20
14.52288616971779
 30
0.0
 10
186.4861096126411
 20
14.28879670711697
 30
0.0
 10
186.4980774396346
 20
14.04498072421788
 30
0.0
 10
186.4687984740631
 20
13.89855796860991
 30
0.0
 10
186.5114522625469
 20
13.75113490174545
 30
0.0
 10
186.423981400564
 20
13.76685797306226
 30
0.0
 10
186.3768527606745
 20
13.76694303543461
 30
0.0
 10
186.2898973207714
 20
13.75109425482916
 30
0.0
 10
186.3313474021724
 20
13.89527771422769
 30
0.0
 10
186.3029875004286
 20
14.03855052698462
 30
0.0
 10
186.31459737753
 20
14.27674947365271
 30
0.0
 10
186.3124175648273
 20
14.50517235240351
 30
0.0
 10
186.3103111127995
 20
14.66705729375999
 30
0.0
 10
186.3208035438324
 20
14.98153709333758
 30
0.0
 10
186.0128963252893
 20
14.29229470872431
 30
0.0
 10
185.7055258267458
 20
13.81476750243055
 30
0.0
 10
185.5851367066274
 20
14.03741112637427
 30
0.0
 10
185.4074607910723
 20
14.1501103495558
 30
0.0
 10
185.8853326362894
 20
14.32548143465459
 30
0.0
 10
185.9353959057208
 20
14.56091929252036
 30
0.0
 10
186.3583799621718
 20
14.95322989344607
 30
0.0
 10
186.127675427354
 20
14.93655307029065
 30
0.0
 10
186.0049685859341
 20
14.94269518948769
 30
0.0
 10
185.8325483095662
 20
14.93312822699574
 30
0.0
 10
185.721322469445
 20
14.95448818489665
 30
0.0
 10
185.6025779627448
 20
14.92136265357419
 30
0.0
 10
185.6183169706686
 20
15.00203900606884
 30
0.0
 10
185.6178550933764
 20
15.04645414290855
 30
0.0
 10
185.6027881889931
 20
15.12967081778535
 30
0.0
 10
185.7372380935444
 20
15.09062651983886
 30
0.0
 10
185.8619755545747
 20
15.11739729328424
 30
0.0
 10
186.062875523728
 20
15.10063949044054
 30
0.0
 10
186.1921540949355
 20
15.12204225913006
 30
0.0
 10
186.3328419928295
 20
15.08868778853422
 30
0.0
 10
186.2980927452617
 20
15.22651875785071
 30
0.0
 10
186.3222185666713
 20
15.34963257349485
 30
0.0
 10
186.2967086182394
 20
15.4702405567034
 30
0.0
 10
186.3333251146686
 20
15.60539865141499
 30
0.0
 10
186.221141702777
 20
15.58094545781897
 30
0.0
 10
186.1280356457138
 20
15.59307749842027
 30
0.0
 10
186.0191547579821
 20
15.5895763007
 30
0.0
 10
185.9569697640965
 20
15.58981755951608
 30
0.0
 10
185.9375369557247
 20
15.5898929512415
 30
0.0
 11
187.1521871691833
 21
14.93980288195949
 31
0.0
 11
187.0923621563982
 21
14.93980288195949
 31
0.0
 11
186.949702510526
 21
14.93980288195949
 31
0.0
 11
186.7794313202913
 21
14.93980288195949
 31
0.0
 11
186.6367716744191
 21
14.93980288195949
 31
0.0
 11
186.576946661634
 21
14.93980288195949
 31
0.0
 11
186.7679960754842
 21
14.6370512796689
 31
0.0
 11
186.994127278563
 21
14.36051890576685
 31
0.0
 11
187.2244526173372
 21
14.1506125349346
 31
0.0
 11
187.1521596330704
 21
14.08466403668715
 31
0.0
 11
187.0879364402643
 21
14.0087605905256
 31
0.0
 11
186.7732818215558
 21
14.35891458349365
 31
0.0
 11
186.4886640249976
 21
14.811382951436
 31
0.0
 11
186.4886640249976
 21
14.73370259137313
 31
0.0
 11
186.4886640249976
 21
14.53950169121594
 31
0.0
 11
186.4886640249976
 21
14.2870405210116
 31
0.0
 11
186.4886640249976
 21
14.03457935080725
 31
0.0
 11
186.4886640249976
 21
13.84037845065006
 31
0.0
 11
186.4886640249976
 21
13.76269809058719
 31
0.0
 11
186.4428901295605
 21
13.76269809058719
 31
0.0
 11
186.3578814666059
 21
13.76269809058719
 31
0.0
 11
186.3121075711688
 21
13.76269809058719
 31
0.0
 11
186.3121075711688
 21
13.83859234982747
 31
0.0
 11
186.3121075711688
 21
14.02832799792818
 31
0.0
 11
186.3121075711688
 21
14.27498434045909
 31
0.0
 11
186.3121075711688
 21
14.52164068299001
 31
0.0
 11
186.3121075711688
 21
14.71137633109071
 31
0.0
 11
186.3121075711688
 21
14.78727059033099
 31
0.0
 11
185.9987626399267
 21
14.31440946197692
 31
0.0
 11
185.6352328662149
 21
13.95795177109379
 31
0.0
 11
185.5773927461627
 21
14.03253450545025
 31
0.0
 11
185.5094852305341
 21
14.0970432293925
 31
0.0
 11
185.775072189832
 21
14.31672219795895
 31
0.0
 11
186.0233764972061
 21
14.60953395971699
 31
0.0
 11
186.226498280526
 21
14.93980288195949
 31
0.0
 11
186.1627851652721
 21
14.93980288195949
 31
0.0
 11
186.0108538904359
 21
14.93980288195949
 31
0.0
 11
185.8295165624056
 21
14.93980288195949
 31
0.0
 11
185.6775852875694
 21
14.93980288195949
 31
0.0
 11
185.6138721723155
 21
14.93980288195949
 31
0.0
 11
185.6138721723155
 21
14.98350061600208
 31
0.0
 11
185.6138721723155
 21
15.0646535506526
 31
0.0
 11
185.6138721723155
 21
15.10835128469519
 31
0.0
 11
185.6864886537962
 21
15.10835128469519
 31
0.0
 11
185.8596510327119
 21
15.10835128469519
 31
0.0
 11
186.0663287107725
 21
15.10835128469519
 31
0.0
 11
186.2394910896881
 21
15.10835128469519
 31
0.0
 11
186.3121075711688
 21
15.10835128469519
 31
0.0
 11
186.3121075711688
 21
15.18359217009305
 31
0.0
 11
186.3121075711688
 21
15.34912211796835
 31
0.0
 11
186.3121075711688
 21
15.51465206584364
 31
0.0
 11
186.3121075711688
 21
15.5898929512415
 31
0.0
 11
186.2535809125057
 21
15.5898929512415
 31
0.0
 11
186.1248222634468
 21
15.5898929512415
 31
0.0
 11
185.9960636143879
 21
15.5898929512415
 31
0.0
 11
185.9375369557247
 21
15.5898929512415
 31
0.0
  0
SPLINE
  5
B7
102
{ACAD_REACTORS
330
D3
102
}
330
48
100
AcDbEntity
  8
_U_30EC_U_30A4_U_30E4_U_30FC_1
  6
Continuous
 62
     2
100
AcDbSpline
210
0.0
220
0.0
230
1.0
 70
     8
 71
     3
 72
    70
 73
    66
 74
    64
 42
0.000000001
 43
0.0000000001
 44
0.00000001
 40
0.0
 40
0.0
 40
0.0
 40
0.0
 40
0.0241731073021472
 40
0.0846058988987582
 40
0.1631685280353852
 40
0.2417311571790608
 40
0.302163948829332
 40
0.3263370654896678
 40
0.3533118254250018
 40
0.422878343892323
 40
0.5179999095314539
 40
0.6216398239467221
 40
0.7167613891500825
 40
0.7863279069650982
 40
0.8133026791762955
 40
0.8372943998772798
 40
0.8945054261373434
 40
0.9627895541962935
 40
1.020000580349076
 40
1.043992300975175
 40
1.071934345522872
 40
1.113121768772943
 40
1.14522519933226
 40
1.225483775412781
 40
1.329819923771475
 40
1.434156071994348
 40
1.514414647795757
 40
1.546518078208357
 40
1.578974764260131
 40
1.662678849314126
 40
1.777131373668375
 40
1.901833377474794
 40
2.016285900500612
 40
2.099989982527979
 40
2.132446666570338
 40
2.15878235448606
 40
2.216720867907842
 40
2.274659381334256
 40
2.300995069256188
 40
2.33345175406616
 40
2.417155836543869
 40
2.531608358985309
 40
2.656310362283832
 40
2.770762886388965
 40
2.854466971340158
 40
2.886923657363965
 40
2.913597976833401
 40
2.982389642875208
 40
3.076451716947081
 40
3.178937260458704
 40
3.272999334740117
 40
3.341791001059347
 40
3.368465320663659
 40
3.39697608073888
 40
3.472140811846117
 40
3.578408190308806
 40
3.700226892456242
 40
3.82204559463446
 40
3.928312973256566
 40
4.003477705314964
 40
4.03198845686703
 40
4.058324144797833
 40
4.116262658237005
 40
4.174201171400812
 40
4.200536849608751
 40
4.200536849608751
 40
4.200536849608751
 40
4.200536849608751
 10
185.9857704961609
 20
15.75844135397709
 30
0.0
 10
185.9938259544679
 20
15.75844359811691
 30
0.0
 10
186.0220200663241
 20
15.75845146032801
 30
0.0
 10
186.0765534803673
 20
15.75830754828376
 30
0.0
 10
186.1482891808604
 20
15.75909120499902
 30
0.0
 10
186.2236240137063
 20
15.75627570463815
 30
0.0
 10
186.2713052366439
 20
15.76298403400961
 30
0.0
 10
186.3195071245617
 20
15.75197563692435
 30
0.0
 10
186.3062571799875
 20
15.80546402997037
 30
0.0
 10
186.3151093964539
 20
15.86049583543095
 30
0.0
 10
186.3108698036287
 20
15.95419908726113
 30
0.0
 10
186.313348348128
 20
16.04959482218536
 30
0.0
 10
186.3090938706061
 20
16.14356821983391
 30
0.0
 10
186.3179818665847
 20
16.19795062438016
 30
0.0
 10
186.3046977409946
 20
16.25233997691464
 30
0.0
 10
186.351411927711
 20
16.23842216335361
 30
0.0
 10
186.3943254545737
 20
16.24103877374046
 30
0.0
 10
186.4605443456685
 20
16.23648422450755
 30
0.0
 10
186.5013342271799
 20
16.22778162134161
 30
0.0
 10
186.5525145690818
 20
16.23531799890193
 30
0.0
 10
186.5253720487201
 20
16.1934997022328
 30
0.0
 10
186.4803096055707
 20
16.20284992072596
 30
0.0
 10
186.4942065045051
 20
16.13841207371835
 30
0.0
 10
186.4858414431654
 20
16.07378219627398
 30
0.0
 10
186.4903632178398
 20
15.97529141193887
 30
0.0
 10
186.4854741311167
 20
15.87595932842573
 30
0.0
 10
186.4950258992082
 20
15.81293115552972
 30
0.0
 10
186.47997614552
 20
15.74964011499793
 30
0.0
 10
186.5449159457208
 20
15.76515072944273
 30
0.0
 10
186.6116246399497
 20
15.75499387697816
 30
0.0
 10
186.7241435470827
 20
15.75988800099371
 30
0.0
 10
186.8390235448954
 20
15.75691204732788
 30
0.0
 10
186.9519871999747
 20
15.76221664184995
 30
0.0
 10
187.0176267597678
 20
15.75107306472092
 30
0.0
 10
187.0816276691054
 20
15.76744532319861
 30
0.0
 10
187.070314288919
 20
15.71761689905279
 30
0.0
 10
187.077533987151
 20
15.67416715212128
 30
0.0
 10
187.070314261127
 20
15.6307174558745
 30
0.0
 10
187.0816277175995
 20
15.58088895196882
 30
0.0
 10
187.0176263598972
 20
15.59726166091368
 30
0.0
 10
186.9519921240459
 20
15.58611271661594
 30
0.0
 10
186.8389974317332
 20
15.59144857206861
 30
0.0
 10
186.7242456548643
 20
15.58834345663827
 30
0.0
 10
186.6113183686861
 20
15.59364894682594
 30
0.0
 10
186.5455220903585
 20
15.58257300019599
 30
0.0
 10
186.4816097975358
 20
15.59887597847624
 30
0.0
 10
186.4936015165125
 20
15.54423524395747
 30
0.0
 10
186.4862104613005
 20
15.48854295047847
 30
0.0
 10
186.4892684841983
 20
15.39649689140575
 30
0.0
 10
186.4893422785682
 20
15.30179109873104
 30
0.0
 10
186.486031357836
 20
15.20952782902268
 30
0.0
 10
186.4939505989904
 20
15.15435768736142
 30
0.0
 10
186.4815076611617
 20
15.10058169100138
 30
0.0
 10
186.5389116551632
 20
15.11453768862783
 30
0.0
 10
186.5994708140382
 20
15.10511457884229
 30
0.0
 10
186.7048680855081
 20
15.10942885928706
 30
0.0
 10
186.8204294070622
 20
15.10835504612033
 30
0.0
 10
186.9359688877797
 20
15.10725965900997
 30
0.0
 10
187.0414181130841
 20
15.11162525770634
 30
0.0
 10
187.1018680471803
 20
15.10209426030673
 30
0.0
 10
187.1592837739111
 20
15.11617289606382
 30
0.0
 10
187.1477773876708
 20
15.06707153265684
 30
0.0
 10
187.1537566781749
 20
15.0256465801865
 30
0.0
 10
187.1520311050802
 20
14.97651677966695
 30
0.0
 10
187.1521500122971
 20
14.94854428447607
 30
0.0
 10
187.1521871691833
 20
14.93980288195949
 30
0.0
 11
185.9857704961609
 21
15.75844135397709
 31
0.0
 11
186.0099436128282
 21
15.75844135397709
 31
0.0
 11
186.0703764044963
 21
15.75844135397709
 31
0.0
 11
186.1489390336649
 21
15.75844135397709
 31
0.0
 11
186.2275016628334
 21
15.75844135397709
 31
0.0
 11
186.2879344545015
 21
15.75844135397709
 31
0.0
 11
186.3121075711688
 21
15.75844135397709
 31
0.0
 11
186.3121075711688
 21
15.78541612620067
 31
0.0
 11
186.3121075711688
 21
15.85498264404043
 31
0.0
 11
186.3121075711688
 21
15.95010420924989
 31
0.0
 11
186.3121075711688
 21
16.0537441235826
 31
0.0
 11
186.3121075711688
 21
16.14886568879206
 31
0.0
 11
186.3121075711688
 21
16.21843220663182
 31
0.0
 11
186.3121075711688
 21
16.2454069788554
 31
0.0
 11
186.3360407604893
 21
16.24373213107803
 31
0.0
 11
186.3931122119458
 21
16.23973826330123
 31
0.0
 11
186.4612297507811
 21
16.23497138885795
 31
0.0
 11
186.5183012022376
 21
16.23097752108116
 31
0.0
 11
186.5422343915581
 21
16.22930267330379
 31
0.0
 11
186.527497273123
 21
16.20556293372638
 31
0.0
 11
186.4886640249976
 21
16.19183767331309
 31
0.0
 11
186.4886640249976
 21
16.15973424225116
 31
0.0
 11
186.4886640249976
 21
16.07947566459635
 31
0.0
 11
186.4886640249976
 21
15.97513951364509
 31
0.0
 11
186.4886640249976
 21
15.87080336269383
 31
0.0
 11
186.4886640249976
 21
15.79054478503901
 31
0.0
 11
186.4886640249976
 21
15.75844135397709
 31
0.0
 11
186.5211207110824
 21
15.75844135397709
 31
0.0
 11
186.6048247962486
 21
15.75844135397709
 31
0.0
 11
186.7192773208635
 21
15.75844135397709
 31
0.0
 11
186.8439793252946
 21
15.75844135397709
 31
0.0
 11
186.9584318499095
 21
15.75844135397709
 31
0.0
 11
187.0421359350757
 21
15.75844135397709
 31
0.0
 11
187.0745926211605
 21
15.75844135397709
 31
0.0
 11
187.0745926211605
 21
15.73210566604965
 31
0.0
 11
187.0745926211605
 21
15.67416715260929
 31
0.0
 11
187.0745926211605
 21
15.61622863916894
 31
0.0
 11
187.0745926211605
 21
15.5898929512415
 31
0.0
 11
187.0421359350757
 21
15.5898929512415
 31
0.0
 11
186.9584318499095
 21
15.5898929512415
 31
0.0
 11
186.8439793252946
 21
15.5898929512415
 31
0.0
 11
186.7192773208635
 21
15.5898929512415
 31
0.0
 11
186.6048247962486
 21
15.5898929512415
 31
0.0
 11
186.5211207110824
 21
15.5898929512415
 31
0.0
 11
186.4886640249976
 21
15.5898929512415
 31
0.0
 11
186.4886640249976
 21
15.56321863152028
 31
0.0
 11
186.4886640249976
 21
15.4944269648708
 31
0.0
 11
186.4886640249976
 21
15.40036489006438
 31
0.0
 11
186.4886640249976
 21
15.29787934587231
 31
0.0
 11
186.4886640249976
 21
15.20381727106589
 31
0.0
 11
186.4886640249976
 21
15.13502560441641
 31
0.0
 11
186.4886640249976
 21
15.10835128469519
 31
0.0
 11
186.5171747850993
 21
15.10835128469519
 31
0.0
 11
186.5923395162766
 21
15.10835128469519
 31
0.0
 11
186.6986068948376
 21
15.10835128469519
 31
0.0
 11
186.8204255970904
 21
15.10835128469519
 31
0.0
 11
186.9422442993433
 21
15.10835128469519
 31
0.0
 11
187.0485116779043
 21
15.10835128469519
 31
0.0
 11
187.1236764090816
 21
15.10835128469519
 31
0.0
 11
187.1521871691833
 21
15.10835128469519
 31
0.0
 11
187.1521871691833
 21
15.08201559676774
 31
0.0
 11
187.1521871691833
 21
15.02407708332734
 31
0.0
 11
187.1521871691833
 21
14.96613856988695
 31
0.0
 11
187.1521871691833
 21
14.93980288195949
 31
0.0
  0
SPLINE
  5
B8
102
{ACAD_REACTORS
330
D3
102
}
330
48
100
AcDbEntity
  8
_U_30EC_U_30A4_U_30E4_U_30FC_1
  6
Continuous
 62
     2
100
AcDbSpline
210
0.0
220
0.0
230
1.0
 70
     8
 71
     3
 72
    24
 73
    20
 74
    18
 42
0.000000001
 43
0.0000000001
 44
0.00000001
 40
0.0
 40
0.0
 40
0.0
 40
0.0
 40
0.2211075008754084
 40
0.4273218586245952
 40
0.5080174679240503
 40
0.5914835907871299
 40
0.8143265690193803
 40
1.054651302686694
 40
1.295452694023294
 40
1.518109231328964
 40
1.540864321905552
 40
1.595126460622814
 40
1.659890947896128
 40
1.714153085187431
 40
1.736908174961732
 40
1.764951100735386
 40
1.80156229122095
 40
1.953914424543632
 40
2.126104167379703
 40
2.126104167379703
 40
2.126104167379703
 40
2.126104167379703
 10
185.937536955689
 20
15.5898929511302
 30
0.0
 10
185.9112579081812
 20
15.53097628234378
 30
0.0
 10
185.8604698894426
 20
15.41711139679261
 30
0.0
 10
185.8131784839112
 20
15.14441958233106
 30
0.0
 10
185.704348280262
 20
15.24445482575459
 30
0.0
 10
185.5514800279637
 20
15.27118593367328
 30
0.0
 10
185.76861551812
 20
15.48518135017636
 30
0.0
 10
185.7838483674381
 20
15.70332117782491
 30
0.0
 10
185.8906889492001
 20
15.88451579066427
 30
0.0
 10
185.8305380947079
 20
16.1691322631141
 30
0.0
 10
185.9334317395402
 20
16.14114089222454
 30
0.0
 10
185.977993346815
 20
16.13243251602304
 30
0.0
 10
186.0380842395397
 20
16.1213965418336
 30
0.0
 10
186.0756619587439
 20
16.10767523055563
 30
0.0
 10
186.1252466928605
 20
16.10756076160227
 30
0.0
 10
186.0930158919326
 20
16.07306592398626
 30
0.0
 10
186.0171802221883
 20
16.08404104537964
 30
0.0
 10
186.0429447159693
 20
15.89858969582453
 30
0.0
 10
186.0055896763849
 20
15.80702313549592
 30
0.0
 10
185.9857704961609
 20
15.75844135397709
 30
0.0
 11
185.937536955689
 21
15.5898929511302
 31
0.0
 11
185.8616471328553
 21
15.38221708318562
 31
0.0
 11
185.7717402238434
 21
15.19663392356189
 31
0.0
 11
185.701149392311
 21
15.23573272563554
 31
0.0
 11
185.6245525192652
 21
15.2688916318772
 31
0.0
 11
185.7214026947456
 21
15.4695880120354
 31
0.0
 11
185.7994641467471
 21
15.69688163177027
 31
0.0
 11
185.8589716929721
 21
15.93021436608695
 31
0.0
 11
185.9001601511227
 21
16.14902808999059
 31
0.0
 11
185.9224183822215
 21
16.14429889221399
 31
0.0
 11
185.975495702534
 21
16.13302157443903
 31
0.0
 11
186.0388460525845
 21
16.11956154999796
 31
0.0
 11
186.091923372897
 21
16.108284232223
 31
0.0
 11
186.1141816039958
 21
16.1035550344464
 31
0.0
 11
186.0964097157461
 21
16.08186250841013
 31
0.0
 11
186.0606122998072
 21
16.07418628445369
 31
0.0
 11
186.028195330148
 21
15.92532288171316
 31
0.0
 11
185.9857704961609
 21
15.75844135397709
 31
0.0
  0
LWPOLYLINE
  5
B9
102
{ACAD_REACTORS
330
D4
102
}
330
48
100
AcDbEntity
  8
_U_30EC_U_30A4_U_30E4_U_30FC_1
  6
Continuous
 62
     2
100
AcDbPolyline
 90
        5
 70
     1
 43
0.0
 10
191.1602971697032
 20
15.3972233679563
 10
192.4578138032672
 20
15.3972233679563
 10
192.4578138032672
 20
15.22875434022059
 10
191.1602971697032
 20
15.22875434022059
 10
191.1602971697032
 20
15.3972233679563
  0
MTEXT
  5
BB
330
48
100
AcDbEntity
  8
1
 62
   250
100
AcDbMText
 10
25.0
 20
5.0
 30
0.0
 40
3.5
 41
0.0
 71
     4
 72
     1
  1
備考欄の文字列 原点位置=4
  7
CONVERTER_11
 73
     1
 44
0.54545454545455
  0
MTEXT
  5
BC
330
48
100
AcDbEntity
  8
1
 62
     2
100
AcDbMText
 10
89.49999999999997
 20
24.0
 30
0.0
 40
3.5
 41
0.0
 71
     5
 72
     1
  1
尺度
  7
CONVERTER_11
 73
     1
 44
0.54545454545455
  0
MTEXT
  5
BD
330
48
100
AcDbEntity
  8
1
 62
     2
100
AcDbMText
 10
135.5
 20
25.0
 30
0.0
 40
3.0
 41
0.0
 71
     5
 72
     1
  1
製図
  7
CONVERTER_11
 73
     1
 44
0.59090909090909
  0
MTEXT
  5
BE
330
48
100
AcDbEntity
  8
1
 62
     2
100
AcDbMText
 10
152.5
 20
25.0
 30
0.0
 40
3.0
 41
0.0
 71
     5
 72
     1
  1
設計
  7
CONVERTER_11
 73
     1
 44
0.59090909090909
  0
MTEXT
  5
BF
330
48
100
AcDbEntity
  8
1
 62
     2
100
AcDbMText
 10
118.5
 20
25.0
 30
0.0
 40
3.0
 41
0.0
 71
     5
 72
     1
  1
検図
  7
CONVERTER_11
 73
     1
 44
0.59090909090909
  0
MTEXT
  5
C0
330
48
100
AcDbEntity
  8
1
 62
     2
100
AcDbMText
 10
175.0
 20
23.5
 30
0.0
 40
3.5
 41
0.0
 71
     5
 72
     1
  1
第三角法
  7
CONVERTER_11
 73
     1
 44
0.54545454545455
  0
MTEXT
  5
C1
330
48
100
AcDbEntity
  8
1
 62
     2
100
AcDbMText
 10
101.5
 20
25.0
 30
0.0
 40
3.0
 41
0.0
 71
     5
 72
     1
  1
承認
  7
CONVERTER_11
 73
     1
 44
0.59090909090909
  0
MTEXT
  5
C2
330
48
100
AcDbEntity
  8
1
 62
     2
100
AcDbMText
 10
29.0
 20
14.25
 30
0.0
 40
3.5
 41
0.0
 71
     5
 72
     1
  1
品番
  7
CONVERTER_11
 73
     1
 44
0.72727272727273
  0
MTEXT
  5
C3
330
48
100
AcDbEntity
  8
1
 62
     2
100
AcDbMText
 10
29.0
 20
22.75
 30
0.0
 40
3.5
 41
0.0
 71
     5
 72
     1
  1
品名
  7
CONVERTER_11
 73
     1
 44
0.72727272727273
  0
MTEXT
  5
C4
330
48
100
AcDbEntity
  8
1
 62
     2
100
AcDbMText
 10
29.0
 20
34.00000000000003
 30
0.0
 40
3.5
 41
0.0
 71
     5
 72
     1
  1
備考
  7
CONVERTER_11
 73
     1
 44
0.45454545454545
  0
MTEXT
  5
C5
330
48
100
AcDbEntity
  8
1
 62
     2
100
AcDbMText
 10
32.5
 20
282.0000000000003
 30
0.0
 40
5.0
 41
0.0
 71
     5
 72
     1
  1
図番
  7
CONVERTER_11
 73
     1
 44
0.45454545454545
  0
HATCH
  5
C6
330
48
100
AcDbEntity
  8
1
  6
Continuous
 62
     2
100
AcDbHatch
 10
0.0
 20
0.0
 30
0.0
210
0.0
220
0.0
230
1.0
  2
CUSTOM0
 70
     0
 71
     1
 91
        1
 92
        1
 93
        1
 72
     4
 94
        3
 73
     0
 74
     0
 95
       99
 96
       95
 40
0.0
 40
0.0
 40
0.0
 40
0.0
 40
0.0796417172273317
 40
0.1621768542356376
 40
0.2486489160958076
 40
0.3404969668525575
 40
0.4381912511165931
 40
0.5434463660245128
 40
0.6518115192847467
 40
0.7530190937887797
 40
0.8492196919725956
 40
0.9419290312999168
 40
1.034249663570118
 40
1.129078600620232
 40
1.226697027573313
 40
1.327220425421768
 40
1.470572134938104
 40
1.595489863371303
 40
1.71993412534845
 40
1.850576620127514
 40
1.989059629987342
 40
2.134139054226902
 40
2.28069800720723
 40
2.424529739039551
 40
2.565929576985896
 40
2.708239260773628
 40
2.861717887443731
 40
3.045168540347453
 40
3.183798301138697
 40
3.314813961455511
 40
3.442083470447347
 40
3.569912708372935
 40
3.702177512509357
 40
3.842307559659521
 40
3.99287222324597
 40
4.156750662218415
 40
4.310981861107522
 40
4.445859909322561
 40
4.572393936131609
 40
4.701656719781949
 40
4.7682790860084
 40
4.83596069789839
 40
4.912788918729333
 40
5.006285208481497
 40
5.02690947875163
 40
5.047533749021252
 40
5.101808031471336
 40
5.162325165538605
 40
5.226919745995917
 40
5.294231806596699
 40
5.364544852554882
 40
5.438319055467917
 40
5.517877651324333
 40
5.607647714861532
 40
5.700449642544377
 40
5.788251142364209
 40
5.872714706039817
 40
5.955167292575396
 40
6.037192395190446
 40
6.120669181469172
 40
6.206848616686404
 40
6.296680855416783
 40
6.442558392872638
 40
6.568190371608349
 40
6.692904567360468
 40
6.824220446557261
 40
6.963121850329457
 40
7.107843738851228
 40
7.25343166390732
 40
7.395187468036837
 40
7.533140753237825
 40
7.670550457175382
 40
7.816236511769376
 40
7.987691657359327
 40
8.142277421969297
 40
8.293662615415084
 40
8.442962460879333
 40
8.591598316185438
 40
8.74367899236186
 40
8.90372532369923
 40
9.076307008890632
 40
9.26557860468063
 40
9.459203795360779
 40
9.617619810273673
 40
9.753609671362044
 40
9.874873300004143
 40
9.954520184977827
 40
10.02416413719246
 40
10.09769764405451
 40
10.18909955924978
 40
10.20974586420133
 40
10.23039218263373
 40
10.30057101881256
 40
10.37632012987534
 40
10.37632012987534
 40
10.37632012987534
 40
10.37632012987534
 10
170.1465954835851
 20
14.13795663216
 10
170.163221785122
 20
14.11720608845318
 10
170.1970784206578
 20
14.07495111711909
 10
170.2599822541036
 20
14.02029811392067
 10
170.3332500940393
 20
13.97299025121054
 10
170.4175969238637
 20
13.93527231437938
 10
170.513224061546
 20
13.91040619731954
 10
170.6171853775346
 20
13.90309559345931
 10
170.7224020220405
 20
13.91142322794056
 10
170.8206626371335
 20
13.94149179651521
 10
170.9058986427548
 20
13.98848822971879
 10
170.9779220206104
 20
14.04952991250854
 10
171.0350917709096
 20
14.12412969578581
 10
171.076786874744
 20
14.21002464660174
 10
171.1026952846292
 20
14.3048585043221
 10
171.1118037332653
 20
14.41854979038368
 10
171.0986864796487
 20
14.5433258777078
 10
171.0325330334414
 20
14.66014719171893
 10
170.9369370919569
 20
14.7451253957738
 10
170.8249681022369
 20
14.81416684459161
 10
170.699365958327
 20
14.87204142045892
 10
170.5656691620857
 20
14.92373723284339
 10
170.4313122818832
 20
14.97899092397187
 10
170.3051983986877
 20
15.04939770641641
 10
170.1926579987536
 20
15.13785540731256
 10
170.0969963064457
 20
15.2498106786847
 10
170.0334157151827
 20
15.3994991010139
 10
170.0200706505016
 20
15.55932794385146
 10
170.0320510987449
 20
15.7104840530685
 10
170.0712298928842
 20
15.83809244591539
 10
170.1354987750911
 20
15.95080874030844
 10
170.223820499974
 20
16.04648609268688
 10
170.3338091207628
 20
16.12354214985756
 10
170.4632284401265
 20
16.18151396936282
 10
170.6111838967794
 20
16.2173917758882
 10
170.7682069455487
 20
16.22746719050561
 10
170.917494046643
 20
16.21863637762588
 10
171.059625361417
 20
16.19074899340355
 10
171.1595922609626
 20
16.13413314701141
 10
171.3125074736184
 20
16.0867460210551
 10
171.2455131717169
 20
16.00197553001185
 10
171.2296479120269
 20
15.93438901873487
 10
171.1978750531296
 20
15.86926092793191
 10
171.2150202209573
 20
15.76723453256953
 10
171.1666427208232
 20
15.77493211681904
 10
171.1315789440766
 20
15.76806771724807
 10
171.1296697985718
 20
15.83263831158197
 10
171.0985692931988
 20
15.87825639621397
 10
171.0664551628456
 20
15.93561036628451
 10
171.0208038475169
 20
15.98540462692561
 10
170.9658508218388
 20
16.02994813718994
 10
170.9010841173008
 20
16.0676398883655
 10
170.8232377310597
 20
16.09283375791347
 10
170.7355160553353
 20
16.09931230998109
 10
170.6452903277808
 20
16.09235709285606
 10
170.5594594694064
 20
16.06909190460929
 10
170.4828343638596
 20
16.03131644107547
 10
170.4165265636201
 20
15.98051641089571
 10
170.3622560536964
 20
15.91731143407213
 10
170.3224925345459
 20
15.8427645571037
 10
170.2976775510588
 20
15.75917313997768
 10
170.2892124262869
 20
15.6519294838229
 10
170.3019697987104
 20
15.52965457267564
 10
170.3681548409273
 20
15.41149724291212
 10
170.4640977399832
 20
15.3260632570953
 10
170.5757914963183
 20
15.25583362306729
 10
170.7010863668702
 20
15.19659162305305
 10
170.8349823941447
 20
15.14616708086129
 10
170.968993033315
 20
15.09322516984385
 10
171.0950885316915
 20
15.0275017062518
 10
171.2076216638417
 20
14.94480352537315
 10
171.3031370284233
 20
14.83996006310076
 10
171.3672706486963
 20
14.69937117251568
 10
171.3811103725279
 20
14.54065409451594
 10
171.3673954712229
 20
14.3815315521788
 10
171.3244739153986
 20
14.23483828819212
 10
171.2545906329066
 20
14.10119796587144
 10
171.1574592213829
 20
13.98532387699296
 10
171.0347806023657
 20
13.89089981770091
 10
170.8874408413168
 20
13.82179270651979
 10
170.7177132497126
 20
13.77953210858855
 10
170.5317404979597
 20
13.76781736230405
 10
170.3528955926184
 20
13.7780948668344
 10
170.1881733753743
 20
13.8196657376915
 10
170.0834410841056
 20
13.88797642883941
 10
169.9350960790366
 20
13.9367521903211
 10
169.9980378194729
 20
14.02976591290842
 10
170.0072274430061
 20
14.10296536248279
 10
170.0303711301232
 20
14.16936294501345
 10
170.0034588335318
 20
14.2697480952758
 10
170.0521338956339
 20
14.2623403351738
 10
170.0916530580697
 20
14.26894063620894
 10
170.0996204944702
 20
14.19078703218936
 10
170.1305436967923
 20
14.15600927375862
 10
170.1465954835851
 20
14.13795663216
 97
        1
330
A8
 75
     1
 76
     2
 52
45.0
 41
0.1
 77
     0
 78
     1
 53
45.0
 43
0.0
 44
0.0
 45
-0.282842712474619
 46
0.0
 79
     0
 98
        1
 10
0.0
 20
0.0
  0
HATCH
  5
C7
330
48
100
AcDbEntity
  8
1
  6
Continuous
 62
     2
100
AcDbHatch
 10
0.0
 20
0.0
 30
0.0
210
0.0
220
0.0
230
1.0
  2
CUSTOM1
 70
     0
 71
     1
 91
        2
 92
        1
 93
        1
 72
     4
 94
        3
 73
     0
 74
     0
 95
       57
 96
       53
 40
0.0
 40
0.0
 40
0.0
 40
0.0
 40
0.0471632082810125
 40
0.0914861054631915
 40
0.1357762519702151
 40
0.1826527001611583
 40
0.2295203288573491
 40
0.2737751972221661
 40
0.3181310461543978
 40
0.3652607198398616
 40
0.4571007286314916
 40
0.5671851029165488
 40
0.689462328386894
 40
0.8181758272545847
 40
0.9510087229274143
 40
1.08585222967408
 40
1.21812616447533
 40
1.343545131142399
 40
1.454537202956787
 40
1.567187607530909
 40
1.680710966642528
 40
1.794226869736892
 40
1.900009184247663
 40
2.004085860447971
 40
2.10816267445183
 40
2.214000150155317
 40
2.496038577352207
 40
2.762350745479353
 40
2.997275353279437
 40
3.185110082137753
 40
3.24640789006404
 40
3.312607550212828
 40
3.378877742711702
 40
3.440140399651475
 40
4.100501696006468
 40
4.754913085563532
 40
5.411331693423935
 40
6.077890432568694
 40
6.110575292670973
 40
6.143260152775753
 40
6.36798936339508
 40
6.610525374951477
 40
6.863389136467262
 40
7.119380025547472
 40
7.376036605090996
 40
7.631164770966222
 40
7.876722425456366
 40
8.10495373585587
 40
8.312916685924188
 40
8.49773029494123
 40
8.651018984313756
 40
8.764738853624525
 40
8.764738853624525
 40
8.764738853624525
 40
8.764738853624525
 10
174.7922649500514
 20
13.81626739612929
 10
174.7766616726932
 20
13.81826231079081
 10
174.7463947960303
 20
13.82213201360304
 10
174.7010994202253
 20
13.82341984967277
 10
174.6559553129349
 20
13.82308683554058
 10
174.60990171234
 20
13.82314658674231
 10
174.5640496172096
 20
13.82325813650009
 10
174.5183711648164
 20
13.82277833456598
 10
174.4750811541608
 20
13.82461109618728
 10
174.4039947951515
 20
13.80049556814658
 10
174.4057477261441
 20
13.92184693977254
 10
174.358619637057
 20
14.00726239751235
 10
174.3191478251761
 20
14.12486929345135
 10
174.2706635532646
 20
14.24232752540444
 10
174.2201017402522
 20
14.36405935761506
 10
174.1718634610478
 20
14.49075967862469
 10
174.1135232947596
 20
14.59933687784957
 10
174.0980892667262
 20
14.75620657134411
 10
173.9566586330636
 20
14.72373446548325
 10
173.8508397414904
 20
14.73512888682179
 10
173.7358569725222
 20
14.73392591514613
 10
173.6253142252141
 20
14.73506945347404
 10
173.5176583522783
 20
14.73418350037524
 10
173.4121322529243
 20
14.73416602390518
 10
173.3109192682013
 20
14.7271403247242
 10
173.1266804827753
 20
14.75135859859867
 10
173.1157393685411
 20
14.44741691121888
 10
173.0087691634749
 20
14.22353177253398
 10
172.9098148604347
 20
14.038953142925
 10
172.9225090524008
 20
13.79530204804202
 10
172.8050091716398
 20
13.82508046753204
 10
172.7422055868309
 20
13.82258089509611
 10
172.67858720934
 20
13.82344075102811
 10
172.3946014194075
 20
13.78098039941931
 10
173.0251638499381
 20
14.50081952444802
 10
173.1087645289072
 20
15.01276539435732
 10
173.4929252789338
 20
15.53353743550044
 10
173.4777208288569
 20
16.23519626253216
 10
173.7239265722697
 20
16.22345633081253
 10
173.8256346157564
 20
16.23225004452771
 10
173.8249752035817
 20
15.98059650730342
 10
173.942831715583
 20
15.79818020733962
 10
174.0315515260486
 20
15.5556374066287
 10
174.1322292485259
 20
15.32340030530128
 10
174.2311142712243
 20
15.08674644566917
 10
174.3299676990669
 20
14.85461739170091
 10
174.4256166390926
 20
14.63122222788791
 10
174.515990457327
 20
14.42272549049315
 10
174.598994456819
 20
14.23308448529323
 10
174.67260885828
 20
14.06663106068106
 10
174.7342815895545
 20
13.92917699626097
 10
174.7749458885604
 20
13.84999239430035
 10
174.7922649500514
 20
13.81626739612929
 97
        1
330
A9
 92
       16
 93
        1
 72
     4
 94
        3
 73
     0
 74
     0
 95
       25
 96
       21
 40
0.0
 40
0.0
 40
0.0
 40
0.0
 40
0.0911479969065393
 40
0.185811789620468
 40
0.2804128399735072
 40
0.3715889190714524
 40
0.4679080494218722
 40
0.5642683809229243
 40
0.6605683222645289
 40
0.7569653015811149
 40
0.85613481725236
 40
1.09261596510438
 40
1.374867658141964
 40
1.61134881201169
 40
1.710518328425335
 40
1.809403163726647
 40
2.045205463294143
 40
2.326646917622191
 40
2.562449217190645
 40
2.66133404383396
 40
2.66133404383396
 40
2.66133404383396
 40
2.66133404383396
 10
173.2683700567199
 20
14.886145381973
 10
173.2987525917923
 20
14.88598079714562
 10
173.3606895889112
 20
14.88564528689928
 10
173.4541356960331
 20
14.88269055451999
 10
173.5475095236357
 20
14.87977752877153
 10
173.6417760753477
 20
14.87894201643416
 10
173.7354964790967
 20
14.87996644658046
 10
173.8352040303205
 20
14.87916977470971
 10
173.9188949546313
 20
14.88921410235217
 10
174.0637996315046
 20
14.86234617674174
 10
173.9396132444802
 20
15.03665530280054
 10
173.8965867286283
 20
15.19651711006099
 10
173.780892214221
 20
15.45518458550221
 10
173.7017565431257
 20
15.59231052861863
 10
173.6431576621816
 20
15.8093703313408
 10
173.5864803939438
 20
15.59266134213433
 10
173.5052809900477
 20
15.45327012438241
 10
173.4063701281488
 20
15.20406969370201
 10
173.3253625094259
 20
15.01925830226081
 10
173.2813683325838
 20
14.91650446856124
 10
173.2683700567199
 20
14.886145381973
 97
        1
330
AA
 75
     1
 76
     2
 52
45.0
 41
0.1
 77
     0
 78
     1
 53
45.0
 43
0.0
 44
0.0
 45
-0.282842712474619
 46
0.0
 79
     0
 98
        1
 10
0.0
 20
0.0
  0
HATCH
  5
C8
330
48
100
AcDbEntity
  8
1
  6
Continuous
 62
     2
100
AcDbHatch
 10
0.0
 20
0.0
 30
0.0
210
0.0
220
0.0
230
1.0
  2
CUSTOM2
 70
     0
 71
     1
 91
        1
 92
        1
 93
        1
 72
     4
 94
        3
 73
     0
 74
     0
 95
       95
 96
       91
 40
0.0
 40
0.0
 40
0.0
 40
0.0
 40
0.6550406656910731
 40
1.308087289031896
 40
1.420803739835737
 40
1.566130759770777
 40
1.757067341888387
 40
2.006513545026405
 40
2.087328263121492
 40
2.185328872295605
 40
2.294612454748311
 40
2.408936380534769
 40
2.526802767798522
 40
2.646360524615575
 40
2.76253572397155
 40
2.870057342870115
 40
2.96688344843157
 40
3.050803243518294
 40
3.115818222436537
 40
3.15603005715019
 40
3.213914225080067
 40
3.276689026450412
 40
3.342960320981275
 40
3.404230667150527
 40
3.453822809493371
 40
3.532499827188434
 40
3.634775188507116
 40
3.75490933300809
 40
3.889736761660626
 40
4.035769602175221
 40
4.187256681197598
 40
4.338733685675972
 40
4.488478734676118
 40
4.634708317831516
 40
4.771493189921263
 40
4.892686571561168
 40
5.199775528944402
 40
5.460353566929633
 40
5.667603142345495
 40
5.814722905404418
 40
5.828990806219744
 40
5.855488336304413
 40
5.869756237118745
 40
6.189796507762709
 40
6.531890469872873
 40
6.883053637016858
 40
7.230512024911323
 40
7.566966656764444
 40
7.885203559707234
 40
8.172887439719071
 40
8.418011594062662
 40
8.443926721190584
 40
8.51076047061307
 40
8.602145393795578
 40
8.701714041647016
 40
8.793098965075245
 40
8.859932715057816
 40
8.885847842603464
 40
9.242301256612718
 40
9.589275455016672
 40
9.921808543164047
 40
10.23479624298455
 40
10.29968150889171
 40
10.35323493887753
 40
10.4015462535514
 40
10.46482922477821
 40
10.55973900668398
 40
10.69239545985609
 40
10.84920353475668
 40
11.01626328594777
 40
11.18672024367438
 40
11.35372582577207
 40
11.5025744229242
 40
11.61866495023289
 40
11.7132986915287
 40
11.82511050573902
 40
11.94464880845713
 40
12.06929242642503
 40
12.19707290435169
 40
12.32562632860525
 40
12.45034565331275
 40
12.56646595170323
 40
12.67099007414629
 40
12.76077625936782
 40
12.82703233506687
 40
12.87429132785991
 40
12.8983199032333
 40
12.92234847860018
 40
13.53984767410316
 40
14.18294284359368
 40
14.18294284359368
 40
14.18294284359368
 40
14.18294284359368
 10
177.3067935648021
 20
14.7089803820173
 10
177.1752019758551
 20
14.82265058603238
 10
176.912419380273
 20
15.04964496316167
 10
176.399739344102
 20
15.89214462956289
 10
176.4106654595363
 20
15.5342337757702
 10
176.404122652799
 20
15.39267392272135
 10
176.4028026631773
 20
15.19421305299282
 10
176.4018117602539
 20
15.02150296045986
 10
176.4024101751975
 20
14.87865373257581
 10
176.4038994301882
 20
14.78265005413359
 10
176.4055683588473
 20
14.67545503263142
 10
176.4071934954618
 20
14.56164211517583
 10
176.4092429501686
 20
14.44441572604589
 10
176.4123165501927
 20
14.3265641123297
 10
176.4156339697042
 20
14.2122808732062
 10
176.4193605340279
 20
14.10521401867278
 10
176.4217338161425
 20
14.01007408766923
 10
176.4278718888357
 20
13.92558557205696
 10
176.4239784495948
 20
13.86923087298144
 10
176.4455230443077
 20
13.79825022472356
 10
176.3680940058618
 20
13.82902677604489
 10
176.3116353240191
 20
13.82011242517621
 10
176.2540495896807
 20
13.82896218398283
 10
176.1690163478472
 20
13.79738225225946
 10
176.2009714146384
 20
13.88095155992193
 10
176.1990705282539
 20
13.94882608968312
 10
176.21079600473
 20
14.05233256764419
 10
176.2164241053001
 20
14.17002125616694
 10
176.2237902178941
 20
14.30388609164424
 10
176.2320759701611
 20
14.44764152872635
 10
176.2398851897427
 20
14.59714022843449
 10
176.2457571222657
 20
14.74792549402083
 10
176.2503667817968
 20
14.8969994387844
 10
176.2542632117544
 20
15.04122913163024
 10
176.2570715126563
 20
15.17583905213017
 10
176.2576698755023
 20
15.36469614347356
 10
176.261602386715
 20
15.58975494313155
 10
176.2442175378499
 20
15.86367091125709
 10
176.2850417342584
 20
16.027871120986
 10
176.1995153256001
 20
16.22749661465091
 10
176.2660558907689
 20
16.22385458403976
 10
176.2838724273231
 20
16.22413447160851
 10
176.4056801797508
 20
16.22632927398613
 10
176.5080770335461
 20
15.94675118721515
 10
176.7580021509356
 20
15.74563008535997
 10
176.9870035331111
 20
15.47792614987921
 10
177.2245151213108
 20
15.22646413862373
 10
177.4486090740772
 20
14.98969974061361
 10
177.6750716283009
 20
14.73218692583081
 10
177.8325687886514
 20
14.61649335056921
 10
178.0472129612675
 20
14.27997152538795
 10
178.0422645974619
 20
14.40464754091604
 10
178.0433931602547
 20
14.46327691935738
 10
178.0428877841517
 20
14.55043662371978
 10
178.0430475158114
 20
14.64416143182872
 10
178.0430054891319
 20
14.73018971297035
 10
178.0430202040374
 20
14.79153891945495
 10
178.0429706255983
 20
14.94135231520995
 10
178.0458811522811
 20
15.17989612510106
 10
178.0259521041163
 20
15.54486509868703
 10
178.0750433936247
 20
15.80799631993416
 10
177.917795150918
 20
16.21928904947749
 10
178.0762112872421
 20
16.1639828255175
 10
178.1311680478628
 20
16.16199686500179
 10
178.182788776674
 20
16.16264778248253
 10
178.2713198965366
 20
16.20369527738246
 10
178.2204898303169
 20
16.05696326622991
 10
178.2313389930283
 20
15.95019971954437
 10
178.2166036994848
 20
15.79085705414114
 10
178.2099976446205
 20
15.62853061652874
 10
178.2014961399915
 20
15.45992521892396
 10
178.19432272022
 20
15.29814814703542
 10
178.1889063215389
 20
15.15422331457933
 10
178.1871713967649
 20
15.03437493466926
 10
178.1875440672319
 20
14.92686101590515
 10
178.1873656126264
 20
14.81820024645587
 10
178.187701086314
 20
14.69953570165531
 10
178.1890040622184
 20
14.57555163512743
 10
178.1908887351575
 20
14.44858294171106
 10
178.192500445485
 20
14.32153861551033
 10
178.194140313743
 20
14.19854884492178
 10
178.1962570745751
 20
14.08300931383761
 10
178.1963848422364
 20
13.98090903955837
 10
178.2006514396554
 20
13.89009848838158
 10
178.1908440085289
 20
13.83213621208785
 10
178.2118474771689
 20
13.76517130132028
 10
178.1725639739897
 20
13.77291153966687
 10
177.9595307117744
 20
13.75755254145191
 10
177.7636297943188
 20
14.31403058094477
 10
177.4611197631544
 20
14.57556035348515
 10
177.3067935648021
 20
14.7089803820173
 97
        1
330
AB
 75
     1
 76
     2
 52
45.0
 41
0.1
 77
     0
 78
     1
 53
45.0
 43
0.0
 44
0.0
 45
-0.282842712474619
 46
0.0
 79
     0
 98
        1
 10
0.0
 20
0.0
  0
HATCH
  5
C9
330
48
100
AcDbEntity
  8
1
  6
Continuous
 62
     2
100
AcDbHatch
 10
0.0
 20
0.0
 30
0.0
210
0.0
220
0.0
230
1.0
  2
CUSTOM3
 70
     0
 71
     1
 91
        1
 92
        1
 93
        1
 72
     4
 94
        3
 73
     0
 74
     0
 95
      110
 96
      106
 40
0.0
 40
0.0
 40
0.0
 40
0.0
 40
0.2203406257278034
 40
0.44078087828382
 40
0.595249449461546
 40
0.7488431659393162
 40
0.9023581831309441
 40
1.056801968670414
 40
1.210736449099971
 40
1.363041386539794
 40
1.515315729683163
 40
1.669377239148086
 40
1.721611652756501
 40
1.773199502942891
 40
1.824933793209975
 40
1.877110426487927
 40
1.982682281206688
 40
2.078781667087497
 40
2.172809640822189
 40
2.271937807378871
 40
2.378349933379265
 40
2.494131557736341
 40
2.62668168394353
 40
2.783145050796015
 40
2.890701232940841
 40
2.993130312454695
 40
3.099869730691731
 40
3.220237816691226
 40
3.352695482737492
 40
3.481732806389727
 40
3.593499473690283
 40
3.674323013331751
 40
3.817951711952729
 40
3.946167120793811
 40
4.061405053453411
 40
4.166480796003137
 40
4.262478775059116
 40
4.350736673551017
 40
4.433071991253904
 40
4.511216293814622
 40
4.564262454117973
 40
4.618474415571622
 40
4.670128488754198
 40
4.722296879126371
 40
4.819540945314293
 40
4.931194984128088
 40
5.04999604025776
 40
5.16864375541539
 40
5.283970811762602
 40
5.392260784910428
 40
5.486512254876475
 40
5.559178233949902
 40
5.591425852853555
 40
5.626215969637942
 40
5.667155838674486
 40
5.717449290214328
 40
5.738402360944943
 40
5.784499116553913
 40
5.830595872164888
 40
5.851548942897746
 40
5.873019280661857
 40
5.924217778408395
 40
5.985325662817769
 40
6.036524160567777
 40
6.057994498334305
 40
6.236847789607558
 40
6.381409928945762
 40
6.49319042417875
 40
6.574067534230519
 40
6.691018086205613
 40
6.814881554220531
 40
6.944307823240483
 40
7.071266716066222
 40
7.193488604461979
 40
7.309042773128266
 40
7.414007203170859
 40
7.505140441886564
 40
7.531150360599795
 40
7.559221645322395
 40
7.587202218921005
 40
7.612569159499276
 40
7.662550809481092
 40
7.702878875764229
 40
7.857328205231044
 40
8.010799568088691
 40
8.165256399657641
 40
8.32223269871398
 40
8.479564855016667
 40
8.63521623029087
 40
8.79088255092576
 40
8.948305154947356
 40
9.16827183903305
 40
9.38735898098729
 40
9.608047961033565
 40
9.832914234792783
 40
9.858338694963116
 40
9.925366817230119
 40
10.0201307142277
 40
10.12876249859007
 40
10.23739428295257
 40
10.33215817995198
 40
10.39918630222401
 40
10.4246107623979
 40
10.64992019336951
 40
10.87188524531194
 40
10.87188524531194
 40
10.87188524531194
 40
10.87188524531194
 10
179.9057788376618
 20
15.73923260398189
 10
179.9092864933542
 20
15.80616462073804
 10
179.9163033987663
 20
15.94005891915859
 10
179.8198027599073
 20
16.22548554971471
 10
180.0510134726108
 20
16.16284386190282
 10
180.1919290057157
 20
16.17001554056
 10
180.3490417757588
 20
16.16235883078243
 10
180.5025913427288
 20
16.16252752283045
 10
180.6545104935081
 20
16.16182040535431
 10
180.8142214813232
 20
16.17210158351649
 10
180.9408972601118
 20
16.15496511080747
 10
181.1370821122079
 20
16.22727260107146
 10
181.103439527908
 20
16.12640699080121
 10
181.1052011317183
 20
16.07619253947675
 10
181.1027342073459
 20
16.02712335586471
 10
181.134707696601
 20
15.94063490847003
 10
181.0010399903256
 20
15.98997438608338
 10
180.9172208688057
 20
15.98430634314172
 10
180.8173861139323
 20
15.99465516706298
 10
180.7186576720146
 20
16.00086450411086
 10
180.6121532771111
 20
16.00697763816779
 10
180.491051169806
 20
16.01588883484594
 10
180.3703381502455
 20
16.00521605912382
 10
180.1812553843437
 20
16.06468503080367
 10
180.2129028505312
 20
15.90558320077541
 10
180.1995563316833
 20
15.80839128339907
 10
180.1974958426451
 20
15.69634065110104
 10
180.195818804467
 20
15.57699685629352
 10
180.1973336794233
 20
15.45032592155112
 10
180.1956582478672
 20
15.3230158801612
 10
180.2058844271657
 20
15.22451566404467
 10
180.1779006596582
 20
15.08388702625636
 10
180.3508029999306
 20
15.13989551134101
 10
180.4645020202772
 20
15.12719951478499
 10
180.584015167224
 20
15.13448377051258
 10
180.6888491425072
 20
15.13878017056759
 10
180.7843084898612
 20
15.14330568258974
 10
180.8763823507032
 20
15.15149201146203
 10
180.9476551782438
 20
15.14643850638114
 10
181.0544931705687
 20
15.18536425031683
 10
181.0226603598036
 20
15.10517122005884
 10
181.0266164503929
 20
15.05562936846036
 10
181.0234502392013
 20
15.00557478039822
 10
181.0550791490586
 20
14.9212884761203
 10
180.9210133677693
 20
14.97425365495161
 10
180.8292322793201
 20
14.96540080890436
 10
180.7079729189603
 20
14.9757004996516
 10
180.5914113119772
 20
14.97748911767499
 10
180.4783375745879
 20
14.97787017109695
 10
180.3679246308471
 20
14.98415449472182
 10
180.289812406784
 20
14.97189133255363
 10
180.1913625833644
 20
15.00453887616128
 10
180.2012355173561
 20
14.94769748054209
 10
180.1973923244404
 20
14.91392130557985
 10
180.1966789884268
 20
14.87119604709412
 10
180.1963369642974
 20
14.83401607262153
 10
180.1963834255346
 20
14.79487237370769
 10
180.1963649429927
 20
14.75716849497684
 10
180.1963703431807
 20
14.719449552324
 10
180.19636972142
 20
14.68994324745148
 10
180.1963698151546
 20
14.658735776993
 10
180.196370428792
 20
14.61414424908083
 10
180.1963671499337
 20
14.55963956508851
 10
180.1963759623481
 20
14.51505540201447
 10
180.1963359653417
 20
14.43117808585741
 10
180.1976024270255
 20
14.31737520677677
 10
180.1950274117843
 20
14.16830395933708
 10
180.206500938172
 20
14.06597203813906
 10
180.1823506222263
 20
13.93338903885838
 10
180.3332993946476
 20
13.97895732272026
 10
180.4428436671555
 20
13.96427012162355
 10
180.5733970473921
 20
13.96920435125063
 10
180.6990312209514
 20
13.97257705323372
 10
180.8188730625601
 20
13.97711497498774
 10
180.9391362611427
 20
13.99048536182016
 10
181.0222761663516
 20
13.98068712782598
 10
181.1456080421075
 20
14.04126214623325
 10
181.1244269203956
 20
13.98532460134022
 10
181.1235950270116
 20
13.95939249372346
 10
181.1218963707558
 20
13.93197256190938
 10
181.121797488883
 20
13.89738195206386
 10
181.120365930133
 20
13.86050408220769
 10
181.153280419219
 20
13.76846841021807
 10
180.9551306988107
 20
13.84132015974838
 10
180.8300548294891
 20
13.81825726508614
 10
180.6673071295156
 20
13.82454021985793
 10
180.5129366450001
 20
13.82260943909934
 10
180.3566670436944
 20
13.82393762599276
 10
180.1970544465282
 20
13.8205987248787
 10
180.0540326342237
 20
13.83265795728247
 10
179.8197144881628
 20
13.76952001976917
 10
179.9173810751198
 20
14.05620527466318
 10
179.9006868780058
 20
14.24988308142662
 10
179.9146296709685
 20
14.47848242880297
 10
179.9142987846631
 20
14.63384593955051
 10
179.9143078119264
 20
14.7396633644413
 10
179.9143055876316
 20
14.80205784124217
 10
179.9143065551888
 20
14.89220425248329
 10
179.9143065473261
 20
14.99621167157439
 10
179.9143053861102
 20
15.10022131375297
 10
179.9143090971502
 20
15.19036243688768
 10
179.9143011051051
 20
15.25276803097215
 10
179.9143334275019
 20
15.35868835961121
 10
179.9131440788319
 20
15.5162671654474
 10
179.9082216489256
 20
15.66528219822066
 10
179.9057788376618
 20
15.73923260398189
 97
        1
330
AC
 75
     1
 76
     2
 52
45.0
 41
0.1
 77
     0
 78
     1
 53
45.0
 43
0.0
 44
0.0
 45
-0.282842712474619
 46
0.0
 79
     0
 98
        1
 10
0.0
 20
0.0
  0
HATCH
  5
CA
330
48
100
AcDbEntity
  8
1
  6
Continuous
 62
     2
100
AcDbHatch
 10
0.0
 20
0.0
 30
0.0
210
0.0
220
0.0
230
1.0
  2
CUSTOM4
 70
     0
 71
     1
 91
        1
 92
        1
 93
        1
 72
     4
 94
        3
 73
     0
 74
     0
 95
       47
 96
       43
 40
0.0
 40
0.0
 40
0.0
 40
0.0
 40
0.2207912809957319
 40
0.4459404186303393
 40
0.4902387190459884
 40
0.532747389272249
 40
0.5742260451226417
 40
0.6155432630561137
 40
0.6568164066316619
 40
0.6982511618781863
 40
0.7407663929317743
 40
0.7851366743176641
 40
1.010288833836486
 40
1.231080507002349
 40
1.451765243652522
 40
1.676638205891801
 40
1.720461045359772
 40
1.830018144043636
 40
1.972442372353268
 40
2.114866600677636
 40
2.224423699395261
 40
2.268246538883502
 40
2.493628801207342
 40
2.715602830286773
 40
2.934211330706492
 40
3.149502369855495
 40
3.231387784851228
 40
3.318231873854292
 40
3.405143198198281
 40
3.486970301720719
 40
3.70225817249417
 40
3.920866283534367
 40
4.142839325932187
 40
4.368221903865658
 40
4.412044743360138
 40
4.521601842096151
 40
4.664026070452632
 40
4.806450298809342
 40
4.916007397547036
 40
4.959830237043358
 40
5.184703515847385
 40
5.405387250767702
 40
5.405387250767702
 40
5.405387250767702
 40
5.405387250767702
 10
182.6507427258646
 20
15.73406440953869
 10
182.6568139420004
 20
15.79758482501207
 10
182.6690762107244
 20
15.92587938689625
 10
182.5604706879412
 20
16.20166220174078
 10
182.6761985896604
 20
16.17188133432052
 10
182.7171842509016
 20
16.16765556262828
 10
182.7591205797519
 20
16.16310446389606
 10
182.800419662571
 20
16.1620198292949
 10
182.8417032115556
 20
16.16310338195225
 10
182.8836148270647
 20
16.16766112711352
 10
182.924598354902
 20
16.17187430209728
 10
183.0404922843489
 20
16.20177611317537
 10
182.9295652727457
 20
15.92339806609888
 10
182.9574856365267
 20
15.74283140824952
 10
182.940426734697
 20
15.50961042346472
 10
182.9414637282102
 20
15.34906622543148
 10
182.9414099399405
 20
15.22284817558725
 10
182.941427737248
 20
15.12428963336244
 10
182.9414188581081
 20
14.99280702442966
 10
182.9414263928033
 20
14.86132844968652
 10
182.9414129405129
 20
14.76276222694094
 10
182.9414531717492
 20
14.63639735624154
 10
182.9406746403818
 20
14.47482068822872
 10
182.9565958319266
 20
14.24361821892915
 10
182.9333468885407
 20
14.05874351972002
 10
183.0360183444367
 20
13.78935602770051
 10
182.8820238362836
 20
13.82660112685824
 10
182.8004129802832
 20
13.82137994680542
 10
182.7188192292583
 20
13.82660620378357
 10
182.5648513666842
 20
13.78937069885384
 10
182.6674183421917
 20
14.05875129862881
 10
182.6442045316089
 20
14.24361585325415
 10
182.6600444655139
 20
14.4748221856564
 10
182.6593296313427
 20
14.63639712308505
 10
182.6593664569907
 20
14.76276231210524
 10
182.659354900027
 20
14.86132756635984
 10
182.6593575019213
 20
14.99281127417223
 10
182.6593648531779
 20
15.12427548031202
 10
182.659344254135
 20
15.22287786275329
 10
182.6594082192028
 20
15.3489614935443
 10
182.658173394759
 20
15.51210091383772
 10
182.6532040396746
 20
15.66054183777548
 10
182.6507427258646
 20
15.73406440953869
 97
        1
330
AD
 75
     1
 76
     2
 52
45.0
 41
0.1
 77
     0
 78
     1
 53
45.0
 43
0.0
 44
0.0
 45
-0.282842712474619
 46
0.0
 79
     0
 98
        1
 10
0.0
 20
0.0
  0
HATCH
  5
CB
330
48
100
AcDbEntity
  8
1
  6
Continuous
 62
     2
100
AcDbHatch
 10
0.0
 20
0.0
 30
0.0
210
0.0
220
0.0
230
1.0
  2
CUSTOM5
 70
     0
 71
     1
 91
        1
 92
        1
 93
        1
 72
     4
 94
        3
 73
     0
 74
     0
 95
      118
 96
      114
 40
0.0
 40
0.0
 40
0.0
 40
0.0
 40
0.1054708162973396
 40
0.2466098270051939
 40
0.3965912874591456
 40
0.5285525069754242
 40
0.6156245055642757
 40
0.6431434105798055
 40
0.7036850037986885
 40
0.7642265984505422
 40
0.7917455052355894
 40
0.9287404319990622
 40
1.106572819088138
 40
1.287544879681104
 40
1.317578308030619
 40
1.399928030857247
 40
1.522968204800014
 40
1.675072986590625
 40
1.84461653318069
 40
2.01997300163874
 40
2.18951654888004
 40
2.341621331585368
 40
2.464661506320493
 40
2.54701122964705
 40
2.577044658168012
 40
2.603797890893083
 40
2.66265500290877
 40
2.721512114949582
 40
2.748265347702761
 40
2.774215307344836
 40
2.845959313407166
 40
2.954338556588363
 40
3.090194227585537
 40
3.244367517100498
 40
3.407699615844253
 40
3.571031714539398
 40
3.725205003920071
 40
3.861060674729569
 40
3.96943991771626
 40
4.041183923628932
 40
4.067133883212923
 40
4.311886746012118
 40
4.547897258335503
 40
4.764747083043956
 40
4.952749679951743
 40
5.045772974195905
 40
5.137862019645
 40
5.33054316979306
 40
5.553448265244064
 40
5.795083855888255
 40
6.043293412177334
 40
6.285761695541282
 40
6.313902908752766
 40
6.384255941793356
 40
6.475714884766916
 40
6.56717382775895
 40
6.637526860839728
 40
6.665668074074063
 40
6.692018920328024
 40
6.749990782071071
 40
6.807962643790416
 40
6.834313490017879
 40
6.856393084245157
 40
6.913335195649781
 40
6.991194817302416
 40
7.076026942283677
 40
7.153886563725139
 40
7.210828674844693
 40
7.232908268931029
 40
7.258199334923553
 40
7.324875781592208
 40
7.419142481924874
 40
7.527204308841826
 40
7.635266135230415
 40
7.729532834168412
 40
7.796209279292738
 40
7.821500344594687
 40
7.844652988850787
 40
7.899863140541567
 40
7.965759128053763
 40
8.020969279771105
 40
8.044121924046571
 40
8.069356610160686
 40
8.10913439544146
 40
8.132238100191175
 40
8.193147867786541
 40
8.27926167887672
 40
8.377977512673938
 40
8.47669334714673
 40
8.562807160411786
 40
8.623716930826575
 40
8.64682063685353
 40
8.671988793774343
 40
8.734909185828254
 40
8.816705695188968
 40
8.89850220481554
 40
8.961422597378
 40
8.986590754551113
 40
9.012941600733257
 40
9.070913462380318
 40
9.12888532408179
 40
9.155236170325098
 40
9.180404327929141
 40
9.243324721948214
 40
9.325121234212007
 40
9.406917746637662
 40
9.469838141978117
 40
9.495006288270892
 40
9.517811184379037
 40
9.572192090487048
 40
9.63709833328129
 40
9.6914792395155
 40
9.714284125643543
 40
9.714284125643543
 40
9.714284125643543
 40
9.714284125643543
 10
185.2874469028653
 20
15.2688916318772
 10
185.3090990569038
 20
15.24111869242812
 10
185.3597257109473
 20
15.17618054561236
 10
185.4349383202591
 20
15.06891060312897
 10
185.5248482274347
 20
14.95377438266627
 10
185.5709169676674
 20
14.85357045748316
 10
185.6655825294656
 20
14.78434006814944
 10
185.6204439320413
 20
14.73771639678273
 10
185.5947047785791
 20
14.6966030886604
 10
185.5645196708012
 20
14.6606597172794
 10
185.5193684730561
 20
14.58579782596096
 10
185.4710504458563
 20
14.80782524253609
 10
185.3968539713073
 20
14.84510677337708
 10
185.2836047324607
 20
15.11610202130596
 10
185.2885133578169
 20
15.00095328446226
 10
185.2868486556306
 20
14.92836675781625
 10
185.2876830076714
 20
14.80625588483985
 10
185.2873609540264
 20
14.65913800810461
 10
185.2875076912455
 20
14.49307063956558
 10
185.2872950092723
 20
14.32187554608605
 10
185.2879497252034
 20
14.15552828635501
 10
185.2859192461139
 20
14.00935173055698
 10
185.291346039993
 20
13.88471047474617
 10
185.2804930868708
 20
13.81718656540633
 10
185.2956739155554
 20
13.75549061417029
 10
185.2457895108134
 20
13.76727503897009
 10
185.2017150342522
 20
13.75943822779976
 10
185.1582371630201
 20
13.7676044137271
 10
185.1092346786488
 20
13.75538056738474
 10
185.1218731234824
 20
13.8096066724932
 10
185.113018296845
 20
13.86936918907565
 10
185.1175058770314
 20
13.97922029044376
 10
185.115796013599
 20
14.11029975405685
 10
185.1163550915987
 20
14.26198011444334
 10
185.1161928768693
 20
14.42211074929959
 10
185.1162269924674
 20
14.58236865674571
 10
185.1162514960127
 20
14.73370247520444
 10
185.1161453543224
 20
14.86582156338605
 10
185.1164299141931
 20
14.97294802533197
 10
185.1158675547568
 20
15.03808619579478
 10
185.1180765083689
 20
15.16618957858679
 10
185.0319435998603
 20
14.79097610391574
 10
184.9555140818501
 20
14.63918193123395
 10
184.8660040767833
 20
14.47766206446304
 10
184.7640413217327
 20
14.20471848820169
 10
184.7187976491039
 20
14.36717346596512
 10
184.610235594167
 20
14.45605432058115
 10
184.7995791751752
 20
14.60549794961408
 10
184.85653405457
 20
14.79749136974927
 10
184.9717520993353
 20
15.02899622906757
 10
184.9940151630133
 20
15.21797259759066
 10
185.177190515214
 20
15.49454089325934
 10
185.0538033597552
 20
15.48698978832099
 10
184.9925684166834
 20
15.48856772366123
 10
184.9081999617064
 20
15.48882592573678
 10
184.8204235085967
 20
15.48544845751211
 10
184.7656768696123
 20
15.49394814982025
 10
184.7104703026025
 20
15.48048561049794
 10
184.7222823035536
 20
15.52931442126766
 10
184.7142496151795
 20
15.5726900489671
 10
184.7228186104678
 20
15.61509438309573
 10
184.7102943409158
 20
15.66267796552116
 10
184.7555101538736
 20
15.65267212995107
 10
184.8014815562725
 20
15.6589410517406
 10
184.877722204771
 20
15.65593561405869
 10
184.9561296131994
 20
15.65770448278539
 10
185.0323992648933
 20
15.65464793981658
 10
185.0783009459475
 20
15.66103971376175
 10
185.12317339654
 20
15.65093822978895
 10
185.1105552275634
 20
15.70157201581897
 10
185.1191936582707
 20
15.75501261882069
 10
185.1152361595442
 20
15.8486325513168
 10
185.1162325068335
 20
15.95112606688925
 10
185.1171927413073
 20
16.05353270248165
 10
185.1133211458006
 20
16.14735929609324
 10
185.1217789814364
 20
16.20036542840356
 10
185.1093075932835
 20
16.25211435651192
 10
185.154210638985
 20
16.2385074722676
 10
185.1955083836772
 20
16.24100480320587
 10
185.259534428105
 20
16.23648060574486
 10
185.2986111148787
 20
16.22781003043309
 10
185.3476543498743
 20
16.23515102070682
 10
185.322508003059
 20
16.19602896051764
 10
185.2815901333723
 20
16.20563842455808
 10
185.2910109616604
 20
16.1554014816978
 10
185.2855647318746
 20
16.1038594563949
 10
185.2881699601803
 20
16.0195970758452
 10
185.2870102202154
 20
15.92559135583408
 10
185.2883591064231
 20
15.83196865395524
 10
185.284997010151
 20
15.74679517552222
 10
185.2920959917768
 20
15.69716856072042
 10
185.2812569154546
 20
15.64993694969987
 10
185.3304010225245
 20
15.6620167493685
 10
185.3794877630147
 20
15.65447393363009
 10
185.4573714280641
 20
15.65686070361431
 10
185.5350365172896
 20
15.65899381905413
 10
185.5845393931354
 20
15.65193391922452
 10
185.6344594750639
 20
15.66360151936212
 10
185.6223198516881
 20
15.61540235371393
 10
185.6305838229143
 20
15.57249219801237
 10
185.6223198650784
 20
15.52958201851388
 10
185.6344594549854
 20
15.48138288754869
 10
185.5845395158747
 20
15.49305034471516
 10
185.5350350651202
 20
15.4859920243505
 10
185.4573784382973
 20
15.48811665228609
 10
185.379464386576
 20
15.49053389365765
 10
185.3304500352716
 20
15.48291848194491
 10
185.2813246108943
 20
15.49507952557597
 10
185.2915559988571
 20
15.45073013424162
 10
185.2856677678053
 20
15.40925436202915
 10
185.2878788305568
 20
15.34915394315305
 10
185.2874109346146
 20
15.3022578276289
 10
185.2874386992913
 20
15.27650146418197
 10
185.2874469028653
 20
15.2688916318772
 97
        1
330
AE
 75
     1
 76
     2
 52
45.0
 41
0.1
 77
     0
 78
     1
 53
45.0
 43
0.0
 44
0.0
 45
-0.282842712474619
 46
0.0
 79
     0
 98
        1
 10
0.0
 20
0.0
  0
HATCH
  5
CC
330
48
100
AcDbEntity
  8
1
  6
Continuous
 62
     2
100
AcDbHatch
 10
0.0
 20
0.0
 30
0.0
210
0.0
220
0.0
230
1.0
  2
CUSTOM6
 70
     0
 71
     1
 91
        1
 92
        1
 93
        1
 72
     4
 94
        3
 73
     0
 74
     0
 95
       91
 96
       87
 40
0.0
 40
0.0
 40
0.0
 40
0.0
 40
0.0345987051695434
 40
0.1258134969461369
 40
0.2547723404888987
 40
0.4026032099154409
 40
0.5504340793417273
 40
0.6793929228836932
 40
0.7706077146571888
 40
0.8052064287781777
 40
1.124852390615365
 40
1.427402236308963
 40
1.706356627453609
 40
1.955541417875303
 40
2.169485938566458
 40
2.34435078666492
 40
2.480568411562075
 40
2.590440557429098
 40
2.649189927151308
 40
2.749320643306535
 40
2.912632739880234
 40
3.147745656000388
 40
3.244827496385307
 40
3.338490056946949
 40
3.583815413207362
 40
3.761423943238713
 40
3.886956104362897
 40
3.985855451887102
 40
4.091766255337986
 40
4.250186473812152
 40
4.422734315084774
 40
4.628285684838866
 40
4.872093227758707
 40
5.152549652145817
 40
5.464967135837797
 40
5.803201477852716
 40
6.160362988814189
 40
6.193449448276244
 40
6.284170385501898
 40
6.41971813876474
 40
6.58728504638599
 40
6.774063446723904
 40
6.967245678113859
 40
7.154024078817873
 40
7.32159098702623
 40
7.45713874089056
 40
7.547859678556296
 40
7.580946138182856
 40
7.608533084714908
 40
7.669224367077883
 40
7.729915649430101
 40
7.757502595950152
 40
7.790278062553634
 40
7.880146277431104
 40
8.014419963180538
 40
8.180411842398067
 40
8.365434637679536
 40
8.55680107162281
 40
8.741823866830922
 40
8.907815745916489
 40
9.042089431507614
 40
9.13195764624974
 40
9.164733112797316
 40
9.41542506314027
 40
9.667986180958678
 40
9.694169807462846
 40
9.756607686047804
 40
9.83113031532261
 40
9.893568193900075
 40
9.919751820398892
 40
9.950967964690673
 40
9.996421631210834
 40
10.22087981037476
 40
10.44341866197564
 40
10.47847970788876
 40
10.57091337438777
 40
10.70159545461257
 40
10.85140174170385
 40
11.00120802880508
 40
11.13189010907413
 40
11.22432377583038
 40
11.25938480938987
 40
11.28697175596175
 40
11.34766303835949
 40
11.408354320421
 40
11.43594125892134
 40
11.43594125892134
 40
11.43594125892134
 40
11.43594125892134
 10
190.081811433329
 20
15.55242795125079
 10
190.0702785844941
 20
15.55242790287917
 10
190.0283409445
 20
15.55242773704166
 10
189.9434129719026
 20
15.55243125800911
 10
189.8207688553129
 20
15.5524092643588
 10
189.6791206916993
 20
15.55250801177056
 10
189.537975369849
 20
15.55214686232422
 10
189.4141351317904
 20
15.55321883609091
 10
189.3317217825381
 20
15.5509224909127
 10
189.1727791229692
 20
15.56048569373422
 10
189.3503402353376
 20
15.19785394311372
 10
189.3379739205453
 20
14.95243127723115
 10
189.4064519473864
 20
14.66862501324835
 10
189.469302432097
 20
14.43250999939035
 10
189.5452253431728
 20
14.23326740396129
 10
189.6303189577016
 20
14.07745347451371
 10
189.7244607592935
 20
13.97657857781389
 10
189.8282648207728
 20
13.92465852638962
 10
189.9125872030774
 20
13.97606484379614
 10
189.9351322179452
 20
14.09144544037518
 10
189.9745730975371
 20
14.21885149702382
 10
189.9202919734942
 20
14.53622328086749
 10
190.0451218072474
 20
14.38982180140905
 10
190.2019291513604
 20
14.35795300331174
 10
190.0947720007057
 20
14.12421357767629
 10
190.0808711209868
 20
13.95972776583657
 10
190.0234709467225
 20
13.83130869122485
 10
189.9335020145008
 20
13.76018802352831
 10
189.8095274657878
 20
13.74432324142257
 10
189.663427319686
 20
13.77993797554175
 10
189.5243894320285
 20
13.90000570500281
 10
189.4102003962144
 20
14.07435682550323
 10
189.3146141301486
 20
14.29946603111243
 10
189.2318652572626
 20
14.56388246006445
 10
189.1807179256412
 20
14.88187933098546
 10
189.0770189207337
 20
15.15543728488914
 10
189.2042841208522
 20
15.5600581861287
 10
189.0357890623018
 20
15.5511236784968
 10
188.9511995787077
 20
15.55315961418365
 10
188.8189876387628
 20
15.55213937388408
 10
188.6560505094104
 20
15.55253230318431
 10
188.4733759170533
 20
15.55235696313371
 10
188.2847057373383
 20
15.5526010530747
 10
188.1014469020189
 20
15.55185657906238
 10
187.9404746832719
 20
15.55416360522428
 10
187.8029808335276
 20
15.54799804883664
 10
187.7289590372312
 20
15.56032838458212
 10
187.6613215186857
 20
15.54329323723558
 10
187.673237371927
 20
15.59524438447529
 10
187.6655677285694
 20
15.6407142496653
 10
187.6732592225117
 20
15.68614453703706
 10
187.6613141797762
 20
15.73802395984572
 10
187.7283588305868
 20
15.72119143490265
 10
187.8017375665677
 20
15.73335409092672
 10
187.9379128305272
 20
15.72727231074959
 10
188.0973811801513
 20
15.72954834315059
 10
188.2789173085836
 20
15.72881233998962
 10
188.465803486218
 20
15.72905954196135
 10
188.6468012316836
 20
15.72886400799254
 10
188.8080802578879
 20
15.72932234714841
 10
188.9393882124887
 20
15.72812673751207
 10
189.0225051322597
 20
15.73051347319744
 10
189.1556236547815
 20
15.72230605725465
 10
189.0645893502659
 20
15.97752868952655
 10
188.978963307442
 20
16.24164358328245
 10
189.0990589003455
 20
16.22904442969163
 10
189.1514264948544
 20
16.22694235763074
 10
189.2214497569715
 20
16.22535399889657
 10
189.2671922337817
 20
16.21602567538112
 10
189.3220812646933
 20
16.22545966915428
 10
189.2963574785682
 20
16.17733028655173
 10
189.1825397571451
 20
16.1826682974418
 10
189.3159346621138
 20
15.95449174576777
 10
189.194365873547
 20
15.72156856595923
 10
189.3223188769413
 20
15.7308725888444
 10
189.4049048406461
 20
15.72801001754681
 10
189.5307214850824
 20
15.72923437412303
 10
189.6741469838059
 20
15.72932431888966
 10
189.8157420951728
 20
15.72746163183854
 10
189.9459127249968
 20
15.73333075937164
 10
190.0193452286191
 20
15.72070340823205
 10
190.0891112922097
 20
15.73877563110414
 10
190.0775772605396
 20
15.68612850546327
 10
190.0833184346682
 20
15.64221317686549
 10
190.0816615770912
 20
15.59089982676551
 10
190.081775756167
 20
15.56158792021636
 10
190.081811433329
 20
15.55242795125079
 97
        1
330
AF
 75
     1
 76
     2
 52
45.0
 41
0.1
 77
     0
 78
     1
 53
45.0
 43
0.0
 44
0.0
 45
-0.282842712474619
 46
0.0
 79
     0
 98
        1
 10
0.0
 20
0.0
  0
HATCH
  5
CD
330
48
100
AcDbEntity
  8
1
  6
Continuous
 62
     2
100
AcDbHatch
 10
0.0
 20
0.0
 30
0.0
210
0.0
220
0.0
230
1.0
  2
CUSTOM7
 70
     0
 71
     1
 91
        1
 92
        1
 93
        1
 72
     4
 94
        3
 73
     0
 74
     0
 95
       75
 96
       71
 40
0.0
 40
0.0
 40
0.0
 40
0.0
 40
0.0342546099129709
 40
0.1245622414432382
 40
0.2522385480897572
 40
0.3985991922940733
 40
0.5449598364980892
 40
0.6726361431438923
 40
0.7629437746737031
 40
0.7971983935298079
 40
1.101723623449636
 40
1.408591244036575
 40
1.433332471690272
 40
1.487763172450055
 40
1.542193873081877
 40
1.566935100592417
 40
1.923523931821787
 40
2.271755704953586
 40
2.590579755100856
 40
2.858943305581145
 40
2.88912033930912
 40
2.918305855191067
 40
2.941366645531185
 40
2.996357760973061
 40
3.061992318140591
 40
3.116983433626773
 40
3.140044223997448
 40
3.411273122936375
 40
3.732441619741148
 40
3.761068217532848
 40
3.837787499630417
 40
3.948858699126061
 40
4.08054104910445
 40
4.219093782625841
 40
4.350776132722403
 40
4.461847332405745
 40
4.538566614678483
 40
4.567193212544731
 40
4.594907573998989
 40
4.666381453557556
 40
4.764111044011195
 40
4.870592538126027
 40
4.968322128642478
 40
5.039796008287191
 40
5.06751036978465
 40
5.094263603185865
 40
5.153120716668501
 40
5.211977830150947
 40
5.238731063551952
 40
5.272290535139191
 40
5.363380529445052
 40
5.497618415781758
 40
5.660621563454
 40
5.838007341749701
 40
6.015393119911052
 40
6.178396267038706
 40
6.312634151842686
 40
6.403724143059676
 40
6.437283612672771
 40
6.464036846261389
 40
6.522893960005002
 40
6.581751071484269
 40
6.608504301591215
 40
6.637253941281362
 40
6.711397748903242
 40
6.812778057283826
 40
6.923237199249603
 40
7.024617507624218
 40
7.098761315207899
 40
7.12751094600785
 40
7.12751094600785
 40
7.12751094600785
 40
7.12751094600785
 10
188.4418622390565
 20
14.9584912847327
 10
188.4418622819707
 20
14.94707313408726
 10
188.4418624481129
 20
14.90555257842634
 10
188.4418593081787
 20
14.82146922003778
 10
188.4418788279802
 20
14.70004497322333
 10
188.4417912187738
 20
14.55980494047453
 10
188.4421116235231
 20
14.42006556794582
 10
188.441160590974
 20
14.29745038894934
 10
188.4431978595968
 20
14.21587074438048
 10
188.4349433178746
 20
14.06271267077703
 10
188.7430797940901
 20
14.22560236054721
 10
189.0350645173737
 20
14.39482938687998
 10
189.0408354448707
 20
14.25973235781909
 10
189.0455471719891
 20
14.21617221160443
 10
189.048253541192
 20
14.17211249350546
 10
189.0672545672957
 20
14.0227259036313
 10
188.6583942247304
 20
14.08681172241264
 10
188.3793710348832
 20
13.97296341411016
 10
188.1018081587167
 20
13.87364095811144
 10
187.8099837184401
 20
13.91630687596354
 10
187.7869144678657
 20
13.81321679744543
 10
187.7537474383333
 20
13.78691091244474
 10
187.7480653962738
 20
13.83455309036307
 10
187.7284214559044
 20
13.87180336115071
 10
187.7095089485623
 20
13.93007387847564
 10
187.6942849867707
 20
13.97385201007804
 10
187.6477246372937
 20
14.08759421046309
 10
187.989089731245
 20
14.05576301120053
 10
188.2679649367387
 20
14.02161435106473
 10
188.2617753034908
 20
14.16913976479653
 10
188.2630935452774
 20
14.24013150908833
 10
188.2624831689949
 20
14.34719767958663
 10
188.2625871570726
 20
14.47398529786
 10
188.2629987964057
 20
14.60849243496053
 10
188.2613907841969
 20
14.73395549951189
 10
188.2659902567927
 20
14.84505246719123
 10
188.256418650221
 20
14.90761886800694
 10
188.2704001783692
 20
14.96595388295007
 10
188.2147384386706
 20
14.95289710582244
 10
188.1575655197822
 20
14.96136307749504
 10
188.0616048925648
 20
14.95729976080642
 10
187.9633767522821
 20
14.9597088985248
 10
187.867258245756
 20
14.95551600613393
 10
187.8104648525811
 20
14.96429346441168
 10
187.7550356873384
 20
14.95094936850127
 10
187.7670679427916
 20
15.00036910959262
 10
187.7592003173937
 20
15.04393988030401
 10
187.7666295563828
 20
15.08830469118531
 10
187.7551930564143
 20
15.13902297763997
 10
187.8232102370133
 20
15.12162460757749
 10
187.8968496879746
 20
15.13417450237194
 10
188.032506405821
 20
15.12799677011104
 10
188.1884909024525
 20
15.13029203093089
 10
188.3615926358144
 20
15.12940968262536
 10
188.5346942964182
 20
15.13029207142414
 10
188.6906789811216
 20
15.12799662955555
 10
188.8263351889798
 20
15.13417486262438
 10
188.8999756705653
 20
15.1216239421834
 10
188.9679914174725
 20
15.13902373012148
 10
188.9565590885923
 20
15.08830130414561
 10
188.9639539458297
 20
15.04397060811114
 10
188.9562039912273
 20
15.00028307550202
 10
188.9681203741877
 20
14.95063590098483
 10
188.9108170223618
 20
14.96461411338431
 10
188.8520145789773
 20
14.9553975567326
 10
188.75252936332
 20
14.95952268164935
 10
188.6494280098349
 20
14.95822760025893
 10
188.5537846354575
 20
14.95854077077647
 10
188.4857467971616
 20
14.9584877669715
 10
188.4514462213444
 20
14.95849051871662
 10
188.4418622390565
 20
14.9584912847327
 97
        1
330
B0
 75
     1
 76
     2
 52
45.0
 41
0.1
 77
     0
 78
     1
 53
45.0
 43
0.0
 44
0.0
 45
-0.282842712474619
 46
0.0
 79
     0
 98
        1
 10
0.0
 20
0.0
  0
HATCH
  5
CE
330
48
100
AcDbEntity
  8
1
  6
Continuous
 62
     2
100
AcDbHatch
 10
0.0
 20
0.0
 30
0.0
210
0.0
220
0.0
230
1.0
  2
CUSTOM8
 70
     0
 71
     1
 91
        1
 92
        1
 93
        1
 72
     4
 94
        3
 73
     0
 74
     0
 95
       15
 96
       11
 40
0.0
 40
0.0
 40
0.0
 40
0.0
 40
0.278553598509632
 40
0.5215624748198988
 40
0.6076917376041232
 40
0.693821000174238
 40
0.9405019146455764
 40
1.221691403489302
 40
1.300471877081189
 40
1.379252341684924
 40
1.379252341684924
 40
1.379252341684924
 40
1.379252341684924
 10
189.5681493630999
 20
16.22930267330379
 10
189.6296017794178
 20
16.17691646592715
 10
189.7446649974113
 20
16.07882876798221
 10
190.0397348497245
 20
15.92889785897226
 10
189.9025147631857
 20
15.84343227515019
 10
189.8041227843778
 20
15.71085785201554
 10
189.7130033590651
 20
16.01616985781424
 10
189.3636839480655
 20
16.07967869465383
 10
189.511925837657
 20
16.1789650988088
 10
189.5494081874237
 20
16.21252348402382
 10
189.5681493630999
 20
16.22930267330379
 97
        1
330
B1
 75
     1
 76
     2
 52
45.0
 41
0.1
 77
     0
 78
     1
 53
45.0
 43
0.0
 44
0.0
 45
-0.282842712474619
 46
0.0
 79
     0
 98
        1
 10
0.0
 20
0.0
  0
HATCH
  5
CF
330
48
100
AcDbEntity
  8
1
  6
Continuous
 62
     2
100
AcDbHatch
 10
0.0
 20
0.0
 30
0.0
210
0.0
220
0.0
230
1.0
  2
CUSTOM9
 70
     0
 71
     1
 91
        1
 92
        1
 93
        1
 72
     4
 94
        3
 73
     0
 74
     0
 95
       35
 96
       31
 40
0.0
 40
0.0
 40
0.0
 40
0.0
 40
0.0335231036621168
 40
0.0713218571712113
 40
0.4278866681486597
 40
0.8116865841963572
 40
1.198190237999995
 40
1.56137954681268
 40
1.659983174622056
 40
1.7593155738072
 40
2.132719617231078
 40
2.525233363588819
 40
2.910815397779683
 40
3.265244364303288
 40
3.592606723582033
 40
3.96438615460397
 40
4.359942131737794
 40
4.75815411863925
 40
4.843846538699863
 40
4.936650065543239
 40
5.256616602537321
 40
5.581707404416058
 40
5.899719158308157
 40
6.198363494280759
 40
6.46630104661578
 40
6.493895311537102
 40
6.559697020196923
 40
6.638234543442526
 40
6.704036252154335
 40
6.731630508423141
 40
6.731630508423141
 40
6.731630508423141
 40
6.731630508423141
 10
191.973601056867
 20
16.23463843719139
 10
191.967600609779
 20
16.22480690542327
 10
191.9548344099158
 20
16.20388988579804
 10
191.7949362006556
 20
16.17127126532672
 10
192.2322025842338
 20
15.88206680336711
 10
192.4345394828262
 20
15.68041138358441
 10
192.6819564267974
 20
15.43749387603279
 10
193.1831513624607
 20
15.36047662757777
 10
193.0125562198971
 20
15.21876939174659
 10
192.93832994632
 20
15.01710366209118
 10
192.6131432248188
 20
15.36956287174729
 10
192.3277741670663
 20
15.53175212559564
 10
192.0337604077657
 20
15.7368713005305
 10
191.8084452691135
 20
16.2182748859546
 10
191.5993085055521
 20
15.75343046609227
 10
191.3207873674835
 20
15.54350952252913
 10
191.0371383177208
 20
15.37424456359987
 10
190.7078639527832
 20
15.00142360907943
 10
190.6277012318225
 20
15.19708014459005
 10
190.4759724909743
 20
15.32491104190596
 10
190.9083395826795
 20
15.40454031765941
 10
191.0962565329766
 20
15.60026634915477
 10
191.3468477420503
 20
15.8163299691676
 10
191.5714350470161
 20
15.98190992300062
 10
191.6259775409714
 20
16.26133964636832
 10
191.7494661029011
 20
16.24737950408081
 10
191.806027334452
 20
16.24521268867651
 10
191.8761870984945
 20
16.24046859881364
 10
191.9333414022107
 20
16.23709429350546
 10
191.9644190320839
 20
16.23519854711124
 10
191.973601056867
 20
16.23463843719139
 97
        1
330
B2
 75
     1
 76
     2
 52
45.0
 41
0.1
 77
     0
 78
     1
 53
45.0
 43
0.0
 44
0.0
 45
-0.282842712474619
 46
0.0
 79
     0
 98
        1
 10
0.0
 20
0.0
  0
HATCH
  5
D0
330
48
100
AcDbEntity
  8
1
  6
Continuous
 62
     2
100
AcDbHatch
 10
0.0
 20
0.0
 30
0.0
210
0.0
220
0.0
230
1.0
  2
CUSTOM10
 70
     0
 71
     1
 91
        1
 92
        1
 93
        1
 72
     4
 94
        3
 73
     0
 74
     0
 95
       91
 96
       87
 40
0.0
 40
0.0
 40
0.0
 40
0.0
 40
0.0267532254356666
 40
0.085610338646396
 40
0.144467452199639
 40
0.171220685661823
 40
0.2039416005642252
 40
0.29556019716522
 40
0.4362601844616634
 40
0.6162252844506966
 40
0.8256392189704698
 40
1.054685709844382
 40
1.293548478893503
 40
1.532411247938246
 40
1.761457738799511
 40
1.97087167329848
 40
2.150836773256676
 40
2.291536760495537
 40
2.383155356836615
 40
2.415876284101263
 40
2.442629517487901
 40
2.501486630949024
 40
2.560343744424164
 40
2.587096977826429
 40
2.617068194440857
 40
2.699247336755998
 40
2.822032643466282
 40
2.973822353257812
 40
3.143014704823254
 40
3.318007936879805
 40
3.487200288186666
 40
3.638989997548147
 40
3.761775303794646
 40
3.84395444575298
 40
3.873925662229676
 40
3.890812773500387
 40
3.907699884771542
 40
3.937960767857192
 40
3.980983618142282
 40
4.199085915228389
 40
4.439444339237169
 40
4.677588241260866
 40
5.050698317837751
 40
5.448212454763137
 40
5.855291218044662
 40
6.138575438885339
 40
6.417434507584183
 40
6.444551104393867
 40
6.50420761736317
 40
6.563864130314496
 40
6.59098072710409
 40
6.848609460381505
 40
7.109611990668468
 40
7.35291090444611
 40
7.557830220705467
 40
7.587518925913381
 40
7.652834077375791
 40
7.718149228845718
 40
7.747837934062018
 40
7.854880190300945
 40
7.976511257403403
 40
8.369487896592233
 40
8.757514959223583
 40
9.126072419331045
 40
9.46063938039205
 40
9.746695593035733
 40
9.777569943118493
 40
9.80705032093167
 40
9.8303773361288
 40
9.886003295435867
 40
9.95239556942977
 40
10.00802152870611
 40
10.03134854388204
 40
10.2135695100958
 40
10.42203479292857
 40
10.66154556731051
 40
10.91693789564294
 40
11.15832906556559
 40
11.18982674596614
 40
11.27286608520401
 40
11.3902665303334
 40
11.52484752840876
 40
11.65942852648432
 40
11.77682897161471
 40
11.85986831085665
 40
11.8913659823041
 40
11.8913659823041
 40
11.8913659823041
 40
11.8913659823041
 10
190.7027885008197
 20
14.70699600701779
 10
190.7028237765288
 20
14.71587847311992
 10
190.7029366710797
 20
14.74430237047353
 10
190.7012984568491
 20
14.79409639169809
 10
190.7069750292912
 20
14.83657564478159
 10
190.6956928731708
 20
14.88730154856851
 10
190.7632296979033
 20
14.87012900740113
 10
190.8388029210701
 20
14.88290227166
 10
190.9828357056002
 20
14.87629729457386
 10
191.1569419185427
 20
14.8788846220647
 10
191.3639599611005
 20
14.87800591955557
 10
191.5894688172378
 20
14.87828207920031
 10
191.8251162293406
 20
14.87818339658666
 10
192.0607640531349
 20
14.87828184412771
 10
192.2862717580627
 20
14.87800678190793
 10
192.4932934632806
 20
14.87888186270739
 10
192.6673888915289
 20
14.87630522678451
 10
192.8114492071986
 20
14.88288290449217
 10
192.8869691915293
 20
14.87016243405608
 10
192.9545776037031
 20
14.88726400191691
 10
192.9430840140676
 20
14.83674785802945
 10
192.9505104581735
 20
14.79253252226507
 10
192.9428838927986
 20
14.74867966503616
 10
192.9546489459426
 20
14.69878374479335
 10
192.8930788491984
 20
14.71393227712519
 10
192.8256791738672
 20
14.70310665350681
 10
192.7013004056222
 20
14.70852031626243
 10
192.5554428236572
 20
14.70649205390792
 10
192.3893576440086
 20
14.70715777578394
 10
192.2188412621725
 20
14.70689643521249
 10
192.051979085539
 20
14.70721553391101
 10
191.9087346827106
 20
14.70635302590769
 10
191.7773313869835
 20
14.70863300482995
 10
191.7239859134657
 20
14.70407704374208
 10
191.6485188456913
 20
14.70999914992884
 10
191.6769075779233
 20
14.70094169343359
 10
191.7033652409542
 20
14.69725912268932
 10
191.6633522907702
 20
14.66654271968275
 10
191.5713663691868
 20
14.67667591174635
 10
191.543939620707
 20
14.43032502247786
 10
191.4478793967234
 20
14.27499558764376
 10
191.1917277964473
 20
13.9452541793157
 10
191.7627537732762
 20
14.08430022210449
 10
192.0173656320517
 20
14.08291779973365
 10
192.6279647048616
 20
13.99790569242079
 10
192.3340698578084
 20
14.29685417558207
 10
192.0133304286517
 20
14.44330856901777
 10
192.1313543360434
 20
14.50025540818286
 10
192.1724716466261
 20
14.52420099873347
 10
192.215681239441
 20
14.5459975881123
 10
192.3174574094451
 20
14.60928721253905
 10
192.4328867625247
 20
14.35147151408779
 10
192.6329591642278
 20
14.21616041113681
 10
192.7269077387228
 20
14.0379279513888
 10
192.9558829746394
 20
13.87997821027047
 10
192.8596031846707
 20
13.82915972576301
 10
192.816795976378
 20
13.79881292523057
 10
192.7718243528779
 20
13.77466130281462
 10
192.7121720925213
 20
13.72552146747574
 10
192.6789731061326
 20
13.8599747567361
 10
192.5582013350795
 20
14.01594265286579
 10
192.1970976005979
 20
13.88569928059552
 10
191.838506195554
 20
13.90224694409481
 10
191.457092045008
 20
13.89331229351862
 10
191.170345528289
 20
13.82882671672409
 10
190.8592055599718
 20
13.94230668192819
 10
190.8268737818788
 20
13.83122259927768
 10
190.7896178253318
 20
13.81196313850015
 10
190.7865737632753
 20
13.85874784087298
 10
190.7679892860608
 20
13.89806853919138
 10
190.7512436616778
 20
13.95765983478233
 10
190.7383730915753
 20
14.00201969871284
 10
190.7042327806429
 20
14.09106331120202
 10
190.9482714457753
 20
14.02181042943777
 10
191.1441394486672
 20
14.00030369057741
 10
191.2395426381276
 20
14.28226484478464
 10
191.2945135769597
 20
14.44363045421124
 10
191.5159619357156
 20
14.71391177589746
 10
191.3849239381216
 20
14.70548446853741
 10
191.3110026555854
 20
14.70779008496977
 10
191.1977459876244
 20
14.70671378321665
 10
191.0694251807485
 20
14.70707639076517
 10
190.9404252030416
 20
14.70697724466093
 10
190.8287840946292
 20
14.70699932712579
 10
190.7514663970027
 20
14.70699579189677
 10
190.7132876532011
 20
14.70699595845088
 10
190.7027885008197
 20
14.70699600701779
 97
        1
330
B3
 75
     1
 76
     2
 52
45.0
 41
0.1
 77
     0
 78
     1
 53
45.0
 43
0.0
 44
0.0
 45
-0.282842712474619
 46
0.0
 79
     0
 98
        1
 10
0.0
 20
0.0
  0
HATCH
  5
D1
330
48
100
AcDbEntity
  8
1
  6
Continuous
 62
     2
100
AcDbHatch
 10
0.0
 20
0.0
 30
0.0
210
0.0
220
0.0
230
1.0
  2
CUSTOM11
 70
     0
 71
     1
 91
        1
 92
        1
 93
        1
 72
     4
 94
        3
 73
     0
 74
     0
 95
      131
 96
      127
 40
0.0
 40
0.0
 40
0.0
 40
0.0
 40
0.0195577029826128
 40
0.0426490537461458
 40
0.2863607575856243
 40
0.5344948436189072
 40
0.7842238845572744
 40
0.8737315789466401
 40
0.9803832810311645
 40
1.092842274516909
 40
1.199761146656664
 40
1.289788768186386
 40
1.351573580786115
 40
1.370727117561357
 40
1.416400936017785
 40
1.470914848355924
 40
1.516588666791744
 40
1.535742203552825
 40
1.634216592293163
 40
1.760283341174992
 40
1.897966686682046
 40
2.031216387368865
 40
2.04968975113786
 40
2.101115601646798
 40
2.179502577739919
 40
2.278859318314039
 40
2.3931944622587
 40
2.516516648383821
 40
2.642834515405953
 40
2.766156701983462
 40
2.88049184675458
 40
2.979848588358626
 40
3.058235565443807
 40
3.109661416668963
 40
3.128134780704141
 40
3.146783742386457
 40
3.191254343315318
 40
3.244332157315977
 40
3.288802758225881
 40
3.307451719895123
 40
3.327717853844735
 40
3.383747753580099
 40
3.468388665924493
 40
3.574487837698802
 40
3.69489251572891
 40
3.822449946852052
 40
3.950007377920445
 40
4.07041205580054
 40
4.176511227368099
 40
4.261152139501545
 40
4.317182039076741
 40
4.337448172964661
 40
4.620011002696232
 40
4.885096638397466
 40
4.945373043518303
 40
5.01410771048867
 40
5.070481727652025
 40
5.319246955636511
 40
5.584812164505958
 40
5.859000912056785
 40
6.133746937541964
 40
6.401732212968787
 40
6.420736683995377
 40
6.472845717451028
 40
6.550702743893956
 40
6.646951193874164
 40
6.754234497930488
 40
6.865196086587266
 40
6.972479390357725
 40
7.068727839771887
 40
7.146584865450896
 40
7.198693898189125
 40
7.217698368905266
 40
7.234950401630744
 40
7.276089864269784
 40
7.325191803515889
 40
7.366331266090274
 40
7.383583298769624
 40
7.402779163492001
 40
7.453386443254432
 40
7.524934666445434
 40
7.606953361405774
 40
7.688972056428925
 40
7.760520279784176
 40
7.811127559734418
 40
7.830323424546039
 40
7.847844055299666
 40
7.894799345666705
 40
7.962779392744388
 40
8.043374293560428
 40
8.128174145149327
 40
8.208769044817124
 40
8.276749090376821
 40
8.32370437966938
 40
8.34122501005611
 40
8.358497614800287
 40
8.40167912668652
 40
8.457815092185578
 40
8.51395105772804
 40
8.557132569707996
 40
8.574405174505038
 40
8.602340668616456
 40
8.643455660540003
 40
8.66322527196667
 40
8.715345156564307
 40
8.789031889628628
 40
8.873502045520347
 40
8.957972194323958
 40
9.031658925567838
 40
9.083778811234518
 40
9.103548423002978
 40
9.119550083123515
 40
9.160817522379817
 40
9.217244429110183
 40
9.278724491644669
 40
9.335151398295453
 40
9.376418837357749
 40
9.392420497300536
 40
9.401196302734757
 40
9.417494229384236
 40
9.426270027749508
 40
9.440875075477544
 40
9.475702496998728
 40
9.517270709865898
 40
9.552098131994072
 40
9.566703169884283
 40
9.566703169884283
 40
9.566703169884283
 40
9.566703169884283
 10
194.6170254148479
 20
15.67015871511029
 10
194.6134345093371
 20
15.66453690702161
 10
194.6056039123624
 20
15.65227754419114
 10
194.5129968974549
 20
15.61601916040974
 10
194.4887622233248
 20
15.40148444212711
 10
194.3858709845939
 20
15.2219728450971
 10
194.1220492364306
 20
15.03615573798149
 10
194.284547156918
 20
14.95959336566082
 10
194.3607225760838
 20
14.89856693195444
 10
194.4492171072759
 20
14.83515804544762
 10
194.538993023311
 20
14.77525634219563
 10
194.5883817636046
 20
14.72102154849211
 10
194.6745708157383
 20
14.69286240541839
 10
194.641126067423
 20
14.65713309652818
 10
194.6214671166311
 20
14.62550387991913
 10
194.5919888217883
 20
14.58475872796074
 10
194.5688989446031
 20
14.55504663489652
 10
194.5380205968357
 20
14.502114226685
 10
194.472919336574
 20
14.62740334938907
 10
194.3796000122416
 20
14.68213900233938
 10
194.2950636285138
 20
14.73916423939347
 10
194.1722498125743
 20
14.89675287427524
 10
194.1764450847301
 20
14.82035806766838
 10
194.1751478652677
 20
14.77361280161297
 10
194.1758126448077
 20
14.69584785812603
 10
194.1755549986956
 20
14.59902068324423
 10
194.1756431239922
 20
14.4865027907881
 10
194.1756077302281
 20
14.36524085945699
 10
194.1756511758278
 20
14.2408689785896
 10
194.1755199942405
 20
14.11967683631335
 10
194.1759477562046
 20
14.00691148919741
 10
194.174667820231
 20
13.91082913768742
 10
194.1779759851043
 20
13.83113826468697
 10
194.1715197740087
 20
13.78815175788782
 10
194.1806208705555
 20
13.74955432372039
 10
194.1447910339935
 20
13.75810887724068
 10
194.1115223815252
 20
13.75342519985444
 10
194.0604562576041
 20
13.75351298759782
 10
194.0269723972812
 20
13.75794430283818
 10
193.9907585408754
 20
13.74960793842506
 10
194.0009782568665
 20
13.79145277179282
 10
193.9936487887774
 20
13.83778560820171
 10
193.9973633136102
 20
13.92374831106012
 10
193.9959480554897
 20
14.02605142704847
 10
193.9964105554638
 20
14.1445322393151
 10
193.9962773686231
 20
14.26957683153354
 10
193.9963015910044
 20
14.39475828107048
 10
193.9963354925551
 20
14.51286645379057
 10
193.9962060293132
 20
14.61628748709515
 10
193.996550754908
 20
14.69932036153666
 10
193.9958698278691
 20
14.75143368521243
 10
193.9994586600621
 20
14.87912907821359
 10
193.7826171386437
 20
14.58048716819621
 10
193.6021354921951
 20
14.35263981511511
 10
193.5490322295613
 20
14.49373443289817
 10
193.5200429133149
 20
14.54325767560939
 10
193.4196648062822
 20
14.64641779790118
 10
193.7405127723261
 20
14.7269503502378
 10
193.8689897005429
 20
14.91066283036439
 10
194.0906454325359
 20
15.11931995771766
 10
194.1770224894067
 20
15.29339211228346
 10
194.4549394229075
 20
15.56967051342517
 10
194.3346247839284
 20
15.56534559551119
 10
194.2863197351349
 20
15.56614856202558
 10
194.2102377454905
 20
15.56574582146589
 10
194.116701000975
 20
15.56590275611614
 10
194.0117594788557
 20
15.56582502576229
 10
193.9033887738717
 20
15.56595464378559
 10
193.7981454235897
 20
15.56554393490697
 10
193.7056237819412
 20
15.56682073671596
 10
193.6268130800708
 20
15.56340766534855
 10
193.5839674565379
 20
15.57023350036325
 10
193.5449499586516
 20
15.56065064201129
 10
193.5526365271863
 20
15.59420779565547
 10
193.5485464404312
 20
15.62523550322238
 10
193.5485531368814
 20
15.67236529270904
 10
193.5526239724911
 20
15.70340941646783
 10
193.5449495574582
 20
15.73701861635905
 10
193.5834819405495
 20
15.72748410420876
 10
193.624122801448
 20
15.73397435498075
 10
193.6951471850463
 20
15.73100150650257
 10
193.7729318149633
 20
15.73174761399161
 10
193.8507292246474
 20
15.73247814044529
 10
193.9217232089907
 20
15.72954235514164
 10
193.962427979182
 20
15.73595468772956
 10
194.0009853489909
 20
15.72650524176008
 10
193.9927342754927
 20
15.76264692158788
 10
193.9982346669358
 20
15.8012983761323
 10
193.9955754206163
 20
15.86913528561841
 10
193.9965815471533
 20
15.94591641538742
 10
193.9960178018319
 20
16.02849393582758
 10
193.9970714526592
 20
16.10517329229879
 10
193.9942675863131
 20
16.173319907767
 10
194.0000702721303
 20
16.21132399809347
 10
193.9915654551159
 20
16.24758448077647
 10
194.0255610233125
 20
16.23755723771852
 10
194.0594575683099
 20
16.24073266813706
 10
194.1126669060347
 20
16.23508965640608
 10
194.1660768574484
 20
16.23434774436424
 10
194.1995914649492
 20
16.22819223482978
 10
194.2388086183041
 20
16.2334602977359
 10
194.2120263698491
 20
16.19253380793491
 10
194.1708111001723
 20
16.20371204538107
 10
194.1782641540874
 20
16.15867056192122
 10
194.1742227952184
 20
16.11412278028142
 10
194.176171404964
 20
16.04223572621702
 10
194.1752364849758
 20
15.96168630588771
 10
194.176510719003
 20
15.88173995404996
 10
194.1732043793864
 20
15.80841837083185
 10
194.1802106179961
 20
15.76688643002572
 10
194.1701440380126
 20
15.72752418568117
 10
194.2029814803921
 20
15.73468063430985
 10
194.236457729648
 20
15.73027243137948
 10
194.2915053476019
 20
15.73217943347901
 10
194.3489502595314
 20
15.73185366407292
 10
194.4023026248309
 20
15.73106308733085
 10
194.4398540896639
 20
15.73313959118078
 10
194.4623172523236
 20
15.73022338167112
 10
194.4751678073731
 20
15.73572552644061
 10
194.4858255685889
 20
15.73801118197796
 10
194.4986635650143
 20
15.74494972588059
 10
194.514599103307
 20
15.72853046313677
 10
194.5410623920892
 20
15.71709122319453
 10
194.5726805253758
 20
15.69644687835194
 10
194.598725589215
 20
15.68116869628295
 10
194.6128517723974
 20
15.67266976323186
 10
194.6170254148479
 20
15.67015871511029
 97
        1
330
B4
 75
     1
 76
     2
 52
45.0
 41
0.1
 77
     0
 78
     1
 53
45.0
 43
0.0
 44
0.0
 45
-0.282842712474619
 46
0.0
 79
     0
 98
        1
 10
0.0
 20
0.0
  0
HATCH
  5
D2
330
48
100
AcDbEntity
  8
1
  6
Continuous
 62
     2
100
AcDbHatch
 10
0.0
 20
0.0
 30
0.0
210
0.0
220
0.0
230
1.0
  2
CUSTOM12
 70
     0
 71
     1
 91
        1
 92
        1
 93
        1
 72
     4
 94
        3
 73
     0
 74
     0
 95
      124
 96
      120
 40
0.0
 40
0.0
 40
0.0
 40
0.0
 40
0.0278187229624226
 40
0.1011590162383985
 40
0.2048470170589954
 40
0.3237088716558677
 40
0.4425707262521431
 40
0.5462587270698694
 40
0.6195990203311229
 40
0.6474177522577808
 40
0.6750060736114389
 40
0.7357003855241906
 40
0.7963946998053604
 40
0.8239830245570914
 40
0.8540933811102007
 40
0.9373396629408688
 40
1.063094687343121
 40
1.220731268637959
 40
1.399622220914634
 40
1.589140358637618
 40
1.778658496423728
 40
1.957549448940367
 40
2.115186030872988
 40
2.240941056914292
 40
2.324187341760362
 40
2.354297700109211
 40
2.38188602467172
 40
2.442580338710305
 40
2.503274652750327
 40
2.530862977314436
 40
2.560983949278389
 40
2.640393784452734
 40
2.752662861758957
 40
2.881361560117946
 40
3.010060258454993
 40
3.122329335705197
 40
3.201739170817754
 40
3.231860142753143
 40
3.264298024030198
 40
3.352343701778065
 40
3.482095226868583
 40
3.639650650172837
 40
3.811108022565288
 40
3.98256539492779
 40
4.140120818152366
 40
4.26987234314107
 40
4.357918020802129
 40
4.390355902043756
 40
4.423256253992325
 40
4.508104530072818
 40
4.624121560636586
 40
4.750528176031314
 40
4.866545206601789
 40
4.951393482691747
 40
4.984293834645148
 40
5.011450833242063
 40
5.071196230151849
 40
5.130941627056925
 40
5.158098625648591
 40
5.190998977601253
 40
5.275847253689078
 40
5.391864284256541
 40
5.518270899648058
 40
5.634287930209068
 40
5.719136206287742
 40
5.752036558235658
 40
5.782130946282686
 40
5.862783906228862
 40
5.979550131774736
 40
6.117984316640146
 40
6.263641154587696
 40
6.402075339413909
 40
6.518841564907713
 40
6.599494524815298
 40
6.629588912848535
 40
6.654403028226112
 40
6.713575149487852
 40
6.78419993932917
 40
6.843372060493216
 40
6.868186175802462
 40
6.896246243201515
 40
6.939586233757825
 40
6.96784656456446
 40
7.043584251089398
 40
7.153234334451265
 40
7.283231855734024
 40
7.420011856035068
 40
7.550009376579429
 40
7.659659458834837
 40
7.735397144416836
 40
7.763657474851009
 40
7.796409728010667
 40
7.880876065095941
 40
7.996370852465327
 40
8.122208446418222
 40
8.237703224798816
 40
8.322169562010538
 40
8.354921815205524
 40
8.382078813307304
 40
8.441824209206612
 40
8.50156960523976
 40
8.528726603485339
 40
8.56147885669536
 40
8.64594519387741
 40
8.76143998086495
 40
8.887277580764092
 40
9.002772362000613
 40
9.087238696660805
 40
9.119990949235287
 40
9.152428830612985
 40
9.240474508638197
 40
9.370226034149143
 40
9.527781457984021
 40
9.699238830981004
 40
9.870696203978188
 40
10.0282516278136
 40
10.15800315332522
 40
10.24604883135076
 40
10.27848670378479
 40
10.27848670378479
 40
10.27848670378479
 40
10.27848670378479
 10
195.3821827564384
 20
14.0141051738576
 10
195.3914554737524
 20
14.01410498511277
 10
195.4251744536861
 20
14.01410430876717
 10
195.4934706812466
 20
14.01411807243307
 10
195.592014171158
 20
14.01403224219548
 10
195.7062066464812
 20
14.01441755612253
 10
195.8185894417071
 20
14.01300835897548
 10
195.9214376600119
 20
14.01719117422246
 10
195.9806839874849
 20
14.00823089251986
 10
196.0371265937032
 20
14.02164434526063
 10
196.0246255586955
 20
13.97087198613363
 10
196.0329549635703
 20
13.92589320939069
 10
196.024817084112
 20
13.88056752990491
 10
196.0370529214457
 20
13.82931932408469
 10
195.9747773490333
 20
13.84447955365279
 10
195.9060513026868
 20
13.83359750710746
 10
195.7782756749592
 20
13.83911304747975
 10
195.6262984511643
 20
13.83700851253701
 10
195.4502695972523
 20
13.83771002588476
 10
195.2644431934287
 20
13.83745237531294
 10
195.0786167437176
 20
13.83771005144606
 10
194.9025880142169
 20
13.83700841847734
 10
194.7506104154195
 20
13.83911332229992
 10
194.6228357664555
 20
13.83359680767643
 10
194.5541077836581
 20
13.84448077125945
 10
194.4918349042884
 20
13.82931786684212
 10
194.5040616290019
 20
13.88057510805175
 10
194.4960004462598
 20
13.92582473272428
 10
194.5040675809893
 20
13.97106357955326
 10
194.4918238487084
 20
14.02234176909961
 10
194.5525017120698
 20
14.00749577363138
 10
194.6162810745737
 20
14.01756448170738
 10
194.7277314353503
 20
14.01294644212003
 10
194.8497533443824
 20
14.01413328905471
 10
194.9719538137824
 20
14.01515863900637
 10
195.0829794287392
 20
14.01092475623404
 10
195.1476517413959
 20
14.02018584521742
 10
195.2091162810502
 20
14.00604423049684
 10
195.1930065601338
 20
14.07235527884519
 10
195.2042980327359
 20
14.14447790121978
 10
195.1987400822562
 20
14.27513760888288
 10
195.2008035061691
 20
14.42607323708242
 10
195.2000167127295
 20
14.59335873107887
 10
195.2007845215628
 20
14.76061110332303
 10
195.198803878563
 20
14.91163289269914
 10
195.2041306156621
 20
15.04206069552994
 10
195.1933101388425
 20
15.11465442605898
 10
195.2090326429876
 20
15.18150469436797
 10
195.1432708132491
 20
15.16580512490823
 10
195.0756367830765
 20
15.17609243083994
 10
194.9615885293811
 20
15.1711378684712
 10
194.8451242674903
 20
15.17414128030474
 10
194.7306554121478
 20
15.16880303143388
 10
194.6640324657813
 20
15.18001268074823
 10
194.5990769715187
 20
15.1634913266501
 10
194.6107989758709
 20
15.21473720477057
 10
194.6032830189122
 20
15.2595033378409
 10
194.6107989878836
 20
15.3042694489796
 10
194.5990769505348
 20
15.35551536129739
 10
194.6640326339201
 20
15.33899381766814
 10
194.7306533339822
 20
15.35020571373943
 10
194.8451352858065
 20
15.34485436710663
 10
194.9615454436963
 20
15.34791188771116
 10
195.0757660174641
 20
15.34278499010707
 10
195.1430150439228
 20
15.35345733355598
 10
195.2083325941439
 20
15.33742082669075
 10
195.1941391448553
 20
15.39949685750053
 10
195.2036059462996
 20
15.46586761628762
 10
195.1990269004085
 20
15.58239972741966
 10
195.2007696555949
 20
15.71426685022376
 10
195.1997551495392
 20
15.85615960150274
 10
195.2017191344373
 20
15.98769050702581
 10
195.1964668553852
 20
16.10524577283005
 10
195.2073408763474
 20
16.16947789001586
 10
195.1919536641855
 20
16.2310880254505
 10
195.2407591537801
 20
16.21702407382114
 10
195.2853995564726
 20
16.21954742075315
 10
195.3538643946743
 20
16.21512797401711
 10
195.3959106169102
 20
16.20613025544035
 10
195.4487544758775
 20
16.21411714866511
 10
195.4207035002014
 20
16.17113917611681
 10
195.3749142248595
 20
16.18259552043838
 10
195.3869539073265
 20
16.12173520005141
 10
195.3796086070642
 20
16.05769299468777
 10
195.3831195826162
 20
15.94909368863915
 10
195.3819806760175
 20
15.82494319144755
 10
195.3819174780263
 20
15.69189719829879
 10
195.3832872966869
 20
15.56797381249556
 10
195.3791638801314
 20
15.45868337849338
 10
195.3877763103565
 20
15.39608580094169
 10
195.3746757454402
 20
15.33740133296364
 10
195.4393884328199
 20
15.35362113810901
 10
195.5060405953156
 20
15.34270260383311
 10
195.6198779541104
 20
15.34793740173754
 10
195.7357259122097
 20
15.34485547516912
 10
195.8496924263281
 20
15.35018259812512
 10
195.91603410181
 20
15.33904208166541
 10
195.980718852548
 20
15.35546979593176
 10
195.9689820772724
 20
15.3042592521005
 10
195.9765168063041
 20
15.25950334120999
 10
195.968982099226
 20
15.21474739010026
 10
195.9807188140737
 20
15.1635369087104
 10
195.9160344075253
 20
15.17996427794218
 10
195.8496886430826
 20
15.16882784447268
 10
195.7357459487013
 20
15.17413115893119
 10
195.6197995623055
 20
15.17114764593543
 10
195.5062756882124
 20
15.17606892268393
 10
195.4389231318804
 20
15.16585087513518
 10
195.3734285122496
 20
15.18145996138815
 10
195.3891713619218
 20
15.1146385182741
 10
195.3783275998215
 20
15.04207057815877
 10
195.3836581629792
 20
14.91162247614416
 10
195.3817136151856
 20
14.76064558185226
 10
195.3823133683215
 20
14.59322243934159
 10
195.3821506559606
 20
14.42656176118373
 10
195.3821895488136
 20
14.27360142921638
 10
195.38218164131
 20
14.14849178985707
 10
195.3821828382745
 20
14.06507890991423
 10
195.382182771621
 20
14.02491778281979
 10
195.3821827564384
 20
14.0141051738576
 97
        1
330
B5
 75
     1
 76
     2
 52
45.0
 41
0.1
 77
     0
 78
     1
 53
45.0
 43
0.0
 44
0.0
 45
-0.282842712474619
 46
0.0
 79
     0
 98
        1
 10
0.0
 20
0.0
  0
HATCH
  5
D3
330
48
100
AcDbEntity
  8
1
  6
Continuous
 62
     2
100
AcDbHatch
 10
0.0
 20
0.0
 30
0.0
210
0.0
220
0.0
230
1.0
  2
CUSTOM13
 70
     0
 71
     1
 91
        1
 92
        1
 93
        3
 72
     4
 94
        3
 73
     0
 74
     0
 95
       24
 96
       20
 40
0.0
 40
0.0
 40
0.0
 40
0.0
 40
0.2211075008754084
 40
0.4273218586245952
 40
0.5080174679240503
 40
0.5914835907871299
 40
0.8143265690193803
 40
1.054651302686694
 40
1.295452694023294
 40
1.518109231328964
 40
1.540864321905552
 40
1.595126460622814
 40
1.659890947896128
 40
1.714153085187431
 40
1.736908174961732
 40
1.764951100735386
 40
1.80156229122095
 40
1.953914424543632
 40
2.126104167379703
 40
2.126104167379703
 40
2.126104167379703
 40
2.126104167379703
 10
185.937536955689
 20
15.5898929511302
 10
185.9112579081812
 20
15.53097628234378
 10
185.8604698894426
 20
15.41711139679261
 10
185.8131784839112
 20
15.14441958233106
 10
185.704348280262
 20
15.24445482575459
 10
185.5514800279637
 20
15.27118593367328
 10
185.76861551812
 20
15.48518135017636
 10
185.7838483674381
 20
15.70332117782491
 10
185.8906889492001
 20
15.88451579066427
 10
185.8305380947079
 20
16.1691322631141
 10
185.9334317395402
 20
16.14114089222454
 10
185.977993346815
 20
16.13243251602304
 10
186.0380842395397
 20
16.1213965418336
 10
186.0756619587439
 20
16.10767523055563
 10
186.1252466928605
 20
16.10756076160227
 10
186.0930158919326
 20
16.07306592398626
 10
186.0171802221883
 20
16.08404104537964
 10
186.0429447159693
 20
15.89858969582453
 10
186.0055896763849
 20
15.80702313549592
 10
185.9857704961609
 20
15.75844135397709
 72
     4
 94
        3
 73
     0
 74
     0
 95
       70
 96
       66
 40
0.0
 40
0.0
 40
0.0
 40
0.0
 40
0.0241731073021472
 40
0.0846058988987582
 40
0.1631685280353852
 40
0.2417311571790608
 40
0.302163948829332
 40
0.3263370654896678
 40
0.3533118254250018
 40
0.422878343892323
 40
0.5179999095314539
 40
0.6216398239467221
 40
0.7167613891500825
 40
0.7863279069650982
 40
0.8133026791762955
 40
0.8372943998772798
 40
0.8945054261373434
 40
0.9627895541962935
 40
1.020000580349076
 40
1.043992300975175
 40
1.071934345522872
 40
1.113121768772943
 40
1.14522519933226
 40
1.225483775412781
 40
1.329819923771475
 40
1.434156071994348
 40
1.514414647795757
 40
1.546518078208357
 40
1.578974764260131
 40
1.662678849314126
 40
1.777131373668375
 40
1.901833377474794
 40
2.016285900500612
 40
2.099989982527979
 40
2.132446666570338
 40
2.15878235448606
 40
2.216720867907842
 40
2.274659381334256
 40
2.300995069256188
 40
2.33345175406616
 40
2.417155836543869
 40
2.531608358985309
 40
2.656310362283832
 40
2.770762886388965
 40
2.854466971340158
 40
2.886923657363965
 40
2.913597976833401
 40
2.982389642875208
 40
3.076451716947081
 40
3.178937260458704
 40
3.272999334740117
 40
3.341791001059347
 40
3.368465320663659
 40
3.39697608073888
 40
3.472140811846117
 40
3.578408190308806
 40
3.700226892456242
 40
3.82204559463446
 40
3.928312973256566
 40
4.003477705314964
 40
4.03198845686703
 40
4.058324144797833
 40
4.116262658237005
 40
4.174201171400812
 40
4.200536849608751
 40
4.200536849608751
 40
4.200536849608751
 40
4.200536849608751
 10
185.9857704961609
 20
15.75844135397709
 10
185.9938259544679
 20
15.75844359811691
 10
186.0220200663241
 20
15.75845146032801
 10
186.0765534803673
 20
15.75830754828376
 10
186.1482891808604
 20
15.75909120499902
 10
186.2236240137063
 20
15.75627570463815
 10
186.2713052366439
 20
15.76298403400961
 10
186.3195071245617
 20
15.75197563692435
 10
186.3062571799875
 20
15.80546402997037
 10
186.3151093964539
 20
15.86049583543095
 10
186.3108698036287
 20
15.95419908726113
 10
186.313348348128
 20
16.04959482218536
 10
186.3090938706061
 20
16.14356821983391
 10
186.3179818665847
 20
16.19795062438016
 10
186.3046977409946
 20
16.25233997691464
 10
186.351411927711
 20
16.23842216335361
 10
186.3943254545737
 20
16.24103877374046
 10
186.4605443456685
 20
16.23648422450755
 10
186.5013342271799
 20
16.22778162134161
 10
186.5525145690818
 20
16.23531799890193
 10
186.5253720487201
 20
16.1934997022328
 10
186.4803096055707
 20
16.20284992072596
 10
186.4942065045051
 20
16.13841207371835
 10
186.4858414431654
 20
16.07378219627398
 10
186.4903632178398
 20
15.97529141193887
 10
186.4854741311167
 20
15.87595932842573
 10
186.4950258992082
 20
15.81293115552972
 10
186.47997614552
 20
15.74964011499793
 10
186.5449159457208
 20
15.76515072944273
 10
186.6116246399497
 20
15.75499387697816
 10
186.7241435470827
 20
15.75988800099371
 10
186.8390235448954
 20
15.75691204732788
 10
186.9519871999747
 20
15.76221664184995
 10
187.0176267597678
 20
15.75107306472092
 10
187.0816276691054
 20
15.76744532319861
 10
187.070314288919
 20
15.71761689905279
 10
187.077533987151
 20
15.67416715212128
 10
187.070314261127
 20
15.6307174558745
 10
187.0816277175995
 20
15.58088895196882
 10
187.0176263598972
 20
15.59726166091368
 10
186.9519921240459
 20
15.58611271661594
 10
186.8389974317332
 20
15.59144857206861
 10
186.7242456548643
 20
15.58834345663827
 10
186.6113183686861
 20
15.59364894682594
 10
186.5455220903585
 20
15.58257300019599
 10
186.4816097975358
 20
15.59887597847624
 10
186.4936015165125
 20
15.54423524395747
 10
186.4862104613005
 20
15.48854295047847
 10
186.4892684841983
 20
15.39649689140575
 10
186.4893422785682
 20
15.30179109873104
 10
186.486031357836
 20
15.20952782902268
 10
186.4939505989904
 20
15.15435768736142
 10
186.4815076611617
 20
15.10058169100138
 10
186.5389116551632
 20
15.11453768862783
 10
186.5994708140382
 20
15.10511457884229
 10
186.7048680855081
 20
15.10942885928706
 10
186.8204294070622
 20
15.10835504612033
 10
186.9359688877797
 20
15.10725965900997
 10
187.0414181130841
 20
15.11162525770634
 10
187.1018680471803
 20
15.10209426030673
 10
187.1592837739111
 20
15.11617289606382
 10
187.1477773876708
 20
15.06707153265684
 10
187.1537566781749
 20
15.0256465801865
 10
187.1520311050802
 20
14.97651677966695
 10
187.1521500122971
 20
14.94854428447607
 10
187.1521871691833
 20
14.93980288195949
 72
     4
 94
        3
 73
     0
 74
     0
 95
       62
 96
       58
 40
0.0
 40
0.0
 40
0.0
 40
0.0
 40
0.0598250028308485
 40
0.2024846486897331
 40
0.3727558389221031
 40
0.515415484793607
 40
0.5752404975785339
 40
0.9332326775487201
 40
1.290451762839478
 40
1.602077253145908
 40
1.699931634112231
 40
1.799359756425159
 40
2.270120149657211
 40
2.804661928461648
 40
2.882342287383354
 40
3.07654318571919
 40
3.329004354835632
 40
3.58146552456844
 40
3.77566642454371
 40
3.853346784558324
 40
3.89912067959507
 40
3.984129341791954
 40
4.029903236817303
 40
4.105797496059456
 40
4.295533144152412
 40
4.542189486611646
 40
4.788845828875587
 40
4.978581476409966
 40
5.054475735244207
 40
5.621734664339285
 40
6.130867242037308
 40
6.225249780948651
 40
6.31891303972738
 40
6.663579954559027
 40
7.047498900224813
 40
7.435230791575726
 40
7.498943906668138
 40
7.650875181210075
 40
7.832212509001557
 40
7.984143783696942
 40
8.04785689890307
 40
8.091554632732585
 40
8.172707566964256
 40
8.216405300767986
 40
8.289021782160871
 40
8.462184160757216
 40
8.668861838005382
 40
8.842024215263946
 40
8.914640695475141
 40
8.989881580861352
 40
9.155411528827274
 40
9.320941477744073
 40
9.39618235248733
 40
9.45470901114382
 40
9.58346766017084
 40
9.712226309013062
 40
9.770752957989544
 40
9.770752957989544
 40
9.770752957989544
 40
9.770752957989544
 10
187.1521871691833
 20
14.93980288195949
 10
187.1322348171623
 20
14.93980875568671
 10
187.0647037716466
 20
14.93982863806156
 10
186.9410612161788
 20
14.93949362520325
 10
186.7863180150056
 20
14.9410767375051
 10
186.669734948248
 20
14.93686078860495
 10
186.4550942634241
 20
14.95215205331625
 10
186.8518948407228
 20
14.59198721286191
 10
186.8945656069267
 20
14.37510503397166
 10
187.3189162146612
 20
14.19325062511449
 10
187.1439821496074
 20
14.08985196568072
 10
187.0194523925083
 20
13.87831523212727
 10
186.7666277235944
 20
14.34806081001561
 10
186.4797602893626
 20
14.99511516984519
 10
186.490633592666
 20
14.68782672154694
 10
186.488289277796
 20
14.52288616971779
 10
186.4861096126411
 20
14.28879670711697
 10
186.4980774396346
 20
14.04498072421788
 10
186.4687984740631
 20
13.89855796860991
 10
186.5114522625469
 20
13.75113490174545
 10
186.423981400564
 20
13.76685797306226
 10
186.3768527606745
 20
13.76694303543461
 10
186.2898973207714
 20
13.75109425482916
 10
186.3313474021724
 20
13.89527771422769
 10
186.3029875004286
 20
14.03855052698462
 10
186.31459737753
 20
14.27674947365271
 10
186.3124175648273
 20
14.50517235240351
 10
186.3103111127995
 20
14.66705729375999
 10
186.3208035438324
 20
14.98153709333758
 10
186.0128963252893
 20
14.29229470872431
 10
185.7055258267458
 20
13.81476750243055
 10
185.5851367066274
 20
14.03741112637427
 10
185.4074607910723
 20
14.1501103495558
 10
185.8853326362894
 20
14.32548143465459
 10
185.9353959057208
 20
14.56091929252036
 10
186.3583799621718
 20
14.95322989344607
 10
186.127675427354
 20
14.93655307029065
 10
186.0049685859341
 20
14.94269518948769
 10
185.8325483095662
 20
14.93312822699574
 10
185.721322469445
 20
14.95448818489665
 10
185.6025779627448
 20
14.92136265357419
 10
185.6183169706686
 20
15.00203900606884
 10
185.6178550933764
 20
15.04645414290855
 10
185.6027881889931
 20
15.12967081778535
 10
185.7372380935444
 20
15.09062651983886
 10
185.8619755545747
 20
15.11739729328424
 10
186.062875523728
 20
15.10063949044054
 10
186.1921540949355
 20
15.12204225913006
 10
186.3328419928295
 20
15.08868778853422
 10
186.2980927452617
 20
15.22651875785071
 10
186.3222185666713
 20
15.34963257349485
 10
186.2967086182394
 20
15.4702405567034
 10
186.3333251146686
 20
15.60539865141499
 10
186.221141702777
 20
15.58094545781897
 10
186.1280356457138
 20
15.59307749842027
 10
186.0191547579821
 20
15.5895763007
 10
185.9569697640965
 20
15.58981755951608
 10
185.9375369557247
 20
15.5898929512415
 97
        3
330
B7
330
B8
330
B6
 75
     1
 76
     2
 52
45.0
 41
0.1
 77
     0
 78
     1
 53
45.0
 43
0.0
 44
0.0
 45
-0.282842712474619
 46
0.0
 79
     0
 98
        1
 10
0.0
 20
0.0
  0
HATCH
  5
D4
330
48
100
AcDbEntity
  8
1
  6
Continuous
 62
     2
100
AcDbHatch
 10
0.0
 20
0.0
 30
0.0
210
0.0
220
0.0
230
1.0
  2
CUSTOM14
 70
     0
 71
     1
 91
        1
 92
        1
 93
        4
 72
     1
 10
192.4578138032672
 20
15.22875434022059
 11
191.1602971697032
 21
15.22875434022059
 72
     1
 10
191.1602971697032
 20
15.22875434022059
 11
191.1602971697032
 21
15.3972233679563
 72
     1
 10
191.1602971697032
 20
15.3972233679563
 11
192.4578138032672
 21
15.3972233679563
 72
     1
 10
192.4578138032672
 20
15.3972233679563
 11
192.4578138032672
 21
15.22875434022059
 97
        1
330
B9
 75
     1
 76
     2
 52
45.0
 41
0.1
 77
     0
 78
     1
 53
45.0
 43
0.0
 44
0.0
 45
-0.282842712474619
 46
0.0
 79
     0
 98
        1
 10
0.0
 20
0.0
  0
ENDBLK
  5
4A
330
48
100
AcDbEntity
  8
0
100
AcDbBlockEnd
  0
BLOCK
  5
4D
330
4B
100
AcDbEntity
  8
0
100
AcDbBlockBegin
  2
開示A4枠
 70
     0
 10
0.00000000000001
 20
0.00000000000011
 30
0.0
  3
開示A4枠
  1

  0
INSERT
  5
4C
330
4B
100
AcDbEntity
  8
1
100
AcDbBlockReference
  2
開示A4
 10
0.0
 20
0.0
 30
0.0
 41
2.0
 42
2.0
 43
2.0
  0
ENDBLK
  5
4E
330
4B
100
AcDbEntity
  8
0
100
AcDbBlockEnd
  0
BLOCK
  5
50
330
4F
100
AcDbEntity
  8
0
100
AcDbBlockBegin
  2
cover
 70
     0
 10
178.788936121185
 20
180.7627948057673
 30
0.0
  3
cover
  1

  0
LINE
  5
D5
330
4F
100
AcDbEntity
  8
1
  6
Continuous
 62
     7
100
AcDbLine
 10
326.2889361211849
 20
278.7627948057673
 30
0.0
 11
311.2889361211849
 21
278.7627948057673
 31
0.0
  0
LINE
  5
D6
330
4F
100
AcDbEntity
  8
1
  6
Continuous
 62
     7
100
AcDbLine
 10
311.2889361211849
 20
278.7627948057673
 30
0.0
 11
307.7889361211849
 21
271.7627948057673
 31
0.0
  0
LINE
  5
D7
330
4F
100
AcDbEntity
  8
1
  6
Continuous
 62
     7
100
AcDbLine
 10
307.7889361211849
 20
271.7627948057673
 30
0.0
 11
329.7889361211849
 21
271.7627948057673
 31
0.0
  0
LINE
  5
D8
330
4F
100
AcDbEntity
  8
1
  6
Continuous
 62
     7
100
AcDbLine
 10
329.7889361211849
 20
271.7627948057673
 30
0.0
 11
326.2889361211849
 21
278.7627948057673
 31
0.0
  0
LINE
  5
D9
330
4F
100
AcDbEntity
  8
1
  6
Continuous
 62
     7
100
AcDbLine
 10
307.7889361211849
 20
187.7627948057673
 30
0.0
 11
311.2889361211849
 21
180.7627948057673
 31
0.0
  0
LINE
  5
DA
330
4F
100
AcDbEntity
  8
1
  6
Continuous
 62
     7
100
AcDbLine
 10
311.2889361211849
 20
180.7627948057673
 30
0.0
 11
326.2889361211849
 21
180.7627948057673
 31
0.0
  0
LINE
  5
DB
330
4F
100
AcDbEntity
  8
1
  6
Continuous
 62
     7
100
AcDbLine
 10
326.2889361211849
 20
180.7627948057673
 30
0.0
 11
329.7889361211849
 21
187.7627948057673
 31
0.0
  0
LINE
  5
DC
330
4F
100
AcDbEntity
  8
1
  6
Continuous
 62
     7
100
AcDbLine
 10
329.7889361211849
 20
187.7627948057673
 30
0.0
 11
307.7889361211849
 21
187.7627948057673
 31
0.0
  0
LINE
  5
DD
330
4F
100
AcDbEntity
  8
1
  6
Continuous
 62
     2
100
AcDbLine
 10
317.2889361211849
 20
271.7627948057673
 30
0.0
 11
317.2889361211849
 21
187.7627948057673
 31
0.0
  0
LINE
  5
DE
330
4F
100
AcDbEntity
  8
1
  6
Continuous
 62
     2
100
AcDbLine
 10
320.2889361211849
 20
271.7627948057673
 30
0.0
 11
320.2889361211849
 21
187.7627948057673
 31
0.0
  0
LINE
  5
DF
330
4F
100
AcDbEntity
  8
1
  6
Continuous
 62
     2
100
AcDbLine
 10
322.6860504382149
 20
271.7627948057673
 30
0.0
 11
322.6860504382149
 21
187.7627948057673
 31
0.0
  0
LINE
  5
E0
330
4F
100
AcDbEntity
  8
1
  6
Continuous
 62
     2
100
AcDbLine
 10
325.2889361211849
 20
271.7627948057673
 30
0.0
 11
325.2841266495682
 21
187.7627948057673
 31
0.0
  0
LINE
  5
E1
330
4F
100
AcDbEntity
  8
1
  6
Continuous
 62
     2
100
AcDbLine
 10
327.0389361211849
 20
271.7627948057673
 30
0.0
 11
327.0389361211849
 21
187.7627948057673
 31
0.0
  0
LINE
  5
E2
330
4F
100
AcDbEntity
  8
1
  6
Continuous
 62
     2
100
AcDbLine
 10
328.5389361211849
 20
271.7627948057673
 30
0.0
 11
328.5389361211849
 21
187.7627948057673
 31
0.0
  0
LINE
  5
E3
330
4F
100
AcDbEntity
  8
1
  6
Continuous
 62
     2
100
AcDbLine
 10
329.1812409665982
 20
271.7627948057673
 30
0.0
 11
329.1812409665982
 21
187.7627948057673
 31
0.0
  0
LINE
  5
E4
330
4F
100
AcDbEntity
  8
1
  6
Continuous
 62
     7
100
AcDbLine
 10
329.7889361211849
 20
271.7627948057673
 30
0.0
 11
329.7889361211849
 21
187.7627948057673
 31
0.0
  0
LINE
  5
E5
330
4F
100
AcDbEntity
  8
1
  6
Continuous
 62
     2
100
AcDbLine
 10
314.891821804155
 20
187.7627948057673
 30
0.0
 11
314.891821804155
 21
271.7627948057673
 31
0.0
  0
LINE
  5
E6
330
4F
100
AcDbEntity
  8
1
  6
Continuous
 62
     2
100
AcDbLine
 10
312.2937455928017
 20
187.7627948057673
 30
0.0
 11
312.2889361211849
 21
271.7627948057673
 31
0.0
  0
LINE
  5
E7
330
4F
100
AcDbEntity
  8
1
  6
Continuous
 62
     2
100
AcDbLine
 10
310.5389361211849
 20
187.7627948057673
 30
0.0
 11
310.5389361211849
 21
271.7627948057673
 31
0.0
  0
LINE
  5
E8
330
4F
100
AcDbEntity
  8
1
  6
Continuous
 62
     2
100
AcDbLine
 10
309.0389361211849
 20
187.7627948057673
 30
0.0
 11
309.0389361211849
 21
271.7627948057673
 31
0.0
  0
LINE
  5
E9
330
4F
100
AcDbEntity
  8
1
  6
Continuous
 62
     2
100
AcDbLine
 10
308.3966312757717
 20
187.7627948057673
 30
0.0
 11
308.3966312757717
 21
271.7627948057673
 31
0.0
  0
LINE
  5
EA
330
4F
100
AcDbEntity
  8
1
  6
Continuous
 62
     7
100
AcDbLine
 10
307.7889361211849
 20
187.7627948057673
 30
0.0
 11
307.7889361211849
 21
271.7627948057673
 31
0.0
  0
LINE
  5
EB
330
4F
100
AcDbEntity
  8
1
  6
Continuous
 62
     7
100
AcDbLine
 10
147.288936121185
 20
278.7627948057673
 30
0.0
 11
132.288936121185
 21
278.7627948057673
 31
0.0
  0
LINE
  5
EC
330
4F
100
AcDbEntity
  8
1
  6
Continuous
 62
     7
100
AcDbLine
 10
132.288936121185
 20
278.7627948057673
 30
0.0
 11
128.788936121185
 21
271.7627948057673
 31
0.0
  0
LINE
  5
ED
330
4F
100
AcDbEntity
  8
1
  6
Continuous
 62
     7
100
AcDbLine
 10
150.788936121185
 20
271.7627948057673
 30
0.0
 11
147.288936121185
 21
278.7627948057673
 31
0.0
  0
LINE
  5
EE
330
4F
100
AcDbEntity
  8
1
  6
Continuous
 62
     7
100
AcDbLine
 10
128.788936121185
 20
187.7627948057673
 30
0.0
 11
132.288936121185
 21
180.7627948057673
 31
0.0
  0
LINE
  5
EF
330
4F
100
AcDbEntity
  8
1
  6
Continuous
 62
     7
100
AcDbLine
 10
132.288936121185
 20
180.7627948057673
 30
0.0
 11
147.288936121185
 21
180.7627948057673
 31
0.0
  0
LINE
  5
F0
330
4F
100
AcDbEntity
  8
1
  6
Continuous
 62
     7
100
AcDbLine
 10
147.288936121185
 20
180.7627948057673
 30
0.0
 11
150.788936121185
 21
187.7627948057673
 31
0.0
  0
LINE
  5
F1
330
4F
100
AcDbEntity
  8
1
  6
Continuous
 62
     2
100
AcDbLine
 10
141.288936121185
 20
271.7627948057673
 30
0.0
 11
141.288936121185
 21
187.7627948057673
 31
0.0
  0
LINE
  5
F2
330
4F
100
AcDbEntity
  8
1
  6
Continuous
 62
     2
100
AcDbLine
 10
143.6860504382149
 20
271.7627948057673
 30
0.0
 11
143.6860504382149
 21
187.7627948057673
 31
0.0
  0
LINE
  5
F3
330
4F
100
AcDbEntity
  8
1
  6
Continuous
 62
     2
100
AcDbLine
 10
146.288936121185
 20
271.7627948057673
 30
0.0
 11
146.2841266495682
 21
187.7627948057673
 31
0.0
  0
LINE
  5
F4
330
4F
100
AcDbEntity
  8
1
  6
Continuous
 62
     2
100
AcDbLine
 10
148.038936121185
 20
271.7627948057673
 30
0.0
 11
148.038936121185
 21
187.7627948057673
 31
0.0
  0
LINE
  5
F5
330
4F
100
AcDbEntity
  8
1
  6
Continuous
 62
     2
100
AcDbLine
 10
149.538936121185
 20
271.7627948057673
 30
0.0
 11
149.538936121185
 21
187.7627948057673
 31
0.0
  0
LINE
  5
F6
330
4F
100
AcDbEntity
  8
1
  6
Continuous
 62
     2
100
AcDbLine
 10
150.1812409665982
 20
271.7627948057673
 30
0.0
 11
150.1812409665982
 21
187.7627948057673
 31
0.0
  0
LINE
  5
F7
330
4F
100
AcDbEntity
  8
1
  6
Continuous
 62
     7
100
AcDbLine
 10
150.788936121185
 20
271.7627948057673
 30
0.0
 11
150.788936121185
 21
187.7627948057673
 31
0.0
  0
LINE
  5
F8
330
4F
100
AcDbEntity
  8
1
  6
Continuous
 62
     7
100
AcDbLine
 10
128.788936121185
 20
187.7627948057673
 30
0.0
 11
128.788936121185
 21
271.7627948057673
 31
0.0
  0
LINE
  5
F9
330
4F
100
AcDbEntity
  8
1
  6
Continuous
 62
     7
100
AcDbLine
 10
128.788936121185
 20
271.7627948057673
 30
0.0
 11
150.788936121185
 21
271.7627948057673
 31
0.0
  0
LINE
  5
FA
330
4F
100
AcDbEntity
  8
1
  6
Continuous
 62
     7
100
AcDbLine
 10
128.788936121185
 20
187.7627948057673
 30
0.0
 11
150.788936121185
 21
187.7627948057673
 31
0.0
  0
LINE
  5
FB
330
4F
100
AcDbEntity
  8
1
  6
Continuous
 62
     2
100
AcDbLine
 10
138.288936121185
 20
187.7627948057673
 30
0.0
 11
138.288936121185
 21
271.7627948057673
 31
0.0
  0
LINE
  5
FC
330
4F
100
AcDbEntity
  8
1
  6
Continuous
 62
     2
100
AcDbLine
 10
135.8918218041549
 20
187.7627948057673
 30
0.0
 11
135.8918218041549
 21
271.7627948057673
 31
0.0
  0
LINE
  5
FD
330
4F
100
AcDbEntity
  8
1
  6
Continuous
 62
     2
100
AcDbLine
 10
133.2937455928016
 20
187.7627948057673
 30
0.0
 11
133.288936121185
 21
271.7627948057673
 31
0.0
  0
LINE
  5
FE
330
4F
100
AcDbEntity
  8
1
  6
Continuous
 62
     2
100
AcDbLine
 10
131.538936121185
 20
187.7627948057673
 30
0.0
 11
131.538936121185
 21
271.7627948057673
 31
0.0
  0
LINE
  5
FF
330
4F
100
AcDbEntity
  8
1
  6
Continuous
 62
     2
100
AcDbLine
 10
130.038936121185
 20
187.7627948057673
 30
0.0
 11
130.038936121185
 21
271.7627948057673
 31
0.0
  0
LINE
  5
100
330
4F
100
AcDbEntity
  8
1
  6
Continuous
 62
     2
100
AcDbLine
 10
129.3966312757716
 20
187.7627948057673
 30
0.0
 11
129.3966312757716
 21
271.7627948057673
 31
0.0
  0
ENDBLK
  5
51
330
4F
100
AcDbEntity
  8
0
100
AcDbBlockEnd
  0
BLOCK
  5
53
330
52
100
AcDbEntity
  8
0
100
AcDbBlockBegin
  2
s-renchi
 70
     0
 10
179.939948981215
 20
278.7627948057673
 30
0.0
  3
s-renchi
  1

  0
LINE
  5
101
330
52
100
AcDbEntity
  8
1
  6
Continuous
 62
     7
100
AcDbLine
 10
191.288936121185
 20
404.7627948057673
 30
0.0
 11
191.288936121185
 21
363.7420836860407
 31
0.0
  0
LINE
  5
102
330
52
100
AcDbEntity
  8
1
  6
Continuous
 62
     7
100
AcDbLine
 10
146.288936121185
 20
404.7627948057673
 30
0.0
 11
146.288936121185
 21
278.7627948057673
 31
0.0
  0
LINE
  5
103
330
52
100
AcDbEntity
  8
1
  6
Continuous
 62
     7
100
AcDbLine
 10
178.288936121185
 20
363.7420836860407
 30
0.0
 11
178.288936121185
 21
404.7627948057673
 31
0.0
  0
LINE
  5
104
330
52
100
AcDbEntity
  8
1
  6
Continuous
 62
     7
100
AcDbLine
 10
319.1133586711341
 20
359.5288392488863
 30
0.0
 11
326.184022377686
 21
367.9553281231951
 31
0.0
  0
LINE
  5
105
330
52
100
AcDbEntity
  8
1
  6
Continuous
 62
     7
100
AcDbLine
 10
307.0749980727521
 20
385.295110658955
 30
0.0
 11
326.0607655442535
 21
369.3641601760006
 31
0.0
  0
LINE
  5
106
330
52
100
AcDbEntity
  8
1
  6
Continuous
 62
     7
100
AcDbLine
 10
305.2889361211849
 20
427.2627948057673
 30
0.0
 11
305.2889361211849
 21
389.1253328745498
 31
0.0
  0
LINE
  5
107
330
52
100
AcDbEntity
  8
1
  6
Continuous
 62
     7
100
AcDbLine
 10
292.2889361211849
 20
386.7937945837748
 30
0.0
 11
292.2889361211849
 21
427.2627948057673
 31
0.0
  0
LINE
  5
108
330
52
100
AcDbEntity
  8
1
  6
Continuous
 62
     7
100
AcDbLine
 10
317.7045266183285
 20
359.4055824154539
 30
0.0
 11
296.93269719526
 21
376.8352168232281
 31
0.0
  0
LINE
  5
109
330
52
100
AcDbEntity
  8
1
  6
Continuous
 62
     7
100
AcDbLine
 10
312.2889361211849
 20
363.9498024042143
 30
0.0
 11
312.2889361211849
 21
278.7627948057673
 31
0.0
  0
LINE
  5
10A
330
52
100
AcDbEntity
  8
1
  6
Continuous
 62
     7
100
AcDbLine
 10
325.2889361211849
 20
366.9498024042142
 30
0.0
 11
325.2889361211849
 21
278.7627948057673
 31
0.0
  0
LINE
  5
10B
330
52
100
AcDbEntity
  8
1
  6
Continuous
 62
     7
100
AcDbLine
 10
320.6451750471099
 20
376.9083801647609
 30
0.0
 11
305.2889361211849
 21
389.7937945837748
 31
0.0
  0
LINE
  5
10C
330
52
100
AcDbEntity
  8
1
  6
Continuous
 62
     7
100
AcDbLine
 10
133.288936121185
 20
278.7627948057673
 30
0.0
 11
133.288936121185
 21
404.7627948057673
 31
0.0
  0
ARC
  5
10D
330
52
100
AcDbEntity
  8
0
  6
Continuous
 62
     7
100
AcDbCircle
 10
139.7589389016969
 20
394.0566399144286
 30
0.0
 40
8.761580606699813
100
AcDbArc
 50
235.9902458983439
 51
304.0097541016561
  0
ARC
  5
10E
330
52
100
AcDbEntity
  8
0
  6
Continuous
 62
     7
100
AcDbCircle
 10
184.7589389016969
 20
394.0566399144286
 30
0.0
 40
8.761580606699813
100
AcDbArc
 50
235.9902458983439
 51
304.0097541016561
  0
ARC
  5
10F
330
52
100
AcDbEntity
  8
1
  6
Continuous
 62
     7
100
AcDbCircle
 10
162.288936121185
 20
404.7627948057673
 30
0.0
 40
29.0
100
AcDbArc
 50
90.0
 51
180.0
  0
ARC
  5
110
330
52
100
AcDbEntity
  8
1
  6
Continuous
 62
     7
100
AcDbCircle
 10
162.288936121185
 20
404.7627948057673
 30
0.0
 40
29.0
100
AcDbArc
 50
0.0
 51
90.0
  0
ARC
  5
111
330
52
100
AcDbEntity
  8
1
  6
Continuous
 62
     7
100
AcDbCircle
 10
162.288936121185
 20
404.7627948057673
 30
0.0
 40
16.0
100
AcDbArc
 50
0.0
 51
90.0
  0
ARC
  5
112
330
52
100
AcDbEntity
  8
1
  6
Continuous
 62
     7
100
AcDbCircle
 10
162.288936121185
 20
404.7627948057673
 30
0.0
 40
16.0
100
AcDbArc
 50
90.0
 51
180.0
  0
ARC
  5
113
330
52
100
AcDbEntity
  8
0
  6
Continuous
 62
     7
100
AcDbCircle
 10
184.788936121185
 20
363.7420836860407
 30
0.0
 40
6.500000000000138
100
AcDbArc
 50
177.8810691346356
 51
270.0
  0
ARC
  5
114
330
52
100
AcDbEntity
  8
0
  6
Continuous
 62
     7
100
AcDbCircle
 10
184.788936121185
 20
363.7420836860407
 30
0.0
 40
6.5
100
AcDbArc
 50
270.0
 51
0.0
  0
ARC
  5
115
330
52
100
AcDbEntity
  8
0
  6
Continuous
 62
     7
100
AcDbCircle
 10
139.6333000725959
 20
382.0634975099851
 30
0.0
 40
9.37007924855081
100
AcDbArc
 50
236.1872232408177
 51
303.9743381664106
  0
ARC
  5
116
330
52
100
AcDbEntity
  8
1
  6
Continuous
 62
     7
100
AcDbCircle
 10
298.7889361211849
 20
427.2627948057673
 30
0.0
 40
6.5
100
AcDbArc
 50
90.0
 51
180.0
  0
ARC
  5
117
330
52
100
AcDbEntity
  8
1
  6
Continuous
 62
     7
100
AcDbCircle
 10
298.7889361211849
 20
427.2627948057673
 30
0.0
 40
6.5
100
AcDbArc
 50
0.0
 51
90.0
  0
ARC
  5
118
330
52
100
AcDbEntity
  8
1
  6
Continuous
 62
     7
100
AcDbCircle
 10
310.2889361211849
 20
389.1253328745498
 30
0.0
 40
5.0
100
AcDbArc
 50
180.0
 51
229.9999999999985
  0
ARC
  5
119
330
52
100
AcDbEntity
  8
1
  6
Continuous
 62
     7
100
AcDbCircle
 10
305.2889361211849
 20
386.7937945837748
 30
0.0
 40
13.0
100
AcDbArc
 50
180.0
 51
230.0000000000003
  0
ARC
  5
11A
330
52
100
AcDbEntity
  8
1
  6
Continuous
 62
     7
100
AcDbCircle
 10
312.2889361211849
 20
366.9498024042142
 30
0.0
 40
13.00000000000003
100
AcDbArc
 50
15.40849115263637
 51
50.00000000000007
  0
ARC
  5
11B
330
52
100
AcDbEntity
  8
1
  6
Continuous
 62
     7
100
AcDbCircle
 10
325.4179779345669
 20
368.5981157328816
 30
0.0
 40
1.000000000000044
100
AcDbArc
 50
320.0000000000066
 51
49.9999999999995
  0
ARC
  5
11C
330
52
100
AcDbEntity
  8
1
  6
Continuous
 62
     7
100
AcDbCircle
 10
318.347314228015
 20
360.1716268585728
 30
0.0
 40
0.999999999999906
100
AcDbArc
 50
229.9999999999957
 51
320.0000000000066
  0
ENDBLK
  5
54
330
52
100
AcDbEntity
  8
0
100
AcDbBlockEnd
  0
BLOCK
  5
13C
330
135
100
AcDbEntity
  8
0
100
AcDbBlockBegin
  2
*D5
 70
     1
 10
0.0
 20
0.0
 30
0.0
  3
*D5
  1

  0
LINE
  5
136
330
135
100
AcDbEntity
  8
1
  6
Continuous
 62
     2
100
AcDbLine
 10
106.788936121185
 20
433.7627948057672
 30
0.0
 11
106.788936121185
 21
180.7627948057673
 31
0.0
  0
LINE
  5
137
330
135
100
AcDbEntity
  8
1
  6
Continuous
 62
     2
100
AcDbLine
 10
132.288936121185
 20
180.7627948057673
 30
0.0
 11
104.788936121185
 21
180.7627948057673
 31
0.0
  0
LINE
  5
138
330
135
100
AcDbEntity
  8
1
  6
Continuous
 62
     2
100
AcDbLine
 10
162.288936121185
 20
433.7627948057672
 30
0.0
 11
104.788936121185
 21
433.7627948057672
 31
0.0
  0
SOLID
  5
139
330
135
100
AcDbEntity
  8
1
 62
     2
100
AcDbTrace
 10
107.7105036042968
 20
426.7627948057672
 30
0.0
 11
105.8673686380732
 21
426.7627948057672
 31
0.0
 12
106.788936121185
 22
433.7627948057672
 32
0.0
 13
106.788936121185
 23
433.7627948057672
 33
0.0
  0
SOLID
  5
13A
330
135
100
AcDbEntity
  8
1
 62
     2
100
AcDbTrace
 10
105.8673686380732
 20
187.7627948057673
 30
0.0
 11
107.7105036042968
 21
187.7627948057673
 31
0.0
 12
106.788936121185
 22
180.7627948057673
 32
0.0
 13
106.788936121185
 23
180.7627948057673
 33
0.0
  0
MTEXT
  5
13B
330
135
100
AcDbEntity
  8
1
 62
     7
100
AcDbMText
 10
104.788936121185
 20
304.4290978354474
 30
0.0
 40
7.0
 41
0.0
 71
     7
 72
     1
  1
253
  7
CONVERTER_12
 11
0.0
 21
1.0
 31
0.0
 73
     1
 44
0.60024009603842
  0
ENDBLK
  5
13D
330
135
100
AcDbEntity
  8
0
100
AcDbBlockEnd
  0
BLOCK
  5
147
330
140
100
AcDbEntity
  8
0
100
AcDbBlockBegin
  2
*D6
 70
     1
 10
0.0
 20
0.0
 30
0.0
  3
*D6
  1

  0
LINE
  5
141
330
140
100
AcDbEntity
  8
1
  6
Continuous
 62
     2
100
AcDbLine
 10
133.2889361211849
 20
455.7627948057673
 30
0.0
 11
191.2889361211849
 21
455.7627948057673
 31
0.0
  0
LINE
  5
142
330
140
100
AcDbEntity
  8
1
  6
Continuous
 62
     2
100
AcDbLine
 10
191.2889361211849
 20
404.7627948057673
 30
0.0
 11
191.2889361211849
 21
457.7627948057673
 31
0.0
  0
LINE
  5
143
330
140
100
AcDbEntity
  8
1
  6
Continuous
 62
     2
100
AcDbLine
 10
133.2889361211849
 20
404.7627948057673
 30
0.0
 11
133.2889361211849
 21
457.7627948057673
 31
0.0
  0
SOLID
  5
144
330
140
100
AcDbEntity
  8
1
 62
     2
100
AcDbTrace
 10
140.2889361211849
 20
456.6843622888791
 30
0.0
 11
140.2889361211849
 21
454.8412273226556
 31
0.0
 12
133.2889361211849
 22
455.7627948057673
 32
0.0
 13
133.2889361211849
 23
455.7627948057673
 33
0.0
  0
SOLID
  5
145
330
140
100
AcDbEntity
  8
1
 62
     2
100
AcDbTrace
 10
184.2889361211849
 20
454.8412273226556
 30
0.0
 11
184.2889361211849
 21
456.6843622888791
 31
0.0
 12
191.2889361211849
 22
455.7627948057673
 32
0.0
 13
191.2889361211849
 23
455.7627948057673
 33
0.0
  0
MTEXT
  5
146
330
140
100
AcDbEntity
  8
1
 62
     7
100
AcDbMText
 10
156.0607407637454
 20
457.7627948057673
 30
0.0
 40
7.0
 41
0.0
 71
     7
 72
     1
  1
58
  7
CONVERTER_12
 11
0.9999999999970619
 21
2.424068405545306E-6
 31
0.0
 73
     1
 44
0.60024009603842
  0
ENDBLK
  5
148
330
140
100
AcDbEntity
  8
0
100
AcDbBlockEnd
  0
BLOCK
  5
154
330
14B
100
AcDbEntity
  8
0
100
AcDbBlockBegin
  2
*D7
 70
     1
 10
0.0
 20
0.0
 30
0.0
  3
*D7
  1

  0
LINE
  5
14C
330
14B
100
AcDbEntity
  8
1
  6
Continuous
 62
     2
100
AcDbLine
 10
191.288936121185
 20
339.2420836860407
 30
0.0
 11
213.688936121185
 21
339.2420836860407
 31
0.0
  0
LINE
  5
14D
330
14B
100
AcDbEntity
  8
1
  6
Continuous
 62
     2
100
AcDbLine
 10
178.288936121185
 20
339.2420836860407
 30
0.0
 11
191.288936121185
 21
339.2420836860407
 31
0.0
  0
LINE
  5
14E
330
14B
100
AcDbEntity
  8
1
  6
Continuous
 62
     2
100
AcDbLine
 10
164.288936121185
 20
339.2420836860407
 30
0.0
 11
178.288936121185
 21
339.2420836860407
 31
0.0
  0
LINE
  5
14F
330
14B
100
AcDbEntity
  8
1
  6
Continuous
 62
     2
100
AcDbLine
 10
191.288936121185
 20
363.7420836860407
 30
0.0
 11
191.288936121185
 21
337.2420836860407
 31
0.0
  0
LINE
  5
150
330
14B
100
AcDbEntity
  8
1
  6
Continuous
 62
     2
100
AcDbLine
 10
178.288936121185
 20
363.7420836860407
 30
0.0
 11
178.288936121185
 21
337.2420836860407
 31
0.0
  0
SOLID
  5
151
330
14B
100
AcDbEntity
  8
1
 62
     2
100
AcDbTrace
 10
171.288936121185
 20
338.320516202929
 30
0.0
 11
171.288936121185
 21
340.1636511691524
 31
0.0
 12
178.288936121185
 22
339.2420836860407
 32
0.0
 13
178.288936121185
 23
339.2420836860407
 33
0.0
  0
SOLID
  5
152
330
14B
100
AcDbEntity
  8
1
 62
     2
100
AcDbTrace
 10
198.288936121185
 20
340.1636511691524
 30
0.0
 11
198.288936121185
 21
338.320516202929
 31
0.0
 12
191.288936121185
 22
339.2420836860407
 32
0.0
 13
191.288936121185
 23
339.2420836860407
 33
0.0
  0
MTEXT
  5
153
330
14B
100
AcDbEntity
  8
1
 62
     7
100
AcDbMText
 10
199.5489361212019
 20
341.2420697718881
 30
0.0
 40
7.0
 41
0.0
 71
     7
 72
     1
  1
\C7;{\Fgdt;n}\C7;13
  7
CONVERTER_12
 11
0.9999999999970619
 21
2.424068405545306E-6
 31
0.0
 73
     1
 44
0.60024009603842
  0
ENDBLK
  5
155
330
14B
100
AcDbEntity
  8
0
100
AcDbBlockEnd
  0
BLOCK
  5
15F
330
158
100
AcDbEntity
  8
0
100
AcDbBlockBegin
  2
*D8
 70
     1
 10
0.0
 20
0.0
 30
0.0
  3
*D8
  1

  0
LINE
  5
159
330
158
100
AcDbEntity
  8
1
  6
Continuous
 62
     2
100
AcDbLine
 10
298.7889361211849
 20
454.928667277356
 30
0.0
 11
318.7889361211849
 21
454.928667277356
 31
0.0
  0
LINE
  5
15A
330
158
100
AcDbEntity
  8
1
  6
Continuous
 62
     2
100
AcDbLine
 10
318.7889361211849
 20
384.3533587639735
 30
0.0
 11
318.7889361211849
 21
456.928667277356
 31
0.0
  0
LINE
  5
15B
330
158
100
AcDbEntity
  8
1
  6
Continuous
 62
     2
100
AcDbLine
 10
298.7889361211849
 20
438.6543108915814
 30
0.0
 11
298.7889361211849
 21
456.928667277356
 31
0.0
  0
SOLID
  5
15C
330
158
100
AcDbEntity
  8
1
 62
     2
100
AcDbTrace
 10
305.7889361211849
 20
455.8502347604677
 30
0.0
 11
305.7889361211849
 21
454.0070997942443
 31
0.0
 12
298.7889361211849
 22
454.928667277356
 32
0.0
 13
298.7889361211849
 23
454.928667277356
 33
0.0
  0
SOLID
  5
15D
330
158
100
AcDbEntity
  8
1
 62
     2
100
AcDbTrace
 10
311.7889361211849
 20
454.0070997942443
 30
0.0
 11
311.7889361211849
 21
455.8502347604677
 31
0.0
 12
318.7889361211849
 22
454.928667277356
 32
0.0
 13
318.7889361211849
 23
454.928667277356
 33
0.0
  0
MTEXT
  5
15E
330
158
100
AcDbEntity
  8
1
 62
     7
100
AcDbMText
 10
303.6385722710239
 20
456.928667277356
 30
0.0
 40
7.0
 41
0.0
 71
     7
 72
     1
  1
20
  7
CONVERTER_12
 11
0.9999999999970619
 21
2.424068405545306E-6
 31
0.0
 73
     1
 44
0.60024009603842
  0
ENDBLK
  5
160
330
158
100
AcDbEntity
  8
0
100
AcDbBlockEnd
  0
BLOCK
  5
16A
330
163
100
AcDbEntity
  8
0
100
AcDbBlockBegin
  2
*D9
 70
     1
 10
0.0
 20
0.0
 30
0.0
  3
*D9
  1

  0
LINE
  5
164
330
163
100
AcDbEntity
  8
1
  6
Continuous
 62
     2
100
AcDbLine
 10
270.2889361211849
 20
433.7627948057673
 30
0.0
 11
270.2889361211849
 21
383.7627948057673
 31
0.0
  0
LINE
  5
165
330
163
100
AcDbEntity
  8
1
  6
Continuous
 62
     2
100
AcDbLine
 10
298.7889361211849
 20
383.7627948057673
 30
0.0
 11
268.2889361211849
 21
383.7627948057673
 31
0.0
  0
LINE
  5
166
330
163
100
AcDbEntity
  8
1
  6
Continuous
 62
     2
100
AcDbLine
 10
298.7889361211849
 20
433.7627948057673
 30
0.0
 11
268.2889361211849
 21
433.7627948057673
 31
0.0
  0
SOLID
  5
167
330
163
100
AcDbEntity
  8
1
 62
     2
100
AcDbTrace
 10
271.2105036042967
 20
426.7627948057673
 30
0.0
 11
269.3673686380732
 21
426.7627948057673
 31
0.0
 12
270.2889361211849
 22
433.7627948057673
 32
0.0
 13
270.2889361211849
 23
433.7627948057673
 33
0.0
  0
SOLID
  5
168
330
163
100
AcDbEntity
  8
1
 62
     2
100
AcDbTrace
 10
269.3673686380732
 20
390.7627948057673
 30
0.0
 11
271.2105036042967
 21
390.7627948057673
 31
0.0
 12
270.2889361211849
 22
383.7627948057673
 32
0.0
 13
270.2889361211849
 23
383.7627948057673
 33
0.0
  0
MTEXT
  5
169
330
163
100
AcDbEntity
  8
1
 62
     7
100
AcDbMText
 10
268.2889361211849
 20
404.2423177416113
 30
0.0
 40
7.0
 41
0.0
 71
     7
 72
     1
  1
50
  7
CONVERTER_12
 11
0.0
 21
1.0
 31
0.0
 73
     1
 44
0.60024009603842
  0
ENDBLK
  5
16B
330
163
100
AcDbEntity
  8
0
100
AcDbBlockEnd
  0
BLOCK
  5
177
330
16E
100
AcDbEntity
  8
0
100
AcDbBlockBegin
  2
*D10
 70
     1
 10
0.0
 20
0.0
 30
0.0
  3
*D10
  1

  0
LINE
  5
16F
330
16E
100
AcDbEntity
  8
1
  6
Continuous
 62
     2
100
AcDbLine
 10
270.2889361211849
 20
366.9808021822218
 30
0.0
 11
270.2889361211849
 21
352.9808021822218
 31
0.0
  0
LINE
  5
170
330
16E
100
AcDbEntity
  8
1
  6
Continuous
 62
     2
100
AcDbLine
 10
270.2889361211849
 20
383.7627948057673
 30
0.0
 11
270.2889361211849
 21
366.9808021822218
 31
0.0
  0
LINE
  5
171
330
16E
100
AcDbEntity
  8
1
  6
Continuous
 62
     2
100
AcDbLine
 10
270.2889361211849
 20
397.7627948057673
 30
0.0
 11
270.2889361211849
 21
383.7627948057673
 31
0.0
  0
LINE
  5
172
330
16E
100
AcDbEntity
  8
1
  6
Continuous
 62
     2
100
AcDbLine
 10
318.7889361211849
 20
366.9808021822218
 30
0.0
 11
268.2889361211849
 21
366.9808021822218
 31
0.0
  0
LINE
  5
173
330
16E
100
AcDbEntity
  8
1
  6
Continuous
 62
     2
100
AcDbLine
 10
298.7889361211849
 20
383.7627948057673
 30
0.0
 11
268.2889361211849
 21
383.7627948057673
 31
0.0
  0
SOLID
  5
174
330
16E
100
AcDbEntity
  8
1
 62
     2
100
AcDbTrace
 10
269.3673686380732
 20
390.7627948057673
 30
0.0
 11
271.2105036042967
 21
390.7627948057673
 31
0.0
 12
270.2889361211849
 22
383.7627948057673
 32
0.0
 13
270.2889361211849
 23
383.7627948057673
 33
0.0
  0
SOLID
  5
175
330
16E
100
AcDbEntity
  8
1
 62
     2
100
AcDbTrace
 10
271.2105036042967
 20
359.9808021822218
 30
0.0
 11
269.3673686380732
 21
359.9808021822218
 31
0.0
 12
270.2889361211849
 22
366.9808021822218
 32
0.0
 13
270.2889361211849
 23
366.9808021822218
 33
0.0
  0
MTEXT
  5
176
330
16E
100
AcDbEntity
  8
1
 62
     7
100
AcDbMText
 10
268.2889361211849
 20
371.3409410221758
 30
0.0
 40
7.0
 41
0.0
 71
     7
 72
     1
  1
17
  7
CONVERTER_12
 11
0.0
 21
1.0
 31
0.0
 73
     1
 44
0.60024009603842
  0
ENDBLK
  5
178
330
16E
100
AcDbEntity
  8
0
100
AcDbBlockEnd
  0
BLOCK
  5
182
330
17B
100
AcDbEntity
  8
0
100
AcDbBlockBegin
  2
*D11
 70
     1
 10
0.0
 20
0.0
 30
0.0
  3
*D11
  1

  0
LINE
  5
17C
330
17B
100
AcDbEntity
  8
1
  6
Continuous
 62
     2
100
AcDbLine
 10
270.2889361211849
 20
366.9808021822218
 30
0.0
 11
270.2889361211849
 21
180.7627948057673
 31
0.0
  0
LINE
  5
17D
330
17B
100
AcDbEntity
  8
1
  6
Continuous
 62
     2
100
AcDbLine
 10
311.2889361211849
 20
180.7627948057673
 30
0.0
 11
268.2889361211849
 21
180.7627948057673
 31
0.0
  0
LINE
  5
17E
330
17B
100
AcDbEntity
  8
1
  6
Continuous
 62
     2
100
AcDbLine
 10
318.7889361211849
 20
366.9808021822218
 30
0.0
 11
268.2889361211849
 21
366.9808021822218
 31
0.0
  0
SOLID
  5
17F
330
17B
100
AcDbEntity
  8
1
 62
     2
100
AcDbTrace
 10
271.2105036042967
 20
359.9808021822218
 30
0.0
 11
269.3673686380732
 21
359.9808021822218
 31
0.0
 12
270.2889361211849
 22
366.9808021822218
 32
0.0
 13
270.2889361211849
 23
366.9808021822218
 33
0.0
  0
SOLID
  5
180
330
17B
100
AcDbEntity
  8
1
 62
     2
100
AcDbTrace
 10
269.3673686380732
 20
187.7627948057673
 30
0.0
 11
271.2105036042967
 21
187.7627948057673
 31
0.0
 12
270.2889361211849
 22
180.7627948057673
 32
0.0
 13
270.2889361211849
 23
180.7627948057673
 33
0.0
  0
MTEXT
  5
181
330
17B
100
AcDbEntity
  8
1
 62
     7
100
AcDbMText
 10
268.2889361211849
 20
284.5879956156408
 30
0.0
 40
7.0
 41
0.0
 71
     7
 72
     1
  1
186
  7
CONVERTER_12
 11
0.0
 21
1.0
 31
0.0
 73
     1
 44
0.60024009603842
  0
ENDBLK
  5
183
330
17B
100
AcDbEntity
  8
0
100
AcDbBlockEnd
  0
BLOCK
  5
18F
330
186
100
AcDbEntity
  8
0
100
AcDbBlockBegin
  2
*D12
 70
     1
 10
0.0
 20
0.0
 30
0.0
  3
*D12
  1

  0
LINE
  5
187
330
186
100
AcDbEntity
  8
1
  6
Continuous
 62
     2
100
AcDbLine
 10
318.7889361211849
 20
366.9808021822217
 30
0.0
 11
329.7252964601897
 21
357.804106255341
 31
0.0
  0
LINE
  5
188
330
186
100
AcDbEntity
  8
1
  6
Continuous
 62
     2
100
AcDbLine
 10
298.7889361211849
 20
382.5126725498969
 30
0.0
 11
298.7889361211849
 21
343.3782445138204
 31
0.0
  0
LINE
  5
189
330
186
100
AcDbEntity
  8
1
  6
Continuous
 62
     2
100
AcDbLine
 10
329.7252964601897
 20
357.804106255341
 30
0.0
 11
331.2573853464277
 21
356.5185310359678
 31
0.0
  0
LINE
  5
18A
330
186
100
AcDbEntity
  8
1
  6
Continuous
 62
     2
100
AcDbLine
 10
298.7889361211849
 20
343.3782445138204
 30
0.0
 11
298.7889361211849
 21
341.3782445138204
 31
0.0
  0
ARC
  5
18B
330
186
100
AcDbEntity
  8
1
  6
Continuous
 62
     2
100
AcDbCircle
 10
298.7889361211849
 20
383.7627948057672
 30
0.0
 40
40.38455029194678
100
AcDbArc
 50
255.1030733154571
 51
334.896926684543
  0
SOLID
  5
18C
330
186
100
AcDbEntity
  8
1
 62
     2
100
AcDbTrace
 10
291.7354392806549
 20
343.0660443431585
 30
0.0
 11
291.894978007217
 21
344.9022616229058
 31
0.0
 12
298.7889361211849
 22
343.3782445138204
 32
0.0
 13
298.7889361211849
 23
343.3782445138204
 33
0.0
  0
SOLID
  5
18D
330
186
100
AcDbEntity
  8
1
 62
     2
100
AcDbTrace
 10
332.9891824799132
 20
364.0648038743115
 30
0.0
 11
334.498356040122
 21
363.0067199131427
 31
0.0
 12
329.7252964601897
 22
357.804106255341
 32
0.0
 13
329.7252964601897
 23
357.804106255341
 33
0.0
  0
MTEXT
  5
18E
330
186
100
AcDbEntity
  8
1
 62
     7
100
AcDbMText
 10
282.0461970908934
 20
348.3743165836319
 30
0.0
 40
7.0
 41
0.0
 71
     7
 72
     1
  1
50{\Fgdt;~}
  7
CONVERTER_12
 11
0.9703954700070719
 21
-0.2415214934322698
 31
0.0
 73
     1
 44
0.60024009603842
  0
ENDBLK
  5
190
330
186
100
AcDbEntity
  8
0
100
AcDbBlockEnd
  0
ENDSEC
  0
SECTION
  2
ENTITIES
  0
INSERT
  5
55
330
1F
100
AcDbEntity
  8
0
100
AcDbBlockReference
  2
開示A4枠
 10
0.00000000000001
 20
0.00000000000011
 30
0.0
  0
INSERT
  5
56
330
1F
100
AcDbEntity
  8
1
100
AcDbBlockReference
  2
cover
 10
178.788936121185
 20
180.7627948057673
 30
0.0
  0
INSERT
  5
57
330
1F
100
AcDbEntity
  8
1
100
AcDbBlockReference
  2
s-renchi
 10
179.939948981215
 20
278.7627948057673
 30
0.0
  0
LINE
  5
11D
330
1F
100
AcDbEntity
  8
1
  6
DASH_CENTER
 62
     2
100
AcDbLine
 10
298.7889361211849
 20
438.6543108915814
 30
0.0
 11
298.7889361211849
 21
386.7937945837748
 31
0.0
  0
LINE
  5
11E
330
1F
100
AcDbEntity
  8
1
  6
DASH_CENTER
 62
     2
100
AcDbLine
 10
301.1108166582225
 20
381.8145057035014
 30
0.0
 11
318.7889361211849
 21
366.9808021822218
 31
0.0
  0
LINE
  5
11F
330
1F
100
AcDbEntity
  8
1
  6
DASH_CENTER
 62
     2
100
AcDbLine
 10
184.788936121185
 20
404.7627948057673
 30
0.0
 11
184.788936121185
 21
351.2420836860407
 31
0.0
  0
LINE
  5
120
330
1F
100
AcDbEntity
  8
1
  6
DASH_CENTER
 62
     2
100
AcDbLine
 10
139.788936121185
 20
404.7627948057673
 30
0.0
 11
139.788936121185
 21
174.1546904805913
 31
0.0
  0
LINE
  5
121
330
1F
100
AcDbEntity
  8
1
  6
DASH_CENTER
 62
     2
100
AcDbLine
 10
318.7889361211849
 20
384.3533587639735
 30
0.0
 11
318.7889361211849
 21
174.7627948057673
 31
0.0
  0
LINE
  5
122
330
1F
100
AcDbEntity
  8
1
  6
DASH_CENTER
 62
     2
100
AcDbLine
 10
298.7889361211849
 20
386.7937945837748
 30
0.0
 11
298.7889361211849
 21
382.512672549897
 31
0.0
  0
LINE
  5
123
330
1F
100
AcDbEntity
  8
1
  6
DASH_CENTER
 62
     2
100
AcDbLine
 10
300.4502658676236
 20
342.3687736282668
 30
0.0
 11
301.1108166582225
 21
341.8145057035014
 31
0.0
  0
LINE
  5
124
330
1F
100
AcDbEntity
  8
1
  6
DASH_CENTER
 62
     2
100
AcDbLine
 10
298.2378379429575
 20
384.2252210838604
 30
0.0
 11
298.7889361211849
 21
383.7627948057673
 31
0.0
  0
LINE
  5
125
330
1F
100
AcDbEntity
  8
1
  6
DASH_CENTER
 62
     2
100
AcDbLine
 10
318.7889361211849
 20
366.9808021822218
 30
0.0
 11
327.5526042322318
 21
359.6272115024822
 31
0.0
  0
ARC
  5
126
330
1F
100
AcDbEntity
  8
1
  6
DASH_CENTER
 62
     2
100
AcDbCircle
 10
162.288936121185
 20
404.7627948057673
 30
0.0
 40
22.5
100
AcDbArc
 50
0.0
 51
180.0
  0
ARC
  5
127
330
1F
100
AcDbEntity
  8
1
  6
DASH_CENTER
 62
     2
100
AcDbCircle
 10
305.2889361211849
 20
386.7937945837748
 30
0.0
 40
6.5
100
AcDbArc
 50
180.0
 51
230.0000000000008
  0
MTEXT
  5
129
330
1F
100
AcDbEntity
  8
1
 62
     7
100
AcDbMText
 10
314.9999999999999
 20
25.0
 30
0.0
 40
5.0
 41
0.0
 71
     5
 72
     1
  1
2
  7
CONVERTER_12
 73
     1
 44
0.7202881152461
  0
MTEXT
  5
12A
330
1F
100
AcDbEntity
  8
1
 62
     7
100
AcDbMText
 10
303.4999999999999
 20
25.0
 30
0.0
 40
5.0
 41
0.0
 71
     5
 72
     1
  1
04
  7
CONVERTER_12
 73
     1
 44
0.7202881152461
  0
MTEXT
  5
12B
330
1F
100
AcDbEntity
  8
1
 62
     7
100
AcDbMText
 10
280.9999999999999
 20
25.0
 30
0.0
 40
5.0
 41
0.0
 71
     5
 72
     1
  1
2
  7
CONVERTER_12
 73
     1
 44
0.7202881152461
  0
MTEXT
  5
12C
330
1F
100
AcDbEntity
  8
1
 62
     7
100
AcDbMText
 10
269.4999999999999
 20
25.0
 30
0.0
 40
5.0
 41
0.0
 71
     5
 72
     1
  1
04
  7
CONVERTER_12
 73
     1
 44
0.7202881152461
  0
MTEXT
  5
12D
330
1F
100
AcDbEntity
  8
1
 62
     7
100
AcDbMText
 10
246.9999999999999
 20
25.0
 30
0.0
 40
5.0
 41
0.0
 71
     5
 72
     1
  1
2
  7
CONVERTER_12
 73
     1
 44
0.7202881152461
  0
MTEXT
  5
12E
330
1F
100
AcDbEntity
  8
1
 62
     7
100
AcDbMText
 10
235.4999999999999
 20
25.0
 30
0.0
 40
5.0
 41
0.0
 71
     5
 72
     1
  1
04
  7
CONVERTER_12
 73
     1
 44
0.7202881152461
  0
MTEXT
  5
12F
330
1F
100
AcDbEntity
  8
1
 62
     7
100
AcDbMText
 10
201.4999999999999
 20
25.0
 30
0.0
 40
5.0
 41
0.0
 71
     5
 72
     1
  1
04
  7
CONVERTER_12
 73
     1
 44
0.7202881152461
  0
MTEXT
  5
130
330
1F
100
AcDbEntity
  8
1
 62
     7
100
AcDbMText
 10
212.9999999999999
 20
25.0
 30
0.0
 40
5.0
 41
0.0
 71
     5
 72
     1
  1
3
  7
CONVERTER_12
 73
     1
 44
0.7202881152461
  0
MTEXT
  5
131
330
1F
100
AcDbEntity
  8
1
 62
     7
100
AcDbMText
 10
187.5
 20
34.0
 30
0.0
 40
7.0
 41
0.0
 71
     5
 72
     1
  1
2
  7
CONVERTER_12
 73
     1
 44
0.7202881152461
  0
MTEXT
  5
132
330
1F
100
AcDbEntity
  8
1
 62
     7
100
AcDbMText
 10
114.0
 20
28.5
 30
0.0
 40
7.0
 41
0.0
 71
     5
 72
     1
  1
R36
  7
CONVERTER_12
 73
     1
 44
0.7202881152461
  0
MTEXT
  5
133
330
1F
100
AcDbEntity
  8
1
 62
     7
100
AcDbMText
 10
114.0
 20
45.50000000000009
 30
0.0
 40
7.0
 41
0.0
 71
     5
 72
     1
  1
水栓レンチ
  7
CONVERTER_11
 73
     1
 44
0.54545454545455
  0
MTEXT
  5
134
330
1F
100
AcDbEntity
  8
1
 62
     7
100
AcDbMText
 10
170.5
 20
34.0
 30
0.0
 40
7.0
 41
0.0
 71
     5
 72
     1
  1
1
  7
CONVERTER_12
 73
     1
 44
0.7202881152461
  0
DIMENSION
  5
13F
330
1F
100
AcDbEntity
  8
1
100
AcDbDimension
  2
*D5
 10
106.788936121185
 20
433.7627948057672
 30
0.0
 11
101.288936121185
 21
312.8290978354474
 31
0.0
 70
    32
  1
253
 71
     5
 42
-1.0
 53
90.0
  3
ME10_DIM_10
100
AcDbAlignedDimension
 13
132.288936121185
 23
180.7627948057673
 33
0.0
 14
162.288936121185
 24
433.7627948057673
 34
0.0
 50
90.0
100
AcDbRotatedDimension
  0
DIMENSION
  5
14A
330
1F
100
AcDbEntity
  8
1
100
AcDbDimension
  2
*D6
 10
133.2889361211849
 20
455.7627948057673
 30
0.0
 11
161.3107407637454
 21
461.2627948057673
 31
0.0
 70
    32
  1
<>
 71
     5
 42
-1.0
 53
0.00013888888889
  3
ME10_DIM_11
100
AcDbAlignedDimension
 13
191.288936121185
 23
404.7627948057673
 33
0.0
 14
133.288936121185
 24
404.7627948057673
 34
0.0
100
AcDbRotatedDimension
  0
DIMENSION
  5
157
330
1F
100
AcDbEntity
  8
1
100
AcDbDimension
  2
*D7
 10
178.288936121185
 20
339.2420836860407
 30
0.0
 11
205.288936121185
 21
344.7420836860407
 31
0.0
 70
    32
  1
<>
 71
     5
 42
-1.0
 53
0.00013888888889
  3
ME10_DIM_12
100
AcDbAlignedDimension
 13
191.288936121185
 23
363.7420836860407
 33
0.0
 14
178.288936121185
 24
363.7420836860407
 34
0.0
100
AcDbRotatedDimension
  0
DIMENSION
  5
162
330
1F
100
AcDbEntity
  8
1
100
AcDbDimension
  2
*D8
 10
298.7889361211849
 20
454.928667277356
 30
0.0
 11
308.8885722710239
 21
460.428667277356
 31
0.0
 70
    32
  1
<>
 71
     5
 42
-1.0
 53
0.00013888888889
  3
ME10_DIM_13
100
AcDbAlignedDimension
 13
318.7889361211849
 23
384.3533587639735
 33
0.0
 14
298.7889361211849
 24
438.6543108915814
 34
0.0
100
AcDbRotatedDimension
  0
DIMENSION
  5
16D
330
1F
100
AcDbEntity
  8
1
100
AcDbDimension
  2
*D9
 10
270.2889361211849
 20
433.7627948057673
 30
0.0
 11
264.7889361211849
 21
409.4923177416113
 31
0.0
 70
    32
  1
<>
 71
     5
 42
-1.0
 53
90.0
  3
ME10_DIM_14
100
AcDbAlignedDimension
 13
298.7889361211849
 23
383.7627948057673
 33
0.0
 14
298.7889361211849
 24
433.7627948057673
 34
0.0
 50
90.0
100
AcDbRotatedDimension
  0
DIMENSION
  5
17A
330
1F
100
AcDbEntity
  8
1
100
AcDbDimension
  2
*D10
 10
270.2889361211849
 20
383.7627948057673
 30
0.0
 11
264.7889361211849
 21
375.5409410221758
 31
0.0
 70
    32
  1
17
 71
     5
 42
-1.0
 53
90.0
  3
ME10_DIM_15
100
AcDbAlignedDimension
 13
318.7889361211849
 23
366.9808021822218
 33
0.0
 14
298.7889361211849
 24
383.7627948057673
 34
0.0
 50
90.0
100
AcDbRotatedDimension
  0
DIMENSION
  5
185
330
1F
100
AcDbEntity
  8
1
100
AcDbDimension
  2
*D11
 10
270.2889361211849
 20
366.9808021822218
 30
0.0
 11
264.7889361211849
 21
291.9379956156408
 31
0.0
 70
    32
  1
186
 71
     5
 42
-1.0
 53
90.0
  3
ME10_DIM_16
100
AcDbAlignedDimension
 13
311.2889361211849
 23
180.7627948057673
 33
0.0
 14
318.7889361211849
 24
366.9808021822218
 34
0.0
 50
90.0
100
AcDbRotatedDimension
  0
DIMENSION
  5
192
330
1F
100
AcDbEntity
  8
1
100
AcDbDimension
  2
*D12
 10
315.8561845667481
 20
347.161962400203
 30
0.0
 11
290.3635674369608
 21
349.9109852292282
 31
0.0
 70
    37
  1
<>
 71
     5
 42
-1.0
  3
ME10_DIM_17
100
AcDb3PointAngularDimension
 13
298.7889361211849
 23
382.512672549897
 33
0.0
 14
301.1108166582225
 24
381.8145057035014
 34
0.0
 15
298.7889361211849
 25
383.7627948057672
 35
0.0
  0
ENDSEC
  0
SECTION
  2
OBJECTS
  0
DICTIONARY
  5
C
330
0
100
AcDbDictionary
281
     1
  3
ACAD_GROUP
350
D
  3
ACAD_LAYOUT
350
1A
  3
ACAD_MATERIAL
350
3B
  3
ACAD_MLEADERSTYLE
350
195
  3
ACAD_MLINESTYLE
350
17
  3
ACAD_PLOTSETTINGS
350
19
  3
ACAD_PLOTSTYLENAME
350
E
  3
ACAD_VISUALSTYLE
350
2A
  3
AcDbVariableDictionary
350
193
  0
DICTIONARY
  5
D
102
{ACAD_REACTORS
330
C
102
}
330
C
100
AcDbDictionary
281
     1
  0
DICTIONARY
  5
1A
102
{ACAD_REACTORS
330
C
102
}
330
C
100
AcDbDictionary
281
     1
  3
Layout1
350
1E
  3
Layout2
350
26
  3
Model
350
22
  0
DICTIONARY
  5
3B
102
{ACAD_REACTORS
330
C
102
}
330
C
100
AcDbDictionary
281
     1
  3
ByBlock
350
3D
  3
ByLayer
350
3C
  3
Global
350
3E
  0
DICTIONARY
  5
195
102
{ACAD_REACTORS
330
C
102
}
330
C
100
AcDbDictionary
281
     1
  0
DICTIONARY
  5
17
102
{ACAD_REACTORS
330
C
102
}
330
C
100
AcDbDictionary
281
     1
  3
Standard
350
18
  0
DICTIONARY
  5
19
102
{ACAD_REACTORS
330
C
102
}
330
C
100
AcDbDictionary
281
     1
  0
ACDBDICTIONARYWDFLT
  5
E
102
{ACAD_REACTORS
330
C
102
}
330
C
100
AcDbDictionary
281
     1
  3
Normal
350
F
100
AcDbDictionaryWithDefault
340
F
  0
DICTIONARY
  5
2A
102
{ACAD_REACTORS
330
C
102
}
330
C
100
AcDbDictionary
281
     1
  3
2dWireframe
350
2F
  3
3D Hidden
350
31
  3
3dWireframe
350
30
  3
Basic
350
32
  3
Brighten
350
36
  3
ColorChange
350
3A
  3
Conceptual
350
34
  3
Dim
350
35
  3
Facepattern
350
39
  3
Flat
350
2B
  3
FlatWithEdges
350
2C
  3
Gouraud
350
2D
  3
GouraudWithEdges
350
2E
  3
Linepattern
350
38
  3
Realistic
350
33
  3
Thicken
350
37
  0
DICTIONARY
  5
193
102
{ACAD_REACTORS
330
C
102
}
330
C
100
AcDbDictionary
281
     1
  3
DIMASSOC
350
196
  3
HIDETEXT
350
197
  0
LAYOUT
  5
1E
102
{ACAD_REACTORS
330
1A
102
}
330
1A
100
AcDbPlotSettings
  1

  2
none_device
  4

  6

 40
0.0
 41
0.0
 42
0.0
 43
0.0
 44
0.0
 45
0.0
 46
0.0
 47
0.0
 48
0.0
 49
0.0
140
0.0
141
0.0
142
1.0
143
1.0
 70
   688
 72
     0
 73
     0
 74
     5
  7

 75
    16
147
1.0
148
0.0
149
0.0
100
AcDbLayout
  1
Layout1
 70
     1
 71
     1
 10
0.0
 20
0.0
 11
12.0
 21
9.0
 12
0.0
 22
0.0
 32
0.0
 14
1.00000000000000E+20
 24
1.00000000000000E+20
 34
1.00000000000000E+20
 15
-1.00000000000000E+20
 25
-1.00000000000000E+20
 35
-1.00000000000000E+20
146
0.0
 13
0.0
 23
0.0
 33
0.0
 16
1.0
 26
0.0
 36
0.0
 17
0.0
 27
1.0
 37
0.0
 76
     0
330
1B
  0
LAYOUT
  5
26
102
{ACAD_REACTORS
330
1A
102
}
330
1A
100
AcDbPlotSettings
  1

  2
none_device
  4

  6

 40
0.0
 41
0.0
 42
0.0
 43
0.0
 44
0.0
 45
0.0
 46
0.0
 47
0.0
 48
0.0
 49
0.0
140
0.0
141
0.0
142
1.0
143
1.0
 70
   688
 72
     0
 73
     0
 74
     5
  7

 75
    16
147
1.0
148
0.0
149
0.0
100
AcDbLayout
  1
Layout2
 70
     1
 71
     2
 10
0.0
 20
0.0
 11
0.0
 21
0.0
 12
0.0
 22
0.0
 32
0.0
 14
0.0
 24
0.0
 34
0.0
 15
0.0
 25
0.0
 35
0.0
146
0.0
 13
0.0
 23
0.0
 33
0.0
 16
1.0
 26
0.0
 36
0.0
 17
0.0
 27
1.0
 37
0.0
 76
     0
330
23
  0
LAYOUT
  5
22
102
{ACAD_REACTORS
330
1A
102
}
330
1A
100
AcDbPlotSettings
  1

  2
none_device
  4

  6

 40
0.0
 41
0.0
 42
0.0
 43
0.0
 44
0.0
 45
0.0
 46
0.0
 47
0.0
 48
0.0
 49
0.0
140
0.0
141
0.0
142
1.0
143
1.0
 70
  1712
 72
     0
 73
     0
 74
     0
  7

 75
     0
147
1.0
148
0.0
149
0.0
100
AcDbLayout
  1
Model
 70
     1
 71
     0
 10
0.0
 20
0.0
 11
12.0
 21
9.0
 12
0.0
 22
0.0
 32
0.0
 14
0.0
 24
0.0
 34
0.0
 15
419.9999999999999
 25
594.0
 35
0.0
146
0.0
 13
0.0
 23
0.0
 33
0.0
 16
1.0
 26
0.0
 36
0.0
 17
0.0
 27
1.0
 37
0.0
 76
     0
330
1F
331
29
  0
MATERIAL
  5
3D
102
{ACAD_REACTORS
330
3B
102
}
102
{ACAD_XDICTIONARY
360
1BA
102
}
330
3B
100
AcDbMaterial
  1
ByBlock
  0
MATERIAL
  5
3C
102
{ACAD_REACTORS
330
3B
102
}
102
{ACAD_XDICTIONARY
360
1B8
102
}
330
3B
100
AcDbMaterial
  1
ByLayer
  0
MATERIAL
  5
3E
102
{ACAD_REACTORS
330
3B
102
}
102
{ACAD_XDICTIONARY
360
1BC
102
}
330
3B
100
AcDbMaterial
  1
Global
  0
MLINESTYLE
  5
18
102
{ACAD_REACTORS
330
17
102
}
330
17
100
AcDbMlineStyle
  2
Standard
 70
     0
  3

 62
   256
 51
90.0
 52
90.0
 71
     2
 49
0.5
 62
   256
  6
BYLAYER
 49
-0.5
 62
   256
  6
BYLAYER
  0
ACDBPLACEHOLDER
  5
F
102
{ACAD_REACTORS
330
E
102
}
330
E
  0
VISUALSTYLE
  5
2F
102
{ACAD_REACTORS
330
2A
102
}
102
{ACAD_XDICTIONARY
360
1A0
102
}
330
2A
100
AcDbVisualStyle
  2
2dWireframe
 70
     4
 71
     0
 72
     2
 73
     0
 90
        0
 40
-0.6
 41
-30.0
 62
     5
 63
     7
 74
     1
 91
        4
 64
     7
 65
   257
 75
     1
175
     1
 42
1.0
 92
        0
 66
   257
 43
1.0
 76
     1
 77
     6
 78
     2
 67
     7
 79
     5
170
     0
171
     0
290
     0
174
     0
 93
        1
 44
0.0
173
     0
291
     0
 45
0.0
1001
ACAD
1000
AcDbSavedByObjectVersion
1070
     0
  0
VISUALSTYLE
  5
31
102
{ACAD_REACTORS
330
2A
102
}
102
{ACAD_XDICTIONARY
360
1A4
102
}
330
2A
100
AcDbVisualStyle
  2
3D Hidden
 70
     6
 71
     1
 72
     2
 73
     2
 90
        0
 40
-0.6
 41
-30.0
 62
     5
 63
     7
 74
     2
 91
        2
 64
     7
 65
   257
 75
     2
175
     1
 42
40.0
 92
        0
 66
   257
 43
1.0
 76
     1
 77
     6
 78
     2
 67
     7
 79
     3
170
     0
171
     0
290
     0
174
     0
 93
        1
 44
0.0
173
     0
291
     0
 45
0.0
1001
ACAD
1000
AcDbSavedByObjectVersion
1070
     0
  0
VISUALSTYLE
  5
30
102
{ACAD_REACTORS
330
2A
102
}
102
{ACAD_XDICTIONARY
360
1A2
102
}
330
2A
100
AcDbVisualStyle
  2
3dWireframe
 70
     5
 71
     0
 72
     2
 73
     0
 90
        0
 40
-0.6
 41
-30.0
 62
     5
 63
     7
 74
     1
 91
        4
 64
     7
 65
   257
 75
     1
175
     1
 42
1.0
 92
        0
 66
   257
 43
1.0
 76
     1
 77
     6
 78
     2
 67
     7
 79
     5
170
     0
171
     0
290
     0
174
     0
 93
        1
 44
0.0
173
     0
291
     0
 45
0.0
1001
ACAD
1000
AcDbSavedByObjectVersion
1070
     0
  0
VISUALSTYLE
  5
32
102
{ACAD_REACTORS
330
2A
102
}
102
{ACAD_XDICTIONARY
360
1A6
102
}
330
2A
100
AcDbVisualStyle
  2
Basic
 70
     7
 71
     1
 72
     0
 73
     1
 90
        0
 40
-0.6
 41
-30.0
 62
     5
 63
     7
 74
     0
 91
        4
 64
     7
 65
   257
 75
     1
175
     1
 42
1.0
 92
        8
 66
     7
 43
1.0
 76
     1
 77
     6
 78
     2
 67
     7
 79
     5
170
     0
171
     0
290
     0
174
     0
 93
        1
 44
0.0
173
     0
291
     1
 45
0.0
1001
ACAD
1000
AcDbSavedByObjectVersion
1070
     0
  0
VISUALSTYLE
  5
36
102
{ACAD_REACTORS
330
2A
102
}
102
{ACAD_XDICTIONARY
360
1AE
102
}
330
2A
100
AcDbVisualStyle
  2
Brighten
 70
    12
 71
     2
 72
     2
 73
     0
 90
        0
 40
-0.6
 41
-30.0
 62
     5
 63
     7
 74
     1
 91
        4
 64
     7
 65
   257
 75
     1
175
     1
 42
1.0
 92
        8
 66
     7
 43
1.0
 76
     1
 77
     6
 78
     2
 67
     7
 79
     5
170
     0
171
     0
290
     0
174
     0
 93
        1
 44
50.0
173
     0
291
     1
 45
0.0
1001
ACAD
1000
AcDbSavedByObjectVersion
1070
     0
  0
VISUALSTYLE
  5
3A
102
{ACAD_REACTORS
330
2A
102
}
102
{ACAD_XDICTIONARY
360
1B6
102
}
330
2A
100
AcDbVisualStyle
  2
ColorChange
 70
    16
 71
     2
 72
     2
 73
     3
 90
        0
 40
-0.6
 41
-30.0
 62
     5
 63
     8
 74
     1
 91
        4
 64
     7
 65
   257
 75
     1
175
     1
 42
1.0
 92
        8
 66
     8
 43
1.0
 76
     1
 77
     6
 78
     2
 67
     7
 79
     5
170
     0
171
     0
290
     0
174
     0
 93
        1
 44
0.0
173
     0
291
     1
 45
0.0
1001
ACAD
1000
AcDbSavedByObjectVersion
1070
     0
  0
VISUALSTYLE
  5
34
102
{ACAD_REACTORS
330
2A
102
}
102
{ACAD_XDICTIONARY
360
1AA
102
}
330
2A
100
AcDbVisualStyle
  2
Conceptual
 70
     9
 71
     3
 72
     2
 73
     0
 90
        0
 40
-0.6
 41
-30.0
 62
     5
 63
     7
 74
     2
 91
        2
 64
     7
 65
   257
 75
     1
175
     1
 42
40.0
 92
        8
 66
     7
 43
1.0
 76
     1
 77
     6
 78
     2
 67
     7
 79
     3
170
     0
171
     0
290
     0
174
     0
 93
        1
 44
0.0
173
     0
291
     0
 45
0.0
1001
ACAD
1000
AcDbSavedByObjectVersion
1070
     0
  0
VISUALSTYLE
  5
35
102
{ACAD_REACTORS
330
2A
102
}
102
{ACAD_XDICTIONARY
360
1AC
102
}
330
2A
100
AcDbVisualStyle
  2
Dim
 70
    11
 71
     2
 72
     2
 73
     0
 90
        0
 40
-0.6
 41
-30.0
 62
     5
 63
     7
 74
     1
 91
        4
 64
     7
 65
   257
 75
     1
175
     1
 42
1.0
 92
        8
 66
     7
 43
1.0
 76
     1
 77
     6
 78
     2
 67
     7
 79
     5
170
     0
171
     0
290
     0
174
     0
 93
        1
 44
-50.0
173
     0
291
     1
 45
0.0
1001
ACAD
1000
AcDbSavedByObjectVersion
1070
     0
  0
VISUALSTYLE
  5
39
102
{ACAD_REACTORS
330
2A
102
}
102
{ACAD_XDICTIONARY
360
1B4
102
}
330
2A
100
AcDbVisualStyle
  2
Facepattern
 70
    15
 71
     2
 72
     2
 73
     0
 90
        0
 40
-0.6
 41
-30.0
 62
     5
 63
     7
 74
     1
 91
        4
 64
     7
 65
   257
 75
     1
175
     1
 42
1.0
 92
        8
 66
     7
 43
1.0
 76
     1
 77
     6
 78
     2
 67
     7
 79
     5
170
     0
171
     0
290
     0
174
     0
 93
        1
 44
0.0
173
     0
291
     1
 45
0.0
1001
ACAD
1000
AcDbSavedByObjectVersion
1070
     0
  0
VISUALSTYLE
  5
2B
102
{ACAD_REACTORS
330
2A
102
}
102
{ACAD_XDICTIONARY
360
198
102
}
330
2A
100
AcDbVisualStyle
  2
Flat
 70
     0
 71
     2
 72
     1
 73
     1
 90
        2
 40
-0.6
 41
30.0
 62
     5
 63
     7
 74
     0
 91
        4
 64
     7
 65
   257
 75
     1
175
     1
 42
1.0
 92
        8
 66
     7
 43
1.0
 76
     1
 77
     6
 78
     2
 67
     7
 79
     5
170
     0
171
     0
290
     0
174
     0
 93
       13
 44
0.0
173
     0
291
     1
 45
0.0
1001
ACAD
1000
AcDbSavedByObjectVersion
1070
     0
  0
VISUALSTYLE
  5
2C
102
{ACAD_REACTORS
330
2A
102
}
102
{ACAD_XDICTIONARY
360
19A
102
}
330
2A
100
AcDbVisualStyle
  2
FlatWithEdges
 70
     1
 71
     2
 72
     1
 73
     1
 90
        2
 40
-0.6
 41
30.0
 62
     5
 63
     7
 74
     1
 91
        4
 64
     7
 65
   257
 75
     1
175
     1
 42
1.0
 92
        0
 66
   257
 43
1.0
 76
     1
 77
     6
 78
     2
 67
     7
 79
     5
170
     0
171
     0
290
     0
174
     0
 93
       13
 44
0.0
173
     0
291
     1
 45
0.0
1001
ACAD
1000
AcDbSavedByObjectVersion
1070
     0
  0
VISUALSTYLE
  5
2D
102
{ACAD_REACTORS
330
2A
102
}
102
{ACAD_XDICTIONARY
360
19C
102
}
330
2A
100
AcDbVisualStyle
  2
Gouraud
 70
     2
 71
     2
 72
     2
 73
     1
 90
        2
 40
-0.6
 41
30.0
 62
     5
 63
     7
 74
     0
 91
        4
 64
     7
 65
   257
 75
     1
175
     1
 42
1.0
 92
        0
 66
     7
 43
1.0
 76
     1
 77
     6
 78
     2
 67
     7
 79
     5
170
     0
171
     0
290
     0
174
     0
 93
       13
 44
0.0
173
     0
291
     1
 45
0.0
1001
ACAD
1000
AcDbSavedByObjectVersion
1070
     0
  0
VISUALSTYLE
  5
2E
102
{ACAD_REACTORS
330
2A
102
}
102
{ACAD_XDICTIONARY
360
19E
102
}
330
2A
100
AcDbVisualStyle
  2
GouraudWithEdges
 70
     3
 71
     2
 72
     2
 73
     1
 90
        2
 40
-0.6
 41
30.0
 62
     5
 63
     7
 74
     1
 91
        4
 64
     7
 65
   257
 75
     1
175
     1
 42
1.0
 92
        0
 66
   257
 43
1.0
 76
     1
 77
     6
 78
     2
 67
     7
 79
     5
170
     0
171
     0
290
     0
174
     0
 93
       13
 44
0.0
173
     0
291
     1
 45
0.0
1001
ACAD
1000
AcDbSavedByObjectVersion
1070
     0
  0
VISUALSTYLE
  5
38
102
{ACAD_REACTORS
330
2A
102
}
102
{ACAD_XDICTIONARY
360
1B2
102
}
330
2A
100
AcDbVisualStyle
  2
Linepattern
 70
    14
 71
     2
 72
     2
 73
     0
 90
        0
 40
-0.6
 41
-30.0
 62
     5
 63
     7
 74
     1
 91
        4
 64
     7
 65
   257
 75
     7
175
     7
 42
1.0
 92
        8
 66
     7
 43
1.0
 76
     1
 77
     6
 78
     2
 67
     7
 79
     5
170
     0
171
     0
290
     0
174
     0
 93
        1
 44
0.0
173
     0
291
     1
 45
0.0
1001
ACAD
1000
AcDbSavedByObjectVersion
1070
     0
  0
VISUALSTYLE
  5
33
102
{ACAD_REACTORS
330
2A
102
}
102
{ACAD_XDICTIONARY
360
1A8
102
}
330
2A
100
AcDbVisualStyle
  2
Realistic
 70
     8
 71
     2
 72
     2
 73
     0
 90
        0
 40
-0.6
 41
-30.0
 62
     5
 63
     7
 74
     1
 91
        0
 64
     7
 65
   257
 75
     1
175
     1
 42
1.0
 92
        8
 66
     8
 43
1.0
 76
     1
 77
     6
 78
     2
 67
     7
 79
     5
170
     0
171
     0
290
     0
174
     0
 93
       13
 44
0.0
173
     0
291
     0
 45
0.0
1001
ACAD
1000
AcDbSavedByObjectVersion
1070
     0
  0
VISUALSTYLE
  5
37
102
{ACAD_REACTORS
330
2A
102
}
102
{ACAD_XDICTIONARY
360
1B0
102
}
330
2A
100
AcDbVisualStyle
  2
Thicken
 70
    13
 71
     2
 72
     2
 73
     0
 90
        0
 40
-0.6
 41
-30.0
 62
     5
 63
     7
 74
     1
 91
        4
 64
     7
 65
   257
 75
     1
175
     1
 42
1.0
 92
       12
 66
     7
 43
1.0
 76
     1
 77
     6
 78
     2
 67
     7
 79
     5
170
     0
171
     0
290
     0
174
     0
 93
        1
 44
0.0
173
     0
291
     1
 45
0.0
1001
ACAD
1000
AcDbSavedByObjectVersion
1070
     0
  0
DICTIONARYVAR
  5
196
102
{ACAD_REACTORS
330
193
102
}
330
193
100
DictionaryVariables
280
     0
  1
2
  0
DICTIONARYVAR
  5
197
102
{ACAD_REACTORS
330
193
102
}
330
193
100
DictionaryVariables
280
     0
  1
1
  0
DICTIONARY
  5
1BA
330
3D
100
AcDbDictionary
280
     1
281
     1
  3
ACAD_XREC_ROUNDTRIP
360
1BB
  0
DICTIONARY
  5
1B8
330
3C
100
AcDbDictionary
280
     1
281
     1
  3
ACAD_XREC_ROUNDTRIP
360
1B9
  0
DICTIONARY
  5
1BC
330
3E
100
AcDbDictionary
280
     1
281
     1
  3
ACAD_XREC_ROUNDTRIP
360
1BD
  0
DICTIONARY
  5
1A0
330
2F
100
AcDbDictionary
280
     1
281
     1
  3
ACAD_XREC_ROUNDTRIP
360
1A1
  0
DICTIONARY
  5
1A4
330
31
100
AcDbDictionary
280
     1
281
     1
  3
ACAD_XREC_ROUNDTRIP
360
1A5
  0
DICTIONARY
  5
1A2
330
30
100
AcDbDictionary
280
     1
281
     1
  3
ACAD_XREC_ROUNDTRIP
360
1A3
  0
DICTIONARY
  5
1A6
330
32
100
AcDbDictionary
280
     1
281
     1
  3
ACAD_XREC_ROUNDTRIP
360
1A7
  0
DICTIONARY
  5
1AE
330
36
100
AcDbDictionary
280
     1
281
     1
  3
ACAD_XREC_ROUNDTRIP
360
1AF
  0
DICTIONARY
  5
1B6
330
3A
100
AcDbDictionary
280
     1
281
     1
  3
ACAD_XREC_ROUNDTRIP
360
1B7
  0
DICTIONARY
  5
1AA
330
34
100
AcDbDictionary
280
     1
281
     1
  3
ACAD_XREC_ROUNDTRIP
360
1AB
  0
DICTIONARY
  5
1AC
330
35
100
AcDbDictionary
280
     1
281
     1
  3
ACAD_XREC_ROUNDTRIP
360
1AD
  0
DICTIONARY
  5
1B4
330
39
100
AcDbDictionary
280
     1
281
     1
  3
ACAD_XREC_ROUNDTRIP
360
1B5
  0
DICTIONARY
  5
198
330
2B
100
AcDbDictionary
280
     1
281
     1
  3
ACAD_XREC_ROUNDTRIP
360
199
  0
DICTIONARY
  5
19A
330
2C
100
AcDbDictionary
280
     1
281
     1
  3
ACAD_XREC_ROUNDTRIP
360
19B
  0
DICTIONARY
  5
19C
330
2D
100
AcDbDictionary
280
     1
281
     1
  3
ACAD_XREC_ROUNDTRIP
360
19D
  0
DICTIONARY
  5
19E
330
2E
100
AcDbDictionary
280
     1
281
     1
  3
ACAD_XREC_ROUNDTRIP
360
19F
  0
DICTIONARY
  5
1B2
330
38
100
AcDbDictionary
280
     1
281
     1
  3
ACAD_XREC_ROUNDTRIP
360
1B3
  0
DICTIONARY
  5
1A8
330
33
100
AcDbDictionary
280
     1
281
     1
  3
ACAD_XREC_ROUNDTRIP
360
1A9
  0
DICTIONARY
  5
1B0
330
37
100
AcDbDictionary
280
     1
281
     1
  3
ACAD_XREC_ROUNDTRIP
360
1B1
  0
XRECORD
  5
1BB
102
{ACAD_REACTORS
330
1BA
102
}
330
1BA
100
AcDbXrecord
280
     1
102
MATERIAL
148
0.0
149
0.0
149
0.0
 93
        0
 94
      127
282
     0
 72
     1
 77
     1
171
     1
175
     1
179
     1
273
     0
  0
XRECORD
  5
1B9
102
{ACAD_REACTORS
330
1B8
102
}
330
1B8
100
AcDbXrecord
280
     1
102
MATERIAL
148
0.0
149
0.0
149
0.0
 93
        0
 94
      127
282
     0
 72
     1
 77
     1
171
     1
175
     1
179
     1
273
     0
  0
XRECORD
  5
1BD
102
{ACAD_REACTORS
330
1BC
102
}
330
1BC
100
AcDbXrecord
280
     1
102
MATERIAL
148
0.0
149
0.0
149
0.0
 93
        0
 94
      127
282
     0
 72
     1
 77
     1
171
     1
175
     1
179
     1
273
     0
  0
XRECORD
  5
1A1
102
{ACAD_REACTORS
330
1A0
102
}
330
1A0
100
AcDbXrecord
280
     1
102
RTVSPropertyOp0
 70
     1
102
RTVSPropertyOp1
 70
     1
102
RTVSPropertyOp2
 70
     1
102
RTVSPropertyOp3
 70
     1
102
RTVSPropertyOp4
 70
     1
102
RTVSPropertyOp5
 70
     1
102
RTVSPropertyOp6
 70
     1
102
RTVSPropertyOp7
 70
     1
102
RTVSPropertyOp8
 70
     1
102
RTVSPropertyOp9
 70
     1
102
RTVSPropertyOp10
 70
     1
102
RTVSPropertyOp11
 70
     1
102
RTVSPropertyOp12
 70
     1
102
RTVSPropertyOp13
 70
     1
102
RTVSPropertyOp14
 70
     1
102
RTVSPropertyOp15
 70
     1
102
RTVSPropertyOp16
 70
     1
102
RTVSPropertyOp17
 70
     1
102
RTVSPropertyOp18
 70
     1
102
RTVSPropertyOp19
 70
     1
102
RTVSPropertyOp20
 70
     1
102
RTVSPropertyOp21
 70
     1
102
RTVSPropertyOp22
 70
     1
102
RTVSPropertyOp23
 70
     1
102
RTVSPropertyOp24
 70
     1
102
RTVSPropertyOp25
 70
     1
102
RTVSPropertyOp26
 70
     1
102
RTVSPropertyOp27
 70
     1
102
RTVSPropertyOp28
 70
     1
102
RTVSPropertyOp29
 70
     1
102
RTVSPropertyOp30
 70
     1
102
RTVSPropertyOp31
 70
     1
102
RTVSPropertyOp32
 70
     1
  0
XRECORD
  5
1A5
102
{ACAD_REACTORS
330
1A4
102
}
330
1A4
100
AcDbXrecord
280
     1
102
RTVSPropertyOp0
 70
     1
102
RTVSPropertyOp1
 70
     1
102
RTVSPropertyOp2
 70
     1
102
RTVSPropertyOp3
 70
     1
102
RTVSPropertyOp4
 70
     1
102
RTVSPropertyOp5
 70
     1
102
RTVSPropertyOp6
 70
     1
102
RTVSPropertyOp7
 70
     1
102
RTVSPropertyOp8
 70
     1
102
RTVSPropertyOp9
 70
     1
102
RTVSPropertyOp10
 70
     1
102
RTVSPropertyOp11
 70
     1
102
RTVSPropertyOp12
 70
     1
102
RTVSPropertyOp13
 70
     1
102
RTVSPropertyOp14
 70
     1
102
RTVSPropertyOp15
 70
     1
102
RTVSPropertyOp16
 70
     1
102
RTVSPropertyOp17
 70
     1
102
RTVSPropertyOp18
 70
     1
102
RTVSPropertyOp19
 70
     1
102
RTVSPropertyOp20
 70
     1
102
RTVSPropertyOp21
 70
     1
102
RTVSPropertyOp22
 70
     1
102
RTVSPropertyOp23
 70
     1
102
RTVSPropertyOp24
 70
     1
102
RTVSPropertyOp25
 70
     1
102
RTVSPropertyOp26
 70
     1
102
RTVSPropertyOp27
 70
     1
102
RTVSPropertyOp28
 70
     1
102
RTVSPropertyOp29
 70
     1
102
RTVSPropertyOp30
 70
     1
102
RTVSPropertyOp31
 70
     1
102
RTVSPropertyOp32
 70
     1
  0
XRECORD
  5
1A3
102
{ACAD_REACTORS
330
1A2
102
}
330
1A2
100
AcDbXrecord
280
     1
102
RTVSPropertyOp0
 70
     1
102
RTVSPropertyOp1
 70
     1
102
RTVSPropertyOp2
 70
     1
102
RTVSPropertyOp3
 70
     1
102
RTVSPropertyOp4
 70
     1
102
RTVSPropertyOp5
 70
     1
102
RTVSPropertyOp6
 70
     1
102
RTVSPropertyOp7
 70
     1
102
RTVSPropertyOp8
 70
     1
102
RTVSPropertyOp9
 70
     1
102
RTVSPropertyOp10
 70
     1
102
RTVSPropertyOp11
 70
     1
102
RTVSPropertyOp12
 70
     1
102
RTVSPropertyOp13
 70
     1
102
RTVSPropertyOp14
 70
     1
102
RTVSPropertyOp15
 70
     1
102
RTVSPropertyOp16
 70
     1
102
RTVSPropertyOp17
 70
     1
102
RTVSPropertyOp18
 70
     1
102
RTVSPropertyOp19
 70
     1
102
RTVSPropertyOp20
 70
     1
102
RTVSPropertyOp21
 70
     1
102
RTVSPropertyOp22
 70
     1
102
RTVSPropertyOp23
 70
     1
102
RTVSPropertyOp24
 70
     1
102
RTVSPropertyOp25
 70
     1
102
RTVSPropertyOp26
 70
     1
102
RTVSPropertyOp27
 70
     1
102
RTVSPropertyOp28
 70
     1
102
RTVSPropertyOp29
 70
     1
102
RTVSPropertyOp30
 70
     1
102
RTVSPropertyOp31
 70
     1
102
RTVSPropertyOp32
 70
     1
  0
XRECORD
  5
1A7
102
{ACAD_REACTORS
330
1A6
102
}
330
1A6
100
AcDbXrecord
280
     1
102
RTVSPropertyOp0
 70
     1
102
RTVSPropertyOp1
 70
     1
102
RTVSPropertyOp2
 70
     1
102
RTVSPropertyOp3
 70
     1
102
RTVSPropertyOp4
 70
     1
102
RTVSPropertyOp5
 70
     1
102
RTVSPropertyOp6
 70
     1
102
RTVSPropertyOp7
 70
     1
102
RTVSPropertyOp8
 70
     1
102
RTVSPropertyOp9
 70
     1
102
RTVSPropertyOp10
 70
     1
102
RTVSPropertyOp11
 70
     1
102
RTVSPropertyOp12
 70
     1
102
RTVSPropertyOp13
 70
     1
102
RTVSPropertyOp14
 70
     1
102
RTVSPropertyOp15
 70
     1
102
RTVSPropertyOp16
 70
     1
102
RTVSPropertyOp17
 70
     1
102
RTVSPropertyOp18
 70
     1
102
RTVSPropertyOp19
 70
     1
102
RTVSPropertyOp20
 70
     1
102
RTVSPropertyOp21
 70
     1
102
RTVSPropertyOp22
 70
     1
102
RTVSPropertyOp23
 70
     1
102
RTVSPropertyOp24
 70
     1
102
RTVSPropertyOp25
 70
     1
102
RTVSPropertyOp26
 70
     1
102
RTVSPropertyOp27
 70
     1
102
RTVSPropertyOp28
 70
     1
102
RTVSPropertyOp29
 70
     1
102
RTVSPropertyOp30
 70
     1
102
RTVSPropertyOp31
 70
     1
102
RTVSPropertyOp32
 70
     1
  0
XRECORD
  5
1AF
102
{ACAD_REACTORS
330
1AE
102
}
330
1AE
100
AcDbXrecord
280
     1
102
RTVSPropertyOp0
 70
     1
102
RTVSPropertyOp1
 70
     1
102
RTVSPropertyOp2
 70
     1
102
RTVSPropertyOp3
 70
     1
102
RTVSPropertyOp4
 70
     1
102
RTVSPropertyOp5
 70
     1
102
RTVSPropertyOp6
 70
     1
102
RTVSPropertyOp7
 70
     1
102
RTVSPropertyOp8
 70
     1
102
RTVSPropertyOp9
 70
     1
102
RTVSPropertyOp10
 70
     1
102
RTVSPropertyOp11
 70
     1
102
RTVSPropertyOp12
 70
     1
102
RTVSPropertyOp13
 70
     1
102
RTVSPropertyOp14
 70
     1
102
RTVSPropertyOp15
 70
     1
102
RTVSPropertyOp16
 70
     1
102
RTVSPropertyOp17
 70
     1
102
RTVSPropertyOp18
 70
     1
102
RTVSPropertyOp19
 70
     1
102
RTVSPropertyOp20
 70
     1
102
RTVSPropertyOp21
 70
     1
102
RTVSPropertyOp22
 70
     1
102
RTVSPropertyOp23
 70
     1
102
RTVSPropertyOp24
 70
     1
102
RTVSPropertyOp25
 70
     1
102
RTVSPropertyOp26
 70
     1
102
RTVSPropertyOp27
 70
     1
102
RTVSPropertyOp28
 70
     1
102
RTVSPropertyOp29
 70
     1
102
RTVSPropertyOp30
 70
     1
102
RTVSPropertyOp31
 70
     1
102
RTVSPropertyOp32
 70
     1
  0
XRECORD
  5
1B7
102
{ACAD_REACTORS
330
1B6
102
}
330
1B6
100
AcDbXrecord
280
     1
102
RTVSPropertyOp0
 70
     1
102
RTVSPropertyOp1
 70
     1
102
RTVSPropertyOp2
 70
     1
102
RTVSPropertyOp3
 70
     1
102
RTVSPropertyOp4
 70
     1
102
RTVSPropertyOp5
 70
     1
102
RTVSPropertyOp6
 70
     1
102
RTVSPropertyOp7
 70
     1
102
RTVSPropertyOp8
 70
     1
102
RTVSPropertyOp9
 70
     1
102
RTVSPropertyOp10
 70
     1
102
RTVSPropertyOp11
 70
     1
102
RTVSPropertyOp12
 70
     1
102
RTVSPropertyOp13
 70
     1
102
RTVSPropertyOp14
 70
     1
102
RTVSPropertyOp15
 70
     1
102
RTVSPropertyOp16
 70
     1
102
RTVSPropertyOp17
 70
     1
102
RTVSPropertyOp18
 70
     1
102
RTVSPropertyOp19
 70
     1
102
RTVSPropertyOp20
 70
     1
102
RTVSPropertyOp21
 70
     1
102
RTVSPropertyOp22
 70
     1
102
RTVSPropertyOp23
 70
     1
102
RTVSPropertyOp24
 70
     1
102
RTVSPropertyOp25
 70
     1
102
RTVSPropertyOp26
 70
     1
102
RTVSPropertyOp27
 70
     1
102
RTVSPropertyOp28
 70
     1
102
RTVSPropertyOp29
 70
     1
102
RTVSPropertyOp30
 70
     1
102
RTVSPropertyOp31
 70
     1
102
RTVSPropertyOp32
 70
     1
  0
XRECORD
  5
1AB
102
{ACAD_REACTORS
330
1AA
102
}
330
1AA
100
AcDbXrecord
280
     1
102
RTVSPropertyOp0
 70
     1
102
RTVSPropertyOp1
 70
     1
102
RTVSPropertyOp2
 70
     1
102
RTVSPropertyOp3
 70
     1
102
RTVSPropertyOp4
 70
     1
102
RTVSPropertyOp5
 70
     1
102
RTVSPropertyOp6
 70
     1
102
RTVSPropertyOp7
 70
     1
102
RTVSPropertyOp8
 70
     1
102
RTVSPropertyOp9
 70
     1
102
RTVSPropertyOp10
 70
     1
102
RTVSPropertyOp11
 70
     1
102
RTVSPropertyOp12
 70
     1
102
RTVSPropertyOp13
 70
     1
102
RTVSPropertyOp14
 70
     1
102
RTVSPropertyOp15
 70
     1
102
RTVSPropertyOp16
 70
     1
102
RTVSPropertyOp17
 70
     1
102
RTVSPropertyOp18
 70
     1
102
RTVSPropertyOp19
 70
     1
102
RTVSPropertyOp20
 70
     1
102
RTVSPropertyOp21
 70
     1
102
RTVSPropertyOp22
 70
     1
102
RTVSPropertyOp23
 70
     1
102
RTVSPropertyOp24
 70
     1
102
RTVSPropertyOp25
 70
     1
102
RTVSPropertyOp26
 70
     1
102
RTVSPropertyOp27
 70
     1
102
RTVSPropertyOp28
 70
     1
102
RTVSPropertyOp29
 70
     1
102
RTVSPropertyOp30
 70
     1
102
RTVSPropertyOp31
 70
     1
102
RTVSPropertyOp32
 70
     1
  0
XRECORD
  5
1AD
102
{ACAD_REACTORS
330
1AC
102
}
330
1AC
100
AcDbXrecord
280
     1
102
RTVSPropertyOp0
 70
     1
102
RTVSPropertyOp1
 70
     1
102
RTVSPropertyOp2
 70
     1
102
RTVSPropertyOp3
 70
     1
102
RTVSPropertyOp4
 70
     1
102
RTVSPropertyOp5
 70
     1
102
RTVSPropertyOp6
 70
     1
102
RTVSPropertyOp7
 70
     1
102
RTVSPropertyOp8
 70
     1
102
RTVSPropertyOp9
 70
     1
102
RTVSPropertyOp10
 70
     1
102
RTVSPropertyOp11
 70
     1
102
RTVSPropertyOp12
 70
     1
102
RTVSPropertyOp13
 70
     1
102
RTVSPropertyOp14
 70
     1
102
RTVSPropertyOp15
 70
     1
102
RTVSPropertyOp16
 70
     1
102
RTVSPropertyOp17
 70
     1
102
RTVSPropertyOp18
 70
     1
102
RTVSPropertyOp19
 70
     1
102
RTVSPropertyOp20
 70
     1
102
RTVSPropertyOp21
 70
     1
102
RTVSPropertyOp22
 70
     1
102
RTVSPropertyOp23
 70
     1
102
RTVSPropertyOp24
 70
     1
102
RTVSPropertyOp25
 70
     1
102
RTVSPropertyOp26
 70
     1
102
RTVSPropertyOp27
 70
     1
102
RTVSPropertyOp28
 70
     1
102
RTVSPropertyOp29
 70
     1
102
RTVSPropertyOp30
 70
     1
102
RTVSPropertyOp31
 70
     1
102
RTVSPropertyOp32
 70
     1
  0
XRECORD
  5
1B5
102
{ACAD_REACTORS
330
1B4
102
}
330
1B4
100
AcDbXrecord
280
     1
102
RTVSPropertyOp0
 70
     1
102
RTVSPropertyOp1
 70
     1
102
RTVSPropertyOp2
 70
     1
102
RTVSPropertyOp3
 70
     1
102
RTVSPropertyOp4
 70
     1
102
RTVSPropertyOp5
 70
     1
102
RTVSPropertyOp6
 70
     1
102
RTVSPropertyOp7
 70
     1
102
RTVSPropertyOp8
 70
     1
102
RTVSPropertyOp9
 70
     1
102
RTVSPropertyOp10
 70
     1
102
RTVSPropertyOp11
 70
     1
102
RTVSPropertyOp12
 70
     1
102
RTVSPropertyOp13
 70
     1
102
RTVSPropertyOp14
 70
     1
102
RTVSPropertyOp15
 70
     1
102
RTVSPropertyOp16
 70
     1
102
RTVSPropertyOp17
 70
     1
102
RTVSPropertyOp18
 70
     1
102
RTVSPropertyOp19
 70
     1
102
RTVSPropertyOp20
 70
     1
102
RTVSPropertyOp21
 70
     1
102
RTVSPropertyOp22
 70
     1
102
RTVSPropertyOp23
 70
     1
102
RTVSPropertyOp24
 70
     1
102
RTVSPropertyOp25
 70
     1
102
RTVSPropertyOp26
 70
     1
102
RTVSPropertyOp27
 70
     1
102
RTVSPropertyOp28
 70
     1
102
RTVSPropertyOp29
 70
     1
102
RTVSPropertyOp30
 70
     1
102
RTVSPropertyOp31
 70
     1
102
RTVSPropertyOp32
 70
     1
  0
XRECORD
  5
199
102
{ACAD_REACTORS
330
198
102
}
330
198
100
AcDbXrecord
280
     1
102
RTVSPropertyOp0
 70
     1
102
RTVSPropertyOp1
 70
     1
102
RTVSPropertyOp2
 70
     1
102
RTVSPropertyOp3
 70
     1
102
RTVSPropertyOp4
 70
     1
102
RTVSPropertyOp5
 70
     1
102
RTVSPropertyOp6
 70
     1
102
RTVSPropertyOp7
 70
     1
102
RTVSPropertyOp8
 70
     1
102
RTVSPropertyOp9
 70
     1
102
RTVSPropertyOp10
 70
     1
102
RTVSPropertyOp11
 70
     1
102
RTVSPropertyOp12
 70
     1
102
RTVSPropertyOp13
 70
     1
102
RTVSPropertyOp14
 70
     1
102
RTVSPropertyOp15
 70
     1
102
RTVSPropertyOp16
 70
     1
102
RTVSPropertyOp17
 70
     1
102
RTVSPropertyOp18
 70
     1
102
RTVSPropertyOp19
 70
     1
102
RTVSPropertyOp20
 70
     1
102
RTVSPropertyOp21
 70
     1
102
RTVSPropertyOp22
 70
     1
102
RTVSPropertyOp23
 70
     1
102
RTVSPropertyOp24
 70
     1
102
RTVSPropertyOp25
 70
     1
102
RTVSPropertyOp26
 70
     1
102
RTVSPropertyOp27
 70
     1
102
RTVSPropertyOp28
 70
     1
102
RTVSPropertyOp29
 70
     1
102
RTVSPropertyOp30
 70
     1
102
RTVSPropertyOp31
 70
     1
102
RTVSPropertyOp32
 70
     1
  0
XRECORD
  5
19B
102
{ACAD_REACTORS
330
19A
102
}
330
19A
100
AcDbXrecord
280
     1
102
RTVSPropertyOp0
 70
     1
102
RTVSPropertyOp1
 70
     1
102
RTVSPropertyOp2
 70
     1
102
RTVSPropertyOp3
 70
     1
102
RTVSPropertyOp4
 70
     1
102
RTVSPropertyOp5
 70
     1
102
RTVSPropertyOp6
 70
     1
102
RTVSPropertyOp7
 70
     1
102
RTVSPropertyOp8
 70
     1
102
RTVSPropertyOp9
 70
     1
102
RTVSPropertyOp10
 70
     1
102
RTVSPropertyOp11
 70
     1
102
RTVSPropertyOp12
 70
     1
102
RTVSPropertyOp13
 70
     1
102
RTVSPropertyOp14
 70
     1
102
RTVSPropertyOp15
 70
     1
102
RTVSPropertyOp16
 70
     1
102
RTVSPropertyOp17
 70
     1
102
RTVSPropertyOp18
 70
     1
102
RTVSPropertyOp19
 70
     1
102
RTVSPropertyOp20
 70
     1
102
RTVSPropertyOp21
 70
     1
102
RTVSPropertyOp22
 70
     1
102
RTVSPropertyOp23
 70
     1
102
RTVSPropertyOp24
 70
     1
102
RTVSPropertyOp25
 70
     1
102
RTVSPropertyOp26
 70
     1
102
RTVSPropertyOp27
 70
     1
102
RTVSPropertyOp28
 70
     1
102
RTVSPropertyOp29
 70
     1
102
RTVSPropertyOp30
 70
     1
102
RTVSPropertyOp31
 70
     1
102
RTVSPropertyOp32
 70
     1
  0
XRECORD
  5
19D
102
{ACAD_REACTORS
330
19C
102
}
330
19C
100
AcDbXrecord
280
     1
102
RTVSPropertyOp0
 70
     1
102
RTVSPropertyOp1
 70
     1
102
RTVSPropertyOp2
 70
     1
102
RTVSPropertyOp3
 70
     1
102
RTVSPropertyOp4
 70
     1
102
RTVSPropertyOp5
 70
     1
102
RTVSPropertyOp6
 70
     1
102
RTVSPropertyOp7
 70
     1
102
RTVSPropertyOp8
 70
     1
102
RTVSPropertyOp9
 70
     1
102
RTVSPropertyOp10
 70
     1
102
RTVSPropertyOp11
 70
     1
102
RTVSPropertyOp12
 70
     1
102
RTVSPropertyOp13
 70
     1
102
RTVSPropertyOp14
 70
     1
102
RTVSPropertyOp15
 70
     1
102
RTVSPropertyOp16
 70
     1
102
RTVSPropertyOp17
 70
     1
102
RTVSPropertyOp18
 70
     1
102
RTVSPropertyOp19
 70
     1
102
RTVSPropertyOp20
 70
     1
102
RTVSPropertyOp21
 70
     1
102
RTVSPropertyOp22
 70
     1
102
RTVSPropertyOp23
 70
     1
102
RTVSPropertyOp24
 70
     1
102
RTVSPropertyOp25
 70
     1
102
RTVSPropertyOp26
 70
     1
102
RTVSPropertyOp27
 70
     1
102
RTVSPropertyOp28
 70
     1
102
RTVSPropertyOp29
 70
     1
102
RTVSPropertyOp30
 70
     1
102
RTVSPropertyOp31
 70
     1
102
RTVSPropertyOp32
 70
     1
  0
XRECORD
  5
19F
102
{ACAD_REACTORS
330
19E
102
}
330
19E
100
AcDbXrecord
280
     1
102
RTVSPropertyOp0
 70
     1
102
RTVSPropertyOp1
 70
     1
102
RTVSPropertyOp2
 70
     1
102
RTVSPropertyOp3
 70
     1
102
RTVSPropertyOp4
 70
     1
102
RTVSPropertyOp5
 70
     1
102
RTVSPropertyOp6
 70
     1
102
RTVSPropertyOp7
 70
     1
102
RTVSPropertyOp8
 70
     1
102
RTVSPropertyOp9
 70
     1
102
RTVSPropertyOp10
 70
     1
102
RTVSPropertyOp11
 70
     1
102
RTVSPropertyOp12
 70
     1
102
RTVSPropertyOp13
 70
     1
102
RTVSPropertyOp14
 70
     1
102
RTVSPropertyOp15
 70
     1
102
RTVSPropertyOp16
 70
     1
102
RTVSPropertyOp17
 70
     1
102
RTVSPropertyOp18
 70
     1
102
RTVSPropertyOp19
 70
     1
102
RTVSPropertyOp20
 70
     1
102
RTVSPropertyOp21
 70
     1
102
RTVSPropertyOp22
 70
     1
102
RTVSPropertyOp23
 70
     1
102
RTVSPropertyOp24
 70
     1
102
RTVSPropertyOp25
 70
     1
102
RTVSPropertyOp26
 70
     1
102
RTVSPropertyOp27
 70
     1
102
RTVSPropertyOp28
 70
     1
102
RTVSPropertyOp29
 70
     1
102
RTVSPropertyOp30
 70
     1
102
RTVSPropertyOp31
 70
     1
102
RTVSPropertyOp32
 70
     1
  0
XRECORD
  5
1B3
102
{ACAD_REACTORS
330
1B2
102
}
330
1B2
100
AcDbXrecord
280
     1
102
RTVSPropertyOp0
 70
     1
102
RTVSPropertyOp1
 70
     1
102
RTVSPropertyOp2
 70
     1
102
RTVSPropertyOp3
 70
     1
102
RTVSPropertyOp4
 70
     1
102
RTVSPropertyOp5
 70
     1
102
RTVSPropertyOp6
 70
     1
102
RTVSPropertyOp7
 70
     1
102
RTVSPropertyOp8
 70
     1
102
RTVSPropertyOp9
 70
     1
102
RTVSPropertyOp10
 70
     1
102
RTVSPropertyOp11
 70
     1
102
RTVSPropertyOp12
 70
     1
102
RTVSPropertyOp13
 70
     1
102
RTVSPropertyOp14
 70
     1
102
RTVSPropertyOp15
 70
     1
102
RTVSPropertyOp16
 70
     1
102
RTVSPropertyOp17
 70
     1
102
RTVSPropertyOp18
 70
     1
102
RTVSPropertyOp19
 70
     1
102
RTVSPropertyOp20
 70
     1
102
RTVSPropertyOp21
 70
     1
102
RTVSPropertyOp22
 70
     1
102
RTVSPropertyOp23
 70
     1
102
RTVSPropertyOp24
 70
     1
102
RTVSPropertyOp25
 70
     1
102
RTVSPropertyOp26
 70
     1
102
RTVSPropertyOp27
 70
     1
102
RTVSPropertyOp28
 70
     1
102
RTVSPropertyOp29
 70
     1
102
RTVSPropertyOp30
 70
     1
102
RTVSPropertyOp31
 70
     1
102
RTVSPropertyOp32
 70
     1
  0
XRECORD
  5
1A9
102
{ACAD_REACTORS
330
1A8
102
}
330
1A8
100
AcDbXrecord
280
     1
102
RTVSPropertyOp0
 70
     1
102
RTVSPropertyOp1
 70
     1
102
RTVSPropertyOp2
 70
     1
102
RTVSPropertyOp3
 70
     1
102
RTVSPropertyOp4
 70
     1
102
RTVSPropertyOp5
 70
     1
102
RTVSPropertyOp6
 70
     1
102
RTVSPropertyOp7
 70
     1
102
RTVSPropertyOp8
 70
     1
102
RTVSPropertyOp9
 70
     1
102
RTVSPropertyOp10
 70
     1
102
RTVSPropertyOp11
 70
     1
102
RTVSPropertyOp12
 70
     1
102
RTVSPropertyOp13
 70
     1
102
RTVSPropertyOp14
 70
     1
102
RTVSPropertyOp15
 70
     1
102
RTVSPropertyOp16
 70
     1
102
RTVSPropertyOp17
 70
     1
102
RTVSPropertyOp18
 70
     1
102
RTVSPropertyOp19
 70
     1
102
RTVSPropertyOp20
 70
     1
102
RTVSPropertyOp21
 70
     1
102
RTVSPropertyOp22
 70
     1
102
RTVSPropertyOp23
 70
     1
102
RTVSPropertyOp24
 70
     1
102
RTVSPropertyOp25
 70
     1
102
RTVSPropertyOp26
 70
     1
102
RTVSPropertyOp27
 70
     1
102
RTVSPropertyOp28
 70
     1
102
RTVSPropertyOp29
 70
     1
102
RTVSPropertyOp30
 70
     1
102
RTVSPropertyOp31
 70
     1
102
RTVSPropertyOp32
 70
     1
  0
XRECORD
  5
1B1
102
{ACAD_REACTORS
330
1B0
102
}
330
1B0
100
AcDbXrecord
280
     1
102
RTVSPropertyOp0
 70
     1
102
RTVSPropertyOp1
 70
     1
102
RTVSPropertyOp2
 70
     1
102
RTVSPropertyOp3
 70
     1
102
RTVSPropertyOp4
 70
     1
102
RTVSPropertyOp5
 70
     1
102
RTVSPropertyOp6
 70
     1
102
RTVSPropertyOp7
 70
     1
102
RTVSPropertyOp8
 70
     1
102
RTVSPropertyOp9
 70
     1
102
RTVSPropertyOp10
 70
     1
102
RTVSPropertyOp11
 70
     1
102
RTVSPropertyOp12
 70
     1
102
RTVSPropertyOp13
 70
     1
102
RTVSPropertyOp14
 70
     1
102
RTVSPropertyOp15
 70
     1
102
RTVSPropertyOp16
 70
     1
102
RTVSPropertyOp17
 70
     1
102
RTVSPropertyOp18
 70
     1
102
RTVSPropertyOp19
 70
     1
102
RTVSPropertyOp20
 70
     1
102
RTVSPropertyOp21
 70
     1
102
RTVSPropertyOp22
 70
     1
102
RTVSPropertyOp23
 70
     1
102
RTVSPropertyOp24
 70
     1
102
RTVSPropertyOp25
 70
     1
102
RTVSPropertyOp26
 70
     1
102
RTVSPropertyOp27
 70
     1
102
RTVSPropertyOp28
 70
     1
102
RTVSPropertyOp29
 70
     1
102
RTVSPropertyOp30
 70
     1
102
RTVSPropertyOp31
 70
     1
102
RTVSPropertyOp32
 70
     1
  0
ENDSEC
  0
EOF
