  0
SECTION
  2
HEADER
  9
$ACADVER
  1
AC1015
  9
$ACADMAINTVER
 70
     6
  9
$DWGCODEPAGE
  3
ANSI_932
  9
$INSBASE
 10
0.0
 20
0.0
 30
0.0
  9
$EXTMIN
 10
0.0
 20
0.0
 30
0.0
  9
$EXTMAX
 10
210.0
 20
297.0
 30
0.0
  9
$LIMMIN
 10
0.0
 20
0.0
  9
$LIMMAX
 10
12.0
 20
9.0
  9
$ORTHOMODE
 70
     0
  9
$REGENMODE
 70
     1
  9
$FILLMODE
 70
     1
  9
$QTEXTMODE
 70
     0
  9
$MIRRTEXT
 70
     1
  9
$LTSCALE
 40
1.0
  9
$ATTMODE
 70
     1
  9
$TEXTSIZE
 40
0.2
  9
$TRACEWID
 40
0.05
  9
$TEXTSTYLE
  7
Standard
  9
$CLAYER
  8
0
  9
$CELTYPE
  6
ByLayer
  9
$CECOLOR
 62
   256
  9
$CELTSCALE
 40
1.0
  9
$DISPSILH
 70
     0
  9
$DIMSCALE
 40
1.0
  9
$DIMASZ
 40
0.18
  9
$DIMEXO
 40
0.0625
  9
$DIMDLI
 40
0.38
  9
$DIMRND
 40
0.0
  9
$DIMDLE
 40
0.0
  9
$DIMEXE
 40
0.18
  9
$DIMTP
 40
0.0
  9
$DIMTM
 40
0.0
  9
$DIMTXT
 40
0.18
  9
$DIMCEN
 40
0.09
  9
$DIMTSZ
 40
0.0
  9
$DIMTOL
 70
     0
  9
$DIMLIM
 70
     0
  9
$DIMTIH
 70
     1
  9
$DIMTOH
 70
     1
  9
$DIMSE1
 70
     0
  9
$DIMSE2
 70
     0
  9
$DIMTAD
 70
     0
  9
$DIMZIN
 70
     0
  9
$DIMBLK
  1

  9
$DIMASO
 70
     1
  9
$DIMSHO
 70
     1
  9
$DIMPOST
  1

  9
$DIMAPOST
  1

  9
$DIMALT
 70
     0
  9
$DIMALTD
 70
     2
  9
$DIMALTF
 40
25.4
  9
$DIMLFAC
 40
1.0
  9
$DIMTOFL
 70
     0
  9
$DIMTVP
 40
0.0
  9
$DIMTIX
 70
     0
  9
$DIMSOXD
 70
     0
  9
$DIMSAH
 70
     0
  9
$DIMBLK1
  1

  9
$DIMBLK2
  1

  9
$DIMSTYLE
  2
Standard
  9
$DIMCLRD
 70
     0
  9
$DIMCLRE
 70
     0
  9
$DIMCLRT
 70
     0
  9
$DIMTFAC
 40
1.0
  9
$DIMGAP
 40
0.09
  9
$DIMJUST
 70
     0
  9
$DIMSD1
 70
     0
  9
$DIMSD2
 70
     0
  9
$DIMTOLJ
 70
     1
  9
$DIMTZIN
 70
     0
  9
$DIMALTZ
 70
     0
  9
$DIMALTTZ
 70
     0
  9
$DIMUPT
 70
     0
  9
$DIMDEC
 70
     4
  9
$DIMTDEC
 70
     4
  9
$DIMALTU
 70
     2
  9
$DIMALTTD
 70
     2
  9
$DIMTXSTY
  7
Standard
  9
$DIMAUNIT
 70
     0
  9
$DIMADEC
 70
     0
  9
$DIMALTRND
 40
0.0
  9
$DIMAZIN
 70
     0
  9
$DIMDSEP
 70
    46
  9
$DIMATFIT
 70
     3
  9
$DIMFRAC
 70
     0
  9
$DIMLDRBLK
  1

  9
$DIMLUNIT
 70
     2
  9
$DIMLWD
 70
    -2
  9
$DIMLWE
 70
    -2
  9
$DIMTMOVE
 70
     0
  9
$LUNITS
 70
     2
  9
$LUPREC
 70
     4
  9
$SKETCHINC
 40
0.1
  9
$FILLETRAD
 40
0.5
  9
$AUNITS
 70
     0
  9
$AUPREC
 70
     0
  9
$MENU
  1
.
  9
$ELEVATION
 40
0.0
  9
$PELEVATION
 40
0.0
  9
$THICKNESS
 40
0.0
  9
$LIMCHECK
 70
     0
  9
$CHAMFERA
 40
0.5
  9
$CHAMFERB
 40
0.5
  9
$CHAMFERC
 40
1.0
  9
$CHAMFERD
 40
0.0
  9
$SKPOLY
 70
     0
  9
$TDCREATE
 40
2459809.599454491
  9
$TDUCREATE
 40
2459809.224454491
  9
$TDUPDATE
 40
2459809.59945559
  9
$TDUUPDATE
 40
2459809.22445559
  9
$TDINDWG
 40
0.0000000116
  9
$TDUSRTIMER
 40
0.0000000116
  9
$USRTIMER
 70
     1
  9
$ANGBASE
 50
0.0
  9
$ANGDIR
 70
     0
  9
$PDMODE
 70
     0
  9
$PDSIZE
 40
0.0
  9
$PLINEWID
 40
0.0
  9
$SPLFRAME
 70
     0
  9
$SPLINETYPE
 70
     6
  9
$SPLINESEGS
 70
     8
  9
$HANDSEED
  5
15A
  9
$SURFTAB1
 70
     6
  9
$SURFTAB2
 70
     6
  9
$SURFTYPE
 70
     6
  9
$SURFU
 70
     6
  9
$SURFV
 70
     6
  9
$UCSBASE
  2

  9
$UCSNAME
  2

  9
$UCSORG
 10
0.0
 20
0.0
 30
0.0
  9
$UCSXDIR
 10
1.0
 20
0.0
 30
0.0
  9
$UCSYDIR
 10
0.0
 20
1.0
 30
0.0
  9
$UCSORTHOREF
  2

  9
$UCSORTHOVIEW
 70
     0
  9
$UCSORGTOP
 10
0.0
 20
0.0
 30
0.0
  9
$UCSORGBOTTOM
 10
0.0
 20
0.0
 30
0.0
  9
$UCSORGLEFT
 10
0.0
 20
0.0
 30
0.0
  9
$UCSORGRIGHT
 10
0.0
 20
0.0
 30
0.0
  9
$UCSORGFRONT
 10
0.0
 20
0.0
 30
0.0
  9
$UCSORGBACK
 10
0.0
 20
0.0
 30
0.0
  9
$PUCSBASE
  2

  9
$PUCSNAME
  2

  9
$PUCSORG
 10
0.0
 20
0.0
 30
0.0
  9
$PUCSXDIR
 10
1.0
 20
0.0
 30
0.0
  9
$PUCSYDIR
 10
0.0
 20
1.0
 30
0.0
  9
$PUCSORTHOREF
  2

  9
$PUCSORTHOVIEW
 70
     0
  9
$PUCSORGTOP
 10
0.0
 20
0.0
 30
0.0
  9
$PUCSORGBOTTOM
 10
0.0
 20
0.0
 30
0.0
  9
$PUCSORGLEFT
 10
0.0
 20
0.0
 30
0.0
  9
$PUCSORGRIGHT
 10
0.0
 20
0.0
 30
0.0
  9
$PUCSORGFRONT
 10
0.0
 20
0.0
 30
0.0
  9
$PUCSORGBACK
 10
0.0
 20
0.0
 30
0.0
  9
$USERI1
 70
     0
  9
$USERI2
 70
     0
  9
$USERI3
 70
     0
  9
$USERI4
 70
     0
  9
$USERI5
 70
     0
  9
$USERR1
 40
18.1
  9
$USERR2
 40
0.0
  9
$USERR3
 40
0.0
  9
$USERR4
 40
0.0
  9
$USERR5
 40
0.0
  9
$WORLDVIEW
 70
     1
  9
$SHADEDGE
 70
     3
  9
$SHADEDIF
 70
    70
  9
$TILEMODE
 70
     1
  9
$MAXACTVP
 70
    64
  9
$PINSBASE
 10
0.0
 20
0.0
 30
0.0
  9
$PLIMCHECK
 70
     0
  9
$PEXTMIN
 10
1.00000000000000E+20
 20
1.00000000000000E+20
 30
1.00000000000000E+20
  9
$PEXTMAX
 10
-1.00000000000000E+20
 20
-1.00000000000000E+20
 30
-1.00000000000000E+20
  9
$PLIMMIN
 10
0.0
 20
0.0
  9
$PLIMMAX
 10
12.0
 20
9.0
  9
$UNITMODE
 70
     0
  9
$VISRETAIN
 70
     1
  9
$PLINEGEN
 70
     0
  9
$PSLTSCALE
 70
     1
  9
$TREEDEPTH
 70
  3020
  9
$CMLSTYLE
  2
Standard
  9
$CMLJUST
 70
     0
  9
$CMLSCALE
 40
1.0
  9
$PROXYGRAPHICS
 70
     1
  9
$MEASUREMENT
 70
     1
  9
$CELWEIGHT
370
    -1
  9
$ENDCAPS
280
     0
  9
$JOINSTYLE
280
     0
  9
$LWDISPLAY
290
     0
  9
$INSUNITS
 70
     4
  9
$HYPERLINKBASE
  1

  9
$STYLESHEET
  1

  9
$XEDIT
290
     1
  9
$CEPSNTYPE
380
     0
  9
$PSTYLEMODE
290
     1
  9
$FINGERPRINTGUID
  2
{82DA1733-D39D-46BA-A8D6-0C295D234751}
  9
$VERSIONGUID
  2
{FAEB1C32-E019-11D5-929B-00C0DF256EC4}
  9
$EXTNAMES
290
     1
  9
$PSVPSCALE
 40
0.0
  9
$OLESTARTUP
290
     0
  0
ENDSEC
  0
SECTION
  2
CLASSES
  0
CLASS
  1
ACDBDICTIONARYWDFLT
  2
AcDbDictionaryWithDefault
  3
ObjectDBX Classes
 90
        0
280
     0
281
     0
  0
CLASS
  1
VISUALSTYLE
  2
AcDbVisualStyle
  3
ObjectDBX Classes
 90
     4095
280
     0
281
     0
  0
CLASS
  1
MATERIAL
  2
AcDbMaterial
  3
ObjectDBX Classes
 90
     1153
280
     0
281
     0
  0
CLASS
  1
DICTIONARYVAR
  2
AcDbDictionaryVar
  3
ObjectDBX Classes
 90
        0
280
     0
281
     0
  0
CLASS
  1
ACDBPLACEHOLDER
  2
AcDbPlaceHolder
  3
ObjectDBX Classes
 90
        0
280
     0
281
     0
  0
CLASS
  1
LAYOUT
  2
AcDbLayout
  3
ObjectDBX Classes
 90
        0
280
     0
281
     0
  0
ENDSEC
  0
SECTION
  2
TABLES
  0
TABLE
  2
VPORT
  5
8
330
0
100
AcDbSymbolTable
 70
     1
  0
VPORT
  5
29
330
8
100
AcDbSymbolTableRecord
100
AcDbViewportTableRecord
  2
*Active
 70
     0
 10
0.0
 20
0.0
 11
1.0
 21
1.0
 12
105.0
 22
148.5
 13
0.0
 23
0.0
 14
0.5
 24
0.5
 15
0.5
 25
0.5
 16
0.0
 26
0.0
 36
1.0
 17
0.0
 27
0.0
 37
0.0
 40
326.7
 41
1.60267857142857
 42
50.0
 43
0.0
 44
0.0
 50
0.0
 51
0.0
 71
     0
 72
   100
 73
     1
 74
     3
 75
     0
 76
     0
 77
     0
 78
     0
281
     0
 65
     1
110
0.0
120
0.0
130
0.0
111
1.0
121
0.0
131
0.0
112
0.0
122
1.0
132
0.0
 79
     0
146
0.0
  0
ENDTAB
  0
TABLE
  2
LTYPE
  5
5
330
0
100
AcDbSymbolTable
 70
     8
  0
LTYPE
  5
14
330
5
100
AcDbSymbolTableRecord
100
AcDbLinetypeTableRecord
  2
ByBlock
 70
     0
  3

 72
    65
 73
     0
 40
0.0
  0
LTYPE
  5
15
330
5
100
AcDbSymbolTableRecord
100
AcDbLinetypeTableRecord
  2
ByLayer
 70
     0
  3

 72
    65
 73
     0
 40
0.0
  0
LTYPE
  5
16
330
5
100
AcDbSymbolTableRecord
100
AcDbLinetypeTableRecord
  2
Continuous
 70
     0
  3
Solid line
 72
    65
 73
     0
 40
0.0
  0
LTYPE
  5
3F
330
5
100
AcDbSymbolTableRecord
100
AcDbLinetypeTableRecord
  2
DASHED
 70
     0
  3
Dashed
 72
    65
 73
     2
 40
15.0
 49
7.0
 74
     0
 49
-8.0
 74
     0
  0
LTYPE
  5
40
330
5
100
AcDbSymbolTableRecord
100
AcDbLinetypeTableRecord
  2
DOTTED
 70
     0
  3
Dotted
 72
    65
 73
     2
 40
1.0
 49
0.0
 74
     0
 49
-1.0
 74
     0
  0
LTYPE
  5
41
330
5
100
AcDbSymbolTableRecord
100
AcDbLinetypeTableRecord
  2
DOT_CENTER
 70
     0
  3
Dot_Center
 72
    65
 73
     4
 40
14.0
 49
12.0
 74
     0
 49
-1.0
 74
     0
 49
0.0
 74
     0
 49
-1.0
 74
     0
  0
LTYPE
  5
42
330
5
100
AcDbSymbolTableRecord
100
AcDbLinetypeTableRecord
  2
LONG_DASHED
 70
     0
  3
Long_Dashed
 72
    65
 73
     2
 40
15.0
 49
10.0
 74
     0
 49
-5.0
 74
     0
  0
LTYPE
  5
43
330
5
100
AcDbSymbolTableRecord
100
AcDbLinetypeTableRecord
  2
DASH_CENTER
 70
     0
  3
Dash_Center
 72
    65
 73
     4
 40
14.0
 49
11.0
 74
     0
 49
-1.0
 74
     0
 49
1.0
 74
     0
 49
-1.0
 74
     0
  0
LTYPE
  5
44
330
5
100
AcDbSymbolTableRecord
100
AcDbLinetypeTableRecord
  2
PHANTOM
 70
     0
  3
Phantom
 72
    65
 73
     6
 40
13.0
 49
10.0
 74
     0
 49
-1.0
 74
     0
 49
0.0
 74
     0
 49
-1.0
 74
     0
 49
0.0
 74
     0
 49
-1.0
 74
     0
  0
LTYPE
  5
45
330
5
100
AcDbSymbolTableRecord
100
AcDbLinetypeTableRecord
  2
CENTER_DASH_DASH
 70
     0
  3
Center_Dash_Dash
 72
    65
 73
     6
 40
14.0
 49
9.0
 74
     0
 49
-1.0
 74
     0
 49
1.0
 74
     0
 49
-1.0
 74
     0
 49
1.0
 74
     0
 49
-1.0
 74
     0
  0
ENDTAB
  0
TABLE
  2
LAYER
  5
2
330
0
100
AcDbSymbolTable
 70
     3
  0
LAYER
  5
10
330
2
100
AcDbSymbolTableRecord
100
AcDbLayerTableRecord
  2
0
 70
     0
 62
     7
  6
Continuous
370
    -3
390
F
  0
LAYER
  5
46
330
2
100
AcDbSymbolTableRecord
100
AcDbLayerTableRecord
  2
1
 70
     0
 62
     7
  6
Continuous
370
    -3
390
F
  0
LAYER
  5
47
330
2
100
AcDbSymbolTableRecord
100
AcDbLayerTableRecord
  2
_U_30EC_U_30A4_U_30E4_U_30FC_1
 70
     0
 62
     7
  6
Continuous
370
    -3
390
F
  0
ENDTAB
  0
TABLE
  2
STYLE
  5
3
330
0
100
AcDbSymbolTable
 70
     3
  0
STYLE
  5
11
330
3
100
AcDbSymbolTableRecord
100
AcDbTextStyleTableRecord
  2
Standard
 70
     0
 40
0.0
 41
1.0
 50
0.0
 71
     0
 42
0.2
  3
txt
  4

  0
STYLE
  5
B2
330
3
100
AcDbSymbolTableRecord
100
AcDbTextStyleTableRecord
  2
CONVERTER_11
 70
     0
 40
0.0
 41
0.89
 50
0.0
 71
     0
 42
0.2
  3
MS Mincho.ttf
  4

1001
ACAD
1000
MS Mincho
1071
    32785
  0
STYLE
  5
F7
330
3
100
AcDbSymbolTableRecord
100
AcDbTextStyleTableRecord
  2
CONVERTER_12
 70
     0
 40
0.0
 41
0.9
 50
0.0
 71
     0
 42
0.2
  3
txt.shx
  4

  0
ENDTAB
  0
TABLE
  2
VIEW
  5
6
330
0
100
AcDbSymbolTable
 70
     0
  0
ENDTAB
  0
TABLE
  2
UCS
  5
7
330
0
100
AcDbSymbolTable
 70
     0
  0
ENDTAB
  0
TABLE
  2
APPID
  5
9
330
0
100
AcDbSymbolTable
 70
     1
  0
APPID
  5
12
330
9
100
AcDbSymbolTableRecord
100
AcDbRegAppTableRecord
  2
ACAD
 70
     0
  0
ENDTAB
  0
TABLE
  2
DIMSTYLE
  5
A
330
0
100
AcDbSymbolTable
 70
     4
100
AcDbDimStyleTable
  0
DIMSTYLE
105
27
330
A
100
AcDbSymbolTableRecord
100
AcDbDimStyleTableRecord
  2
Standard
 70
     0
178
     0
340
11
  0
DIMSTYLE
105
10F
102
{ACAD_REACTORS
330
110
102
}
330
A
100
AcDbSymbolTableRecord
100
AcDbDimStyleTableRecord
  2
ME10_DIM_10
 70
     0
 41
3.5
 42
0.0
 44
1.0
 73
     0
 74
     0
 77
     1
 78
     8
140
3.5
147
1.0
172
     1
173
     1
174
     1
175
     1
176
     2
177
     2
271
     2
178
     7
271
     2
340
F7
  0
DIMSTYLE
105
11A
102
{ACAD_REACTORS
330
11B
102
}
330
A
100
AcDbSymbolTableRecord
100
AcDbDimStyleTableRecord
  2
ME10_DIM_11
 70
     0
  3
{\Fgdt;n}<>
 41
3.5
 42
0.0
 44
1.0
 73
     0
 74
     0
 77
     1
 78
     8
140
3.5
147
1.0
172
     1
173
     1
174
     1
175
     1
176
     2
177
     2
271
     2
178
     7
271
     2
340
F7
  0
DIMSTYLE
105
125
102
{ACAD_REACTORS
330
126
102
}
330
A
100
AcDbSymbolTableRecord
100
AcDbDimStyleTableRecord
  2
ME10_DIM_12
 70
     0
  3
{\Fgdt;n}<>
 41
3.5
 42
0.0
 44
1.0
 73
     0
 74
     0
 77
     1
 78
     8
140
3.5
147
1.0
172
     1
173
     1
174
     1
175
     1
176
     2
177
     2
271
     2
178
     7
271
     2
340
F7
  0
ENDTAB
  0
TABLE
  2
BLOCK_RECORD
  5
1
330
0
100
AcDbSymbolTable
 70
     7
  0
BLOCK_RECORD
  5
1F
330
1
100
AcDbSymbolTableRecord
100
AcDbBlockTableRecord
  2
*Model_Space
340
22
  0
BLOCK_RECORD
  5
1B
330
1
100
AcDbSymbolTableRecord
100
AcDbBlockTableRecord
  2
*Paper_Space
340
1E
  0
BLOCK_RECORD
  5
23
330
1
100
AcDbSymbolTableRecord
100
AcDbBlockTableRecord
  2
*Paper_Space0
340
26
  0
BLOCK_RECORD
  5
48
330
1
100
AcDbSymbolTableRecord
100
AcDbBlockTableRecord
  2
開示A4
340
0
102
{BLKREFS
331
4C
102
}
  0
BLOCK_RECORD
  5
4B
330
1
100
AcDbSymbolTableRecord
100
AcDbBlockTableRecord
  2
開示A4枠
340
0
102
{BLKREFS
331
4F
102
}
  0
BLOCK_RECORD
  5
104
330
1
100
AcDbSymbolTableRecord
100
AcDbBlockTableRecord
  2
*D3
340
0
  0
BLOCK_RECORD
  5
111
330
1
100
AcDbSymbolTableRecord
100
AcDbBlockTableRecord
  2
*D4
340
0
  0
BLOCK_RECORD
  5
11C
330
1
100
AcDbSymbolTableRecord
100
AcDbBlockTableRecord
  2
*D5
340
0
  0
BLOCK_RECORD
  5
127
330
1
100
AcDbSymbolTableRecord
100
AcDbBlockTableRecord
  2
*D6
340
0
102
{BLKREFS
331
12E
102
}
  0
ENDTAB
  0
ENDSEC
  0
SECTION
  2
BLOCKS
  0
BLOCK
  5
20
330
1F
100
AcDbEntity
  8
0
100
AcDbBlockBegin
  2
*Model_Space
 70
     0
 10
0.0
 20
0.0
 30
0.0
  3
*Model_Space
  1

  0
ENDBLK
  5
21
330
1F
100
AcDbEntity
  8
0
100
AcDbBlockEnd
  0
BLOCK
  5
1C
330
1B
100
AcDbEntity
 67
     1
  8
0
100
AcDbBlockBegin
  2
*Paper_Space
 70
     0
 10
0.0
 20
0.0
 30
0.0
  3
*Paper_Space
  1

  0
ENDBLK
  5
1D
330
1B
100
AcDbEntity
 67
     1
  8
0
100
AcDbBlockEnd
  0
BLOCK
  5
24
330
23
100
AcDbEntity
  8
0
100
AcDbBlockBegin
  2
*Paper_Space0
 70
     0
 10
0.0
 20
0.0
 30
0.0
  3
*Paper_Space0
  1

  0
ENDBLK
  5
25
330
23
100
AcDbEntity
  8
0
100
AcDbBlockEnd
  0
BLOCK
  5
49
330
48
100
AcDbEntity
  8
0
100
AcDbBlockBegin
  2
開示A4
 70
     0
 10
0.0
 20
0.0
 30
0.0
  3
開示A4
  1

  0
POINT
  5
50
330
48
100
AcDbEntity
  8
1
 62
     4
100
AcDbPoint
 10
34.0
 20
34.0
 30
0.0
  0
POINT
  5
51
330
48
100
AcDbEntity
  8
1
 62
     4
100
AcDbPoint
 10
57.0
 20
12.25
 30
0.0
  0
POINT
  5
52
330
48
100
AcDbEntity
  8
1
 62
     4
100
AcDbPoint
 10
57.0
 20
20.75
 30
0.0
  0
POINT
  5
53
330
48
100
AcDbEntity
  8
1
 62
     4
100
AcDbPoint
 10
57.0
 20
24.75
 30
0.0
  0
POINT
  5
54
330
48
100
AcDbEntity
  8
1
 62
     4
100
AcDbPoint
 10
57.0
 20
16.25
 30
0.0
  0
POINT
  5
55
330
48
100
AcDbEntity
  8
1
 62
     4
100
AcDbPoint
 10
157.5
 20
19.0
 30
0.0
  0
POINT
  5
56
330
48
100
AcDbEntity
  8
1
 62
     4
100
AcDbPoint
 10
47.5
 20
282.0
 30
0.0
  0
POINT
  5
57
330
48
100
AcDbEntity
  8
1
 62
     4
100
AcDbPoint
 10
57.0
 20
22.75
 30
0.0
  0
POINT
  5
58
330
48
100
AcDbEntity
  8
1
 62
     4
100
AcDbPoint
 10
57.0
 20
14.25
 30
0.0
  0
POINT
  5
59
330
48
100
AcDbEntity
  8
1
 62
     4
100
AcDbPoint
 10
157.5
 20
12.5
 30
0.0
  0
POINT
  5
5A
330
48
100
AcDbEntity
  8
1
 62
     4
100
AcDbPoint
 10
163.25
 20
12.5
 30
0.0
  0
POINT
  5
5B
330
48
100
AcDbEntity
  8
1
 62
     4
100
AcDbPoint
 10
151.75
 20
12.5
 30
0.0
  0
POINT
  5
5C
330
48
100
AcDbEntity
  8
1
 62
     4
100
AcDbPoint
 10
134.75
 20
12.5
 30
0.0
  0
POINT
  5
5D
330
48
100
AcDbEntity
  8
1
 62
     4
100
AcDbPoint
 10
146.25
 20
12.5
 30
0.0
  0
POINT
  5
5E
330
48
100
AcDbEntity
  8
1
 62
     4
100
AcDbPoint
 10
140.5
 20
12.5
 30
0.0
  0
POINT
  5
5F
330
48
100
AcDbEntity
  8
1
 62
     4
100
AcDbPoint
 10
140.5
 20
19.0
 30
0.0
  0
POINT
  5
60
330
48
100
AcDbEntity
  8
1
 62
     4
100
AcDbPoint
 10
117.75
 20
12.5
 30
0.0
  0
POINT
  5
61
330
48
100
AcDbEntity
  8
1
 62
     4
100
AcDbPoint
 10
129.25
 20
12.5
 30
0.0
  0
POINT
  5
62
330
48
100
AcDbEntity
  8
1
 62
     4
100
AcDbPoint
 10
123.5
 20
12.5
 30
0.0
  0
POINT
  5
63
330
48
100
AcDbEntity
  8
1
 62
     4
100
AcDbPoint
 10
123.5
 20
19.0
 30
0.0
  0
POINT
  5
64
330
48
100
AcDbEntity
  8
1
 62
     4
100
AcDbPoint
 10
100.75
 20
12.5
 30
0.0
  0
POINT
  5
65
330
48
100
AcDbEntity
  8
1
 62
     4
100
AcDbPoint
 10
112.25
 20
12.5
 30
0.0
  0
POINT
  5
66
330
48
100
AcDbEntity
  8
1
 62
     4
100
AcDbPoint
 10
106.5
 20
12.5
 30
0.0
  0
POINT
  5
67
330
48
100
AcDbEntity
  8
1
 62
     4
100
AcDbPoint
 10
106.5
 20
19.0
 30
0.0
  0
POINT
  5
68
330
48
100
AcDbEntity
  8
1
 62
     4
100
AcDbPoint
 10
85.25
 20
17.0
 30
0.0
  0
POINT
  5
69
330
48
100
AcDbEntity
  8
1
 62
     4
100
AcDbPoint
 10
93.75
 20
17.0
 30
0.0
  0
POINT
  5
6A
330
48
100
AcDbEntity
  8
1
 62
     4
100
AcDbPoint
 10
183.0
 20
15.0
 30
0.0
  0
LINE
  5
6B
330
48
100
AcDbEntity
  8
1
  6
Continuous
 62
     2
100
AcDbLine
 10
81.0
 20
27.0
 30
0.0
 11
81.0
 21
10.0
 31
0.0
  0
LINE
  5
6C
330
48
100
AcDbEntity
  8
1
  6
DOT_CENTER
 62
     2
100
AcDbLine
 10
187.0
 20
26.5
 30
0.0
 11
187.0
 21
20.5
 31
0.0
  0
LINE
  5
6D
330
48
100
AcDbEntity
  8
1
  6
DOT_CENTER
 62
     2
100
AcDbLine
 10
184.0
 20
23.5
 30
0.0
 11
197.0
 21
23.5
 31
0.0
  0
LINE
  5
6E
330
48
100
AcDbEntity
  8
1
  6
Continuous
 62
     7
100
AcDbLine
 10
196.0
 20
21.5
 30
0.0
 11
191.0
 21
22.29999999999927
 31
0.0
  0
LINE
  5
6F
330
48
100
AcDbEntity
  8
1
  6
Continuous
 62
     7
100
AcDbLine
 10
196.0
 20
25.5
 30
0.0
 11
196.0
 21
21.5
 31
0.0
  0
LINE
  5
70
330
48
100
AcDbEntity
  8
1
  6
Continuous
 62
     7
100
AcDbLine
 10
191.0
 20
24.69999999999891
 30
0.0
 11
196.0
 21
25.5
 31
0.0
  0
LINE
  5
71
330
48
100
AcDbEntity
  8
1
  6
Continuous
 62
     7
100
AcDbLine
 10
191.0
 20
24.69999999999891
 30
0.0
 11
191.0
 21
22.29999999999927
 31
0.0
  0
LINE
  5
72
330
48
100
AcDbEntity
  8
1
  6
Continuous
 62
     2
100
AcDbLine
 10
33.0
 20
27.0
 30
0.0
 11
33.0
 21
10.0
 31
0.0
  0
LINE
  5
73
330
48
100
AcDbEntity
  8
1
  6
Continuous
 62
     2
100
AcDbLine
 10
25.0
 20
18.5
 30
0.0
 11
81.0
 21
18.5
 31
0.0
  0
LINE
  5
74
330
48
100
AcDbEntity
  8
1
  6
Continuous
 62
     7
100
AcDbLine
 10
200.0
 20
287.0
 30
0.0
 11
105.0
 21
287.0
 31
0.0
  0
LINE
  5
75
330
48
100
AcDbEntity
  8
1
  6
Continuous
 62
     7
100
AcDbLine
 10
200.0
 20
10.0
 30
0.0
 11
200.0
 21
148.5
 31
0.0
  0
LINE
  5
76
330
48
100
AcDbEntity
  8
1
  6
Continuous
 62
     7
100
AcDbLine
 10
25.0
 20
10.0
 30
0.0
 11
105.0
 21
10.0
 31
0.0
  0
LINE
  5
77
330
48
100
AcDbEntity
  8
1
  6
PHANTOM
 62
     4
100
AcDbLine
 10
0.0
 20
297.0
 30
0.0
 11
0.0
 21
0.0
 31
0.0
  0
LINE
  5
78
330
48
100
AcDbEntity
  8
1
  6
PHANTOM
 62
     4
100
AcDbLine
 10
210.0
 20
297.0
 30
0.0
 11
0.0
 21
297.0
 31
0.0
  0
LINE
  5
79
330
48
100
AcDbEntity
  8
1
  6
PHANTOM
 62
     4
100
AcDbLine
 10
210.0
 20
0.0
 30
0.0
 11
210.0
 21
297.0
 31
0.0
  0
LINE
  5
7A
330
48
100
AcDbEntity
  8
1
  6
PHANTOM
 62
     4
100
AcDbLine
 10
0.0
 20
0.0
 30
0.0
 11
210.0
 21
0.0
 31
0.0
  0
LINE
  5
7B
330
48
100
AcDbEntity
  8
1
  6
Continuous
 62
     7
100
AcDbLine
 10
25.0
 20
41.0
 30
0.0
 11
200.0
 21
41.0
 31
0.0
  0
LINE
  5
7C
330
48
100
AcDbEntity
  8
1
  6
Continuous
 62
     7
100
AcDbLine
 10
200.0
 20
27.0
 30
0.0
 11
25.0
 21
27.0
 31
0.0
  0
LINE
  5
7D
330
48
100
AcDbEntity
  8
1
  6
Continuous
 62
     2
100
AcDbLine
 10
33.0
 20
41.0
 30
0.0
 11
33.0
 21
27.0
 31
0.0
  0
LINE
  5
7E
330
48
100
AcDbEntity
  8
1
  6
Continuous
 62
     2
100
AcDbLine
 10
55.0
 20
287.0
 30
0.0
 11
55.0
 21
277.0
 31
0.0
  0
LINE
  5
7F
330
48
100
AcDbEntity
  8
1
  6
Continuous
 62
     2
100
AcDbLine
 10
40.0
 20
287.0
 30
0.0
 11
40.0
 21
277.0
 31
0.0
  0
LINE
  5
80
330
48
100
AcDbEntity
  8
1
  6
Continuous
 62
     7
100
AcDbLine
 10
25.0
 20
10.0
 30
0.0
 11
25.0
 21
148.5
 31
0.0
  0
LINE
  5
81
330
48
100
AcDbEntity
  8
1
  6
Continuous
 62
     2
100
AcDbLine
 10
55.0
 20
277.0
 30
0.0
 11
25.0
 21
277.0
 31
0.0
  0
LINE
  5
82
330
48
100
AcDbEntity
  8
1
  6
Continuous
 62
     2
100
AcDbLine
 10
166.0
 20
27.0
 30
0.0
 11
166.0
 21
10.0
 31
0.0
  0
LINE
  5
83
330
48
100
AcDbEntity
  8
1
  6
Continuous
 62
     2
100
AcDbLine
 10
132.0
 20
27.0
 30
0.0
 11
132.0
 21
10.0
 31
0.0
  0
LINE
  5
84
330
48
100
AcDbEntity
  8
1
  6
Continuous
 62
     2
100
AcDbLine
 10
149.0
 20
27.0
 30
0.0
 11
149.0
 21
10.0
 31
0.0
  0
LINE
  5
85
330
48
100
AcDbEntity
  8
1
  6
Continuous
 62
     2
100
AcDbLine
 10
115.0
 20
27.0
 30
0.0
 11
115.0
 21
10.0
 31
0.0
  0
LINE
  5
86
330
48
100
AcDbEntity
  8
1
  6
Continuous
 62
     2
100
AcDbLine
 10
98.0
 20
27.0
 30
0.0
 11
98.0
 21
10.0
 31
0.0
  0
LINE
  5
87
330
48
100
AcDbEntity
  8
1
  6
Continuous
 62
     2
100
AcDbLine
 10
166.0
 20
20.0
 30
0.0
 11
200.0
 21
20.0
 31
0.0
  0
LINE
  5
88
330
48
100
AcDbEntity
  8
1
  6
Continuous
 62
     2
100
AcDbLine
 10
105.0
 20
287.0
 30
0.0
 11
105.0
 21
292.0
 31
0.0
  0
LINE
  5
89
330
48
100
AcDbEntity
  8
1
  6
Continuous
 62
     7
100
AcDbLine
 10
105.0
 20
287.0
 30
0.0
 11
25.0
 21
287.0
 31
0.0
  0
LINE
  5
8A
330
48
100
AcDbEntity
  8
1
  6
Continuous
 62
     2
100
AcDbLine
 10
25.0
 20
148.5
 30
0.0
 11
20.0
 21
148.5
 31
0.0
  0
LINE
  5
8B
330
48
100
AcDbEntity
  8
1
  6
Continuous
 62
     7
100
AcDbLine
 10
25.0
 20
148.5
 30
0.0
 11
25.0
 21
287.0
 31
0.0
  0
LINE
  5
8C
330
48
100
AcDbEntity
  8
1
  6
Continuous
 62
     2
100
AcDbLine
 10
200.0
 20
148.5
 30
0.0
 11
205.0
 21
148.5
 31
0.0
  0
LINE
  5
8D
330
48
100
AcDbEntity
  8
1
  6
Continuous
 62
     7
100
AcDbLine
 10
200.0
 20
148.5
 30
0.0
 11
200.0
 21
287.0
 31
0.0
  0
LINE
  5
8E
330
48
100
AcDbEntity
  8
1
  6
Continuous
 62
     2
100
AcDbLine
 10
105.0
 20
10.0
 30
0.0
 11
105.0
 21
5.0
 31
0.0
  0
LINE
  5
8F
330
48
100
AcDbEntity
  8
1
  6
Continuous
 62
     7
100
AcDbLine
 10
105.0
 20
10.0
 30
0.0
 11
200.0
 21
10.0
 31
0.0
  0
CIRCLE
  5
94
330
48
100
AcDbEntity
  8
1
  6
DOT_CENTER
 62
     7
100
AcDbCircle
 10
89.5
 20
18.0
 30
0.0
 40
0.1000000000021828
  0
CIRCLE
  5
95
330
48
100
AcDbEntity
  8
1
  6
DOT_CENTER
 62
     7
100
AcDbCircle
 10
89.5
 20
16.0
 30
0.0
 40
0.1000000000021828
  0
CIRCLE
  5
96
330
48
100
AcDbEntity
  8
1
  6
Continuous
 62
     7
100
AcDbCircle
 10
187.0
 20
23.5
 30
0.0
 40
2.0
  0
CIRCLE
  5
97
330
48
100
AcDbEntity
  8
1
  6
Continuous
 62
     7
100
AcDbCircle
 10
187.0
 20
23.5
 30
0.0
 40
1.200000000000699
  0
CIRCLE
  5
98
330
48
100
AcDbEntity
  8
1
  6
Continuous
 62
     7
100
AcDbCircle
 10
154.5
 20
12.5
 30
0.0
 40
0.3000000000029104
  0
CIRCLE
  5
99
330
48
100
AcDbEntity
  8
1
  6
Continuous
 62
     7
100
AcDbCircle
 10
160.5
 20
12.5
 30
0.0
 40
0.3000000000029104
  0
CIRCLE
  5
9A
330
48
100
AcDbEntity
  8
1
  6
Continuous
 62
     7
100
AcDbCircle
 10
143.5
 20
12.5
 30
0.0
 40
0.3000000000029104
  0
CIRCLE
  5
9B
330
48
100
AcDbEntity
  8
1
  6
Continuous
 62
     7
100
AcDbCircle
 10
137.5
 20
12.5
 30
0.0
 40
0.3000000000029104
  0
CIRCLE
  5
9C
330
48
100
AcDbEntity
  8
1
  6
Continuous
 62
     7
100
AcDbCircle
 10
126.5
 20
12.5
 30
0.0
 40
0.3000000000028962
  0
CIRCLE
  5
9D
330
48
100
AcDbEntity
  8
1
  6
Continuous
 62
     7
100
AcDbCircle
 10
120.5
 20
12.5
 30
0.0
 40
0.3000000000028962
  0
CIRCLE
  5
9E
330
48
100
AcDbEntity
  8
1
  6
Continuous
 62
     7
100
AcDbCircle
 10
109.5
 20
12.5
 30
0.0
 40
0.3000000000028962
  0
CIRCLE
  5
9F
330
48
100
AcDbEntity
  8
1
  6
Continuous
 62
     7
100
AcDbCircle
 10
103.5
 20
12.5
 30
0.0
 40
0.3000000000028962
  0
SPLINE
  5
A0
102
{ACAD_REACTORS
330
BE
102
}
330
48
100
AcDbEntity
  8
_U_30EC_U_30A4_U_30E4_U_30FC_1
  6
Continuous
 62
     2
100
AcDbSpline
210
0.0
220
0.0
230
1.0
 70
    11
 71
     3
 72
    99
 73
    95
 74
    93
 42
0.000000001
 43
0.0000000001
 44
0.00000001
 40
0.0
 40
0.0
 40
0.0
 40
0.0
 40
0.0796417172295184
 40
0.1621768542384013
 40
0.2486489160998752
 40
0.3404969668521158
 40
0.4381912511189666
 40
0.5434463660223074
 40
0.6518115192828469
 40
0.7530190937905891
 40
0.8492196919717863
 40
0.9419290312993577
 40
1.034249663569974
 40
1.129078600624992
 40
1.22669702757162
 40
1.327220425418765
 40
1.470572134939769
 40
1.595489863377197
 40
1.719934125349757
 40
1.850576620130352
 40
1.989059629987305
 40
2.134139054225292
 40
2.28069800721009
 40
2.424529739040929
 40
2.565929576990523
 40
2.708239260779597
 40
2.861717887447908
 40
3.04516854034597
 40
3.183798301139798
 40
3.314813961455226
 40
3.442083470450687
 40
3.569912708374648
 40
3.702177512512042
 40
3.842307559664204
 40
3.992872223248694
 40
4.15675066221727
 40
4.310981861111427
 40
4.445859909326114
 40
4.572393936134135
 40
4.70165671978511
 40
4.768279086008564
 40
4.835960697897431
 40
4.912788918728746
 40
5.006285208486513
 40
5.026909478759148
 40
5.047533749031242
 40
5.101808031482104
 40
5.162325165550679
 40
5.226919746009619
 40
5.294231806612828
 40
5.364544852565524
 40
5.438319055484027
 40
5.517877651338178
 40
5.607647714877935
 40
5.700449642556199
 40
5.788251142377557
 40
5.872714706054407
 40
5.955167292589259
 40
6.037192395201769
 40
6.12066918147944
 40
6.206848616699133
 40
6.296680855433744
 40
6.442558392886866
 40
6.568190371620203
 40
6.692904567373359
 40
6.824220446569297
 40
6.963121850340089
 40
7.107843738859179
 40
7.253431663920187
 40
7.395187468049791
 40
7.533140753249688
 40
7.67055045718819
 40
7.81623651178064
 40
7.987691657370983
 40
8.14227742198025
 40
8.293662615429556
 40
8.442962460892678
 40
8.591598316200752
 40
8.743678992376315
 40
8.903725323716822
 40
9.076307008905824
 40
9.265578604696223
 40
9.459203795372831
 40
9.617619810286312
 40
9.7536096713781
 40
9.874873300022337
 40
9.954520184994225
 40
10.02416413721221
 40
10.09769764407135
 40
10.18909955926753
 40
10.20974586422029
 40
10.23039218265388
 40
10.30057101882958
 40
10.37632012989314
 40
10.37632012989314
 40
10.37632012989314
 40
10.37632012989314
 10
170.1465954835803
 20
14.13795663215933
 30
0.0
 10
170.1632217851195
 20
14.11720608845376
 30
0.0
 10
170.19707842066
 20
14.07495111712267
 30
0.0
 10
170.2599822540982
 20
14.02029811391339
 30
0.0
 10
170.3332500940417
 20
13.97299025121586
 30
0.0
 10
170.4175969238631
 20
13.93527231438065
 30
0.0
 10
170.5132240615446
 20
13.91040619732286
 30
0.0
 10
170.6171853775324
 20
13.90309559346603
 30
0.0
 10
170.7224020220386
 20
13.91142322794176
 30
0.0
 10
170.8206626371318
 20
13.94149179651868
 30
0.0
 10
170.9058986427534
 20
13.98848822972108
 30
0.0
 10
170.977922020615
 20
14.04952991250354
 30
0.0
 10
171.0350917709101
 20
14.12412969578693
 30
0.0
 10
171.0767868747444
 20
14.21002464660194
 30
0.0
 10
171.1026952846287
 20
14.30485850432161
 30
0.0
 10
171.1118037332644
 20
14.41854979038247
 30
0.0
 10
171.0986864796448
 20
14.54332587770767
 30
0.0
 10
171.0325330334435
 20
14.66014719172483
 30
0.0
 10
170.9369370919512
 20
14.74512539577197
 30
0.0
 10
170.8249681022391
 20
14.81416684459747
 30
0.0
 10
170.6993659583284
 20
14.87204142046234
 30
0.0
 10
170.5656691620844
 20
14.9237372328401
 30
0.0
 10
170.4313122818858
 20
14.97899092397765
 30
0.0
 10
170.3051983986807
 20
15.04939770641006
 30
0.0
 10
170.1926579987532
 20
15.13785540731671
 30
0.0
 10
170.0969963064396
 20
15.24981067868461
 30
0.0
 10
170.0334157151827
 20
15.39949910101482
 30
0.0
 10
170.0200706504976
 20
15.55932794384962
 30
0.0
 10
170.032051098745
 20
15.71048405306547
 30
0.0
 10
170.0712298928888
 20
15.83809244591225
 30
0.0
 10
170.1354987750909
 20
15.9508087403072
 30
0.0
 10
170.2238204999684
 20
16.04648609269363
 30
0.0
 10
170.3338091207641
 20
16.12354214985463
 30
0.0
 10
170.4632284401229
 20
16.18151396937156
 30
0.0
 10
170.6111838967785
 20
16.21739177588288
 30
0.0
 10
170.7682069455466
 20
16.22746719050515
 30
0.0
 10
170.9174940466406
 20
16.21863637762142
 30
0.0
 10
171.0596253614185
 20
16.19074899340996
 30
0.0
 10
171.1595922609618
 20
16.13413314701251
 30
0.0
 10
171.312507473617
 20
16.08674602105591
 30
0.0
 10
171.2455131717157
 20
16.00197553001461
 30
0.0
 10
171.2296479120336
 20
15.93438901873615
 30
0.0
 10
171.1978750531292
 20
15.86926092793357
 30
0.0
 10
171.2150202209625
 20
15.76723453256529
 30
0.0
 10
171.1666427208244
 20
15.77493211681598
 30
0.0
 10
171.1315789440751
 20
15.76806771724397
 30
0.0
 10
171.1296697985728
 20
15.83263831158063
 30
0.0
 10
171.0985692931974
 20
15.87825639621302
 30
0.0
 10
171.0664551628429
 20
15.93561036628444
 30
0.0
 10
171.0208038475188
 20
15.98540462692938
 30
0.0
 10
170.9658508218369
 20
16.02994813719028
 30
0.0
 10
170.901084117302
 20
16.06763988836961
 30
0.0
 10
170.8232377310571
 20
16.09283375791307
 30
0.0
 10
170.7355160553341
 20
16.09931230997948
 30
0.0
 10
170.6452903277806
 20
16.09235709285103
 30
0.0
 10
170.5594594694038
 20
16.06909190461571
 30
0.0
 10
170.4828343638583
 20
16.03131644107536
 30
0.0
 10
170.4165265636231
 20
15.98051641089259
 30
0.0
 10
170.3622560536958
 20
15.91731143407389
 30
0.0
 10
170.3224925345473
 20
15.84276455710462
 30
0.0
 10
170.2976775510572
 20
15.75917313997749
 30
0.0
 10
170.2892124262903
 20
15.6519294838208
 30
0.0
 10
170.3019697987112
 20
15.52965457267406
 30
0.0
 10
170.3681548409273
 20
15.41149724291159
 30
0.0
 10
170.4640977399819
 20
15.32606325709381
 30
0.0
 10
170.5757914963204
 20
15.25583362307218
 30
0.0
 10
170.7010863668674
 20
15.19659162305225
 30
0.0
 10
170.8349823941422
 20
15.14616708085956
 30
0.0
 10
170.9689930333139
 20
15.0932251698445
 30
0.0
 10
171.0950885316959
 20
15.02750170625968
 30
0.0
 10
171.2076216638426
 20
14.9448035253743
 30
0.0
 10
171.3031370284135
 20
14.83996006309515
 30
0.0
 10
171.3672706487006
 20
14.69937117251781
 30
0.0
 10
171.3811103725319
 20
14.54065409451643
 30
0.0
 10
171.3673954712228
 20
14.38153155217957
 30
0.0
 10
171.3244739154021
 20
14.2348382881904
 30
0.0
 10
171.2545906329
 20
14.10119796587409
 30
0.0
 10
171.1574592213857
 20
13.98532387698791
 30
0.0
 10
171.0347806023609
 20
13.89089981770257
 30
0.0
 10
170.8874408413149
 20
13.82179270651658
 30
0.0
 10
170.717713249709
 20
13.77953210858874
 30
0.0
 10
170.5317404979584
 20
13.76781736230202
 30
0.0
 10
170.3528955926182
 20
13.77809486683528
 30
0.0
 10
170.1881733753726
 20
13.81966573768818
 30
0.0
 10
170.0834410841044
 20
13.88797642884034
 30
0.0
 10
169.9350960790321
 20
13.93675219032202
 30
0.0
 10
169.9980378194699
 20
14.0297659129097
 30
0.0
 10
170.0072274430063
 20
14.10296536248286
 30
0.0
 10
170.0303711301194
 20
14.16936294501502
 30
0.0
 10
170.0034588335309
 20
14.26974809527658
 30
0.0
 10
170.0521338956342
 20
14.26234033517403
 30
0.0
 10
170.09165305807
 20
14.26894063620966
 30
0.0
 10
170.0996204944691
 20
14.19078703219058
 30
0.0
 10
170.1305436967884
 20
14.15600927375891
 30
0.0
 10
170.1465954835803
 20
14.13795663215933
 30
0.0
 11
170.1465954835803
 21
14.13795663215933
 31
0.0
 11
170.1982038075867
 21
14.07729869814807
 31
0.0
 11
170.2601105501308
 21
14.02271295162973
 31
0.0
 11
170.3327764009823
 21
13.97583980928539
 31
0.0
 11
170.4166468655822
 21
13.93839906276844
 31
0.0
 11
170.5112210732418
 21
13.9139063631219
 31
0.0
 11
170.6161603327128
 21
13.90575829888985
 31
0.0
 11
170.724073949752
 21
13.91564048638452
 31
0.0
 11
170.820841994162
 21
13.94528704887853
 31
0.0
 11
170.9050776083309
 21
13.99175118948892
 31
0.0
 11
170.9756144207713
 21
14.05191413217835
 31
0.0
 11
171.0319442109985
 21
14.12505819466218
 31
0.0
 11
171.073669001602
 21
14.21021434047907
 31
0.0
 11
171.0994680808026
 21
14.30436190989394
 31
0.0
 11
171.1080824729434
 21
14.40451552097875
 31
0.0
 11
171.0878517703332
 21
14.54643250879508
 31
0.0
 11
171.027252266671
 21
14.65566684037003
 31
0.0
 11
170.9364971286268
 21
14.74081306430071
 31
0.0
 11
170.8260101884735
 21
14.81052746532987
 31
0.0
 11
170.7008523531272
 21
14.86979854170181
 31
0.0
 11
170.5662951951017
 21
14.92404253473978
 31
0.0
 11
170.4316884276996
 21
14.98201274306302
 31
0.0
 11
170.3065802017227
 21
15.0529739930389
 31
0.0
 11
170.1960276098253
 21
15.14113315968916
 31
0.0
 11
170.1053381235215
 21
15.2508029513283
 31
0.0
 11
170.0447055469463
 21
15.39179720476455
 31
0.0
 11
170.0245079172528
 21
15.57413260401881
 31
0.0
 11
170.0374030471353
 21
15.7121613192644
 31
0.0
 11
170.0761016659417
 21
15.83733128450876
 31
0.0
 11
170.1393141731514
 21
15.94779262129191
 31
0.0
 11
170.2257499954503
 21
16.04196885390957
 31
0.0
 11
170.3336492808953
 21
16.11846540770694
 31
0.0
 11
170.461352628332
 21
16.1761567010999
 31
0.0
 11
170.6075393259912
 21
16.21220066809792
 31
0.0
 11
170.7709768565401
 21
16.2242138538586
 31
0.0
 11
170.924891843129
 21
16.21434269066663
 31
0.0
 11
171.0564887242617
 21
16.18477329831876
 31
0.0
 11
171.1725636344932
 21
16.13439993895463
 31
0.0
 11
171.2800792741109
 21
16.06264163167907
 31
0.0
 11
171.2516994050447
 21
16.00236624107174
 31
0.0
 11
171.2284855254329
 21
15.93879017337895
 31
0.0
 11
171.2078381040824
 21
15.86478841992539
 31
0.0
 11
171.1871840681524
 21
15.77360197896996
 31
0.0
 11
171.1665597978426
 21
15.77360197896996
 31
0.0
 11
171.1459355275329
 21
15.77360197896996
 31
0.0
 11
171.1256706495792
 21
15.82395108486162
 31
0.0
 11
171.099465875941
 21
15.87850045116829
 31
0.0
 11
171.0650468924433
 21
15.93316116296159
 31
0.0
 11
171.0203554612926
 21
15.98349593725834
 31
0.0
 11
170.9657333359532
 21
16.02777175321489
 31
0.0
 11
170.9016722004308
 21
16.0643614233486
 31
0.0
 11
170.8259682961134
 21
16.08882545979736
 31
0.0
 11
170.7365722046416
 21
16.09701100666825
 31
0.0
 11
170.644093717422
 21
16.08926973930897
 31
0.0
 11
170.5594072091626
 21
16.06609003445919
 31
0.0
 11
170.4837024488825
 21
16.02863495634006
 31
0.0
 11
170.4183754766527
 21
15.97832774280869
 31
0.0
 11
170.3650487887671
 21
15.9160029338002
 31
0.0
 11
170.3254809233913
 21
15.84249947895842
 31
0.0
 11
170.3009523754708
 21
15.75988443557412
 31
0.0
 11
170.2927954104125
 21
15.67042329843935
 31
0.0
 11
170.3130095765628
 21
15.52595308146419
 31
0.0
 11
170.3736256166812
 21
15.41591177072951
 31
0.0
 11
170.4643479320757
 21
15.33033670130567
 31
0.0
 11
170.5748676948824
 21
15.25941954854898
 31
0.0
 11
170.7000089937701
 21
15.19914305550583
 31
0.0
 11
170.8345826882505
 21
15.14590447912997
 31
0.0
 11
170.9691729191977
 21
15.09039489581164
 31
0.0
 11
171.0942976816332
 21
15.02377281249937
 31
0.0
 11
171.2048009079763
 21
14.94118863716903
 31
0.0
 11
171.2955397598234
 21
14.83800003475881
 31
0.0
 11
171.3561557999501
 21
14.70552315979671
 31
0.0
 11
171.3763699661031
 21
14.53526378483912
 31
0.0
 11
171.3621839748012
 21
14.3813303039758
 31
0.0
 11
171.3196087009201
 21
14.23605531268913
 31
0.0
 11
171.2499752884237
 21
14.10398854189203
 31
0.0
 11
171.1544992078707
 21
13.99007218774932
 31
0.0
 11
171.0341060772602
 21
13.8971527259705
 31
0.0
 11
170.8896160201803
 21
13.8283235766794
 31
0.0
 11
170.722351953269
 21
13.78581275203897
 31
0.0
 11
170.53361033482
 21
13.77165864613926
 31
0.0
 11
170.3405031726397
 21
13.78581275203896
 31
0.0
 11
170.1878975900909
 21
13.8283235766794
 31
0.0
 11
170.0661897942177
 21
13.88899033013945
 31
0.0
 11
169.9660261826321
 21
13.95734322942917
 31
0.0
 11
169.9922320587007
 21
14.03255545163029
 31
0.0
 11
170.0090121537614
 21
14.10014767383836
 31
0.0
 11
170.020619644783
 21
14.17275926235925
 31
0.0
 11
170.0313606254131
 21
14.26352788212898
 31
0.0
 11
170.0520069443319
 21
14.26352788212898
 31
0.0
 11
170.0726532632507
 21
14.26352788212898
 31
0.0
 11
170.104891639161
 21
14.20119204881302
 31
0.0
 11
170.1465954835803
 21
14.13795663215933
 31
0.0
  0
SPLINE
  5
A1
102
{ACAD_REACTORS
330
BF
102
}
330
48
100
AcDbEntity
  8
_U_30EC_U_30A4_U_30E4_U_30FC_1
  6
Continuous
 62
     2
100
AcDbSpline
210
0.0
220
0.0
230
1.0
 70
    11
 71
     3
 72
    57
 73
    53
 74
    51
 42
0.000000001
 43
0.0000000001
 44
0.00000001
 40
0.0
 40
0.0
 40
0.0
 40
0.0
 40
0.0471632082802785
 40
0.0914861054631182
 40
0.1357762519722165
 40
0.1826527001631881
 40
0.229520328855201
 40
0.2737751972189664
 40
0.3181310461528243
 40
0.365260719842639
 40
0.4571007286335644
 40
0.5671851029193516
 40
0.68946232838688
 40
0.8181758272572527
 40
0.9510087229264409
 40
1.085852229680758
 40
1.218126164481231
 40
1.343545131144313
 40
1.454537202960838
 40
1.567187607527304
 40
1.680710966639826
 40
1.794226869734555
 40
1.900009184250977
 40
2.004085860448834
 40
2.108162674450952
 40
2.214000150155724
 40
2.496038577351757
 40
2.762350745475589
 40
2.997275353279213
 40
3.185110082138834
 40
3.246407890062862
 40
3.312607550213919
 40
3.378877742711965
 40
3.440140399651263
 40
4.10050169600774
 40
4.754913085563466
 40
5.411331693425037
 40
6.077890432566778
 40
6.110575292671672
 40
6.143260152779038
 40
6.367989363393799
 40
6.610525374947314
 40
6.863389136464773
 40
7.119380025549384
 40
7.376036605093229
 40
7.63116477096272
 40
7.876722425458818
 40
8.104953735856872
 40
8.312916685924186
 40
8.497730294934781
 40
8.651018984313389
 40
8.764738853625092
 40
8.764738853625092
 40
8.764738853625092
 40
8.764738853625092
 10
174.7922649500506
 20
13.81626739612875
 30
0.0
 10
174.7766616726926
 20
13.81826231079005
 30
0.0
 10
174.7463947960297
 20
13.82213201360191
 30
0.0
 10
174.7010994202241
 20
13.82341984967325
 30
0.0
 10
174.6559553129328
 20
13.82308683554062
 30
0.0
 10
174.6099017123386
 20
13.82314658674252
 30
0.0
 10
174.5640496172099
 20
13.8232581365001
 30
0.0
 10
174.518371164818
 20
13.82277833456649
 30
0.0
 10
174.475081154161
 20
13.82461109618616
 30
0.0
 10
174.4039947951483
 20
13.8004955681455
 30
0.0
 10
174.4057477261422
 20
13.92184693977172
 30
0.0
 10
174.3586196370618
 20
14.00726239751381
 30
0.0
 10
174.3191478251734
 20
14.12486929344987
 30
0.0
 10
174.2706635532648
 20
14.24232752540279
 30
0.0
 10
174.2201017402538
 20
14.36405935761637
 30
0.0
 10
174.1718634610497
 20
14.49075967862744
 30
0.0
 10
174.1135232947565
 20
14.59933687785132
 30
0.0
 10
174.0980892667235
 20
14.75620657134434
 30
0.0
 10
173.9566586330635
 20
14.72373446548207
 30
0.0
 10
173.8508397414918
 20
14.73512888682455
 30
0.0
 10
173.7358569725256
 20
14.73392591514754
 30
0.0
 10
173.6253142252152
 20
14.73506945347327
 30
0.0
 10
173.5176583522783
 20
14.73418350037667
 30
0.0
 10
173.4121322529237
 20
14.7341660239078
 30
0.0
 10
173.3109192682018
 20
14.72714032472277
 30
0.0
 10
173.1266804827759
 20
14.75135859859876
 30
0.0
 10
173.1157393685423
 20
14.44741691121966
 30
0.0
 10
173.0087691634686
 20
14.22353177253776
 30
0.0
 10
172.9098148604385
 20
14.03895314292489
 30
0.0
 10
172.9225090523984
 20
13.79530204804269
 30
0.0
 10
172.8050091716378
 20
13.82508046753095
 30
0.0
 10
172.7422055868293
 20
13.82258089509696
 30
0.0
 10
172.6785872093381
 20
13.82344075102684
 30
0.0
 10
172.3946014194053
 20
13.78098039942107
 30
0.0
 10
173.0251638499434
 20
14.50081952444393
 30
0.0
 10
173.1087645288985
 20
15.01276539436122
 30
0.0
 10
173.4929252789322
 20
15.5335374354998
 30
0.0
 10
173.477720828856
 20
16.23519626253105
 30
0.0
 10
173.72392657227
 20
16.22345633081042
 30
0.0
 10
173.8256346157573
 20
16.23225004452642
 30
0.0
 10
173.8249752035792
 20
15.98059650730404
 30
0.0
 10
173.9428317155843
 20
15.79818020734341
 30
0.0
 10
174.0315515260469
 20
15.55563740663004
 30
0.0
 10
174.1322292485205
 20
15.3234003052988
 30
0.0
 10
174.231114271224
 20
15.0867464456692
 30
0.0
 10
174.3299676990613
 20
14.85461739169851
 30
0.0
 10
174.4256166390948
 20
14.63122222788926
 30
0.0
 10
174.5159904573294
 20
14.42272549049331
 30
0.0
 10
174.5989944568205
 20
14.23308448529629
 30
0.0
 10
174.6726088582752
 20
14.06663106068178
 30
0.0
 10
174.7342815895522
 20
13.92917699626259
 30
0.0
 10
174.7749458885594
 20
13.84999239430003
 30
0.0
 10
174.7922649500506
 20
13.81626739612875
 30
0.0
 11
174.7922649500506
 21
13.81626739612875
 31
0.0
 11
174.7453878317447
 21
13.82145433189112
 31
0.0
 11
174.7010975896119
 21
13.82315538223884
 31
0.0
 11
174.6568074431702
 21
13.82315538223884
 31
0.0
 11
174.6099309947131
 21
13.82315538223884
 31
0.0
 11
174.5630633657047
 21
13.82315538223884
 31
0.0
 11
174.5188084970432
 21
13.82315538223884
 31
0.0
 11
174.4744852776862
 21
13.82145433189112
 31
0.0
 11
174.4276419021408
 21
13.81626739612875
 31
0.0
 11
174.3992532136312
 21
13.90360966173194
 31
0.0
 11
174.3622721815918
 21
14.00729656274962
 31
0.0
 11
174.3188386236698
 21
14.12159987000882
 31
0.0
 11
174.271105586693
 21
14.24113531268995
 31
0.0
 11
174.2208160133264
 21
14.36408057307336
 31
0.0
 11
174.1696467003931
 21
14.48883822929929
 31
0.0
 11
174.1197531801299
 21
14.61134141503067
 31
0.0
 11
174.0733119111828
 21
14.72784517367836
 31
0.0
 11
173.9623611907555
 21
14.73087465284448
 31
0.0
 11
173.8497309225131
 21
14.73300454867967
 31
0.0
 11
173.7362152069482
 21
14.73432195319265
 31
0.0
 11
173.6227000476829
 21
14.73473315978845
 31
0.0
 11
173.5169185312788
 21
14.73432195319265
 31
0.0
 11
173.4128501919222
 21
14.73300454867967
 31
0.0
 11
173.308795172406
 21
14.73087465284448
 31
0.0
 11
173.2030010615599
 21
14.72784517367836
 31
0.0
 11
173.0980914750135
 21
14.46604437513384
 31
0.0
 11
173.0034868690309
 21
14.21710232658916
 31
0.0
 11
172.9252231210308
 21
13.9955975696953
 31
0.0
 11
172.8693431224529
 21
13.81626739612875
 31
0.0
 11
172.8082651639438
 21
13.82145433189112
 31
0.0
 11
172.7420873618103
 21
13.82315538223884
 31
0.0
 11
172.6758390041264
 21
13.82145433189112
 31
0.0
 11
172.6147963233925
 21
13.81626739612875
 31
0.0
 11
172.8899684951948
 21
14.4165650869511
 31
0.0
 11
173.1582945734117
 21
15.01343642360916
 31
0.0
 11
173.4240277350382
 21
15.61366245644513
 31
0.0
 11
173.6914740737011
 21
16.2242138538586
 31
0.0
 11
173.724158933981
 21
16.2242138538586
 31
0.0
 11
173.7568437942609
 21
16.2242138538586
 31
0.0
 11
173.8428300681044
 21
16.01658539037203
 31
0.0
 11
173.9357285813603
 21
15.79254614563979
 31
0.0
 11
174.0328714521443
 21
15.55908663180685
 31
0.0
 11
174.1317936457999
 21
15.32298128463845
 31
0.0
 11
174.2315341249914
 21
15.08649780379528
 31
0.0
 11
174.3313071129305
 21
14.85168781253924
 31
0.0
 11
174.4280608257468
 21
14.62599492196705
 31
0.0
 11
174.5188084970432
 21
14.41658052097955
 31
0.0
 11
174.6022150834556
 21
14.22607611130547
 31
0.0
 11
174.6770293263326
 21
14.05708232662983
 31
0.0
 11
174.7410729186586
 21
13.91781337700672
 31
0.0
 11
174.7922649500506
 21
13.81626739612875
 31
0.0
  0
SPLINE
  5
A2
102
{ACAD_REACTORS
330
BF
102
}
330
48
100
AcDbEntity
  8
_U_30EC_U_30A4_U_30E4_U_30FC_1
  6
Continuous
 62
     2
100
AcDbSpline
210
0.0
220
0.0
230
1.0
 70
    11
 71
     3
 72
    25
 73
    21
 74
    19
 42
0.000000001
 43
0.0000000001
 44
0.00000001
 40
0.0
 40
0.0
 40
0.0
 40
0.0
 40
0.0911479969082929
 40
0.1858117896242937
 40
0.280412839973156
 40
0.3715889190735938
 40
0.4679080494196634
 40
0.5642683809166286
 40
0.6605683222619927
 40
0.7569653015766493
 40
0.8561348172484871
 40
1.092615965101907
 40
1.37486765814117
 40
1.611348812012283
 40
1.710518328426524
 40
1.809403163728582
 40
2.045205463297845
 40
2.326646917627978
 40
2.562449217198212
 40
2.661334043842261
 40
2.661334043842261
 40
2.661334043842261
 40
2.661334043842261
 10
173.2683700567213
 20
14.88614538196998
 30
0.0
 10
173.2987525917943
 20
14.88598079714383
 30
0.0
 10
173.3606895889145
 20
14.8856452869
 30
0.0
 10
173.4541356960364
 20
14.88269055452518
 30
0.0
 10
173.5475095236389
 20
14.87977752876832
 30
0.0
 10
173.6417760753489
 20
14.87894201643481
 30
0.0
 10
173.735496479096
 20
14.87996644657951
 30
0.0
 10
173.8352040303181
 20
14.8791697747088
 30
0.0
 10
173.9188949546278
 20
14.88921410235584
 30
0.0
 10
174.0637996315014
 20
14.86234617673752
 30
0.0
 10
173.9396132444774
 20
15.03665530280028
 30
0.0
 10
173.8965867286269
 20
15.19651711006018
 30
0.0
 10
173.7808922142204
 20
15.45518458550445
 30
0.0
 10
173.701756543126
 20
15.59231052862205
 30
0.0
 10
173.6431576621827
 20
15.80937033134614
 30
0.0
 10
173.5864803939448
 20
15.59266134213765
 30
0.0
 10
173.5052809900489
 20
15.45327012438457
 30
0.0
 10
173.4063701281501
 20
15.20406969370184
 30
0.0
 10
173.3253625094272
 20
15.019258302259
 30
0.0
 10
173.2813683325851
 20
14.9165044685585
 30
0.0
 10
173.2683700567213
 20
14.88614538196998
 30
0.0
 11
173.2683700567213
 21
14.88614538196998
 31
0.0
 11
173.3595137737852
 21
14.88526123266843
 31
0.0
 11
173.4541428297634
 21
14.88269697919895
 31
0.0
 11
173.5487082179716
 21
14.88009965280662
 31
0.0
 11
173.6398803250231
 21
14.87924857641883
 31
0.0
 11
173.7361985777698
 21
14.87965978301554
 31
0.0
 11
173.8325499034327
 21
14.88097718752943
 31
0.0
 11
173.9288262638274
 21
14.88310818579453
 31
0.0
 11
174.0251753846314
 21
14.88614538196998
 31
0.0
 11
173.9854633323116
 21
14.97701642194808
 31
0.0
 11
173.8907653613953
 21
15.19370890189585
 31
0.0
 11
173.7777387509467
 21
15.45234186183351
 31
0.0
 11
173.6830407800303
 21
15.66903434178128
 31
0.0
 11
173.6433287277105
 21
15.75990538175938
 31
0.0
 11
173.6043330259276
 21
15.66903434178128
 31
0.0
 11
173.5113432755223
 21
15.45234186183351
 31
0.0
 11
173.4003555089095
 21
15.19370890189585
 31
0.0
 11
173.3073657585042
 21
14.97701642194808
 31
0.0
 11
173.2683700567213
 21
14.88614538196998
 31
0.0
  0
SPLINE
  5
A3
102
{ACAD_REACTORS
330
C0
102
}
330
48
100
AcDbEntity
  8
_U_30EC_U_30A4_U_30E4_U_30FC_1
  6
Continuous
 62
     2
100
AcDbSpline
210
0.0
220
0.0
230
1.0
 70
    11
 71
     3
 72
    95
 73
    91
 74
    89
 42
0.000000001
 43
0.0000000001
 44
0.00000001
 40
0.0
 40
0.0
 40
0.0
 40
0.0
 40
0.6550406656923387
 40
1.308087289031645
 40
1.420803739833883
 40
1.566130759774524
 40
1.757067341887496
 40
2.006513545024684
 40
2.087328263121735
 40
2.185328872292757
 40
2.294612454745954
 40
2.408936380536434
 40
2.526802767798415
 40
2.646360524617948
 40
2.762535723972205
 40
2.870057342873693
 40
2.966883448430845
 40
3.050803243519397
 40
3.115818222437433
 40
3.156030057150499
 40
3.213914225075145
 40
3.276689026449208
 40
3.342960320979925
 40
3.404230667153743
 40
3.453822809496881
 40
3.532499827192632
 40
3.634775188508668
 40
3.75490933301416
 40
3.889736761666943
 40
4.035769602180713
 40
4.187256681204704
 40
4.33873368568144
 40
4.488478734678082
 40
4.634708317833613
 40
4.771493189925565
 40
4.892686571565473
 40
5.199775528951171
 40
5.460353566929413
 40
5.667603142351396
 40
5.814722905406493
 40
5.828990806221876
 40
5.85548833630663
 40
5.869756237121019
 40
6.18979650775923
 40
6.53189046987099
 40
6.883053637012702
 40
7.230512024905718
 40
7.566966656759324
 40
7.885203559706921
 40
8.172887439715552
 40
8.418011594058909
 40
8.443926721186656
 40
8.510760470608691
 40
8.602145393790583
 40
8.70171404164135
 40
8.793098965068966
 40
8.859932715051087
 40
8.88584784259656
 40
9.242301256607938
 40
9.589275455014366
 40
9.921808543160608
 40
10.23479624297431
 40
10.29968150888211
 40
10.35323493886569
 40
10.40154625353721
 40
10.464829224766
 40
10.5597390066689
 40
10.69239545984258
 40
10.84920353474532
 40
11.01626328593746
 40
11.18672024366187
 40
11.35372582575493
 40
11.50257442290992
 40
11.61866495022052
 40
11.71329869151231
 40
11.8251105057219
 40
11.94464880843929
 40
12.06929242641057
 40
12.19707290433654
 40
12.32562632859026
 40
12.45034565329865
 40
12.56646595169223
 40
12.67099007413158
 40
12.76077625935127
 40
12.82703233505223
 40
12.87429132784627
 40
12.89831990321918
 40
12.92234847858555
 40
13.53984767409168
 40
14.18294284358165
 40
14.18294284358165
 40
14.18294284358165
 40
14.18294284358165
 10
177.3067935648032
 20
14.70898038201995
 30
0.0
 10
177.1752019758554
 20
14.82265058603465
 30
0.0
 10
176.9124193802721
 20
15.04964496316268
 30
0.0
 10
176.3997393441023
 20
15.89214462956226
 30
0.0
 10
176.4106654595346
 20
15.53423377576953
 30
0.0
 10
176.4041226528053
 20
15.39267392272087
 30
0.0
 10
176.402802663174
 20
15.19421305299252
 30
0.0
 10
176.4018117602554
 20
15.02150296046063
 30
0.0
 10
176.4024101752
 20
14.87865373257726
 30
0.0
 10
176.4038994301869
 20
14.7826500541352
 30
0.0
 10
176.4055683588491
 20
14.6754550326326
 30
0.0
 10
176.4071934954623
 20
14.56164211517609
 30
0.0
 10
176.4092429501649
 20
14.44441572604448
 30
0.0
 10
176.4123165501927
 20
14.32656411232872
 30
0.0
 10
176.4156339697014
 20
14.21228087320391
 30
0.0
 10
176.419360534033
 20
14.10521401867176
 30
0.0
 10
176.4217338161401
 20
14.01007408766781
 30
0.0
 10
176.427871888838
 20
13.92558557205646
 30
0.0
 10
176.4239784495963
 20
13.86923087298093
 30
0.0
 10
176.4455230443039
 20
13.79825022472466
 30
0.0
 10
176.3680940058621
 20
13.82902677604424
 30
0.0
 10
176.3116353240194
 20
13.82011242517689
 30
0.0
 10
176.254049589679
 20
13.82896218398147
 30
0.0
 10
176.1690163478412
 20
13.79738225225781
 30
0.0
 10
176.2009714146355
 20
13.88095155992123
 30
0.0
 10
176.1990705282473
 20
13.94882608968279
 30
0.0
 10
176.2107960047279
 20
14.05233256764401
 30
0.0
 10
176.2164241053069
 20
14.17002125616703
 30
0.0
 10
176.2237902178892
 20
14.30388609164626
 30
0.0
 10
176.2320759701666
 20
14.44764152872816
 30
0.0
 10
176.2398851897381
 20
14.59714022843653
 30
0.0
 10
176.2457571222679
 20
14.74792549402138
 30
0.0
 10
176.250366781801
 20
14.89699943878325
 30
0.0
 10
176.2542632117551
 20
15.04122913162879
 30
0.0
 10
176.2570715126562
 20
15.1758390521295
 30
0.0
 10
176.2576698755091
 20
15.3646961434744
 30
0.0
 10
176.2616023867183
 20
15.5897549431309
 30
0.0
 10
176.2442175378419
 20
15.86367091125678
 30
0.0
 10
176.2850417342595
 20
16.02787112098338
 30
0.0
 10
176.1995153256067
 20
16.22749661464894
 30
0.0
 10
176.266055890774
 20
16.22385458403776
 30
0.0
 10
176.2838724273282
 20
16.22413447160652
 30
0.0
 10
176.4056801797535
 20
16.22632927398413
 30
0.0
 10
176.508077033549
 20
15.94675118721524
 30
0.0
 10
176.7580021509407
 20
15.74563008536543
 30
0.0
 10
176.9870035331096
 20
15.47792614987943
 30
0.0
 10
177.224515121313
 20
15.22646413862876
 30
0.0
 10
177.4486090740775
 20
14.98969974061524
 30
0.0
 10
177.6750716283
 20
14.73218692582992
 30
0.0
 10
177.8325687886526
 20
14.61649335056892
 30
0.0
 10
178.0472129612699
 20
14.27997152539182
 30
0.0
 10
178.0422645974643
 20
14.40464754091949
 30
0.0
 10
178.0433931602571
 20
14.46327691936045
 30
0.0
 10
178.0428877841541
 20
14.55043662372225
 30
0.0
 10
178.0430475158138
 20
14.64416143183058
 30
0.0
 10
178.0430054891343
 20
14.73018971297162
 30
0.0
 10
178.0430202040397
 20
14.79153891945581
 30
0.0
 10
178.0429706256008
 20
14.94135231521129
 30
0.0
 10
178.0458811522816
 20
15.17989612510416
 30
0.0
 10
178.025952104111
 20
15.54486509869006
 30
0.0
 10
178.0750433936237
 20
15.80799631994037
 30
0.0
 10
177.9177951509184
 20
16.21928904946601
 30
0.0
 10
178.0762112872428
 20
16.16398282552029
 30
0.0
 10
178.1311680478622
 20
16.16199686500576
 30
0.0
 10
178.1827887766723
 20
16.16264778248551
 30
0.0
 10
178.2713198965375
 20
16.20369527737752
 30
0.0
 10
178.2204898303108
 20
16.05696326623038
 30
0.0
 10
178.231338993032
 20
15.95019971954226
 30
0.0
 10
178.2166036994797
 20
15.79085705413845
 30
0.0
 10
178.2099976446204
 20
15.62853061652527
 30
0.0
 10
178.2014961399896
 20
15.45992521892259
 30
0.0
 10
178.1943227202183
 20
15.29814814703533
 30
0.0
 10
178.1889063215393
 20
15.15422331457912
 30
0.0
 10
178.1871713967647
 20
15.03437493466883
 30
0.0
 10
178.1875440672316
 20
14.92686101590566
 30
0.0
 10
178.1873656126269
 20
14.81820024645821
 30
0.0
 10
178.1877010863107
 20
14.69953570165698
 30
0.0
 10
178.1890040622198
 20
14.57555163512848
 30
0.0
 10
178.1908887351559
 20
14.44858294171113
 30
0.0
 10
178.1925004454872
 20
14.32153861551033
 30
0.0
 10
178.1941403137427
 20
14.19854884492037
 30
0.0
 10
178.1962570745791
 20
14.08300931383615
 30
0.0
 10
178.1963848422352
 20
13.98090903955763
 30
0.0
 10
178.2006514396553
 20
13.89009848838212
 30
0.0
 10
178.1908440085284
 20
13.83213621208833
 30
0.0
 10
178.211847477169
 20
13.76517130131929
 30
0.0
 10
178.17256397399
 20
13.77291153966566
 30
0.0
 10
177.9595307117739
 20
13.75755254145109
 30
0.0
 10
177.7636297943186
 20
14.31403058094512
 30
0.0
 10
177.4611197631549
 20
14.57556035348729
 30
0.0
 10
177.3067935648032
 20
14.70898038201995
 30
0.0
 11
177.3067935648032
 21
14.70898038201995
 31
0.0
 11
176.85955293385
 21
15.18757635412203
 31
0.0
 11
176.4124049070633
 21
15.66352649289001
 31
0.0
 11
176.4089664262488
 21
15.55086249986425
 31
0.0
 11
176.4055610183532
 21
15.4055753818393
 31
0.0
 11
176.4029636920272
 21
15.21465645828061
 31
0.0
 11
176.4021126156622
 21
14.96521170139931
 31
0.0
 11
176.4025239230309
 21
14.88439802954258
 31
0.0
 11
176.4038420329816
 21
14.78640628477842
 31
0.0
 11
176.4055192267728
 21
14.67713557299976
 31
0.0
 11
176.4072367127519
 21
14.56282454871871
 31
0.0
 11
176.4094007838748
 21
14.4449780296527
 31
0.0
 11
176.4124049070633
 21
14.32545802099958
 31
0.0
 11
176.4158359733128
 21
14.20933349846087
 31
0.0
 11
176.4192928930024
 21
14.1018674654988
 31
0.0
 11
176.4227085253083
 21
14.00510162351338
 31
0.0
 11
176.4261896983808
 21
13.92125406276864
 31
0.0
 11
176.4296006184318
 21
13.85632862007674
 31
0.0
 11
176.4330776843126
 21
13.81626739612875
 31
0.0
 11
176.3754263821602
 21
13.82145433189112
 31
0.0
 11
176.3126746318303
 21
13.82315538223884
 31
0.0
 11
176.2464251717151
 21
13.82145433189112
 31
0.0
 11
176.1853747739624
 21
13.81626739612875
 31
0.0
 11
176.1926772737775
 21
13.86531894125551
 31
0.0
 11
176.2008793569003
 21
13.943567257209
 31
0.0
 11
176.2090098822327
 21
14.04551893252778
 31
0.0
 11
176.2163406441432
 21
14.16542920159918
 31
0.0
 11
176.2236358280411
 21
14.30005912344109
 31
0.0
 11
176.2318444255616
 21
14.44586107652867
 31
0.0
 11
176.2395504149449
 21
14.59715203135374
 31
0.0
 11
176.2455763002108
 21
14.74850913200862
 31
0.0
 11
176.2503046247448
 21
14.89817951391205
 31
0.0
 11
176.2541928972132
 21
15.04435739582004
 31
0.0
 11
176.2567527408974
 21
15.18111831592705
 31
0.0
 11
176.2576324804613
 21
15.30230850686894
 31
0.0
 11
176.2571926106784
 21
15.60939715262794
 31
0.0
 11
176.25591268883
 21
15.86997204838917
 31
0.0
 11
176.2528658717902
 21
16.07719922716296
 31
0.0
 11
176.2473049112814
 21
16.2242138538586
 31
0.0
 11
176.2615728121521
 21
16.2242138538586
 31
0.0
 11
176.2880703423404
 21
16.2242138538586
 31
0.0
 11
176.3023382432111
 21
16.2242138538586
 31
0.0
 11
176.5194743650295
 21
15.98910179663039
 31
0.0
 11
176.7512744123123
 21
15.73751281231853
 31
0.0
 11
176.9894816018841
 21
15.47949555543778
 31
0.0
 11
177.2260074557526
 21
15.2249707985593
 31
0.0
 11
177.45556987177
 21
14.97899759549409
 31
0.0
 11
177.6731797360117
 21
14.74678934033909
 31
0.0
 11
177.8713724913714
 21
14.53826680567272
 31
0.0
 11
178.0430143099111
 21
14.36326697932964
 31
0.0
 11
178.0430143099111
 21
14.389182106874
 31
0.0
 11
178.0430143099111
 21
14.45601585685684
 31
0.0
 11
178.0430143099111
 21
14.54740078030275
 31
0.0
 11
178.0430143099111
 21
14.64696942823637
 31
0.0
 11
178.0430143099111
 21
14.73835435168228
 31
0.0
 11
178.0430143099111
 21
14.80518810166512
 31
0.0
 11
178.0430143099111
 21
14.83110322920948
 31
0.0
 11
178.0417233637609
 21
15.18755430551142
 31
0.0
 11
178.0378461155924
 21
15.53450684014933
 31
0.0
 11
178.0296197789985
 21
15.86693815950957
 31
0.0
 11
178.0154535467227
 21
16.17960510386911
 31
0.0
 11
178.0790351249634
 21
16.16666367158541
 31
0.0
 11
178.1324170159605
 21
16.16238072887973
 31
0.0
 11
178.1805381084805
 21
16.16666367158541
 31
0.0
 11
178.24248367982
 21
16.17960510386911
 31
0.0
 11
178.2351216487545
 21
16.08498128445149
 31
0.0
 11
178.2269790968821
 21
15.95257496503837
 31
0.0
 11
178.2183705363978
 21
15.79600336785325
 31
0.0
 11
178.2097547223202
 21
15.62916593733826
 31
0.0
 11
178.2016187850273
 21
15.4589032550914
 31
0.0
 11
178.1942501393824
 21
15.29206031242939
 31
0.0
 11
178.1891406931522
 21
15.14329943572762
 31
0.0
 11
178.1874503478903
 21
15.02722121526858
 31
0.0
 11
178.1874503478903
 21
14.93258747397681
 31
0.0
 11
178.1874503478903
 21
14.82077565976942
 31
0.0
 11
178.1878461204478
 21
14.70123801223053
 31
0.0
 11
178.1890819450709
 21
14.57660052093888
 31
0.0
 11
178.1908392193313
 21
14.44883212687432
 31
0.0
 11
178.1925303477619
 21
14.32028982655902
 31
0.0
 11
178.1942876220223
 21
14.19558288214489
 31
0.0
 11
178.1959787504529
 21
14.07947489605976
 31
0.0
 11
178.197288437917
 21
13.97495896727014
 31
0.0
 11
178.1976985420733
 21
13.88517371555827
 31
0.0
 11
178.1976985420733
 21
13.81891763918406
 31
0.0
 11
178.1976985420733
 21
13.77165864613926
 31
0.0
 11
178.1736699662979
 21
13.77165864613926
 31
0.0
 11
178.1496413905225
 21
13.77165864613926
 31
0.0
 11
177.7410729200415
 21
14.23466735262355
 31
0.0
 11
177.3067935648032
 21
14.70898038201995
 31
0.0
  0
SPLINE
  5
A4
102
{ACAD_REACTORS
330
C1
102
}
330
48
100
AcDbEntity
  8
_U_30EC_U_30A4_U_30E4_U_30FC_1
  6
Continuous
 62
     2
100
AcDbSpline
210
0.0
220
0.0
230
1.0
 70
    11
 71
     3
 72
   110
 73
   106
 74
   104
 42
0.000000001
 43
0.0000000001
 44
0.00000001
 40
0.0
 40
0.0
 40
0.0
 40
0.0
 40
0.2203406257331197
 40
0.4407808782841201
 40
0.5952494494601459
 40
0.7488431659354566
 40
0.9023581831321718
 40
1.056801968668487
 40
1.210736449097731
 40
1.363041386542613
 40
1.515315729684857
 40
1.669377239151827
 40
1.721611652757857
 40
1.773199502948124
 40
1.824933793208555
 40
1.877110426488023
 40
1.98268228120873
 40
2.078781667086424
 40
2.172809640823375
 40
2.271937807387785
 40
2.378349933382907
 40
2.49413155774313
 40
2.626681683948016
 40
2.783145050799968
 40
2.890701232941996
 40
2.993130312452552
 40
3.099869730691874
 40
3.220237816696701
 40
3.35269548273877
 40
3.481732806386953
 40
3.593499473688122
 40
3.674323013327489
 40
3.817951711951178
 40
3.946167120788327
 40
4.06140505345358
 40
4.166480796002485
 40
4.262478775061905
 40
4.350736673554064
 40
4.433071991254256
 40
4.511216293810778
 40
4.56426245411636
 40
4.618474415571394
 40
4.670128488753485
 40
4.722296879124862
 40
4.819540945307727
 40
4.931194984122006
 40
5.049996040252796
 40
5.168643755409428
 40
5.283970811755638
 40
5.392260784902236
 40
5.486512254871249
 40
5.559178233948509
 40
5.591425852857444
 40
5.626215969644806
 40
5.667155838678321
 40
5.717449290219225
 40
5.738402360949115
 40
5.784499116556495
 40
5.830595872165876
 40
5.851548942898011
 40
5.873019280662767
 40
5.924217778410837
 40
5.98532566282204
 40
6.036524160573583
 40
6.057994498340753
 40
6.236847789610011
 40
6.38140992894632
 40
6.493190424179947
 40
6.574067534229366
 40
6.691018086207501
 40
6.814881554221083
 40
6.944307823242119
 40
7.071266716065865
 40
7.193488604465999
 40
7.309042773136763
 40
7.41400720317214
 40
7.50514044188731
 40
7.531150360599478
 40
7.559221645321885
 40
7.587202218919931
 40
7.612569159495256
 40
7.662550809482567
 40
7.70287887576478
 40
7.857328205229088
 40
8.010799568080634
 40
8.16525639965649
 40
8.322232698716496
 40
8.47956485501435
 40
8.63521623029242
 40
8.790882550924932
 40
8.948305154944418
 40
9.168271839027732
 40
9.38735898098474
 40
9.608047961032941
 40
9.832914234792506
 40
9.858338694962853
 40
9.925366817229893
 40
10.02013071422752
 40
10.12876249858995
 40
10.23739428295251
 40
10.33215817995197
 40
10.39918630222403
 40
10.42461076239793
 40
10.64992019336678
 40
10.87188524530665
 40
10.87188524530665
 40
10.87188524530665
 40
10.87188524530665
 10
179.9057788376631
 20
15.73923260397896
 30
0.0
 10
179.9092864933553
 20
15.80616462073661
 30
0.0
 10
179.9163033987668
 20
15.94005891915703
 30
0.0
 10
179.8198027599089
 20
16.22548554971133
 30
0.0
 10
180.0510134726088
 20
16.16284386190064
 30
0.0
 10
180.191929005714
 20
16.17001554055954
 30
0.0
 10
180.3490417757572
 20
16.16235883078151
 30
0.0
 10
180.5025913427277
 20
16.16252752283636
 30
0.0
 10
180.6545104935074
 20
16.16182040535336
 30
0.0
 10
180.8142214813247
 20
16.17210158351604
 30
0.0
 10
180.9408972601123
 20
16.15496511080549
 30
0.0
 10
181.1370821122169
 20
16.22727260106862
 30
0.0
 10
181.1034395279051
 20
16.12640699079961
 30
0.0
 10
181.1052011317212
 20
16.07619253947653
 30
0.0
 10
181.1027342073444
 20
16.02712335586447
 30
0.0
 10
181.134707696609
 20
15.94063490847152
 30
0.0
 10
181.0010399903286
 20
15.98997438608719
 30
0.0
 10
180.9172208688091
 20
15.98430634314413
 30
0.0
 10
180.8173861139327
 20
15.99465516706046
 30
0.0
 10
180.7186576720142
 20
16.00086450411796
 30
0.0
 10
180.6121532771083
 20
16.0069776381669
 30
0.0
 10
180.4910511698047
 20
16.01588883484692
 30
0.0
 10
180.3703381502442
 20
16.00521605912513
 30
0.0
 10
180.1812553843434
 20
16.06468503080112
 30
0.0
 10
180.212902850533
 20
15.90558320077681
 30
0.0
 10
180.1995563316868
 20
15.80839128340122
 30
0.0
 10
180.1974958426479
 20
15.69634065110175
 30
0.0
 10
180.1958188044738
 20
15.57699685629308
 30
0.0
 10
180.1973336794215
 20
15.4503259215516
 30
0.0
 10
180.1956582478704
 20
15.32301588016444
 30
0.0
 10
180.2058844271666
 20
15.2245156640494
 30
0.0
 10
180.1779006596521
 20
15.08388702626176
 30
0.0
 10
180.3508029999271
 20
15.13989551134484
 30
0.0
 10
180.4645020202746
 20
15.12719951478226
 30
0.0
 10
180.584015167222
 20
15.13448377051077
 30
0.0
 10
180.6888491425079
 20
15.13878017056712
 30
0.0
 10
180.7843084898629
 20
15.14330568258828
 30
0.0
 10
180.8763823507052
 20
15.15149201145734
 30
0.0
 10
180.9476551782446
 20
15.14643850638422
 30
0.0
 10
181.0544931705631
 20
15.18536425031989
 30
0.0
 10
181.0226603598028
 20
15.10517122005986
 30
0.0
 10
181.0266164503908
 20
15.05562936846083
 30
0.0
 10
181.0234502392005
 20
15.00557478039883
 30
0.0
 10
181.055079149052
 20
14.92128847612222
 30
0.0
 10
180.921013367769
 20
14.97425365495346
 30
0.0
 10
180.8292322793199
 20
14.96540080890233
 30
0.0
 10
180.7079729189602
 20
14.97570049965244
 30
0.0
 10
180.5914113119772
 20
14.97748911767355
 30
0.0
 10
180.4783375745892
 20
14.97787017110082
 30
0.0
 10
180.3679246308477
 20
14.98415449471625
 30
0.0
 10
180.2898124067844
 20
14.97189133255525
 30
0.0
 10
180.1913625833555
 20
15.00453887616912
 30
0.0
 10
180.2012355173566
 20
14.94769748054349
 30
0.0
 10
180.1973923244438
 20
14.91392130557971
 30
0.0
 10
180.196678988425
 20
14.87119604709378
 30
0.0
 10
180.196336964303
 20
14.83401607262201
 30
0.0
 10
180.1963834255389
 20
14.79487237370859
 30
0.0
 10
180.1963649429975
 20
14.75716849497905
 30
0.0
 10
180.1963703431853
 20
14.71944955232751
 30
0.0
 10
180.1963697214248
 20
14.68994324745554
 30
0.0
 10
180.1963698151593
 20
14.65873577699657
 30
0.0
 10
180.1963704287967
 20
14.61414424908308
 30
0.0
 10
180.1963671499385
 20
14.55963956508912
 30
0.0
 10
180.1963759623527
 20
14.51505540201375
 30
0.0
 10
180.1963359653467
 20
14.43117808585729
 30
0.0
 10
180.1976024270243
 20
14.31737520677835
 30
0.0
 10
180.1950274117856
 20
14.16830395934052
 30
0.0
 10
180.2065009381772
 20
14.06597203814361
 30
0.0
 10
180.1823506222183
 20
13.93338903886293
 30
0.0
 10
180.3332993946454
 20
13.97895732272585
 30
0.0
 10
180.4428436671525
 20
13.96427012163008
 30
0.0
 10
180.5733970473888
 20
13.96920435125279
 30
0.0
 10
180.6990312209491
 20
13.97257705323752
 30
0.0
 10
180.8188730625607
 20
13.97711497498918
 30
0.0
 10
180.9391362611424
 20
13.99048536181913
 30
0.0
 10
181.0222761663569
 20
13.98068712782427
 30
0.0
 10
181.145608042094
 20
14.04126214623698
 30
0.0
 10
181.1244269204019
 20
13.98532460134062
 30
0.0
 10
181.1235950270095
 20
13.95939249372562
 30
0.0
 10
181.1218963707597
 20
13.93197256191231
 30
0.0
 10
181.1217974888848
 20
13.89738195206622
 30
0.0
 10
181.1203659301369
 20
13.86050408221004
 30
0.0
 10
181.1532804192066
 20
13.76846841021679
 30
0.0
 10
180.9551306988153
 20
13.84132015974686
 30
0.0
 10
180.8300548294893
 20
13.81825726508631
 30
0.0
 10
180.6673071295151
 20
13.82454021985808
 30
0.0
 10
180.5129366449975
 20
13.82260943909953
 30
0.0
 10
180.3566670436909
 20
13.82393762599278
 30
0.0
 10
180.1970544465258
 20
13.82059872487914
 30
0.0
 10
180.0540326342213
 20
13.83265795728105
 30
0.0
 10
179.8197144881637
 20
13.76952001976954
 30
0.0
 10
179.9173810751199
 20
14.05620527466224
 30
0.0
 10
179.9006868780073
 20
14.24988308142602
 30
0.0
 10
179.9146296709701
 20
14.47848242880418
 30
0.0
 10
179.9142987846636
 20
14.63384593955249
 30
0.0
 10
179.9143078119267
 20
14.73966336444339
 30
0.0
 10
179.914305587632
 20
14.80205784124431
 30
0.0
 10
179.9143065551893
 20
14.89220425248547
 30
0.0
 10
179.9143065473265
 20
14.99621167157663
 30
0.0
 10
179.9143053861106
 20
15.10022131375526
 30
0.0
 10
179.9143090971506
 20
15.19036243689002
 30
0.0
 10
179.9143011051056
 20
15.25276803097453
 30
0.0
 10
179.9143334275021
 20
15.35868835961265
 30
0.0
 10
179.9131440788337
 20
15.51626716544711
 30
0.0
 10
179.9082216489271
 20
15.66528219821858
 30
0.0
 10
179.9057788376631
 20
15.73923260397896
 30
0.0
 11
179.9057788376631
 21
15.73923260397896
 31
0.0
 11
179.8966918223741
 21
15.95938578101254
 31
0.0
 11
179.8868249573134
 21
16.17960510386911
 31
0.0
 11
180.0411575141384
 21
16.1731239146352
 31
0.0
 11
180.1946500189006
 21
16.16754892331846
 31
0.0
 11
180.3481160653378
 21
16.16367167505655
 31
0.0
 11
180.5025544554919
 21
16.16238072887973
 31
0.0
 11
180.656483522745
 21
16.16367167505655
 31
0.0
 11
180.8087391004628
 21
16.16754892331846
 31
0.0
 11
180.9609113551091
 21
16.1731239146352
 31
0.0
 11
181.1148364762521
 21
16.17960510386911
 31
0.0
 11
181.1070811703121
 21
16.12794961777399
 31
0.0
 11
181.1044991623603
 21
16.07642642333849
 31
0.0
 11
181.1070811703121
 21
16.0247566056496
 31
0.0
 11
181.1148364762521
 21
15.97315954836995
 31
0.0
 11
181.009487405443
 21
15.98001446156422
 31
0.0
 11
180.9136375700109
 21
15.9869355205883
 31
0.0
 11
180.8198593171929
 21
15.99378381919564
 31
0.0
 11
180.7209679915832
 21
16.0006321178098
 31
0.0
 11
180.6147532199925
 21
16.00710999974899
 31
0.0
 11
180.4991060528009
 21
16.01268829835863
 31
0.0
 11
180.3666126447251
 21
16.01656554662145
 31
0.0
 11
180.2101546018421
 21
16.01785649279918
 31
0.0
 11
180.2062663293741
 21
15.91037061609268
 31
0.0
 11
180.2015380048433
 21
15.80805072896874
 31
0.0
 11
180.1976607566785
 21
15.70138175329862
 31
0.0
 11
180.1963698105319
 21
15.5810205901289
 31
0.0
 11
180.1967799146842
 21
15.44856355891625
 31
0.0
 11
180.1980896021523
 21
15.31953288186924
 31
0.0
 11
180.1994074577046
 21
15.20777398432711
 31
0.0
 11
180.1998191153616
 21
15.12695149302999
 31
0.0
 11
180.3434452935858
 21
15.12780256941573
 31
0.0
 11
180.4716343930704
 21
15.1303998957992
 31
0.0
 11
180.5868078221797
 21
15.13425509545096
 31
0.0
 11
180.6917756312214
 21
15.13901649301988
 31
0.0
 11
180.7876346289449
 21
15.14418027773991
 31
0.0
 11
180.8757413374224
 21
15.14934406245993
 31
0.0
 11
180.9578881438497
 21
15.15491243919928
 31
0.0
 11
181.0357692335529
 21
15.16132086801918
 31
0.0
 11
181.028018044517
 21
15.10884407115463
 31
0.0
 11
181.02543284493
 21
15.05469378470843
 31
0.0
 11
181.028018044517
 21
15.00310444444403
 31
0.0
 11
181.0357692335529
 21
14.95151510417963
 31
0.0
 11
180.9389813454023
 21
14.96092324653842
 31
0.0
 11
180.8275950722018
 21
14.96865128472928
 31
0.0
 11
180.7089261429365
 21
14.97425273438148
 31
0.0
 11
180.5903167449214
 21
14.97726788194996
 31
0.0
 11
180.4750025117532
 21
14.97898767361767
 31
0.0
 11
180.3667261950723
 21
14.98070746527992
 31
0.0
 11
180.2724839317702
 21
14.98202486979836
 31
0.0
 11
180.1998191153616
 21
14.98243607639961
 31
0.0
 11
180.1994074577046
 21
14.95019108508291
 31
0.0
 11
180.1980896021523
 21
14.9154259375191
 31
0.0
 11
180.1967799146842
 21
14.87450702260185
 31
0.0
 11
180.1963698105319
 21
14.82421524309939
 31
0.0
 11
180.1963698105319
 21
14.80326217235882
 31
0.0
 11
180.1963698105319
 21
14.75716541672955
 31
0.0
 11
180.1963698105319
 21
14.71106866110028
 31
0.0
 11
180.1963698105319
 21
14.69011559035971
 31
0.0
 11
180.1963698105319
 21
14.66864525258666
 31
0.0
 11
180.1963698105319
 21
14.61744675482017
 31
0.0
 11
180.1963698105319
 21
14.55633887038918
 31
0.0
 11
180.1963698105319
 21
14.50514037262269
 31
0.0
 11
180.1963698105319
 21
14.48367003484964
 31
0.0
 11
180.1967799146842
 21
14.3048172137178
 31
0.0
 11
180.1980896021523
 21
14.16026100715862
 31
0.0
 11
180.200286858973
 21
14.04850210961649
 31
0.0
 11
180.2032586986934
 21
13.96767961831938
 31
0.0
 11
180.3202092517427
 21
13.96767961831938
 31
0.0
 11
180.4440727208712
 21
13.96767961831938
 31
0.0
 11
180.5734925526399
 21
13.96897056449711
 31
0.0
 11
180.7003922282202
 21
13.97284781275994
 31
0.0
 11
180.8224658067975
 21
13.9788670835901
 31
0.0
 11
180.9377587499512
 21
13.98663260441936
 31
0.0
 11
181.0421754573495
 21
13.99734161483298
 31
0.0
 11
181.1320599255414
 21
14.01237656274861
 31
0.0
 11
181.1264254031221
 21
13.98698427976842
 31
0.0
 11
181.1234433285426
 21
13.95907184053976
 31
0.0
 11
181.1221339881226
 21
13.93112191867226
 31
0.0
 11
181.1217235369222
 21
13.90575829888985
 31
0.0
 11
181.1243087365087
 21
13.85584355063293
 31
0.0
 11
181.1320599255414
 21
13.81626739612875
 31
0.0
 11
180.9776977178335
 21
13.82145433189112
 31
0.0
 11
180.8242357818817
 21
13.82315538223884
 31
0.0
 11
180.6697789496466
 21
13.82315538223884
 31
0.0
 11
180.5128026496714
 21
13.82315538223884
 31
0.0
 11
180.3554704921531
 21
13.82315538223884
 31
0.0
 11
180.1998191153616
 21
13.82315538223884
 31
0.0
 11
180.0441620874221
 21
13.82145433189112
 31
0.0
 11
179.8868249573134
 21
13.81626739612875
 31
0.0
 11
179.8966918223741
 21
14.0360126738492
 31
0.0
 11
179.9057788376631
 21
14.2549112849083
 31
0.0
 11
179.9121721518414
 21
14.47550763902177
 31
0.0
 11
179.9143063455013
 21
14.70036378479927
 31
0.0
 11
179.9143063455013
 21
14.72578824497088
 31
0.0
 11
179.9143063455013
 21
14.79281636724148
 31
0.0
 11
179.9143063455013
 21
14.88758026424474
 31
0.0
 11
179.9143063455013
 21
14.99621204861433
 31
0.0
 11
179.9143063455013
 21
15.10484383298392
 31
0.0
 11
179.9143063455013
 21
15.19960772998719
 31
0.0
 11
179.9143063455013
 21
15.26663585225778
 31
0.0
 11
179.9143063455013
 21
15.29206031242939
 31
0.0
 11
179.9121721518414
 21
15.51735963528699
 31
0.0
 11
179.9057788376631
 21
15.73923260397896
 31
0.0
  0
SPLINE
  5
A5
102
{ACAD_REACTORS
330
C2
102
}
330
48
100
AcDbEntity
  8
_U_30EC_U_30A4_U_30E4_U_30FC_1
  6
Continuous
 62
     2
100
AcDbSpline
210
0.0
220
0.0
230
1.0
 70
    11
 71
     3
 72
    47
 73
    43
 74
    41
 42
0.000000001
 43
0.0000000001
 44
0.00000001
 40
0.0
 40
0.0
 40
0.0
 40
0.0
 40
0.2207912809970429
 40
0.445940418627941
 40
0.4902387190437
 40
0.5327473892712623
 40
0.5742260451194044
 40
0.6155432630508385
 40
0.656816406628837
 40
0.6982511618776952
 40
0.7407663929284711
 40
0.7851366743140494
 40
1.0102888338289
 40
1.23108050699612
 40
1.451765243642568
 40
1.676638205886334
 40
1.720461045353866
 40
1.830018144036628
 40
1.972442372344831
 40
2.114866600667768
 40
2.224423699384293
 40
2.268246538872094
 40
2.493628801200606
 40
2.715602830281642
 40
2.934211330698731
 40
3.149502369849698
 40
3.231387784844621
 40
3.318231873850602
 40
3.405143198191113
 40
3.486970301714614
 40
3.702258172490304
 40
3.920866283527822
 40
4.142839325927155
 40
4.368221903865225
 40
4.412044743359266
 40
4.521601842094181
 40
4.664026070449229
 40
4.806450298804509
 40
4.916007397541102
 40
4.959830237036985
 40
5.184703515845422
 40
5.405387250761925
 40
5.405387250761925
 40
5.405387250761925
 40
5.405387250761925
 10
182.6507427258621
 20
15.73406440953841
 30
0.0
 10
182.6568139419988
 20
15.79758482501219
 30
0.0
 10
182.6690762107244
 20
15.92587938689569
 30
0.0
 10
182.5604706879399
 20
16.20166220173754
 30
0.0
 10
182.6761985896586
 20
16.17188133431794
 30
0.0
 10
182.7171842508997
 20
16.16765556262812
 30
0.0
 10
182.759120579749
 20
16.16310446389496
 30
0.0
 10
182.8004196625677
 20
16.16201982930086
 30
0.0
 10
182.8417032115532
 20
16.16310338195126
 30
0.0
 10
182.8836148270633
 20
16.16766112711272
 30
0.0
 10
182.9245983549005
 20
16.17187430209524
 30
0.0
 10
183.0404922843449
 20
16.20177611317184
 30
0.0
 10
182.9295652727488
 20
15.92339806609814
 30
0.0
 10
182.9574856365296
 20
15.74283140825075
 30
0.0
 10
182.9404267346952
 20
15.50961042346556
 30
0.0
 10
182.9414637282012
 20
15.34906622543229
 30
0.0
 10
182.9414099399317
 20
15.22284817558706
 30
0.0
 10
182.9414277372392
 20
15.12428963336325
 30
0.0
 10
182.9414188580993
 20
14.99280702443179
 30
0.0
 10
182.9414263927946
 20
14.86132844968998
 30
0.0
 10
182.9414129405041
 20
14.76276222694537
 30
0.0
 10
182.9414531717401
 20
14.63639735624495
 30
0.0
 10
182.9406746403802
 20
14.47482068823025
 30
0.0
 10
182.9565958319293
 20
14.24361821892964
 30
0.0
 10
182.9333468885447
 20
14.05874351971977
 30
0.0
 10
183.0360183444341
 20
13.78935602770069
 30
0.0
 10
182.8820238362805
 20
13.82660112685716
 30
0.0
 10
182.8004129802805
 20
13.82137994680632
 30
0.0
 10
182.7188192292553
 20
13.826606203782
 30
0.0
 10
182.5648513666808
 20
13.7893706988535
 30
0.0
 10
182.6674183421913
 20
14.05875129862817
 30
0.0
 10
182.6442045316052
 20
14.2436158532547
 30
0.0
 10
182.6600444655143
 20
14.47482218565791
 30
0.0
 10
182.6593296313405
 20
14.63639712308848
 30
0.0
 10
182.6593664569883
 20
14.76276231210967
 30
0.0
 10
182.6593549000249
 20
14.8613275663633
 30
0.0
 10
182.6593575019191
 20
14.99281127417435
 30
0.0
 10
182.6593648531756
 20
15.12427548031284
 30
0.0
 10
182.6593442541329
 20
15.22287786275311
 30
0.0
 10
182.6594082192004
 20
15.34896149354507
 30
0.0
 10
182.6581733947592
 20
15.51210091383858
 30
0.0
 10
182.6532040396729
 20
15.6605418377765
 30
0.0
 10
182.6507427258621
 20
15.73406440953841
 30
0.0
 11
182.6507427258621
 21
15.73406440953841
 31
0.0
 11
182.6417328200369
 21
15.95467178795684
 31
0.0
 11
182.6318769706122
 21
16.17960510386911
 31
0.0
 11
182.6756985840779
 21
16.1731239146352
 31
0.0
 11
182.7178400934208
 21
16.16754892331846
 31
0.0
 11
182.7591371409762
 21
16.16367167505655
 31
0.0
 11
182.8004341885317
 21
16.16238072887973
 31
0.0
 11
182.8416871388708
 21
16.16367167505655
 31
0.0
 11
182.88294008921
 21
16.16754892331846
 31
0.0
 11
182.9250882131319
 21
16.1731239146352
 31
0.0
 11
182.9689825870119
 21
16.17960510386911
 31
0.0
 11
182.9590577693912
 21
15.95467178795684
 31
0.0
 11
182.9500384208332
 21
15.73406440953841
 31
0.0
 11
182.943563846341
 21
15.51347467001415
 31
0.0
 11
182.9414218238198
 21
15.28861190964926
 31
0.0
 11
182.9414218238198
 21
15.24478907015448
 31
0.0
 11
182.9414218238198
 21
15.13523197141755
 31
0.0
 11
182.9414218238198
 21
14.99280774305953
 31
0.0
 11
182.9414218238198
 21
14.85038351470151
 31
0.0
 11
182.9414218238198
 21
14.74082641596457
 31
0.0
 11
182.9414218238198
 21
14.6970035764698
 31
0.0
 11
182.943563846341
 21
14.47163149318817
 31
0.0
 11
182.9500384208332
 21
14.24975190990881
 31
0.0
 11
182.9590577693912
 21
14.03132954885496
 31
0.0
 11
182.9689825870119
 21
13.81626739612875
 31
0.0
 11
182.8872616168751
 21
13.82145433189112
 31
0.0
 11
182.8004341885317
 21
13.82315538223884
 31
0.0
 11
182.7135395119326
 21
13.82145433189112
 31
0.0
 11
182.6318769706122
 21
13.81626739612875
 31
0.0
 11
182.6417328200369
 21
14.03132954885496
 31
0.0
 11
182.6507427258621
 21
14.24975190990881
 31
0.0
 11
182.6571833838789
 21
14.47163149318817
 31
0.0
 11
182.6593583588001
 21
14.6970035764698
 31
0.0
 11
182.6593583588001
 21
14.74082641596457
 31
0.0
 11
182.6593583588001
 21
14.85038351470151
 31
0.0
 11
182.6593583588001
 21
14.99280774305953
 31
0.0
 11
182.6593583588001
 21
15.13523197141755
 31
0.0
 11
182.6593583588001
 21
15.24478907015449
 31
0.0
 11
182.6593583588001
 21
15.28861190964926
 31
0.0
 11
182.6571833838789
 21
15.51347467001415
 31
0.0
 11
182.6507427258621
 21
15.73406440953841
 31
0.0
  0
SPLINE
  5
A6
102
{ACAD_REACTORS
330
C3
102
}
330
48
100
AcDbEntity
  8
_U_30EC_U_30A4_U_30E4_U_30FC_1
  6
Continuous
 62
     2
100
AcDbSpline
210
0.0
220
0.0
230
1.0
 70
    11
 71
     3
 72
   118
 73
   114
 74
   112
 42
0.000000001
 43
0.0000000001
 44
0.00000001
 40
0.0
 40
0.0
 40
0.0
 40
0.0
 40
0.1054708162975894
 40
0.246609827006489
 40
0.3965912874615594
 40
0.5285525069783438
 40
0.6156245055663128
 40
0.6431434105817548
 40
0.7036850038004215
 40
0.7642265984520744
 40
0.7917455052370325
 40
0.9287404319999408
 40
1.106572819087229
 40
1.287544879681195
 40
1.31757830803059
 40
1.399928030856893
 40
1.522968204799166
 40
1.675072986589164
 40
1.844616533178552
 40
2.0199730016359
 40
2.18951654887652
 40
2.341621331581238
 40
2.464661506315874
 40
2.547011229642102
 40
2.577044658162943
 40
2.603797890887047
 40
2.66265500290066
 40
2.721512114939368
 40
2.748265347691582
 40
2.774215307333694
 40
2.845959313396129
 40
2.954338556577482
 40
3.090194227574853
 40
3.244367517090037
 40
3.407699615834028
 40
3.571031714529409
 40
3.725205003910305
 40
3.86106067472
 40
3.969439917706846
 40
4.041183923619624
 40
4.067133883203653
 40
4.311886746004795
 40
4.547897258328798
 40
4.764747083037741
 40
4.952749679946814
 40
5.04577297419497
 40
5.137862019642421
 40
5.330543169787795
 40
5.553448265238358
 40
5.795083855883584
 40
6.043293412174729
 40
6.285761695541414
 40
6.313902908753125
 40
6.384255941794283
 40
6.475714884768582
 40
6.567173827761355
 40
6.637526860842701
 40
6.665668074077292
 40
6.692018920330451
 40
6.749990782071727
 40
6.807962643789299
 40
6.834313490015958
 40
6.856393084243237
 40
6.913335195648003
 40
6.991194817300808
 40
7.076026942282212
 40
7.153886563723873
 40
7.21082867484354
 40
7.232908268929904
 40
7.258199334922653
 40
7.324875781591903
 40
7.419142481925409
 40
7.527204308843327
 40
7.635266135232879
 40
7.729532834171717
 40
7.79620927929664
 40
7.821500344598814
 40
7.844652988854196
 40
7.899863140543197
 40
7.965759128053271
 40
8.020969279768778
 40
8.044121924043527
 40
8.069356610159124
 40
8.109134395442185
 40
8.132238100192113
 40
8.193147867788047
 40
8.279261678879026
 40
8.377977512677168
 40
8.476693347150876
 40
8.562807160416739
 40
8.623716930832094
 40
8.646820636859264
 40
8.67198879378022
 40
8.73490918583433
 40
8.816705695195356
 40
8.89850220482224
 40
8.961422597384928
 40
8.986590754558154
 40
9.012941600739495
 40
9.070913462384784
 40
9.128885324084486
 40
9.15523617032699
 40
9.180404327931146
 40
9.243324721950419
 40
9.325121234214524
 40
9.40691774664052
 40
9.469838141981231
 40
9.49500628827409
 40
9.517811184382584
 40
9.572192090491415
 40
9.63709833328664
 40
9.691479239521671
 40
9.71428412565006
 40
9.71428412565006
 40
9.71428412565006
 40
9.71428412565006
 10
185.2874469028611
 20
15.26889163187843
 30
0.0
 10
185.3090990568999
 20
15.24111869242956
 30
0.0
 10
185.3597257109448
 20
15.17618054561412
 30
0.0
 10
185.4349383202571
 20
15.06891060313024
 30
0.0
 10
185.5248482274333
 20
14.95377438266686
 30
0.0
 10
185.5709169676661
 20
14.85357045748355
 30
0.0
 10
185.6655825294635
 20
14.78434006814975
 30
0.0
 10
185.6204439320397
 20
14.73771639678333
 30
0.0
 10
185.5947047785776
 20
14.69660308866106
 30
0.0
 10
185.5645196707999
 20
14.66065971728013
 30
0.0
 10
185.5193684730552
 20
14.58579782596194
 30
0.0
 10
185.4710504458542
 20
14.80782524253484
 30
0.0
 10
185.3968539713053
 20
14.84510677337627
 30
0.0
 10
185.2836047324564
 20
15.11610202130366
 30
0.0
 10
185.2885133578127
 20
15.00095328445993
 30
0.0
 10
185.2868486556263
 20
14.92836675781414
 30
0.0
 10
185.2876830076672
 20
14.80625588483827
 30
0.0
 10
185.2873609540222
 20
14.65913800810359
 30
0.0
 10
185.2875076912414
 20
14.49307063956524
 30
0.0
 10
185.287295009268
 20
14.32187554608639
 30
0.0
 10
185.2879497251992
 20
14.15552828635602
 30
0.0
 10
185.2859192461097
 20
14.0093517305586
 30
0.0
 10
185.2913460399888
 20
13.8847104747482
 30
0.0
 10
185.2804930868665
 20
13.8171865654088
 30
0.0
 10
185.2956739155512
 20
13.75549061417315
 30
0.0
 10
185.2457895108108
 20
13.76727503897243
 30
0.0
 10
185.201715034251
 20
13.75943822780251
 30
0.0
 10
185.1582371630204
 20
13.76760441372942
 30
0.0
 10
185.1092346786507
 20
13.75538056738762
 30
0.0
 10
185.1218731234844
 20
13.80960667249595
 30
0.0
 10
185.1130182968469
 20
13.86936918907832
 30
0.0
 10
185.1175058770332
 20
13.97922029044668
 30
0.0
 10
185.115796013601
 20
14.11029975405992
 30
0.0
 10
185.1163550916006
 20
14.26198011444664
 30
0.0
 10
185.1161928768713
 20
14.42211074930312
 30
0.0
 10
185.1162269924693
 20
14.58236865674948
 30
0.0
 10
185.1162514960146
 20
14.73370247520843
 30
0.0
 10
185.1161453543243
 20
14.86582156339023
 30
0.0
 10
185.1164299141951
 20
14.9729480253363
 30
0.0
 10
185.1158675547586
 20
15.03808619579922
 30
0.0
 10
185.1180765083709
 20
15.16618957859194
 30
0.0
 10
185.0319435998616
 20
14.7909761039185
 30
0.0
 10
184.9555140818522
 20
14.63918193123614
 30
0.0
 10
184.8660040767837
 20
14.47766206446302
 30
0.0
 10
184.7640413217414
 20
14.20471848819988
 30
0.0
 10
184.718797649102
 20
14.36717346596124
 30
0.0
 10
184.6102355941766
 20
14.4560543205839
 30
0.0
 10
184.7995791751736
 20
14.60549794961418
 30
0.0
 10
184.8565340545698
 20
14.79749136974998
 30
0.0
 10
184.9717520993354
 20
15.02899622906865
 30
0.0
 10
184.9940151630148
 20
15.2179725975929
 30
0.0
 10
185.1771905152194
 20
15.49454089326394
 30
0.0
 10
185.053803359759
 20
15.48698978832553
 30
0.0
 10
184.9925684166868
 20
15.48856772366578
 30
0.0
 10
184.9081999617091
 20
15.48882592574134
 30
0.0
 10
184.8204235085985
 20
15.48544845751659
 30
0.0
 10
184.7656768696139
 20
15.49394814982495
 30
0.0
 10
184.7104703026039
 20
15.48048561050238
 30
0.0
 10
184.7222823035546
 20
15.52931442127087
 30
0.0
 10
184.7142496151807
 20
15.57269004896908
 30
0.0
 10
184.7228186104687
 20
15.61509438309646
 30
0.0
 10
184.7102943409171
 20
15.66267796552058
 30
0.0
 10
184.7555101538749
 20
15.65267212995039
 30
0.0
 10
184.8014815562737
 20
15.65894105174004
 30
0.0
 10
184.8777222047725
 20
15.65593561405808
 30
0.0
 10
184.9561296132011
 20
15.65770448278479
 30
0.0
 10
185.032399264895
 20
15.65464793981599
 30
0.0
 10
185.0783009459492
 20
15.66103971376113
 30
0.0
 10
185.123173396542
 20
15.65093822978835
 30
0.0
 10
185.1105552275652
 20
15.70157201581879
 30
0.0
 10
185.1191936582726
 20
15.75501261882095
 30
0.0
 10
185.1152361595461
 20
15.84863255131791
 30
0.0
 10
185.1162325068354
 20
15.95112606689128
 30
0.0
 10
185.1171927413092
 20
16.05353270248457
 30
0.0
 10
185.1133211458023
 20
16.14735929609706
 30
0.0
 10
185.1217789814385
 20
16.20036542840772
 30
0.0
 10
185.1093075932853
 20
16.25211435651634
 30
0.0
 10
185.1542106389856
 20
16.23850747227268
 30
0.0
 10
185.1955083836768
 20
16.24100480321078
 30
0.0
 10
185.2595344281018
 20
16.23648060575048
 30
0.0
 10
185.2986111148762
 20
16.22781003043819
 30
0.0
 10
185.3476543498679
 20
16.23515102071355
 30
0.0
 10
185.3225080030616
 20
16.19602896051498
 30
0.0
 10
185.2815901333673
 20
16.2056384245644
 30
0.0
 10
185.2910109616565
 20
16.15540148170121
 30
0.0
 10
185.2855647318702
 20
16.1038594563988
 30
0.0
 10
185.2881699601762
 20
16.01959707584787
 30
0.0
 10
185.2870102202112
 20
15.92559135583602
 30
0.0
 10
185.288359106419
 20
15.83196865395627
 30
0.0
 10
185.2849970101466
 20
15.74679517552245
 30
0.0
 10
185.2920959917727
 20
15.6971685607202
 30
0.0
 10
185.2812569154503
 20
15.64993694969924
 30
0.0
 10
185.3304010225204
 20
15.66201674936789
 30
0.0
 10
185.3794877630109
 20
15.6544739336295
 30
0.0
 10
185.4573714280605
 20
15.65686070361369
 30
0.0
 10
185.5350365172864
 20
15.65899381905358
 30
0.0
 10
185.5845393931323
 20
15.65193391922382
 30
0.0
 10
185.6344594750608
 20
15.66360151936158
 30
0.0
 10
185.6223198516854
 20
15.61540235371466
 30
0.0
 10
185.6305838229113
 20
15.57249219801434
 30
0.0
 10
185.6223198650757
 20
15.52958201851709
 30
0.0
 10
185.6344594549822
 20
15.48138288755318
 30
0.0
 10
185.5845395158715
 20
15.49305034471981
 30
0.0
 10
185.5350350651171
 20
15.485992024355
 30
0.0
 10
185.4573784382937
 20
15.48811665229065
 30
0.0
 10
185.3794643865722
 20
15.4905338936622
 30
0.0
 10
185.3304500352676
 20
15.48291848194946
 30
0.0
 10
185.28132461089
 20
15.49507952558054
 30
0.0
 10
185.2915559988529
 20
15.45073013424558
 30
0.0
 10
185.2856677678011
 20
15.40925436203251
 30
0.0
 10
185.2878788305527
 20
15.3491539431555
 30
0.0
 10
185.2874109346104
 20
15.30225782763064
 30
0.0
 10
185.2874386992871
 20
15.27650146418332
 30
0.0
 10
185.2874469028611
 20
15.26889163187843
 30
0.0
 11
185.2874469028611
 21
15.26889163187843
 31
0.0
 11
185.3516977534453
 21
15.18524999634434
 31
0.0
 11
185.4348258835479
 21
15.07118889748347
 31
0.0
 11
185.5216831568883
 21
14.94891767195765
 31
0.0
 11
185.5971214371862
 21
14.84064565642869
 31
0.0
 11
185.6459925881609
 21
14.76858218755842
 31
0.0
 11
185.6296821285077
 21
14.74641782124456
 31
0.0
 11
185.5937991172705
 21
14.69765621535407
 31
0.0
 11
185.5579161060334
 21
14.64889460946358
 31
0.0
 11
185.5416056463801
 21
14.62673024314972
 31
0.0
 11
185.4763067109428
 21
14.74716139023797
 31
0.0
 11
185.3848434243215
 21
14.89966983669978
 31
0.0
 11
185.2874469028611
 21
15.05219788192881
 31
0.0
 11
185.2874469028611
 21
15.02216445328004
 31
0.0
 11
185.2874469028611
 21
14.93981472956568
 31
0.0
 11
185.2874469028611
 21
14.81677455413363
 31
0.0
 11
185.2874469028611
 21
14.66466977033181
 31
0.0
 11
185.2874469028611
 21
14.49512622150811
 31
0.0
 11
185.2874469028611
 21
14.31976975101047
 31
0.0
 11
185.2874469028611
 21
14.15022620218678
 31
0.0
 11
185.2874469028611
 21
13.99812141838495
 31
0.0
 11
185.2874469028611
 21
13.8750812429529
 31
0.0
 11
185.2874469028611
 21
13.79273151923854
 31
0.0
 11
185.2874469028611
 21
13.76269809058977
 31
0.0
 11
185.2606936700376
 21
13.76269809058977
 31
0.0
 11
185.201836557826
 21
13.76269809058977
 31
0.0
 11
185.1429794456144
 21
13.76269809058977
 31
0.0
 11
185.1162262127909
 21
13.76269809058977
 31
0.0
 11
185.1162262127909
 21
13.78864805031519
 31
0.0
 11
185.1162262127909
 21
13.86039205661487
 31
0.0
 11
185.1162262127909
 21
13.96877130017396
 31
0.0
 11
185.1162262127909
 21
14.10462697167761
 31
0.0
 11
185.1162262127909
 21
14.25880026181097
 31
0.0
 11
185.1162262127909
 21
14.42213236125917
 31
0.0
 11
185.1162262127909
 21
14.58546446070738
 31
0.0
 11
185.1162262127909
 21
14.73963775084074
 31
0.0
 11
185.1162262127909
 21
14.87549342234439
 31
0.0
 11
185.1162262127909
 21
14.98387266590348
 31
0.0
 11
185.1162262127909
 21
15.05561667220316
 31
0.0
 11
185.1162262127909
 21
15.08156663192858
 31
0.0
 11
185.0379865861736
 21
14.84965603302632
 31
0.0
 11
184.9497110789321
 21
14.6307761632886
 31
0.0
 11
184.8544106930074
 21
14.43598991333616
 31
0.0
 11
184.7550964303409
 21
14.27636017378973
 31
0.0
 11
184.7109198342401
 21
14.35822446196516
 31
0.0
 11
184.6588057383524
 21
14.43414885430866
 31
0.0
 11
184.7627302590304
 21
14.59640087926746
 31
0.0
 11
184.8629319864729
 21
14.79551465421777
 31
0.0
 11
184.9550446607903
 21
15.01890447916274
 31
0.0
 11
185.0347020220933
 21
15.25398465410552
 31
0.0
 11
185.0975378104922
 21
15.48816947904925
 31
0.0
 11
185.0693965972182
 21
15.48816947904925
 31
0.0
 11
184.9990435640331
 21
15.48816947904925
 31
0.0
 11
184.9075846208925
 21
15.48816947904925
 31
0.0
 11
184.8161256777519
 21
15.48816947904925
 31
0.0
 11
184.7457726445668
 21
15.48816947904925
 31
0.0
 11
184.7176314312928
 21
15.48816947904925
 31
0.0
 11
184.7176314312928
 21
15.51452032539601
 31
0.0
 11
184.7176314312928
 21
15.57249218735888
 31
0.0
 11
184.7176314312928
 21
15.63046404932174
 31
0.0
 11
184.7176314312928
 21
15.6568148956685
 31
0.0
 11
184.7397110256032
 21
15.6568148956685
 31
0.0
 11
184.7966531372458
 21
15.6568148956685
 31
0.0
 11
184.8745127592877
 21
15.6568148956685
 31
0.0
 11
184.959344884796
 21
15.6568148956685
 31
0.0
 11
185.0372045068379
 21
15.6568148956685
 31
0.0
 11
185.0941466184805
 21
15.6568148956685
 31
0.0
 11
185.1162262127909
 21
15.6568148956685
 31
0.0
 11
185.1162262127909
 21
15.68210596174314
 31
0.0
 11
185.1162262127909
 21
15.74878240866718
 31
0.0
 11
185.1162262127909
 21
15.84304910949082
 31
0.0
 11
185.1162262127909
 21
15.95111093726427
 31
0.0
 11
185.1162262127909
 21
16.05917276503772
 31
0.0
 11
185.1162262127909
 21
16.15343946586137
 31
0.0
 11
185.1162262127909
 21
16.22011591278541
 31
0.0
 11
185.1162262127909
 21
16.24540697886005
 31
0.0
 11
185.1393181988678
 21
16.2437321310828
 31
0.0
 11
185.1943837041279
 21
16.23973826330629
 31
0.0
 11
185.2601070491158
 21
16.23497138886334
 31
0.0
 11
185.3151725543759
 21
16.23097752108683
 31
0.0
 11
185.3382645404527
 21
16.22930267330958
 31
0.0
 11
185.3249012644355
 21
16.20789677921312
 31
0.0
 11
185.2874469028611
 21
16.19450114553911
 31
0.0
 11
185.2874469028611
 21
16.17139743948998
 31
0.0
 11
185.2874469028611
 21
16.11048766899683
 31
0.0
 11
185.2874469028611
 21
16.02437385554099
 31
0.0
 11
185.2874469028611
 21
15.92565802060381
 31
0.0
 11
185.2874469028611
 21
15.82694218566662
 31
0.0
 11
185.2874469028611
 21
15.74082837221078
 31
0.0
 11
185.2874469028611
 21
15.67991860171763
 31
0.0
 11
185.2874469028611
 21
15.6568148956685
 31
0.0
 11
185.3126150604768
 21
15.6568148956685
 31
0.0
 11
185.375535454516
 21
15.6568148956685
 31
0.0
 11
185.457331966767
 21
15.6568148956685
 31
0.0
 11
185.539128479018
 21
15.6568148956685
 31
0.0
 11
185.6020488730572
 21
15.6568148956685
 31
0.0
 11
185.6272170306729
 21
15.6568148956685
 31
0.0
 11
185.6272170306729
 21
15.63046404932174
 31
0.0
 11
185.6272170306729
 21
15.57249218735888
 31
0.0
 11
185.6272170306729
 21
15.51452032539601
 31
0.0
 11
185.6272170306729
 21
15.48816947904925
 31
0.0
 11
185.6020488730572
 21
15.48816947904925
 31
0.0
 11
185.539128479018
 21
15.48816947904925
 31
0.0
 11
185.457331966767
 21
15.48816947904925
 31
0.0
 11
185.375535454516
 21
15.48816947904925
 31
0.0
 11
185.3126150604768
 21
15.48816947904925
 31
0.0
 11
185.2874469028611
 21
15.48816947904925
 31
0.0
 11
185.2874469028611
 21
15.46536458294348
 31
0.0
 11
185.2874469028611
 21
15.41098367684512
 31
0.0
 11
185.2874469028611
 21
15.34607743408256
 31
0.0
 11
185.2874469028611
 21
15.2916965279842
 31
0.0
 11
185.2874469028611
 21
15.26889163187843
 31
0.0
  0
SPLINE
  5
A7
102
{ACAD_REACTORS
330
C4
102
}
330
48
100
AcDbEntity
  8
_U_30EC_U_30A4_U_30E4_U_30FC_1
  6
Continuous
 62
     2
100
AcDbSpline
210
0.0
220
0.0
230
1.0
 70
    11
 71
     3
 72
    91
 73
    87
 74
    85
 42
0.000000001
 43
0.0000000001
 44
0.00000001
 40
0.0
 40
0.0
 40
0.0
 40
0.0
 40
0.0345987051694581
 40
0.1258134969457106
 40
0.2547723404880176
 40
0.4026032099140482
 40
0.550434079339823
 40
0.6793929228813342
 40
0.7706077146545456
 40
0.8052064287753924
 40
1.12485239061174
 40
1.427402236304588
 40
1.706356627448545
 40
1.955541417869517
 40
2.169485938559878
 40
2.344350786657393
 40
2.480568411553375
 40
2.590440557418929
 40
2.649189927142213
 40
2.7493206432973
 40
2.912632739872055
 40
3.147745655996039
 40
3.244827496377365
 40
3.338490056941542
 40
3.583815413200997
 40
3.761423943231875
 40
3.886956104356136
 40
3.985855451880778
 40
4.09176625533201
 40
4.250186473806188
 40
4.422734315078369
 40
4.628285684831495
 40
4.872093227750091
 40
5.152549652135825
 40
5.464967135826448
 40
5.803201477840192
 40
6.160362988800807
 40
6.193449448262805
 40
6.284170385488346
 40
6.419718138750988
 40
6.587285046371954
 40
6.774063446709556
 40
6.967245678099226
 40
7.154024078802927
 40
7.321590987011029
 40
7.457138740875188
 40
7.547859678540783
 40
7.580946138167286
 40
7.608533084699633
 40
7.669224367063257
 40
7.729915649416125
 40
7.75750259593647
 40
7.790278062540065
 40
7.880146277417933
 40
8.01441996316802
 40
8.18041184238626
 40
8.365434637668525
 40
8.556801071612707
 40
8.741823866821587
 40
8.907815745907893
 40
9.042089431499615
 40
9.131957646242139
 40
9.164733112789857
 40
9.415425063136027
 40
9.667986180956294
 40
9.694169807460653
 40
9.756607686046149
 40
9.831130315321671
 40
9.893568193899672
 40
9.919751820398709
 40
9.950967964690527
 40
9.996421631207356
 40
10.2208798103675
 40
10.44341866196939
 40
10.47847970788254
 40
10.57091337438146
 40
10.7015954546062
 40
10.8514017416974
 40
11.00120802879854
 40
11.13189010906754
 40
11.22432377582376
 40
11.25938480938322
 40
11.2869717559554
 40
11.34766303835379
 40
11.40835432041594
 40
11.43594125891658
 40
11.43594125891658
 40
11.43594125891658
 40
11.43594125891658
 10
190.0818114333306
 20
15.55242795124832
 30
0.0
 10
190.0702785844958
 20
15.5524279028767
 30
0.0
 10
190.0283409445016
 20
15.55242773703919
 30
0.0
 10
189.9434129719048
 20
15.55243125800664
 30
0.0
 10
189.8207688553154
 20
15.55240926435634
 30
0.0
 10
189.6791206917023
 20
15.55250801176809
 30
0.0
 10
189.5379753698525
 20
15.55214686232176
 30
0.0
 10
189.4141351317943
 20
15.55321883608844
 30
0.0
 10
189.3317217825424
 20
15.55092249091024
 30
0.0
 10
189.1727791229738
 20
15.56048569373171
 30
0.0
 10
189.3503402353421
 20
15.19785394311218
 30
0.0
 10
189.3379739205491
 20
14.95243127723017
 30
0.0
 10
189.4064519473894
 20
14.66862501324796
 30
0.0
 10
189.4693024320987
 20
14.4325099993904
 30
0.0
 10
189.5452253431731
 20
14.23326740396158
 30
0.0
 10
189.6303189577002
 20
14.07745347451448
 30
0.0
 10
189.7244607592905
 20
13.9765785778141
 30
0.0
 10
189.8282648207686
 20
13.92465852639094
 30
0.0
 10
189.9125872030744
 20
13.97606484379529
 30
0.0
 10
189.9351322179439
 20
14.09144544037504
 30
0.0
 10
189.974573097537
 20
14.2188514970234
 30
0.0
 10
189.9202919735006
 20
14.53622328087362
 30
0.0
 10
190.0451218072479
 20
14.38982180140982
 30
0.0
 10
190.2019291513642
 20
14.35795300331741
 30
0.0
 10
190.0947720007059
 20
14.12421357767986
 30
0.0
 10
190.0808711209856
 20
13.95972776584128
 30
0.0
 10
190.0234709467197
 20
13.8313086912302
 30
0.0
 10
189.9335020144972
 20
13.76018802353429
 30
0.0
 10
189.809527465784
 20
13.74432324142859
 30
0.0
 10
189.6634273196823
 20
13.7799379755474
 30
0.0
 10
189.5243894320245
 20
13.90000570500751
 30
0.0
 10
189.4102003962105
 20
14.0743568255069
 30
0.0
 10
189.3146141301447
 20
14.29946603111479
 30
0.0
 10
189.2318652572586
 20
14.56388246006544
 30
0.0
 10
189.1807179256372
 20
14.88187933098506
 30
0.0
 10
189.07701892073
 20
15.15543728488782
 30
0.0
 10
189.2042841208478
 20
15.56005818612621
 30
0.0
 10
189.0357890622978
 20
15.55112367849433
 30
0.0
 10
188.9511995787038
 20
15.55315961418118
 30
0.0
 10
188.8189876387591
 20
15.55213937388161
 30
0.0
 10
188.656050509407
 20
15.55253230318185
 30
0.0
 10
188.4733759170502
 20
15.55235696313124
 30
0.0
 10
188.2847057373354
 20
15.55260105307222
 30
0.0
 10
188.1014469020164
 20
15.55185657905992
 30
0.0
 10
187.9404746832695
 20
15.55416360522179
 30
0.0
 10
187.8029808335255
 20
15.54799804883421
 30
0.0
 10
187.7289590372291
 20
15.5603283845796
 30
0.0
 10
187.6613215186837
 20
15.54329323723314
 30
0.0
 10
187.6732373719252
 20
15.59524438447331
 30
0.0
 10
187.6655677285675
 20
15.64071424966378
 30
0.0
 10
187.6732592225097
 20
15.68614453703601
 30
0.0
 10
187.6613141797743
 20
15.73802395984517
 30
0.0
 10
187.7283588305851
 20
15.72119143490206
 30
0.0
 10
187.8017375665664
 20
15.73335409092615
 30
0.0
 10
187.9379128305265
 20
15.72727231074901
 30
0.0
 10
188.0973811801513
 20
15.72954834315001
 30
0.0
 10
188.2789173085845
 20
15.72881233998905
 30
0.0
 10
188.4658034862195
 20
15.72905954196076
 30
0.0
 10
188.646801231686
 20
15.72886400799196
 30
0.0
 10
188.808080257891
 20
15.72932234714782
 30
0.0
 10
188.9393882124925
 20
15.72812673751149
 30
0.0
 10
189.0225051322638
 20
15.73051347319685
 30
0.0
 10
189.1556236547871
 20
15.72230605725406
 30
0.0
 10
189.064589350261
 20
15.97752868952757
 30
0.0
 10
188.9789633074358
 20
16.24164358328792
 30
0.0
 10
189.0990589003403
 20
16.22904442969515
 30
0.0
 10
189.1514264948496
 20
16.2269423576334
 30
0.0
 10
189.2214497569673
 20
16.22535399889816
 30
0.0
 10
189.2671922337781
 20
16.21602567538184
 30
0.0
 10
189.3220812646895
 20
16.22545966915435
 30
0.0
 10
189.2963574785668
 20
16.17733028655322
 30
0.0
 10
189.1825397571503
 20
16.18266829742916
 30
0.0
 10
189.3159346621159
 20
15.95449174576933
 30
0.0
 10
189.1943658735488
 20
15.72156856595853
 30
0.0
 10
189.3223188769433
 20
15.73087258884384
 30
0.0
 10
189.404904840648
 20
15.72801001754621
 30
0.0
 10
189.5307214850843
 20
15.72923437412246
 30
0.0
 10
189.6741469838077
 20
15.72932431888907
 30
0.0
 10
189.8157420951746
 20
15.72746163183797
 30
0.0
 10
189.9459127249984
 20
15.73333075937103
 30
0.0
 10
190.0193452286208
 20
15.72070340823151
 30
0.0
 10
190.0891112922114
 20
15.73877563110354
 30
0.0
 10
190.0775772605412
 20
15.68612850546221
 30
0.0
 10
190.08331843467
 20
15.64221317686399
 30
0.0
 10
190.0816615770927
 20
15.59089982676345
 30
0.0
 10
190.0817757561687
 20
15.561587920214
 30
0.0
 10
190.0818114333306
 20
15.55242795124832
 30
0.0
 11
190.0818114333306
 21
15.55242795124832
 31
0.0
 11
190.0472127192069
 21
15.55242795124832
 31
0.0
 11
189.9559979274262
 21
15.55242795124832
 31
0.0
 11
189.8270390838743
 21
15.55242795124832
 31
0.0
 11
189.6792082144366
 21
15.55242795124832
 31
0.0
 11
189.531377344999
 21
15.55242795124832
 31
0.0
 11
189.402418501447
 21
15.55242795124832
 31
0.0
 11
189.3112037096663
 21
15.55242795124832
 31
0.0
 11
189.2766049955426
 21
15.55242795124832
 31
0.0
 11
189.3083140497737
 21
15.2343586492996
 31
0.0
 11
189.3527866656903
 21
14.93509522787986
 31
0.0
 11
189.4092389118348
 21
14.66191269512532
 31
0.0
 11
189.4768868567494
 21
14.42208605917222
 31
0.0
 11
189.5549465689762
 21
14.22289032815675
 31
0.0
 11
189.6426341170576
 21
14.07160051021514
 31
0.0
 11
189.7391655695358
 21
13.97549161348362
 31
0.0
 11
189.8437569949529
 21
13.9418386460984
 31
0.0
 11
189.8943077302756
 21
13.97177376978831
 31
0.0
 11
189.9310588991534
 21
14.06491619814983
 31
0.0
 11
189.9562640977531
 21
14.22627151712063
 31
0.0
 11
189.9721769222415
 21
14.46084531263841
 31
0.0
 11
190.049408268258
 21
14.40202182306916
 31
0.0
 11
190.1327184184411
 21
14.35921885432981
 31
0.0
 11
190.1066365811221
 21
14.11528388661422
 31
0.0
 11
190.0673317805092
 21
13.94207902888063
 31
0.0
 11
190.0105702596738
 21
13.83011272446476
 31
0.0
 11
189.9321182616875
 21
13.76989341670236
 31
0.0
 11
189.8277420296217
 21
13.75192954892918
 31
0.0
 11
189.6738595065057
 21
13.78957440012933
 31
0.0
 11
189.5388902376707
 21
13.89707348877897
 31
0.0
 11
189.4221739916123
 21
14.06627361745189
 31
0.0
 11
189.323050536826
 21
14.28902158872188
 31
0.0
 11
189.2408596418074
 21
14.55716420516273
 31
0.0
 11
189.174941075052
 21
14.86254826934823
 31
0.0
 11
189.1246346050553
 21
15.19702058385216
 31
0.0
 11
189.089280000313
 21
15.55242795124832
 31
0.0
 11
189.0561935405803
 21
15.55242795124832
 31
0.0
 11
188.9654726026036
 21
15.55242795124832
 31
0.0
 11
188.8299248482148
 21
15.55242795124832
 31
0.0
 11
188.662357939246
 21
15.55242795124832
 31
0.0
 11
188.4755795375293
 21
15.55242795124832
 31
0.0
 11
188.2823973048964
 21
15.55242795124832
 31
0.0
 11
188.0956189031797
 21
15.55242795124832
 31
0.0
 11
187.9280519942109
 21
15.55242795124832
 31
0.0
 11
187.7925042398221
 21
15.55242795124832
 31
0.0
 11
187.7017833018454
 21
15.55242795124832
 31
0.0
 11
187.6686968421127
 21
15.55242795124832
 31
0.0
 11
187.6686968421127
 21
15.5800148978563
 31
0.0
 11
187.6686968421127
 21
15.64070618039386
 31
0.0
 11
187.6686968421127
 21
15.70139746293143
 31
0.0
 11
187.6686968421127
 21
15.72898440953941
 31
0.0
 11
187.7014723087614
 21
15.72898440953941
 31
0.0
 11
187.791340523766
 21
15.72898440953941
 31
0.0
 11
187.9256142097141
 21
15.72898440953941
 31
0.0
 11
188.0916060891932
 21
15.72898440953941
 31
0.0
 11
188.276628884791
 21
15.72898440953941
 31
0.0
 11
188.4679953190949
 21
15.72898440953941
 31
0.0
 11
188.6530181146927
 21
15.72898440953941
 31
0.0
 11
188.8190099941718
 21
15.72898440953941
 31
0.0
 11
188.9532836801199
 21
15.72898440953941
 31
0.0
 11
189.0431518951245
 21
15.72898440953941
 31
0.0
 11
189.0759273617732
 21
15.72898440953941
 31
0.0
 11
189.0659183950074
 21
15.97947647545197
 31
0.0
 11
189.0599112510608
 21
16.23196614552944
 31
0.0
 11
189.0860575870606
 21
16.23056921608493
 31
0.0
 11
189.1484065421371
 21
16.22723807664032
 31
0.0
 11
189.2228230369058
 21
16.22326220052902
 31
0.0
 11
189.2851719919822
 21
16.21993106108441
 31
0.0
 11
189.311318327982
 21
16.2185341316399
 31
0.0
 11
189.2982931113015
 21
16.19016528616044
 31
0.0
 11
189.2551649266425
 21
16.17581274275835
 31
0.0
 11
189.2574991961847
 21
15.95136670115153
 31
0.0
 11
189.2658452735923
 21
15.72898440953941
 31
0.0
 11
189.3009063195186
 21
15.72898440953941
 31
0.0
 11
189.3933399860514
 21
15.72898440953941
 31
0.0
 11
189.524022066322
 21
15.72898440953941
 31
0.0
 11
189.6738283534615
 21
15.72898440953941
 31
0.0
 11
189.8236346406009
 21
15.72898440953941
 31
0.0
 11
189.9543167208715
 21
15.72898440953941
 31
0.0
 11
190.0467503874044
 21
15.72898440953941
 31
0.0
 11
190.0818114333306
 21
15.72898440953941
 31
0.0
 11
190.0818114333306
 21
15.70139746293143
 31
0.0
 11
190.0818114333306
 21
15.64070618039386
 31
0.0
 11
190.0818114333306
 21
15.58001489785631
 31
0.0
 11
190.0818114333306
 21
15.55242795124832
 31
0.0
  0
SPLINE
  5
A8
102
{ACAD_REACTORS
330
C5
102
}
330
48
100
AcDbEntity
  8
_U_30EC_U_30A4_U_30E4_U_30FC_1
  6
Continuous
 62
     2
100
AcDbSpline
210
0.0
220
0.0
230
1.0
 70
    11
 71
     3
 72
    75
 73
    71
 74
    69
 42
0.000000001
 43
0.0000000001
 44
0.00000001
 40
0.0
 40
0.0
 40
0.0
 40
0.0
 40
0.0342546099125996
 40
0.1245622414418846
 40
0.2522385480870198
 40
0.3985991922897479
 40
0.5449598364921775
 40
0.6726361431365933
 40
0.7629437746654253
 40
0.7971983935211571
 40
1.101723623444511
 40
1.408591244028733
 40
1.433332471682308
 40
1.487763172441812
 40
1.542193873073353
 40
1.566935100583772
 40
1.923523931813912
 40
2.271755704946304
 40
2.590579755093822
 40
2.858943305574142
 40
2.889120339303771
 40
2.91830585518134
 40
2.941366645521796
 40
2.996357760964461
 40
3.061992318132948
 40
3.1169834336199
 40
3.140044223990922
 40
3.411273122929748
 40
3.732441619736221
 40
3.761068217527825
 40
3.83778749962514
 40
3.948858699120418
 40
4.080541049098368
 40
4.2190937826193
 40
4.350776132715424
 40
4.461847332398397
 40
4.538566614670883
 40
4.567193212537035
 40
4.594907573991236
 40
4.666381453549604
 40
4.764111044002931
 40
4.870592538117478
 40
4.968322128633645
 40
5.039796008278159
 40
5.067510369775533
 40
5.094263603178106
 40
5.153120716663732
 40
5.211977830149172
 40
5.238731063551535
 40
5.27229053513866
 40
5.363380529444152
 40
5.497618415780289
 40
5.660621563451963
 40
5.838007341746954
 40
6.015393119907623
 40
6.178396267034595
 40
6.312634151838063
 40
6.403724143054712
 40
6.437283612667665
 40
6.46403684625764
 40
6.522893960004248
 40
6.581751071486503
 40
6.60850430159481
 40
6.637253941285241
 40
6.711397748907832
 40
6.81277805728941
 40
6.923237199256267
 40
7.024617507631934
 40
7.098761315216326
 40
7.12751094601656
 40
7.12751094601656
 40
7.12751094601656
 40
7.12751094601656
 10
188.4418622390513
 20
14.95849128472946
 30
0.0
 10
188.4418622819655
 20
14.94707313408414
 30
0.0
 10
188.4418624481077
 20
14.90555257842368
 30
0.0
 10
188.4418593081736
 20
14.82146922003602
 30
0.0
 10
188.4418788279749
 20
14.7000449732229
 30
0.0
 10
188.4417912187686
 20
14.55980494047562
 30
0.0
 10
188.4421116235179
 20
14.4200655679484
 30
0.0
 10
188.4411605909688
 20
14.2974503889533
 30
0.0
 10
188.4431978595916
 20
14.21587074438522
 30
0.0
 10
188.4349433178694
 20
14.06271267078146
 30
0.0
 10
188.7430797940884
 20
14.22560236054277
 30
0.0
 10
189.0350645173689
 20
14.39482938687814
 30
0.0
 10
189.0408354448683
 20
14.25973235781845
 30
0.0
 10
189.0455471719873
 20
14.21617221160408
 30
0.0
 10
189.0482535411906
 20
14.17211249350537
 30
0.0
 10
189.0672545672973
 20
14.02272590363137
 30
0.0
 10
188.6583942247285
 20
14.08681172241137
 30
0.0
 10
188.3793710348812
 20
13.97296341410871
 30
0.0
 10
188.1018081587171
 20
13.87364095810723
 30
0.0
 10
187.8099837184329
 20
13.91630687596606
 30
0.0
 10
187.786914467865
 20
13.81321679744476
 30
0.0
 10
187.7537474383335
 20
13.78691091244729
 30
0.0
 10
187.7480653962751
 20
13.83455309036512
 30
0.0
 10
187.7284214559051
 20
13.87180336115286
 30
0.0
 10
187.709508948563
 20
13.93007387847886
 30
0.0
 10
187.6942849867714
 20
13.97385201008192
 30
0.0
 10
187.6477246372943
 20
14.08759421046756
 30
0.0
 10
187.9890897312476
 20
14.05576301119817
 30
0.0
 10
188.2679649367417
 20
14.0216143510637
 30
0.0
 10
188.2617753034941
 20
14.1691397647959
 30
0.0
 10
188.2630935452806
 20
14.24013150908748
 30
0.0
 10
188.2624831689981
 20
14.34719767958542
 30
0.0
 10
188.2625871570758
 20
14.47398529785837
 30
0.0
 10
188.2629987964087
 20
14.60849243495845
 30
0.0
 10
188.2613907842002
 20
14.73395549950939
 30
0.0
 10
188.2659902567958
 20
14.84505246718836
 30
0.0
 10
188.2564186502243
 20
14.90761886800387
 30
0.0
 10
188.2704001783723
 20
14.96595388294681
 30
0.0
 10
188.2147384386738
 20
14.95289710581921
 30
0.0
 10
188.1575655197856
 20
14.96136307749179
 30
0.0
 10
188.0616048925686
 20
14.95729976080319
 30
0.0
 10
187.9633767522862
 20
14.95970889852154
 30
0.0
 10
187.8672582457604
 20
14.95551600613078
 30
0.0
 10
187.8104648525855
 20
14.96429346440828
 30
0.0
 10
187.7550356873426
 20
14.95094936849809
 30
0.0
 10
187.7670679427967
 20
15.00036910959164
 30
0.0
 10
187.7592003173981
 20
15.04393988030511
 30
0.0
 10
187.7666295563878
 20
15.08830469118854
 30
0.0
 10
187.7551930564186
 20
15.13902297764534
 30
0.0
 10
187.8232102370174
 20
15.12162460758318
 30
0.0
 10
187.8968496879788
 20
15.13417450237728
 30
0.0
 10
188.0325064058246
 20
15.12799677011654
 30
0.0
 10
188.1884909024555
 20
15.13029203093634
 30
0.0
 10
188.3615926358167
 20
15.12940968263083
 30
0.0
 10
188.5346942964197
 20
15.13029207142958
 30
0.0
 10
188.6906789811227
 20
15.12799662956107
 30
0.0
 10
188.8263351889802
 20
15.13417486262971
 30
0.0
 10
188.8999756705656
 20
15.12162394218909
 30
0.0
 10
188.9679914174727
 20
15.13902373012685
 30
0.0
 10
188.9565590885919
 20
15.08830130414884
 30
0.0
 10
188.9639539458299
 20
15.04397060811225
 30
0.0
 10
188.9562039912267
 20
15.000283075501
 30
0.0
 10
188.9681203741881
 20
14.95063590098154
 30
0.0
 10
188.9108170223612
 20
14.96461411338102
 30
0.0
 10
188.8520145789761
 20
14.95539755672938
 30
0.0
 10
188.7525293633179
 20
14.9595226816461
 30
0.0
 10
188.6494280098318
 20
14.95822760025569
 30
0.0
 10
188.5537846354534
 20
14.95854077077322
 30
0.0
 10
188.4857467971569
 20
14.95848776696827
 30
0.0
 10
188.4514462213393
 20
14.95849051871338
 30
0.0
 10
188.4418622390513
 20
14.95849128472946
 30
0.0
 11
188.4418622390513
 21
14.95849128472946
 31
0.0
 11
188.4418622390513
 21
14.92423666586904
 31
0.0
 11
188.4418622390513
 21
14.83392903432792
 31
0.0
 11
188.4418622390513
 21
14.70625272766634
 31
0.0
 11
188.4418622390513
 21
14.55989208344453
 31
0.0
 11
188.4418622390513
 21
14.41353143922273
 31
0.0
 11
188.4418622390513
 21
14.28585513256115
 31
0.0
 11
188.4418622390513
 21
14.19554750102003
 31
0.0
 11
188.4418622390513
 21
14.16129288215961
 31
0.0
 11
188.7391932644564
 21
14.22709475713759
 31
0.0
 11
189.0384623627215
 21
14.29496038211983
 31
0.0
 11
189.0405487124951
 21
14.27030727882755
 31
0.0
 11
189.0451386819968
 21
14.21607045158453
 31
0.0
 11
189.0497286514986
 21
14.16183362434151
 31
0.0
 11
189.0518150012722
 21
14.13718052104923
 31
0.0
 11
188.7056396889228
 21
14.05163370140798
 31
0.0
 11
188.3669653138822
 21
13.97060877629701
 31
0.0
 11
188.0563731516669
 21
13.8986276402473
 31
0.0
 11
187.7944444777932
 21
13.8402121877898
 31
0.0
 11
187.7817515029269
 21
13.81283442737822
 31
0.0
 11
187.7569794787523
 21
13.79740260446852
 31
0.0
 11
187.7491867589511
 21
13.81910683390787
 31
0.0
 11
187.730604119425
 21
13.87086307334015
 31
0.0
 11
187.7084248399907
 21
13.93263664943676
 31
0.0
 11
187.6898422004647
 21
13.98439288886904
 31
0.0
 11
187.6820494806634
 21
14.00609711830839
 31
0.0
 11
187.9482776335945
 21
14.05794001759659
 31
0.0
 11
188.2626334936322
 21
14.12373968771863
 31
0.0
 11
188.2626334936322
 21
14.15236628569568
 31
0.0
 11
188.2626334936322
 21
14.22908556827418
 31
0.0
 11
188.2626334936322
 21
14.34015676842514
 31
0.0
 11
188.2626334936322
 21
14.47183911911958
 31
0.0
 11
188.2626334936322
 21
14.61039185332851
 31
0.0
 11
188.2626334936322
 21
14.74207420402295
 31
0.0
 11
188.2626334936322
 21
14.85314540417391
 31
0.0
 11
188.2626334936322
 21
14.92986468675241
 31
0.0
 11
188.2626334936322
 21
14.95849128472946
 31
0.0
 11
188.2349191321142
 21
14.95849128472946
 31
0.0
 11
188.1634452524099
 21
14.95849128472946
 31
0.0
 11
188.0657156617938
 21
14.95849128472946
 31
0.0
 11
187.9592341675405
 21
14.95849128472946
 31
0.0
 11
187.8615045769244
 21
14.95849128472946
 31
0.0
 11
187.7900306972201
 21
14.95849128472946
 31
0.0
 11
187.7623163357021
 21
14.95849128472946
 31
0.0
 11
187.7623163357021
 21
14.98524451823107
 31
0.0
 11
187.7623163357021
 21
15.04410163193461
 31
0.0
 11
187.7623163357021
 21
15.10295874563815
 31
0.0
 11
187.7623163357021
 21
15.12971197913976
 31
0.0
 11
187.7958758072919
 21
15.12971197913976
 31
0.0
 11
187.8869658016072
 21
15.12971197913976
 31
0.0
 11
188.0212036879665
 21
15.12971197913976
 31
0.0
 11
188.1842068356886
 21
15.12971197913976
 31
0.0
 11
188.361592614092
 21
15.12971197913976
 31
0.0
 11
188.5389783924954
 21
15.12971197913976
 31
0.0
 11
188.7019815402174
 21
15.12971197913976
 31
0.0
 11
188.8362194265767
 21
15.12971197913976
 31
0.0
 11
188.927309420892
 21
15.12971197913976
 31
0.0
 11
188.9608688924818
 21
15.12971197913976
 31
0.0
 11
188.9608688924818
 21
15.10295874563815
 31
0.0
 11
188.9608688924818
 21
15.04410163193461
 31
0.0
 11
188.9608688924818
 21
14.98524451823107
 31
0.0
 11
188.9608688924818
 21
14.95849128472946
 31
0.0
 11
188.9321192527874
 21
14.95849128472946
 31
0.0
 11
188.8579754451545
 21
14.95849128472946
 31
0.0
 11
188.7565951367584
 21
14.95849128472946
 31
0.0
 11
188.6461359947747
 21
14.95849128472946
 31
0.0
 11
188.5447556863786
 21
14.95849128472946
 31
0.0
 11
188.4706118787457
 21
14.95849128472946
 31
0.0
 11
188.4418622390513
 21
14.95849128472946
 31
0.0
  0
SPLINE
  5
A9
102
{ACAD_REACTORS
330
C6
102
}
330
48
100
AcDbEntity
  8
_U_30EC_U_30A4_U_30E4_U_30FC_1
  6
Continuous
 62
     2
100
AcDbSpline
210
0.0
220
0.0
230
1.0
 70
    11
 71
     3
 72
    15
 73
    11
 74
     9
 42
0.000000001
 43
0.0000000001
 44
0.00000001
 40
0.0
 40
0.0
 40
0.0
 40
0.0
 40
0.2785535985081815
 40
0.5215624748151892
 40
0.6076917375996809
 40
0.6938210001701044
 40
0.9405019146341393
 40
1.221691403482436
 40
1.300471877076667
 40
1.379252341682768
 40
1.379252341682768
 40
1.379252341682768
 40
1.379252341682768
 10
189.5681493631018
 20
16.22930267330958
 30
0.0
 10
189.6296017794174
 20
16.17691646593049
 30
0.0
 10
189.7446649974062
 20
16.07882876798135
 30
0.0
 10
190.0397348497185
 20
15.92889785897606
 30
0.0
 10
189.9025147631808
 20
15.84343227515356
 30
0.0
 10
189.8041227843754
 20
15.71085785201923
 30
0.0
 10
189.7130033590626
 20
16.01616985781697
 30
0.0
 10
189.3636839480629
 20
16.07967869465496
 30
0.0
 10
189.5119258376575
 20
16.17896509881282
 30
0.0
 10
189.5494081874251
 20
16.21252348402902
 30
0.0
 10
189.5681493631018
 20
16.22930267330958
 30
0.0
 11
189.5681493631018
 21
16.22930267330958
 31
0.0
 11
189.791922244056
 21
16.06341774279053
 31
0.0
 11
189.9695046306333
 21
15.89753281227968
 31
0.0
 11
189.9066308127931
 21
15.83866743034924
 31
0.0
 11
189.8437569949529
 21
15.77980204841879
 31
0.0
 11
189.6688535117746
 21
15.95375677059383
 31
0.0
 11
189.4478256856128
 21
16.12757920110926
 31
0.0
 11
189.5079875243573
 21
16.17844093720942
 31
0.0
 11
189.5681493631018
 21
16.22930267330958
 31
0.0
  0
SPLINE
  5
AA
102
{ACAD_REACTORS
330
C7
102
}
330
48
100
AcDbEntity
  8
_U_30EC_U_30A4_U_30E4_U_30FC_1
  6
Continuous
 62
     2
100
AcDbSpline
210
0.0
220
0.0
230
1.0
 70
    11
 71
     3
 72
    35
 73
    31
 74
    29
 42
0.000000001
 43
0.0000000001
 44
0.00000001
 40
0.0
 40
0.0
 40
0.0
 40
0.0
 40
0.0335231036584835
 40
0.0713218571666382
 40
0.4278866681467452
 40
0.8116865841962722
 40
1.198190238001517
 40
1.561379546815357
 40
1.659983174627268
 40
1.759315573806971
 40
2.132719617232247
 40
2.525233363591037
 40
2.910815397782264
 40
3.265244364304893
 40
3.592606723586802
 40
3.96438615461015
 40
4.359942131744168
 40
4.75815411864469
 40
4.843846538703252
 40
4.936650065543398
 40
5.256616602537754
 40
5.581707404417071
 40
5.899719158309418
 40
6.198363494281335
 40
6.466301046614364
 40
6.493895311535253
 40
6.559697020194122
 40
6.638234543438544
 40
6.704036252149372
 40
6.731630508417746
 40
6.731630508417746
 40
6.731630508417746
 40
6.731630508417746
 10
191.9736010568631
 20
16.23463843718855
 30
0.0
 10
191.9676006097758
 20
16.22480690542131
 30
0.0
 10
191.9548344099132
 20
16.203889885797
 30
0.0
 10
191.7949362006461
 20
16.17127126534648
 30
0.0
 10
192.2322025842331
 20
15.88206680335955
 30
0.0
 10
192.4345394828248
 20
15.6804113835859
 30
0.0
 10
192.6819564267967
 20
15.4374938760346
 30
0.0
 10
193.1831513624705
 20
15.36047662757558
 30
0.0
 10
193.012556219896
 20
15.21876939175234
 30
0.0
 10
192.9383299463271
 20
15.01710366209387
 30
0.0
 10
192.6131432248184
 20
15.36956287175306
 30
0.0
 10
192.3277741670676
 20
15.5317521255991
 30
0.0
 10
192.033760407766
 20
15.7368713005344
 30
0.0
 10
191.8084452691131
 20
16.2182748859589
 30
0.0
 10
191.5993085055529
 20
15.75343046609219
 30
0.0
 10
191.3207873674811
 20
15.54350952252942
 30
0.0
 10
191.0371383177186
 20
15.37424456360331
 30
0.0
 10
190.7078639527766
 20
15.00142360908191
 30
0.0
 10
190.6277012318217
 20
15.19708014459361
 30
0.0
 10
190.4759724909695
 20
15.32491104190242
 30
0.0
 10
190.9083395826782
 20
15.40454031766219
 30
0.0
 10
191.0962565329731
 20
15.60026634915622
 30
0.0
 10
191.3468477420483
 20
15.81632996916851
 30
0.0
 10
191.5714350470147
 20
15.98190992299972
 30
0.0
 10
191.6259775409717
 20
16.26133964636399
 30
0.0
 10
191.7494661029005
 20
16.24737950407713
 30
0.0
 10
191.8060273344506
 20
16.24521268867301
 30
0.0
 10
191.876187098492
 20
16.24046859881042
 30
0.0
 10
191.9333414022074
 20
16.23709429350247
 30
0.0
 10
191.9644190320801
 20
16.23519854710836
 30
0.0
 10
191.9736010568631
 20
16.23463843718855
 30
0.0
 11
191.9736010568631
 21
16.23463843718855
 31
0.0
 11
191.9525319069867
 21
16.20856374969799
 31
0.0
 11
191.9174464559401
 21
16.19450114553911
 31
0.0
 11
192.1512374769067
 21
15.92527961131447
 31
0.0
 11
192.4414585957557
 21
15.67413407969252
 31
0.0
 11
192.76127974837
 21
15.45710987618867
 31
0.0
 11
193.0838708706324
 21
15.2902523263183
 31
0.0
 11
193.0213299868064
 21
15.21402035585174
 31
0.0
 11
192.9688035819017
 21
15.12971197913976
 31
0.0
 11
192.6436279095833
 21
15.31326404832012
 31
0.0
 11
192.3237227768441
 21
15.5407013974384
 31
0.0
 11
192.0354200158608
 21
15.79673855123721
 31
0.0
 11
191.8050514588103
 21
16.06609003445919
 31
0.0
 11
191.5995531719513
 21
15.81126348721074
 31
0.0
 11
191.3288301341513
 21
15.55645182277794
 31
0.0
 11
191.0119538423208
 21
15.31969466355071
 31
0.0
 11
190.6679957933702
 21
15.11903163191892
 31
0.0
 11
190.6218855341322
 21
15.19126067703883
 31
0.0
 11
190.5636970460328
 21
15.26355586798854
 31
0.0
 11
190.8433040488985
 21
15.41911456961852
 31
0.0
 11
191.1093004621127
 21
15.60601009790578
 31
0.0
 11
191.3499997459729
 21
15.81384496285308
 31
0.0
 11
191.5537153607767
 21
16.03222167446323
 31
0.0
 11
191.7087607668218
 21
16.25074274273902
 31
0.0
 11
191.7363041569861
 21
16.24906789496177
 31
0.0
 11
191.8019845489164
 21
16.24507402718526
 31
0.0
 11
191.8803772747686
 21
16.24030715274232
 31
0.0
 11
191.9460576666988
 21
16.2363132849658
 31
0.0
 11
191.9736010568631
 21
16.23463843718855
 31
0.0
  0
SPLINE
  5
AB
102
{ACAD_REACTORS
330
C8
102
}
330
48
100
AcDbEntity
  8
_U_30EC_U_30A4_U_30E4_U_30FC_1
  6
Continuous
 62
     2
100
AcDbSpline
210
0.0
220
0.0
230
1.0
 70
    11
 71
     3
 72
    91
 73
    87
 74
    85
 42
0.000000001
 43
0.0000000001
 44
0.00000001
 40
0.0
 40
0.0
 40
0.0
 40
0.0
 40
0.0267532254356026
 40
0.0856103386461953
 40
0.1444674521992997
 40
0.1712206856614216
 40
0.2039416005638237
 40
0.2955601971649038
 40
0.4362601844614609
 40
0.6162252844506362
 40
0.8256392189705515
 40
1.05468570984472
 40
1.293548478893982
 40
1.532411247938896
 40
1.761457738800332
 40
1.970871673299442
 40
2.150836773257809
 40
2.291536760496755
 40
2.383155356837947
 40
2.415876284102596
 40
2.442629517489171
 40
2.501486630950155
 40
2.560343744425155
 40
2.58709697782736
 40
2.617068194441759
 40
2.699247336756929
 40
2.822032643467185
 40
2.973822353258714
 40
3.1430147048241
 40
3.31800793688065
 40
3.487200288187483
 40
3.638989997548935
 40
3.761775303795434
 40
3.843954445753741
 40
3.873925662230437
 40
3.890812773497687
 40
3.907699884765409
 40
3.937960767852168
 40
3.980983618139353
 40
4.199085915223622
 40
4.439444339229897
 40
4.677588241252304
 40
5.050698317827155
 40
5.448212454752508
 40
5.855291218034061
 40
6.138575438874375
 40
6.417434507570817
 40
6.444551104379861
 40
6.504207617347828
 40
6.563864130297794
 40
6.590980727086748
 40
6.84860946036219
 40
7.109611990648374
 40
7.352910904425961
 40
7.557830220685944
 40
7.587518925892822
 40
7.652834077352973
 40
7.718149228820667
 40
7.747837934035931
 40
7.854880190277457
 40
7.976511257373304
 40
8.369487896566685
 40
8.757514959200098
 40
9.126072419308013
 40
9.46063938036868
 40
9.74669559301196
 40
9.777569943095973
 40
9.807050320915112
 40
9.830377336112674
 40
9.886003295420775
 40
9.952395569415904
 40
10.0080215286933
 40
10.03134854386964
 40
10.21356951008419
 40
10.42203479291852
 40
10.66154556729885
 40
10.91693789562858
 40
11.15832906555021
 40
11.18982674595064
 40
11.27286608518809
 40
11.39026653031702
 40
11.52484752839176
 40
11.65942852646676
 40
11.77682897159663
 40
11.85986831083823
 40
11.89136598228554
 40
11.89136598228554
 40
11.89136598228554
 40
11.89136598228554
 10
190.702788500821
 20
14.70699600701846
 30
0.0
 10
190.7028237765302
 20
14.71587847312057
 30
0.0
 10
190.702936671081
 20
14.74430237047411
 30
0.0
 10
190.7012984568502
 20
14.79409639169855
 30
0.0
 10
190.7069750292924
 20
14.83657564478196
 30
0.0
 10
190.6956928731721
 20
14.88730154856878
 30
0.0
 10
190.7632296979046
 20
14.87012900740138
 30
0.0
 10
190.8388029210715
 20
14.88290227166027
 30
0.0
 10
190.9828357056017
 20
14.87629729457413
 30
0.0
 10
191.1569419185444
 20
14.87888462206497
 30
0.0
 10
191.3639599611022
 20
14.87800591955584
 30
0.0
 10
191.5894688172398
 20
14.87828207920058
 30
0.0
 10
191.8251162293428
 20
14.87818339658694
 30
0.0
 10
192.0607640531372
 20
14.87828184412798
 30
0.0
 10
192.2862717580652
 20
14.87800678190819
 30
0.0
 10
192.4932934632832
 20
14.87888186270766
 30
0.0
 10
192.6673888915317
 20
14.87630522678477
 30
0.0
 10
192.8114492072015
 20
14.88288290449245
 30
0.0
 10
192.8869691915324
 20
14.87016243405634
 30
0.0
 10
192.954577603706
 20
14.88726400191718
 30
0.0
 10
192.9430840140707
 20
14.83674785802983
 30
0.0
 10
192.9505104581764
 20
14.79253252226554
 30
0.0
 10
192.9428838928017
 20
14.74867966503673
 30
0.0
 10
192.9546489459456
 20
14.69878374479402
 30
0.0
 10
192.8930788492014
 20
14.71393227712587
 30
0.0
 10
192.8256791738702
 20
14.70310665350747
 30
0.0
 10
192.7013004056253
 20
14.7085203162631
 30
0.0
 10
192.5554428236602
 20
14.70649205390859
 30
0.0
 10
192.3893576440117
 20
14.70715777578461
 30
0.0
 10
192.2188412621757
 20
14.70689643521315
 30
0.0
 10
192.051979085542
 20
14.70721553391172
 30
0.0
 10
191.9087346827141
 20
14.70635302590822
 30
0.0
 10
191.777331386986
 20
14.70863300483096
 30
0.0
 10
191.7239859134701
 20
14.70407704374216
 30
0.0
 10
191.6485188456953
 20
14.70999914992997
 30
0.0
 10
191.6769075779229
 20
14.70094169343473
 30
0.0
 10
191.7033652409498
 20
14.6972591226895
 30
0.0
 10
191.6633522907671
 20
14.6665427196799
 30
0.0
 10
191.5713663691816
 20
14.67667591174864
 30
0.0
 10
191.5439396207046
 20
14.43032502247705
 30
0.0
 10
191.4478793967253
 20
14.27499558764348
 30
0.0
 10
191.1917277964475
 20
13.94525417931876
 30
0.0
 10
191.7627537732755
 20
14.08430022210896
 30
0.0
 10
192.0173656320503
 20
14.08291779973742
 30
0.0
 10
192.6279647048586
 20
13.99790569242382
 30
0.0
 10
192.334069857811
 20
14.29685417558681
 30
0.0
 10
192.0133304286516
 20
14.44330856902121
 30
0.0
 10
192.1313543360433
 20
14.50025540818326
 30
0.0
 10
192.1724716466255
 20
14.52420099873236
 30
0.0
 10
192.2156812394402
 20
14.5459975881098
 30
0.0
 10
192.3174574094438
 20
14.60928721253332
 30
0.0
 10
192.4328867625244
 20
14.35147151408861
 30
0.0
 10
192.6329591642282
 20
14.21616041113858
 30
0.0
 10
192.7269077387248
 20
14.03792795139185
 30
0.0
 10
192.9558829746366
 20
13.87997821027041
 30
0.0
 10
192.8596031846698
 20
13.8291597257629
 30
0.0
 10
192.8167959763784
 20
13.79881292523131
 30
0.0
 10
192.7718243528801
 20
13.77466130281574
 30
0.0
 10
192.7121720925244
 20
13.7255214674774
 30
0.0
 10
192.6789731061318
 20
13.85997475673403
 30
0.0
 10
192.558201335085
 20
14.01594265286734
 30
0.0
 10
192.1970976005971
 20
13.88569928059614
 30
0.0
 10
191.8385061955539
 20
13.90224694409817
 30
0.0
 10
191.4570920450031
 20
13.89331229352436
 30
0.0
 10
191.1703455282956
 20
13.82882671672334
 30
0.0
 10
190.8592055599527
 20
13.94230668193931
 30
0.0
 10
190.8268737818822
 20
13.83122259927252
 30
0.0
 10
190.7896178253276
 20
13.81196313849573
 30
0.0
 10
190.7865737632725
 20
13.85874784087
 30
0.0
 10
190.7679892860587
 20
13.89806853919073
 30
0.0
 10
190.7512436616774
 20
13.95765983478295
 30
0.0
 10
190.738373091576
 20
14.00201969871473
 30
0.0
 10
190.704232780646
 20
14.09106331120571
 30
0.0
 10
190.9482714457773
 20
14.02181042943866
 30
0.0
 10
191.1441394486703
 20
14.00030369058198
 30
0.0
 10
191.2395426381314
 20
14.28226484478576
 30
0.0
 10
191.2945135769625
 20
14.44363045421234
 30
0.0
 10
191.5159619357131
 20
14.71391177589813
 30
0.0
 10
191.38492393812
 20
14.70548446853809
 30
0.0
 10
191.311002655584
 20
14.70779008497044
 30
0.0
 10
191.1977459876235
 20
14.70671378321732
 30
0.0
 10
191.0694251807482
 20
14.70707639076584
 30
0.0
 10
190.9404252030417
 20
14.70697724466159
 30
0.0
 10
190.82878409463
 20
14.70699932712646
 30
0.0
 10
190.7514663970037
 20
14.70699579189744
 30
0.0
 10
190.7132876532023
 20
14.70699595845155
 30
0.0
 10
190.702788500821
 20
14.70699600701846
 30
0.0
 11
190.702788500821
 21
14.70699600701846
 31
0.0
 11
190.702788500821
 21
14.73374924051865
 31
0.0
 11
190.702788500821
 21
14.79260635421906
 31
0.0
 11
190.702788500821
 21
14.85146346791947
 31
0.0
 11
190.702788500821
 21
14.87821670141966
 31
0.0
 11
190.7355094281003
 21
14.87821670141966
 31
0.0
 11
190.8271280244824
 21
14.87821670141966
 31
0.0
 11
190.9678280117834
 21
14.87821670141966
 31
0.0
 11
191.1477931118197
 21
14.87821670141966
 31
0.0
 11
191.3572070464073
 21
14.87821670141966
 31
0.0
 11
191.5862535373625
 21
14.87821670141966
 31
0.0
 11
191.8251163065015
 21
14.87821670141966
 31
0.0
 11
192.0639790756405
 21
14.87821670141966
 31
0.0
 11
192.2930255665957
 21
14.87821670141966
 31
0.0
 11
192.5024395011833
 21
14.87821670141966
 31
0.0
 11
192.6824046012196
 21
14.87821670141966
 31
0.0
 11
192.8231045885206
 21
14.87821670141966
 31
0.0
 11
192.9147231849027
 21
14.87821670141966
 31
0.0
 11
192.947444112182
 21
14.87821670141966
 31
0.0
 11
192.947444112182
 21
14.85146346791947
 31
0.0
 11
192.947444112182
 21
14.79260635421906
 31
0.0
 11
192.947444112182
 21
14.73374924051865
 31
0.0
 11
192.947444112182
 21
14.70699600701846
 31
0.0
 11
192.9174728954789
 21
14.70699600701846
 31
0.0
 11
192.8352937529058
 21
14.70699600701846
 31
0.0
 11
192.7125084457671
 21
14.70699600701846
 31
0.0
 11
192.5607187353673
 21
14.70699600701846
 31
0.0
 11
192.391526383011
 21
14.70699600701846
 31
0.0
 11
192.2165331500023
 21
14.70699600701846
 31
0.0
 11
192.0473407976459
 21
14.70699600701846
 31
0.0
 11
191.8955510872461
 21
14.70699600701846
 31
0.0
 11
191.7727657801074
 21
14.70699600701846
 31
0.0
 11
191.6905866375343
 21
14.70699600701846
 31
0.0
 11
191.6606154208312
 21
14.70699600701846
 31
0.0
 11
191.6766359412522
 21
14.70165583340895
 31
0.0
 11
191.6926564616733
 21
14.69631565979944
 31
0.0
 11
191.6706155681391
 21
14.67558114591316
 31
0.0
 11
191.6284861855311
 21
14.66685871535992
 31
0.0
 11
191.5365235541353
 21
14.46909247312619
 31
0.0
 11
191.4279078521776
 21
14.25467511978564
 31
0.0
 11
191.3127500824812
 21
14.04622559051859
 31
0.0
 11
191.6857366675004
 21
14.05582441253419
 31
0.0
 11
192.0830700036134
 21
14.0678123240537
 31
0.0
 11
192.4899342191129
 21
14.08102711828906
 31
0.0
 11
192.298311949698
 21
14.28966761302968
 31
0.0
 11
192.0966752013701
 21
14.48229420151984
 31
0.0
 11
192.1204947794749
 21
14.49525327269635
 31
0.0
 11
192.1728978513056
 21
14.52376322928467
 31
0.0
 11
192.2253009231362
 21
14.55227318587299
 31
0.0
 11
192.2491205012411
 21
14.5652322570495
 31
0.0
 11
192.4387101558619
 21
14.39079508370256
 31
0.0
 11
192.620031094044
 21
14.20305846374299
 31
0.0
 11
192.7777729231151
 21
14.01782380992652
 31
0.0
 11
192.8966252504033
 21
13.85089253500883
 31
0.0
 11
192.8715408217907
 21
13.83501202286044
 31
0.0
 11
192.8163550788431
 21
13.800074896134
 31
0.0
 11
192.7611693358955
 21
13.76513776940754
 31
0.0
 11
192.7360849072829
 21
13.74925725725916
 31
0.0
 11
192.6775518151608
 21
13.83887824682051
 31
0.0
 11
192.6050015078508
 21
13.93650288220852
 31
0.0
 11
192.2125412924098
 21
13.91636286943893
 31
0.0
 11
191.8249474069542
 21
13.89803303000108
 31
0.0
 11
191.4567378976189
 21
13.88202178722802
 31
0.0
 11
191.1224308105393
 21
13.8688375644528
 31
0.0
 11
190.8365441918504
 21
13.85898878500848
 31
0.0
 11
190.8211862321764
 21
13.83220523466434
 31
0.0
 11
190.7937434290507
 21
13.82143559056931
 31
0.0
 11
190.7867927192286
 21
13.84370299445326
 31
0.0
 11
190.7702179496528
 21
13.89680218833036
 31
0.0
 11
190.7504351601592
 21
13.96017864553852
 31
0.0
 11
190.7338603905834
 21
14.01327783941562
 31
0.0
 11
190.7269096807613
 21
14.03554524329957
 31
0.0
 11
190.9091199859176
 21
14.03751638913173
 31
0.0
 11
191.1174975848626
 21
14.04356211829872
 31
0.0
 11
191.2303203127252
 21
14.2548355030178
 31
0.0
 11
191.3407936722048
 21
14.48509813155922
 31
0.0
 11
191.4358254265608
 21
14.70699600701846
 31
0.0
 11
191.4043277461579
 21
14.70699600701846
 31
0.0
 11
191.321288406914
 21
14.70699600701846
 31
0.0
 11
191.2038879617759
 21
14.70699600701846
 31
0.0
 11
191.0693069636909
 21
14.70699600701846
 31
0.0
 11
190.9347259656058
 21
14.70699600701846
 31
0.0
 11
190.8173255204678
 21
14.70699600701846
 31
0.0
 11
190.7342861812239
 21
14.70699600701846
 31
0.0
 11
190.702788500821
 21
14.70699600701846
 31
0.0
  0
SPLINE
  5
AC
102
{ACAD_REACTORS
330
C9
102
}
330
48
100
AcDbEntity
  8
_U_30EC_U_30A4_U_30E4_U_30FC_1
  6
Continuous
 62
     2
100
AcDbSpline
210
0.0
220
0.0
230
1.0
 70
    11
 71
     3
 72
   131
 73
   127
 74
   125
 42
0.000000001
 43
0.0000000001
 44
0.00000001
 40
0.0
 40
0.0
 40
0.0
 40
0.0
 40
0.019557702986112
 40
0.0426490537516497
 40
0.286360757590459
 40
0.5344948436235173
 40
0.7842238845612918
 40
0.8737315789517236
 40
0.9803832810373974
 40
1.092842274524209
 40
1.199761146664937
 40
1.289788768195492
 40
1.35157358079576
 40
1.370727117570484
 40
1.416400936025631
 40
1.470914848362306
 40
1.516588666796865
 40
1.535742203557427
 40
1.634216592297695
 40
1.76028334118029
 40
1.897966686686875
 40
2.031216387369577
 40
2.049689751138541
 40
2.101115601647385
 40
2.179502577740362
 40
2.278859318314304
 40
2.393194462258761
 40
2.516516648383658
 40
2.642834515405559
 40
2.766156701982848
 40
2.88049184675376
 40
2.979848588357627
 40
3.058235565442667
 40
3.109661416667731
 40
3.128134780702875
 40
3.146783742385276
 40
3.191254343314109
 40
3.244332157314853
 40
3.288802758224757
 40
3.307451719894056
 40
3.327717853843769
 40
3.383747753579398
 40
3.468388665924201
 40
3.574487837699019
 40
3.694892515729708
 40
3.822449946853464
 40
3.950007377922474
 40
4.070412055803148
 40
4.176511227371215
 40
4.261152139505073
 40
4.317182039080537
 40
4.337448172968555
 40
4.620011002705176
 40
4.88509663840733
 40
4.945373043527416
 40
5.014107710498792
 40
5.070481727659849
 40
5.319246955645331
 40
5.584812164515355
 40
5.859000912066067
 40
6.13374693755044
 40
6.401732212975985
 40
6.420736684002576
 40
6.47284571745817
 40
6.550702743901097
 40
6.646951193881278
 40
6.754234497937545
 40
6.865196086594294
 40
6.972479390364696
 40
7.06872783977883
 40
7.14658486545781
 40
7.198693898196011
 40
7.217698368912152
 40
7.234950401637152
 40
7.276089864275051
 40
7.325191803519796
 40
7.366331266093039
 40
7.383583298771911
 40
7.402779163494658
 40
7.45338644325797
 40
7.524934666450279
 40
7.60695336141204
 40
7.688972056436669
 40
7.760520279793199
 40
7.81112755974435
 40
7.830323424556313
 40
7.847844055310104
 40
7.894799345677595
 40
7.962779392755924
 40
8.043374293572736
 40
8.128174145162449
 40
8.208769044831014
 40
8.27674909039136
 40
8.323704379684367
 40
8.341225010071264
 40
8.358497614814835
 40
8.401679126699484
 40
8.457815092196554
 40
8.513951057736998
 40
8.557132569715426
 40
8.574405174511863
 40
8.602340668625212
 40
8.643455660543482
 40
8.66322527197047
 40
8.715345156568953
 40
8.789031889634474
 40
8.873502045527562
 40
8.957972194332545
 40
9.031658925577622
 40
9.083778811245152
 40
9.103548423013931
 40
9.119550083134184
 40
9.16081752238969
 40
9.217244429119004
 40
9.278724491652353
 40
9.335151398302086
 40
9.376418837363586
 40
9.39242049730609
 40
9.401196302741093
 40
9.417494229391988
 40
9.426270027758045
 40
9.440875075486504
 40
9.475702497008827
 40
9.517270709877307
 40
9.552098132006595
 40
9.566703169897254
 40
9.566703169897254
 40
9.566703169897254
 40
9.566703169897254
 10
194.6170254148528
 20
15.67015871510921
 30
0.0
 10
194.6134345093402
 20
15.66453690702033
 30
0.0
 10
194.6056039123619
 20
15.65227754419004
 30
0.0
 10
194.5129968974484
 20
15.61601916042035
 30
0.0
 10
194.4887622233289
 20
15.40148444212095
 30
0.0
 10
194.3858709845944
 20
15.22197284509754
 30
0.0
 10
194.1220492364241
 20
15.03615573798527
 30
0.0
 10
194.2845471569144
 20
14.95959336566568
 30
0.0
 10
194.3607225760805
 20
14.89856693195851
 30
0.0
 10
194.4492171072732
 20
14.83515804545053
 30
0.0
 10
194.5389930233083
 20
14.77525634219685
 30
0.0
 10
194.5883817636018
 20
14.72102154849205
 30
0.0
 10
194.6745708157343
 20
14.69286240541625
 30
0.0
 10
194.6411260674202
 20
14.65713309652632
 30
0.0
 10
194.621467116629
 20
14.62550387991777
 30
0.0
 10
194.5919888217874
 20
14.58475872796031
 30
0.0
 10
194.5688989446032
 20
14.55504663489657
 30
0.0
 10
194.5380205968367
 20
14.50211422668551
 30
0.0
 10
194.4729193365749
 20
14.62740334939061
 30
0.0
 10
194.3796000122424
 20
14.68213900234058
 30
0.0
 10
194.2950636285155
 20
14.73916423939379
 30
0.0
 10
194.1722498125771
 20
14.89675287427105
 30
0.0
 10
194.1764450847333
 20
14.82035806766563
 30
0.0
 10
194.1751478652708
 20
14.77361280161035
 30
0.0
 10
194.1758126448109
 20
14.69584785812351
 30
0.0
 10
194.1755549986987
 20
14.59902068324192
 30
0.0
 10
194.1756431239952
 20
14.48650279078597
 30
0.0
 10
194.1756077302312
 20
14.36524085945509
 30
0.0
 10
194.1756511758309
 20
14.24086897858792
 30
0.0
 10
194.1755199942436
 20
14.11967683631189
 30
0.0
 10
194.1759477562077
 20
14.00691148919616
 30
0.0
 10
194.1746678202341
 20
13.91082913768633
 30
0.0
 10
194.1779759851075
 20
13.83113826468604
 30
0.0
 10
194.1715197740117
 20
13.78815175788694
 30
0.0
 10
194.1806208705587
 20
13.74955432371957
 30
0.0
 10
194.1447910339965
 20
13.75810887723988
 30
0.0
 10
194.1115223815282
 20
13.75342519985363
 30
0.0
 10
194.0604562576071
 20
13.75351298759701
 30
0.0
 10
194.0269723972841
 20
13.75794430283737
 30
0.0
 10
193.9907585408782
 20
13.74960793842425
 30
0.0
 10
194.0009782568695
 20
13.7914527717922
 30
0.0
 10
193.9936487887802
 20
13.83778560820131
 30
0.0
 10
193.9973633136131
 20
13.92374831106013
 30
0.0
 10
193.9959480554924
 20
14.02605142704897
 30
0.0
 10
193.9964105554667
 20
14.14453223931618
 30
0.0
 10
193.9962773686259
 20
14.26957683153522
 30
0.0
 10
193.9963015910074
 20
14.39475828107277
 30
0.0
 10
193.996335492558
 20
14.51286645379342
 30
0.0
 10
193.9962060293161
 20
14.61628748709851
 30
0.0
 10
193.996550754911
 20
14.6993203615404
 30
0.0
 10
193.9958698278718
 20
14.75143368521644
 30
0.0
 10
193.9994586600653
 20
14.87912907821946
 30
0.0
 10
193.7826171386462
 20
14.58048716819586
 30
0.0
 10
193.6021354921944
 20
14.35263981511591
 30
0.0
 10
193.5490322295592
 20
14.49373443289837
 30
0.0
 10
193.5200429133132
 20
14.54325767560903
 30
0.0
 10
193.4196648062841
 20
14.64641779790228
 30
0.0
 10
193.740512772326
 20
14.72695035023873
 30
0.0
 10
193.868989700543
 20
14.91066283036648
 30
0.0
 10
194.0906454325349
 20
15.11931995772025
 30
0.0
 10
194.1770224894051
 20
15.29339211228619
 30
0.0
 10
194.4549394229018
 20
15.56967051342851
 30
0.0
 10
194.3346247839229
 20
15.56534559551445
 30
0.0
 10
194.2863197351296
 20
15.56614856202887
 30
0.0
 10
194.2102377454851
 20
15.56574582146916
 30
0.0
 10
194.1167010009697
 20
15.56590275611942
 30
0.0
 10
194.0117594788504
 20
15.56582502576558
 30
0.0
 10
193.9033887738665
 20
15.56595464378887
 30
0.0
 10
193.7981454235845
 20
15.56554393491024
 30
0.0
 10
193.7056237819361
 20
15.56682073671925
 30
0.0
 10
193.6268130800656
 20
15.56340766535179
 30
0.0
 10
193.5839674565329
 20
15.57023350036659
 30
0.0
 10
193.5449499586466
 20
15.56065064201454
 30
0.0
 10
193.5526365271812
 20
15.59420779565792
 30
0.0
 10
193.5485464404261
 20
15.62523550322403
 30
0.0
 10
193.5485531368764
 20
15.67236529270934
 30
0.0
 10
193.5526239724859
 20
15.70340941646736
 30
0.0
 10
193.5449495574533
 20
15.73701861635786
 30
0.0
 10
193.5834819405451
 20
15.72748410420727
 30
0.0
 10
193.6241228014442
 20
15.73397435497952
 30
0.0
 10
193.6951471850439
 20
15.73100150650123
 30
0.0
 10
193.7729318149622
 20
15.7317476139903
 30
0.0
 10
193.8507292246476
 20
15.73247814044399
 30
0.0
 10
193.9217232089924
 20
15.72954235514028
 30
0.0
 10
193.9624279791842
 20
15.73595468772832
 30
0.0
 10
194.0009853489939
 20
15.72650524175866
 30
0.0
 10
193.9927342754956
 20
15.76264692158684
 30
0.0
 10
193.9982346669388
 20
15.80129837613165
 30
0.0
 10
193.995575420619
 20
15.8691352856184
 30
0.0
 10
193.9965815471563
 20
15.94591641538815
 30
0.0
 10
193.9960178018347
 20
16.0284939358291
 30
0.0
 10
193.9970714526621
 20
16.10517329230102
 30
0.0
 10
193.9942675863158
 20
16.17331990776993
 30
0.0
 10
194.0000702721334
 20
16.21132399809667
 30
0.0
 10
193.9915654551186
 20
16.24758448077981
 30
0.0
 10
194.0255610233143
 20
16.23755723772256
 30
0.0
 10
194.0594575683106
 20
16.24073266814113
 30
0.0
 10
194.1126669060336
 20
16.23508965641074
 30
0.0
 10
194.1660768574448
 20
16.23434774436955
 30
0.0
 10
194.1995914649458
 20
16.22819223483501
 30
0.0
 10
194.238808618298
 20
16.23346029774244
 30
0.0
 10
194.2120263698547
 20
16.19253380793421
 30
0.0
 10
194.1708111001748
 20
16.20371204538632
 30
0.0
 10
194.178264154091
 20
16.15867056192613
 30
0.0
 10
194.1742227952212
 20
16.11412278028668
 30
0.0
 10
194.1761714049672
 20
16.04223572622062
 30
0.0
 10
194.1752364849789
 20
15.96168630589016
 30
0.0
 10
194.176510719006
 20
15.88173995405108
 30
0.0
 10
194.1732043793895
 20
15.80841837083175
 30
0.0
 10
194.1802106179992
 20
15.76688643002503
 30
0.0
 10
194.1701440380156
 20
15.72752418567994
 30
0.0
 10
194.2029814803946
 20
15.73468063430841
 30
0.0
 10
194.23645772965
 20
15.73027243137822
 30
0.0
 10
194.2915053476028
 20
15.73217943347768
 30
0.0
 10
194.3489502595313
 20
15.7318536640716
 30
0.0
 10
194.4023026248299
 20
15.73106308732955
 30
0.0
 10
194.4398540896619
 20
15.73313959117942
 30
0.0
 10
194.4623172523218
 20
15.7302233816698
 30
0.0
 10
194.4751678073716
 20
15.73572552643979
 30
0.0
 10
194.4858255685884
 20
15.73801118197741
 30
0.0
 10
194.4986635650146
 20
15.74494972588077
 30
0.0
 10
194.5145991033081
 20
15.72853046313654
 30
0.0
 10
194.5410623920912
 20
15.71709122319418
 30
0.0
 10
194.572680525379
 20
15.69644687835124
 30
0.0
 10
194.5987255892194
 20
15.68116869628206
 30
0.0
 10
194.6128517724021
 20
15.67266976323081
 30
0.0
 10
194.6170254148528
 20
15.67015871510921
 30
0.0
 11
194.6170254148528
 21
15.67015871510921
 31
0.0
 11
194.6049990002239
 21
15.65473571164057
 31
0.0
 11
194.5848961795527
 21
15.64337406233972
 31
0.0
 11
194.4778986355824
 21
15.42440620231052
 31
0.0
 11
194.3477039934322
 21
15.21317201512162
 31
0.0
 11
194.1996540366017
 21
15.01206059027936
 31
0.0
 11
194.2734958253694
 21
14.96147384935847
 31
0.0
 11
194.3605664311768
 21
14.89988411654141
 31
0.0
 11
194.4518003750377
 21
14.83413160594705
 31
0.0
 11
194.538132177966
 21
14.77105653169423
 31
0.0
 11
194.6104963609757
 21
14.71749910790183
 31
0.0
 11
194.6598274450807
 21
14.68029954868871
 31
0.0
 11
194.6486940702182
 21
14.66471410869292
 31
0.0
 11
194.6221452532383
 21
14.62754882870296
 31
0.0
 11
194.5904579555526
 21
14.58319026871494
 31
0.0
 11
194.5639091385726
 21
14.54602498872498
 31
0.0
 11
194.5527757637101
 21
14.53043954872919
 31
0.0
 11
194.4807013362959
 21
14.59754008690709
 31
0.0
 11
194.3852856985386
 21
14.67993354174814
 31
0.0
 11
194.2793264152176
 21
14.7678501736699
 31
0.0
 11
194.1756210511121
 21
14.85152024308991
 31
0.0
 11
194.1756210511121
 21
14.8330468790059
 31
0.0
 11
194.1756210511121
 21
14.78162102763691
 31
0.0
 11
194.1756210511121
 21
14.70323405030749
 31
0.0
 11
194.1756210511121
 21
14.60387730834216
 31
0.0
 11
194.1756210511121
 21
14.48954216306548
 31
0.0
 11
194.1756210511121
 21
14.36621997580198
 31
0.0
 11
194.1756210511121
 21
14.23990210787622
 31
0.0
 11
194.1756210511121
 21
14.11657992061272
 31
0.0
 11
194.1756210511121
 21
14.00224477533604
 31
0.0
 11
194.1756210511121
 21
13.90288803337071
 31
0.0
 11
194.1756210511121
 21
13.82450105604128
 31
0.0
 11
194.1756210511121
 21
13.77307520467229
 31
0.0
 11
194.1756210511121
 21
13.75460184058829
 31
0.0
 11
194.1569720893656
 21
13.75460184058829
 31
0.0
 11
194.112501488278
 21
13.75460184058829
 31
0.0
 11
194.0594236740765
 21
13.75460184058829
 31
0.0
 11
194.0149530729889
 21
13.75460184058829
 31
0.0
 11
193.9963041112424
 21
13.75460184058829
 31
0.0
 11
193.9963041112424
 21
13.77486797460146
 31
0.0
 11
193.9963041112424
 21
13.8308978745202
 31
0.0
 11
193.9963041112424
 21
13.91553878716342
 31
0.0
 11
193.9963041112424
 21
14.02163795934999
 31
0.0
 11
193.9963041112424
 21
14.1420426378988
 31
0.0
 11
193.9963041112424
 21
14.26960006962872
 31
0.0
 11
193.9963041112424
 21
14.39715750135864
 31
0.0
 11
193.9963041112424
 21
14.51756217990745
 31
0.0
 11
193.9963041112424
 21
14.62366135209401
 31
0.0
 11
193.9963041112424
 21
14.70830226473723
 31
0.0
 11
193.9963041112424
 21
14.76433216465599
 31
0.0
 11
193.9963041112424
 21
14.78459829866915
 31
0.0
 11
193.7883272849485
 21
14.59331998274001
 31
0.0
 11
193.576348635841
 21
14.43414885430866
 31
0.0
 11
193.5495629014467
 21
14.48814671952069
 31
0.0
 11
193.5138765415005
 21
14.54689140572096
 31
0.0
 11
193.4799697494127
 21
14.59192871537925
 31
0.0
 11
193.6830287742321
 21
14.73563387201176
 31
0.0
 11
193.8818531958261
 21
14.91168423530213
 31
0.0
 11
194.0677041444171
 21
15.11327514525229
 31
0.0
 11
194.2318427502279
 21
15.33360194186417
 31
0.0
 11
194.365530143481
 21
15.56585996513968
 31
0.0
 11
194.3465256724428
 21
15.56585996513968
 31
0.0
 11
194.2944166389508
 21
15.56585996513968
 31
0.0
 11
194.2165596124394
 21
15.56585996513968
 31
0.0
 11
194.1203111623425
 21
15.56585996513968
 31
0.0
 11
194.0130278580944
 21
15.56585996513968
 31
0.0
 11
193.9020662691293
 21
15.56585996513968
 31
0.0
 11
193.7947829648812
 21
15.56585996513968
 31
0.0
 11
193.6985345147843
 21
15.56585996513968
 31
0.0
 11
193.6206774882729
 21
15.56585996513968
 31
0.0
 11
193.5685684547809
 21
15.56585996513968
 31
0.0
 11
193.5495639837427
 21
15.56585996513968
 31
0.0
 11
193.5495639837427
 21
15.58311199791267
 31
0.0
 11
193.5495639837427
 21
15.62425146067902
 31
0.0
 11
193.5495639837427
 21
15.67335340010983
 31
0.0
 11
193.5495639837427
 21
15.71449286287618
 31
0.0
 11
193.5495639837427
 21
15.73174489564917
 31
0.0
 11
193.5687598485962
 21
15.73174489564917
 31
0.0
 11
193.6193671286645
 21
15.73174489564917
 31
0.0
 11
193.6909153522094
 21
15.73174489564917
 31
0.0
 11
193.7729340474926
 21
15.73174489564917
 31
0.0
 11
193.8549527427757
 21
15.73174489564917
 31
0.0
 11
193.9265009663206
 21
15.73174489564917
 31
0.0
 11
193.9771082463889
 21
15.73174489564917
 31
0.0
 11
193.9963041112424
 21
15.73174489564917
 31
0.0
 11
193.9963041112424
 21
15.74926552655106
 31
0.0
 11
193.9963041112424
 21
15.79622081736815
 31
0.0
 11
193.9963041112424
 21
15.8642008652675
 31
0.0
 11
193.9963041112424
 21
15.94479576741622
 31
0.0
 11
193.9963041112424
 21
16.0295956209814
 31
0.0
 11
193.9963041112424
 21
16.11019052313013
 31
0.0
 11
193.9963041112424
 21
16.17817057102948
 31
0.0
 11
193.9963041112424
 21
16.22512586184656
 31
0.0
 11
193.9963041112424
 21
16.24264649274846
 31
0.0
 11
194.0135484112134
 21
16.24165806167891
 31
0.0
 11
194.0566591611409
 21
16.23918698400504
 31
0.0
 11
194.1127031360465
 21
16.23597458302902
 31
0.0
 11
194.1687471109522
 21
16.23276218205299
 31
0.0
 11
194.2118578608797
 21
16.23029110437913
 31
0.0
 11
194.2291021608507
 21
16.22930267330958
 31
0.0
 11
194.2143774674846
 21
16.20556293372692
 31
0.0
 11
194.1756210511121
 21
16.19183767331924
 31
0.0
 11
194.1756210511121
 21
16.17206806177873
 31
0.0
 11
194.1756210511121
 21
16.11994817680829
 31
0.0
 11
194.1756210511121
 21
16.04626144288457
 31
0.0
 11
194.1756210511121
 21
15.96179128448421
 31
0.0
 11
194.1756210511121
 21
15.87732112608384
 31
0.0
 11
194.1756210511121
 21
15.80363439216012
 31
0.0
 11
194.1756210511121
 21
15.75151450718968
 31
0.0
 11
194.1756210511121
 21
15.73174489564917
 31
0.0
 11
194.1916227112964
 21
15.73174489564917
 31
0.0
 11
194.232890150719
 21
15.73174489564917
 31
0.0
 11
194.2893170576847
 21
15.73174489564917
 31
0.0
 11
194.350797120498
 21
15.73174489564917
 31
0.0
 11
194.4072240274636
 21
15.73174489564917
 31
0.0
 11
194.4484914668862
 21
15.73174489564917
 31
0.0
 11
194.4644931270705
 21
15.73174489564917
 31
0.0
 11
194.4728206422909
 21
15.73451387455828
 31
0.0
 11
194.4882860277
 21
15.7396562639609
 31
0.0
 11
194.4966135429204
 21
15.74242524287001
 31
0.0
 11
194.5091363776014
 21
15.73490952398289
 31
0.0
 11
194.5389985218406
 21
15.71698742509821
 31
0.0
 11
194.5746404359326
 21
15.69559653288101
 31
0.0
 11
194.6045025801718
 21
15.67767443399633
 31
0.0
 11
194.6170254148528
 21
15.67015871510921
 31
0.0
  0
SPLINE
  5
AD
102
{ACAD_REACTORS
330
CA
102
}
330
48
100
AcDbEntity
  8
_U_30EC_U_30A4_U_30E4_U_30FC_1
  6
Continuous
 62
     2
100
AcDbSpline
210
0.0
220
0.0
230
1.0
 70
    11
 71
     3
 72
   124
 73
   120
 74
   118
 42
0.000000001
 43
0.0000000001
 44
0.00000001
 40
0.0
 40
0.0
 40
0.0
 40
0.0
 40
0.0278187229623658
 40
0.101159016238029
 40
0.2048470170581712
 40
0.3237088716546171
 40
0.4425707262504378
 40
0.5462587270677662
 40
0.6195990203287071
 40
0.6474177522552796
 40
0.6750060736098473
 40
0.7357003855246027
 40
0.796394699807778
 40
0.8239830245604203
 40
0.8540933811135296
 40
0.9373396629441124
 40
1.063094687346336
 40
1.220731268641089
 40
1.399622220917622
 40
1.589140358640493
 40
1.77865849642646
 40
1.957549448943013
 40
2.11518603087555
 40
2.240941056916768
 40
2.324187341762781
 40
2.354297700111631
 40
2.381886024675048
 40
2.442580338715641
 40
2.503274652757667
 40
2.530862977322685
 40
2.560983949286354
 40
2.640393784459904
 40
2.75266286176499
 40
2.881361560122699
 40
3.010060258458467
 40
3.122329335707534
 40
3.201739170819324
 40
3.2318601427544
 40
3.264298024031489
 40
3.352343701779449
 40
3.482095226870103
 40
3.639650650174524
 40
3.811108022567155
 40
3.982565394929835
 40
4.140120818154579
 40
4.26987234314342
 40
4.357918020804569
 40
4.390355902046232
 40
4.423256253994318
 40
4.50810453007356
 40
4.624121560635538
 40
4.750528176028362
 40
4.866545206597075
 40
4.951393482685753
 40
4.984293834638643
 40
5.011450833234863
 40
5.071196230143118
 40
5.130941627046664
 40
5.158098625637636
 40
5.190998977589758
 40
5.275847253676333
 40
5.391864284242033
 40
5.518270899631674
 40
5.634287930190923
 40
5.719136206268318
 40
5.752036558215722
 40
5.782130946262728
 40
5.862783906208844
 40
5.979550131754633
 40
6.117984316619942
 40
6.263641154567382
 40
6.402075339393494
 40
6.518841564887205
 40
6.599494524794733
 40
6.629588912827949
 40
6.654403028205831
 40
6.71357514946829
 40
6.784199939310494
 40
6.84337206047526
 40
6.868186175784782
 40
6.896246243182405
 40
6.939586233732411
 40
6.96784656453928
 40
7.043584251064858
 40
7.153234334427643
 40
7.283231855711491
 40
7.420011856013681
 40
7.550009376559133
 40
7.659659458815459
 40
7.735397144398095
 40
7.763657474832505
 40
7.796409727991736
 40
7.880876065075902
 40
7.996370852443724
 40
8.122208446394914
 40
8.237703224773973
 40
8.32216956198453
 40
8.354921815179118
 40
8.382078813280204
 40
8.44182420917798
 40
8.5015696052096
 40
8.528726603454484
 40
8.561478856664078
 40
8.64594519384502
 40
8.761439980830996
 40
8.887277580728433
 40
9.002772361963391
 40
9.087238696622503
 40
9.11999094919653
 40
9.152428830574262
 40
9.240474508599567
 40
9.370226034110651
 40
9.527781457945693
 40
9.699238830942857
 40
9.870696203940224
 40
10.0282516277758
 40
10.15800315328755
 40
10.24604883131319
 40
10.27848670374725
 40
10.27848670374725
 40
10.27848670374725
 40
10.27848670374725
 10
195.3821827564425
 20
14.01410517385921
 30
0.0
 10
195.3914554737564
 20
14.01410498511438
 30
0.0
 10
195.4251744536901
 20
14.01410430876878
 30
0.0
 10
195.4934706812503
 20
14.01411807243468
 30
0.0
 10
195.5920141711614
 20
14.01403224219709
 30
0.0
 10
195.706206646484
 20
14.01441755612413
 30
0.0
 10
195.8185894417095
 20
14.01300835897712
 30
0.0
 10
195.9214376600139
 20
14.017191174224
 30
0.0
 10
195.9806839874867
 20
14.0082308925216
 30
0.0
 10
196.0371265937052
 20
14.02164434526219
 30
0.0
 10
196.0246255586969
 20
13.97087198613374
 30
0.0
 10
196.0329549635721
 20
13.9258932093894
 30
0.0
 10
196.0248170841133
 20
13.88056752990218
 30
0.0
 10
196.0370529214476
 20
13.8293193240805
 30
0.0
 10
195.974777349035
 20
13.84447955364845
 30
0.0
 10
195.9060513026884
 20
13.83359750710331
 30
0.0
 10
195.7782756749609
 20
13.8391130474755
 30
0.0
 10
195.6262984511661
 20
13.8370085125328
 30
0.0
 10
195.4502695972543
 20
13.83771002588055
 30
0.0
 10
195.2644431934308
 20
13.83745237530872
 30
0.0
 10
195.0786167437198
 20
13.83771005144184
 30
0.0
 10
194.9025880142192
 20
13.83700841847313
 30
0.0
 10
194.7506104154218
 20
13.83911332229567
 30
0.0
 10
194.6228357664581
 20
13.83359680767228
 30
0.0
 10
194.5541077836605
 20
13.84448077125512
 30
0.0
 10
194.4918349042906
 20
13.82931786683793
 30
0.0
 10
194.5040616290046
 20
13.88057510804902
 30
0.0
 10
194.4960004462621
 20
13.92582473272299
 30
0.0
 10
194.5040675809921
 20
13.97106357955335
 30
0.0
 10
194.4918238487106
 20
14.0223417691011
 30
0.0
 10
194.5525017120717
 20
14.00749577363319
 30
0.0
 10
194.616281074575
 20
14.01756448170887
 30
0.0
 10
194.7277314353505
 20
14.01294644212167
 30
0.0
 10
194.8497533443814
 20
14.01413328905632
 30
0.0
 10
194.9719538137802
 20
14.01515863900797
 30
0.0
 10
195.082979428736
 20
14.01092475623571
 30
0.0
 10
195.1476517413919
 20
14.02018584521893
 30
0.0
 10
195.2091162810457
 20
14.00604423049855
 30
0.0
 10
195.1930065601292
 20
14.0723552788469
 30
0.0
 10
195.2042980327314
 20
14.14447790122151
 30
0.0
 10
195.1987400822517
 20
14.27513760888478
 30
0.0
 10
195.2008035061646
 20
14.42607323708446
 30
0.0
 10
195.200016712725
 20
14.59335873108108
 30
0.0
 10
195.2007845215583
 20
14.76061110332543
 30
0.0
 10
195.1988038785584
 20
14.91163289270168
 30
0.0
 10
195.2041306156577
 20
15.04206069553267
 30
0.0
 10
195.193310138838
 20
15.11465442606169
 30
0.0
 10
195.2090326429831
 20
15.18150469437065
 30
0.0
 10
195.1432708132455
 20
15.16580512491121
 30
0.0
 10
195.0756367830738
 20
15.1760924308427
 30
0.0
 10
194.9615885293802
 20
15.17113786847406
 30
0.0
 10
194.8451242674913
 20
15.17414128030755
 30
0.0
 10
194.7306554121504
 20
15.16880303143675
 30
0.0
 10
194.6640324657849
 20
15.18001268075098
 30
0.0
 10
194.5990769715233
 20
15.16349132665306
 30
0.0
 10
194.6107989758753
 20
15.21473720477231
 30
0.0
 10
194.6032830189167
 20
15.2595033378415
 30
0.0
 10
194.6107989878881
 20
15.30426944897908
 30
0.0
 10
194.5990769505394
 20
15.35551536129563
 30
0.0
 10
194.6640326339237
 20
15.33899381766659
 30
0.0
 10
194.7306533339848
 20
15.35020571373776
 30
0.0
 10
194.8451352858073
 20
15.34485436710503
 30
0.0
 10
194.9615454436954
 20
15.34791188770951
 30
0.0
 10
195.0757660174615
 20
15.34278499010553
 30
0.0
 10
195.1430150439191
 20
15.3534573335542
 30
0.0
 10
195.2083325941394
 20
15.33742082668929
 30
0.0
 10
195.1941391448507
 20
15.39949685749891
 30
0.0
 10
195.2036059462951
 20
15.46586761628589
 30
0.0
 10
195.1990269004041
 20
15.58239972741788
 30
0.0
 10
195.2007696555904
 20
15.71426685022187
 30
0.0
 10
195.1997551495348
 20
15.85615960150074
 30
0.0
 10
195.2017191344328
 20
15.98769050702374
 30
0.0
 10
195.1964668553807
 20
16.10524577282782
 30
0.0
 10
195.2073408763429
 20
16.16947789001371
 30
0.0
 10
195.191953664181
 20
16.23108802544828
 30
0.0
 10
195.2407591537761
 20
16.21702407381896
 30
0.0
 10
195.2853995564692
 20
16.21954742075126
 30
0.0
 10
195.3538643946717
 20
16.21512797401564
 30
0.0
 10
195.3959106169081
 20
16.20613025543863
 30
0.0
 10
195.4487544758756
 20
16.21411714866426
 30
0.0
 10
195.4207035002023
 20
16.17113917611834
 30
0.0
 10
195.3749142248631
 20
16.18259552044232
 30
0.0
 10
195.3869539073313
 20
16.12173520005544
 30
0.0
 10
195.379608607068
 20
16.05769299469257
 30
0.0
 10
195.3831195826205
 20
15.94909368864241
 30
0.0
 10
195.3819806760215
 20
15.82494319145
 30
0.0
 10
195.3819174780304
 20
15.69189719830005
 30
0.0
 10
195.383287296691
 20
15.56797381249581
 30
0.0
 10
195.3791638801355
 20
15.45868337849267
 30
0.0
 10
195.3877763103606
 20
15.39608580094055
 30
0.0
 10
195.3746757454443
 20
15.33740133296216
 30
0.0
 10
195.4393884328231
 20
15.35362113810722
 30
0.0
 10
195.5060405953181
 20
15.34270260383157
 30
0.0
 10
195.6198779541112
 20
15.34793740173589
 30
0.0
 10
195.7357259122091
 20
15.34485547516752
 30
0.0
 10
195.849692426326
 20
15.35018259812346
 30
0.0
 10
195.9160341018068
 20
15.33904208166386
 30
0.0
 10
195.980718852544
 20
15.35546979593004
 30
0.0
 10
195.9689820772686
 20
15.30425925209998
 30
0.0
 10
195.9765168063002
 20
15.2595033412106
 30
0.0
 10
195.9689820992222
 20
15.21474739010199
 30
0.0
 10
195.9807188140697
 20
15.16353690871333
 30
0.0
 10
195.9160344075222
 20
15.17996427794496
 30
0.0
 10
195.8496886430804
 20
15.16882784447555
 30
0.0
 10
195.7357459487006
 20
15.174131158934
 30
0.0
 10
195.6197995623065
 20
15.17114764593829
 30
0.0
 10
195.5062756882148
 20
15.17606892268668
 30
0.0
 10
195.4389231318838
 20
15.16585087513815
 30
0.0
 10
195.3734285122536
 20
15.18145996139084
 30
0.0
 10
195.389171361926
 20
15.11463851827683
 30
0.0
 10
195.3783275998254
 20
15.0420705781615
 30
0.0
 10
195.3836581629834
 20
14.91162247614671
 30
0.0
 10
195.3817136151897
 20
14.76064558185466
 30
0.0
 10
195.3823133683256
 20
14.59322243934381
 30
0.0
 10
195.3821506559647
 20
14.42656176118577
 30
0.0
 10
195.3821895488177
 20
14.27360142921826
 30
0.0
 10
195.3821816413141
 20
14.14849178985882
 30
0.0
 10
195.3821828382787
 20
14.06507890991589
 30
0.0
 10
195.382182771625
 20
14.02491778282141
 30
0.0
 10
195.3821827564425
 20
14.01410517385921
 30
0.0
 11
195.3821827564425
 21
14.01410517385921
 31
0.0
 11
195.4100014883716
 21
14.01410517385921
 31
0.0
 11
195.4833417816391
 21
14.01410517385921
 31
0.0
 11
195.5870297824655
 21
14.01410517385921
 31
0.0
 11
195.7058916370715
 21
14.01410517385921
 31
0.0
 11
195.8247534916775
 21
14.01410517385921
 31
0.0
 11
195.928441492504
 21
14.01410517385921
 31
0.0
 11
196.0017817857715
 21
14.01410517385921
 31
0.0
 11
196.0296005177006
 21
14.01410517385921
 31
0.0
 11
196.0296005177006
 21
13.98651684921242
 31
0.0
 11
196.0296005177006
 21
13.9258225349895
 31
0.0
 11
196.0296005177006
 21
13.86512822076657
 31
0.0
 11
196.0296005177006
 21
13.83753989611978
 31
0.0
 11
195.999490159351
 21
13.83753989611978
 31
0.0
 11
195.9162438745021
 21
13.83753989611978
 31
0.0
 11
195.7904888484538
 21
13.83753989611978
 31
0.0
 11
195.6328522665059
 21
13.83753989611978
 31
0.0
 11
195.4539613139584
 21
13.83753989611978
 31
0.0
 11
195.2644431761109
 21
13.83753989611978
 31
0.0
 11
195.0749250382635
 21
13.83753989611978
 31
0.0
 11
194.8960340857159
 21
13.83753989611978
 31
0.0
 11
194.7383975037681
 21
13.83753989611978
 31
0.0
 11
194.6126424777198
 21
13.83753989611978
 31
0.0
 11
194.5293961928709
 21
13.83753989611978
 31
0.0
 11
194.4992858345213
 21
13.83753989611978
 31
0.0
 11
194.4992858345213
 21
13.86512822076657
 31
0.0
 11
194.4992858345213
 21
13.9258225349895
 31
0.0
 11
194.4992858345213
 21
13.98651684921242
 31
0.0
 11
194.4992858345213
 21
14.01410517385921
 31
0.0
 11
194.529406806497
 21
14.01410517385921
 31
0.0
 11
194.6088166417055
 21
14.01410517385921
 31
0.0
 11
194.7210857190694
 21
14.01410517385921
 31
0.0
 11
194.8497844175108
 21
14.01410517385921
 31
0.0
 11
194.9784831159523
 21
14.01410517385921
 31
0.0
 11
195.0907521933162
 21
14.01410517385921
 31
0.0
 11
195.1701620285247
 21
14.01410517385921
 31
0.0
 11
195.2002830005004
 21
14.01410517385921
 31
0.0
 11
195.2002830005004
 21
14.04654305524002
 31
0.0
 11
195.2002830005004
 21
14.13458873327366
 31
0.0
 11
195.2002830005004
 21
14.26434025879692
 31
0.0
 11
195.2002830005004
 21
14.42189568264659
 31
0.0
 11
195.2002830005004
 21
14.59335305565947
 31
0.0
 11
195.2002830005004
 21
14.76481042867234
 31
0.0
 11
195.2002830005004
 21
14.92236585252201
 31
0.0
 11
195.2002830005004
 21
15.05211737804527
 31
0.0
 11
195.2002830005004
 21
15.1401630560789
 31
0.0
 11
195.2002830005004
 21
15.17260093745972
 31
0.0
 11
195.1673826485489
 21
15.17260093745972
 31
0.0
 11
195.0825343724636
 21
15.17260093745972
 31
0.0
 11
194.9665173418979
 21
15.17260093745972
 31
0.0
 11
194.8401107265055
 21
15.17260093745972
 31
0.0
 11
194.7240936959398
 21
15.17260093745972
 31
0.0
 11
194.6392454198544
 21
15.17260093745972
 31
0.0
 11
194.606345067903
 21
15.17260093745972
 31
0.0
 11
194.606345067903
 21
15.19975793615015
 31
0.0
 11
194.606345067903
 21
15.25950333326909
 31
0.0
 11
194.606345067903
 21
15.31924873038804
 31
0.0
 11
194.606345067903
 21
15.34640572907847
 31
0.0
 11
194.6392454198544
 21
15.34640572907847
 31
0.0
 11
194.7240936959398
 21
15.34640572907847
 31
0.0
 11
194.8401107265055
 21
15.34640572907847
 31
0.0
 11
194.9665173418979
 21
15.34640572907847
 31
0.0
 11
195.0825343724636
 21
15.34640572907847
 31
0.0
 11
195.1673826485489
 21
15.34640572907847
 31
0.0
 11
195.2002830005004
 21
15.34640572907847
 31
0.0
 11
195.2002830005004
 21
15.37650011731205
 31
0.0
 11
195.2002830005004
 21
15.45715307777803
 31
0.0
 11
195.2002830005004
 21
15.5739193041243
 31
0.0
 11
195.2002830005004
 21
15.71235348999875
 31
0.0
 11
195.2002830005004
 21
15.85801032904925
 31
0.0
 11
195.2002830005004
 21
15.9964445149237
 31
0.0
 11
195.2002830005004
 21
16.11321074126997
 31
0.0
 11
195.2002830005004
 21
16.19386370173595
 31
0.0
 11
195.2002830005004
 21
16.22395808996953
 31
0.0
 11
195.2250405288577
 21
16.22228324219228
 31
0.0
 11
195.2840777118635
 21
16.21828937441576
 31
0.0
 11
195.3545414464189
 21
16.21352249997283
 31
0.0
 11
195.4135786294247
 21
16.20952863219631
 31
0.0
 11
195.438336157782
 21
16.20785378441906
 31
0.0
 11
195.4233067224022
 21
16.18415814206514
 31
0.0
 11
195.3821827564425
 21
16.17047697887938
 31
0.0
 11
195.3821827564425
 21
16.14221664795342
 31
0.0
 11
195.3821827564425
 21
16.06647896107186
 31
0.0
 11
195.3821827564425
 21
15.95682887707914
 31
0.0
 11
195.3821827564425
 21
15.82683135481974
 31
0.0
 11
195.3821827564425
 21
15.69005135313811
 31
0.0
 11
195.3821827564425
 21
15.56005383087871
 31
0.0
 11
195.3821827564425
 21
15.45040374688599
 31
0.0
 11
195.3821827564425
 21
15.37466606000443
 31
0.0
 11
195.3821827564425
 21
15.34640572907847
 31
0.0
 11
195.4149350096152
 21
15.34640572907847
 31
0.0
 11
195.4994013467449
 21
15.34640572907847
 31
0.0
 11
195.6148961342487
 21
15.34640572907847
 31
0.0
 11
195.7407337385439
 21
15.34640572907847
 31
0.0
 11
195.8562285260477
 21
15.34640572907847
 31
0.0
 11
195.9406948631773
 21
15.34640572907847
 31
0.0
 11
195.9734471163501
 21
15.34640572907847
 31
0.0
 11
195.9734471163501
 21
15.31924873038804
 31
0.0
 11
195.9734471163501
 21
15.25950333326909
 31
0.0
 11
195.9734471163501
 21
15.19975793615015
 31
0.0
 11
195.9734471163501
 21
15.17260093745972
 31
0.0
 11
195.9406948631774
 21
15.17260093745972
 31
0.0
 11
195.8562285260477
 21
15.17260093745972
 31
0.0
 11
195.7407337385439
 21
15.17260093745972
 31
0.0
 11
195.6148961342487
 21
15.17260093745972
 31
0.0
 11
195.4994013467449
 21
15.17260093745972
 31
0.0
 11
195.4149350096152
 21
15.17260093745972
 31
0.0
 11
195.3821827564425
 21
15.17260093745972
 31
0.0
 11
195.3821827564425
 21
15.1401630560789
 31
0.0
 11
195.3821827564425
 21
15.05211737804527
 31
0.0
 11
195.3821827564425
 21
14.92236585252201
 31
0.0
 11
195.3821827564425
 21
14.76481042867234
 31
0.0
 11
195.3821827564425
 21
14.59335305565947
 31
0.0
 11
195.3821827564425
 21
14.42189568264659
 31
0.0
 11
195.3821827564425
 21
14.26434025879692
 31
0.0
 11
195.3821827564425
 21
14.13458873327366
 31
0.0
 11
195.3821827564425
 21
14.04654305524003
 31
0.0
 11
195.3821827564425
 21
14.01410517385921
 31
0.0
  0
SPLINE
  5
AE
102
{ACAD_REACTORS
330
CB
102
}
330
48
100
AcDbEntity
  8
_U_30EC_U_30A4_U_30E4_U_30FC_1
  6
Continuous
 62
     2
100
AcDbSpline
210
0.0
220
0.0
230
1.0
 70
     8
 71
     3
 72
    62
 73
    58
 74
    56
 42
0.000000001
 43
0.0000000001
 44
0.00000001
 40
0.0
 40
0.0
 40
0.0
 40
0.0
 40
0.0598250028306779
 40
0.2024846486890226
 40
0.3727558389207957
 40
0.5154154847918164
 40
0.5752404975765444
 40
0.9332326775470621
 40
1.290451762836964
 40
1.602077253144905
 40
1.699931634113448
 40
1.799359756430367
 40
2.270120149658262
 40
2.80466192846714
 40
2.882342287388853
 40
3.0765431857247
 40
3.329004354841161
 40
3.581465524573985
 40
3.775666424549265
 40
3.853346784563885
 40
3.899120679598783
 40
3.984129341792371
 40
4.029903236815872
 40
4.105797496057634
 40
4.295533144149602
 40
4.542189486607559
 40
4.788845828870223
 40
4.978581476403618
 40
5.054475735237465
 40
5.621734664330176
 40
6.130867242035117
 40
6.225249780945329
 40
6.318913039725731
 40
6.663579954563936
 40
7.047498900228422
 40
7.435230791577163
 40
7.498943906669518
 40
7.650875181211341
 40
7.832212509002624
 40
7.98414378369784
 40
8.047856898903909
 40
8.091554632734606
 40
8.17270756696848
 40
8.216405300773394
 40
8.289021782167046
 40
8.462184160765181
 40
8.668861838015422
 40
8.842024215275805
 40
8.914640695487739
 40
8.98988158087277
 40
9.155411528836098
 40
9.3209414777503
 40
9.396182352492378
 40
9.454709011150033
 40
9.583467660179526
 40
9.712226309024278
 40
9.770752958001896
 40
9.770752958001896
 40
9.770752958001896
 40
9.770752958001896
 10
187.1521871691803
 20
14.93980288195962
 30
0.0
 10
187.1322348171594
 20
14.93980875568684
 30
0.0
 10
187.0647037716438
 20
14.93982863806169
 30
0.0
 10
186.9410612161766
 20
14.93949362520338
 30
0.0
 10
186.7863180150039
 20
14.94107673750522
 30
0.0
 10
186.6697349482467
 20
14.93686078860511
 30
0.0
 10
186.4550942634228
 20
14.95215205331628
 30
0.0
 10
186.8518948407229
 20
14.59198721286365
 30
0.0
 10
186.894565606927
 20
14.37510503396994
 30
0.0
 10
187.3189162146647
 20
14.19325062512085
 30
0.0
 10
187.1439821496117
 20
14.08985196568101
 30
0.0
 10
187.0194523924978
 20
13.87831523213828
 30
0.0
 10
186.7666277235969
 20
14.34806081001577
 30
0.0
 10
186.479760289358
 20
14.99511516984942
 30
0.0
 10
186.4906335926618
 20
14.68782672154961
 30
0.0
 10
186.4882892777917
 20
14.52288616972041
 30
0.0
 10
186.4861096126368
 20
14.28879670711962
 30
0.0
 10
186.4980774396305
 20
14.04498072422034
 30
0.0
 10
186.4687984740584
 20
13.89855796861279
 30
0.0
 10
186.5114522625428
 20
13.75113490174855
 30
0.0
 10
186.4239814005624
 20
13.76685797306458
 30
0.0
 10
186.3768527606745
 20
13.76694303543694
 30
0.0
 10
186.2898973207741
 20
13.75109425483226
 30
0.0
 10
186.3313474021752
 20
13.89527771422983
 30
0.0
 10
186.3029875004313
 20
14.03855052698565
 30
0.0
 10
186.3145973775328
 20
14.27674947365266
 30
0.0
 10
186.31241756483
 20
14.50517235240221
 30
0.0
 10
186.3103111128022
 20
14.66705729375794
 30
0.0
 10
186.3208035438352
 20
14.98153709333378
 30
0.0
 10
186.0128963252875
 20
14.2922947087273
 30
0.0
 10
185.7055258267351
 20
13.8147675024183
 30
0.0
 10
185.5851367066279
 20
14.03741112637417
 30
0.0
 10
185.4074607910617
 20
14.15011034954873
 30
0.0
 10
185.8853326362906
 20
14.32548143465536
 30
0.0
 10
185.9353959057231
 20
14.56091929251787
 30
0.0
 10
186.3583799621655
 20
14.95322989344633
 30
0.0
 10
186.1276754273491
 20
14.93655307029074
 30
0.0
 10
186.0049685859292
 20
14.94269518948783
 30
0.0
 10
185.8325483095616
 20
14.93312822699593
 30
0.0
 10
185.7213224694402
 20
14.9544881848966
 30
0.0
 10
185.60257796274
 20
14.92136265357438
 30
0.0
 10
185.6183169706643
 20
15.00203900607075
 30
0.0
 10
185.617855093372
 20
15.0464541429115
 30
0.0
 10
185.6027881889884
 20
15.12967081779024
 30
0.0
 10
185.7372380935411
 20
15.09062651984347
 30
0.0
 10
185.8619755545728
 20
15.117397293289
 30
0.0
 10
186.0628755237283
 20
15.1006394904451
 30
0.0
 10
186.1921540949366
 20
15.12204225913507
 30
0.0
 10
186.3328419928319
 20
15.08868778853867
 30
0.0
 10
186.2980927452647
 20
15.22651875785339
 30
0.0
 10
186.3222185666737
 20
15.34963257349575
 30
0.0
 10
186.2967086182426
 20
15.47024055670265
 30
0.0
 10
186.3333251146708
 20
15.60539865141251
 30
0.0
 10
186.2211417027778
 20
15.58094545781576
 30
0.0
 10
186.1280356457128
 20
15.59307749841756
 30
0.0
 10
186.0191547579792
 20
15.58957630069713
 30
0.0
 10
185.9569697640923
 20
15.58981755951323
 30
0.0
 10
185.9375369557201
 20
15.58989295123865
 30
0.0
 11
187.1521871691803
 21
14.93980288195962
 31
0.0
 11
187.0923621563954
 21
14.93980288195962
 31
0.0
 11
186.9497025105237
 21
14.93980288195962
 31
0.0
 11
186.7794313202897
 21
14.93980288195962
 31
0.0
 11
186.6367716744179
 21
14.93980288195962
 31
0.0
 11
186.576946661633
 21
14.93980288195962
 31
0.0
 11
186.7679960754843
 21
14.63705127966932
 31
0.0
 11
186.994127278563
 21
14.36051890576831
 31
0.0
 11
187.2244526173417
 21
14.15061253493877
 31
0.0
 11
187.152159633074
 21
14.084664036689
 31
0.0
 11
187.0879364402608
 21
14.00876059052825
 31
0.0
 11
186.7732818215554
 21
14.35891458349352
 31
0.0
 11
186.4886640249933
 21
14.81138295143865
 31
0.0
 11
186.4886640249933
 21
14.73370259137577
 31
0.0
 11
186.4886640249933
 21
14.53950169121857
 31
0.0
 11
186.4886640249933
 21
14.28704052101421
 31
0.0
 11
186.4886640249933
 21
14.03457935080985
 31
0.0
 11
186.4886640249933
 21
13.84037845065265
 31
0.0
 11
186.4886640249933
 21
13.76269809058977
 31
0.0
 11
186.4428901295581
 21
13.76269809058977
 31
0.0
 11
186.3578814666068
 21
13.76269809058977
 31
0.0
 11
186.3121075711715
 21
13.76269809058977
 31
0.0
 11
186.3121075711715
 21
13.83859234982966
 31
0.0
 11
186.3121075711715
 21
14.02832799792938
 31
0.0
 11
186.3121075711715
 21
14.27498434045902
 31
0.0
 11
186.3121075711715
 21
14.52164068298865
 31
0.0
 11
186.3121075711715
 21
14.71137633108837
 31
0.0
 11
186.3121075711715
 21
14.78727059032826
 31
0.0
 11
185.998762639926
 21
14.31440946197927
 31
0.0
 11
185.6352328662106
 21
13.95795177108994
 31
0.0
 11
185.5773927461623
 21
14.03253450544799
 31
0.0
 11
185.5094852305301
 21
14.09704322938887
 31
0.0
 11
185.7750721898332
 21
14.31672219795925
 31
0.0
 11
186.0233764972066
 21
14.60953395971626
 31
0.0
 11
186.2264982805209
 21
14.93980288195962
 31
0.0
 11
186.1627851652671
 21
14.93980288195962
 31
0.0
 11
186.010853890431
 21
14.93980288195962
 31
0.0
 11
185.8295165624009
 21
14.93980288195962
 31
0.0
 11
185.6775852875649
 21
14.93980288195962
 31
0.0
 11
185.613872172311
 21
14.93980288195962
 31
0.0
 11
185.613872172311
 21
14.98350061600339
 31
0.0
 11
185.613872172311
 21
15.06465355065612
 31
0.0
 11
185.613872172311
 21
15.10835128469989
 31
0.0
 11
185.6864886537925
 21
15.10835128469989
 31
0.0
 11
185.8596510327099
 21
15.10835128469989
 31
0.0
 11
186.0663287107726
 21
15.10835128469989
 31
0.0
 11
186.23949108969
 21
15.10835128469989
 31
0.0
 11
186.3121075711715
 21
15.10835128469989
 31
0.0
 11
186.3121075711715
 21
15.18359217009657
 31
0.0
 11
186.3121075711715
 21
15.34912211796927
 31
0.0
 11
186.3121075711715
 21
15.51465206584197
 31
0.0
 11
186.3121075711715
 21
15.58989295123865
 31
0.0
 11
186.2535809125072
 21
15.58989295123865
 31
0.0
 11
186.1248222634458
 21
15.58989295123865
 31
0.0
 11
185.9960636143844
 21
15.58989295123865
 31
0.0
 11
185.9375369557201
 21
15.58989295123865
 31
0.0
  0
SPLINE
  5
AF
102
{ACAD_REACTORS
330
CB
102
}
330
48
100
AcDbEntity
  8
_U_30EC_U_30A4_U_30E4_U_30FC_1
  6
Continuous
 62
     2
100
AcDbSpline
210
0.0
220
0.0
230
1.0
 70
     8
 71
     3
 72
    70
 73
    66
 74
    64
 42
0.000000001
 43
0.0000000001
 44
0.00000001
 40
0.0
 40
0.0
 40
0.0
 40
0.0
 40
0.0241731073022609
 40
0.084605898899355
 40
0.1631685280364936
 40
0.2417311571806809
 40
0.3021639488314067
 40
0.3263370654918847
 40
0.353311825427375
 40
0.4228783438950995
 40
0.517999909534781
 40
0.6216398239506514
 40
0.7167613891545624
 40
0.7863279069699832
 40
0.8133026791813333
 40
0.8372943998825645
 40
0.894505426143289
 40
0.9627895542029525
 40
1.020000580356367
 40
1.043992300982713
 40
1.071934345538319
 40
1.113121768789387
 40
1.145225199349024
 40
1.225483775430348
 40
1.329819923790081
 40
1.434156072013996
 40
1.514414647816204
 40
1.546518078229125
 40
1.578974764281126
 40
1.662678849335689
 40
1.777131373690762
 40
1.901833377498063
 40
2.016285900524649
 40
2.099989982552612
 40
2.132446666595198
 40
2.158782354511651
 40
2.216720867935042
 40
2.274659381363067
 40
2.300995069285729
 40
2.333451754095957
 40
2.417155836574207
 40
2.53160835901647
 40
2.656310362315846
 40
2.770762886421803
 40
2.854466971373537
 40
2.886923657397599
 40
2.913597976866617
 40
2.982389642907348
 40
3.076451716977745
 40
3.178937260487761
 40
3.272999334767698
 40
3.341791001085848
 40
3.368465320689744
 40
3.39697608076505
 40
3.472140811872372
 40
3.578408190335317
 40
3.700226892482981
 40
3.822045594661454
 40
3.928312973283759
 40
4.003477705342327
 40
4.031988456894421
 40
4.058324144825939
 40
4.116262658266681
 40
4.174201171432061
 40
4.200536849640711
 40
4.200536849640711
 40
4.200536849640711
 40
4.200536849640711
 10
185.9857704961614
 20
15.75844135397892
 30
0.0
 10
185.9938259544684
 20
15.75844359811873
 30
0.0
 10
186.0220200663249
 20
15.75845146032984
 30
0.0
 10
186.0765534803684
 20
15.75830754828559
 30
0.0
 10
186.148289180862
 20
15.75909120500085
 30
0.0
 10
186.2236240137084
 20
15.75627570463996
 30
0.0
 10
186.2713052366463
 20
15.76298403401147
 30
0.0
 10
186.3195071245644
 20
15.75197563692614
 30
0.0
 10
186.3062571799902
 20
15.80546402997247
 30
0.0
 10
186.3151093964566
 20
15.86049583543338
 30
0.0
 10
186.3108698036314
 20
15.95419908726409
 30
0.0
 10
186.3133483481307
 20
16.04959482218889
 30
0.0
 10
186.3090938706089
 20
16.14356821983795
 30
0.0
 10
186.3179818665875
 20
16.19795062438458
 30
0.0
 10
186.3046977409973
 20
16.25233997691933
 30
0.0
 10
186.3514119277141
 20
16.23842216335839
 30
0.0
 10
186.3943254545774
 20
16.24103877374559
 30
0.0
 10
186.4605443456727
 20
16.23648422451271
 30
0.0
 10
186.5013342271851
 20
16.22778162134769
 30
0.0
 10
186.5525145690901
 20
16.23531799890753
 30
0.0
 10
186.5253720487202
 20
16.19349970223249
 30
0.0
 10
186.4803096055662
 20
16.20284992073373
 30
0.0
 10
186.4942065045009
 20
16.13841207372314
 30
0.0
 10
186.485841443161
 20
16.07378219627935
 30
0.0
 10
186.4903632178356
 20
15.97529141194275
 30
0.0
 10
186.4854741311123
 20
15.87595932842875
 30
0.0
 10
186.495025899204
 20
15.8129311555321
 30
0.0
 10
186.4799761455156
 20
15.7496401149997
 30
0.0
 10
186.544915945717
 20
15.7651507294446
 30
0.0
 10
186.6116246399462
 20
15.75499387697997
 30
0.0
 10
186.7241435470801
 20
15.75988800099555
 30
0.0
 10
186.8390235448936
 20
15.7569120473297
 30
0.0
 10
186.9519871999736
 20
15.76221664185177
 30
0.0
 10
187.0176267597673
 20
15.75107306472277
 30
0.0
 10
187.0816276691054
 20
15.76744532320048
 30
0.0
 10
187.0703142889186
 20
15.71761689905344
 30
0.0
 10
187.077533987151
 20
15.67416715212077
 30
0.0
 10
187.0703142611266
 20
15.63071745587282
 30
0.0
 10
187.0816277175995
 20
15.58088895196592
 30
0.0
 10
187.0176263598967
 20
15.59726166091082
 30
0.0
 10
186.9519921240449
 20
15.5861127166131
 30
0.0
 10
186.8389974317313
 20
15.59144857206575
 30
0.0
 10
186.7242456548617
 20
15.5883434566354
 30
0.0
 10
186.6113183686826
 20
15.59364894682316
 30
0.0
 10
186.5455220903547
 20
15.58257300019303
 30
0.0
 10
186.4816097975316
 20
15.59887597847348
 30
0.0
 10
186.4936015165081
 20
15.5442352439554
 30
0.0
 10
186.4862104612963
 20
15.48854295047717
 30
0.0
 10
186.4892684841939
 20
15.39649689140593
 30
0.0
 10
186.4893422785641
 20
15.30179109873271
 30
0.0
 10
186.4860313578316
 20
15.20952782902582
 30
0.0
 10
186.4939505989859
 20
15.15435768736534
 30
0.0
 10
186.4815076611575
 20
15.10058169100604
 30
0.0
 10
186.5389116551591
 20
15.11453768863259
 30
0.0
 10
186.5994708140342
 20
15.10511457884695
 30
0.0
 10
186.7048680855042
 20
15.10942885929178
 30
0.0
 10
186.8204294070586
 20
15.10835504612502
 30
0.0
 10
186.9359688877763
 20
15.10725965901468
 30
0.0
 10
187.0414181130808
 20
15.111625257711
 30
0.0
 10
187.1018680471774
 20
15.10209426031149
 30
0.0
 10
187.1592837739082
 20
15.11617289606849
 30
0.0
 10
187.1477773876677
 20
15.06707153266036
 30
0.0
 10
187.153756678172
 20
15.02564658018897
 30
0.0
 10
187.1520311050772
 20
14.97651677966807
 30
0.0
 10
187.1521500122941
 20
14.94854428447644
 30
0.0
 10
187.1521871691803
 20
14.93980288195962
 30
0.0
 11
185.9857704961614
 21
15.75844135397892
 31
0.0
 11
186.0099436128287
 21
15.75844135397892
 31
0.0
 11
186.0703764044974
 21
15.75844135397892
 31
0.0
 11
186.1489390336665
 21
15.75844135397892
 31
0.0
 11
186.2275016628356
 21
15.75844135397892
 31
0.0
 11
186.2879344545041
 21
15.75844135397892
 31
0.0
 11
186.3121075711715
 21
15.75844135397892
 31
0.0
 11
186.3121075711715
 21
15.78541612620266
 31
0.0
 11
186.3121075711715
 21
15.85498264404282
 31
0.0
 11
186.3121075711715
 21
15.95010420925283
 31
0.0
 11
186.3121075711715
 21
16.05374412358614
 31
0.0
 11
186.3121075711715
 21
16.14886568879615
 31
0.0
 11
186.3121075711715
 21
16.21843220663632
 31
0.0
 11
186.3121075711715
 21
16.24540697886005
 31
0.0
 11
186.3360407604923
 21
16.2437321310828
 31
0.0
 11
186.3931122119495
 21
16.23973826330628
 31
0.0
 11
186.4612297507854
 21
16.23497138886334
 31
0.0
 11
186.5183012022426
 21
16.23097752108683
 31
0.0
 11
186.5422343915634
 21
16.22930267330958
 31
0.0
 11
186.5274972731218
 21
16.20556293372692
 31
0.0
 11
186.4886640249933
 21
16.19183767331924
 31
0.0
 11
186.4886640249933
 21
16.159734242257
 31
0.0
 11
186.4886640249933
 21
16.07947566460138
 31
0.0
 11
186.4886640249933
 21
15.97513951364908
 31
0.0
 11
186.4886640249933
 21
15.87080336269678
 31
0.0
 11
186.4886640249933
 21
15.79054478504116
 31
0.0
 11
186.4886640249933
 21
15.75844135397892
 31
0.0
 11
186.5211207110783
 21
15.75844135397892
 31
0.0
 11
186.6048247962451
 21
15.75844135397892
 31
0.0
 11
186.7192773208608
 21
15.75844135397892
 31
0.0
 11
186.8439793252928
 21
15.75844135397892
 31
0.0
 11
186.9584318499085
 21
15.75844135397892
 31
0.0
 11
187.0421359350752
 21
15.75844135397892
 31
0.0
 11
187.0745926211603
 21
15.75844135397892
 31
0.0
 11
187.0745926211603
 21
15.73210566605075
 31
0.0
 11
187.0745926211603
 21
15.67416715260878
 31
0.0
 11
187.0745926211603
 21
15.61622863916682
 31
0.0
 11
187.0745926211603
 21
15.58989295123865
 31
0.0
 11
187.0421359350752
 21
15.58989295123865
 31
0.0
 11
186.9584318499085
 21
15.58989295123865
 31
0.0
 11
186.8439793252928
 21
15.58989295123865
 31
0.0
 11
186.7192773208608
 21
15.58989295123865
 31
0.0
 11
186.6048247962451
 21
15.58989295123865
 31
0.0
 11
186.5211207110784
 21
15.58989295123865
 31
0.0
 11
186.4886640249933
 21
15.58989295123865
 31
0.0
 11
186.4886640249933
 21
15.56321863151784
 31
0.0
 11
186.4886640249933
 21
15.49442696486945
 31
0.0
 11
186.4886640249933
 21
15.4003648900645
 31
0.0
 11
186.4886640249933
 21
15.29787934587404
 31
0.0
 11
186.4886640249933
 21
15.20381727106909
 31
0.0
 11
186.4886640249933
 21
15.13502560442069
 31
0.0
 11
186.4886640249933
 21
15.10835128469989
 31
0.0
 11
186.5171747850951
 21
15.10835128469989
 31
0.0
 11
186.5923395162725
 21
15.10835128469989
 31
0.0
 11
186.6986068948337
 21
15.10835128469989
 31
0.0
 11
186.8204255970868
 21
15.10835128469989
 31
0.0
 11
186.9422442993399
 21
15.10835128469989
 31
0.0
 11
187.0485116779011
 21
15.10835128469989
 31
0.0
 11
187.1236764090785
 21
15.10835128469989
 31
0.0
 11
187.1521871691803
 21
15.10835128469989
 31
0.0
 11
187.1521871691803
 21
15.08201559677172
 31
0.0
 11
187.1521871691803
 21
15.02407708332975
 31
0.0
 11
187.1521871691803
 21
14.96613856988779
 31
0.0
 11
187.1521871691803
 21
14.93980288195962
 31
0.0
  0
SPLINE
  5
B0
102
{ACAD_REACTORS
330
CB
102
}
330
48
100
AcDbEntity
  8
_U_30EC_U_30A4_U_30E4_U_30FC_1
  6
Continuous
 62
     2
100
AcDbSpline
210
0.0
220
0.0
230
1.0
 70
     8
 71
     3
 72
    24
 73
    20
 74
    18
 42
0.000000001
 43
0.0000000001
 44
0.00000001
 40
0.0
 40
0.0
 40
0.0
 40
0.0
 40
0.2211075008750404
 40
0.4273218586281953
 40
0.5080174679272556
 40
0.5914835907949425
 40
0.8143265690284798
 40
1.05465130269613
 40
1.295452694032078
 40
1.518109231335599
 40
1.540864321911775
 40
1.595126460627981
 40
1.659890947900024
 40
1.714153085190382
 40
1.736908174964216
 40
1.76495110074102
 40
1.80156229123017
 40
1.953914424546477
 40
2.126104167382188
 40
2.126104167382188
 40
2.126104167382188
 40
2.126104167382188
 10
185.937536955691
 20
15.58989295112951
 30
0.0
 10
185.9112579081815
 20
15.53097628234429
 30
0.0
 10
185.8604698894389
 20
15.4171113967943
 30
0.0
 10
185.8131784839088
 20
15.1444195823242
 30
0.0
 10
185.704348280261
 20
15.24445482575639
 30
0.0
 10
185.5514800279577
 20
15.27118593367234
 30
0.0
 10
185.7686155181193
 20
15.48518135017707
 30
0.0
 10
185.7838483674377
 20
15.70332117782567
 30
0.0
 10
185.8906889491993
 20
15.88451579066507
 30
0.0
 10
185.8305380947083
 20
16.16913226311078
 30
0.0
 10
185.9334317395397
 20
16.14114089222361
 30
0.0
 10
185.977993346814
 20
16.13243251602303
 30
0.0
 10
186.038084239537
 20
16.12139654183514
 30
0.0
 10
186.0756619587424
 20
16.1076752305575
 30
0.0
 10
186.1252466928569
 20
16.10756076160623
 30
0.0
 10
186.0930158919341
 20
16.07306592397997
 30
0.0
 10
186.0171802221839
 20
16.08404104537956
 30
0.0
 10
186.0429447159635
 20
15.89858969582496
 30
0.0
 10
186.0055896763835
 20
15.80702313549786
 30
0.0
 10
185.9857704961614
 20
15.75844135397892
 30
0.0
 11
185.937536955691
 21
15.58989295112951
 31
0.0
 11
185.8616471328532
 21
15.38221708318679
 31
0.0
 11
185.7717402238413
 21
15.19663392355869
 31
0.0
 11
185.701149392311
 21
15.23573272563521
 31
0.0
 11
185.6245525192608
 21
15.26889163187843
 31
0.0
 11
185.7214026947443
 21
15.46958801203655
 31
0.0
 11
185.7994641467467
 21
15.69688163177148
 31
0.0
 11
185.8589716929717
 21
15.93021436608748
 31
0.0
 11
185.9001601511227
 21
16.14902808998886
 31
0.0
 11
185.9224183822212
 21
16.14429889221277
 31
0.0
 11
185.9754957025329
 21
16.13302157443902
 31
0.0
 11
186.0388460525824
 21
16.11956154999937
 31
0.0
 11
186.0919233728941
 21
16.10828423222562
 31
0.0
 11
186.1141816039926
 21
16.10355503444953
 31
0.0
 11
186.0964097157457
 21
16.08186250840685
 31
0.0
 11
186.0606122998033
 21
16.07418628444975
 31
0.0
 11
186.0281953301437
 21
15.92532288171583
 31
0.0
 11
185.9857704961614
 21
15.75844135397892
 31
0.0
  0
LWPOLYLINE
  5
B1
102
{ACAD_REACTORS
330
CC
102
}
330
48
100
AcDbEntity
  8
_U_30EC_U_30A4_U_30E4_U_30FC_1
  6
Continuous
 62
     2
100
AcDbPolyline
 90
        5
 70
     1
 43
0.0
 10
191.160297169703
 20
15.39722336795967
 10
192.457813803263
 20
15.39722336795967
 10
192.457813803263
 20
15.22875434021989
 10
191.160297169703
 20
15.22875434021989
 10
191.160297169703
 20
15.39722336795967
  0
MTEXT
  5
B3
330
48
100
AcDbEntity
  8
1
 62
   250
100
AcDbMText
 10
25.0
 20
5.0
 30
0.0
 40
3.5
 41
0.0
 71
     4
 72
     1
  1
備考欄の文字列 原点位置=4
  7
CONVERTER_11
 73
     1
 44
0.54545454545455
  0
MTEXT
  5
B4
330
48
100
AcDbEntity
  8
1
 62
     2
100
AcDbMText
 10
89.5
 20
24.0
 30
0.0
 40
3.5
 41
0.0
 71
     5
 72
     1
  1
尺度
  7
CONVERTER_11
 73
     1
 44
0.54545454545455
  0
MTEXT
  5
B5
330
48
100
AcDbEntity
  8
1
 62
     2
100
AcDbMText
 10
135.5
 20
25.0
 30
0.0
 40
3.0
 41
0.0
 71
     5
 72
     1
  1
製図
  7
CONVERTER_11
 73
     1
 44
0.59090909090909
  0
MTEXT
  5
B6
330
48
100
AcDbEntity
  8
1
 62
     2
100
AcDbMText
 10
152.5
 20
25.0
 30
0.0
 40
3.0
 41
0.0
 71
     5
 72
     1
  1
設計
  7
CONVERTER_11
 73
     1
 44
0.59090909090909
  0
MTEXT
  5
B7
330
48
100
AcDbEntity
  8
1
 62
     2
100
AcDbMText
 10
118.5
 20
25.0
 30
0.0
 40
3.0
 41
0.0
 71
     5
 72
     1
  1
検図
  7
CONVERTER_11
 73
     1
 44
0.59090909090909
  0
MTEXT
  5
B8
330
48
100
AcDbEntity
  8
1
 62
     2
100
AcDbMText
 10
175.0
 20
23.5
 30
0.0
 40
3.5
 41
0.0
 71
     5
 72
     1
  1
第三角法
  7
CONVERTER_11
 73
     1
 44
0.54545454545455
  0
MTEXT
  5
B9
330
48
100
AcDbEntity
  8
1
 62
     2
100
AcDbMText
 10
101.5
 20
25.0
 30
0.0
 40
3.0
 41
0.0
 71
     5
 72
     1
  1
承認
  7
CONVERTER_11
 73
     1
 44
0.59090909090909
  0
MTEXT
  5
BA
330
48
100
AcDbEntity
  8
1
 62
     2
100
AcDbMText
 10
29.0
 20
14.25
 30
0.0
 40
3.5
 41
0.0
 71
     5
 72
     1
  1
品番
  7
CONVERTER_11
 73
     1
 44
0.72727272727273
  0
MTEXT
  5
BB
330
48
100
AcDbEntity
  8
1
 62
     2
100
AcDbMText
 10
29.0
 20
22.75
 30
0.0
 40
3.5
 41
0.0
 71
     5
 72
     1
  1
品名
  7
CONVERTER_11
 73
     1
 44
0.72727272727273
  0
MTEXT
  5
BC
330
48
100
AcDbEntity
  8
1
 62
     2
100
AcDbMText
 10
29.0
 20
34.0
 30
0.0
 40
3.5
 41
0.0
 71
     5
 72
     1
  1
備考
  7
CONVERTER_11
 73
     1
 44
0.45454545454545
  0
MTEXT
  5
BD
330
48
100
AcDbEntity
  8
1
 62
     2
100
AcDbMText
 10
32.5
 20
282.0
 30
0.0
 40
5.0
 41
0.0
 71
     5
 72
     1
  1
図番
  7
CONVERTER_11
 73
     1
 44
0.45454545454545
  0
HATCH
  5
BE
330
48
100
AcDbEntity
  8
1
  6
Continuous
 62
     2
100
AcDbHatch
 10
0.0
 20
0.0
 30
0.0
210
0.0
220
0.0
230
1.0
  2
CUSTOM0
 70
     0
 71
     1
 91
        1
 92
        1
 93
        1
 72
     4
 94
        3
 73
     0
 74
     0
 95
       99
 96
       95
 40
0.0
 40
0.0
 40
0.0
 40
0.0
 40
0.0796417172295184
 40
0.1621768542384013
 40
0.2486489160998752
 40
0.3404969668521158
 40
0.4381912511189666
 40
0.5434463660223074
 40
0.6518115192828469
 40
0.7530190937905891
 40
0.8492196919717863
 40
0.9419290312993577
 40
1.034249663569974
 40
1.129078600624992
 40
1.22669702757162
 40
1.327220425418765
 40
1.470572134939769
 40
1.595489863377197
 40
1.719934125349757
 40
1.850576620130352
 40
1.989059629987305
 40
2.134139054225292
 40
2.28069800721009
 40
2.424529739040929
 40
2.565929576990523
 40
2.708239260779597
 40
2.861717887447908
 40
3.04516854034597
 40
3.183798301139798
 40
3.314813961455226
 40
3.442083470450687
 40
3.569912708374648
 40
3.702177512512042
 40
3.842307559664204
 40
3.992872223248694
 40
4.15675066221727
 40
4.310981861111427
 40
4.445859909326114
 40
4.572393936134135
 40
4.70165671978511
 40
4.768279086008564
 40
4.835960697897431
 40
4.912788918728746
 40
5.006285208486513
 40
5.026909478759148
 40
5.047533749031242
 40
5.101808031482104
 40
5.162325165550679
 40
5.226919746009619
 40
5.294231806612828
 40
5.364544852565524
 40
5.438319055484027
 40
5.517877651338178
 40
5.607647714877935
 40
5.700449642556199
 40
5.788251142377557
 40
5.872714706054407
 40
5.955167292589259
 40
6.037192395201769
 40
6.12066918147944
 40
6.206848616699133
 40
6.296680855433744
 40
6.442558392886866
 40
6.568190371620203
 40
6.692904567373359
 40
6.824220446569297
 40
6.963121850340089
 40
7.107843738859179
 40
7.253431663920187
 40
7.395187468049791
 40
7.533140753249688
 40
7.67055045718819
 40
7.81623651178064
 40
7.987691657370983
 40
8.14227742198025
 40
8.293662615429556
 40
8.442962460892678
 40
8.591598316200752
 40
8.743678992376315
 40
8.903725323716822
 40
9.076307008905824
 40
9.265578604696223
 40
9.459203795372831
 40
9.617619810286312
 40
9.7536096713781
 40
9.874873300022337
 40
9.954520184994225
 40
10.02416413721221
 40
10.09769764407135
 40
10.18909955926753
 40
10.20974586422029
 40
10.23039218265388
 40
10.30057101882958
 40
10.37632012989314
 40
10.37632012989314
 40
10.37632012989314
 40
10.37632012989314
 10
170.1465954835803
 20
14.13795663215933
 10
170.1632217851195
 20
14.11720608845376
 10
170.19707842066
 20
14.07495111712267
 10
170.2599822540982
 20
14.02029811391339
 10
170.3332500940417
 20
13.97299025121586
 10
170.4175969238631
 20
13.93527231438065
 10
170.5132240615446
 20
13.91040619732286
 10
170.6171853775324
 20
13.90309559346603
 10
170.7224020220386
 20
13.91142322794176
 10
170.8206626371318
 20
13.94149179651868
 10
170.9058986427534
 20
13.98848822972108
 10
170.977922020615
 20
14.04952991250354
 10
171.0350917709101
 20
14.12412969578693
 10
171.0767868747444
 20
14.21002464660194
 10
171.1026952846287
 20
14.30485850432161
 10
171.1118037332644
 20
14.41854979038247
 10
171.0986864796448
 20
14.54332587770767
 10
171.0325330334435
 20
14.66014719172483
 10
170.9369370919512
 20
14.74512539577197
 10
170.8249681022391
 20
14.81416684459747
 10
170.6993659583284
 20
14.87204142046234
 10
170.5656691620844
 20
14.9237372328401
 10
170.4313122818858
 20
14.97899092397765
 10
170.3051983986807
 20
15.04939770641006
 10
170.1926579987532
 20
15.13785540731671
 10
170.0969963064396
 20
15.24981067868461
 10
170.0334157151827
 20
15.39949910101482
 10
170.0200706504976
 20
15.55932794384962
 10
170.032051098745
 20
15.71048405306547
 10
170.0712298928888
 20
15.83809244591225
 10
170.1354987750909
 20
15.9508087403072
 10
170.2238204999684
 20
16.04648609269363
 10
170.3338091207641
 20
16.12354214985463
 10
170.4632284401229
 20
16.18151396937156
 10
170.6111838967785
 20
16.21739177588288
 10
170.7682069455466
 20
16.22746719050515
 10
170.9174940466406
 20
16.21863637762142
 10
171.0596253614185
 20
16.19074899340996
 10
171.1595922609618
 20
16.13413314701251
 10
171.312507473617
 20
16.08674602105591
 10
171.2455131717157
 20
16.00197553001461
 10
171.2296479120336
 20
15.93438901873615
 10
171.1978750531292
 20
15.86926092793357
 10
171.2150202209625
 20
15.76723453256529
 10
171.1666427208244
 20
15.77493211681598
 10
171.1315789440751
 20
15.76806771724397
 10
171.1296697985728
 20
15.83263831158063
 10
171.0985692931974
 20
15.87825639621302
 10
171.0664551628429
 20
15.93561036628444
 10
171.0208038475188
 20
15.98540462692938
 10
170.9658508218369
 20
16.02994813719028
 10
170.901084117302
 20
16.06763988836961
 10
170.8232377310571
 20
16.09283375791307
 10
170.7355160553341
 20
16.09931230997948
 10
170.6452903277806
 20
16.09235709285103
 10
170.5594594694038
 20
16.06909190461571
 10
170.4828343638583
 20
16.03131644107536
 10
170.4165265636231
 20
15.98051641089259
 10
170.3622560536958
 20
15.91731143407389
 10
170.3224925345473
 20
15.84276455710462
 10
170.2976775510572
 20
15.75917313997749
 10
170.2892124262903
 20
15.6519294838208
 10
170.3019697987112
 20
15.52965457267406
 10
170.3681548409273
 20
15.41149724291159
 10
170.4640977399819
 20
15.32606325709381
 10
170.5757914963204
 20
15.25583362307218
 10
170.7010863668674
 20
15.19659162305225
 10
170.8349823941422
 20
15.14616708085956
 10
170.9689930333139
 20
15.0932251698445
 10
171.0950885316959
 20
15.02750170625968
 10
171.2076216638426
 20
14.9448035253743
 10
171.3031370284135
 20
14.83996006309515
 10
171.3672706487006
 20
14.69937117251781
 10
171.3811103725319
 20
14.54065409451643
 10
171.3673954712228
 20
14.38153155217957
 10
171.3244739154021
 20
14.2348382881904
 10
171.2545906329
 20
14.10119796587409
 10
171.1574592213857
 20
13.98532387698791
 10
171.0347806023609
 20
13.89089981770257
 10
170.8874408413149
 20
13.82179270651658
 10
170.717713249709
 20
13.77953210858874
 10
170.5317404979584
 20
13.76781736230202
 10
170.3528955926182
 20
13.77809486683528
 10
170.1881733753726
 20
13.81966573768818
 10
170.0834410841044
 20
13.88797642884034
 10
169.9350960790321
 20
13.93675219032202
 10
169.9980378194699
 20
14.0297659129097
 10
170.0072274430063
 20
14.10296536248286
 10
170.0303711301194
 20
14.16936294501502
 10
170.0034588335309
 20
14.26974809527658
 10
170.0521338956342
 20
14.26234033517403
 10
170.09165305807
 20
14.26894063620966
 10
170.0996204944691
 20
14.19078703219058
 10
170.1305436967884
 20
14.15600927375891
 10
170.1465954835803
 20
14.13795663215933
 97
        1
330
A0
 75
     1
 76
     2
 52
45.0
 41
0.1
 77
     0
 78
     1
 53
45.0
 43
0.0
 44
0.0
 45
-0.282842712474619
 46
0.0
 79
     0
 98
        1
 10
0.0
 20
0.0
  0
HATCH
  5
BF
330
48
100
AcDbEntity
  8
1
  6
Continuous
 62
     2
100
AcDbHatch
 10
0.0
 20
0.0
 30
0.0
210
0.0
220
0.0
230
1.0
  2
CUSTOM1
 70
     0
 71
     1
 91
        2
 92
        1
 93
        1
 72
     4
 94
        3
 73
     0
 74
     0
 95
       57
 96
       53
 40
0.0
 40
0.0
 40
0.0
 40
0.0
 40
0.0471632082802785
 40
0.0914861054631182
 40
0.1357762519722165
 40
0.1826527001631881
 40
0.229520328855201
 40
0.2737751972189664
 40
0.3181310461528243
 40
0.365260719842639
 40
0.4571007286335644
 40
0.5671851029193516
 40
0.68946232838688
 40
0.8181758272572527
 40
0.9510087229264409
 40
1.085852229680758
 40
1.218126164481231
 40
1.343545131144313
 40
1.454537202960838
 40
1.567187607527304
 40
1.680710966639826
 40
1.794226869734555
 40
1.900009184250977
 40
2.004085860448834
 40
2.108162674450952
 40
2.214000150155724
 40
2.496038577351757
 40
2.762350745475589
 40
2.997275353279213
 40
3.185110082138834
 40
3.246407890062862
 40
3.312607550213919
 40
3.378877742711965
 40
3.440140399651263
 40
4.10050169600774
 40
4.754913085563466
 40
5.411331693425037
 40
6.077890432566778
 40
6.110575292671672
 40
6.143260152779038
 40
6.367989363393799
 40
6.610525374947314
 40
6.863389136464773
 40
7.119380025549384
 40
7.376036605093229
 40
7.63116477096272
 40
7.876722425458818
 40
8.104953735856872
 40
8.312916685924186
 40
8.497730294934781
 40
8.651018984313389
 40
8.764738853625092
 40
8.764738853625092
 40
8.764738853625092
 40
8.764738853625092
 10
174.7922649500506
 20
13.81626739612875
 10
174.7766616726926
 20
13.81826231079005
 10
174.7463947960297
 20
13.82213201360191
 10
174.7010994202241
 20
13.82341984967325
 10
174.6559553129328
 20
13.82308683554062
 10
174.6099017123386
 20
13.82314658674252
 10
174.5640496172099
 20
13.8232581365001
 10
174.518371164818
 20
13.82277833456649
 10
174.475081154161
 20
13.82461109618616
 10
174.4039947951483
 20
13.8004955681455
 10
174.4057477261422
 20
13.92184693977172
 10
174.3586196370618
 20
14.00726239751381
 10
174.3191478251734
 20
14.12486929344987
 10
174.2706635532648
 20
14.24232752540279
 10
174.2201017402538
 20
14.36405935761637
 10
174.1718634610497
 20
14.49075967862744
 10
174.1135232947565
 20
14.59933687785132
 10
174.0980892667235
 20
14.75620657134434
 10
173.9566586330635
 20
14.72373446548207
 10
173.8508397414918
 20
14.73512888682455
 10
173.7358569725256
 20
14.73392591514754
 10
173.6253142252152
 20
14.73506945347327
 10
173.5176583522783
 20
14.73418350037667
 10
173.4121322529237
 20
14.7341660239078
 10
173.3109192682018
 20
14.72714032472277
 10
173.1266804827759
 20
14.75135859859876
 10
173.1157393685423
 20
14.44741691121966
 10
173.0087691634686
 20
14.22353177253776
 10
172.9098148604385
 20
14.03895314292489
 10
172.9225090523984
 20
13.79530204804269
 10
172.8050091716378
 20
13.82508046753095
 10
172.7422055868293
 20
13.82258089509696
 10
172.6785872093381
 20
13.82344075102684
 10
172.3946014194053
 20
13.78098039942107
 10
173.0251638499434
 20
14.50081952444393
 10
173.1087645288985
 20
15.01276539436122
 10
173.4929252789322
 20
15.5335374354998
 10
173.477720828856
 20
16.23519626253105
 10
173.72392657227
 20
16.22345633081042
 10
173.8256346157573
 20
16.23225004452642
 10
173.8249752035792
 20
15.98059650730404
 10
173.9428317155843
 20
15.79818020734341
 10
174.0315515260469
 20
15.55563740663004
 10
174.1322292485205
 20
15.3234003052988
 10
174.231114271224
 20
15.0867464456692
 10
174.3299676990613
 20
14.85461739169851
 10
174.4256166390948
 20
14.63122222788926
 10
174.5159904573294
 20
14.42272549049331
 10
174.5989944568205
 20
14.23308448529629
 10
174.6726088582752
 20
14.06663106068178
 10
174.7342815895522
 20
13.92917699626259
 10
174.7749458885594
 20
13.84999239430003
 10
174.7922649500506
 20
13.81626739612875
 97
        1
330
A1
 92
       16
 93
        1
 72
     4
 94
        3
 73
     0
 74
     0
 95
       25
 96
       21
 40
0.0
 40
0.0
 40
0.0
 40
0.0
 40
0.0911479969082929
 40
0.1858117896242937
 40
0.280412839973156
 40
0.3715889190735938
 40
0.4679080494196634
 40
0.5642683809166286
 40
0.6605683222619927
 40
0.7569653015766493
 40
0.8561348172484871
 40
1.092615965101907
 40
1.37486765814117
 40
1.611348812012283
 40
1.710518328426524
 40
1.809403163728582
 40
2.045205463297845
 40
2.326646917627978
 40
2.562449217198212
 40
2.661334043842261
 40
2.661334043842261
 40
2.661334043842261
 40
2.661334043842261
 10
173.2683700567213
 20
14.88614538196998
 10
173.2987525917943
 20
14.88598079714383
 10
173.3606895889145
 20
14.8856452869
 10
173.4541356960364
 20
14.88269055452518
 10
173.5475095236389
 20
14.87977752876832
 10
173.6417760753489
 20
14.87894201643481
 10
173.735496479096
 20
14.87996644657951
 10
173.8352040303181
 20
14.8791697747088
 10
173.9188949546278
 20
14.88921410235584
 10
174.0637996315014
 20
14.86234617673752
 10
173.9396132444774
 20
15.03665530280028
 10
173.8965867286269
 20
15.19651711006018
 10
173.7808922142204
 20
15.45518458550445
 10
173.701756543126
 20
15.59231052862205
 10
173.6431576621827
 20
15.80937033134614
 10
173.5864803939448
 20
15.59266134213765
 10
173.5052809900489
 20
15.45327012438457
 10
173.4063701281501
 20
15.20406969370184
 10
173.3253625094272
 20
15.019258302259
 10
173.2813683325851
 20
14.9165044685585
 10
173.2683700567213
 20
14.88614538196998
 97
        1
330
A2
 75
     1
 76
     2
 52
45.0
 41
0.1
 77
     0
 78
     1
 53
45.0
 43
0.0
 44
0.0
 45
-0.282842712474619
 46
0.0
 79
     0
 98
        1
 10
0.0
 20
0.0
  0
HATCH
  5
C0
330
48
100
AcDbEntity
  8
1
  6
Continuous
 62
     2
100
AcDbHatch
 10
0.0
 20
0.0
 30
0.0
210
0.0
220
0.0
230
1.0
  2
CUSTOM2
 70
     0
 71
     1
 91
        1
 92
        1
 93
        1
 72
     4
 94
        3
 73
     0
 74
     0
 95
       95
 96
       91
 40
0.0
 40
0.0
 40
0.0
 40
0.0
 40
0.6550406656923387
 40
1.308087289031645
 40
1.420803739833883
 40
1.566130759774524
 40
1.757067341887496
 40
2.006513545024684
 40
2.087328263121735
 40
2.185328872292757
 40
2.294612454745954
 40
2.408936380536434
 40
2.526802767798415
 40
2.646360524617948
 40
2.762535723972205
 40
2.870057342873693
 40
2.966883448430845
 40
3.050803243519397
 40
3.115818222437433
 40
3.156030057150499
 40
3.213914225075145
 40
3.276689026449208
 40
3.342960320979925
 40
3.404230667153743
 40
3.453822809496881
 40
3.532499827192632
 40
3.634775188508668
 40
3.75490933301416
 40
3.889736761666943
 40
4.035769602180713
 40
4.187256681204704
 40
4.33873368568144
 40
4.488478734678082
 40
4.634708317833613
 40
4.771493189925565
 40
4.892686571565473
 40
5.199775528951171
 40
5.460353566929413
 40
5.667603142351396
 40
5.814722905406493
 40
5.828990806221876
 40
5.85548833630663
 40
5.869756237121019
 40
6.18979650775923
 40
6.53189046987099
 40
6.883053637012702
 40
7.230512024905718
 40
7.566966656759324
 40
7.885203559706921
 40
8.172887439715552
 40
8.418011594058909
 40
8.443926721186656
 40
8.510760470608691
 40
8.602145393790583
 40
8.70171404164135
 40
8.793098965068966
 40
8.859932715051087
 40
8.88584784259656
 40
9.242301256607938
 40
9.589275455014366
 40
9.921808543160608
 40
10.23479624297431
 40
10.29968150888211
 40
10.35323493886569
 40
10.40154625353721
 40
10.464829224766
 40
10.5597390066689
 40
10.69239545984258
 40
10.84920353474532
 40
11.01626328593746
 40
11.18672024366187
 40
11.35372582575493
 40
11.50257442290992
 40
11.61866495022052
 40
11.71329869151231
 40
11.8251105057219
 40
11.94464880843929
 40
12.06929242641057
 40
12.19707290433654
 40
12.32562632859026
 40
12.45034565329865
 40
12.56646595169223
 40
12.67099007413158
 40
12.76077625935127
 40
12.82703233505223
 40
12.87429132784627
 40
12.89831990321918
 40
12.92234847858555
 40
13.53984767409168
 40
14.18294284358165
 40
14.18294284358165
 40
14.18294284358165
 40
14.18294284358165
 10
177.3067935648032
 20
14.70898038201995
 10
177.1752019758554
 20
14.82265058603465
 10
176.9124193802721
 20
15.04964496316268
 10
176.3997393441023
 20
15.89214462956226
 10
176.4106654595346
 20
15.53423377576953
 10
176.4041226528053
 20
15.39267392272087
 10
176.402802663174
 20
15.19421305299252
 10
176.4018117602554
 20
15.02150296046063
 10
176.4024101752
 20
14.87865373257726
 10
176.4038994301869
 20
14.7826500541352
 10
176.4055683588491
 20
14.6754550326326
 10
176.4071934954623
 20
14.56164211517609
 10
176.4092429501649
 20
14.44441572604448
 10
176.4123165501927
 20
14.32656411232872
 10
176.4156339697014
 20
14.21228087320391
 10
176.419360534033
 20
14.10521401867176
 10
176.4217338161401
 20
14.01007408766781
 10
176.427871888838
 20
13.92558557205646
 10
176.4239784495963
 20
13.86923087298093
 10
176.4455230443039
 20
13.79825022472466
 10
176.3680940058621
 20
13.82902677604424
 10
176.3116353240194
 20
13.82011242517689
 10
176.254049589679
 20
13.82896218398147
 10
176.1690163478412
 20
13.79738225225781
 10
176.2009714146355
 20
13.88095155992123
 10
176.1990705282473
 20
13.94882608968279
 10
176.2107960047279
 20
14.05233256764401
 10
176.2164241053069
 20
14.17002125616703
 10
176.2237902178892
 20
14.30388609164626
 10
176.2320759701666
 20
14.44764152872816
 10
176.2398851897381
 20
14.59714022843653
 10
176.2457571222679
 20
14.74792549402138
 10
176.250366781801
 20
14.89699943878325
 10
176.2542632117551
 20
15.04122913162879
 10
176.2570715126562
 20
15.1758390521295
 10
176.2576698755091
 20
15.3646961434744
 10
176.2616023867183
 20
15.5897549431309
 10
176.2442175378419
 20
15.86367091125678
 10
176.2850417342595
 20
16.02787112098338
 10
176.1995153256067
 20
16.22749661464894
 10
176.266055890774
 20
16.22385458403776
 10
176.2838724273282
 20
16.22413447160652
 10
176.4056801797535
 20
16.22632927398413
 10
176.508077033549
 20
15.94675118721524
 10
176.7580021509407
 20
15.74563008536543
 10
176.9870035331096
 20
15.47792614987943
 10
177.224515121313
 20
15.22646413862876
 10
177.4486090740775
 20
14.98969974061524
 10
177.6750716283
 20
14.73218692582992
 10
177.8325687886526
 20
14.61649335056892
 10
178.0472129612699
 20
14.27997152539182
 10
178.0422645974643
 20
14.40464754091949
 10
178.0433931602571
 20
14.46327691936045
 10
178.0428877841541
 20
14.55043662372225
 10
178.0430475158138
 20
14.64416143183058
 10
178.0430054891343
 20
14.73018971297162
 10
178.0430202040397
 20
14.79153891945581
 10
178.0429706256008
 20
14.94135231521129
 10
178.0458811522816
 20
15.17989612510416
 10
178.025952104111
 20
15.54486509869006
 10
178.0750433936237
 20
15.80799631994037
 10
177.9177951509184
 20
16.21928904946601
 10
178.0762112872428
 20
16.16398282552029
 10
178.1311680478622
 20
16.16199686500576
 10
178.1827887766723
 20
16.16264778248551
 10
178.2713198965375
 20
16.20369527737752
 10
178.2204898303108
 20
16.05696326623038
 10
178.231338993032
 20
15.95019971954226
 10
178.2166036994797
 20
15.79085705413845
 10
178.2099976446204
 20
15.62853061652527
 10
178.2014961399896
 20
15.45992521892259
 10
178.1943227202183
 20
15.29814814703533
 10
178.1889063215393
 20
15.15422331457912
 10
178.1871713967647
 20
15.03437493466883
 10
178.1875440672316
 20
14.92686101590566
 10
178.1873656126269
 20
14.81820024645821
 10
178.1877010863107
 20
14.69953570165698
 10
178.1890040622198
 20
14.57555163512848
 10
178.1908887351559
 20
14.44858294171113
 10
178.1925004454872
 20
14.32153861551033
 10
178.1941403137427
 20
14.19854884492037
 10
178.1962570745791
 20
14.08300931383615
 10
178.1963848422352
 20
13.98090903955763
 10
178.2006514396553
 20
13.89009848838212
 10
178.1908440085284
 20
13.83213621208833
 10
178.211847477169
 20
13.76517130131929
 10
178.17256397399
 20
13.77291153966566
 10
177.9595307117739
 20
13.75755254145109
 10
177.7636297943186
 20
14.31403058094512
 10
177.4611197631549
 20
14.57556035348729
 10
177.3067935648032
 20
14.70898038201995
 97
        1
330
A3
 75
     1
 76
     2
 52
45.0
 41
0.1
 77
     0
 78
     1
 53
45.0
 43
0.0
 44
0.0
 45
-0.282842712474619
 46
0.0
 79
     0
 98
        1
 10
0.0
 20
0.0
  0
HATCH
  5
C1
330
48
100
AcDbEntity
  8
1
  6
Continuous
 62
     2
100
AcDbHatch
 10
0.0
 20
0.0
 30
0.0
210
0.0
220
0.0
230
1.0
  2
CUSTOM3
 70
     0
 71
     1
 91
        1
 92
        1
 93
        1
 72
     4
 94
        3
 73
     0
 74
     0
 95
      110
 96
      106
 40
0.0
 40
0.0
 40
0.0
 40
0.0
 40
0.2203406257331197
 40
0.4407808782841201
 40
0.5952494494601459
 40
0.7488431659354566
 40
0.9023581831321718
 40
1.056801968668487
 40
1.210736449097731
 40
1.363041386542613
 40
1.515315729684857
 40
1.669377239151827
 40
1.721611652757857
 40
1.773199502948124
 40
1.824933793208555
 40
1.877110426488023
 40
1.98268228120873
 40
2.078781667086424
 40
2.172809640823375
 40
2.271937807387785
 40
2.378349933382907
 40
2.49413155774313
 40
2.626681683948016
 40
2.783145050799968
 40
2.890701232941996
 40
2.993130312452552
 40
3.099869730691874
 40
3.220237816696701
 40
3.35269548273877
 40
3.481732806386953
 40
3.593499473688122
 40
3.674323013327489
 40
3.817951711951178
 40
3.946167120788327
 40
4.06140505345358
 40
4.166480796002485
 40
4.262478775061905
 40
4.350736673554064
 40
4.433071991254256
 40
4.511216293810778
 40
4.56426245411636
 40
4.618474415571394
 40
4.670128488753485
 40
4.722296879124862
 40
4.819540945307727
 40
4.931194984122006
 40
5.049996040252796
 40
5.168643755409428
 40
5.283970811755638
 40
5.392260784902236
 40
5.486512254871249
 40
5.559178233948509
 40
5.591425852857444
 40
5.626215969644806
 40
5.667155838678321
 40
5.717449290219225
 40
5.738402360949115
 40
5.784499116556495
 40
5.830595872165876
 40
5.851548942898011
 40
5.873019280662767
 40
5.924217778410837
 40
5.98532566282204
 40
6.036524160573583
 40
6.057994498340753
 40
6.236847789610011
 40
6.38140992894632
 40
6.493190424179947
 40
6.574067534229366
 40
6.691018086207501
 40
6.814881554221083
 40
6.944307823242119
 40
7.071266716065865
 40
7.193488604465999
 40
7.309042773136763
 40
7.41400720317214
 40
7.50514044188731
 40
7.531150360599478
 40
7.559221645321885
 40
7.587202218919931
 40
7.612569159495256
 40
7.662550809482567
 40
7.70287887576478
 40
7.857328205229088
 40
8.010799568080634
 40
8.16525639965649
 40
8.322232698716496
 40
8.47956485501435
 40
8.63521623029242
 40
8.790882550924932
 40
8.948305154944418
 40
9.168271839027732
 40
9.38735898098474
 40
9.608047961032941
 40
9.832914234792506
 40
9.858338694962853
 40
9.925366817229893
 40
10.02013071422752
 40
10.12876249858995
 40
10.23739428295251
 40
10.33215817995197
 40
10.39918630222403
 40
10.42461076239793
 40
10.64992019336678
 40
10.87188524530665
 40
10.87188524530665
 40
10.87188524530665
 40
10.87188524530665
 10
179.9057788376631
 20
15.73923260397896
 10
179.9092864933553
 20
15.80616462073661
 10
179.9163033987668
 20
15.94005891915703
 10
179.8198027599089
 20
16.22548554971133
 10
180.0510134726088
 20
16.16284386190064
 10
180.191929005714
 20
16.17001554055954
 10
180.3490417757572
 20
16.16235883078151
 10
180.5025913427277
 20
16.16252752283636
 10
180.6545104935074
 20
16.16182040535336
 10
180.8142214813247
 20
16.17210158351604
 10
180.9408972601123
 20
16.15496511080549
 10
181.1370821122169
 20
16.22727260106862
 10
181.1034395279051
 20
16.12640699079961
 10
181.1052011317212
 20
16.07619253947653
 10
181.1027342073444
 20
16.02712335586447
 10
181.134707696609
 20
15.94063490847152
 10
181.0010399903286
 20
15.98997438608719
 10
180.9172208688091
 20
15.98430634314413
 10
180.8173861139327
 20
15.99465516706046
 10
180.7186576720142
 20
16.00086450411796
 10
180.6121532771083
 20
16.0069776381669
 10
180.4910511698047
 20
16.01588883484692
 10
180.3703381502442
 20
16.00521605912513
 10
180.1812553843434
 20
16.06468503080112
 10
180.212902850533
 20
15.90558320077681
 10
180.1995563316868
 20
15.80839128340122
 10
180.1974958426479
 20
15.69634065110175
 10
180.1958188044738
 20
15.57699685629308
 10
180.1973336794215
 20
15.4503259215516
 10
180.1956582478704
 20
15.32301588016444
 10
180.2058844271666
 20
15.2245156640494
 10
180.1779006596521
 20
15.08388702626176
 10
180.3508029999271
 20
15.13989551134484
 10
180.4645020202746
 20
15.12719951478226
 10
180.584015167222
 20
15.13448377051077
 10
180.6888491425079
 20
15.13878017056712
 10
180.7843084898629
 20
15.14330568258828
 10
180.8763823507052
 20
15.15149201145734
 10
180.9476551782446
 20
15.14643850638422
 10
181.0544931705631
 20
15.18536425031989
 10
181.0226603598028
 20
15.10517122005986
 10
181.0266164503908
 20
15.05562936846083
 10
181.0234502392005
 20
15.00557478039883
 10
181.055079149052
 20
14.92128847612222
 10
180.921013367769
 20
14.97425365495346
 10
180.8292322793199
 20
14.96540080890233
 10
180.7079729189602
 20
14.97570049965244
 10
180.5914113119772
 20
14.97748911767355
 10
180.4783375745892
 20
14.97787017110082
 10
180.3679246308477
 20
14.98415449471625
 10
180.2898124067844
 20
14.97189133255525
 10
180.1913625833555
 20
15.00453887616912
 10
180.2012355173566
 20
14.94769748054349
 10
180.1973923244438
 20
14.91392130557971
 10
180.196678988425
 20
14.87119604709378
 10
180.196336964303
 20
14.83401607262201
 10
180.1963834255389
 20
14.79487237370859
 10
180.1963649429975
 20
14.75716849497905
 10
180.1963703431853
 20
14.71944955232751
 10
180.1963697214248
 20
14.68994324745554
 10
180.1963698151593
 20
14.65873577699657
 10
180.1963704287967
 20
14.61414424908308
 10
180.1963671499385
 20
14.55963956508912
 10
180.1963759623527
 20
14.51505540201375
 10
180.1963359653467
 20
14.43117808585729
 10
180.1976024270243
 20
14.31737520677835
 10
180.1950274117856
 20
14.16830395934052
 10
180.2065009381772
 20
14.06597203814361
 10
180.1823506222183
 20
13.93338903886293
 10
180.3332993946454
 20
13.97895732272585
 10
180.4428436671525
 20
13.96427012163008
 10
180.5733970473888
 20
13.96920435125279
 10
180.6990312209491
 20
13.97257705323752
 10
180.8188730625607
 20
13.97711497498918
 10
180.9391362611424
 20
13.99048536181913
 10
181.0222761663569
 20
13.98068712782427
 10
181.145608042094
 20
14.04126214623698
 10
181.1244269204019
 20
13.98532460134062
 10
181.1235950270095
 20
13.95939249372562
 10
181.1218963707597
 20
13.93197256191231
 10
181.1217974888848
 20
13.89738195206622
 10
181.1203659301369
 20
13.86050408221004
 10
181.1532804192066
 20
13.76846841021679
 10
180.9551306988153
 20
13.84132015974686
 10
180.8300548294893
 20
13.81825726508631
 10
180.6673071295151
 20
13.82454021985808
 10
180.5129366449975
 20
13.82260943909953
 10
180.3566670436909
 20
13.82393762599278
 10
180.1970544465258
 20
13.82059872487914
 10
180.0540326342213
 20
13.83265795728105
 10
179.8197144881637
 20
13.76952001976954
 10
179.9173810751199
 20
14.05620527466224
 10
179.9006868780073
 20
14.24988308142602
 10
179.9146296709701
 20
14.47848242880418
 10
179.9142987846636
 20
14.63384593955249
 10
179.9143078119267
 20
14.73966336444339
 10
179.914305587632
 20
14.80205784124431
 10
179.9143065551893
 20
14.89220425248547
 10
179.9143065473265
 20
14.99621167157663
 10
179.9143053861106
 20
15.10022131375526
 10
179.9143090971506
 20
15.19036243689002
 10
179.9143011051056
 20
15.25276803097453
 10
179.9143334275021
 20
15.35868835961265
 10
179.9131440788337
 20
15.51626716544711
 10
179.9082216489271
 20
15.66528219821858
 10
179.9057788376631
 20
15.73923260397896
 97
        1
330
A4
 75
     1
 76
     2
 52
45.0
 41
0.1
 77
     0
 78
     1
 53
45.0
 43
0.0
 44
0.0
 45
-0.282842712474619
 46
0.0
 79
     0
 98
        1
 10
0.0
 20
0.0
  0
HATCH
  5
C2
330
48
100
AcDbEntity
  8
1
  6
Continuous
 62
     2
100
AcDbHatch
 10
0.0
 20
0.0
 30
0.0
210
0.0
220
0.0
230
1.0
  2
CUSTOM4
 70
     0
 71
     1
 91
        1
 92
        1
 93
        1
 72
     4
 94
        3
 73
     0
 74
     0
 95
       47
 96
       43
 40
0.0
 40
0.0
 40
0.0
 40
0.0
 40
0.2207912809970429
 40
0.445940418627941
 40
0.4902387190437
 40
0.5327473892712623
 40
0.5742260451194044
 40
0.6155432630508385
 40
0.656816406628837
 40
0.6982511618776952
 40
0.7407663929284711
 40
0.7851366743140494
 40
1.0102888338289
 40
1.23108050699612
 40
1.451765243642568
 40
1.676638205886334
 40
1.720461045353866
 40
1.830018144036628
 40
1.972442372344831
 40
2.114866600667768
 40
2.224423699384293
 40
2.268246538872094
 40
2.493628801200606
 40
2.715602830281642
 40
2.934211330698731
 40
3.149502369849698
 40
3.231387784844621
 40
3.318231873850602
 40
3.405143198191113
 40
3.486970301714614
 40
3.702258172490304
 40
3.920866283527822
 40
4.142839325927155
 40
4.368221903865225
 40
4.412044743359266
 40
4.521601842094181
 40
4.664026070449229
 40
4.806450298804509
 40
4.916007397541102
 40
4.959830237036985
 40
5.184703515845422
 40
5.405387250761925
 40
5.405387250761925
 40
5.405387250761925
 40
5.405387250761925
 10
182.6507427258621
 20
15.73406440953841
 10
182.6568139419988
 20
15.79758482501219
 10
182.6690762107244
 20
15.92587938689569
 10
182.5604706879399
 20
16.20166220173754
 10
182.6761985896586
 20
16.17188133431794
 10
182.7171842508997
 20
16.16765556262812
 10
182.759120579749
 20
16.16310446389496
 10
182.8004196625677
 20
16.16201982930086
 10
182.8417032115532
 20
16.16310338195126
 10
182.8836148270633
 20
16.16766112711272
 10
182.9245983549005
 20
16.17187430209524
 10
183.0404922843449
 20
16.20177611317184
 10
182.9295652727488
 20
15.92339806609814
 10
182.9574856365296
 20
15.74283140825075
 10
182.9404267346952
 20
15.50961042346556
 10
182.9414637282012
 20
15.34906622543229
 10
182.9414099399317
 20
15.22284817558706
 10
182.9414277372392
 20
15.12428963336325
 10
182.9414188580993
 20
14.99280702443179
 10
182.9414263927946
 20
14.86132844968998
 10
182.9414129405041
 20
14.76276222694537
 10
182.9414531717401
 20
14.63639735624495
 10
182.9406746403802
 20
14.47482068823025
 10
182.9565958319293
 20
14.24361821892964
 10
182.9333468885447
 20
14.05874351971977
 10
183.0360183444341
 20
13.78935602770069
 10
182.8820238362805
 20
13.82660112685716
 10
182.8004129802805
 20
13.82137994680632
 10
182.7188192292553
 20
13.826606203782
 10
182.5648513666808
 20
13.7893706988535
 10
182.6674183421913
 20
14.05875129862817
 10
182.6442045316052
 20
14.2436158532547
 10
182.6600444655143
 20
14.47482218565791
 10
182.6593296313405
 20
14.63639712308848
 10
182.6593664569883
 20
14.76276231210967
 10
182.6593549000249
 20
14.8613275663633
 10
182.6593575019191
 20
14.99281127417435
 10
182.6593648531756
 20
15.12427548031284
 10
182.6593442541329
 20
15.22287786275311
 10
182.6594082192004
 20
15.34896149354507
 10
182.6581733947592
 20
15.51210091383858
 10
182.6532040396729
 20
15.6605418377765
 10
182.6507427258621
 20
15.73406440953841
 97
        1
330
A5
 75
     1
 76
     2
 52
45.0
 41
0.1
 77
     0
 78
     1
 53
45.0
 43
0.0
 44
0.0
 45
-0.282842712474619
 46
0.0
 79
     0
 98
        1
 10
0.0
 20
0.0
  0
HATCH
  5
C3
330
48
100
AcDbEntity
  8
1
  6
Continuous
 62
     2
100
AcDbHatch
 10
0.0
 20
0.0
 30
0.0
210
0.0
220
0.0
230
1.0
  2
CUSTOM5
 70
     0
 71
     1
 91
        1
 92
        1
 93
        1
 72
     4
 94
        3
 73
     0
 74
     0
 95
      118
 96
      114
 40
0.0
 40
0.0
 40
0.0
 40
0.0
 40
0.1054708162975894
 40
0.246609827006489
 40
0.3965912874615594
 40
0.5285525069783438
 40
0.6156245055663128
 40
0.6431434105817548
 40
0.7036850038004215
 40
0.7642265984520744
 40
0.7917455052370325
 40
0.9287404319999408
 40
1.106572819087229
 40
1.287544879681195
 40
1.31757830803059
 40
1.399928030856893
 40
1.522968204799166
 40
1.675072986589164
 40
1.844616533178552
 40
2.0199730016359
 40
2.18951654887652
 40
2.341621331581238
 40
2.464661506315874
 40
2.547011229642102
 40
2.577044658162943
 40
2.603797890887047
 40
2.66265500290066
 40
2.721512114939368
 40
2.748265347691582
 40
2.774215307333694
 40
2.845959313396129
 40
2.954338556577482
 40
3.090194227574853
 40
3.244367517090037
 40
3.407699615834028
 40
3.571031714529409
 40
3.725205003910305
 40
3.86106067472
 40
3.969439917706846
 40
4.041183923619624
 40
4.067133883203653
 40
4.311886746004795
 40
4.547897258328798
 40
4.764747083037741
 40
4.952749679946814
 40
5.04577297419497
 40
5.137862019642421
 40
5.330543169787795
 40
5.553448265238358
 40
5.795083855883584
 40
6.043293412174729
 40
6.285761695541414
 40
6.313902908753125
 40
6.384255941794283
 40
6.475714884768582
 40
6.567173827761355
 40
6.637526860842701
 40
6.665668074077292
 40
6.692018920330451
 40
6.749990782071727
 40
6.807962643789299
 40
6.834313490015958
 40
6.856393084243237
 40
6.913335195648003
 40
6.991194817300808
 40
7.076026942282212
 40
7.153886563723873
 40
7.21082867484354
 40
7.232908268929904
 40
7.258199334922653
 40
7.324875781591903
 40
7.419142481925409
 40
7.527204308843327
 40
7.635266135232879
 40
7.729532834171717
 40
7.79620927929664
 40
7.821500344598814
 40
7.844652988854196
 40
7.899863140543197
 40
7.965759128053271
 40
8.020969279768778
 40
8.044121924043527
 40
8.069356610159124
 40
8.109134395442185
 40
8.132238100192113
 40
8.193147867788047
 40
8.279261678879026
 40
8.377977512677168
 40
8.476693347150876
 40
8.562807160416739
 40
8.623716930832094
 40
8.646820636859264
 40
8.67198879378022
 40
8.73490918583433
 40
8.816705695195356
 40
8.89850220482224
 40
8.961422597384928
 40
8.986590754558154
 40
9.012941600739495
 40
9.070913462384784
 40
9.128885324084486
 40
9.15523617032699
 40
9.180404327931146
 40
9.243324721950419
 40
9.325121234214524
 40
9.40691774664052
 40
9.469838141981231
 40
9.49500628827409
 40
9.517811184382584
 40
9.572192090491415
 40
9.63709833328664
 40
9.691479239521671
 40
9.71428412565006
 40
9.71428412565006
 40
9.71428412565006
 40
9.71428412565006
 10
185.2874469028611
 20
15.26889163187843
 10
185.3090990568999
 20
15.24111869242956
 10
185.3597257109448
 20
15.17618054561412
 10
185.4349383202571
 20
15.06891060313024
 10
185.5248482274333
 20
14.95377438266686
 10
185.5709169676661
 20
14.85357045748355
 10
185.6655825294635
 20
14.78434006814975
 10
185.6204439320397
 20
14.73771639678333
 10
185.5947047785776
 20
14.69660308866106
 10
185.5645196707999
 20
14.66065971728013
 10
185.5193684730552
 20
14.58579782596194
 10
185.4710504458542
 20
14.80782524253484
 10
185.3968539713053
 20
14.84510677337627
 10
185.2836047324564
 20
15.11610202130366
 10
185.2885133578127
 20
15.00095328445993
 10
185.2868486556263
 20
14.92836675781414
 10
185.2876830076672
 20
14.80625588483827
 10
185.2873609540222
 20
14.65913800810359
 10
185.2875076912414
 20
14.49307063956524
 10
185.287295009268
 20
14.32187554608639
 10
185.2879497251992
 20
14.15552828635602
 10
185.2859192461097
 20
14.0093517305586
 10
185.2913460399888
 20
13.8847104747482
 10
185.2804930868665
 20
13.8171865654088
 10
185.2956739155512
 20
13.75549061417315
 10
185.2457895108108
 20
13.76727503897243
 10
185.201715034251
 20
13.75943822780251
 10
185.1582371630204
 20
13.76760441372942
 10
185.1092346786507
 20
13.75538056738762
 10
185.1218731234844
 20
13.80960667249595
 10
185.1130182968469
 20
13.86936918907832
 10
185.1175058770332
 20
13.97922029044668
 10
185.115796013601
 20
14.11029975405992
 10
185.1163550916006
 20
14.26198011444664
 10
185.1161928768713
 20
14.42211074930312
 10
185.1162269924693
 20
14.58236865674948
 10
185.1162514960146
 20
14.73370247520843
 10
185.1161453543243
 20
14.86582156339023
 10
185.1164299141951
 20
14.9729480253363
 10
185.1158675547586
 20
15.03808619579922
 10
185.1180765083709
 20
15.16618957859194
 10
185.0319435998616
 20
14.7909761039185
 10
184.9555140818522
 20
14.63918193123614
 10
184.8660040767837
 20
14.47766206446302
 10
184.7640413217414
 20
14.20471848819988
 10
184.718797649102
 20
14.36717346596124
 10
184.6102355941766
 20
14.4560543205839
 10
184.7995791751736
 20
14.60549794961418
 10
184.8565340545698
 20
14.79749136974998
 10
184.9717520993354
 20
15.02899622906865
 10
184.9940151630148
 20
15.2179725975929
 10
185.1771905152194
 20
15.49454089326394
 10
185.053803359759
 20
15.48698978832553
 10
184.9925684166868
 20
15.48856772366578
 10
184.9081999617091
 20
15.48882592574134
 10
184.8204235085985
 20
15.48544845751659
 10
184.7656768696139
 20
15.49394814982495
 10
184.7104703026039
 20
15.48048561050238
 10
184.7222823035546
 20
15.52931442127087
 10
184.7142496151807
 20
15.57269004896908
 10
184.7228186104687
 20
15.61509438309646
 10
184.7102943409171
 20
15.66267796552058
 10
184.7555101538749
 20
15.65267212995039
 10
184.8014815562737
 20
15.65894105174004
 10
184.8777222047725
 20
15.65593561405808
 10
184.9561296132011
 20
15.65770448278479
 10
185.032399264895
 20
15.65464793981599
 10
185.0783009459492
 20
15.66103971376113
 10
185.123173396542
 20
15.65093822978835
 10
185.1105552275652
 20
15.70157201581879
 10
185.1191936582726
 20
15.75501261882095
 10
185.1152361595461
 20
15.84863255131791
 10
185.1162325068354
 20
15.95112606689128
 10
185.1171927413092
 20
16.05353270248457
 10
185.1133211458023
 20
16.14735929609706
 10
185.1217789814385
 20
16.20036542840772
 10
185.1093075932853
 20
16.25211435651634
 10
185.1542106389856
 20
16.23850747227268
 10
185.1955083836768
 20
16.24100480321078
 10
185.2595344281018
 20
16.23648060575048
 10
185.2986111148762
 20
16.22781003043819
 10
185.3476543498679
 20
16.23515102071355
 10
185.3225080030616
 20
16.19602896051498
 10
185.2815901333673
 20
16.2056384245644
 10
185.2910109616565
 20
16.15540148170121
 10
185.2855647318702
 20
16.1038594563988
 10
185.2881699601762
 20
16.01959707584787
 10
185.2870102202112
 20
15.92559135583602
 10
185.288359106419
 20
15.83196865395627
 10
185.2849970101466
 20
15.74679517552245
 10
185.2920959917727
 20
15.6971685607202
 10
185.2812569154503
 20
15.64993694969924
 10
185.3304010225204
 20
15.66201674936789
 10
185.3794877630109
 20
15.6544739336295
 10
185.4573714280605
 20
15.65686070361369
 10
185.5350365172864
 20
15.65899381905358
 10
185.5845393931323
 20
15.65193391922382
 10
185.6344594750608
 20
15.66360151936158
 10
185.6223198516854
 20
15.61540235371466
 10
185.6305838229113
 20
15.57249219801434
 10
185.6223198650757
 20
15.52958201851709
 10
185.6344594549822
 20
15.48138288755318
 10
185.5845395158715
 20
15.49305034471981
 10
185.5350350651171
 20
15.485992024355
 10
185.4573784382937
 20
15.48811665229065
 10
185.3794643865722
 20
15.4905338936622
 10
185.3304500352676
 20
15.48291848194946
 10
185.28132461089
 20
15.49507952558054
 10
185.2915559988529
 20
15.45073013424558
 10
185.2856677678011
 20
15.40925436203251
 10
185.2878788305527
 20
15.3491539431555
 10
185.2874109346104
 20
15.30225782763064
 10
185.2874386992871
 20
15.27650146418332
 10
185.2874469028611
 20
15.26889163187843
 97
        1
330
A6
 75
     1
 76
     2
 52
45.0
 41
0.1
 77
     0
 78
     1
 53
45.0
 43
0.0
 44
0.0
 45
-0.282842712474619
 46
0.0
 79
     0
 98
        1
 10
0.0
 20
0.0
  0
HATCH
  5
C4
330
48
100
AcDbEntity
  8
1
  6
Continuous
 62
     2
100
AcDbHatch
 10
0.0
 20
0.0
 30
0.0
210
0.0
220
0.0
230
1.0
  2
CUSTOM6
 70
     0
 71
     1
 91
        1
 92
        1
 93
        1
 72
     4
 94
        3
 73
     0
 74
     0
 95
       91
 96
       87
 40
0.0
 40
0.0
 40
0.0
 40
0.0
 40
0.0345987051694581
 40
0.1258134969457106
 40
0.2547723404880176
 40
0.4026032099140482
 40
0.550434079339823
 40
0.6793929228813342
 40
0.7706077146545456
 40
0.8052064287753924
 40
1.12485239061174
 40
1.427402236304588
 40
1.706356627448545
 40
1.955541417869517
 40
2.169485938559878
 40
2.344350786657393
 40
2.480568411553375
 40
2.590440557418929
 40
2.649189927142213
 40
2.7493206432973
 40
2.912632739872055
 40
3.147745655996039
 40
3.244827496377365
 40
3.338490056941542
 40
3.583815413200997
 40
3.761423943231875
 40
3.886956104356136
 40
3.985855451880778
 40
4.09176625533201
 40
4.250186473806188
 40
4.422734315078369
 40
4.628285684831495
 40
4.872093227750091
 40
5.152549652135825
 40
5.464967135826448
 40
5.803201477840192
 40
6.160362988800807
 40
6.193449448262805
 40
6.284170385488346
 40
6.419718138750988
 40
6.587285046371954
 40
6.774063446709556
 40
6.967245678099226
 40
7.154024078802927
 40
7.321590987011029
 40
7.457138740875188
 40
7.547859678540783
 40
7.580946138167286
 40
7.608533084699633
 40
7.669224367063257
 40
7.729915649416125
 40
7.75750259593647
 40
7.790278062540065
 40
7.880146277417933
 40
8.01441996316802
 40
8.18041184238626
 40
8.365434637668525
 40
8.556801071612707
 40
8.741823866821587
 40
8.907815745907893
 40
9.042089431499615
 40
9.131957646242139
 40
9.164733112789857
 40
9.415425063136027
 40
9.667986180956294
 40
9.694169807460653
 40
9.756607686046149
 40
9.831130315321671
 40
9.893568193899672
 40
9.919751820398709
 40
9.950967964690527
 40
9.996421631207356
 40
10.2208798103675
 40
10.44341866196939
 40
10.47847970788254
 40
10.57091337438146
 40
10.7015954546062
 40
10.8514017416974
 40
11.00120802879854
 40
11.13189010906754
 40
11.22432377582376
 40
11.25938480938322
 40
11.2869717559554
 40
11.34766303835379
 40
11.40835432041594
 40
11.43594125891658
 40
11.43594125891658
 40
11.43594125891658
 40
11.43594125891658
 10
190.0818114333306
 20
15.55242795124832
 10
190.0702785844958
 20
15.5524279028767
 10
190.0283409445016
 20
15.55242773703919
 10
189.9434129719048
 20
15.55243125800664
 10
189.8207688553154
 20
15.55240926435634
 10
189.6791206917023
 20
15.55250801176809
 10
189.5379753698525
 20
15.55214686232176
 10
189.4141351317943
 20
15.55321883608844
 10
189.3317217825424
 20
15.55092249091024
 10
189.1727791229738
 20
15.56048569373171
 10
189.3503402353421
 20
15.19785394311218
 10
189.3379739205491
 20
14.95243127723017
 10
189.4064519473894
 20
14.66862501324796
 10
189.4693024320987
 20
14.4325099993904
 10
189.5452253431731
 20
14.23326740396158
 10
189.6303189577002
 20
14.07745347451448
 10
189.7244607592905
 20
13.9765785778141
 10
189.8282648207686
 20
13.92465852639094
 10
189.9125872030744
 20
13.97606484379529
 10
189.9351322179439
 20
14.09144544037504
 10
189.974573097537
 20
14.2188514970234
 10
189.9202919735006
 20
14.53622328087362
 10
190.0451218072479
 20
14.38982180140982
 10
190.2019291513642
 20
14.35795300331741
 10
190.0947720007059
 20
14.12421357767986
 10
190.0808711209856
 20
13.95972776584128
 10
190.0234709467197
 20
13.8313086912302
 10
189.9335020144972
 20
13.76018802353429
 10
189.809527465784
 20
13.74432324142859
 10
189.6634273196823
 20
13.7799379755474
 10
189.5243894320245
 20
13.90000570500751
 10
189.4102003962105
 20
14.0743568255069
 10
189.3146141301447
 20
14.29946603111479
 10
189.2318652572586
 20
14.56388246006544
 10
189.1807179256372
 20
14.88187933098506
 10
189.07701892073
 20
15.15543728488782
 10
189.2042841208478
 20
15.56005818612621
 10
189.0357890622978
 20
15.55112367849433
 10
188.9511995787038
 20
15.55315961418118
 10
188.8189876387591
 20
15.55213937388161
 10
188.656050509407
 20
15.55253230318185
 10
188.4733759170502
 20
15.55235696313124
 10
188.2847057373354
 20
15.55260105307222
 10
188.1014469020164
 20
15.55185657905992
 10
187.9404746832695
 20
15.55416360522179
 10
187.8029808335255
 20
15.54799804883421
 10
187.7289590372291
 20
15.5603283845796
 10
187.6613215186837
 20
15.54329323723314
 10
187.6732373719252
 20
15.59524438447331
 10
187.6655677285675
 20
15.64071424966378
 10
187.6732592225097
 20
15.68614453703601
 10
187.6613141797743
 20
15.73802395984517
 10
187.7283588305851
 20
15.72119143490206
 10
187.8017375665664
 20
15.73335409092615
 10
187.9379128305265
 20
15.72727231074901
 10
188.0973811801513
 20
15.72954834315001
 10
188.2789173085845
 20
15.72881233998905
 10
188.4658034862195
 20
15.72905954196076
 10
188.646801231686
 20
15.72886400799196
 10
188.808080257891
 20
15.72932234714782
 10
188.9393882124925
 20
15.72812673751149
 10
189.0225051322638
 20
15.73051347319685
 10
189.1556236547871
 20
15.72230605725406
 10
189.064589350261
 20
15.97752868952757
 10
188.9789633074358
 20
16.24164358328792
 10
189.0990589003403
 20
16.22904442969515
 10
189.1514264948496
 20
16.2269423576334
 10
189.2214497569673
 20
16.22535399889816
 10
189.2671922337781
 20
16.21602567538184
 10
189.3220812646895
 20
16.22545966915435
 10
189.2963574785668
 20
16.17733028655322
 10
189.1825397571503
 20
16.18266829742916
 10
189.3159346621159
 20
15.95449174576933
 10
189.1943658735488
 20
15.72156856595853
 10
189.3223188769433
 20
15.73087258884384
 10
189.404904840648
 20
15.72801001754621
 10
189.5307214850843
 20
15.72923437412246
 10
189.6741469838077
 20
15.72932431888907
 10
189.8157420951746
 20
15.72746163183797
 10
189.9459127249984
 20
15.73333075937103
 10
190.0193452286208
 20
15.72070340823151
 10
190.0891112922114
 20
15.73877563110354
 10
190.0775772605412
 20
15.68612850546221
 10
190.08331843467
 20
15.64221317686399
 10
190.0816615770927
 20
15.59089982676345
 10
190.0817757561687
 20
15.561587920214
 10
190.0818114333306
 20
15.55242795124832
 97
        1
330
A7
 75
     1
 76
     2
 52
45.0
 41
0.1
 77
     0
 78
     1
 53
45.0
 43
0.0
 44
0.0
 45
-0.282842712474619
 46
0.0
 79
     0
 98
        1
 10
0.0
 20
0.0
  0
HATCH
  5
C5
330
48
100
AcDbEntity
  8
1
  6
Continuous
 62
     2
100
AcDbHatch
 10
0.0
 20
0.0
 30
0.0
210
0.0
220
0.0
230
1.0
  2
CUSTOM7
 70
     0
 71
     1
 91
        1
 92
        1
 93
        1
 72
     4
 94
        3
 73
     0
 74
     0
 95
       75
 96
       71
 40
0.0
 40
0.0
 40
0.0
 40
0.0
 40
0.0342546099125996
 40
0.1245622414418846
 40
0.2522385480870198
 40
0.3985991922897479
 40
0.5449598364921775
 40
0.6726361431365933
 40
0.7629437746654253
 40
0.7971983935211571
 40
1.101723623444511
 40
1.408591244028733
 40
1.433332471682308
 40
1.487763172441812
 40
1.542193873073353
 40
1.566935100583772
 40
1.923523931813912
 40
2.271755704946304
 40
2.590579755093822
 40
2.858943305574142
 40
2.889120339303771
 40
2.91830585518134
 40
2.941366645521796
 40
2.996357760964461
 40
3.061992318132948
 40
3.1169834336199
 40
3.140044223990922
 40
3.411273122929748
 40
3.732441619736221
 40
3.761068217527825
 40
3.83778749962514
 40
3.948858699120418
 40
4.080541049098368
 40
4.2190937826193
 40
4.350776132715424
 40
4.461847332398397
 40
4.538566614670883
 40
4.567193212537035
 40
4.594907573991236
 40
4.666381453549604
 40
4.764111044002931
 40
4.870592538117478
 40
4.968322128633645
 40
5.039796008278159
 40
5.067510369775533
 40
5.094263603178106
 40
5.153120716663732
 40
5.211977830149172
 40
5.238731063551535
 40
5.27229053513866
 40
5.363380529444152
 40
5.497618415780289
 40
5.660621563451963
 40
5.838007341746954
 40
6.015393119907623
 40
6.178396267034595
 40
6.312634151838063
 40
6.403724143054712
 40
6.437283612667665
 40
6.46403684625764
 40
6.522893960004248
 40
6.581751071486503
 40
6.60850430159481
 40
6.637253941285241
 40
6.711397748907832
 40
6.81277805728941
 40
6.923237199256267
 40
7.024617507631934
 40
7.098761315216326
 40
7.12751094601656
 40
7.12751094601656
 40
7.12751094601656
 40
7.12751094601656
 10
188.4418622390513
 20
14.95849128472946
 10
188.4418622819655
 20
14.94707313408414
 10
188.4418624481077
 20
14.90555257842368
 10
188.4418593081736
 20
14.82146922003602
 10
188.4418788279749
 20
14.7000449732229
 10
188.4417912187686
 20
14.55980494047562
 10
188.4421116235179
 20
14.4200655679484
 10
188.4411605909688
 20
14.2974503889533
 10
188.4431978595916
 20
14.21587074438522
 10
188.4349433178694
 20
14.06271267078146
 10
188.7430797940884
 20
14.22560236054277
 10
189.0350645173689
 20
14.39482938687814
 10
189.0408354448683
 20
14.25973235781845
 10
189.0455471719873
 20
14.21617221160408
 10
189.0482535411906
 20
14.17211249350537
 10
189.0672545672973
 20
14.02272590363137
 10
188.6583942247285
 20
14.08681172241137
 10
188.3793710348812
 20
13.97296341410871
 10
188.1018081587171
 20
13.87364095810723
 10
187.8099837184329
 20
13.91630687596606
 10
187.786914467865
 20
13.81321679744476
 10
187.7537474383335
 20
13.78691091244729
 10
187.7480653962751
 20
13.83455309036512
 10
187.7284214559051
 20
13.87180336115286
 10
187.709508948563
 20
13.93007387847886
 10
187.6942849867714
 20
13.97385201008192
 10
187.6477246372943
 20
14.08759421046756
 10
187.9890897312476
 20
14.05576301119817
 10
188.2679649367417
 20
14.0216143510637
 10
188.2617753034941
 20
14.1691397647959
 10
188.2630935452806
 20
14.24013150908748
 10
188.2624831689981
 20
14.34719767958542
 10
188.2625871570758
 20
14.47398529785837
 10
188.2629987964087
 20
14.60849243495845
 10
188.2613907842002
 20
14.73395549950939
 10
188.2659902567958
 20
14.84505246718836
 10
188.2564186502243
 20
14.90761886800387
 10
188.2704001783723
 20
14.96595388294681
 10
188.2147384386738
 20
14.95289710581921
 10
188.1575655197856
 20
14.96136307749179
 10
188.0616048925686
 20
14.95729976080319
 10
187.9633767522862
 20
14.95970889852154
 10
187.8672582457604
 20
14.95551600613078
 10
187.8104648525855
 20
14.96429346440828
 10
187.7550356873426
 20
14.95094936849809
 10
187.7670679427967
 20
15.00036910959164
 10
187.7592003173981
 20
15.04393988030511
 10
187.7666295563878
 20
15.08830469118854
 10
187.7551930564186
 20
15.13902297764534
 10
187.8232102370174
 20
15.12162460758318
 10
187.8968496879788
 20
15.13417450237728
 10
188.0325064058246
 20
15.12799677011654
 10
188.1884909024555
 20
15.13029203093634
 10
188.3615926358167
 20
15.12940968263083
 10
188.5346942964197
 20
15.13029207142958
 10
188.6906789811227
 20
15.12799662956107
 10
188.8263351889802
 20
15.13417486262971
 10
188.8999756705656
 20
15.12162394218909
 10
188.9679914174727
 20
15.13902373012685
 10
188.9565590885919
 20
15.08830130414884
 10
188.9639539458299
 20
15.04397060811225
 10
188.9562039912267
 20
15.000283075501
 10
188.9681203741881
 20
14.95063590098154
 10
188.9108170223612
 20
14.96461411338102
 10
188.8520145789761
 20
14.95539755672938
 10
188.7525293633179
 20
14.9595226816461
 10
188.6494280098318
 20
14.95822760025569
 10
188.5537846354534
 20
14.95854077077322
 10
188.4857467971569
 20
14.95848776696827
 10
188.4514462213393
 20
14.95849051871338
 10
188.4418622390513
 20
14.95849128472946
 97
        1
330
A8
 75
     1
 76
     2
 52
45.0
 41
0.1
 77
     0
 78
     1
 53
45.0
 43
0.0
 44
0.0
 45
-0.282842712474619
 46
0.0
 79
     0
 98
        1
 10
0.0
 20
0.0
  0
HATCH
  5
C6
330
48
100
AcDbEntity
  8
1
  6
Continuous
 62
     2
100
AcDbHatch
 10
0.0
 20
0.0
 30
0.0
210
0.0
220
0.0
230
1.0
  2
CUSTOM8
 70
     0
 71
     1
 91
        1
 92
        1
 93
        1
 72
     4
 94
        3
 73
     0
 74
     0
 95
       15
 96
       11
 40
0.0
 40
0.0
 40
0.0
 40
0.0
 40
0.2785535985081815
 40
0.5215624748151892
 40
0.6076917375996809
 40
0.6938210001701044
 40
0.9405019146341393
 40
1.221691403482436
 40
1.300471877076667
 40
1.379252341682768
 40
1.379252341682768
 40
1.379252341682768
 40
1.379252341682768
 10
189.5681493631018
 20
16.22930267330958
 10
189.6296017794174
 20
16.17691646593049
 10
189.7446649974062
 20
16.07882876798135
 10
190.0397348497185
 20
15.92889785897606
 10
189.9025147631808
 20
15.84343227515356
 10
189.8041227843754
 20
15.71085785201923
 10
189.7130033590626
 20
16.01616985781697
 10
189.3636839480629
 20
16.07967869465496
 10
189.5119258376575
 20
16.17896509881282
 10
189.5494081874251
 20
16.21252348402902
 10
189.5681493631018
 20
16.22930267330958
 97
        1
330
A9
 75
     1
 76
     2
 52
45.0
 41
0.1
 77
     0
 78
     1
 53
45.0
 43
0.0
 44
0.0
 45
-0.282842712474619
 46
0.0
 79
     0
 98
        1
 10
0.0
 20
0.0
  0
HATCH
  5
C7
330
48
100
AcDbEntity
  8
1
  6
Continuous
 62
     2
100
AcDbHatch
 10
0.0
 20
0.0
 30
0.0
210
0.0
220
0.0
230
1.0
  2
CUSTOM9
 70
     0
 71
     1
 91
        1
 92
        1
 93
        1
 72
     4
 94
        3
 73
     0
 74
     0
 95
       35
 96
       31
 40
0.0
 40
0.0
 40
0.0
 40
0.0
 40
0.0335231036584835
 40
0.0713218571666382
 40
0.4278866681467452
 40
0.8116865841962722
 40
1.198190238001517
 40
1.561379546815357
 40
1.659983174627268
 40
1.759315573806971
 40
2.132719617232247
 40
2.525233363591037
 40
2.910815397782264
 40
3.265244364304893
 40
3.592606723586802
 40
3.96438615461015
 40
4.359942131744168
 40
4.75815411864469
 40
4.843846538703252
 40
4.936650065543398
 40
5.256616602537754
 40
5.581707404417071
 40
5.899719158309418
 40
6.198363494281335
 40
6.466301046614364
 40
6.493895311535253
 40
6.559697020194122
 40
6.638234543438544
 40
6.704036252149372
 40
6.731630508417746
 40
6.731630508417746
 40
6.731630508417746
 40
6.731630508417746
 10
191.9736010568631
 20
16.23463843718855
 10
191.9676006097758
 20
16.22480690542131
 10
191.9548344099132
 20
16.203889885797
 10
191.7949362006461
 20
16.17127126534648
 10
192.2322025842331
 20
15.88206680335955
 10
192.4345394828248
 20
15.6804113835859
 10
192.6819564267967
 20
15.4374938760346
 10
193.1831513624705
 20
15.36047662757558
 10
193.012556219896
 20
15.21876939175234
 10
192.9383299463271
 20
15.01710366209387
 10
192.6131432248184
 20
15.36956287175306
 10
192.3277741670676
 20
15.5317521255991
 10
192.033760407766
 20
15.7368713005344
 10
191.8084452691131
 20
16.2182748859589
 10
191.5993085055529
 20
15.75343046609219
 10
191.3207873674811
 20
15.54350952252942
 10
191.0371383177186
 20
15.37424456360331
 10
190.7078639527766
 20
15.00142360908191
 10
190.6277012318217
 20
15.19708014459361
 10
190.4759724909695
 20
15.32491104190242
 10
190.9083395826782
 20
15.40454031766219
 10
191.0962565329731
 20
15.60026634915622
 10
191.3468477420483
 20
15.81632996916851
 10
191.5714350470147
 20
15.98190992299972
 10
191.6259775409717
 20
16.26133964636399
 10
191.7494661029005
 20
16.24737950407713
 10
191.8060273344506
 20
16.24521268867301
 10
191.876187098492
 20
16.24046859881042
 10
191.9333414022074
 20
16.23709429350247
 10
191.9644190320801
 20
16.23519854710836
 10
191.9736010568631
 20
16.23463843718855
 97
        1
330
AA
 75
     1
 76
     2
 52
45.0
 41
0.1
 77
     0
 78
     1
 53
45.0
 43
0.0
 44
0.0
 45
-0.282842712474619
 46
0.0
 79
     0
 98
        1
 10
0.0
 20
0.0
  0
HATCH
  5
C8
330
48
100
AcDbEntity
  8
1
  6
Continuous
 62
     2
100
AcDbHatch
 10
0.0
 20
0.0
 30
0.0
210
0.0
220
0.0
230
1.0
  2
CUSTOM10
 70
     0
 71
     1
 91
        1
 92
        1
 93
        1
 72
     4
 94
        3
 73
     0
 74
     0
 95
       91
 96
       87
 40
0.0
 40
0.0
 40
0.0
 40
0.0
 40
0.0267532254356026
 40
0.0856103386461953
 40
0.1444674521992997
 40
0.1712206856614216
 40
0.2039416005638237
 40
0.2955601971649038
 40
0.4362601844614609
 40
0.6162252844506362
 40
0.8256392189705515
 40
1.05468570984472
 40
1.293548478893982
 40
1.532411247938896
 40
1.761457738800332
 40
1.970871673299442
 40
2.150836773257809
 40
2.291536760496755
 40
2.383155356837947
 40
2.415876284102596
 40
2.442629517489171
 40
2.501486630950155
 40
2.560343744425155
 40
2.58709697782736
 40
2.617068194441759
 40
2.699247336756929
 40
2.822032643467185
 40
2.973822353258714
 40
3.1430147048241
 40
3.31800793688065
 40
3.487200288187483
 40
3.638989997548935
 40
3.761775303795434
 40
3.843954445753741
 40
3.873925662230437
 40
3.890812773497687
 40
3.907699884765409
 40
3.937960767852168
 40
3.980983618139353
 40
4.199085915223622
 40
4.439444339229897
 40
4.677588241252304
 40
5.050698317827155
 40
5.448212454752508
 40
5.855291218034061
 40
6.138575438874375
 40
6.417434507570817
 40
6.444551104379861
 40
6.504207617347828
 40
6.563864130297794
 40
6.590980727086748
 40
6.84860946036219
 40
7.109611990648374
 40
7.352910904425961
 40
7.557830220685944
 40
7.587518925892822
 40
7.652834077352973
 40
7.718149228820667
 40
7.747837934035931
 40
7.854880190277457
 40
7.976511257373304
 40
8.369487896566685
 40
8.757514959200098
 40
9.126072419308013
 40
9.46063938036868
 40
9.74669559301196
 40
9.777569943095973
 40
9.807050320915112
 40
9.830377336112674
 40
9.886003295420775
 40
9.952395569415904
 40
10.0080215286933
 40
10.03134854386964
 40
10.21356951008419
 40
10.42203479291852
 40
10.66154556729885
 40
10.91693789562858
 40
11.15832906555021
 40
11.18982674595064
 40
11.27286608518809
 40
11.39026653031702
 40
11.52484752839176
 40
11.65942852646676
 40
11.77682897159663
 40
11.85986831083823
 40
11.89136598228554
 40
11.89136598228554
 40
11.89136598228554
 40
11.89136598228554
 10
190.702788500821
 20
14.70699600701846
 10
190.7028237765302
 20
14.71587847312057
 10
190.702936671081
 20
14.74430237047411
 10
190.7012984568502
 20
14.79409639169855
 10
190.7069750292924
 20
14.83657564478196
 10
190.6956928731721
 20
14.88730154856878
 10
190.7632296979046
 20
14.87012900740138
 10
190.8388029210715
 20
14.88290227166027
 10
190.9828357056017
 20
14.87629729457413
 10
191.1569419185444
 20
14.87888462206497
 10
191.3639599611022
 20
14.87800591955584
 10
191.5894688172398
 20
14.87828207920058
 10
191.8251162293428
 20
14.87818339658694
 10
192.0607640531372
 20
14.87828184412798
 10
192.2862717580652
 20
14.87800678190819
 10
192.4932934632832
 20
14.87888186270766
 10
192.6673888915317
 20
14.87630522678477
 10
192.8114492072015
 20
14.88288290449245
 10
192.8869691915324
 20
14.87016243405634
 10
192.954577603706
 20
14.88726400191718
 10
192.9430840140707
 20
14.83674785802983
 10
192.9505104581764
 20
14.79253252226554
 10
192.9428838928017
 20
14.74867966503673
 10
192.9546489459456
 20
14.69878374479402
 10
192.8930788492014
 20
14.71393227712587
 10
192.8256791738702
 20
14.70310665350747
 10
192.7013004056253
 20
14.7085203162631
 10
192.5554428236602
 20
14.70649205390859
 10
192.3893576440117
 20
14.70715777578461
 10
192.2188412621757
 20
14.70689643521315
 10
192.051979085542
 20
14.70721553391172
 10
191.9087346827141
 20
14.70635302590822
 10
191.777331386986
 20
14.70863300483096
 10
191.7239859134701
 20
14.70407704374216
 10
191.6485188456953
 20
14.70999914992997
 10
191.6769075779229
 20
14.70094169343473
 10
191.7033652409498
 20
14.6972591226895
 10
191.6633522907671
 20
14.6665427196799
 10
191.5713663691816
 20
14.67667591174864
 10
191.5439396207046
 20
14.43032502247705
 10
191.4478793967253
 20
14.27499558764348
 10
191.1917277964475
 20
13.94525417931876
 10
191.7627537732755
 20
14.08430022210896
 10
192.0173656320503
 20
14.08291779973742
 10
192.6279647048586
 20
13.99790569242382
 10
192.334069857811
 20
14.29685417558681
 10
192.0133304286516
 20
14.44330856902121
 10
192.1313543360433
 20
14.50025540818326
 10
192.1724716466255
 20
14.52420099873236
 10
192.2156812394402
 20
14.5459975881098
 10
192.3174574094438
 20
14.60928721253332
 10
192.4328867625244
 20
14.35147151408861
 10
192.6329591642282
 20
14.21616041113858
 10
192.7269077387248
 20
14.03792795139185
 10
192.9558829746366
 20
13.87997821027041
 10
192.8596031846698
 20
13.8291597257629
 10
192.8167959763784
 20
13.79881292523131
 10
192.7718243528801
 20
13.77466130281574
 10
192.7121720925244
 20
13.7255214674774
 10
192.6789731061318
 20
13.85997475673403
 10
192.558201335085
 20
14.01594265286734
 10
192.1970976005971
 20
13.88569928059614
 10
191.8385061955539
 20
13.90224694409817
 10
191.4570920450031
 20
13.89331229352436
 10
191.1703455282956
 20
13.82882671672334
 10
190.8592055599527
 20
13.94230668193931
 10
190.8268737818822
 20
13.83122259927252
 10
190.7896178253276
 20
13.81196313849573
 10
190.7865737632725
 20
13.85874784087
 10
190.7679892860587
 20
13.89806853919073
 10
190.7512436616774
 20
13.95765983478295
 10
190.738373091576
 20
14.00201969871473
 10
190.704232780646
 20
14.09106331120571
 10
190.9482714457773
 20
14.02181042943866
 10
191.1441394486703
 20
14.00030369058198
 10
191.2395426381314
 20
14.28226484478576
 10
191.2945135769625
 20
14.44363045421234
 10
191.5159619357131
 20
14.71391177589813
 10
191.38492393812
 20
14.70548446853809
 10
191.311002655584
 20
14.70779008497044
 10
191.1977459876235
 20
14.70671378321732
 10
191.0694251807482
 20
14.70707639076584
 10
190.9404252030417
 20
14.70697724466159
 10
190.82878409463
 20
14.70699932712646
 10
190.7514663970037
 20
14.70699579189744
 10
190.7132876532023
 20
14.70699595845155
 10
190.702788500821
 20
14.70699600701846
 97
        1
330
AB
 75
     1
 76
     2
 52
45.0
 41
0.1
 77
     0
 78
     1
 53
45.0
 43
0.0
 44
0.0
 45
-0.282842712474619
 46
0.0
 79
     0
 98
        1
 10
0.0
 20
0.0
  0
HATCH
  5
C9
330
48
100
AcDbEntity
  8
1
  6
Continuous
 62
     2
100
AcDbHatch
 10
0.0
 20
0.0
 30
0.0
210
0.0
220
0.0
230
1.0
  2
CUSTOM11
 70
     0
 71
     1
 91
        1
 92
        1
 93
        1
 72
     4
 94
        3
 73
     0
 74
     0
 95
      131
 96
      127
 40
0.0
 40
0.0
 40
0.0
 40
0.0
 40
0.019557702986112
 40
0.0426490537516497
 40
0.286360757590459
 40
0.5344948436235173
 40
0.7842238845612918
 40
0.8737315789517236
 40
0.9803832810373974
 40
1.092842274524209
 40
1.199761146664937
 40
1.289788768195492
 40
1.35157358079576
 40
1.370727117570484
 40
1.416400936025631
 40
1.470914848362306
 40
1.516588666796865
 40
1.535742203557427
 40
1.634216592297695
 40
1.76028334118029
 40
1.897966686686875
 40
2.031216387369577
 40
2.049689751138541
 40
2.101115601647385
 40
2.179502577740362
 40
2.278859318314304
 40
2.393194462258761
 40
2.516516648383658
 40
2.642834515405559
 40
2.766156701982848
 40
2.88049184675376
 40
2.979848588357627
 40
3.058235565442667
 40
3.109661416667731
 40
3.128134780702875
 40
3.146783742385276
 40
3.191254343314109
 40
3.244332157314853
 40
3.288802758224757
 40
3.307451719894056
 40
3.327717853843769
 40
3.383747753579398
 40
3.468388665924201
 40
3.574487837699019
 40
3.694892515729708
 40
3.822449946853464
 40
3.950007377922474
 40
4.070412055803148
 40
4.176511227371215
 40
4.261152139505073
 40
4.317182039080537
 40
4.337448172968555
 40
4.620011002705176
 40
4.88509663840733
 40
4.945373043527416
 40
5.014107710498792
 40
5.070481727659849
 40
5.319246955645331
 40
5.584812164515355
 40
5.859000912066067
 40
6.13374693755044
 40
6.401732212975985
 40
6.420736684002576
 40
6.47284571745817
 40
6.550702743901097
 40
6.646951193881278
 40
6.754234497937545
 40
6.865196086594294
 40
6.972479390364696
 40
7.06872783977883
 40
7.14658486545781
 40
7.198693898196011
 40
7.217698368912152
 40
7.234950401637152
 40
7.276089864275051
 40
7.325191803519796
 40
7.366331266093039
 40
7.383583298771911
 40
7.402779163494658
 40
7.45338644325797
 40
7.524934666450279
 40
7.60695336141204
 40
7.688972056436669
 40
7.760520279793199
 40
7.81112755974435
 40
7.830323424556313
 40
7.847844055310104
 40
7.894799345677595
 40
7.962779392755924
 40
8.043374293572736
 40
8.128174145162449
 40
8.208769044831014
 40
8.27674909039136
 40
8.323704379684367
 40
8.341225010071264
 40
8.358497614814835
 40
8.401679126699484
 40
8.457815092196554
 40
8.513951057736998
 40
8.557132569715426
 40
8.574405174511863
 40
8.602340668625212
 40
8.643455660543482
 40
8.66322527197047
 40
8.715345156568953
 40
8.789031889634474
 40
8.873502045527562
 40
8.957972194332545
 40
9.031658925577622
 40
9.083778811245152
 40
9.103548423013931
 40
9.119550083134184
 40
9.16081752238969
 40
9.217244429119004
 40
9.278724491652353
 40
9.335151398302086
 40
9.376418837363586
 40
9.39242049730609
 40
9.401196302741093
 40
9.417494229391988
 40
9.426270027758045
 40
9.440875075486504
 40
9.475702497008827
 40
9.517270709877307
 40
9.552098132006595
 40
9.566703169897254
 40
9.566703169897254
 40
9.566703169897254
 40
9.566703169897254
 10
194.6170254148528
 20
15.67015871510921
 10
194.6134345093402
 20
15.66453690702033
 10
194.6056039123619
 20
15.65227754419004
 10
194.5129968974484
 20
15.61601916042035
 10
194.4887622233289
 20
15.40148444212095
 10
194.3858709845944
 20
15.22197284509754
 10
194.1220492364241
 20
15.03615573798527
 10
194.2845471569144
 20
14.95959336566568
 10
194.3607225760805
 20
14.89856693195851
 10
194.4492171072732
 20
14.83515804545053
 10
194.5389930233083
 20
14.77525634219685
 10
194.5883817636018
 20
14.72102154849205
 10
194.6745708157343
 20
14.69286240541625
 10
194.6411260674202
 20
14.65713309652632
 10
194.621467116629
 20
14.62550387991777
 10
194.5919888217874
 20
14.58475872796031
 10
194.5688989446032
 20
14.55504663489657
 10
194.5380205968367
 20
14.50211422668551
 10
194.4729193365749
 20
14.62740334939061
 10
194.3796000122424
 20
14.68213900234058
 10
194.2950636285155
 20
14.73916423939379
 10
194.1722498125771
 20
14.89675287427105
 10
194.1764450847333
 20
14.82035806766563
 10
194.1751478652708
 20
14.77361280161035
 10
194.1758126448109
 20
14.69584785812351
 10
194.1755549986987
 20
14.59902068324192
 10
194.1756431239952
 20
14.48650279078597
 10
194.1756077302312
 20
14.36524085945509
 10
194.1756511758309
 20
14.24086897858792
 10
194.1755199942436
 20
14.11967683631189
 10
194.1759477562077
 20
14.00691148919616
 10
194.1746678202341
 20
13.91082913768633
 10
194.1779759851075
 20
13.83113826468604
 10
194.1715197740117
 20
13.78815175788694
 10
194.1806208705587
 20
13.74955432371957
 10
194.1447910339965
 20
13.75810887723988
 10
194.1115223815282
 20
13.75342519985363
 10
194.0604562576071
 20
13.75351298759701
 10
194.0269723972841
 20
13.75794430283737
 10
193.9907585408782
 20
13.74960793842425
 10
194.0009782568695
 20
13.7914527717922
 10
193.9936487887802
 20
13.83778560820131
 10
193.9973633136131
 20
13.92374831106013
 10
193.9959480554924
 20
14.02605142704897
 10
193.9964105554667
 20
14.14453223931618
 10
193.9962773686259
 20
14.26957683153522
 10
193.9963015910074
 20
14.39475828107277
 10
193.996335492558
 20
14.51286645379342
 10
193.9962060293161
 20
14.61628748709851
 10
193.996550754911
 20
14.6993203615404
 10
193.9958698278718
 20
14.75143368521644
 10
193.9994586600653
 20
14.87912907821946
 10
193.7826171386462
 20
14.58048716819586
 10
193.6021354921944
 20
14.35263981511591
 10
193.5490322295592
 20
14.49373443289837
 10
193.5200429133132
 20
14.54325767560903
 10
193.4196648062841
 20
14.64641779790228
 10
193.740512772326
 20
14.72695035023873
 10
193.868989700543
 20
14.91066283036648
 10
194.0906454325349
 20
15.11931995772025
 10
194.1770224894051
 20
15.29339211228619
 10
194.4549394229018
 20
15.56967051342851
 10
194.3346247839229
 20
15.56534559551445
 10
194.2863197351296
 20
15.56614856202887
 10
194.2102377454851
 20
15.56574582146916
 10
194.1167010009697
 20
15.56590275611942
 10
194.0117594788504
 20
15.56582502576558
 10
193.9033887738665
 20
15.56595464378887
 10
193.7981454235845
 20
15.56554393491024
 10
193.7056237819361
 20
15.56682073671925
 10
193.6268130800656
 20
15.56340766535179
 10
193.5839674565329
 20
15.57023350036659
 10
193.5449499586466
 20
15.56065064201454
 10
193.5526365271812
 20
15.59420779565792
 10
193.5485464404261
 20
15.62523550322403
 10
193.5485531368764
 20
15.67236529270934
 10
193.5526239724859
 20
15.70340941646736
 10
193.5449495574533
 20
15.73701861635786
 10
193.5834819405451
 20
15.72748410420727
 10
193.6241228014442
 20
15.73397435497952
 10
193.6951471850439
 20
15.73100150650123
 10
193.7729318149622
 20
15.7317476139903
 10
193.8507292246476
 20
15.73247814044399
 10
193.9217232089924
 20
15.72954235514028
 10
193.9624279791842
 20
15.73595468772832
 10
194.0009853489939
 20
15.72650524175866
 10
193.9927342754956
 20
15.76264692158684
 10
193.9982346669388
 20
15.80129837613165
 10
193.995575420619
 20
15.8691352856184
 10
193.9965815471563
 20
15.94591641538815
 10
193.9960178018347
 20
16.0284939358291
 10
193.9970714526621
 20
16.10517329230102
 10
193.9942675863158
 20
16.17331990776993
 10
194.0000702721334
 20
16.21132399809667
 10
193.9915654551186
 20
16.24758448077981
 10
194.0255610233143
 20
16.23755723772256
 10
194.0594575683106
 20
16.24073266814113
 10
194.1126669060336
 20
16.23508965641074
 10
194.1660768574448
 20
16.23434774436955
 10
194.1995914649458
 20
16.22819223483501
 10
194.238808618298
 20
16.23346029774244
 10
194.2120263698547
 20
16.19253380793421
 10
194.1708111001748
 20
16.20371204538632
 10
194.178264154091
 20
16.15867056192613
 10
194.1742227952212
 20
16.11412278028668
 10
194.1761714049672
 20
16.04223572622062
 10
194.1752364849789
 20
15.96168630589016
 10
194.176510719006
 20
15.88173995405108
 10
194.1732043793895
 20
15.80841837083175
 10
194.1802106179992
 20
15.76688643002503
 10
194.1701440380156
 20
15.72752418567994
 10
194.2029814803946
 20
15.73468063430841
 10
194.23645772965
 20
15.73027243137822
 10
194.2915053476028
 20
15.73217943347768
 10
194.3489502595313
 20
15.7318536640716
 10
194.4023026248299
 20
15.73106308732955
 10
194.4398540896619
 20
15.73313959117942
 10
194.4623172523218
 20
15.7302233816698
 10
194.4751678073716
 20
15.73572552643979
 10
194.4858255685884
 20
15.73801118197741
 10
194.4986635650146
 20
15.74494972588077
 10
194.5145991033081
 20
15.72853046313654
 10
194.5410623920912
 20
15.71709122319418
 10
194.572680525379
 20
15.69644687835124
 10
194.5987255892194
 20
15.68116869628206
 10
194.6128517724021
 20
15.67266976323081
 10
194.6170254148528
 20
15.67015871510921
 97
        1
330
AC
 75
     1
 76
     2
 52
45.0
 41
0.1
 77
     0
 78
     1
 53
45.0
 43
0.0
 44
0.0
 45
-0.282842712474619
 46
0.0
 79
     0
 98
        1
 10
0.0
 20
0.0
  0
HATCH
  5
CA
330
48
100
AcDbEntity
  8
1
  6
Continuous
 62
     2
100
AcDbHatch
 10
0.0
 20
0.0
 30
0.0
210
0.0
220
0.0
230
1.0
  2
CUSTOM12
 70
     0
 71
     1
 91
        1
 92
        1
 93
        1
 72
     4
 94
        3
 73
     0
 74
     0
 95
      124
 96
      120
 40
0.0
 40
0.0
 40
0.0
 40
0.0
 40
0.0278187229623658
 40
0.101159016238029
 40
0.2048470170581712
 40
0.3237088716546171
 40
0.4425707262504378
 40
0.5462587270677662
 40
0.6195990203287071
 40
0.6474177522552796
 40
0.6750060736098473
 40
0.7357003855246027
 40
0.796394699807778
 40
0.8239830245604203
 40
0.8540933811135296
 40
0.9373396629441124
 40
1.063094687346336
 40
1.220731268641089
 40
1.399622220917622
 40
1.589140358640493
 40
1.77865849642646
 40
1.957549448943013
 40
2.11518603087555
 40
2.240941056916768
 40
2.324187341762781
 40
2.354297700111631
 40
2.381886024675048
 40
2.442580338715641
 40
2.503274652757667
 40
2.530862977322685
 40
2.560983949286354
 40
2.640393784459904
 40
2.75266286176499
 40
2.881361560122699
 40
3.010060258458467
 40
3.122329335707534
 40
3.201739170819324
 40
3.2318601427544
 40
3.264298024031489
 40
3.352343701779449
 40
3.482095226870103
 40
3.639650650174524
 40
3.811108022567155
 40
3.982565394929835
 40
4.140120818154579
 40
4.26987234314342
 40
4.357918020804569
 40
4.390355902046232
 40
4.423256253994318
 40
4.50810453007356
 40
4.624121560635538
 40
4.750528176028362
 40
4.866545206597075
 40
4.951393482685753
 40
4.984293834638643
 40
5.011450833234863
 40
5.071196230143118
 40
5.130941627046664
 40
5.158098625637636
 40
5.190998977589758
 40
5.275847253676333
 40
5.391864284242033
 40
5.518270899631674
 40
5.634287930190923
 40
5.719136206268318
 40
5.752036558215722
 40
5.782130946262728
 40
5.862783906208844
 40
5.979550131754633
 40
6.117984316619942
 40
6.263641154567382
 40
6.402075339393494
 40
6.518841564887205
 40
6.599494524794733
 40
6.629588912827949
 40
6.654403028205831
 40
6.71357514946829
 40
6.784199939310494
 40
6.84337206047526
 40
6.868186175784782
 40
6.896246243182405
 40
6.939586233732411
 40
6.96784656453928
 40
7.043584251064858
 40
7.153234334427643
 40
7.283231855711491
 40
7.420011856013681
 40
7.550009376559133
 40
7.659659458815459
 40
7.735397144398095
 40
7.763657474832505
 40
7.796409727991736
 40
7.880876065075902
 40
7.996370852443724
 40
8.122208446394914
 40
8.237703224773973
 40
8.32216956198453
 40
8.354921815179118
 40
8.382078813280204
 40
8.44182420917798
 40
8.5015696052096
 40
8.528726603454484
 40
8.561478856664078
 40
8.64594519384502
 40
8.761439980830996
 40
8.887277580728433
 40
9.002772361963391
 40
9.087238696622503
 40
9.11999094919653
 40
9.152428830574262
 40
9.240474508599567
 40
9.370226034110651
 40
9.527781457945693
 40
9.699238830942857
 40
9.870696203940224
 40
10.0282516277758
 40
10.15800315328755
 40
10.24604883131319
 40
10.27848670374725
 40
10.27848670374725
 40
10.27848670374725
 40
10.27848670374725
 10
195.3821827564425
 20
14.01410517385921
 10
195.3914554737564
 20
14.01410498511438
 10
195.4251744536901
 20
14.01410430876878
 10
195.4934706812503
 20
14.01411807243468
 10
195.5920141711614
 20
14.01403224219709
 10
195.706206646484
 20
14.01441755612413
 10
195.8185894417095
 20
14.01300835897712
 10
195.9214376600139
 20
14.017191174224
 10
195.9806839874867
 20
14.0082308925216
 10
196.0371265937052
 20
14.02164434526219
 10
196.0246255586969
 20
13.97087198613374
 10
196.0329549635721
 20
13.9258932093894
 10
196.0248170841133
 20
13.88056752990218
 10
196.0370529214476
 20
13.8293193240805
 10
195.974777349035
 20
13.84447955364845
 10
195.9060513026884
 20
13.83359750710331
 10
195.7782756749609
 20
13.8391130474755
 10
195.6262984511661
 20
13.8370085125328
 10
195.4502695972543
 20
13.83771002588055
 10
195.2644431934308
 20
13.83745237530872
 10
195.0786167437198
 20
13.83771005144184
 10
194.9025880142192
 20
13.83700841847313
 10
194.7506104154218
 20
13.83911332229567
 10
194.6228357664581
 20
13.83359680767228
 10
194.5541077836605
 20
13.84448077125512
 10
194.4918349042906
 20
13.82931786683793
 10
194.5040616290046
 20
13.88057510804902
 10
194.4960004462621
 20
13.92582473272299
 10
194.5040675809921
 20
13.97106357955335
 10
194.4918238487106
 20
14.0223417691011
 10
194.5525017120717
 20
14.00749577363319
 10
194.616281074575
 20
14.01756448170887
 10
194.7277314353505
 20
14.01294644212167
 10
194.8497533443814
 20
14.01413328905632
 10
194.9719538137802
 20
14.01515863900797
 10
195.082979428736
 20
14.01092475623571
 10
195.1476517413919
 20
14.02018584521893
 10
195.2091162810457
 20
14.00604423049855
 10
195.1930065601292
 20
14.0723552788469
 10
195.2042980327314
 20
14.14447790122151
 10
195.1987400822517
 20
14.27513760888478
 10
195.2008035061646
 20
14.42607323708446
 10
195.200016712725
 20
14.59335873108108
 10
195.2007845215583
 20
14.76061110332543
 10
195.1988038785584
 20
14.91163289270168
 10
195.2041306156577
 20
15.04206069553267
 10
195.193310138838
 20
15.11465442606169
 10
195.2090326429831
 20
15.18150469437065
 10
195.1432708132455
 20
15.16580512491121
 10
195.0756367830738
 20
15.1760924308427
 10
194.9615885293802
 20
15.17113786847406
 10
194.8451242674913
 20
15.17414128030755
 10
194.7306554121504
 20
15.16880303143675
 10
194.6640324657849
 20
15.18001268075098
 10
194.5990769715233
 20
15.16349132665306
 10
194.6107989758753
 20
15.21473720477231
 10
194.6032830189167
 20
15.2595033378415
 10
194.6107989878881
 20
15.30426944897908
 10
194.5990769505394
 20
15.35551536129563
 10
194.6640326339237
 20
15.33899381766659
 10
194.7306533339848
 20
15.35020571373776
 10
194.8451352858073
 20
15.34485436710503
 10
194.9615454436954
 20
15.34791188770951
 10
195.0757660174615
 20
15.34278499010553
 10
195.1430150439191
 20
15.3534573335542
 10
195.2083325941394
 20
15.33742082668929
 10
195.1941391448507
 20
15.39949685749891
 10
195.2036059462951
 20
15.46586761628589
 10
195.1990269004041
 20
15.58239972741788
 10
195.2007696555904
 20
15.71426685022187
 10
195.1997551495348
 20
15.85615960150074
 10
195.2017191344328
 20
15.98769050702374
 10
195.1964668553807
 20
16.10524577282782
 10
195.2073408763429
 20
16.16947789001371
 10
195.191953664181
 20
16.23108802544828
 10
195.2407591537761
 20
16.21702407381896
 10
195.2853995564692
 20
16.21954742075126
 10
195.3538643946717
 20
16.21512797401564
 10
195.3959106169081
 20
16.20613025543863
 10
195.4487544758756
 20
16.21411714866426
 10
195.4207035002023
 20
16.17113917611834
 10
195.3749142248631
 20
16.18259552044232
 10
195.3869539073313
 20
16.12173520005544
 10
195.379608607068
 20
16.05769299469257
 10
195.3831195826205
 20
15.94909368864241
 10
195.3819806760215
 20
15.82494319145
 10
195.3819174780304
 20
15.69189719830005
 10
195.383287296691
 20
15.56797381249581
 10
195.3791638801355
 20
15.45868337849267
 10
195.3877763103606
 20
15.39608580094055
 10
195.3746757454443
 20
15.33740133296216
 10
195.4393884328231
 20
15.35362113810722
 10
195.5060405953181
 20
15.34270260383157
 10
195.6198779541112
 20
15.34793740173589
 10
195.7357259122091
 20
15.34485547516752
 10
195.849692426326
 20
15.35018259812346
 10
195.9160341018068
 20
15.33904208166386
 10
195.980718852544
 20
15.35546979593004
 10
195.9689820772686
 20
15.30425925209998
 10
195.9765168063002
 20
15.2595033412106
 10
195.9689820992222
 20
15.21474739010199
 10
195.9807188140697
 20
15.16353690871333
 10
195.9160344075222
 20
15.17996427794496
 10
195.8496886430804
 20
15.16882784447555
 10
195.7357459487006
 20
15.174131158934
 10
195.6197995623065
 20
15.17114764593829
 10
195.5062756882148
 20
15.17606892268668
 10
195.4389231318838
 20
15.16585087513815
 10
195.3734285122536
 20
15.18145996139084
 10
195.389171361926
 20
15.11463851827683
 10
195.3783275998254
 20
15.0420705781615
 10
195.3836581629834
 20
14.91162247614671
 10
195.3817136151897
 20
14.76064558185466
 10
195.3823133683256
 20
14.59322243934381
 10
195.3821506559647
 20
14.42656176118577
 10
195.3821895488177
 20
14.27360142921826
 10
195.3821816413141
 20
14.14849178985882
 10
195.3821828382787
 20
14.06507890991589
 10
195.382182771625
 20
14.02491778282141
 10
195.3821827564425
 20
14.01410517385921
 97
        1
330
AD
 75
     1
 76
     2
 52
45.0
 41
0.1
 77
     0
 78
     1
 53
45.0
 43
0.0
 44
0.0
 45
-0.282842712474619
 46
0.0
 79
     0
 98
        1
 10
0.0
 20
0.0
  0
HATCH
  5
CB
330
48
100
AcDbEntity
  8
1
  6
Continuous
 62
     2
100
AcDbHatch
 10
0.0
 20
0.0
 30
0.0
210
0.0
220
0.0
230
1.0
  2
CUSTOM13
 70
     0
 71
     1
 91
        1
 92
        1
 93
        3
 72
     4
 94
        3
 73
     0
 74
     0
 95
       24
 96
       20
 40
0.0
 40
0.0
 40
0.0
 40
0.0
 40
0.2211075008750404
 40
0.4273218586281953
 40
0.5080174679272556
 40
0.5914835907949425
 40
0.8143265690284798
 40
1.05465130269613
 40
1.295452694032078
 40
1.518109231335599
 40
1.540864321911775
 40
1.595126460627981
 40
1.659890947900024
 40
1.714153085190382
 40
1.736908174964216
 40
1.76495110074102
 40
1.80156229123017
 40
1.953914424546477
 40
2.126104167382188
 40
2.126104167382188
 40
2.126104167382188
 40
2.126104167382188
 10
185.937536955691
 20
15.58989295112951
 10
185.9112579081815
 20
15.53097628234429
 10
185.8604698894389
 20
15.4171113967943
 10
185.8131784839088
 20
15.1444195823242
 10
185.704348280261
 20
15.24445482575639
 10
185.5514800279577
 20
15.27118593367234
 10
185.7686155181193
 20
15.48518135017707
 10
185.7838483674377
 20
15.70332117782567
 10
185.8906889491993
 20
15.88451579066507
 10
185.8305380947083
 20
16.16913226311078
 10
185.9334317395397
 20
16.14114089222361
 10
185.977993346814
 20
16.13243251602303
 10
186.038084239537
 20
16.12139654183514
 10
186.0756619587424
 20
16.1076752305575
 10
186.1252466928569
 20
16.10756076160623
 10
186.0930158919341
 20
16.07306592397997
 10
186.0171802221839
 20
16.08404104537956
 10
186.0429447159635
 20
15.89858969582496
 10
186.0055896763835
 20
15.80702313549786
 10
185.9857704961614
 20
15.75844135397892
 72
     4
 94
        3
 73
     0
 74
     0
 95
       70
 96
       66
 40
0.0
 40
0.0
 40
0.0
 40
0.0
 40
0.0241731073022609
 40
0.084605898899355
 40
0.1631685280364936
 40
0.2417311571806809
 40
0.3021639488314067
 40
0.3263370654918847
 40
0.353311825427375
 40
0.4228783438950995
 40
0.517999909534781
 40
0.6216398239506514
 40
0.7167613891545624
 40
0.7863279069699832
 40
0.8133026791813333
 40
0.8372943998825645
 40
0.894505426143289
 40
0.9627895542029525
 40
1.020000580356367
 40
1.043992300982713
 40
1.071934345538319
 40
1.113121768789387
 40
1.145225199349024
 40
1.225483775430348
 40
1.329819923790081
 40
1.434156072013996
 40
1.514414647816204
 40
1.546518078229125
 40
1.578974764281126
 40
1.662678849335689
 40
1.777131373690762
 40
1.901833377498063
 40
2.016285900524649
 40
2.099989982552612
 40
2.132446666595198
 40
2.158782354511651
 40
2.216720867935042
 40
2.274659381363067
 40
2.300995069285729
 40
2.333451754095957
 40
2.417155836574207
 40
2.53160835901647
 40
2.656310362315846
 40
2.770762886421803
 40
2.854466971373537
 40
2.886923657397599
 40
2.913597976866617
 40
2.982389642907348
 40
3.076451716977745
 40
3.178937260487761
 40
3.272999334767698
 40
3.341791001085848
 40
3.368465320689744
 40
3.39697608076505
 40
3.472140811872372
 40
3.578408190335317
 40
3.700226892482981
 40
3.822045594661454
 40
3.928312973283759
 40
4.003477705342327
 40
4.031988456894421
 40
4.058324144825939
 40
4.116262658266681
 40
4.174201171432061
 40
4.200536849640711
 40
4.200536849640711
 40
4.200536849640711
 40
4.200536849640711
 10
185.9857704961614
 20
15.75844135397892
 10
185.9938259544684
 20
15.75844359811873
 10
186.0220200663249
 20
15.75845146032984
 10
186.0765534803684
 20
15.75830754828559
 10
186.148289180862
 20
15.75909120500085
 10
186.2236240137084
 20
15.75627570463996
 10
186.2713052366463
 20
15.76298403401147
 10
186.3195071245644
 20
15.75197563692614
 10
186.3062571799902
 20
15.80546402997247
 10
186.3151093964566
 20
15.86049583543338
 10
186.3108698036314
 20
15.95419908726409
 10
186.3133483481307
 20
16.04959482218889
 10
186.3090938706089
 20
16.14356821983795
 10
186.3179818665875
 20
16.19795062438458
 10
186.3046977409973
 20
16.25233997691933
 10
186.3514119277141
 20
16.23842216335839
 10
186.3943254545774
 20
16.24103877374559
 10
186.4605443456727
 20
16.23648422451271
 10
186.5013342271851
 20
16.22778162134769
 10
186.5525145690901
 20
16.23531799890753
 10
186.5253720487202
 20
16.19349970223249
 10
186.4803096055662
 20
16.20284992073373
 10
186.4942065045009
 20
16.13841207372314
 10
186.485841443161
 20
16.07378219627935
 10
186.4903632178356
 20
15.97529141194275
 10
186.4854741311123
 20
15.87595932842875
 10
186.495025899204
 20
15.8129311555321
 10
186.4799761455156
 20
15.7496401149997
 10
186.544915945717
 20
15.7651507294446
 10
186.6116246399462
 20
15.75499387697997
 10
186.7241435470801
 20
15.75988800099555
 10
186.8390235448936
 20
15.7569120473297
 10
186.9519871999736
 20
15.76221664185177
 10
187.0176267597673
 20
15.75107306472277
 10
187.0816276691054
 20
15.76744532320048
 10
187.0703142889186
 20
15.71761689905344
 10
187.077533987151
 20
15.67416715212077
 10
187.0703142611266
 20
15.63071745587282
 10
187.0816277175995
 20
15.58088895196592
 10
187.0176263598967
 20
15.59726166091082
 10
186.9519921240449
 20
15.5861127166131
 10
186.8389974317313
 20
15.59144857206575
 10
186.7242456548617
 20
15.5883434566354
 10
186.6113183686826
 20
15.59364894682316
 10
186.5455220903547
 20
15.58257300019303
 10
186.4816097975316
 20
15.59887597847348
 10
186.4936015165081
 20
15.5442352439554
 10
186.4862104612963
 20
15.48854295047717
 10
186.4892684841939
 20
15.39649689140593
 10
186.4893422785641
 20
15.30179109873271
 10
186.4860313578316
 20
15.20952782902582
 10
186.4939505989859
 20
15.15435768736534
 10
186.4815076611575
 20
15.10058169100604
 10
186.5389116551591
 20
15.11453768863259
 10
186.5994708140342
 20
15.10511457884695
 10
186.7048680855042
 20
15.10942885929178
 10
186.8204294070586
 20
15.10835504612502
 10
186.9359688877763
 20
15.10725965901468
 10
187.0414181130808
 20
15.111625257711
 10
187.1018680471774
 20
15.10209426031149
 10
187.1592837739082
 20
15.11617289606849
 10
187.1477773876677
 20
15.06707153266036
 10
187.153756678172
 20
15.02564658018897
 10
187.1520311050772
 20
14.97651677966807
 10
187.1521500122941
 20
14.94854428447644
 10
187.1521871691803
 20
14.93980288195962
 72
     4
 94
        3
 73
     0
 74
     0
 95
       62
 96
       58
 40
0.0
 40
0.0
 40
0.0
 40
0.0
 40
0.0598250028306779
 40
0.2024846486890226
 40
0.3727558389207957
 40
0.5154154847918164
 40
0.5752404975765444
 40
0.9332326775470621
 40
1.290451762836964
 40
1.602077253144905
 40
1.699931634113448
 40
1.799359756430367
 40
2.270120149658262
 40
2.80466192846714
 40
2.882342287388853
 40
3.0765431857247
 40
3.329004354841161
 40
3.581465524573985
 40
3.775666424549265
 40
3.853346784563885
 40
3.899120679598783
 40
3.984129341792371
 40
4.029903236815872
 40
4.105797496057634
 40
4.295533144149602
 40
4.542189486607559
 40
4.788845828870223
 40
4.978581476403618
 40
5.054475735237465
 40
5.621734664330176
 40
6.130867242035117
 40
6.225249780945329
 40
6.318913039725731
 40
6.663579954563936
 40
7.047498900228422
 40
7.435230791577163
 40
7.498943906669518
 40
7.650875181211341
 40
7.832212509002624
 40
7.98414378369784
 40
8.047856898903909
 40
8.091554632734606
 40
8.17270756696848
 40
8.216405300773394
 40
8.289021782167046
 40
8.462184160765181
 40
8.668861838015422
 40
8.842024215275805
 40
8.914640695487739
 40
8.98988158087277
 40
9.155411528836098
 40
9.3209414777503
 40
9.396182352492378
 40
9.454709011150033
 40
9.583467660179526
 40
9.712226309024278
 40
9.770752958001896
 40
9.770752958001896
 40
9.770752958001896
 40
9.770752958001896
 10
187.1521871691803
 20
14.93980288195962
 10
187.1322348171594
 20
14.93980875568684
 10
187.0647037716438
 20
14.93982863806169
 10
186.9410612161766
 20
14.93949362520338
 10
186.7863180150039
 20
14.94107673750522
 10
186.6697349482467
 20
14.93686078860511
 10
186.4550942634228
 20
14.95215205331628
 10
186.8518948407229
 20
14.59198721286365
 10
186.894565606927
 20
14.37510503396994
 10
187.3189162146647
 20
14.19325062512085
 10
187.1439821496117
 20
14.08985196568101
 10
187.0194523924978
 20
13.87831523213828
 10
186.7666277235969
 20
14.34806081001577
 10
186.479760289358
 20
14.99511516984942
 10
186.4906335926618
 20
14.68782672154961
 10
186.4882892777917
 20
14.52288616972041
 10
186.4861096126368
 20
14.28879670711962
 10
186.4980774396305
 20
14.04498072422034
 10
186.4687984740584
 20
13.89855796861279
 10
186.5114522625428
 20
13.75113490174855
 10
186.4239814005624
 20
13.76685797306458
 10
186.3768527606745
 20
13.76694303543694
 10
186.2898973207741
 20
13.75109425483226
 10
186.3313474021752
 20
13.89527771422983
 10
186.3029875004313
 20
14.03855052698565
 10
186.3145973775328
 20
14.27674947365266
 10
186.31241756483
 20
14.50517235240221
 10
186.3103111128022
 20
14.66705729375794
 10
186.3208035438352
 20
14.98153709333378
 10
186.0128963252875
 20
14.2922947087273
 10
185.7055258267351
 20
13.8147675024183
 10
185.5851367066279
 20
14.03741112637417
 10
185.4074607910617
 20
14.15011034954873
 10
185.8853326362906
 20
14.32548143465536
 10
185.9353959057231
 20
14.56091929251787
 10
186.3583799621655
 20
14.95322989344633
 10
186.1276754273491
 20
14.93655307029074
 10
186.0049685859292
 20
14.94269518948783
 10
185.8325483095616
 20
14.93312822699593
 10
185.7213224694402
 20
14.9544881848966
 10
185.60257796274
 20
14.92136265357438
 10
185.6183169706643
 20
15.00203900607075
 10
185.617855093372
 20
15.0464541429115
 10
185.6027881889884
 20
15.12967081779024
 10
185.7372380935411
 20
15.09062651984347
 10
185.8619755545728
 20
15.117397293289
 10
186.0628755237283
 20
15.1006394904451
 10
186.1921540949366
 20
15.12204225913507
 10
186.3328419928319
 20
15.08868778853867
 10
186.2980927452647
 20
15.22651875785339
 10
186.3222185666737
 20
15.34963257349575
 10
186.2967086182426
 20
15.47024055670265
 10
186.3333251146708
 20
15.60539865141251
 10
186.2211417027778
 20
15.58094545781576
 10
186.1280356457128
 20
15.59307749841756
 10
186.0191547579792
 20
15.58957630069713
 10
185.9569697640923
 20
15.58981755951323
 10
185.9375369557201
 20
15.58989295123865
 97
        3
330
AF
330
B0
330
AE
 75
     1
 76
     2
 52
45.0
 41
0.1
 77
     0
 78
     1
 53
45.0
 43
0.0
 44
0.0
 45
-0.282842712474619
 46
0.0
 79
     0
 98
        1
 10
0.0
 20
0.0
  0
HATCH
  5
CC
330
48
100
AcDbEntity
  8
1
  6
Continuous
 62
     2
100
AcDbHatch
 10
0.0
 20
0.0
 30
0.0
210
0.0
220
0.0
230
1.0
  2
CUSTOM14
 70
     0
 71
     1
 91
        1
 92
        1
 93
        4
 72
     1
 10
192.457813803263
 20
15.22875434021989
 11
191.160297169703
 21
15.22875434021989
 72
     1
 10
191.160297169703
 20
15.22875434021989
 11
191.160297169703
 21
15.39722336795967
 72
     1
 10
191.160297169703
 20
15.39722336795967
 11
192.457813803263
 21
15.39722336795967
 72
     1
 10
192.457813803263
 20
15.39722336795967
 11
192.457813803263
 21
15.22875434021989
 97
        1
330
B1
 75
     1
 76
     2
 52
45.0
 41
0.1
 77
     0
 78
     1
 53
45.0
 43
0.0
 44
0.0
 45
-0.282842712474619
 46
0.0
 79
     0
 98
        1
 10
0.0
 20
0.0
  0
ENDBLK
  5
4A
330
48
100
AcDbEntity
  8
0
100
AcDbBlockEnd
  0
BLOCK
  5
4D
330
4B
100
AcDbEntity
  8
0
100
AcDbBlockBegin
  2
開示A4枠
 70
     0
 10
0.0
 20
0.0
 30
0.0
  3
開示A4枠
  1

  0
INSERT
  5
4C
330
4B
100
AcDbEntity
  8
1
100
AcDbBlockReference
  2
開示A4
 10
0.0
 20
0.0
 30
0.0
  0
ENDBLK
  5
4E
330
4B
100
AcDbEntity
  8
0
100
AcDbBlockEnd
  0
BLOCK
  5
10D
330
104
100
AcDbEntity
  8
0
100
AcDbBlockBegin
  2
*D3
 70
     1
 10
0.0
 20
0.0
 30
0.0
  3
*D3
  1

  0
LINE
  5
105
330
104
100
AcDbEntity
  8
1
  6
Continuous
 62
     2
100
AcDbLine
 10
94.1169235359921
 20
130.3480561655797
 30
0.0
 11
94.1169235359921
 21
123.3480561655797
 31
0.0
  0
LINE
  5
106
330
104
100
AcDbEntity
  8
1
  6
Continuous
 62
     2
100
AcDbLine
 10
94.1169235359921
 20
136.4480561655783
 30
0.0
 11
94.1169235359921
 21
130.3480561655797
 31
0.0
  0
LINE
  5
107
330
104
100
AcDbEntity
  8
1
  6
Continuous
 62
     2
100
AcDbLine
 10
94.1169235359921
 20
143.4480561655783
 30
0.0
 11
94.1169235359921
 21
136.4480561655783
 31
0.0
  0
LINE
  5
108
330
104
100
AcDbEntity
  8
1
  6
Continuous
 62
     2
100
AcDbLine
 10
108.7962911588002
 20
130.3480561655797
 30
0.0
 11
93.1169235359921
 21
130.3480561655797
 31
0.0
  0
LINE
  5
109
330
104
100
AcDbEntity
  8
1
  6
Continuous
 62
     2
100
AcDbLine
 10
108.7962911588002
 20
136.4480561655783
 30
0.0
 11
93.1169235359921
 21
136.4480561655783
 31
0.0
  0
SOLID
  5
10A
330
104
100
AcDbEntity
  8
1
 62
     2
100
AcDbTrace
 10
93.65613979443621
 20
139.9480561655783
 30
0.0
 11
94.57770727754799
 21
139.9480561655783
 31
0.0
 12
94.1169235359921
 22
136.4480561655783
 32
0.0
 13
94.1169235359921
 23
136.4480561655783
 33
0.0
  0
SOLID
  5
10B
330
104
100
AcDbEntity
  8
1
 62
     2
100
AcDbTrace
 10
94.57770727754799
 20
126.8480561655797
 30
0.0
 11
93.65613979443621
 21
126.8480561655797
 31
0.0
 12
94.1169235359921
 22
130.3480561655797
 32
0.0
 13
94.1169235359921
 23
130.3480561655797
 33
0.0
  0
MTEXT
  5
10C
330
104
100
AcDbEntity
  8
1
 62
     7
100
AcDbMText
 10
93.1169235359921
 20
132.4188244299687
 30
0.0
 40
3.5
 41
0.0
 71
     7
 72
     1
  1
7
  7
CONVERTER_12
 11
0.0
 21
1.0
 31
0.0
 73
     1
 44
0.60024009603842
  0
ENDBLK
  5
10E
330
104
100
AcDbEntity
  8
0
100
AcDbBlockEnd
  0
BLOCK
  5
118
330
111
100
AcDbEntity
  8
0
100
AcDbBlockBegin
  2
*D4
 70
     1
 10
0.0
 20
0.0
 30
0.0
  3
*D4
  1

  0
LINE
  5
112
330
111
100
AcDbEntity
  8
1
  6
Continuous
 62
     2
100
AcDbLine
 10
118.7962911588076
 20
121.3480561655797
 30
0.0
 11
108.2962911588076
 21
121.3480561655797
 31
0.0
  0
LINE
  5
113
330
111
100
AcDbEntity
  8
1
  6
Continuous
 62
     2
100
AcDbLine
 10
108.2962911588076
 20
130.8480561655797
 30
0.0
 11
108.2962911588076
 21
120.3480561655797
 31
0.0
  0
LINE
  5
114
330
111
100
AcDbEntity
  8
1
  6
Continuous
 62
     2
100
AcDbLine
 10
118.7962911588076
 20
130.8480561655797
 30
0.0
 11
118.7962911588076
 21
120.3480561655797
 31
0.0
  0
SOLID
  5
115
330
111
100
AcDbEntity
  8
1
 62
     2
100
AcDbTrace
 10
115.2962911588076
 20
120.8872724240238
 30
0.0
 11
115.2962911588076
 21
121.8088399071356
 31
0.0
 12
118.7962911588076
 22
121.3480561655797
 32
0.0
 13
118.7962911588076
 23
121.3480561655797
 33
0.0
  0
SOLID
  5
116
330
111
100
AcDbEntity
  8
1
 62
     2
100
AcDbTrace
 10
111.7962911588076
 20
121.8088399071356
 30
0.0
 11
111.7962911588076
 21
120.8872724240238
 31
0.0
 12
108.2962911588076
 22
121.3480561655797
 32
0.0
 13
108.2962911588076
 23
121.3480561655797
 33
0.0
  0
MTEXT
  5
117
330
111
100
AcDbEntity
  8
1
 62
     7
100
AcDbMText
 10
111.1156839790806
 20
122.3480492085034
 30
0.0
 40
3.5
 41
0.0
 71
     7
 72
     1
  1
\C7;{\Fgdt;n}\C7;11
  7
CONVERTER_12
 11
0.9999999999970619
 21
2.424068405545306E-6
 31
0.0
 73
     1
 44
0.60024009603842
  0
ENDBLK
  5
119
330
111
100
AcDbEntity
  8
0
100
AcDbBlockEnd
  0
BLOCK
  5
123
330
11C
100
AcDbEntity
  8
0
100
AcDbBlockBegin
  2
*D5
 70
     1
 10
0.0
 20
0.0
 30
0.0
  3
*D5
  1

  0
LINE
  5
11D
330
11C
100
AcDbEntity
  8
1
  6
Continuous
 62
     2
100
AcDbLine
 10
105.0667600565805
 20
113.3480561655797
 30
0.0
 11
122.0258222610217
 21
113.3480561655797
 31
0.0
  0
LINE
  5
11E
330
11C
100
AcDbEntity
  8
1
  6
Continuous
 62
     2
100
AcDbLine
 10
122.0258222610217
 20
133.3980561655797
 30
0.0
 11
122.0258222610217
 21
112.3480561655797
 31
0.0
  0
LINE
  5
11F
330
11C
100
AcDbEntity
  8
1
  6
Continuous
 62
     2
100
AcDbLine
 10
105.0667600565805
 20
133.3980561655797
 30
0.0
 11
105.0667600565805
 21
112.3480561655797
 31
0.0
  0
SOLID
  5
120
330
11C
100
AcDbEntity
  8
1
 62
     2
100
AcDbTrace
 10
108.5667600565805
 20
113.8088399071356
 30
0.0
 11
108.5667600565805
 21
112.8872724240238
 31
0.0
 12
105.0667600565805
 22
113.3480561655797
 32
0.0
 13
105.0667600565805
 23
113.3480561655797
 33
0.0
  0
SOLID
  5
121
330
11C
100
AcDbEntity
  8
1
 62
     2
100
AcDbTrace
 10
118.5258222610217
 20
112.8872724240238
 30
0.0
 11
118.5258222610217
 21
113.8088399071356
 31
0.0
 12
122.0258222610217
 22
113.3480561655797
 32
0.0
 13
122.0258222610217
 23
113.3480561655797
 33
0.0
  0
MTEXT
  5
122
330
11C
100
AcDbEntity
  8
1
 62
     7
100
AcDbMText
 10
111.1415317491884
 20
114.3480492085034
 30
0.0
 40
3.5
 41
0.0
 71
     7
 72
     1
  1
\C7;{\Fgdt;n}\C7;17
  7
CONVERTER_12
 11
0.9999999999970619
 21
2.424068405545306E-6
 31
0.0
 73
     1
 44
0.60024009603842
  0
ENDBLK
  5
124
330
11C
100
AcDbEntity
  8
0
100
AcDbBlockEnd
  0
BLOCK
  5
12C
330
127
100
AcDbEntity
  8
0
100
AcDbBlockBegin
  2
*D6
 70
     1
 10
0.0
 20
0.0
 30
0.0
  3
*D6
  1

  0
LINE
  5
128
330
127
100
AcDbEntity
  8
1
  6
Continuous
 62
     2
100
AcDbLine
 10
107.2939925007548
 20
187.3061466241138
 30
0.0
 11
127.6876200588178
 21
172.9279219150411
 31
0.0
  0
SOLID
  5
129
330
127
100
AcDbEntity
  8
1
 62
     2
100
AcDbTrace
 10
118.633838674757
 20
179.8749481738955
 30
0.0
 11
118.1028121611361
 21
179.1217566525939
 31
0.0
 12
115.5077966201486
 22
181.5151258256459
 32
0.0
 13
115.5077966201486
 23
181.5151258256459
 33
0.0
  0
SOLID
  5
12A
330
127
100
AcDbEntity
  8
1
 62
     2
100
AcDbTrace
 10
108.4587436428433
 20
185.9211641572624
 30
0.0
 11
108.9897701564642
 21
186.674355678564
 31
0.0
 12
111.5847856974518
 22
184.280986505512
 32
0.0
 13
111.5847856974518
 23
184.280986505512
 33
0.0
  0
MTEXT
  5
12B
330
127
100
AcDbEntity
  8
1
 62
     7
100
AcDbMText
 10
124.2018901409163
 20
176.6090341028787
 30
0.0
 40
3.5
 41
0.0
 71
     7
 72
     1
  1
\C7;{\Fgdt;n}\C7;5
  7
CONVERTER_12
 11
0.8172939422280016
 21
-0.5762209749717656
 31
0.0
 73
     1
 44
0.60024009603842
  0
ENDBLK
  5
12D
330
127
100
AcDbEntity
  8
0
100
AcDbBlockEnd
  0
ENDSEC
  0
SECTION
  2
ENTITIES
  0
INSERT
  5
4F
330
1F
100
AcDbEntity
  8
0
100
AcDbBlockReference
  2
開示A4枠
 10
0.0
 20
0.0
 30
0.0
  0
LINE
  5
CD
330
1F
100
AcDbEntity
  8
1
  6
Continuous
 62
     2
100
AcDbLine
 10
107.3834469015528
 20
133.03543102613
 30
0.0
 11
107.2962911588002
 21
133.0430561655794
 31
0.0
  0
LINE
  5
CE
330
1F
100
AcDbEntity
  8
1
  6
Continuous
 62
     7
100
AcDbLine
 10
107.3834469015528
 20
133.03543102613
 30
0.0
 11
119.5258210398933
 21
133.03543102613
 31
0.0
  0
LINE
  5
CF
330
1F
100
AcDbEntity
  8
1
  6
Continuous
 62
     7
100
AcDbLine
 10
107.5697313870624
 20
133.7769790856983
 30
0.0
 11
119.5228509305525
 21
133.7769790856983
 31
0.0
  0
LINE
  5
D0
330
1F
100
AcDbEntity
  8
1
  6
DASH_CENTER
 62
     2
100
AcDbLine
 10
124.9762911588005
 20
182.898056165579
 30
0.0
 11
102.1162911587999
 21
182.898056165579
 31
0.0
  0
LINE
  5
D1
330
1F
100
AcDbEntity
  8
0
  6
DASH_CENTER
 62
     2
100
AcDbLine
 10
113.5462911588002
 20
171.4680561655787
 30
0.0
 11
113.5462911588002
 21
194.3280561655793
 31
0.0
  0
LINE
  5
D2
330
1F
100
AcDbEntity
  8
1
  6
Continuous
 62
     7
100
AcDbLine
 10
121.2821979581604
 20
133.1730561655786
 30
0.0
 11
119.7962911588002
 21
133.0430561655794
 31
0.0
  0
LINE
  5
D3
330
1F
100
AcDbEntity
  8
1
  6
Continuous
 62
     7
100
AcDbLine
 10
119.7091354160511
 20
133.7606813050297
 30
0.0
 11
119.7962911588002
 21
133.7530561655785
 31
0.0
  0
LINE
  5
D4
330
1F
100
AcDbEntity
  8
0
  6
DASH_CENTER
 62
     2
100
AcDbLine
 10
113.5462911588002
 20
127.3480561655797
 30
0.0
 11
113.5462911588002
 21
139.4480561655782
 31
0.0
  0
LINE
  5
D5
330
1F
100
AcDbEntity
  8
0
  6
Continuous
 62
     7
100
AcDbLine
 10
118.2962911588002
 20
130.3480561655797
 30
0.0
 11
108.7962911588002
 21
130.3480561655797
 31
0.0
  0
LINE
  5
D6
330
1F
100
AcDbEntity
  8
1
  6
Continuous
 62
     7
100
AcDbLine
 10
118.7962911588002
 20
135.9480561655782
 30
0.0
 11
118.7962911588002
 21
134.756876003119
 31
0.0
  0
LINE
  5
D7
330
1F
100
AcDbEntity
  8
1
  6
Continuous
 62
     7
100
AcDbLine
 10
118.7962911588002
 20
130.8480561655797
 30
0.0
 11
118.7962911588002
 21
132.0392363280298
 31
0.0
  0
LINE
  5
D8
330
1F
100
AcDbEntity
  8
1
  6
Continuous
 62
     2
100
AcDbLine
 10
119.7962911588002
 20
133.7530561655785
 30
0.0
 11
119.5228509305525
 21
133.7769790856983
 31
0.0
  0
LINE
  5
D9
330
1F
100
AcDbEntity
  8
1
  6
Continuous
 62
     2
100
AcDbLine
 10
119.7962911588002
 20
133.0430561655794
 30
0.0
 11
119.5258210398933
 21
133.0193930963487
 31
0.0
  0
LINE
  5
DA
330
1F
100
AcDbEntity
  8
1
  6
Continuous
 62
     7
100
AcDbLine
 10
107.3834469015528
 20
133.03543102613
 30
0.0
 11
105.8103843594399
 21
133.1730561655786
 31
0.0
  0
LINE
  5
DB
330
1F
100
AcDbEntity
  8
1
  6
Continuous
 62
     7
100
AcDbLine
 10
105.8103843594399
 20
133.6230561655793
 30
0.0
 11
107.3834469015528
 21
133.7606813050297
 31
0.0
  0
LINE
  5
DC
330
1F
100
AcDbEntity
  8
0
  6
Continuous
 62
     7
100
AcDbLine
 10
118.2962911588002
 20
136.4480561655782
 30
0.0
 11
108.7962911588002
 21
136.4480561655782
 31
0.0
  0
LINE
  5
DD
330
1F
100
AcDbEntity
  8
1
  6
Continuous
 62
     7
100
AcDbLine
 10
108.2962911588002
 20
134.756876003119
 30
0.0
 11
108.2962911588002
 21
135.9480561655782
 31
0.0
  0
LINE
  5
DE
330
1F
100
AcDbEntity
  8
1
  6
Continuous
 62
     7
100
AcDbLine
 10
108.2962911588002
 20
132.0392363280298
 30
0.0
 11
108.2962911588002
 21
130.8480561655797
 31
0.0
  0
LINE
  5
DF
330
1F
100
AcDbEntity
  8
1
  6
Continuous
 62
     2
100
AcDbLine
 10
107.5697313870624
 20
133.7769790856983
 30
0.0
 11
107.2962911588002
 21
133.7530561655785
 31
0.0
  0
LINE
  5
E0
330
1F
100
AcDbEntity
  8
1
  6
Continuous
 62
     2
100
AcDbLine
 10
107.5667612777215
 20
133.0193930963487
 30
0.0
 11
107.3834469015528
 21
133.03543102613
 31
0.0
  0
LINE
  5
E1
330
1F
100
AcDbEntity
  8
0
  6
DASH_CENTER
 62
     2
100
AcDbLine
 10
125.0311849654427
 20
133.398056165579
 30
0.0
 11
102.066926216201
 21
133.398056165579
 31
0.0
  0
LINE
  5
E2
330
1F
100
AcDbEntity
  8
1
  6
Continuous
 62
     7
100
AcDbLine
 10
119.7962911588002
 20
133.0430561655794
 30
0.0
 11
119.7091354160511
 21
133.03543102613
 31
0.0
  0
LINE
  5
E3
330
1F
100
AcDbEntity
  8
1
  6
Continuous
 62
     7
100
AcDbLine
 10
119.7962911588002
 20
133.7530561655785
 30
0.0
 11
121.2821979581604
 21
133.6230561655793
 31
0.0
  0
ARC
  5
E4
330
1F
100
AcDbEntity
  8
1
  6
Continuous
 62
     7
100
AcDbCircle
 10
120.9821979581611
 20
136.1580184768991
 30
0.0
 40
3.000000000000554
100
AcDbArc
 50
275.7391704772523
 51
289.338809745449
  0
ARC
  5
E5
330
1F
100
AcDbEntity
  8
1
  6
Continuous
 62
     7
100
AcDbCircle
 10
120.9821979581611
 20
130.6380938542588
 30
0.0
 40
2.999999999998388
100
AcDbArc
 50
70.66119025448268
 51
84.26082952274771
  0
ARC
  5
E6
330
1F
100
AcDbEntity
  8
1
  6
Continuous
 62
     7
100
AcDbCircle
 10
106.1103843594428
 20
136.1580184768991
 30
0.0
 40
3.000000000008546
100
AcDbArc
 50
250.6611902545528
 51
264.260829522679
  0
ARC
  5
E7
330
1F
100
AcDbEntity
  8
1
  6
Continuous
 62
     7
100
AcDbCircle
 10
106.1103843594428
 20
130.6380938542588
 30
0.0
 40
3.000000000000915
100
AcDbArc
 50
95.73917047732091
 51
109.3388097455155
  0
CIRCLE
  5
E8
330
1F
100
AcDbEntity
  8
1
  6
Continuous
 62
     7
100
AcDbCircle
 10
113.5462911588002
 20
182.898056165579
 30
0.0
 40
8.430000000000305
  0
CIRCLE
  5
E9
330
1F
100
AcDbEntity
  8
1
  6
Continuous
 62
     7
100
AcDbCircle
 10
113.5462911588002
 20
182.898056165579
 30
0.0
 40
2.400000000001398
  0
CIRCLE
  5
EA
330
1F
100
AcDbEntity
  8
1
  6
Continuous
 62
     7
100
AcDbCircle
 10
113.5462911588002
 20
182.898056165579
 30
0.0
 40
5.25
  0
ARC
  5
EB
330
1F
100
AcDbEntity
  8
1
  6
Continuous
 62
     7
100
AcDbCircle
 10
105.1417600565801
 20
133.398056165579
 30
0.0
 40
0.0749999999976551
100
AcDbArc
 50
109.3388097475328
 51
180.0
  0
ARC
  5
EC
330
1F
100
AcDbEntity
  8
1
  6
Continuous
 62
     7
100
AcDbCircle
 10
121.9508222610202
 20
133.398056165579
 30
0.0
 40
0.07500000000915
100
AcDbArc
 50
289.3388097474424
 51
0.0
  0
ARC
  5
ED
330
1F
100
AcDbEntity
  8
1
  6
Continuous
 62
     7
100
AcDbCircle
 10
121.9508222610202
 20
133.398056165579
 30
0.0
 40
0.0750000000007987
100
AcDbArc
 50
0.0
 51
70.66119024980378
  0
ARC
  5
EE
330
1F
100
AcDbEntity
  8
0
  6
Continuous
 62
     7
100
AcDbCircle
 10
118.2962911588002
 20
130.8480561655797
 30
0.0
 40
0.5
100
AcDbArc
 50
270.0
 51
0.0
  0
ARC
  5
EF
330
1F
100
AcDbEntity
  8
0
  6
Continuous
 62
     7
100
AcDbCircle
 10
118.2962911588002
 20
135.9480561655782
 30
0.0
 40
0.5
100
AcDbArc
 50
0.0
 51
90.0
  0
ARC
  5
F0
330
1F
100
AcDbEntity
  8
1
  6
Continuous
 62
     7
100
AcDbCircle
 10
119.7962911588002
 20
132.0392363280298
 30
0.0
 40
1.000000000008546
100
AcDbArc
 50
95.00000000004033
 51
180.0
  0
ARC
  5
F1
330
1F
100
AcDbEntity
  8
1
  6
Continuous
 62
     7
100
AcDbCircle
 10
119.7962911588002
 20
134.756876003119
 30
0.0
 40
1.0
100
AcDbArc
 50
180.0
 51
264.9999999999053
  0
ARC
  5
F2
330
1F
100
AcDbEntity
  8
1
  6
Continuous
 62
     7
100
AcDbCircle
 10
105.1417600565801
 20
133.398056165579
 30
0.0
 40
0.0749999999970896
100
AcDbArc
 50
180.0
 51
250.661190255221
  0
ARC
  5
F3
330
1F
100
AcDbEntity
  8
0
  6
Continuous
 62
     7
100
AcDbCircle
 10
108.7962911588002
 20
130.8480561655797
 30
0.0
 40
0.5
100
AcDbArc
 50
180.0
 51
270.0
  0
ARC
  5
F4
330
1F
100
AcDbEntity
  8
0
  6
Continuous
 62
     7
100
AcDbCircle
 10
108.7962911588002
 20
135.9480561655782
 30
0.0
 40
0.5
100
AcDbArc
 50
90.0
 51
180.0
  0
ARC
  5
F5
330
1F
100
AcDbEntity
  8
1
  6
Continuous
 62
     7
100
AcDbCircle
 10
107.2962911588002
 20
132.0392363280298
 30
0.0
 40
1.0
100
AcDbArc
 50
0.0
 51
84.99999999976013
  0
ARC
  5
F6
330
1F
100
AcDbEntity
  8
1
  6
Continuous
 62
     7
100
AcDbCircle
 10
107.2962911588002
 20
134.756876003119
 30
0.0
 40
0.9999999999980062
100
AcDbArc
 50
275.0000000002942
 51
0.0
  0
MTEXT
  5
F8
330
1F
100
AcDbEntity
  8
1
 62
     7
100
AcDbMText
 10
157.5
 20
12.5
 30
0.0
 40
2.5
 41
0.0
 71
     5
 72
     1
  1
3
  7
CONVERTER_12
 73
     1
 44
0.7202881152461
  0
MTEXT
  5
F9
330
1F
100
AcDbEntity
  8
1
 62
     7
100
AcDbMText
 10
151.75
 20
12.5
 30
0.0
 40
2.5
 41
0.0
 71
     5
 72
     1
  1
04
  7
CONVERTER_12
 73
     1
 44
0.7202881152461
  0
MTEXT
  5
FA
330
1F
100
AcDbEntity
  8
1
 62
     7
100
AcDbMText
 10
140.5
 20
12.5
 30
0.0
 40
2.5
 41
0.0
 71
     5
 72
     1
  1
3
  7
CONVERTER_12
 73
     1
 44
0.7202881152461
  0
MTEXT
  5
FB
330
1F
100
AcDbEntity
  8
1
 62
     7
100
AcDbMText
 10
134.75
 20
12.5
 30
0.0
 40
2.5
 41
0.0
 71
     5
 72
     1
  1
04
  7
CONVERTER_12
 73
     1
 44
0.7202881152461
  0
MTEXT
  5
FC
330
1F
100
AcDbEntity
  8
1
 62
     7
100
AcDbMText
 10
123.5
 20
12.5
 30
0.0
 40
2.5
 41
0.0
 71
     5
 72
     1
  1
3
  7
CONVERTER_12
 73
     1
 44
0.7202881152461
  0
MTEXT
  5
FD
330
1F
100
AcDbEntity
  8
1
 62
     7
100
AcDbMText
 10
117.75
 20
12.5
 30
0.0
 40
2.5
 41
0.0
 71
     5
 72
     1
  1
04
  7
CONVERTER_12
 73
     1
 44
0.7202881152461
  0
MTEXT
  5
FE
330
1F
100
AcDbEntity
  8
1
 62
     7
100
AcDbMText
 10
100.75
 20
12.5
 30
0.0
 40
2.5
 41
0.0
 71
     5
 72
     1
  1
04
  7
CONVERTER_12
 73
     1
 44
0.7202881152461
  0
MTEXT
  5
FF
330
1F
100
AcDbEntity
  8
1
 62
     7
100
AcDbMText
 10
106.5
 20
12.5
 30
0.0
 40
2.5
 41
0.0
 71
     5
 72
     1
  1
3
  7
CONVERTER_12
 73
     1
 44
0.7202881152461
  0
MTEXT
  5
100
330
1F
100
AcDbEntity
  8
1
 62
     7
100
AcDbMText
 10
93.75
 20
17.0
 30
0.0
 40
3.5
 41
0.0
 71
     5
 72
     1
  1
1
  7
CONVERTER_12
 73
     1
 44
0.7202881152461
  0
MTEXT
  5
101
330
1F
100
AcDbEntity
  8
1
 62
     7
100
AcDbMText
 10
57.0
 20
14.25
 30
0.0
 40
3.5
 41
0.0
 71
     5
 72
     1
  1
R395F
  7
CONVERTER_12
 73
     1
 44
0.7202881152461
  0
MTEXT
  5
102
330
1F
100
AcDbEntity
  8
1
 62
     7
100
AcDbMText
 10
57.0
 20
22.75
 30
0.0
 40
3.5
 41
0.0
 71
     5
 72
     1
  1
パイプカッター替刃
  7
CONVERTER_11
 73
     1
 44
0.54545454545455
  0
MTEXT
  5
103
330
1F
100
AcDbEntity
  8
1
 62
     7
100
AcDbMText
 10
85.25
 20
17.0
 30
0.0
 40
3.5
 41
0.0
 71
     5
 72
     1
  1
1
  7
CONVERTER_12
 73
     1
 44
0.7202881152461
  0
DIMENSION
  5
110
330
1F
100
AcDbEntity
  8
1
100
AcDbDimension
  2
*D3
 10
94.1169235359921
 20
136.4480561655783
 30
0.0
 11
91.3669235359921
 21
133.4688244299687
 31
0.0
 70
    33
  1
7
 71
     5
 42
-1.0
 53
90.0
  3
ME10_DIM_10
100
AcDbAlignedDimension
 13
108.7962911588002
 23
130.3480561655797
 33
0.0
 14
108.7962911588002
 24
136.4480561655782
 34
0.0
  0
DIMENSION
  5
11B
330
1F
100
AcDbEntity
  8
1
100
AcDbDimension
  2
*D4
 10
118.7962911588076
 20
121.3480561655797
 30
0.0
 11
113.4606839790722
 21
124.0980561655797
 31
0.0
 70
    33
  1
{\Fgdt;n}11
 71
     5
 42
-1.0
 53
0.00013888888889
  3
ME10_DIM_11
100
AcDbAlignedDimension
 13
108.2962911588002
 23
130.8480561655797
 33
0.0
 14
118.7962911588002
 24
130.8480561655797
 34
0.0
  0
DIMENSION
  5
126
330
1F
100
AcDbEntity
  8
1
100
AcDbDimension
  2
*D5
 10
105.0667600565805
 20
113.3480561655797
 30
0.0
 11
114.01153174918
 21
116.0980561655797
 31
0.0
 70
    33
  1
{\Fgdt;n}17
 71
     5
 42
-1.0
 53
0.00013888888889
  3
ME10_DIM_12
100
AcDbAlignedDimension
 13
122.025822261021
 23
133.398056165579
 33
0.0
 14
105.066760056583
 24
133.398056165579
 34
0.0
  0
INSERT
  5
12E
330
1F
100
AcDbEntity
  8
1
100
AcDbBlockReference
  2
*D6
 10
0.0
 20
0.0
 30
0.0
  0
ENDSEC
  0
SECTION
  2
OBJECTS
  0
DICTIONARY
  5
C
330
0
100
AcDbDictionary
281
     1
  3
ACAD_GROUP
350
D
  3
ACAD_LAYOUT
350
1A
  3
ACAD_MATERIAL
350
3B
  3
ACAD_MLEADERSTYLE
350
131
  3
ACAD_MLINESTYLE
350
17
  3
ACAD_PLOTSETTINGS
350
19
  3
ACAD_PLOTSTYLENAME
350
E
  3
ACAD_VISUALSTYLE
350
2A
  3
AcDbVariableDictionary
350
12F
  0
DICTIONARY
  5
D
102
{ACAD_REACTORS
330
C
102
}
330
C
100
AcDbDictionary
281
     1
  0
DICTIONARY
  5
1A
102
{ACAD_REACTORS
330
C
102
}
330
C
100
AcDbDictionary
281
     1
  3
Layout1
350
1E
  3
Layout2
350
26
  3
Model
350
22
  0
DICTIONARY
  5
3B
102
{ACAD_REACTORS
330
C
102
}
330
C
100
AcDbDictionary
281
     1
  3
ByBlock
350
3D
  3
ByLayer
350
3C
  3
Global
350
3E
  0
DICTIONARY
  5
131
102
{ACAD_REACTORS
330
C
102
}
330
C
100
AcDbDictionary
281
     1
  0
DICTIONARY
  5
17
102
{ACAD_REACTORS
330
C
102
}
330
C
100
AcDbDictionary
281
     1
  3
Standard
350
18
  0
DICTIONARY
  5
19
102
{ACAD_REACTORS
330
C
102
}
330
C
100
AcDbDictionary
281
     1
  0
ACDBDICTIONARYWDFLT
  5
E
102
{ACAD_REACTORS
330
C
102
}
330
C
100
AcDbDictionary
281
     1
  3
Normal
350
F
100
AcDbDictionaryWithDefault
340
F
  0
DICTIONARY
  5
2A
102
{ACAD_REACTORS
330
C
102
}
330
C
100
AcDbDictionary
281
     1
  3
2dWireframe
350
2F
  3
3D Hidden
350
31
  3
3dWireframe
350
30
  3
Basic
350
32
  3
Brighten
350
36
  3
ColorChange
350
3A
  3
Conceptual
350
34
  3
Dim
350
35
  3
Facepattern
350
39
  3
Flat
350
2B
  3
FlatWithEdges
350
2C
  3
Gouraud
350
2D
  3
GouraudWithEdges
350
2E
  3
Linepattern
350
38
  3
Realistic
350
33
  3
Thicken
350
37
  0
DICTIONARY
  5
12F
102
{ACAD_REACTORS
330
C
102
}
330
C
100
AcDbDictionary
281
     1
  3
DIMASSOC
350
132
  3
HIDETEXT
350
133
  0
LAYOUT
  5
1E
102
{ACAD_REACTORS
330
1A
102
}
330
1A
100
AcDbPlotSettings
  1

  2
none_device
  4

  6

 40
0.0
 41
0.0
 42
0.0
 43
0.0
 44
0.0
 45
0.0
 46
0.0
 47
0.0
 48
0.0
 49
0.0
140
0.0
141
0.0
142
1.0
143
1.0
 70
   688
 72
     0
 73
     0
 74
     5
  7

 75
    16
147
1.0
148
0.0
149
0.0
100
AcDbLayout
  1
Layout1
 70
     1
 71
     1
 10
0.0
 20
0.0
 11
12.0
 21
9.0
 12
0.0
 22
0.0
 32
0.0
 14
1.00000000000000E+20
 24
1.00000000000000E+20
 34
1.00000000000000E+20
 15
-1.00000000000000E+20
 25
-1.00000000000000E+20
 35
-1.00000000000000E+20
146
0.0
 13
0.0
 23
0.0
 33
0.0
 16
1.0
 26
0.0
 36
0.0
 17
0.0
 27
1.0
 37
0.0
 76
     0
330
1B
  0
LAYOUT
  5
26
102
{ACAD_REACTORS
330
1A
102
}
330
1A
100
AcDbPlotSettings
  1

  2
none_device
  4

  6

 40
0.0
 41
0.0
 42
0.0
 43
0.0
 44
0.0
 45
0.0
 46
0.0
 47
0.0
 48
0.0
 49
0.0
140
0.0
141
0.0
142
1.0
143
1.0
 70
   688
 72
     0
 73
     0
 74
     5
  7

 75
    16
147
1.0
148
0.0
149
0.0
100
AcDbLayout
  1
Layout2
 70
     1
 71
     2
 10
0.0
 20
0.0
 11
0.0
 21
0.0
 12
0.0
 22
0.0
 32
0.0
 14
0.0
 24
0.0
 34
0.0
 15
0.0
 25
0.0
 35
0.0
146
0.0
 13
0.0
 23
0.0
 33
0.0
 16
1.0
 26
0.0
 36
0.0
 17
0.0
 27
1.0
 37
0.0
 76
     0
330
23
  0
LAYOUT
  5
22
102
{ACAD_REACTORS
330
1A
102
}
330
1A
100
AcDbPlotSettings
  1

  2
none_device
  4

  6

 40
0.0
 41
0.0
 42
0.0
 43
0.0
 44
0.0
 45
0.0
 46
0.0
 47
0.0
 48
0.0
 49
0.0
140
0.0
141
0.0
142
1.0
143
1.0
 70
  1712
 72
     0
 73
     0
 74
     0
  7

 75
     0
147
1.0
148
0.0
149
0.0
100
AcDbLayout
  1
Model
 70
     1
 71
     0
 10
0.0
 20
0.0
 11
12.0
 21
9.0
 12
0.0
 22
0.0
 32
0.0
 14
0.0
 24
0.0
 34
0.0
 15
210.0
 25
297.0
 35
0.0
146
0.0
 13
0.0
 23
0.0
 33
0.0
 16
1.0
 26
0.0
 36
0.0
 17
0.0
 27
1.0
 37
0.0
 76
     0
330
1F
331
29
  0
MATERIAL
  5
3D
102
{ACAD_REACTORS
330
3B
102
}
102
{ACAD_XDICTIONARY
360
156
102
}
330
3B
100
AcDbMaterial
  1
ByBlock
  0
MATERIAL
  5
3C
102
{ACAD_REACTORS
330
3B
102
}
102
{ACAD_XDICTIONARY
360
154
102
}
330
3B
100
AcDbMaterial
  1
ByLayer
  0
MATERIAL
  5
3E
102
{ACAD_REACTORS
330
3B
102
}
102
{ACAD_XDICTIONARY
360
158
102
}
330
3B
100
AcDbMaterial
  1
Global
  0
MLINESTYLE
  5
18
102
{ACAD_REACTORS
330
17
102
}
330
17
100
AcDbMlineStyle
  2
Standard
 70
     0
  3

 62
   256
 51
90.0
 52
90.0
 71
     2
 49
0.5
 62
   256
  6
BYLAYER
 49
-0.5
 62
   256
  6
BYLAYER
  0
ACDBPLACEHOLDER
  5
F
102
{ACAD_REACTORS
330
E
102
}
330
E
  0
VISUALSTYLE
  5
2F
102
{ACAD_REACTORS
330
2A
102
}
102
{ACAD_XDICTIONARY
360
13C
102
}
330
2A
100
AcDbVisualStyle
  2
2dWireframe
 70
     4
 71
     0
 72
     2
 73
     0
 90
        0
 40
-0.6
 41
-30.0
 62
     5
 63
     7
 74
     1
 91
        4
 64
     7
 65
   257
 75
     1
175
     1
 42
1.0
 92
        0
 66
   257
 43
1.0
 76
     1
 77
     6
 78
     2
 67
     7
 79
     5
170
     0
171
     0
290
     0
174
     0
 93
        1
 44
0.0
173
     0
291
     0
 45
0.0
1001
ACAD
1000
AcDbSavedByObjectVersion
1070
     0
  0
VISUALSTYLE
  5
31
102
{ACAD_REACTORS
330
2A
102
}
102
{ACAD_XDICTIONARY
360
140
102
}
330
2A
100
AcDbVisualStyle
  2
3D Hidden
 70
     6
 71
     1
 72
     2
 73
     2
 90
        0
 40
-0.6
 41
-30.0
 62
     5
 63
     7
 74
     2
 91
        2
 64
     7
 65
   257
 75
     2
175
     1
 42
40.0
 92
        0
 66
   257
 43
1.0
 76
     1
 77
     6
 78
     2
 67
     7
 79
     3
170
     0
171
     0
290
     0
174
     0
 93
        1
 44
0.0
173
     0
291
     0
 45
0.0
1001
ACAD
1000
AcDbSavedByObjectVersion
1070
     0
  0
VISUALSTYLE
  5
30
102
{ACAD_REACTORS
330
2A
102
}
102
{ACAD_XDICTIONARY
360
13E
102
}
330
2A
100
AcDbVisualStyle
  2
3dWireframe
 70
     5
 71
     0
 72
     2
 73
     0
 90
        0
 40
-0.6
 41
-30.0
 62
     5
 63
     7
 74
     1
 91
        4
 64
     7
 65
   257
 75
     1
175
     1
 42
1.0
 92
        0
 66
   257
 43
1.0
 76
     1
 77
     6
 78
     2
 67
     7
 79
     5
170
     0
171
     0
290
     0
174
     0
 93
        1
 44
0.0
173
     0
291
     0
 45
0.0
1001
ACAD
1000
AcDbSavedByObjectVersion
1070
     0
  0
VISUALSTYLE
  5
32
102
{ACAD_REACTORS
330
2A
102
}
102
{ACAD_XDICTIONARY
360
142
102
}
330
2A
100
AcDbVisualStyle
  2
Basic
 70
     7
 71
     1
 72
     0
 73
     1
 90
        0
 40
-0.6
 41
-30.0
 62
     5
 63
     7
 74
     0
 91
        4
 64
     7
 65
   257
 75
     1
175
     1
 42
1.0
 92
        8
 66
     7
 43
1.0
 76
     1
 77
     6
 78
     2
 67
     7
 79
     5
170
     0
171
     0
290
     0
174
     0
 93
        1
 44
0.0
173
     0
291
     1
 45
0.0
1001
ACAD
1000
AcDbSavedByObjectVersion
1070
     0
  0
VISUALSTYLE
  5
36
102
{ACAD_REACTORS
330
2A
102
}
102
{ACAD_XDICTIONARY
360
14A
102
}
330
2A
100
AcDbVisualStyle
  2
Brighten
 70
    12
 71
     2
 72
     2
 73
     0
 90
        0
 40
-0.6
 41
-30.0
 62
     5
 63
     7
 74
     1
 91
        4
 64
     7
 65
   257
 75
     1
175
     1
 42
1.0
 92
        8
 66
     7
 43
1.0
 76
     1
 77
     6
 78
     2
 67
     7
 79
     5
170
     0
171
     0
290
     0
174
     0
 93
        1
 44
50.0
173
     0
291
     1
 45
0.0
1001
ACAD
1000
AcDbSavedByObjectVersion
1070
     0
  0
VISUALSTYLE
  5
3A
102
{ACAD_REACTORS
330
2A
102
}
102
{ACAD_XDICTIONARY
360
152
102
}
330
2A
100
AcDbVisualStyle
  2
ColorChange
 70
    16
 71
     2
 72
     2
 73
     3
 90
        0
 40
-0.6
 41
-30.0
 62
     5
 63
     8
 74
     1
 91
        4
 64
     7
 65
   257
 75
     1
175
     1
 42
1.0
 92
        8
 66
     8
 43
1.0
 76
     1
 77
     6
 78
     2
 67
     7
 79
     5
170
     0
171
     0
290
     0
174
     0
 93
        1
 44
0.0
173
     0
291
     1
 45
0.0
1001
ACAD
1000
AcDbSavedByObjectVersion
1070
     0
  0
VISUALSTYLE
  5
34
102
{ACAD_REACTORS
330
2A
102
}
102
{ACAD_XDICTIONARY
360
146
102
}
330
2A
100
AcDbVisualStyle
  2
Conceptual
 70
     9
 71
     3
 72
     2
 73
     0
 90
        0
 40
-0.6
 41
-30.0
 62
     5
 63
     7
 74
     2
 91
        2
 64
     7
 65
   257
 75
     1
175
     1
 42
40.0
 92
        8
 66
     7
 43
1.0
 76
     1
 77
     6
 78
     2
 67
     7
 79
     3
170
     0
171
     0
290
     0
174
     0
 93
        1
 44
0.0
173
     0
291
     0
 45
0.0
1001
ACAD
1000
AcDbSavedByObjectVersion
1070
     0
  0
VISUALSTYLE
  5
35
102
{ACAD_REACTORS
330
2A
102
}
102
{ACAD_XDICTIONARY
360
148
102
}
330
2A
100
AcDbVisualStyle
  2
Dim
 70
    11
 71
     2
 72
     2
 73
     0
 90
        0
 40
-0.6
 41
-30.0
 62
     5
 63
     7
 74
     1
 91
        4
 64
     7
 65
   257
 75
     1
175
     1
 42
1.0
 92
        8
 66
     7
 43
1.0
 76
     1
 77
     6
 78
     2
 67
     7
 79
     5
170
     0
171
     0
290
     0
174
     0
 93
        1
 44
-50.0
173
     0
291
     1
 45
0.0
1001
ACAD
1000
AcDbSavedByObjectVersion
1070
     0
  0
VISUALSTYLE
  5
39
102
{ACAD_REACTORS
330
2A
102
}
102
{ACAD_XDICTIONARY
360
150
102
}
330
2A
100
AcDbVisualStyle
  2
Facepattern
 70
    15
 71
     2
 72
     2
 73
     0
 90
        0
 40
-0.6
 41
-30.0
 62
     5
 63
     7
 74
     1
 91
        4
 64
     7
 65
   257
 75
     1
175
     1
 42
1.0
 92
        8
 66
     7
 43
1.0
 76
     1
 77
     6
 78
     2
 67
     7
 79
     5
170
     0
171
     0
290
     0
174
     0
 93
        1
 44
0.0
173
     0
291
     1
 45
0.0
1001
ACAD
1000
AcDbSavedByObjectVersion
1070
     0
  0
VISUALSTYLE
  5
2B
102
{ACAD_REACTORS
330
2A
102
}
102
{ACAD_XDICTIONARY
360
134
102
}
330
2A
100
AcDbVisualStyle
  2
Flat
 70
     0
 71
     2
 72
     1
 73
     1
 90
        2
 40
-0.6
 41
30.0
 62
     5
 63
     7
 74
     0
 91
        4
 64
     7
 65
   257
 75
     1
175
     1
 42
1.0
 92
        8
 66
     7
 43
1.0
 76
     1
 77
     6
 78
     2
 67
     7
 79
     5
170
     0
171
     0
290
     0
174
     0
 93
       13
 44
0.0
173
     0
291
     1
 45
0.0
1001
ACAD
1000
AcDbSavedByObjectVersion
1070
     0
  0
VISUALSTYLE
  5
2C
102
{ACAD_REACTORS
330
2A
102
}
102
{ACAD_XDICTIONARY
360
136
102
}
330
2A
100
AcDbVisualStyle
  2
FlatWithEdges
 70
     1
 71
     2
 72
     1
 73
     1
 90
        2
 40
-0.6
 41
30.0
 62
     5
 63
     7
 74
     1
 91
        4
 64
     7
 65
   257
 75
     1
175
     1
 42
1.0
 92
        0
 66
   257
 43
1.0
 76
     1
 77
     6
 78
     2
 67
     7
 79
     5
170
     0
171
     0
290
     0
174
     0
 93
       13
 44
0.0
173
     0
291
     1
 45
0.0
1001
ACAD
1000
AcDbSavedByObjectVersion
1070
     0
  0
VISUALSTYLE
  5
2D
102
{ACAD_REACTORS
330
2A
102
}
102
{ACAD_XDICTIONARY
360
138
102
}
330
2A
100
AcDbVisualStyle
  2
Gouraud
 70
     2
 71
     2
 72
     2
 73
     1
 90
        2
 40
-0.6
 41
30.0
 62
     5
 63
     7
 74
     0
 91
        4
 64
     7
 65
   257
 75
     1
175
     1
 42
1.0
 92
        0
 66
     7
 43
1.0
 76
     1
 77
     6
 78
     2
 67
     7
 79
     5
170
     0
171
     0
290
     0
174
     0
 93
       13
 44
0.0
173
     0
291
     1
 45
0.0
1001
ACAD
1000
AcDbSavedByObjectVersion
1070
     0
  0
VISUALSTYLE
  5
2E
102
{ACAD_REACTORS
330
2A
102
}
102
{ACAD_XDICTIONARY
360
13A
102
}
330
2A
100
AcDbVisualStyle
  2
GouraudWithEdges
 70
     3
 71
     2
 72
     2
 73
     1
 90
        2
 40
-0.6
 41
30.0
 62
     5
 63
     7
 74
     1
 91
        4
 64
     7
 65
   257
 75
     1
175
     1
 42
1.0
 92
        0
 66
   257
 43
1.0
 76
     1
 77
     6
 78
     2
 67
     7
 79
     5
170
     0
171
     0
290
     0
174
     0
 93
       13
 44
0.0
173
     0
291
     1
 45
0.0
1001
ACAD
1000
AcDbSavedByObjectVersion
1070
     0
  0
VISUALSTYLE
  5
38
102
{ACAD_REACTORS
330
2A
102
}
102
{ACAD_XDICTIONARY
360
14E
102
}
330
2A
100
AcDbVisualStyle
  2
Linepattern
 70
    14
 71
     2
 72
     2
 73
     0
 90
        0
 40
-0.6
 41
-30.0
 62
     5
 63
     7
 74
     1
 91
        4
 64
     7
 65
   257
 75
     7
175
     7
 42
1.0
 92
        8
 66
     7
 43
1.0
 76
     1
 77
     6
 78
     2
 67
     7
 79
     5
170
     0
171
     0
290
     0
174
     0
 93
        1
 44
0.0
173
     0
291
     1
 45
0.0
1001
ACAD
1000
AcDbSavedByObjectVersion
1070
     0
  0
VISUALSTYLE
  5
33
102
{ACAD_REACTORS
330
2A
102
}
102
{ACAD_XDICTIONARY
360
144
102
}
330
2A
100
AcDbVisualStyle
  2
Realistic
 70
     8
 71
     2
 72
     2
 73
     0
 90
        0
 40
-0.6
 41
-30.0
 62
     5
 63
     7
 74
     1
 91
        0
 64
     7
 65
   257
 75
     1
175
     1
 42
1.0
 92
        8
 66
     8
 43
1.0
 76
     1
 77
     6
 78
     2
 67
     7
 79
     5
170
     0
171
     0
290
     0
174
     0
 93
       13
 44
0.0
173
     0
291
     0
 45
0.0
1001
ACAD
1000
AcDbSavedByObjectVersion
1070
     0
  0
VISUALSTYLE
  5
37
102
{ACAD_REACTORS
330
2A
102
}
102
{ACAD_XDICTIONARY
360
14C
102
}
330
2A
100
AcDbVisualStyle
  2
Thicken
 70
    13
 71
     2
 72
     2
 73
     0
 90
        0
 40
-0.6
 41
-30.0
 62
     5
 63
     7
 74
     1
 91
        4
 64
     7
 65
   257
 75
     1
175
     1
 42
1.0
 92
       12
 66
     7
 43
1.0
 76
     1
 77
     6
 78
     2
 67
     7
 79
     5
170
     0
171
     0
290
     0
174
     0
 93
        1
 44
0.0
173
     0
291
     1
 45
0.0
1001
ACAD
1000
AcDbSavedByObjectVersion
1070
     0
  0
DICTIONARYVAR
  5
132
102
{ACAD_REACTORS
330
12F
102
}
330
12F
100
DictionaryVariables
280
     0
  1
2
  0
DICTIONARYVAR
  5
133
102
{ACAD_REACTORS
330
12F
102
}
330
12F
100
DictionaryVariables
280
     0
  1
1
  0
DICTIONARY
  5
156
330
3D
100
AcDbDictionary
280
     1
281
     1
  3
ACAD_XREC_ROUNDTRIP
360
157
  0
DICTIONARY
  5
154
330
3C
100
AcDbDictionary
280
     1
281
     1
  3
ACAD_XREC_ROUNDTRIP
360
155
  0
DICTIONARY
  5
158
330
3E
100
AcDbDictionary
280
     1
281
     1
  3
ACAD_XREC_ROUNDTRIP
360
159
  0
DICTIONARY
  5
13C
330
2F
100
AcDbDictionary
280
     1
281
     1
  3
ACAD_XREC_ROUNDTRIP
360
13D
  0
DICTIONARY
  5
140
330
31
100
AcDbDictionary
280
     1
281
     1
  3
ACAD_XREC_ROUNDTRIP
360
141
  0
DICTIONARY
  5
13E
330
30
100
AcDbDictionary
280
     1
281
     1
  3
ACAD_XREC_ROUNDTRIP
360
13F
  0
DICTIONARY
  5
142
330
32
100
AcDbDictionary
280
     1
281
     1
  3
ACAD_XREC_ROUNDTRIP
360
143
  0
DICTIONARY
  5
14A
330
36
100
AcDbDictionary
280
     1
281
     1
  3
ACAD_XREC_ROUNDTRIP
360
14B
  0
DICTIONARY
  5
152
330
3A
100
AcDbDictionary
280
     1
281
     1
  3
ACAD_XREC_ROUNDTRIP
360
153
  0
DICTIONARY
  5
146
330
34
100
AcDbDictionary
280
     1
281
     1
  3
ACAD_XREC_ROUNDTRIP
360
147
  0
DICTIONARY
  5
148
330
35
100
AcDbDictionary
280
     1
281
     1
  3
ACAD_XREC_ROUNDTRIP
360
149
  0
DICTIONARY
  5
150
330
39
100
AcDbDictionary
280
     1
281
     1
  3
ACAD_XREC_ROUNDTRIP
360
151
  0
DICTIONARY
  5
134
330
2B
100
AcDbDictionary
280
     1
281
     1
  3
ACAD_XREC_ROUNDTRIP
360
135
  0
DICTIONARY
  5
136
330
2C
100
AcDbDictionary
280
     1
281
     1
  3
ACAD_XREC_ROUNDTRIP
360
137
  0
DICTIONARY
  5
138
330
2D
100
AcDbDictionary
280
     1
281
     1
  3
ACAD_XREC_ROUNDTRIP
360
139
  0
DICTIONARY
  5
13A
330
2E
100
AcDbDictionary
280
     1
281
     1
  3
ACAD_XREC_ROUNDTRIP
360
13B
  0
DICTIONARY
  5
14E
330
38
100
AcDbDictionary
280
     1
281
     1
  3
ACAD_XREC_ROUNDTRIP
360
14F
  0
DICTIONARY
  5
144
330
33
100
AcDbDictionary
280
     1
281
     1
  3
ACAD_XREC_ROUNDTRIP
360
145
  0
DICTIONARY
  5
14C
330
37
100
AcDbDictionary
280
     1
281
     1
  3
ACAD_XREC_ROUNDTRIP
360
14D
  0
XRECORD
  5
157
102
{ACAD_REACTORS
330
156
102
}
330
156
100
AcDbXrecord
280
     1
102
MATERIAL
148
0.0
149
0.0
149
0.0
 93
        0
 94
      127
282
     0
 72
     1
 77
     1
171
     1
175
     1
179
     1
273
     0
  0
XRECORD
  5
155
102
{ACAD_REACTORS
330
154
102
}
330
154
100
AcDbXrecord
280
     1
102
MATERIAL
148
0.0
149
0.0
149
0.0
 93
        0
 94
      127
282
     0
 72
     1
 77
     1
171
     1
175
     1
179
     1
273
     0
  0
XRECORD
  5
159
102
{ACAD_REACTORS
330
158
102
}
330
158
100
AcDbXrecord
280
     1
102
MATERIAL
148
0.0
149
0.0
149
0.0
 93
        0
 94
      127
282
     0
 72
     1
 77
     1
171
     1
175
     1
179
     1
273
     0
  0
XRECORD
  5
13D
102
{ACAD_REACTORS
330
13C
102
}
330
13C
100
AcDbXrecord
280
     1
102
RTVSPropertyOp0
 70
     1
102
RTVSPropertyOp1
 70
     1
102
RTVSPropertyOp2
 70
     1
102
RTVSPropertyOp3
 70
     1
102
RTVSPropertyOp4
 70
     1
102
RTVSPropertyOp5
 70
     1
102
RTVSPropertyOp6
 70
     1
102
RTVSPropertyOp7
 70
     1
102
RTVSPropertyOp8
 70
     1
102
RTVSPropertyOp9
 70
     1
102
RTVSPropertyOp10
 70
     1
102
RTVSPropertyOp11
 70
     1
102
RTVSPropertyOp12
 70
     1
102
RTVSPropertyOp13
 70
     1
102
RTVSPropertyOp14
 70
     1
102
RTVSPropertyOp15
 70
     1
102
RTVSPropertyOp16
 70
     1
102
RTVSPropertyOp17
 70
     1
102
RTVSPropertyOp18
 70
     1
102
RTVSPropertyOp19
 70
     1
102
RTVSPropertyOp20
 70
     1
102
RTVSPropertyOp21
 70
     1
102
RTVSPropertyOp22
 70
     1
102
RTVSPropertyOp23
 70
     1
102
RTVSPropertyOp24
 70
     1
102
RTVSPropertyOp25
 70
     1
102
RTVSPropertyOp26
 70
     1
102
RTVSPropertyOp27
 70
     1
102
RTVSPropertyOp28
 70
     1
102
RTVSPropertyOp29
 70
     1
102
RTVSPropertyOp30
 70
     1
102
RTVSPropertyOp31
 70
     1
102
RTVSPropertyOp32
 70
     1
  0
XRECORD
  5
141
102
{ACAD_REACTORS
330
140
102
}
330
140
100
AcDbXrecord
280
     1
102
RTVSPropertyOp0
 70
     1
102
RTVSPropertyOp1
 70
     1
102
RTVSPropertyOp2
 70
     1
102
RTVSPropertyOp3
 70
     1
102
RTVSPropertyOp4
 70
     1
102
RTVSPropertyOp5
 70
     1
102
RTVSPropertyOp6
 70
     1
102
RTVSPropertyOp7
 70
     1
102
RTVSPropertyOp8
 70
     1
102
RTVSPropertyOp9
 70
     1
102
RTVSPropertyOp10
 70
     1
102
RTVSPropertyOp11
 70
     1
102
RTVSPropertyOp12
 70
     1
102
RTVSPropertyOp13
 70
     1
102
RTVSPropertyOp14
 70
     1
102
RTVSPropertyOp15
 70
     1
102
RTVSPropertyOp16
 70
     1
102
RTVSPropertyOp17
 70
     1
102
RTVSPropertyOp18
 70
     1
102
RTVSPropertyOp19
 70
     1
102
RTVSPropertyOp20
 70
     1
102
RTVSPropertyOp21
 70
     1
102
RTVSPropertyOp22
 70
     1
102
RTVSPropertyOp23
 70
     1
102
RTVSPropertyOp24
 70
     1
102
RTVSPropertyOp25
 70
     1
102
RTVSPropertyOp26
 70
     1
102
RTVSPropertyOp27
 70
     1
102
RTVSPropertyOp28
 70
     1
102
RTVSPropertyOp29
 70
     1
102
RTVSPropertyOp30
 70
     1
102
RTVSPropertyOp31
 70
     1
102
RTVSPropertyOp32
 70
     1
  0
XRECORD
  5
13F
102
{ACAD_REACTORS
330
13E
102
}
330
13E
100
AcDbXrecord
280
     1
102
RTVSPropertyOp0
 70
     1
102
RTVSPropertyOp1
 70
     1
102
RTVSPropertyOp2
 70
     1
102
RTVSPropertyOp3
 70
     1
102
RTVSPropertyOp4
 70
     1
102
RTVSPropertyOp5
 70
     1
102
RTVSPropertyOp6
 70
     1
102
RTVSPropertyOp7
 70
     1
102
RTVSPropertyOp8
 70
     1
102
RTVSPropertyOp9
 70
     1
102
RTVSPropertyOp10
 70
     1
102
RTVSPropertyOp11
 70
     1
102
RTVSPropertyOp12
 70
     1
102
RTVSPropertyOp13
 70
     1
102
RTVSPropertyOp14
 70
     1
102
RTVSPropertyOp15
 70
     1
102
RTVSPropertyOp16
 70
     1
102
RTVSPropertyOp17
 70
     1
102
RTVSPropertyOp18
 70
     1
102
RTVSPropertyOp19
 70
     1
102
RTVSPropertyOp20
 70
     1
102
RTVSPropertyOp21
 70
     1
102
RTVSPropertyOp22
 70
     1
102
RTVSPropertyOp23
 70
     1
102
RTVSPropertyOp24
 70
     1
102
RTVSPropertyOp25
 70
     1
102
RTVSPropertyOp26
 70
     1
102
RTVSPropertyOp27
 70
     1
102
RTVSPropertyOp28
 70
     1
102
RTVSPropertyOp29
 70
     1
102
RTVSPropertyOp30
 70
     1
102
RTVSPropertyOp31
 70
     1
102
RTVSPropertyOp32
 70
     1
  0
XRECORD
  5
143
102
{ACAD_REACTORS
330
142
102
}
330
142
100
AcDbXrecord
280
     1
102
RTVSPropertyOp0
 70
     1
102
RTVSPropertyOp1
 70
     1
102
RTVSPropertyOp2
 70
     1
102
RTVSPropertyOp3
 70
     1
102
RTVSPropertyOp4
 70
     1
102
RTVSPropertyOp5
 70
     1
102
RTVSPropertyOp6
 70
     1
102
RTVSPropertyOp7
 70
     1
102
RTVSPropertyOp8
 70
     1
102
RTVSPropertyOp9
 70
     1
102
RTVSPropertyOp10
 70
     1
102
RTVSPropertyOp11
 70
     1
102
RTVSPropertyOp12
 70
     1
102
RTVSPropertyOp13
 70
     1
102
RTVSPropertyOp14
 70
     1
102
RTVSPropertyOp15
 70
     1
102
RTVSPropertyOp16
 70
     1
102
RTVSPropertyOp17
 70
     1
102
RTVSPropertyOp18
 70
     1
102
RTVSPropertyOp19
 70
     1
102
RTVSPropertyOp20
 70
     1
102
RTVSPropertyOp21
 70
     1
102
RTVSPropertyOp22
 70
     1
102
RTVSPropertyOp23
 70
     1
102
RTVSPropertyOp24
 70
     1
102
RTVSPropertyOp25
 70
     1
102
RTVSPropertyOp26
 70
     1
102
RTVSPropertyOp27
 70
     1
102
RTVSPropertyOp28
 70
     1
102
RTVSPropertyOp29
 70
     1
102
RTVSPropertyOp30
 70
     1
102
RTVSPropertyOp31
 70
     1
102
RTVSPropertyOp32
 70
     1
  0
XRECORD
  5
14B
102
{ACAD_REACTORS
330
14A
102
}
330
14A
100
AcDbXrecord
280
     1
102
RTVSPropertyOp0
 70
     1
102
RTVSPropertyOp1
 70
     1
102
RTVSPropertyOp2
 70
     1
102
RTVSPropertyOp3
 70
     1
102
RTVSPropertyOp4
 70
     1
102
RTVSPropertyOp5
 70
     1
102
RTVSPropertyOp6
 70
     1
102
RTVSPropertyOp7
 70
     1
102
RTVSPropertyOp8
 70
     1
102
RTVSPropertyOp9
 70
     1
102
RTVSPropertyOp10
 70
     1
102
RTVSPropertyOp11
 70
     1
102
RTVSPropertyOp12
 70
     1
102
RTVSPropertyOp13
 70
     1
102
RTVSPropertyOp14
 70
     1
102
RTVSPropertyOp15
 70
     1
102
RTVSPropertyOp16
 70
     1
102
RTVSPropertyOp17
 70
     1
102
RTVSPropertyOp18
 70
     1
102
RTVSPropertyOp19
 70
     1
102
RTVSPropertyOp20
 70
     1
102
RTVSPropertyOp21
 70
     1
102
RTVSPropertyOp22
 70
     1
102
RTVSPropertyOp23
 70
     1
102
RTVSPropertyOp24
 70
     1
102
RTVSPropertyOp25
 70
     1
102
RTVSPropertyOp26
 70
     1
102
RTVSPropertyOp27
 70
     1
102
RTVSPropertyOp28
 70
     1
102
RTVSPropertyOp29
 70
     1
102
RTVSPropertyOp30
 70
     1
102
RTVSPropertyOp31
 70
     1
102
RTVSPropertyOp32
 70
     1
  0
XRECORD
  5
153
102
{ACAD_REACTORS
330
152
102
}
330
152
100
AcDbXrecord
280
     1
102
RTVSPropertyOp0
 70
     1
102
RTVSPropertyOp1
 70
     1
102
RTVSPropertyOp2
 70
     1
102
RTVSPropertyOp3
 70
     1
102
RTVSPropertyOp4
 70
     1
102
RTVSPropertyOp5
 70
     1
102
RTVSPropertyOp6
 70
     1
102
RTVSPropertyOp7
 70
     1
102
RTVSPropertyOp8
 70
     1
102
RTVSPropertyOp9
 70
     1
102
RTVSPropertyOp10
 70
     1
102
RTVSPropertyOp11
 70
     1
102
RTVSPropertyOp12
 70
     1
102
RTVSPropertyOp13
 70
     1
102
RTVSPropertyOp14
 70
     1
102
RTVSPropertyOp15
 70
     1
102
RTVSPropertyOp16
 70
     1
102
RTVSPropertyOp17
 70
     1
102
RTVSPropertyOp18
 70
     1
102
RTVSPropertyOp19
 70
     1
102
RTVSPropertyOp20
 70
     1
102
RTVSPropertyOp21
 70
     1
102
RTVSPropertyOp22
 70
     1
102
RTVSPropertyOp23
 70
     1
102
RTVSPropertyOp24
 70
     1
102
RTVSPropertyOp25
 70
     1
102
RTVSPropertyOp26
 70
     1
102
RTVSPropertyOp27
 70
     1
102
RTVSPropertyOp28
 70
     1
102
RTVSPropertyOp29
 70
     1
102
RTVSPropertyOp30
 70
     1
102
RTVSPropertyOp31
 70
     1
102
RTVSPropertyOp32
 70
     1
  0
XRECORD
  5
147
102
{ACAD_REACTORS
330
146
102
}
330
146
100
AcDbXrecord
280
     1
102
RTVSPropertyOp0
 70
     1
102
RTVSPropertyOp1
 70
     1
102
RTVSPropertyOp2
 70
     1
102
RTVSPropertyOp3
 70
     1
102
RTVSPropertyOp4
 70
     1
102
RTVSPropertyOp5
 70
     1
102
RTVSPropertyOp6
 70
     1
102
RTVSPropertyOp7
 70
     1
102
RTVSPropertyOp8
 70
     1
102
RTVSPropertyOp9
 70
     1
102
RTVSPropertyOp10
 70
     1
102
RTVSPropertyOp11
 70
     1
102
RTVSPropertyOp12
 70
     1
102
RTVSPropertyOp13
 70
     1
102
RTVSPropertyOp14
 70
     1
102
RTVSPropertyOp15
 70
     1
102
RTVSPropertyOp16
 70
     1
102
RTVSPropertyOp17
 70
     1
102
RTVSPropertyOp18
 70
     1
102
RTVSPropertyOp19
 70
     1
102
RTVSPropertyOp20
 70
     1
102
RTVSPropertyOp21
 70
     1
102
RTVSPropertyOp22
 70
     1
102
RTVSPropertyOp23
 70
     1
102
RTVSPropertyOp24
 70
     1
102
RTVSPropertyOp25
 70
     1
102
RTVSPropertyOp26
 70
     1
102
RTVSPropertyOp27
 70
     1
102
RTVSPropertyOp28
 70
     1
102
RTVSPropertyOp29
 70
     1
102
RTVSPropertyOp30
 70
     1
102
RTVSPropertyOp31
 70
     1
102
RTVSPropertyOp32
 70
     1
  0
XRECORD
  5
149
102
{ACAD_REACTORS
330
148
102
}
330
148
100
AcDbXrecord
280
     1
102
RTVSPropertyOp0
 70
     1
102
RTVSPropertyOp1
 70
     1
102
RTVSPropertyOp2
 70
     1
102
RTVSPropertyOp3
 70
     1
102
RTVSPropertyOp4
 70
     1
102
RTVSPropertyOp5
 70
     1
102
RTVSPropertyOp6
 70
     1
102
RTVSPropertyOp7
 70
     1
102
RTVSPropertyOp8
 70
     1
102
RTVSPropertyOp9
 70
     1
102
RTVSPropertyOp10
 70
     1
102
RTVSPropertyOp11
 70
     1
102
RTVSPropertyOp12
 70
     1
102
RTVSPropertyOp13
 70
     1
102
RTVSPropertyOp14
 70
     1
102
RTVSPropertyOp15
 70
     1
102
RTVSPropertyOp16
 70
     1
102
RTVSPropertyOp17
 70
     1
102
RTVSPropertyOp18
 70
     1
102
RTVSPropertyOp19
 70
     1
102
RTVSPropertyOp20
 70
     1
102
RTVSPropertyOp21
 70
     1
102
RTVSPropertyOp22
 70
     1
102
RTVSPropertyOp23
 70
     1
102
RTVSPropertyOp24
 70
     1
102
RTVSPropertyOp25
 70
     1
102
RTVSPropertyOp26
 70
     1
102
RTVSPropertyOp27
 70
     1
102
RTVSPropertyOp28
 70
     1
102
RTVSPropertyOp29
 70
     1
102
RTVSPropertyOp30
 70
     1
102
RTVSPropertyOp31
 70
     1
102
RTVSPropertyOp32
 70
     1
  0
XRECORD
  5
151
102
{ACAD_REACTORS
330
150
102
}
330
150
100
AcDbXrecord
280
     1
102
RTVSPropertyOp0
 70
     1
102
RTVSPropertyOp1
 70
     1
102
RTVSPropertyOp2
 70
     1
102
RTVSPropertyOp3
 70
     1
102
RTVSPropertyOp4
 70
     1
102
RTVSPropertyOp5
 70
     1
102
RTVSPropertyOp6
 70
     1
102
RTVSPropertyOp7
 70
     1
102
RTVSPropertyOp8
 70
     1
102
RTVSPropertyOp9
 70
     1
102
RTVSPropertyOp10
 70
     1
102
RTVSPropertyOp11
 70
     1
102
RTVSPropertyOp12
 70
     1
102
RTVSPropertyOp13
 70
     1
102
RTVSPropertyOp14
 70
     1
102
RTVSPropertyOp15
 70
     1
102
RTVSPropertyOp16
 70
     1
102
RTVSPropertyOp17
 70
     1
102
RTVSPropertyOp18
 70
     1
102
RTVSPropertyOp19
 70
     1
102
RTVSPropertyOp20
 70
     1
102
RTVSPropertyOp21
 70
     1
102
RTVSPropertyOp22
 70
     1
102
RTVSPropertyOp23
 70
     1
102
RTVSPropertyOp24
 70
     1
102
RTVSPropertyOp25
 70
     1
102
RTVSPropertyOp26
 70
     1
102
RTVSPropertyOp27
 70
     1
102
RTVSPropertyOp28
 70
     1
102
RTVSPropertyOp29
 70
     1
102
RTVSPropertyOp30
 70
     1
102
RTVSPropertyOp31
 70
     1
102
RTVSPropertyOp32
 70
     1
  0
XRECORD
  5
135
102
{ACAD_REACTORS
330
134
102
}
330
134
100
AcDbXrecord
280
     1
102
RTVSPropertyOp0
 70
     1
102
RTVSPropertyOp1
 70
     1
102
RTVSPropertyOp2
 70
     1
102
RTVSPropertyOp3
 70
     1
102
RTVSPropertyOp4
 70
     1
102
RTVSPropertyOp5
 70
     1
102
RTVSPropertyOp6
 70
     1
102
RTVSPropertyOp7
 70
     1
102
RTVSPropertyOp8
 70
     1
102
RTVSPropertyOp9
 70
     1
102
RTVSPropertyOp10
 70
     1
102
RTVSPropertyOp11
 70
     1
102
RTVSPropertyOp12
 70
     1
102
RTVSPropertyOp13
 70
     1
102
RTVSPropertyOp14
 70
     1
102
RTVSPropertyOp15
 70
     1
102
RTVSPropertyOp16
 70
     1
102
RTVSPropertyOp17
 70
     1
102
RTVSPropertyOp18
 70
     1
102
RTVSPropertyOp19
 70
     1
102
RTVSPropertyOp20
 70
     1
102
RTVSPropertyOp21
 70
     1
102
RTVSPropertyOp22
 70
     1
102
RTVSPropertyOp23
 70
     1
102
RTVSPropertyOp24
 70
     1
102
RTVSPropertyOp25
 70
     1
102
RTVSPropertyOp26
 70
     1
102
RTVSPropertyOp27
 70
     1
102
RTVSPropertyOp28
 70
     1
102
RTVSPropertyOp29
 70
     1
102
RTVSPropertyOp30
 70
     1
102
RTVSPropertyOp31
 70
     1
102
RTVSPropertyOp32
 70
     1
  0
XRECORD
  5
137
102
{ACAD_REACTORS
330
136
102
}
330
136
100
AcDbXrecord
280
     1
102
RTVSPropertyOp0
 70
     1
102
RTVSPropertyOp1
 70
     1
102
RTVSPropertyOp2
 70
     1
102
RTVSPropertyOp3
 70
     1
102
RTVSPropertyOp4
 70
     1
102
RTVSPropertyOp5
 70
     1
102
RTVSPropertyOp6
 70
     1
102
RTVSPropertyOp7
 70
     1
102
RTVSPropertyOp8
 70
     1
102
RTVSPropertyOp9
 70
     1
102
RTVSPropertyOp10
 70
     1
102
RTVSPropertyOp11
 70
     1
102
RTVSPropertyOp12
 70
     1
102
RTVSPropertyOp13
 70
     1
102
RTVSPropertyOp14
 70
     1
102
RTVSPropertyOp15
 70
     1
102
RTVSPropertyOp16
 70
     1
102
RTVSPropertyOp17
 70
     1
102
RTVSPropertyOp18
 70
     1
102
RTVSPropertyOp19
 70
     1
102
RTVSPropertyOp20
 70
     1
102
RTVSPropertyOp21
 70
     1
102
RTVSPropertyOp22
 70
     1
102
RTVSPropertyOp23
 70
     1
102
RTVSPropertyOp24
 70
     1
102
RTVSPropertyOp25
 70
     1
102
RTVSPropertyOp26
 70
     1
102
RTVSPropertyOp27
 70
     1
102
RTVSPropertyOp28
 70
     1
102
RTVSPropertyOp29
 70
     1
102
RTVSPropertyOp30
 70
     1
102
RTVSPropertyOp31
 70
     1
102
RTVSPropertyOp32
 70
     1
  0
XRECORD
  5
139
102
{ACAD_REACTORS
330
138
102
}
330
138
100
AcDbXrecord
280
     1
102
RTVSPropertyOp0
 70
     1
102
RTVSPropertyOp1
 70
     1
102
RTVSPropertyOp2
 70
     1
102
RTVSPropertyOp3
 70
     1
102
RTVSPropertyOp4
 70
     1
102
RTVSPropertyOp5
 70
     1
102
RTVSPropertyOp6
 70
     1
102
RTVSPropertyOp7
 70
     1
102
RTVSPropertyOp8
 70
     1
102
RTVSPropertyOp9
 70
     1
102
RTVSPropertyOp10
 70
     1
102
RTVSPropertyOp11
 70
     1
102
RTVSPropertyOp12
 70
     1
102
RTVSPropertyOp13
 70
     1
102
RTVSPropertyOp14
 70
     1
102
RTVSPropertyOp15
 70
     1
102
RTVSPropertyOp16
 70
     1
102
RTVSPropertyOp17
 70
     1
102
RTVSPropertyOp18
 70
     1
102
RTVSPropertyOp19
 70
     1
102
RTVSPropertyOp20
 70
     1
102
RTVSPropertyOp21
 70
     1
102
RTVSPropertyOp22
 70
     1
102
RTVSPropertyOp23
 70
     1
102
RTVSPropertyOp24
 70
     1
102
RTVSPropertyOp25
 70
     1
102
RTVSPropertyOp26
 70
     1
102
RTVSPropertyOp27
 70
     1
102
RTVSPropertyOp28
 70
     1
102
RTVSPropertyOp29
 70
     1
102
RTVSPropertyOp30
 70
     1
102
RTVSPropertyOp31
 70
     1
102
RTVSPropertyOp32
 70
     1
  0
XRECORD
  5
13B
102
{ACAD_REACTORS
330
13A
102
}
330
13A
100
AcDbXrecord
280
     1
102
RTVSPropertyOp0
 70
     1
102
RTVSPropertyOp1
 70
     1
102
RTVSPropertyOp2
 70
     1
102
RTVSPropertyOp3
 70
     1
102
RTVSPropertyOp4
 70
     1
102
RTVSPropertyOp5
 70
     1
102
RTVSPropertyOp6
 70
     1
102
RTVSPropertyOp7
 70
     1
102
RTVSPropertyOp8
 70
     1
102
RTVSPropertyOp9
 70
     1
102
RTVSPropertyOp10
 70
     1
102
RTVSPropertyOp11
 70
     1
102
RTVSPropertyOp12
 70
     1
102
RTVSPropertyOp13
 70
     1
102
RTVSPropertyOp14
 70
     1
102
RTVSPropertyOp15
 70
     1
102
RTVSPropertyOp16
 70
     1
102
RTVSPropertyOp17
 70
     1
102
RTVSPropertyOp18
 70
     1
102
RTVSPropertyOp19
 70
     1
102
RTVSPropertyOp20
 70
     1
102
RTVSPropertyOp21
 70
     1
102
RTVSPropertyOp22
 70
     1
102
RTVSPropertyOp23
 70
     1
102
RTVSPropertyOp24
 70
     1
102
RTVSPropertyOp25
 70
     1
102
RTVSPropertyOp26
 70
     1
102
RTVSPropertyOp27
 70
     1
102
RTVSPropertyOp28
 70
     1
102
RTVSPropertyOp29
 70
     1
102
RTVSPropertyOp30
 70
     1
102
RTVSPropertyOp31
 70
     1
102
RTVSPropertyOp32
 70
     1
  0
XRECORD
  5
14F
102
{ACAD_REACTORS
330
14E
102
}
330
14E
100
AcDbXrecord
280
     1
102
RTVSPropertyOp0
 70
     1
102
RTVSPropertyOp1
 70
     1
102
RTVSPropertyOp2
 70
     1
102
RTVSPropertyOp3
 70
     1
102
RTVSPropertyOp4
 70
     1
102
RTVSPropertyOp5
 70
     1
102
RTVSPropertyOp6
 70
     1
102
RTVSPropertyOp7
 70
     1
102
RTVSPropertyOp8
 70
     1
102
RTVSPropertyOp9
 70
     1
102
RTVSPropertyOp10
 70
     1
102
RTVSPropertyOp11
 70
     1
102
RTVSPropertyOp12
 70
     1
102
RTVSPropertyOp13
 70
     1
102
RTVSPropertyOp14
 70
     1
102
RTVSPropertyOp15
 70
     1
102
RTVSPropertyOp16
 70
     1
102
RTVSPropertyOp17
 70
     1
102
RTVSPropertyOp18
 70
     1
102
RTVSPropertyOp19
 70
     1
102
RTVSPropertyOp20
 70
     1
102
RTVSPropertyOp21
 70
     1
102
RTVSPropertyOp22
 70
     1
102
RTVSPropertyOp23
 70
     1
102
RTVSPropertyOp24
 70
     1
102
RTVSPropertyOp25
 70
     1
102
RTVSPropertyOp26
 70
     1
102
RTVSPropertyOp27
 70
     1
102
RTVSPropertyOp28
 70
     1
102
RTVSPropertyOp29
 70
     1
102
RTVSPropertyOp30
 70
     1
102
RTVSPropertyOp31
 70
     1
102
RTVSPropertyOp32
 70
     1
  0
XRECORD
  5
145
102
{ACAD_REACTORS
330
144
102
}
330
144
100
AcDbXrecord
280
     1
102
RTVSPropertyOp0
 70
     1
102
RTVSPropertyOp1
 70
     1
102
RTVSPropertyOp2
 70
     1
102
RTVSPropertyOp3
 70
     1
102
RTVSPropertyOp4
 70
     1
102
RTVSPropertyOp5
 70
     1
102
RTVSPropertyOp6
 70
     1
102
RTVSPropertyOp7
 70
     1
102
RTVSPropertyOp8
 70
     1
102
RTVSPropertyOp9
 70
     1
102
RTVSPropertyOp10
 70
     1
102
RTVSPropertyOp11
 70
     1
102
RTVSPropertyOp12
 70
     1
102
RTVSPropertyOp13
 70
     1
102
RTVSPropertyOp14
 70
     1
102
RTVSPropertyOp15
 70
     1
102
RTVSPropertyOp16
 70
     1
102
RTVSPropertyOp17
 70
     1
102
RTVSPropertyOp18
 70
     1
102
RTVSPropertyOp19
 70
     1
102
RTVSPropertyOp20
 70
     1
102
RTVSPropertyOp21
 70
     1
102
RTVSPropertyOp22
 70
     1
102
RTVSPropertyOp23
 70
     1
102
RTVSPropertyOp24
 70
     1
102
RTVSPropertyOp25
 70
     1
102
RTVSPropertyOp26
 70
     1
102
RTVSPropertyOp27
 70
     1
102
RTVSPropertyOp28
 70
     1
102
RTVSPropertyOp29
 70
     1
102
RTVSPropertyOp30
 70
     1
102
RTVSPropertyOp31
 70
     1
102
RTVSPropertyOp32
 70
     1
  0
XRECORD
  5
14D
102
{ACAD_REACTORS
330
14C
102
}
330
14C
100
AcDbXrecord
280
     1
102
RTVSPropertyOp0
 70
     1
102
RTVSPropertyOp1
 70
     1
102
RTVSPropertyOp2
 70
     1
102
RTVSPropertyOp3
 70
     1
102
RTVSPropertyOp4
 70
     1
102
RTVSPropertyOp5
 70
     1
102
RTVSPropertyOp6
 70
     1
102
RTVSPropertyOp7
 70
     1
102
RTVSPropertyOp8
 70
     1
102
RTVSPropertyOp9
 70
     1
102
RTVSPropertyOp10
 70
     1
102
RTVSPropertyOp11
 70
     1
102
RTVSPropertyOp12
 70
     1
102
RTVSPropertyOp13
 70
     1
102
RTVSPropertyOp14
 70
     1
102
RTVSPropertyOp15
 70
     1
102
RTVSPropertyOp16
 70
     1
102
RTVSPropertyOp17
 70
     1
102
RTVSPropertyOp18
 70
     1
102
RTVSPropertyOp19
 70
     1
102
RTVSPropertyOp20
 70
     1
102
RTVSPropertyOp21
 70
     1
102
RTVSPropertyOp22
 70
     1
102
RTVSPropertyOp23
 70
     1
102
RTVSPropertyOp24
 70
     1
102
RTVSPropertyOp25
 70
     1
102
RTVSPropertyOp26
 70
     1
102
RTVSPropertyOp27
 70
     1
102
RTVSPropertyOp28
 70
     1
102
RTVSPropertyOp29
 70
     1
102
RTVSPropertyOp30
 70
     1
102
RTVSPropertyOp31
 70
     1
102
RTVSPropertyOp32
 70
     1
  0
ENDSEC
  0
EOF
