  0
SECTION
  2
HEADER
  9
$ACADVER
  1
AC1015
  9
$ACADMAINTVER
 70
     6
  9
$DWGCODEPAGE
  3
ANSI_932
  9
$INSBASE
 10
0.0
 20
0.0
 30
0.0
  9
$EXTMIN
 10
0.0
 20
0.0
 30
0.0
  9
$EXTMAX
 10
210.0000000000001
 20
297.0
 30
0.0
  9
$LIMMIN
 10
0.0
 20
0.0
  9
$LIMMAX
 10
12.0
 20
9.0
  9
$ORTHOMODE
 70
     0
  9
$REGENMODE
 70
     1
  9
$FILLMODE
 70
     1
  9
$QTEXTMODE
 70
     0
  9
$MIRRTEXT
 70
     1
  9
$LTSCALE
 40
1.0
  9
$ATTMODE
 70
     1
  9
$TEXTSIZE
 40
0.2
  9
$TRACEWID
 40
0.05
  9
$TEXTSTYLE
  7
Standard
  9
$CLAYER
  8
0
  9
$CELTYPE
  6
ByLayer
  9
$CECOLOR
 62
   256
  9
$CELTSCALE
 40
1.0
  9
$DISPSILH
 70
     0
  9
$DIMSCALE
 40
1.0
  9
$DIMASZ
 40
0.18
  9
$DIMEXO
 40
0.0625
  9
$DIMDLI
 40
0.38
  9
$DIMRND
 40
0.0
  9
$DIMDLE
 40
0.0
  9
$DIMEXE
 40
0.18
  9
$DIMTP
 40
0.0
  9
$DIMTM
 40
0.0
  9
$DIMTXT
 40
0.18
  9
$DIMCEN
 40
0.09
  9
$DIMTSZ
 40
0.0
  9
$DIMTOL
 70
     0
  9
$DIMLIM
 70
     0
  9
$DIMTIH
 70
     1
  9
$DIMTOH
 70
     1
  9
$DIMSE1
 70
     0
  9
$DIMSE2
 70
     0
  9
$DIMTAD
 70
     0
  9
$DIMZIN
 70
     0
  9
$DIMBLK
  1

  9
$DIMASO
 70
     1
  9
$DIMSHO
 70
     1
  9
$DIMPOST
  1

  9
$DIMAPOST
  1

  9
$DIMALT
 70
     0
  9
$DIMALTD
 70
     2
  9
$DIMALTF
 40
25.4
  9
$DIMLFAC
 40
1.0
  9
$DIMTOFL
 70
     0
  9
$DIMTVP
 40
0.0
  9
$DIMTIX
 70
     0
  9
$DIMSOXD
 70
     0
  9
$DIMSAH
 70
     0
  9
$DIMBLK1
  1

  9
$DIMBLK2
  1

  9
$DIMSTYLE
  2
Standard
  9
$DIMCLRD
 70
     0
  9
$DIMCLRE
 70
     0
  9
$DIMCLRT
 70
     0
  9
$DIMTFAC
 40
1.0
  9
$DIMGAP
 40
0.09
  9
$DIMJUST
 70
     0
  9
$DIMSD1
 70
     0
  9
$DIMSD2
 70
     0
  9
$DIMTOLJ
 70
     1
  9
$DIMTZIN
 70
     0
  9
$DIMALTZ
 70
     0
  9
$DIMALTTZ
 70
     0
  9
$DIMUPT
 70
     0
  9
$DIMDEC
 70
     4
  9
$DIMTDEC
 70
     4
  9
$DIMALTU
 70
     2
  9
$DIMALTTD
 70
     2
  9
$DIMTXSTY
  7
Standard
  9
$DIMAUNIT
 70
     0
  9
$DIMADEC
 70
     0
  9
$DIMALTRND
 40
0.0
  9
$DIMAZIN
 70
     0
  9
$DIMDSEP
 70
    46
  9
$DIMATFIT
 70
     3
  9
$DIMFRAC
 70
     0
  9
$DIMLDRBLK
  1

  9
$DIMLUNIT
 70
     2
  9
$DIMLWD
 70
    -2
  9
$DIMLWE
 70
    -2
  9
$DIMTMOVE
 70
     0
  9
$LUNITS
 70
     2
  9
$LUPREC
 70
     4
  9
$SKETCHINC
 40
0.1
  9
$FILLETRAD
 40
0.5
  9
$AUNITS
 70
     0
  9
$AUPREC
 70
     0
  9
$MENU
  1
.
  9
$ELEVATION
 40
0.0
  9
$PELEVATION
 40
0.0
  9
$THICKNESS
 40
0.0
  9
$LIMCHECK
 70
     0
  9
$CHAMFERA
 40
0.5
  9
$CHAMFERB
 40
0.5
  9
$CHAMFERC
 40
1.0
  9
$CHAMFERD
 40
0.0
  9
$SKPOLY
 70
     0
  9
$TDCREATE
 40
2459822.478180232
  9
$TDUCREATE
 40
2459822.103180232
  9
$TDUPDATE
 40
2459822.478181319
  9
$TDUUPDATE
 40
2459822.103181319
  9
$TDINDWG
 40
0.0000000116
  9
$TDUSRTIMER
 40
0.0000000116
  9
$USRTIMER
 70
     1
  9
$ANGBASE
 50
0.0
  9
$ANGDIR
 70
     0
  9
$PDMODE
 70
     0
  9
$PDSIZE
 40
0.0
  9
$PLINEWID
 40
0.0
  9
$SPLFRAME
 70
     0
  9
$SPLINETYPE
 70
     6
  9
$SPLINESEGS
 70
     8
  9
$HANDSEED
  5
127
  9
$SURFTAB1
 70
     6
  9
$SURFTAB2
 70
     6
  9
$SURFTYPE
 70
     6
  9
$SURFU
 70
     6
  9
$SURFV
 70
     6
  9
$UCSBASE
  2

  9
$UCSNAME
  2

  9
$UCSORG
 10
0.0
 20
0.0
 30
0.0
  9
$UCSXDIR
 10
1.0
 20
0.0
 30
0.0
  9
$UCSYDIR
 10
0.0
 20
1.0
 30
0.0
  9
$UCSORTHOREF
  2

  9
$UCSORTHOVIEW
 70
     0
  9
$UCSORGTOP
 10
0.0
 20
0.0
 30
0.0
  9
$UCSORGBOTTOM
 10
0.0
 20
0.0
 30
0.0
  9
$UCSORGLEFT
 10
0.0
 20
0.0
 30
0.0
  9
$UCSORGRIGHT
 10
0.0
 20
0.0
 30
0.0
  9
$UCSORGFRONT
 10
0.0
 20
0.0
 30
0.0
  9
$UCSORGBACK
 10
0.0
 20
0.0
 30
0.0
  9
$PUCSBASE
  2

  9
$PUCSNAME
  2

  9
$PUCSORG
 10
0.0
 20
0.0
 30
0.0
  9
$PUCSXDIR
 10
1.0
 20
0.0
 30
0.0
  9
$PUCSYDIR
 10
0.0
 20
1.0
 30
0.0
  9
$PUCSORTHOREF
  2

  9
$PUCSORTHOVIEW
 70
     0
  9
$PUCSORGTOP
 10
0.0
 20
0.0
 30
0.0
  9
$PUCSORGBOTTOM
 10
0.0
 20
0.0
 30
0.0
  9
$PUCSORGLEFT
 10
0.0
 20
0.0
 30
0.0
  9
$PUCSORGRIGHT
 10
0.0
 20
0.0
 30
0.0
  9
$PUCSORGFRONT
 10
0.0
 20
0.0
 30
0.0
  9
$PUCSORGBACK
 10
0.0
 20
0.0
 30
0.0
  9
$USERI1
 70
     0
  9
$USERI2
 70
     0
  9
$USERI3
 70
     0
  9
$USERI4
 70
     0
  9
$USERI5
 70
     0
  9
$USERR1
 40
18.1
  9
$USERR2
 40
0.0
  9
$USERR3
 40
0.0
  9
$USERR4
 40
0.0
  9
$USERR5
 40
0.0
  9
$WORLDVIEW
 70
     1
  9
$SHADEDGE
 70
     3
  9
$SHADEDIF
 70
    70
  9
$TILEMODE
 70
     1
  9
$MAXACTVP
 70
    64
  9
$PINSBASE
 10
0.0
 20
0.0
 30
0.0
  9
$PLIMCHECK
 70
     0
  9
$PEXTMIN
 10
1.00000000000000E+20
 20
1.00000000000000E+20
 30
1.00000000000000E+20
  9
$PEXTMAX
 10
-1.00000000000000E+20
 20
-1.00000000000000E+20
 30
-1.00000000000000E+20
  9
$PLIMMIN
 10
0.0
 20
0.0
  9
$PLIMMAX
 10
12.0
 20
9.0
  9
$UNITMODE
 70
     0
  9
$VISRETAIN
 70
     1
  9
$PLINEGEN
 70
     0
  9
$PSLTSCALE
 70
     1
  9
$TREEDEPTH
 70
  3020
  9
$CMLSTYLE
  2
Standard
  9
$CMLJUST
 70
     0
  9
$CMLSCALE
 40
1.0
  9
$PROXYGRAPHICS
 70
     1
  9
$MEASUREMENT
 70
     1
  9
$CELWEIGHT
370
    -1
  9
$ENDCAPS
280
     0
  9
$JOINSTYLE
280
     0
  9
$LWDISPLAY
290
     0
  9
$INSUNITS
 70
     4
  9
$HYPERLINKBASE
  1

  9
$STYLESHEET
  1

  9
$XEDIT
290
     1
  9
$CEPSNTYPE
380
     0
  9
$PSTYLEMODE
290
     1
  9
$FINGERPRINTGUID
  2
{75D4BCD2-B6BB-4EE4-BEB1-F6CE7C6410FB}
  9
$VERSIONGUID
  2
{FAEB1C32-E019-11D5-929B-00C0DF256EC4}
  9
$EXTNAMES
290
     1
  9
$PSVPSCALE
 40
0.0
  9
$OLESTARTUP
290
     0
  0
ENDSEC
  0
SECTION
  2
CLASSES
  0
CLASS
  1
ACDBDICTIONARYWDFLT
  2
AcDbDictionaryWithDefault
  3
ObjectDBX Classes
 90
        0
280
     0
281
     0
  0
CLASS
  1
VISUALSTYLE
  2
AcDbVisualStyle
  3
ObjectDBX Classes
 90
     4095
280
     0
281
     0
  0
CLASS
  1
MATERIAL
  2
AcDbMaterial
  3
ObjectDBX Classes
 90
     1153
280
     0
281
     0
  0
CLASS
  1
DICTIONARYVAR
  2
AcDbDictionaryVar
  3
ObjectDBX Classes
 90
        0
280
     0
281
     0
  0
CLASS
  1
ACDBPLACEHOLDER
  2
AcDbPlaceHolder
  3
ObjectDBX Classes
 90
        0
280
     0
281
     0
  0
CLASS
  1
LAYOUT
  2
AcDbLayout
  3
ObjectDBX Classes
 90
        0
280
     0
281
     0
  0
ENDSEC
  0
SECTION
  2
TABLES
  0
TABLE
  2
VPORT
  5
8
330
0
100
AcDbSymbolTable
 70
     1
  0
VPORT
  5
29
330
8
100
AcDbSymbolTableRecord
100
AcDbViewportTableRecord
  2
*Active
 70
     0
 10
0.0
 20
0.0
 11
1.0
 21
1.0
 12
105.0000000000001
 22
148.5
 13
0.0
 23
0.0
 14
0.5
 24
0.5
 15
0.5
 25
0.5
 16
0.0
 26
0.0
 36
1.0
 17
0.0
 27
0.0
 37
0.0
 40
326.7
 41
1.60267857142857
 42
50.0
 43
0.0
 44
0.0
 50
0.0
 51
0.0
 71
     0
 72
   100
 73
     1
 74
     3
 75
     0
 76
     0
 77
     0
 78
     0
281
     0
 65
     1
110
0.0
120
0.0
130
0.0
111
1.0
121
0.0
131
0.0
112
0.0
122
1.0
132
0.0
 79
     0
146
0.0
  0
ENDTAB
  0
TABLE
  2
LTYPE
  5
5
330
0
100
AcDbSymbolTable
 70
     8
  0
LTYPE
  5
14
330
5
100
AcDbSymbolTableRecord
100
AcDbLinetypeTableRecord
  2
ByBlock
 70
     0
  3

 72
    65
 73
     0
 40
0.0
  0
LTYPE
  5
15
330
5
100
AcDbSymbolTableRecord
100
AcDbLinetypeTableRecord
  2
ByLayer
 70
     0
  3

 72
    65
 73
     0
 40
0.0
  0
LTYPE
  5
16
330
5
100
AcDbSymbolTableRecord
100
AcDbLinetypeTableRecord
  2
Continuous
 70
     0
  3
Solid line
 72
    65
 73
     0
 40
0.0
  0
LTYPE
  5
3F
330
5
100
AcDbSymbolTableRecord
100
AcDbLinetypeTableRecord
  2
DASHED
 70
     0
  3
Dashed
 72
    65
 73
     2
 40
15.0
 49
7.0
 74
     0
 49
-8.0
 74
     0
  0
LTYPE
  5
40
330
5
100
AcDbSymbolTableRecord
100
AcDbLinetypeTableRecord
  2
DOTTED
 70
     0
  3
Dotted
 72
    65
 73
     2
 40
1.0
 49
0.0
 74
     0
 49
-1.0
 74
     0
  0
LTYPE
  5
41
330
5
100
AcDbSymbolTableRecord
100
AcDbLinetypeTableRecord
  2
DOT_CENTER
 70
     0
  3
Dot_Center
 72
    65
 73
     4
 40
14.0
 49
12.0
 74
     0
 49
-1.0
 74
     0
 49
0.0
 74
     0
 49
-1.0
 74
     0
  0
LTYPE
  5
42
330
5
100
AcDbSymbolTableRecord
100
AcDbLinetypeTableRecord
  2
LONG_DASHED
 70
     0
  3
Long_Dashed
 72
    65
 73
     2
 40
15.0
 49
10.0
 74
     0
 49
-5.0
 74
     0
  0
LTYPE
  5
43
330
5
100
AcDbSymbolTableRecord
100
AcDbLinetypeTableRecord
  2
DASH_CENTER
 70
     0
  3
Dash_Center
 72
    65
 73
     4
 40
14.0
 49
11.0
 74
     0
 49
-1.0
 74
     0
 49
1.0
 74
     0
 49
-1.0
 74
     0
  0
LTYPE
  5
44
330
5
100
AcDbSymbolTableRecord
100
AcDbLinetypeTableRecord
  2
PHANTOM
 70
     0
  3
Phantom
 72
    65
 73
     6
 40
13.0
 49
10.0
 74
     0
 49
-1.0
 74
     0
 49
0.0
 74
     0
 49
-1.0
 74
     0
 49
0.0
 74
     0
 49
-1.0
 74
     0
  0
LTYPE
  5
45
330
5
100
AcDbSymbolTableRecord
100
AcDbLinetypeTableRecord
  2
CENTER_DASH_DASH
 70
     0
  3
Center_Dash_Dash
 72
    65
 73
     6
 40
14.0
 49
9.0
 74
     0
 49
-1.0
 74
     0
 49
1.0
 74
     0
 49
-1.0
 74
     0
 49
1.0
 74
     0
 49
-1.0
 74
     0
  0
ENDTAB
  0
TABLE
  2
LAYER
  5
2
330
0
100
AcDbSymbolTable
 70
     3
  0
LAYER
  5
10
330
2
100
AcDbSymbolTableRecord
100
AcDbLayerTableRecord
  2
0
 70
     0
 62
     7
  6
Continuous
370
    -3
390
F
  0
LAYER
  5
46
330
2
100
AcDbSymbolTableRecord
100
AcDbLayerTableRecord
  2
1
 70
     0
 62
     7
  6
Continuous
370
    -3
390
F
  0
LAYER
  5
47
330
2
100
AcDbSymbolTableRecord
100
AcDbLayerTableRecord
  2
_U_30EC_U_30A4_U_30E4_U_30FC_1
 70
     0
 62
     7
  6
Continuous
370
    -3
390
F
  0
ENDTAB
  0
TABLE
  2
STYLE
  5
3
330
0
100
AcDbSymbolTable
 70
     4
  0
STYLE
  5
11
330
3
100
AcDbSymbolTableRecord
100
AcDbTextStyleTableRecord
  2
Standard
 70
     0
 40
0.0
 41
1.0
 50
0.0
 71
     0
 42
0.2
  3
txt
  4

  0
STYLE
  5
B2
330
3
100
AcDbSymbolTableRecord
100
AcDbTextStyleTableRecord
  2
CONVERTER_11
 70
     0
 40
0.0
 41
0.89
 50
0.0
 71
     0
 42
0.2
  3
MS Mincho.ttf
  4

1001
ACAD
1000
MS Mincho
1071
    32785
  0
STYLE
  5
D7
330
3
100
AcDbSymbolTableRecord
100
AcDbTextStyleTableRecord
  2
CONVERTER_12
 70
     0
 40
0.0
 41
0.9
 50
0.0
 71
     0
 42
0.2
  3
txt.shx
  4

  0
STYLE
  5
E0
330
3
100
AcDbSymbolTableRecord
100
AcDbTextStyleTableRecord
  2
CONVERTER_13
 70
     0
 40
0.0
 41
0.95
 50
0.0
 71
     0
 42
0.2
  3
simplex.shx
  4

  0
ENDTAB
  0
TABLE
  2
VIEW
  5
6
330
0
100
AcDbSymbolTable
 70
     0
  0
ENDTAB
  0
TABLE
  2
UCS
  5
7
330
0
100
AcDbSymbolTable
 70
     0
  0
ENDTAB
  0
TABLE
  2
APPID
  5
9
330
0
100
AcDbSymbolTable
 70
     1
  0
APPID
  5
12
330
9
100
AcDbSymbolTableRecord
100
AcDbRegAppTableRecord
  2
ACAD
 70
     0
  0
ENDTAB
  0
TABLE
  2
DIMSTYLE
  5
A
330
0
100
AcDbSymbolTable
 70
     3
100
AcDbDimStyleTable
  0
DIMSTYLE
105
27
330
A
100
AcDbSymbolTableRecord
100
AcDbDimStyleTableRecord
  2
Standard
 70
     0
178
     0
340
11
  0
DIMSTYLE
105
EF
102
{ACAD_REACTORS
330
F0
102
}
330
A
100
AcDbSymbolTableRecord
100
AcDbDimStyleTableRecord
  2
ME10_DIM_10
 70
     0
 41
3.5
 42
0.0
 44
1.0
 73
     0
 74
     0
 77
     1
 78
     8
140
3.5
147
1.0
172
     1
173
     1
174
     1
175
     1
176
     2
177
     2
271
     2
178
     7
271
     2
340
D7
  0
DIMSTYLE
105
FA
102
{ACAD_REACTORS
330
FB
102
}
330
A
100
AcDbSymbolTableRecord
100
AcDbDimStyleTableRecord
  2
ME10_DIM_11
 70
     0
 41
3.5
 42
0.0
 44
1.0
 73
     0
 74
     0
 77
     1
 78
     8
140
3.5
147
1.0
172
     1
173
     1
174
     1
175
     1
176
     2
177
     2
271
     2
178
     7
271
     2
340
D7
  0
ENDTAB
  0
TABLE
  2
BLOCK_RECORD
  5
1
330
0
100
AcDbSymbolTable
 70
     5
  0
BLOCK_RECORD
  5
1F
330
1
100
AcDbSymbolTableRecord
100
AcDbBlockTableRecord
  2
*Model_Space
340
22
  0
BLOCK_RECORD
  5
1B
330
1
100
AcDbSymbolTableRecord
100
AcDbBlockTableRecord
  2
*Paper_Space
340
1E
  0
BLOCK_RECORD
  5
23
330
1
100
AcDbSymbolTableRecord
100
AcDbBlockTableRecord
  2
*Paper_Space0
340
26
  0
BLOCK_RECORD
  5
48
330
1
100
AcDbSymbolTableRecord
100
AcDbBlockTableRecord
  2
開示A4
340
0
102
{BLKREFS
331
4C
102
}
  0
BLOCK_RECORD
  5
4B
330
1
100
AcDbSymbolTableRecord
100
AcDbBlockTableRecord
  2
開示A4枠
340
0
102
{BLKREFS
331
4F
102
}
  0
BLOCK_RECORD
  5
E6
330
1
100
AcDbSymbolTableRecord
100
AcDbBlockTableRecord
  2
*D3
340
0
  0
BLOCK_RECORD
  5
F1
330
1
100
AcDbSymbolTableRecord
100
AcDbBlockTableRecord
  2
*D4
340
0
  0
ENDTAB
  0
ENDSEC
  0
SECTION
  2
BLOCKS
  0
BLOCK
  5
20
330
1F
100
AcDbEntity
  8
0
100
AcDbBlockBegin
  2
*Model_Space
 70
     0
 10
0.0
 20
0.0
 30
0.0
  3
*Model_Space
  1

  0
ENDBLK
  5
21
330
1F
100
AcDbEntity
  8
0
100
AcDbBlockEnd
  0
BLOCK
  5
1C
330
1B
100
AcDbEntity
 67
     1
  8
0
100
AcDbBlockBegin
  2
*Paper_Space
 70
     0
 10
0.0
 20
0.0
 30
0.0
  3
*Paper_Space
  1

  0
ENDBLK
  5
1D
330
1B
100
AcDbEntity
 67
     1
  8
0
100
AcDbBlockEnd
  0
BLOCK
  5
24
330
23
100
AcDbEntity
  8
0
100
AcDbBlockBegin
  2
*Paper_Space0
 70
     0
 10
0.0
 20
0.0
 30
0.0
  3
*Paper_Space0
  1

  0
ENDBLK
  5
25
330
23
100
AcDbEntity
  8
0
100
AcDbBlockEnd
  0
BLOCK
  5
49
330
48
100
AcDbEntity
  8
0
100
AcDbBlockBegin
  2
開示A4
 70
     0
 10
0.0
 20
0.0
 30
0.0
  3
開示A4
  1

  0
POINT
  5
50
330
48
100
AcDbEntity
  8
1
 62
     4
100
AcDbPoint
 10
34.0
 20
34.0
 30
0.0
  0
POINT
  5
51
330
48
100
AcDbEntity
  8
1
 62
     4
100
AcDbPoint
 10
57.00000000000004
 20
12.25
 30
0.0
  0
POINT
  5
52
330
48
100
AcDbEntity
  8
1
 62
     4
100
AcDbPoint
 10
57.00000000000004
 20
20.75
 30
0.0
  0
POINT
  5
53
330
48
100
AcDbEntity
  8
1
 62
     4
100
AcDbPoint
 10
57.00000000000004
 20
24.75
 30
0.0
  0
POINT
  5
54
330
48
100
AcDbEntity
  8
1
 62
     4
100
AcDbPoint
 10
57.00000000000004
 20
16.25
 30
0.0
  0
POINT
  5
55
330
48
100
AcDbEntity
  8
1
 62
     4
100
AcDbPoint
 10
157.5000000000001
 20
19.0
 30
0.0
  0
POINT
  5
56
330
48
100
AcDbEntity
  8
1
 62
     4
100
AcDbPoint
 10
47.5
 20
282.0000000000003
 30
0.0
  0
POINT
  5
57
330
48
100
AcDbEntity
  8
1
 62
     4
100
AcDbPoint
 10
57.00000000000004
 20
22.75
 30
0.0
  0
POINT
  5
58
330
48
100
AcDbEntity
  8
1
 62
     4
100
AcDbPoint
 10
57.00000000000004
 20
14.25
 30
0.0
  0
POINT
  5
59
330
48
100
AcDbEntity
  8
1
 62
     4
100
AcDbPoint
 10
157.5000000000001
 20
12.5
 30
0.0
  0
POINT
  5
5A
330
48
100
AcDbEntity
  8
1
 62
     4
100
AcDbPoint
 10
163.2500000000001
 20
12.5
 30
0.0
  0
POINT
  5
5B
330
48
100
AcDbEntity
  8
1
 62
     4
100
AcDbPoint
 10
151.7500000000001
 20
12.5
 30
0.0
  0
POINT
  5
5C
330
48
100
AcDbEntity
  8
1
 62
     4
100
AcDbPoint
 10
134.7500000000001
 20
12.5
 30
0.0
  0
POINT
  5
5D
330
48
100
AcDbEntity
  8
1
 62
     4
100
AcDbPoint
 10
146.2500000000001
 20
12.5
 30
0.0
  0
POINT
  5
5E
330
48
100
AcDbEntity
  8
1
 62
     4
100
AcDbPoint
 10
140.5000000000001
 20
12.5
 30
0.0
  0
POINT
  5
5F
330
48
100
AcDbEntity
  8
1
 62
     4
100
AcDbPoint
 10
140.5000000000001
 20
19.0
 30
0.0
  0
POINT
  5
60
330
48
100
AcDbEntity
  8
1
 62
     4
100
AcDbPoint
 10
117.7500000000001
 20
12.5
 30
0.0
  0
POINT
  5
61
330
48
100
AcDbEntity
  8
1
 62
     4
100
AcDbPoint
 10
129.2500000000001
 20
12.5
 30
0.0
  0
POINT
  5
62
330
48
100
AcDbEntity
  8
1
 62
     4
100
AcDbPoint
 10
123.5000000000001
 20
12.5
 30
0.0
  0
POINT
  5
63
330
48
100
AcDbEntity
  8
1
 62
     4
100
AcDbPoint
 10
123.5000000000001
 20
19.0
 30
0.0
  0
POINT
  5
64
330
48
100
AcDbEntity
  8
1
 62
     4
100
AcDbPoint
 10
100.7500000000001
 20
12.5
 30
0.0
  0
POINT
  5
65
330
48
100
AcDbEntity
  8
1
 62
     4
100
AcDbPoint
 10
112.2500000000001
 20
12.5
 30
0.0
  0
POINT
  5
66
330
48
100
AcDbEntity
  8
1
 62
     4
100
AcDbPoint
 10
106.5000000000001
 20
12.5
 30
0.0
  0
POINT
  5
67
330
48
100
AcDbEntity
  8
1
 62
     4
100
AcDbPoint
 10
106.5000000000001
 20
19.0
 30
0.0
  0
POINT
  5
68
330
48
100
AcDbEntity
  8
1
 62
     4
100
AcDbPoint
 10
85.25000000000006
 20
17.0
 30
0.0
  0
POINT
  5
69
330
48
100
AcDbEntity
  8
1
 62
     4
100
AcDbPoint
 10
93.75000000000006
 20
17.0
 30
0.0
  0
POINT
  5
6A
330
48
100
AcDbEntity
  8
1
 62
     4
100
AcDbPoint
 10
183.0000000000001
 20
15.00000000000001
 30
0.0
  0
LINE
  5
6B
330
48
100
AcDbEntity
  8
1
  6
Continuous
 62
     2
100
AcDbLine
 10
81.00000000000004
 20
27.0
 30
0.0
 11
81.00000000000004
 21
10.0
 31
0.0
  0
LINE
  5
6C
330
48
100
AcDbEntity
  8
1
  6
DOT_CENTER
 62
     2
100
AcDbLine
 10
187.0000000000001
 20
26.5
 30
0.0
 11
187.0000000000001
 21
20.5
 31
0.0
  0
LINE
  5
6D
330
48
100
AcDbEntity
  8
1
  6
DOT_CENTER
 62
     2
100
AcDbLine
 10
184.0000000000001
 20
23.5
 30
0.0
 11
197.0000000000001
 21
23.5
 31
0.0
  0
LINE
  5
6E
330
48
100
AcDbEntity
  8
1
  6
Continuous
 62
     7
100
AcDbLine
 10
196.0000000000001
 20
21.5
 30
0.0
 11
191.0000000000001
 21
22.3
 31
0.0
  0
LINE
  5
6F
330
48
100
AcDbEntity
  8
1
  6
Continuous
 62
     7
100
AcDbLine
 10
196.0000000000001
 20
25.5
 30
0.0
 11
196.0000000000001
 21
21.5
 31
0.0
  0
LINE
  5
70
330
48
100
AcDbEntity
  8
1
  6
Continuous
 62
     7
100
AcDbLine
 10
191.0000000000001
 20
24.7
 30
0.0
 11
196.0000000000001
 21
25.5
 31
0.0
  0
LINE
  5
71
330
48
100
AcDbEntity
  8
1
  6
Continuous
 62
     7
100
AcDbLine
 10
191.0000000000001
 20
24.7
 30
0.0
 11
191.0000000000001
 21
22.3
 31
0.0
  0
LINE
  5
72
330
48
100
AcDbEntity
  8
1
  6
Continuous
 62
     2
100
AcDbLine
 10
33.0
 20
27.0
 30
0.0
 11
33.0
 21
10.0
 31
0.0
  0
LINE
  5
73
330
48
100
AcDbEntity
  8
1
  6
Continuous
 62
     2
100
AcDbLine
 10
25.0
 20
18.50000000000001
 30
0.0
 11
81.00000000000004
 21
18.50000000000001
 31
0.0
  0
LINE
  5
74
330
48
100
AcDbEntity
  8
1
  6
Continuous
 62
     7
100
AcDbLine
 10
200.0000000000001
 20
287.0000000000003
 30
0.0
 11
105.0000000000001
 21
287.0000000000003
 31
0.0
  0
LINE
  5
75
330
48
100
AcDbEntity
  8
1
  6
Continuous
 62
     7
100
AcDbLine
 10
200.0000000000001
 20
10.0
 30
0.0
 11
200.0000000000001
 21
148.5
 31
0.0
  0
LINE
  5
76
330
48
100
AcDbEntity
  8
1
  6
Continuous
 62
     7
100
AcDbLine
 10
25.0
 20
10.0
 30
0.0
 11
105.0000000000001
 21
10.0
 31
0.0
  0
LINE
  5
77
330
48
100
AcDbEntity
  8
1
  6
PHANTOM
 62
     4
100
AcDbLine
 10
0.0
 20
297.0
 30
0.0
 11
0.0
 21
0.0
 31
0.0
  0
LINE
  5
78
330
48
100
AcDbEntity
  8
1
  6
PHANTOM
 62
     4
100
AcDbLine
 10
210.0000000000001
 20
297.0
 30
0.0
 11
0.0
 21
297.0
 31
0.0
  0
LINE
  5
79
330
48
100
AcDbEntity
  8
1
  6
PHANTOM
 62
     4
100
AcDbLine
 10
210.0000000000001
 20
0.0
 30
0.0
 11
210.0000000000001
 21
297.0
 31
0.0
  0
LINE
  5
7A
330
48
100
AcDbEntity
  8
1
  6
PHANTOM
 62
     4
100
AcDbLine
 10
0.0
 20
0.0
 30
0.0
 11
210.0000000000001
 21
0.0
 31
0.0
  0
LINE
  5
7B
330
48
100
AcDbEntity
  8
1
  6
Continuous
 62
     7
100
AcDbLine
 10
25.0
 20
41.0
 30
0.0
 11
200.0000000000001
 21
41.0
 31
0.0
  0
LINE
  5
7C
330
48
100
AcDbEntity
  8
1
  6
Continuous
 62
     7
100
AcDbLine
 10
200.0000000000001
 20
27.0
 30
0.0
 11
25.0
 21
27.0
 31
0.0
  0
LINE
  5
7D
330
48
100
AcDbEntity
  8
1
  6
Continuous
 62
     2
100
AcDbLine
 10
33.0
 20
41.0
 30
0.0
 11
33.0
 21
27.0
 31
0.0
  0
LINE
  5
7E
330
48
100
AcDbEntity
  8
1
  6
Continuous
 62
     2
100
AcDbLine
 10
55.00000000000004
 20
287.0000000000003
 30
0.0
 11
55.00000000000004
 21
277.0000000000003
 31
0.0
  0
LINE
  5
7F
330
48
100
AcDbEntity
  8
1
  6
Continuous
 62
     2
100
AcDbLine
 10
40.0
 20
287.0000000000003
 30
0.0
 11
40.0
 21
277.0000000000003
 31
0.0
  0
LINE
  5
80
330
48
100
AcDbEntity
  8
1
  6
Continuous
 62
     7
100
AcDbLine
 10
25.0
 20
10.0
 30
0.0
 11
25.0
 21
148.5
 31
0.0
  0
LINE
  5
81
330
48
100
AcDbEntity
  8
1
  6
Continuous
 62
     2
100
AcDbLine
 10
55.00000000000004
 20
277.0000000000003
 30
0.0
 11
25.0
 21
277.0000000000003
 31
0.0
  0
LINE
  5
82
330
48
100
AcDbEntity
  8
1
  6
Continuous
 62
     2
100
AcDbLine
 10
166.0000000000001
 20
27.0
 30
0.0
 11
166.0000000000001
 21
10.0
 31
0.0
  0
LINE
  5
83
330
48
100
AcDbEntity
  8
1
  6
Continuous
 62
     2
100
AcDbLine
 10
132.0000000000001
 20
27.0
 30
0.0
 11
132.0000000000001
 21
9.99999999999999
 31
0.0
  0
LINE
  5
84
330
48
100
AcDbEntity
  8
1
  6
Continuous
 62
     2
100
AcDbLine
 10
149.0000000000001
 20
27.0
 30
0.0
 11
149.0000000000001
 21
10.0
 31
0.0
  0
LINE
  5
85
330
48
100
AcDbEntity
  8
1
  6
Continuous
 62
     2
100
AcDbLine
 10
115.0000000000001
 20
27.0
 30
0.0
 11
115.0000000000001
 21
9.99999999999999
 31
0.0
  0
LINE
  5
86
330
48
100
AcDbEntity
  8
1
  6
Continuous
 62
     2
100
AcDbLine
 10
98.00000000000006
 20
27.0
 30
0.0
 11
98.00000000000006
 21
9.99999999999999
 31
0.0
  0
LINE
  5
87
330
48
100
AcDbEntity
  8
1
  6
Continuous
 62
     2
100
AcDbLine
 10
166.0000000000001
 20
20.0
 30
0.0
 11
200.0000000000001
 21
20.0
 31
0.0
  0
LINE
  5
88
330
48
100
AcDbEntity
  8
1
  6
Continuous
 62
     2
100
AcDbLine
 10
105.0000000000001
 20
287.0000000000003
 30
0.0
 11
105.0000000000001
 21
292.0000000000003
 31
0.0
  0
LINE
  5
89
330
48
100
AcDbEntity
  8
1
  6
Continuous
 62
     7
100
AcDbLine
 10
105.0000000000001
 20
287.0000000000003
 30
0.0
 11
25.0
 21
287.0000000000003
 31
0.0
  0
LINE
  5
8A
330
48
100
AcDbEntity
  8
1
  6
Continuous
 62
     2
100
AcDbLine
 10
25.0
 20
148.5
 30
0.0
 11
20.0
 21
148.5
 31
0.0
  0
LINE
  5
8B
330
48
100
AcDbEntity
  8
1
  6
Continuous
 62
     7
100
AcDbLine
 10
25.0
 20
148.5
 30
0.0
 11
25.0
 21
287.0000000000003
 31
0.0
  0
LINE
  5
8C
330
48
100
AcDbEntity
  8
1
  6
Continuous
 62
     2
100
AcDbLine
 10
200.0000000000001
 20
148.5
 30
0.0
 11
205.0000000000001
 21
148.5
 31
0.0
  0
LINE
  5
8D
330
48
100
AcDbEntity
  8
1
  6
Continuous
 62
     7
100
AcDbLine
 10
200.0000000000001
 20
148.5
 30
0.0
 11
200.0000000000001
 21
287.0000000000003
 31
0.0
  0
LINE
  5
8E
330
48
100
AcDbEntity
  8
1
  6
Continuous
 62
     2
100
AcDbLine
 10
105.0000000000001
 20
10.0
 30
0.0
 11
105.0000000000001
 21
5.0
 31
0.0
  0
LINE
  5
8F
330
48
100
AcDbEntity
  8
1
  6
Continuous
 62
     7
100
AcDbLine
 10
105.0000000000001
 20
10.0
 30
0.0
 11
200.0000000000001
 21
10.0
 31
0.0
  0
CIRCLE
  5
94
330
48
100
AcDbEntity
  8
1
  6
DOT_CENTER
 62
     7
100
AcDbCircle
 10
89.50000000000006
 20
18.0
 30
0.0
 40
0.0999999999999943
  0
CIRCLE
  5
95
330
48
100
AcDbEntity
  8
1
  6
DOT_CENTER
 62
     7
100
AcDbCircle
 10
89.50000000000006
 20
16.0
 30
0.0
 40
0.0999999999999943
  0
CIRCLE
  5
96
330
48
100
AcDbEntity
  8
1
  6
Continuous
 62
     7
100
AcDbCircle
 10
187.0000000000001
 20
23.5
 30
0.0
 40
2.0
  0
CIRCLE
  5
97
330
48
100
AcDbEntity
  8
1
  6
Continuous
 62
     7
100
AcDbCircle
 10
187.0000000000001
 20
23.5
 30
0.0
 40
1.200000000000074
  0
CIRCLE
  5
98
330
48
100
AcDbEntity
  8
1
  6
Continuous
 62
     7
100
AcDbCircle
 10
154.5000000000001
 20
12.5
 30
0.0
 40
0.2999999999998977
  0
CIRCLE
  5
99
330
48
100
AcDbEntity
  8
1
  6
Continuous
 62
     7
100
AcDbCircle
 10
160.5000000000001
 20
12.5
 30
0.0
 40
0.2999999999998977
  0
CIRCLE
  5
9A
330
48
100
AcDbEntity
  8
1
  6
Continuous
 62
     7
100
AcDbCircle
 10
143.5000000000001
 20
12.5
 30
0.0
 40
0.2999999999998977
  0
CIRCLE
  5
9B
330
48
100
AcDbEntity
  8
1
  6
Continuous
 62
     7
100
AcDbCircle
 10
137.5000000000001
 20
12.5
 30
0.0
 40
0.2999999999998977
  0
CIRCLE
  5
9C
330
48
100
AcDbEntity
  8
1
  6
Continuous
 62
     7
100
AcDbCircle
 10
126.5000000000001
 20
12.5
 30
0.0
 40
0.2999999999998977
  0
CIRCLE
  5
9D
330
48
100
AcDbEntity
  8
1
  6
Continuous
 62
     7
100
AcDbCircle
 10
120.5000000000001
 20
12.5
 30
0.0
 40
0.2999999999998977
  0
CIRCLE
  5
9E
330
48
100
AcDbEntity
  8
1
  6
Continuous
 62
     7
100
AcDbCircle
 10
109.5000000000001
 20
12.5
 30
0.0
 40
0.2999999999998977
  0
CIRCLE
  5
9F
330
48
100
AcDbEntity
  8
1
  6
Continuous
 62
     7
100
AcDbCircle
 10
103.5000000000001
 20
12.5
 30
0.0
 40
0.2999999999998977
  0
SPLINE
  5
A0
102
{ACAD_REACTORS
330
BE
102
}
330
48
100
AcDbEntity
  8
_U_30EC_U_30A4_U_30E4_U_30FC_1
  6
Continuous
 62
     2
100
AcDbSpline
210
0.0
220
0.0
230
1.0
 70
    11
 71
     3
 72
    99
 73
    95
 74
    93
 42
0.000000001
 43
0.0000000001
 44
0.00000001
 40
0.0
 40
0.0
 40
0.0
 40
0.0
 40
0.0796417172272862
 40
0.1621768542356609
 40
0.2486489160958024
 40
0.3404969668524463
 40
0.4381912511164761
 40
0.5434463660245629
 40
0.6518115192847382
 40
0.7530190937886683
 40
0.8492196919725469
 40
0.9419290312998009
 40
1.034249663570067
 40
1.129078600620193
 40
1.226697027573239
 40
1.327220425421708
 40
1.470572134938027
 40
1.595489863371246
 40
1.719934125348371
 40
1.850576620127466
 40
1.989059629987298
 40
2.134139054226865
 40
2.280698007207207
 40
2.424529739039524
 40
2.565929576985849
 40
2.708239260773576
 40
2.86171788744366
 40
3.045168540347364
 40
3.183798301138613
 40
3.314813961455469
 40
3.442083470447305
 40
3.569912708372847
 40
3.70217751250936
 40
3.842307559659553
 40
3.992872223245874
 40
4.156750662218377
 40
4.310981861107599
 40
4.445859909322616
 40
4.572393936131556
 40
4.701656719781932
 40
4.76827908600842
 40
4.835960697898354
 40
4.91278891872928
 40
5.006285208481461
 40
5.026909478751594
 40
5.047533749021215
 40
5.101808031471285
 40
5.162325165538567
 40
5.226919745995902
 40
5.294231806596681
 40
5.36454485255485
 40
5.438319055467971
 40
5.517877651324252
 40
5.607647714861621
 40
5.700449642544467
 40
5.788251142364198
 40
5.87271470603983
 40
5.955167292575345
 40
6.037192395190398
 40
6.120669181469117
 40
6.206848616686356
 40
6.296680855416778
 40
6.44255839287259
 40
6.568190371608265
 40
6.69290456736035
 40
6.824220446557198
 40
6.963121850329408
 40
7.107843738851249
 40
7.253431663907334
 40
7.395187468036682
 40
7.533140753237738
 40
7.670550457175226
 40
7.816236511769266
 40
7.987691657359224
 40
8.142277421969265
 40
8.293662615415
 40
8.442962460879277
 40
8.591598316185353
 40
8.743678992361785
 40
8.903725323699144
 40
9.07630700889049
 40
9.26557860468063
 40
9.45920379536072
 40
9.617619810273478
 40
9.753609671361913
 40
9.874873300004108
 40
9.954520184977811
 40
10.0241641371925
 40
10.09769764405449
 40
10.18909955924977
 40
10.20974586420133
 40
10.23039218263373
 40
10.30057101881257
 40
10.37632012987539
 40
10.37632012987539
 40
10.37632012987539
 40
10.37632012987539
 10
170.1465954835851
 20
14.13795663215994
 30
0.0
 10
170.1632217851219
 20
14.11720608845313
 30
0.0
 10
170.1970784206577
 20
14.07495111711901
 30
0.0
 10
170.2599822541037
 20
14.02029811392073
 30
0.0
 10
170.3332500940393
 20
13.97299025121051
 30
0.0
 10
170.4175969238636
 20
13.93527231437933
 30
0.0
 10
170.513224061546
 20
13.91040619731951
 30
0.0
 10
170.6171853775346
 20
13.90309559345937
 30
0.0
 10
170.7224020220405
 20
13.91142322794053
 30
0.0
 10
170.8206626371333
 20
13.94149179651531
 30
0.0
 10
170.9058986427549
 20
13.98848822971872
 30
0.0
 10
170.9779220206103
 20
14.04952991250861
 30
0.0
 10
171.0350917709097
 20
14.12412969578579
 30
0.0
 10
171.076786874744
 20
14.21002464660176
 30
0.0
 10
171.1026952846292
 20
14.30485850432211
 30
0.0
 10
171.1118037332654
 20
14.41854979038367
 30
0.0
 10
171.0986864796487
 20
14.54332587770781
 30
0.0
 10
171.0325330334414
 20
14.66014719171887
 30
0.0
 10
170.936937091957
 20
14.74512539577379
 30
0.0
 10
170.8249681022369
 20
14.81416684459158
 30
0.0
 10
170.699365958327
 20
14.8720414204589
 30
0.0
 10
170.5656691620857
 20
14.92373723284343
 30
0.0
 10
170.4313122818831
 20
14.97899092397182
 30
0.0
 10
170.3051983986877
 20
15.04939770641645
 30
0.0
 10
170.1926579987535
 20
15.13785540731254
 30
0.0
 10
170.0969963064457
 20
15.24981067868467
 30
0.0
 10
170.0334157151827
 20
15.39949910101386
 30
0.0
 10
170.0200706505016
 20
15.55932794385141
 30
0.0
 10
170.0320510987449
 20
15.71048405306846
 30
0.0
 10
170.0712298928842
 20
15.83809244591538
 30
0.0
 10
170.1354987750911
 20
15.95080874030839
 30
0.0
 10
170.2238204999739
 20
16.04648609268697
 30
0.0
 10
170.3338091207628
 20
16.12354214985748
 30
0.0
 10
170.4632284401265
 20
16.18151396936276
 30
0.0
 10
170.6111838967794
 20
16.21739177588825
 30
0.0
 10
170.7682069455487
 20
16.22746719050563
 30
0.0
 10
170.9174940466431
 20
16.21863637762591
 30
0.0
 10
171.0596253614171
 20
16.19074899340353
 30
0.0
 10
171.1595922609625
 20
16.13413314701137
 30
0.0
 10
171.3125074736185
 20
16.08674602105506
 30
0.0
 10
171.2455131717168
 20
16.00197553001185
 30
0.0
 10
171.2296479120268
 20
15.93438901873485
 30
0.0
 10
171.1978750531297
 20
15.8692609279319
 30
0.0
 10
171.2150202209572
 20
15.76723453256952
 30
0.0
 10
171.1666427208232
 20
15.77493211681903
 30
0.0
 10
171.1315789440766
 20
15.76806771724806
 30
0.0
 10
171.1296697985717
 20
15.83263831158195
 30
0.0
 10
171.0985692931989
 20
15.87825639621397
 30
0.0
 10
171.0664551628456
 20
15.93561036628448
 30
0.0
 10
171.0208038475169
 20
15.98540462692565
 30
0.0
 10
170.9658508218387
 20
16.02994813718996
 30
0.0
 10
170.9010841173007
 20
16.06763988836547
 30
0.0
 10
170.8232377310597
 20
16.09283375791354
 30
0.0
 10
170.7355160553352
 20
16.0993123099811
 30
0.0
 10
170.6452903277807
 20
16.09235709285608
 30
0.0
 10
170.5594594694064
 20
16.06909190460921
 30
0.0
 10
170.4828343638596
 20
16.03131644107545
 30
0.0
 10
170.4165265636201
 20
15.98051641089575
 30
0.0
 10
170.3622560536965
 20
15.91731143407209
 30
0.0
 10
170.322492534546
 20
15.84276455710367
 30
0.0
 10
170.2976775510589
 20
15.75917313997763
 30
0.0
 10
170.2892124262871
 20
15.65192948382286
 30
0.0
 10
170.3019697987104
 20
15.5296545726756
 30
0.0
 10
170.3681548409273
 20
15.41149724291211
 30
0.0
 10
170.4640977399832
 20
15.32606325709524
 30
0.0
 10
170.5757914963183
 20
15.25583362306725
 30
0.0
 10
170.7010863668703
 20
15.19659162305301
 30
0.0
 10
170.8349823941448
 20
15.14616708086134
 30
0.0
 10
170.968993033315
 20
15.09322516984383
 30
0.0
 10
171.0950885316915
 20
15.02750170625173
 30
0.0
 10
171.2076216638417
 20
14.94480352537322
 30
0.0
 10
171.3031370284233
 20
14.83996006310073
 30
0.0
 10
171.3672706486964
 20
14.69937117251572
 30
0.0
 10
171.3811103725278
 20
14.54065409451592
 30
0.0
 10
171.3673954712229
 20
14.38153155217876
 30
0.0
 10
171.3244739153986
 20
14.23483828819208
 30
0.0
 10
171.2545906329066
 20
14.10119796587139
 30
0.0
 10
171.1574592213829
 20
13.98532387699296
 30
0.0
 10
171.0347806023658
 20
13.89089981770086
 30
0.0
 10
170.8874408413168
 20
13.82179270651981
 30
0.0
 10
170.7177132497124
 20
13.77953210858852
 30
0.0
 10
170.5317404979598
 20
13.76781736230408
 30
0.0
 10
170.3528955926183
 20
13.77809486683437
 30
0.0
 10
170.1881733753745
 20
13.81966573769156
 30
0.0
 10
170.0834410841056
 20
13.8879764288394
 30
0.0
 10
169.9350960790365
 20
13.93675219032104
 30
0.0
 10
169.9980378194729
 20
14.02976591290843
 30
0.0
 10
170.0072274430061
 20
14.10296536248278
 30
0.0
 10
170.0303711301231
 20
14.16936294501347
 30
0.0
 10
170.0034588335318
 20
14.26974809527579
 30
0.0
 10
170.0521338956339
 20
14.26234033517379
 30
0.0
 10
170.0916530580697
 20
14.26894063620894
 30
0.0
 10
170.0996204944701
 20
14.19078703218929
 30
0.0
 10
170.1305436967923
 20
14.15600927375856
 30
0.0
 10
170.1465954835851
 20
14.13795663215994
 30
0.0
 11
170.1465954835851
 21
14.13795663215994
 31
0.0
 11
170.1982038075864
 21
14.07729869814736
 31
0.0
 11
170.2601105501336
 21
14.0227129516332
 31
0.0
 11
170.3327764009803
 21
13.97583980928383
 31
0.0
 11
170.4166468655843
 21
13.93839906276537
 31
0.0
 11
170.511221073241
 21
13.91390636311877
 31
0.0
 11
170.6161603327166
 21
13.90575829888472
 31
0.0
 11
170.7240739497552
 21
13.91564048638223
 31
0.0
 11
170.8208419941616
 21
13.94528704887482
 31
0.0
 11
170.9050776083319
 21
13.99175118948819
 31
0.0
 11
170.9756144207686
 21
14.05191413218149
 31
0.0
 11
171.031944210998
 21
14.1250581946632
 31
0.0
 11
171.0736690016003
 21
14.21021434047522
 31
0.0
 11
171.0994680808032
 21
14.30436190989612
 31
0.0
 11
171.1080824729447
 21
14.4045155209822
 31
0.0
 11
171.0878517703357
 21
14.54643250879397
 31
0.0
 11
171.0272522666731
 21
14.65566684036386
 31
0.0
 11
170.9364971286286
 21
14.74081306430094
 31
0.0
 11
170.826010188474
 21
14.81052746532517
 31
0.0
 11
170.7008523531255
 21
14.86979854169922
 31
0.0
 11
170.5662951950999
 21
14.9240425347412
 31
0.0
 11
170.4316884277007
 21
14.98201274306004
 31
0.0
 11
170.3065802017258
 21
15.05297399304232
 31
0.0
 11
170.196027609828
 21
15.14113315968695
 31
0.0
 11
170.1053381235265
 21
15.25080295132617
 31
0.0
 11
170.0447055469485
 21
15.39179720476315
 31
0.0
 11
170.0245079172554
 21
15.57413260402313
 31
0.0
 11
170.0374030471348
 21
15.71216131926642
 31
0.0
 11
170.0761016659392
 21
15.83733128451289
 31
0.0
 11
170.1393141731507
 21
15.94779262129084
 31
0.0
 11
170.2257499954544
 21
16.04196885390621
 31
0.0
 11
170.3336492808963
 21
16.1184654077065
 31
0.0
 11
170.4613526283329
 21
16.17615670109487
 31
0.0
 11
170.6075393259923
 21
16.21220066809973
 31
0.0
 11
170.7709768565451
 21
16.22421385386062
 31
0.0
 11
170.924891843129
 21
16.21434269066864
 31
0.0
 11
171.0564887242608
 21
16.18477329831497
 31
0.0
 11
171.172563634494
 21
16.13439993895252
 31
0.0
 11
171.2800792741122
 21
16.06264163167877
 31
0.0
 11
171.2516994050444
 21
16.00236624106886
 31
0.0
 11
171.2284855254283
 21
15.93879017337648
 31
0.0
 11
171.2078381040801
 21
15.86478841992269
 31
0.0
 11
171.1871840681488
 21
15.77360197897328
 31
0.0
 11
171.1665597978416
 21
15.77360197897328
 31
0.0
 11
171.1459355275343
 21
15.77360197897328
 31
0.0
 11
171.1256706495791
 21
15.82395108486347
 31
0.0
 11
171.0994658759421
 21
15.87850045116929
 31
0.0
 11
171.0650468924451
 21
15.93316116296115
 31
0.0
 11
171.0203554612938
 21
15.98349593725411
 31
0.0
 11
170.9657333359511
 21
16.02777175321529
 31
0.0
 11
170.9016722004326
 21
16.06436142334501
 31
0.0
 11
170.8259682961141
 21
16.08882545979727
 31
0.0
 11
170.7365722046449
 21
16.09701100667022
 31
0.0
 11
170.6440937174207
 21
16.08926973931101
 31
0.0
 11
170.5594072091645
 21
16.06609003445566
 31
0.0
 11
170.483702448884
 21
16.02863495634008
 31
0.0
 11
170.4183754766516
 21
15.97832774281102
 31
0.0
 11
170.3650487887665
 21
15.9160029337988
 31
0.0
 11
170.3254809233902
 21
15.84249947895607
 31
0.0
 11
170.3009523754712
 21
15.75988443557391
 31
0.0
 11
170.2927954104109
 21
15.67042329844352
 31
0.0
 11
170.3130095765618
 21
15.52595308146574
 31
0.0
 11
170.373625616682
 21
15.41591177072937
 31
0.0
 11
170.4643479320758
 21
15.33033670130631
 31
0.0
 11
170.5748676948814
 21
15.25941954854625
 31
0.0
 11
170.700008993772
 21
15.19914305550579
 31
0.0
 11
170.8345826882554
 21
15.14590447913021
 31
0.0
 11
170.9691729191968
 21
15.09039489581074
 31
0.0
 11
171.0942976816297
 21
15.0237728124941
 31
0.0
 11
171.204800907977
 21
14.94118863716749
 31
0.0
 11
171.2955397598288
 21
14.83800003476272
 31
0.0
 11
171.3561557999489
 21
14.70552315979584
 31
0.0
 11
171.3763699660998
 21
14.53526378483839
 31
0.0
 11
171.3621839747998
 21
14.38133030397411
 31
0.0
 11
171.3196087009194
 21
14.23605531269097
 31
0.0
 11
171.2499752884266
 21
14.10398854189067
 31
0.0
 11
171.1544992078713
 21
13.99007218775248
 31
0.0
 11
171.0341060772624
 21
13.89715272597017
 31
0.0
 11
170.8896160201847
 21
13.8283235766818
 31
0.0
 11
170.7223519532714
 21
13.78581275203967
 31
0.0
 11
170.5336103348226
 21
13.77165864614041
 31
0.0
 11
170.3405031726388
 21
13.78581275203967
 31
0.0
 11
170.1878975900912
 21
13.8283235766818
 31
0.0
 11
170.0661897942203
 21
13.88899033013889
 31
0.0
 11
169.9660261826363
 21
13.95734322942737
 31
0.0
 11
169.9922320587039
 21
14.03255545163076
 31
0.0
 11
170.0090121537619
 21
14.10014767383612
 31
0.0
 11
170.0206196447852
 21
14.17275926235962
 31
0.0
 11
170.031360625414
 21
14.26352788212859
 31
0.0
 11
170.0520069443316
 21
14.26352788212859
 31
0.0
 11
170.0726532632492
 21
14.26352788212859
 31
0.0
 11
170.1048916391629
 21
14.20119204881084
 31
0.0
 11
170.1465954835851
 21
14.13795663215994
 31
0.0
  0
SPLINE
  5
A1
102
{ACAD_REACTORS
330
BF
102
}
330
48
100
AcDbEntity
  8
_U_30EC_U_30A4_U_30E4_U_30FC_1
  6
Continuous
 62
     2
100
AcDbSpline
210
0.0
220
0.0
230
1.0
 70
    11
 71
     3
 72
    57
 73
    53
 74
    51
 42
0.000000001
 43
0.0000000001
 44
0.00000001
 40
0.0
 40
0.0
 40
0.0
 40
0.0
 40
0.0471632082810078
 40
0.0914861054632998
 40
0.1357762519702665
 40
0.1826527001611528
 40
0.2295203288573153
 40
0.2737751972222459
 40
0.3181310461544201
 40
0.365260719839851
 40
0.4571007286314522
 40
0.5671851029165462
 40
0.6894623283868448
 40
0.818175827254614
 40
0.9510087229273883
 40
1.085852229674041
 40
1.218126164475309
 40
1.343545131142369
 40
1.454537202956814
 40
1.567187607530879
 40
1.680710966642413
 40
1.794226869736862
 40
1.900009184247605
 40
2.004085860448055
 40
2.108162674451858
 40
2.214000150155288
 40
2.496038577352156
 40
2.762350745479295
 40
2.997275353279405
 40
3.185110082137705
 40
3.246407890063988
 40
3.312607550212776
 40
3.378877742711678
 40
3.440140399651419
 40
4.100501696006406
 40
4.754913085563448
 40
5.411331693423866
 40
6.077890432568671
 40
6.11057529267095
 40
6.14326015277573
 40
6.3679893633951
 40
6.610525374951508
 40
6.863389136467271
 40
7.119380025547574
 40
7.37603660509104
 40
7.631164770966224
 40
7.876722425456365
 40
8.10495373585584
 40
8.312916685924215
 40
8.497730294941261
 40
8.651018984313813
 40
8.764738853624536
 40
8.764738853624536
 40
8.764738853624536
 40
8.764738853624536
 10
174.7922649500514
 20
13.81626739612928
 30
0.0
 10
174.7766616726932
 20
13.81826231079079
 30
0.0
 10
174.7463947960302
 20
13.82213201360299
 30
0.0
 10
174.7010994202252
 20
13.82341984967269
 30
0.0
 10
174.6559553129348
 20
13.82308683554051
 30
0.0
 10
174.60990171234
 20
13.82314658674225
 30
0.0
 10
174.5640496172095
 20
13.82325813650002
 30
0.0
 10
174.5183711648165
 20
13.82277833456592
 30
0.0
 10
174.4750811541608
 20
13.82461109618721
 30
0.0
 10
174.4039947951514
 20
13.80049556814661
 30
0.0
 10
174.4057477261441
 20
13.92184693977252
 30
0.0
 10
174.358619637057
 20
14.00726239751232
 30
0.0
 10
174.3191478251762
 20
14.12486929345137
 30
0.0
 10
174.2706635532645
 20
14.24232752540436
 30
0.0
 10
174.2201017402523
 20
14.3640593576151
 30
0.0
 10
174.1718634610477
 20
14.49075967862466
 30
0.0
 10
174.1135232947595
 20
14.5993368778495
 30
0.0
 10
174.0980892667262
 20
14.75620657134411
 30
0.0
 10
173.9566586330636
 20
14.72373446548321
 30
0.0
 10
173.8508397414904
 20
14.7351288868218
 30
0.0
 10
173.7358569725222
 20
14.73392591514616
 30
0.0
 10
173.6253142252141
 20
14.73506945347408
 30
0.0
 10
173.5176583522783
 20
14.73418350037526
 30
0.0
 10
173.4121322529242
 20
14.73416602390519
 30
0.0
 10
173.3109192682012
 20
14.72714032472415
 30
0.0
 10
173.1266804827754
 20
14.75135859859864
 30
0.0
 10
173.1157393685411
 20
14.44741691121886
 30
0.0
 10
173.0087691634749
 20
14.22353177253398
 30
0.0
 10
172.9098148604347
 20
14.03895314292496
 30
0.0
 10
172.9225090524008
 20
13.79530204804206
 30
0.0
 10
172.8050091716397
 20
13.82508046753198
 30
0.0
 10
172.742205586831
 20
13.82258089509604
 30
0.0
 10
172.67858720934
 20
13.82344075102806
 30
0.0
 10
172.3946014194075
 20
13.78098039941946
 30
0.0
 10
173.0251638499382
 20
14.50081952444789
 30
0.0
 10
173.1087645289071
 20
15.01276539435731
 30
0.0
 10
173.4929252789338
 20
15.53353743550042
 30
0.0
 10
173.4777208288569
 20
16.23519626253216
 30
0.0
 10
173.7239265722698
 20
16.22345633081256
 30
0.0
 10
173.8256346157563
 20
16.23225004452773
 30
0.0
 10
173.8249752035818
 20
15.98059650730344
 30
0.0
 10
173.9428317155829
 20
15.79818020733959
 30
0.0
 10
174.0315515260485
 20
15.55563740662864
 30
0.0
 10
174.132229248526
 20
15.32340030530128
 30
0.0
 10
174.2311142712244
 20
15.08674644566912
 30
0.0
 10
174.3299676990669
 20
14.8546173917009
 30
0.0
 10
174.4256166390927
 20
14.63122222788793
 30
0.0
 10
174.515990457327
 20
14.42272549049312
 30
0.0
 10
174.5989944568189
 20
14.2330844852932
 30
0.0
 10
174.67260885828
 20
14.06663106068101
 30
0.0
 10
174.7342815895546
 20
13.92917699626097
 30
0.0
 10
174.7749458885605
 20
13.84999239430034
 30
0.0
 10
174.7922649500514
 20
13.81626739612928
 30
0.0
 11
174.7922649500514
 21
13.81626739612928
 31
0.0
 11
174.7453878317448
 21
13.82145433189186
 31
0.0
 11
174.7010975896125
 21
13.82315538223863
 31
0.0
 11
174.656807443173
 21
13.82315538223863
 31
0.0
 11
174.6099309947159
 21
13.82315538223863
 31
0.0
 11
174.5630633657034
 21
13.82315538223863
 31
0.0
 11
174.5188084970407
 21
13.82315538223863
 31
0.0
 11
174.4744852776853
 21
13.82145433189186
 31
0.0
 11
174.4276419021444
 21
13.81626739612928
 31
0.0
 11
174.3992532136325
 21
13.90360966173244
 31
0.0
 11
174.3622721815898
 21
14.0072965627482
 31
0.0
 11
174.3188386236701
 21
14.12159987001127
 31
0.0
 11
174.2711055866936
 21
14.24113531268969
 31
0.0
 11
174.2208160133237
 21
14.36408057307564
 31
0.0
 11
174.1696467003933
 21
14.48883822929446
 31
0.0
 11
174.1197531801326
 21
14.61134141502772
 31
0.0
 11
174.0733119111842
 21
14.72784517367917
 31
0.0
 11
173.9623611907589
 21
14.73087465284506
 31
0.0
 11
173.8497309225089
 21
14.7330045486779
 31
0.0
 11
173.736215206945
 21
14.7343219531914
 31
0.0
 11
173.62270004768
 21
14.73473315978852
 31
0.0
 11
173.5169185312816
 21
14.7343219531914
 31
0.0
 11
173.4128501919224
 21
14.7330045486779
 31
0.0
 11
173.3087951724045
 21
14.73087465284506
 31
0.0
 11
173.2030010615597
 21
14.72784517367917
 31
0.0
 11
173.0980914750139
 21
14.4660443751335
 31
0.0
 11
173.0034868690331
 21
14.2171023265846
 31
0.0
 11
172.9252231210299
 21
13.99559756969557
 31
0.0
 11
172.8693431224556
 21
13.81626739612928
 31
0.0
 11
172.8082651639442
 21
13.82145433189186
 31
0.0
 11
172.742087361813
 21
13.82315538223863
 31
0.0
 11
172.6758390041282
 21
13.82145433189186
 31
0.0
 11
172.6147963233939
 21
13.81626739612928
 31
0.0
 11
172.8899684951931
 21
14.41656508695142
 31
0.0
 11
173.158294573417
 21
15.01343642360776
 31
0.0
 11
173.4240277350405
 21
15.61366245644381
 31
0.0
 11
173.6914740737034
 21
16.22421385386062
 31
0.0
 11
173.7241589339807
 21
16.22421385386062
 31
0.0
 11
173.756843794258
 21
16.22421385386062
 31
0.0
 11
173.8428300681058
 21
16.01658539037084
 31
0.0
 11
173.935728581361
 21
15.79254614563517
 31
0.0
 11
174.0328714521464
 21
15.55908663180468
 31
0.0
 11
174.1317936458032
 21
15.32298128464144
 31
0.0
 11
174.2315341249927
 21
15.08649780379783
 31
0.0
 11
174.3313071129353
 21
14.85168781253709
 31
0.0
 11
174.4280608257449
 21
14.6259949219685
 31
0.0
 11
174.5188084970407
 21
14.4165805209792
 31
0.0
 11
174.6022150834546
 21
14.22607611130461
 31
0.0
 11
174.6770293263378
 21
14.05708232662467
 31
0.0
 11
174.7410729186604
 21
13.91781337700667
 31
0.0
 11
174.7922649500514
 21
13.81626739612928
 31
0.0
  0
SPLINE
  5
A2
102
{ACAD_REACTORS
330
BF
102
}
330
48
100
AcDbEntity
  8
_U_30EC_U_30A4_U_30E4_U_30FC_1
  6
Continuous
 62
     2
100
AcDbSpline
210
0.0
220
0.0
230
1.0
 70
    11
 71
     3
 72
    25
 73
    21
 74
    19
 42
0.000000001
 43
0.0000000001
 44
0.00000001
 40
0.0
 40
0.0
 40
0.0
 40
0.0
 40
0.0911479969064537
 40
0.1858117896204953
 40
0.2804128399734207
 40
0.3715889190713658
 40
0.4679080494217855
 40
0.5642683809228378
 40
0.6605683222644707
 40
0.7569653015809403
 40
0.8561348172521887
 40
1.092615965104196
 40
1.374867658141778
 40
1.61134881201147
 40
1.71051832842513
 40
1.809403163726437
 40
2.045205463293962
 40
2.326646917622011
 40
2.562449217190484
 40
2.661334043833792
 40
2.661334043833792
 40
2.661334043833792
 40
2.661334043833792
 10
173.26837005672
 20
14.88614538197292
 30
0.0
 10
173.2987525917923
 20
14.88598079714554
 30
0.0
 10
173.3606895889112
 20
14.88564528689922
 30
0.0
 10
173.4541356960331
 20
14.88269055451998
 30
0.0
 10
173.5475095236357
 20
14.87977752877151
 30
0.0
 10
173.6417760753477
 20
14.87894201643417
 30
0.0
 10
173.7354964790967
 20
14.87996644658046
 30
0.0
 10
173.8352040303205
 20
14.87916977470972
 30
0.0
 10
173.9188949546312
 20
14.88921410235219
 30
0.0
 10
174.0637996315045
 20
14.86234617674167
 30
0.0
 10
173.93961324448
 20
15.03665530280048
 30
0.0
 10
173.8965867286283
 20
15.19651711006092
 30
0.0
 10
173.780892214221
 20
15.45518458550213
 30
0.0
 10
173.7017565431258
 20
15.5923105286186
 30
0.0
 10
173.6431576621816
 20
15.80937033134077
 30
0.0
 10
173.586480393944
 20
15.59266134213426
 30
0.0
 10
173.5052809900477
 20
15.45327012438239
 30
0.0
 10
173.4063701281489
 20
15.20406969370192
 30
0.0
 10
173.3253625094259
 20
15.01925830226075
 30
0.0
 10
173.2813683325839
 20
14.91650446856117
 30
0.0
 10
173.26837005672
 20
14.88614538197292
 30
0.0
 11
173.26837005672
 21
14.88614538197292
 31
0.0
 11
173.3595137737821
 21
14.8852612326676
 31
0.0
 11
173.4541428297582
 21
14.88269697919598
 31
0.0
 11
173.5487082179706
 21
14.88009965280777
 31
0.0
 11
173.6398803250196
 21
14.8792485764191
 31
0.0
 11
173.7361985777706
 21
14.87965978301621
 31
0.0
 11
173.8325499034376
 21
14.88097718752971
 31
0.0
 11
173.9288262638287
 21
14.88310818579312
 31
0.0
 11
174.0251753846343
 21
14.88614538197292
 31
0.0
 11
173.9854633323141
 21
14.9770164219502
 31
0.0
 11
173.8907653613968
 21
15.19370890189602
 31
0.0
 11
173.7777387509471
 21
15.45234186183135
 31
0.0
 11
173.6830407800298
 21
15.66903434177717
 31
0.0
 11
173.6433287277096
 21
15.75990538175445
 31
0.0
 11
173.6043330259267
 21
15.66903434177717
 31
0.0
 11
173.5113432755213
 21
15.45234186183135
 31
0.0
 11
173.4003555089083
 21
15.19370890189602
 31
0.0
 11
173.3073657585029
 21
14.9770164219502
 31
0.0
 11
173.26837005672
 21
14.88614538197292
 31
0.0
  0
SPLINE
  5
A3
102
{ACAD_REACTORS
330
C0
102
}
330
48
100
AcDbEntity
  8
_U_30EC_U_30A4_U_30E4_U_30FC_1
  6
Continuous
 62
     2
100
AcDbSpline
210
0.0
220
0.0
230
1.0
 70
    11
 71
     3
 72
    95
 73
    91
 74
    89
 42
0.000000001
 43
0.0000000001
 44
0.00000001
 40
0.0
 40
0.0
 40
0.0
 40
0.0
 40
0.6550406656910706
 40
1.308087289031874
 40
1.420803739835745
 40
1.566130759770752
 40
1.75706734188841
 40
2.006513545026412
 40
2.0873282631215
 40
2.185328872295573
 40
2.294612454748308
 40
2.408936380534759
 40
2.526802767798505
 40
2.646360524615552
 40
2.762535723971523
 40
2.870057342870095
 40
2.966883448431589
 40
3.05080324351824
 40
3.115818222436548
 40
3.156030057150177
 40
3.213914225080079
 40
3.276689026450395
 40
3.3429603209812
 40
3.404230667150506
 40
3.453822809493305
 40
3.532499827188379
 40
3.634775188507101
 40
3.754909333008104
 40
3.889736761660599
 40
4.035769602175163
 40
4.187256681197549
 40
4.338733685675895
 40
4.488478734676051
 40
4.634708317831527
 40
4.771493189921214
 40
4.892686571561152
 40
5.199775528944389
 40
5.460353566929578
 40
5.667603142345453
 40
5.814722905404429
 40
5.828990806219756
 40
5.855488336304368
 40
5.869756237118671
 40
6.189796507762715
 40
6.531890469872871
 40
6.883053637016857
 40
7.230512024911405
 40
7.566966656764512
 40
7.885203559707339
 40
8.172887439719103
 40
8.418011594062616
 40
8.443926721190538
 40
8.510760470613025
 40
8.602145393795535
 40
8.701714041646976
 40
8.793098965075206
 40
8.859932715057779
 40
8.885847842603429
 40
9.242301256612647
 40
9.589275455016598
 40
9.921808543164005
 40
10.23479624298451
 40
10.29968150889179
 40
10.3532349388777
 40
10.40154625355146
 40
10.46482922477819
 40
10.55973900668399
 40
10.69239545985611
 40
10.84920353475665
 40
11.01626328594773
 40
11.18672024367437
 40
11.35372582577205
 40
11.5025744229242
 40
11.61866495023285
 40
11.71329869152868
 40
11.82511050573901
 40
11.9446488084571
 40
12.069292426425
 40
12.1970729043517
 40
12.32562632860523
 40
12.45034565331273
 40
12.56646595170322
 40
12.67099007414629
 40
12.76077625936777
 40
12.82703233506688
 40
12.87429132785987
 40
12.89831990323326
 40
12.92234847860015
 40
13.53984767410313
 40
14.18294284359366
 40
14.18294284359366
 40
14.18294284359366
 40
14.18294284359366
 10
177.306793564802
 20
14.70898038201725
 30
0.0
 10
177.175201975855
 20
14.82265058603233
 30
0.0
 10
176.9124193802729
 20
15.04964496316164
 30
0.0
 10
176.399739344102
 20
15.89214462956289
 30
0.0
 10
176.4106654595363
 20
15.53423377577019
 30
0.0
 10
176.4041226527992
 20
15.39267392272132
 30
0.0
 10
176.4028026631772
 20
15.1942130529928
 30
0.0
 10
176.4018117602538
 20
15.02150296045983
 30
0.0
 10
176.4024101751974
 20
14.87865373257579
 30
0.0
 10
176.4038994301882
 20
14.78265005413358
 30
0.0
 10
176.4055683588472
 20
14.67545503263141
 30
0.0
 10
176.4071934954619
 20
14.56164211517582
 30
0.0
 10
176.4092429501686
 20
14.44441572604589
 30
0.0
 10
176.4123165501926
 20
14.3265641123297
 30
0.0
 10
176.4156339697043
 20
14.2122808732062
 30
0.0
 10
176.4193605340281
 20
14.10521401867278
 30
0.0
 10
176.4217338161424
 20
14.01007408766921
 30
0.0
 10
176.4278718888357
 20
13.92558557205696
 30
0.0
 10
176.4239784495946
 20
13.86923087298142
 30
0.0
 10
176.4455230443077
 20
13.79825022472357
 30
0.0
 10
176.3680940058618
 20
13.82902677604482
 30
0.0
 10
176.3116353240191
 20
13.82011242517614
 30
0.0
 10
176.2540495896808
 20
13.82896218398276
 30
0.0
 10
176.1690163478473
 20
13.79738225225944
 30
0.0
 10
176.2009714146382
 20
13.88095155992191
 30
0.0
 10
176.199070528254
 20
13.94882608968309
 30
0.0
 10
176.2107960047299
 20
14.05233256764419
 30
0.0
 10
176.2164241053001
 20
14.17002125616694
 30
0.0
 10
176.223790217894
 20
14.30388609164424
 30
0.0
 10
176.2320759701611
 20
14.44764152872632
 30
0.0
 10
176.2398851897427
 20
14.59714022843445
 30
0.0
 10
176.2457571222658
 20
14.74792549402078
 30
0.0
 10
176.2503667817968
 20
14.89699943878438
 30
0.0
 10
176.2542632117544
 20
15.04122913163022
 30
0.0
 10
176.2570715126565
 20
15.17583905213017
 30
0.0
 10
176.2576698755023
 20
15.36469614347355
 30
0.0
 10
176.2616023867151
 20
15.58975494313154
 30
0.0
 10
176.2442175378497
 20
15.86367091125707
 30
0.0
 10
176.2850417342584
 20
16.02787112098597
 30
0.0
 10
176.1995153256
 20
16.22749661465096
 30
0.0
 10
176.2660558907689
 20
16.22385458403978
 30
0.0
 10
176.2838724273231
 20
16.22413447160854
 30
0.0
 10
176.4056801797504
 20
16.22632927398613
 30
0.0
 10
176.5080770335462
 20
15.94675118721518
 30
0.0
 10
176.7580021509356
 20
15.74563008535999
 30
0.0
 10
176.9870035331111
 20
15.47792614987913
 30
0.0
 10
177.2245151213109
 20
15.22646413862379
 30
0.0
 10
177.4486090740773
 20
14.98969974061358
 30
0.0
 10
177.675071628301
 20
14.73218692583081
 30
0.0
 10
177.8325687886515
 20
14.6164933505692
 30
0.0
 10
178.0472129612673
 20
14.27997152538795
 30
0.0
 10
178.0422645974619
 20
14.40464754091604
 30
0.0
 10
178.0433931602546
 20
14.46327691935736
 30
0.0
 10
178.0428877841516
 20
14.55043662371977
 30
0.0
 10
178.0430475158113
 20
14.64416143182872
 30
0.0
 10
178.0430054891318
 20
14.73018971297035
 30
0.0
 10
178.0430202040373
 20
14.79153891945496
 30
0.0
 10
178.0429706255983
 20
14.94135231520991
 30
0.0
 10
178.0458811522811
 20
15.17989612510105
 30
0.0
 10
178.0259521041161
 20
15.54486509868699
 30
0.0
 10
178.0750433936248
 20
15.80799631993417
 30
0.0
 10
177.9177951509179
 20
16.2192890494775
 30
0.0
 10
178.0762112872421
 20
16.16398282551748
 30
0.0
 10
178.1311680478629
 20
16.16199686500174
 30
0.0
 10
178.1827887766741
 20
16.16264778248253
 30
0.0
 10
178.2713198965366
 20
16.20369527738245
 30
0.0
 10
178.2204898303168
 20
16.05696326622987
 30
0.0
 10
178.2313389930283
 20
15.95019971954433
 30
0.0
 10
178.2166036994848
 20
15.79085705414112
 30
0.0
 10
178.2099976446205
 20
15.62853061652874
 30
0.0
 10
178.2014961399916
 20
15.45992521892395
 30
0.0
 10
178.1943227202198
 20
15.29814814703541
 30
0.0
 10
178.1889063215389
 20
15.15422331457932
 30
0.0
 10
178.1871713967649
 20
15.03437493466926
 30
0.0
 10
178.1875440672319
 20
14.92686101590514
 30
0.0
 10
178.1873656126263
 20
14.81820024645586
 30
0.0
 10
178.187701086314
 20
14.6995357016553
 30
0.0
 10
178.1890040622183
 20
14.57555163512741
 30
0.0
 10
178.1908887351575
 20
14.44858294171105
 30
0.0
 10
178.1925004454849
 20
14.32153861551031
 30
0.0
 10
178.194140313743
 20
14.19854884492177
 30
0.0
 10
178.1962570745752
 20
14.08300931383759
 30
0.0
 10
178.1963848422364
 20
13.98090903955836
 30
0.0
 10
178.2006514396554
 20
13.89009848838156
 30
0.0
 10
178.1908440085289
 20
13.83213621208786
 30
0.0
 10
178.2118474771689
 20
13.76517130132029
 30
0.0
 10
178.1725639739897
 20
13.77291153966688
 30
0.0
 10
177.9595307117743
 20
13.75755254145188
 30
0.0
 10
177.7636297943187
 20
14.31403058094477
 30
0.0
 10
177.4611197631544
 20
14.57556035348512
 30
0.0
 10
177.306793564802
 20
14.70898038201725
 30
0.0
 11
177.306793564802
 21
14.70898038201725
 31
0.0
 11
176.8595529338511
 21
15.18757635411977
 31
0.0
 11
176.4124049070643
 21
15.6635264928897
 31
0.0
 11
176.4089664262494
 21
15.55086249986232
 31
0.0
 11
176.4055610183501
 21
15.40557538184309
 31
0.0
 11
176.4029636920275
 21
15.21465645827967
 31
0.0
 11
176.4021126156603
 21
14.96521170139756
 31
0.0
 11
176.402523923029
 21
14.88439802954279
 31
0.0
 11
176.4038420329817
 21
14.78640628477561
 31
0.0
 11
176.4055192267718
 21
14.67713557299739
 31
0.0
 11
176.4072367127519
 21
14.56282454872039
 31
0.0
 11
176.4094007838772
 21
14.44497802965266
 31
0.0
 11
176.4124049070643
 21
14.32545802100199
 31
0.0
 11
176.4158359733139
 21
14.20933349846156
 31
0.0
 11
176.4192928929999
 21
14.1018674655023
 31
0.0
 11
176.4227085253088
 21
14.00510162351264
 31
0.0
 11
176.4261896983793
 21
13.92125406276972
 31
0.0
 11
176.4296006184313
 21
13.8563286200776
 31
0.0
 11
176.4330776843148
 21
13.81626739612928
 31
0.0
 11
176.3754263821571
 21
13.82145433189186
 31
0.0
 11
176.312674631831
 21
13.82315538223863
 31
0.0
 11
176.2464251717157
 21
13.82145433189186
 31
0.0
 11
176.1853747739675
 21
13.81626739612928
 31
0.0
 11
176.1926772737812
 21
13.8653189412559
 31
0.0
 11
176.2008793569055
 21
13.94356725720856
 31
0.0
 11
176.2090098822348
 21
14.04551893253029
 31
0.0
 11
176.2163406441398
 21
14.16542920159752
 31
0.0
 11
176.2236358280421
 21
14.3000591234389
 31
0.0
 11
176.2318444255596
 21
14.44586107652745
 31
0.0
 11
176.2395504149466
 21
14.59715203135073
 31
0.0
 11
176.2455763002093
 21
14.74850913200734
 31
0.0
 11
176.2503046247416
 21
14.89817951391435
 31
0.0
 11
176.2541928972121
 21
15.04435739582222
 31
0.0
 11
176.2567527408966
 21
15.18111831592696
 31
0.0
 11
176.2576324804575
 21
15.3023085068689
 31
0.0
 11
176.257192610677
 21
15.60939715262544
 31
0.0
 11
176.2559126888347
 21
15.86997204839365
 31
0.0
 11
176.2528658717893
 21
16.07719922716125
 31
0.0
 11
176.2473049112764
 21
16.22421385386062
 31
0.0
 11
176.261572812147
 21
16.22421385386062
 31
0.0
 11
176.2880703423352
 21
16.22421385386062
 31
0.0
 11
176.3023382432058
 21
16.22421385386062
 31
0.0
 11
176.5194743650277
 21
15.98910179662773
 31
0.0
 11
176.7512744123079
 21
15.73751281231561
 31
0.0
 11
176.9894816018839
 21
15.4794955554357
 31
0.0
 11
177.2260074557522
 21
15.22497079855489
 31
0.0
 11
177.4555698717706
 21
14.97899759549137
 31
0.0
 11
177.6731797360104
 21
14.74678934034107
 31
0.0
 11
177.8713724913707
 21
14.53826680567099
 31
0.0
 11
178.0430143099086
 21
14.36326697932589
 31
0.0
 11
178.0430143099086
 21
14.38918210687043
 31
0.0
 11
178.0430143099086
 21
14.45601585685371
 31
0.0
 11
178.0430143099086
 21
14.54740078030025
 31
0.0
 11
178.0430143099086
 21
14.64696942823453
 31
0.0
 11
178.0430143099086
 21
14.73835435168106
 31
0.0
 11
178.0430143099086
 21
14.80518810166435
 31
0.0
 11
178.0430143099086
 21
14.83110322920889
 31
0.0
 11
178.0417233637609
 21
15.18755430550867
 31
0.0
 11
178.0378461155958
 21
15.53450684014415
 31
0.0
 11
178.0296197790002
 21
15.86693815950552
 31
0.0
 11
178.0154535467227
 21
16.17960510387179
 31
0.0
 11
178.0790351249619
 21
16.16666367158334
 31
0.0
 11
178.1324170159612
 21
16.16238072887607
 31
0.0
 11
178.1805381084833
 21
16.16666367158334
 31
0.0
 11
178.2424836798197
 21
16.17960510387179
 31
0.0
 11
178.2351216487575
 21
16.084981284451
 31
0.0
 11
178.2269790968818
 21
15.95257496503965
 31
0.0
 11
178.2183705364005
 21
15.79600336785656
 31
0.0
 11
178.2097547223216
 21
15.62916593734271
 31
0.0
 11
178.201618785029
 21
15.4589032550936
 31
0.0
 11
178.1942501393835
 21
15.292060312427
 31
0.0
 11
178.1891406931522
 21
15.1432994357281
 31
0.0
 11
178.1874503478905
 21
15.02722121527101
 31
0.0
 11
178.1874503478905
 21
14.93258747397519
 31
0.0
 11
178.1874503478905
 21
14.82077565976707
 31
0.0
 11
178.1878461204497
 21
14.70123801222749
 31
0.0
 11
178.1890819450707
 21
14.5766005209392
 31
0.0
 11
178.1908392193317
 21
14.44883212687391
 31
0.0
 11
178.1925303477607
 21
14.32028982655879
 31
0.0
 11
178.1942876220215
 21
14.19558288214555
 31
0.0
 11
178.1959787504505
 21
14.07947489606349
 31
0.0
 11
178.1972884379172
 21
13.97495896727017
 31
0.0
 11
178.1976985420735
 21
13.88517371555652
 31
0.0
 11
178.1976985420735
 21
13.81891763918416
 31
0.0
 11
178.1976985420735
 21
13.77165864614041
 31
0.0
 11
178.1736699662976
 21
13.77165864614041
 31
0.0
 11
178.1496413905217
 21
13.77165864614041
 31
0.0
 11
177.7410729200423
 21
14.2346673526219
 31
0.0
 11
177.306793564802
 21
14.70898038201725
 31
0.0
  0
SPLINE
  5
A4
102
{ACAD_REACTORS
330
C1
102
}
330
48
100
AcDbEntity
  8
_U_30EC_U_30A4_U_30E4_U_30FC_1
  6
Continuous
 62
     2
100
AcDbSpline
210
0.0
220
0.0
230
1.0
 70
    11
 71
     3
 72
   110
 73
   106
 74
   104
 42
0.000000001
 43
0.0000000001
 44
0.00000001
 40
0.0
 40
0.0
 40
0.0
 40
0.0
 40
0.2203406257277714
 40
0.4407808782838093
 40
0.5952494494614787
 40
0.7488431659393074
 40
0.9023581831309344
 40
1.056801968670405
 40
1.210736449099933
 40
1.363041386539869
 40
1.515315729683155
 40
1.669377239148077
 40
1.721611652756556
 40
1.773199502942938
 40
1.824933793209983
 40
1.87711042648795
 40
1.982682281206684
 40
2.078781667087521
 40
2.172809640822186
 40
2.271937807378896
 40
2.378349933379289
 40
2.494131557736364
 40
2.626681683943555
 40
2.783145050795954
 40
2.890701232940809
 40
2.993130312454705
 40
3.099869730691693
 40
3.220237816691186
 40
3.352695482737476
 40
3.481732806389727
 40
3.593499473690257
 40
3.674323013331771
 40
3.81795171195272
 40
3.946167120793831
 40
4.06140505345346
 40
4.166480796003044
 40
4.262478775059166
 40
4.35073667355115
 40
4.433071991253979
 40
4.511216293814638
 40
4.564262454117968
 40
4.618474415571582
 40
4.670128488754188
 40
4.722296879126395
 40
4.819540945314321
 40
4.931194984128121
 40
5.049996040257819
 40
5.168643755415507
 40
5.283970811762662
 40
5.39226078491046
 40
5.486512254876478
 40
5.559178233949933
 40
5.591425852853593
 40
5.626215969637982
 40
5.667155838674511
 40
5.717449290214318
 40
5.738402360944932
 40
5.784499116553902
 40
5.830595872164875
 40
5.851548942897733
 40
5.873019280661848
 40
5.92421777840839
 40
5.985325662817769
 40
6.036524160567786
 40
6.057994498334314
 40
6.236847789607563
 40
6.38140992894574
 40
6.493190424178768
 40
6.57406753423058
 40
6.691018086205589
 40
6.814881554220592
 40
6.944307823240459
 40
7.071266716066083
 40
7.193488604461928
 40
7.309042773128155
 40
7.414007203170837
 40
7.505140441886537
 40
7.531150360599695
 40
7.55922164532229
 40
7.587202218920952
 40
7.612569159499157
 40
7.662550809481036
 40
7.702878875764154
 40
7.857328205230883
 40
8.0107995680885
 40
8.165256399657478
 40
8.322232698713902
 40
8.479564855016589
 40
8.635216230290792
 40
8.79088255092571
 40
8.948305154947276
 40
9.168271839032952
 40
9.387358980987237
 40
9.608047961033478
 40
9.832914234792671
 40
9.858338694963006
 40
9.925366817230014
 40
10.0201307142276
 40
10.12876249858998
 40
10.23739428295249
 40
10.33215817995191
 40
10.39918630222394
 40
10.42461076239783
 40
10.64992019336943
 40
10.87188524531188
 40
10.87188524531188
 40
10.87188524531188
 40
10.87188524531188
 10
179.9057788376618
 20
15.7392326039819
 30
0.0
 10
179.9092864933542
 20
15.80616462073804
 30
0.0
 10
179.9163033987663
 20
15.94005891915858
 30
0.0
 10
179.8198027599072
 20
16.22548554971469
 30
0.0
 10
180.0510134726109
 20
16.16284386190283
 30
0.0
 10
180.1919290057156
 20
16.17001554055992
 30
0.0
 10
180.3490417757588
 20
16.16235883078244
 30
0.0
 10
180.5025913427288
 20
16.16252752283039
 30
0.0
 10
180.6545104935081
 20
16.16182040535432
 30
0.0
 10
180.8142214813232
 20
16.1721015835164
 30
0.0
 10
180.9408972601118
 20
16.15496511080751
 30
0.0
 10
181.137082112208
 20
16.22727260107146
 30
0.0
 10
181.1034395279079
 20
16.12640699080116
 30
0.0
 10
181.1052011317184
 20
16.0761925394767
 30
0.0
 10
181.1027342073459
 20
16.02712335586466
 30
0.0
 10
181.1347076966011
 20
15.94063490847
 30
0.0
 10
181.0010399903256
 20
15.98997438608338
 30
0.0
 10
180.9172208688057
 20
15.98430634314167
 30
0.0
 10
180.8173861139324
 20
15.99465516706298
 30
0.0
 10
180.7186576720146
 20
16.00086450411087
 30
0.0
 10
180.6121532771111
 20
16.00697763816778
 30
0.0
 10
180.491051169806
 20
16.01588883484585
 30
0.0
 10
180.3703381502455
 20
16.00521605912383
 30
0.0
 10
180.1812553843438
 20
16.06468503080366
 30
0.0
 10
180.2129028505312
 20
15.9055832007754
 30
0.0
 10
180.1995563316833
 20
15.80839128339904
 30
0.0
 10
180.197495842645
 20
15.69634065110102
 30
0.0
 10
180.195818804467
 20
15.5769968562935
 30
0.0
 10
180.1973336794233
 20
15.4503259215511
 30
0.0
 10
180.1956582478671
 20
15.32301588016117
 30
0.0
 10
180.2058844271657
 20
15.22451566404463
 30
0.0
 10
180.1779006596583
 20
15.0838870262563
 30
0.0
 10
180.3508029999306
 20
15.13989551134097
 30
0.0
 10
180.4645020202772
 20
15.12719951478496
 30
0.0
 10
180.584015167224
 20
15.13448377051255
 30
0.0
 10
180.6888491425072
 20
15.13878017056756
 30
0.0
 10
180.7843084898612
 20
15.14330568258976
 30
0.0
 10
180.8763823507033
 20
15.15149201146199
 30
0.0
 10
180.9476551782439
 20
15.14643850638113
 30
0.0
 10
181.0544931705687
 20
15.18536425031674
 30
0.0
 10
181.0226603598036
 20
15.1051712200588
 30
0.0
 10
181.0266164503929
 20
15.05562936846033
 30
0.0
 10
181.0234502392014
 20
15.00557478039819
 30
0.0
 10
181.0550791490586
 20
14.92128847612021
 30
0.0
 10
180.9210133677692
 20
14.97425365495156
 30
0.0
 10
180.82923227932
 20
14.96540080890441
 30
0.0
 10
180.7079729189603
 20
14.97570049965155
 30
0.0
 10
180.5914113119772
 20
14.97748911767502
 30
0.0
 10
180.4783375745878
 20
14.97787017109694
 30
0.0
 10
180.3679246308471
 20
14.98415449472181
 30
0.0
 10
180.289812406784
 20
14.97189133255364
 30
0.0
 10
180.1913625833644
 20
15.00453887616127
 30
0.0
 10
180.201235517356
 20
14.94769748054205
 30
0.0
 10
180.1973923244404
 20
14.91392130557983
 30
0.0
 10
180.1966789884269
 20
14.87119604709411
 30
0.0
 10
180.1963369642975
 20
14.83401607262153
 30
0.0
 10
180.1963834255345
 20
14.79487237370771
 30
0.0
 10
180.1963649429927
 20
14.75716849497686
 30
0.0
 10
180.1963703431806
 20
14.71944955232402
 30
0.0
 10
180.1963697214201
 20
14.6899432474515
 30
0.0
 10
180.1963698151545
 20
14.65873577699301
 30
0.0
 10
180.1963704287921
 20
14.61414424908085
 30
0.0
 10
180.1963671499336
 20
14.5596395650885
 30
0.0
 10
180.1963759623481
 20
14.51505540201448
 30
0.0
 10
180.1963359653417
 20
14.4311780858574
 30
0.0
 10
180.1976024270255
 20
14.31737520677678
 30
0.0
 10
180.1950274117843
 20
14.16830395933709
 30
0.0
 10
180.2065009381719
 20
14.06597203813905
 30
0.0
 10
180.1823506222265
 20
13.93338903885837
 30
0.0
 10
180.3332993946477
 20
13.97895732272022
 30
0.0
 10
180.4428436671555
 20
13.96427012162349
 30
0.0
 10
180.5733970473921
 20
13.96920435125062
 30
0.0
 10
180.6990312209513
 20
13.97257705323363
 30
0.0
 10
180.8188730625601
 20
13.97711497498772
 30
0.0
 10
180.9391362611426
 20
13.99048536182005
 30
0.0
 10
181.0222761663516
 20
13.98068712782594
 30
0.0
 10
181.1456080421074
 20
14.04126214623318
 30
0.0
 10
181.1244269203956
 20
13.9853246013402
 30
0.0
 10
181.1235950270115
 20
13.95939249372347
 30
0.0
 10
181.1218963707558
 20
13.93197256190938
 30
0.0
 10
181.121797488883
 20
13.89738195206386
 30
0.0
 10
181.120365930133
 20
13.86050408220768
 30
0.0
 10
181.1532804192189
 20
13.7684684102181
 30
0.0
 10
180.9551306988108
 20
13.84132015974832
 30
0.0
 10
180.8300548294891
 20
13.81825726508606
 30
0.0
 10
180.6673071295156
 20
13.82454021985787
 30
0.0
 10
180.5129366450001
 20
13.82260943909927
 30
0.0
 10
180.3566670436943
 20
13.82393762599269
 30
0.0
 10
180.1970544465283
 20
13.82059872487863
 30
0.0
 10
180.0540326342237
 20
13.83265795728241
 30
0.0
 10
179.8197144881628
 20
13.76952001976919
 30
0.0
 10
179.9173810751197
 20
14.05620527466318
 30
0.0
 10
179.9006868780058
 20
14.24988308142661
 30
0.0
 10
179.9146296709686
 20
14.47848242880295
 30
0.0
 10
179.9142987846633
 20
14.63384593955049
 30
0.0
 10
179.9143078119264
 20
14.73966336444125
 30
0.0
 10
179.9143055876316
 20
14.80205784124214
 30
0.0
 10
179.914306555189
 20
14.89220425248327
 30
0.0
 10
179.9143065473262
 20
14.99621167157438
 30
0.0
 10
179.9143053861104
 20
15.10022131375296
 30
0.0
 10
179.9143090971502
 20
15.19036243688768
 30
0.0
 10
179.9143011051052
 20
15.25276803097215
 30
0.0
 10
179.9143334275019
 20
15.35868835961119
 30
0.0
 10
179.913144078832
 20
15.5162671654474
 30
0.0
 10
179.9082216489257
 20
15.66528219822066
 30
0.0
 10
179.9057788376618
 20
15.7392326039819
 30
0.0
 11
179.9057788376618
 21
15.7392326039819
 31
0.0
 11
179.8966918223741
 21
15.95938578101018
 31
0.0
 11
179.8868249573133
 21
16.17960510387179
 31
0.0
 11
180.04115751414
 21
16.17312391463728
 31
0.0
 11
180.1946500189046
 21
16.16754892331925
 31
0.0
 11
180.3481160653367
 21
16.16367167505631
 31
0.0
 11
180.5025544554939
 21
16.16238072887607
 31
0.0
 11
180.6564835227473
 21
16.16367167505631
 31
0.0
 11
180.8087391004601
 21
16.16754892331925
 31
0.0
 11
180.9609113551074
 21
16.17312391463728
 31
0.0
 11
181.1148364762483
 21
16.17960510387179
 31
0.0
 11
181.1070811703124
 21
16.12794961777358
 31
0.0
 11
181.1044991623592
 21
16.07642642334204
 31
0.0
 11
181.1070811703124
 21
16.0247566056466
 31
0.0
 11
181.1148364762483
 21
15.97315954836785
 31
0.0
 11
181.0094874054411
 21
15.98001446156058
 31
0.0
 11
180.913637570006
 21
15.98693552058657
 31
0.0
 11
180.8198593171904
 21
15.99378381919598
 31
0.0
 11
180.7209679915881
 21
16.0006321178054
 31
0.0
 11
180.6147532199924
 21
16.00710999974824
 31
0.0
 11
180.4991060528039
 21
16.01268829835794
 31
0.0
 11
180.3666126447258
 21
16.01656554662088
 31
0.0
 11
180.2101546018424
 21
16.01785649280112
 31
0.0
 11
180.2062663293721
 21
15.91037061609187
 31
0.0
 11
180.20153800484
 21
15.80805072896465
 31
0.0
 11
180.197660756675
 21
15.70138175329687
 31
0.0
 11
180.1963698105272
 21
15.5810205901325
 31
0.0
 11
180.1967799146836
 21
15.44856355891565
 31
0.0
 11
180.1980896021503
 21
15.31953288186455
 31
0.0
 11
180.1994074577049
 21
15.20777398432308
 31
0.0
 11
180.199819115366
 21
15.12695149302384
 31
0.0
 11
180.3434452935874
 21
15.1278025694125
 31
0.0
 11
180.4716343930759
 21
15.13039989580076
 31
0.0
 11
180.5868078221796
 21
15.13425509545254
 31
0.0
 11
180.691775631222
 21
15.13901649302076
 31
0.0
 11
180.7876346289422
 21
15.14418027774175
 31
0.0
 11
180.8757413374194
 21
15.14934406246267
 31
0.0
 11
180.9578881438497
 21
15.15491243919739
 31
0.0
 11
181.0357692335572
 21
15.16132086801524
 31
0.0
 11
181.0280180445186
 21
15.10884407115336
 31
0.0
 11
181.0254328449317
 21
15.05469378470858
 31
0.0
 11
181.0280180445186
 21
15.00310444444367
 31
0.0
 11
181.0357692335572
 21
14.95151510417882
 31
0.0
 11
180.9389813454015
 21
14.96092324653757
 31
0.0
 11
180.8275950722016
 21
14.96865128473012
 31
0.0
 11
180.7089261429373
 21
14.97425273438145
 31
0.0
 11
180.5903167449212
 21
14.97726788195011
 31
0.0
 11
180.4750025117521
 21
14.97898767361639
 31
0.0
 11
180.36672619507
 21
14.98070746528258
 31
0.0
 11
180.2724839317709
 21
14.98202486979617
 31
0.0
 11
180.199819115366
 21
14.98243607639328
 31
0.0
 11
180.199407457705
 21
14.9501910850819
 31
0.0
 11
180.1980896021503
 21
14.91542593752116
 31
0.0
 11
180.1967799146836
 21
14.87450702260085
 31
0.0
 11
180.1963698105272
 21
14.82421524309952
 31
0.0
 11
180.1963698105272
 21
14.80326217235822
 31
0.0
 11
180.1963698105272
 21
14.75716541672736
 31
0.0
 11
180.1963698105272
 21
14.71106866109651
 31
0.0
 11
180.1963698105272
 21
14.69011559035521
 31
0.0
 11
180.1963698105272
 21
14.6686452525828
 31
0.0
 11
180.1963698105272
 21
14.61744675481784
 31
0.0
 11
180.1963698105272
 21
14.55633887038868
 31
0.0
 11
180.1963698105272
 21
14.50514037262371
 31
0.0
 11
180.1963698105272
 21
14.4836700348513
 31
0.0
 11
180.1967799146836
 21
14.30481721371548
 31
0.0
 11
180.1980896021503
 21
14.16026100715442
 31
0.0
 11
180.2002868589709
 21
14.04850210961289
 31
0.0
 11
180.2032586986986
 21
13.96767961831365
 31
0.0
 11
180.3202092517447
 21
13.96767961831365
 31
0.0
 11
180.4440727208747
 21
13.96767961831365
 31
0.0
 11
180.5734925526422
 21
13.96897056449389
 31
0.0
 11
180.7003922282244
 21
13.97284781275683
 31
0.0
 11
180.8224658067973
 21
13.97886708358865
 31
0.0
 11
180.9377587499463
 21
13.98663260442002
 31
0.0
 11
181.0421754573519
 21
13.99734161483402
 31
0.0
 11
181.1320599255448
 21
14.01237656274692
 31
0.0
 11
181.1264254031191
 21
13.98698427976715
 31
0.0
 11
181.1234433285422
 21
13.95907184053802
 31
0.0
 11
181.12213398812
 21
13.93112191867001
 31
0.0
 11
181.1217235369195
 21
13.90575829888472
 31
0.0
 11
181.1243087365064
 21
13.85584355063325
 31
0.0
 11
181.1320599255448
 21
13.81626739612928
 31
0.0
 11
180.9776977178345
 21
13.82145433189186
 31
0.0
 11
180.8242357818766
 21
13.82315538223863
 31
0.0
 11
180.6697789496484
 21
13.82315538223863
 31
0.0
 11
180.5128026496768
 21
13.82315538223863
 31
0.0
 11
180.3554704921536
 21
13.82315538223863
 31
0.0
 11
180.199819115366
 21
13.82315538223863
 31
0.0
 11
180.0441620874241
 21
13.82145433189186
 31
0.0
 11
179.8868249573133
 21
13.81626739612928
 31
0.0
 11
179.896691822374
 21
14.0360126738521
 31
0.0
 11
179.9057788376618
 21
14.25491128490852
 31
0.0
 11
179.9121721518401
 21
14.47550763902003
 31
0.0
 11
179.914306345501
 21
14.70036378479715
 31
0.0
 11
179.914306345501
 21
14.72578824496874
 31
0.0
 11
179.914306345501
 21
14.79281636723931
 31
0.0
 11
179.914306345501
 21
14.88758026424253
 31
0.0
 11
179.914306345501
 21
14.99621204861207
 31
0.0
 11
179.914306345501
 21
15.10484383298162
 31
0.0
 11
179.914306345501
 21
15.19960772998484
 31
0.0
 11
179.914306345501
 21
15.2666358522554
 31
0.0
 11
179.914306345501
 21
15.292060312427
 31
0.0
 11
179.9121721518401
 21
15.51735963528735
 31
0.0
 11
179.9057788376618
 21
15.7392326039819
 31
0.0
  0
SPLINE
  5
A5
102
{ACAD_REACTORS
330
C2
102
}
330
48
100
AcDbEntity
  8
_U_30EC_U_30A4_U_30E4_U_30FC_1
  6
Continuous
 62
     2
100
AcDbSpline
210
0.0
220
0.0
230
1.0
 70
    11
 71
     3
 72
    47
 73
    43
 74
    41
 42
0.000000001
 43
0.0000000001
 44
0.00000001
 40
0.0
 40
0.0
 40
0.0
 40
0.0
 40
0.2207912809957201
 40
0.4459404186303043
 40
0.4902387190458977
 40
0.5327473892721926
 40
0.5742260451224971
 40
0.6155432630559696
 40
0.6568164066314615
 40
0.6982511618779542
 40
0.7407663929315483
 40
0.7851366743175231
 40
1.010288833836327
 40
1.231080507002181
 40
1.451765243652408
 40
1.676638205891692
 40
1.720461045359662
 40
1.830018144043527
 40
1.972442372353158
 40
2.114866600677527
 40
2.224423699395152
 40
2.268246538883393
 40
2.49362880120722
 40
2.715602830286621
 40
2.934211330706372
 40
3.149502369855367
 40
3.231387784851097
 40
3.318231873854161
 40
3.40514319819812
 40
3.486970301720472
 40
3.702258172493909
 40
3.920866283534134
 40
4.142839325931924
 40
4.368221903865384
 40
4.412044743359863
 40
4.521601842095879
 40
4.664026070452359
 40
4.806450298809067
 40
4.91600739754676
 40
4.959830237043083
 40
5.184703515847114
 40
5.405387250767488
 40
5.405387250767488
 40
5.405387250767488
 40
5.405387250767488
 10
182.6507427258646
 20
15.73406440953872
 30
0.0
 10
182.6568139420003
 20
15.7975848250121
 30
0.0
 10
182.6690762107243
 20
15.92587938689626
 30
0.0
 10
182.5604706879413
 20
16.20166220174077
 30
0.0
 10
182.6761985896605
 20
16.17188133432053
 30
0.0
 10
182.7171842509016
 20
16.16765556262821
 30
0.0
 10
182.7591205797519
 20
16.16310446389607
 30
0.0
 10
182.800419662571
 20
16.16201982929484
 30
0.0
 10
182.8417032115555
 20
16.16310338195227
 30
0.0
 10
182.8836148270647
 20
16.16766112711343
 30
0.0
 10
182.9245983549019
 20
16.1718743020973
 30
0.0
 10
183.0404922843489
 20
16.20177611317532
 30
0.0
 10
182.9295652727457
 20
15.92339806609894
 30
0.0
 10
182.9574856365265
 20
15.74283140824951
 30
0.0
 10
182.940426734697
 20
15.50961042346472
 30
0.0
 10
182.9414637282102
 20
15.34906622543145
 30
0.0
 10
182.9414099399405
 20
15.22284817558722
 30
0.0
 10
182.9414277372481
 20
15.12428963336241
 30
0.0
 10
182.941418858108
 20
14.99280702442963
 30
0.0
 10
182.9414263928033
 20
14.86132844968649
 30
0.0
 10
182.9414129405129
 20
14.7627622269409
 30
0.0
 10
182.9414531717491
 20
14.63639735624152
 30
0.0
 10
182.9406746403817
 20
14.4748206882287
 30
0.0
 10
182.9565958319266
 20
14.24361821892914
 30
0.0
 10
182.9333468885407
 20
14.05874351972001
 30
0.0
 10
183.0360183444367
 20
13.78935602770054
 30
0.0
 10
182.8820238362836
 20
13.82660112685818
 30
0.0
 10
182.8004129802832
 20
13.82137994680535
 30
0.0
 10
182.7188192292583
 20
13.82660620378351
 30
0.0
 10
182.5648513666844
 20
13.78937069885389
 30
0.0
 10
182.6674183421918
 20
14.05875129862881
 30
0.0
 10
182.6442045316089
 20
14.24361585325414
 30
0.0
 10
182.6600444655138
 20
14.47482218565638
 30
0.0
 10
182.6593296313427
 20
14.63639712308503
 30
0.0
 10
182.6593664569907
 20
14.76276231210521
 30
0.0
 10
182.659354900027
 20
14.86132756635981
 30
0.0
 10
182.6593575019214
 20
14.9928112741722
 30
0.0
 10
182.6593648531779
 20
15.124275480312
 30
0.0
 10
182.6593442541351
 20
15.22287786275326
 30
0.0
 10
182.6594082192028
 20
15.34896149354427
 30
0.0
 10
182.6581733947589
 20
15.51210091383771
 30
0.0
 10
182.6532040396746
 20
15.6605418377755
 30
0.0
 10
182.6507427258646
 20
15.73406440953872
 30
0.0
 11
182.6507427258646
 21
15.73406440953872
 31
0.0
 11
182.641732820038
 21
15.95467178795577
 31
0.0
 11
182.6318769706147
 21
16.17960510387179
 31
0.0
 11
182.6756985840802
 21
16.17312391463728
 31
0.0
 11
182.7178400934216
 21
16.16754892331925
 31
0.0
 11
182.7591371409791
 21
16.16367167505631
 31
0.0
 11
182.8004341885365
 21
16.16238072887607
 31
0.0
 11
182.841687138873
 21
16.16367167505631
 31
0.0
 11
182.8829400892097
 21
16.16754892331925
 31
0.0
 11
182.9250882131342
 21
16.17312391463728
 31
0.0
 11
182.9689825870146
 21
16.17960510387179
 31
0.0
 11
182.9590577693891
 21
15.95467178795577
 31
0.0
 11
182.9500384208309
 21
15.73406440953872
 31
0.0
 11
182.9435638463435
 21
15.51347467001054
 31
0.0
 11
182.9414218238286
 21
15.28861190965007
 31
0.0
 11
182.9414218238286
 21
15.24478907015486
 31
0.0
 11
182.9414218238286
 21
15.13523197141682
 31
0.0
 11
182.9414218238286
 21
14.99280774305737
 31
0.0
 11
182.9414218238286
 21
14.85038351469792
 31
0.0
 11
182.9414218238286
 21
14.74082641595989
 31
0.0
 11
182.9414218238286
 21
14.69700357646467
 31
0.0
 11
182.9435638463435
 21
14.47163149318767
 31
0.0
 11
182.9500384208309
 21
14.2497519099098
 31
0.0
 11
182.9590577693891
 21
14.0313295488533
 31
0.0
 11
182.9689825870146
 21
13.81626739612928
 31
0.0
 11
182.887261616877
 21
13.82145433189186
 31
0.0
 11
182.8004341885365
 21
13.82315538223863
 31
0.0
 11
182.7135395119339
 21
13.82145433189186
 31
0.0
 11
182.6318769706147
 21
13.81626739612928
 31
0.0
 11
182.641732820038
 21
14.0313295488533
 31
0.0
 11
182.6507427258646
 21
14.2497519099098
 31
0.0
 11
182.6571833838798
 21
14.47163149318766
 31
0.0
 11
182.6593583588023
 21
14.69700357646467
 31
0.0
 11
182.6593583588023
 21
14.74082641595988
 31
0.0
 11
182.6593583588023
 21
14.85038351469792
 31
0.0
 11
182.6593583588023
 21
14.99280774305737
 31
0.0
 11
182.6593583588023
 21
15.13523197141682
 31
0.0
 11
182.6593583588023
 21
15.24478907015486
 31
0.0
 11
182.6593583588023
 21
15.28861190965007
 31
0.0
 11
182.6571833838798
 21
15.51347467001054
 31
0.0
 11
182.6507427258646
 21
15.73406440953872
 31
0.0
  0
SPLINE
  5
A6
102
{ACAD_REACTORS
330
C3
102
}
330
48
100
AcDbEntity
  8
_U_30EC_U_30A4_U_30E4_U_30FC_1
  6
Continuous
 62
     2
100
AcDbSpline
210
0.0
220
0.0
230
1.0
 70
    11
 71
     3
 72
   118
 73
   114
 74
   112
 42
0.000000001
 43
0.0000000001
 44
0.00000001
 40
0.0
 40
0.0
 40
0.0
 40
0.0
 40
0.1054708162973597
 40
0.2466098270052614
 40
0.3965912874591966
 40
0.5285525069754722
 40
0.6156245055642788
 40
0.6431434105797946
 40
0.7036850037986496
 40
0.7642265984504586
 40
0.7917455052354905
 40
0.9287404319990326
 40
1.1065728190881
 40
1.287544879681146
 40
1.317578308030663
 40
1.399928030857302
 40
1.522968204800076
 40
1.675072986590697
 40
1.844616533180774
 40
2.019973001638839
 40
2.189516548880151
 40
2.34162133158549
 40
2.464661506320626
 40
2.54701122964719
 40
2.577044658168154
 40
2.603797890893167
 40
2.662655002908826
 40
2.721512114949581
 40
2.748265347702732
 40
2.774215307344809
 40
2.845959313407139
 40
2.954338556588338
 40
3.090194227585515
 40
3.244367517100478
 40
3.407699615844239
 40
3.571031714539389
 40
3.725205003920065
 40
3.861060674729565
 40
3.969439917716258
 40
4.04118392362893
 40
4.067133883212923
 40
4.3118867460121
 40
4.547897258335488
 40
4.764747083043957
 40
4.952749679951764
 40
5.045772974195853
 40
5.13786201964499
 40
5.330543169793041
 40
5.553448265244033
 40
5.795083855888215
 40
6.04329341217728
 40
6.285761695541238
 40
6.31390290875275
 40
6.38425594179334
 40
6.475714884766928
 40
6.567173827759019
 40
6.637526860839825
 40
6.665668074074189
 40
6.692018920328161
 40
6.749990782071226
 40
6.807962643790594
 40
6.834313490018065
 40
6.856393084245344
 40
6.913335195649967
 40
6.991194817302659
 40
7.076026942283949
 40
7.153886563725468
 40
7.210828674845022
 40
7.232908268931386
 40
7.258199334923907
 40
7.324875781592556
 40
7.419142481925213
 40
7.527204308842153
 40
7.635266135230731
 40
7.729532834168717
 40
7.79620927929304
 40
7.821500344594986
 40
7.844652988851085
 40
7.899863140541835
 40
7.965759128054001
 40
8.020969279771315
 40
8.044121924046781
 40
8.0693566101609
 40
8.109134395441805
 40
8.132238100191516
 40
8.193147867786882
 40
8.279261678877054
 40
8.377977512674269
 40
8.476693347147052
 40
8.562807160412106
 40
8.623716930826893
 40
8.646820636853844
 40
8.671988793774686
 40
8.734909185828597
 40
8.816705695189311
 40
8.89850220481591
 40
8.9614225973784
 40
8.986590754551512
 40
9.012941600733665
 40
9.070913462380748
 40
9.128885324082237
 40
9.155236170325558
 40
9.18040432792963
 40
9.243324721948674
 40
9.325121234212496
 40
9.406917746638179
 40
9.469838141978691
 40
9.495006288271437
 40
9.517811184379578
 40
9.572192090487578
 40
9.63709833328181
 40
9.691479239516008
 40
9.714284125644047
 40
9.714284125644047
 40
9.714284125644047
 40
9.714284125644047
 10
185.2874469028652
 20
15.2688916318772
 30
0.0
 10
185.3090990569037
 20
15.24111869242812
 30
0.0
 10
185.3597257109473
 20
15.17618054561236
 30
0.0
 10
185.4349383202592
 20
15.06891060312901
 30
0.0
 10
185.5248482274346
 20
14.95377438266625
 30
0.0
 10
185.5709169676673
 20
14.85357045748319
 30
0.0
 10
185.6655825294655
 20
14.78434006814944
 30
0.0
 10
185.6204439320413
 20
14.73771639678272
 30
0.0
 10
185.5947047785791
 20
14.6966030886604
 30
0.0
 10
185.5645196708012
 20
14.66065971727937
 30
0.0
 10
185.5193684730563
 20
14.58579782596091
 30
0.0
 10
185.4710504458561
 20
14.80782524253603
 30
0.0
 10
185.3968539713073
 20
14.84510677337711
 30
0.0
 10
185.2836047324605
 20
15.11610202130602
 30
0.0
 10
185.2885133578169
 20
15.00095328446229
 30
0.0
 10
185.2868486556305
 20
14.92836675781628
 30
0.0
 10
185.2876830076713
 20
14.80625588483986
 30
0.0
 10
185.2873609540263
 20
14.6591380081046
 30
0.0
 10
185.2875076912455
 20
14.49307063956557
 30
0.0
 10
185.287295009272
 20
14.32187554608602
 30
0.0
 10
185.2879497252034
 20
14.15552828635498
 30
0.0
 10
185.2859192461137
 20
14.00935173055694
 30
0.0
 10
185.291346039993
 20
13.8847104747461
 30
0.0
 10
185.2804930868707
 20
13.81718656540627
 30
0.0
 10
185.2956739155554
 20
13.75549061417023
 30
0.0
 10
185.2457895108133
 20
13.76727503897001
 30
0.0
 10
185.2017150342522
 20
13.75943822779969
 30
0.0
 10
185.1582371630201
 20
13.76760441372703
 30
0.0
 10
185.1092346786489
 20
13.75538056738468
 30
0.0
 10
185.1218731234825
 20
13.80960667249313
 30
0.0
 10
185.113018296845
 20
13.86936918907557
 30
0.0
 10
185.1175058770315
 20
13.97922029044371
 30
0.0
 10
185.1157960135993
 20
14.11029975405679
 30
0.0
 10
185.1163550915986
 20
14.26198011444328
 30
0.0
 10
185.1161928768695
 20
14.42211074929953
 30
0.0
 10
185.1162269924675
 20
14.58236865674566
 30
0.0
 10
185.1162514960128
 20
14.73370247520439
 30
0.0
 10
185.1161453543226
 20
14.86582156338601
 30
0.0
 10
185.1164299141932
 20
14.97294802533193
 30
0.0
 10
185.1158675547568
 20
15.03808619579474
 30
0.0
 10
185.1180765083691
 20
15.16618957858675
 30
0.0
 10
185.0319435998603
 20
14.79097610391573
 30
0.0
 10
184.95551408185
 20
14.63918193123394
 30
0.0
 10
184.8660040767833
 20
14.47766206446309
 30
0.0
 10
184.7640413217327
 20
14.20471848820168
 30
0.0
 10
184.7187976491039
 20
14.36717346596515
 30
0.0
 10
184.610235594167
 20
14.45605432058115
 30
0.0
 10
184.7995791751753
 20
14.6054979496141
 30
0.0
 10
184.85653405457
 20
14.79749136974926
 30
0.0
 10
184.9717520993353
 20
15.02899622906756
 30
0.0
 10
184.9940151630132
 20
15.21797259759065
 30
0.0
 10
185.1771905152141
 20
15.49454089325931
 30
0.0
 10
185.0538033597552
 20
15.48698978832095
 30
0.0
 10
184.9925684166834
 20
15.48856772366119
 30
0.0
 10
184.9081999617064
 20
15.48882592573674
 30
0.0
 10
184.8204235085966
 20
15.48544845751206
 30
0.0
 10
184.7656768696123
 20
15.49394814982022
 30
0.0
 10
184.7104703026024
 20
15.48048561049788
 30
0.0
 10
184.7222823035536
 20
15.52931442126764
 30
0.0
 10
184.7142496151793
 20
15.57269004896709
 30
0.0
 10
184.7228186104679
 20
15.61509438309573
 30
0.0
 10
184.7102943409157
 20
15.66267796552118
 30
0.0
 10
184.7555101538735
 20
15.65267212995109
 30
0.0
 10
184.8014815562723
 20
15.65894105174061
 30
0.0
 10
184.877722204771
 20
15.65593561405872
 30
0.0
 10
184.9561296131994
 20
15.65770448278541
 30
0.0
 10
185.0323992648933
 20
15.65464793981659
 30
0.0
 10
185.0783009459475
 20
15.66103971376177
 30
0.0
 10
185.1231733965401
 20
15.65093822978896
 30
0.0
 10
185.1105552275634
 20
15.70157201581898
 30
0.0
 10
185.1191936582707
 20
15.7550126188207
 30
0.0
 10
185.1152361595444
 20
15.8486325513168
 30
0.0
 10
185.1162325068335
 20
15.95112606688924
 30
0.0
 10
185.1171927413074
 20
16.05353270248163
 30
0.0
 10
185.1133211458006
 20
16.14735929609321
 30
0.0
 10
185.1217789814365
 20
16.20036542840353
 30
0.0
 10
185.1093075932836
 20
16.25211435651189
 30
0.0
 10
185.1542106389851
 20
16.23850747226757
 30
0.0
 10
185.1955083836773
 20
16.24100480320586
 30
0.0
 10
185.2595344281051
 20
16.23648060574487
 30
0.0
 10
185.2986111148787
 20
16.2278100304331
 30
0.0
 10
185.3476543498742
 20
16.23515102070685
 30
0.0
 10
185.3225080030591
 20
16.19602896051754
 30
0.0
 10
185.2815901333722
 20
16.20563842455813
 30
0.0
 10
185.2910109616603
 20
16.15540148169778
 30
0.0
 10
185.2855647318745
 20
16.1038594563949
 30
0.0
 10
185.2881699601803
 20
16.0195970758452
 30
0.0
 10
185.2870102202153
 20
15.92559135583408
 30
0.0
 10
185.288359106423
 20
15.83196865395525
 30
0.0
 10
185.2849970101508
 20
15.74679517552223
 30
0.0
 10
185.2920959917768
 20
15.69716856072043
 30
0.0
 10
185.2812569154545
 20
15.64993694969988
 30
0.0
 10
185.3304010225244
 20
15.66201674936851
 30
0.0
 10
185.3794877630147
 20
15.65447393363011
 30
0.0
 10
185.4573714280641
 20
15.65686070361433
 30
0.0
 10
185.5350365172895
 20
15.65899381905415
 30
0.0
 10
185.5845393931355
 20
15.65193391922454
 30
0.0
 10
185.6344594750639
 20
15.66360151936214
 30
0.0
 10
185.622319851688
 20
15.61540235371393
 30
0.0
 10
185.6305838229143
 20
15.57249219801236
 30
0.0
 10
185.6223198650783
 20
15.52958201851385
 30
0.0
 10
185.6344594549854
 20
15.48138288754865
 30
0.0
 10
185.5845395158746
 20
15.49305034471511
 30
0.0
 10
185.5350350651203
 20
15.48599202435046
 30
0.0
 10
185.4573784382972
 20
15.48811665228605
 30
0.0
 10
185.3794643865759
 20
15.49053389365761
 30
0.0
 10
185.3304500352715
 20
15.48291848194486
 30
0.0
 10
185.2813246108942
 20
15.49507952557592
 30
0.0
 10
185.2915559988569
 20
15.45073013424159
 30
0.0
 10
185.2856677678053
 20
15.40925436202912
 30
0.0
 10
185.2878788305568
 20
15.34915394315304
 30
0.0
 10
185.2874109346145
 20
15.3022578276289
 30
0.0
 10
185.2874386992912
 20
15.27650146418197
 30
0.0
 10
185.2874469028652
 20
15.2688916318772
 30
0.0
 11
185.2874469028652
 21
15.2688916318772
 31
0.0
 11
185.3516977534484
 21
15.18524999634257
 31
0.0
 11
185.4348258835499
 21
15.07118889748221
 31
0.0
 11
185.5216831568896
 21
14.94891767195723
 31
0.0
 11
185.5971214371872
 21
14.84064565642876
 31
0.0
 11
185.6459925881626
 21
14.7685821875579
 31
0.0
 11
185.6296821285093
 21
14.74641782124399
 31
0.0
 11
185.593799117272
 21
14.69765621535339
 31
0.0
 11
185.5579161060347
 21
14.64889460946279
 31
0.0
 11
185.5416056463814
 21
14.62673024314888
 31
0.0
 11
185.4763067109446
 21
14.74716139023813
 31
0.0
 11
185.3848434243234
 21
14.89966983670207
 31
0.0
 11
185.2874469028652
 21
15.05219788193142
 31
0.0
 11
185.2874469028652
 21
15.02216445328253
 31
0.0
 11
185.2874469028652
 21
14.93981472956783
 31
0.0
 11
185.2874469028652
 21
14.81677455413528
 31
0.0
 11
185.2874469028652
 21
14.66466977033283
 31
0.0
 11
185.2874469028652
 21
14.49512622150845
 31
0.0
 11
185.2874469028652
 21
14.31976975101009
 31
0.0
 11
185.2874469028652
 21
14.15022620218571
 31
0.0
 11
185.2874469028652
 21
13.99812141838326
 31
0.0
 11
185.2874469028652
 21
13.87508124295071
 31
0.0
 11
185.2874469028652
 21
13.79273151923601
 31
0.0
 11
185.2874469028652
 21
13.76269809058712
 31
0.0
 11
185.2606936700408
 21
13.76269809058712
 31
0.0
 11
185.2018365578272
 21
13.76269809058712
 31
0.0
 11
185.1429794456135
 21
13.76269809058712
 31
0.0
 11
185.1162262127891
 21
13.76269809058712
 31
0.0
 11
185.1162262127891
 21
13.7886480503125
 31
0.0
 11
185.1162262127891
 21
13.86039205661208
 31
0.0
 11
185.1162262127891
 21
13.96877130017102
 31
0.0
 11
185.1162262127891
 21
14.10462697167447
 31
0.0
 11
185.1162262127891
 21
14.25880026180761
 31
0.0
 11
185.1162262127891
 21
14.42213236125558
 31
0.0
 11
185.1162262127891
 21
14.58546446070356
 31
0.0
 11
185.1162262127891
 21
14.7396377508367
 31
0.0
 11
185.1162262127891
 21
14.87549342234015
 31
0.0
 11
185.1162262127891
 21
14.98387266589909
 31
0.0
 11
185.1162262127891
 21
15.05561667219867
 31
0.0
 11
185.1162262127891
 21
15.08156663192405
 31
0.0
 11
185.0379865861723
 21
14.84965603302372
 31
0.0
 11
184.9497110789304
 21
14.63077616328678
 31
0.0
 11
184.8544106930045
 21
14.43598991333546
 31
0.0
 11
184.7550964303356
 21
14.27636017379201
 31
0.0
 11
184.7109198342407
 21
14.35822446196598
 31
0.0
 11
184.658805738348
 21
14.43414885430811
 31
0.0
 11
184.7627302590299
 21
14.59640087926757
 31
0.0
 11
184.8629319864735
 21
14.79551465421781
 31
0.0
 11
184.9550446607902
 21
15.01890447916196
 31
0.0
 11
185.0347020220912
 21
15.2539846541032
 31
0.0
 11
185.0975378104881
 21
15.48816947904466
 31
0.0
 11
185.0693965972143
 21
15.48816947904466
 31
0.0
 11
184.9990435640298
 21
15.48816947904466
 31
0.0
 11
184.9075846208899
 21
15.48816947904466
 31
0.0
 11
184.81612567775
 21
15.48816947904466
 31
0.0
 11
184.7457726445654
 21
15.48816947904466
 31
0.0
 11
184.7176314312916
 21
15.48816947904466
 31
0.0
 11
184.7176314312916
 21
15.51452032539223
 31
0.0
 11
184.7176314312916
 21
15.57249218735689
 31
0.0
 11
184.7176314312916
 21
15.63046404932155
 31
0.0
 11
184.7176314312916
 21
15.65681489566912
 31
0.0
 11
184.739711025602
 21
15.65681489566912
 31
0.0
 11
184.7966531372444
 21
15.65681489566912
 31
0.0
 11
184.8745127592862
 21
15.65681489566912
 31
0.0
 11
184.9593448847945
 21
15.65681489566912
 31
0.0
 11
185.0372045068362
 21
15.65681489566912
 31
0.0
 11
185.0941466184787
 21
15.65681489566912
 31
0.0
 11
185.1162262127891
 21
15.65681489566912
 31
0.0
 11
185.1162262127891
 21
15.68210596174353
 31
0.0
 11
185.1162262127891
 21
15.74878240866697
 31
0.0
 11
185.1162262127891
 21
15.84304910948977
 31
0.0
 11
185.1162262127891
 21
15.95111093726224
 31
0.0
 11
185.1162262127891
 21
16.05917276503471
 31
0.0
 11
185.1162262127891
 21
16.15343946585751
 31
0.0
 11
185.1162262127891
 21
16.22011591278095
 31
0.0
 11
185.1162262127891
 21
16.24540697885536
 31
0.0
 11
185.1393181988666
 21
16.243732131078
 31
0.0
 11
185.1943837041285
 21
16.23973826330122
 31
0.0
 11
185.2601070491185
 21
16.23497138885796
 31
0.0
 11
185.3151725543804
 21
16.23097752108117
 31
0.0
 11
185.3382645404579
 21
16.22930267330381
 31
0.0
 11
185.3249012644362
 21
16.20789677921191
 31
0.0
 11
185.2874469028652
 21
16.19450114553469
 31
0.0
 11
185.2874469028652
 21
16.17139743948578
 31
0.0
 11
185.2874469028652
 21
16.11048766899319
 31
0.0
 11
185.2874469028652
 21
16.02437385553816
 31
0.0
 11
185.2874469028652
 21
15.9256580206019
 31
0.0
 11
185.2874469028652
 21
15.82694218566565
 31
0.0
 11
185.2874469028652
 21
15.74082837221061
 31
0.0
 11
185.2874469028652
 21
15.67991860171803
 31
0.0
 11
185.2874469028652
 21
15.65681489566912
 31
0.0
 11
185.3126150604808
 21
15.65681489566912
 31
0.0
 11
185.3755354545198
 21
15.65681489566912
 31
0.0
 11
185.4573319667705
 21
15.65681489566912
 31
0.0
 11
185.5391284790212
 21
15.65681489566912
 31
0.0
 11
185.6020488730602
 21
15.65681489566912
 31
0.0
 11
185.6272170306758
 21
15.65681489566912
 31
0.0
 11
185.6272170306758
 21
15.63046404932155
 31
0.0
 11
185.6272170306758
 21
15.57249218735689
 31
0.0
 11
185.6272170306758
 21
15.51452032539223
 31
0.0
 11
185.6272170306758
 21
15.48816947904466
 31
0.0
 11
185.6020488730602
 21
15.48816947904466
 31
0.0
 11
185.5391284790212
 21
15.48816947904466
 31
0.0
 11
185.4573319667705
 21
15.48816947904466
 31
0.0
 11
185.3755354545198
 21
15.48816947904466
 31
0.0
 11
185.3126150604808
 21
15.48816947904466
 31
0.0
 11
185.2874469028652
 21
15.48816947904466
 31
0.0
 11
185.2874469028652
 21
15.46536458293924
 31
0.0
 11
185.2874469028652
 21
15.41098367684171
 31
0.0
 11
185.2874469028652
 21
15.34607743408014
 31
0.0
 11
185.2874469028652
 21
15.29169652798262
 31
0.0
 11
185.2874469028652
 21
15.2688916318772
 31
0.0
  0
SPLINE
  5
A7
102
{ACAD_REACTORS
330
C4
102
}
330
48
100
AcDbEntity
  8
_U_30EC_U_30A4_U_30E4_U_30FC_1
  6
Continuous
 62
     2
100
AcDbSpline
210
0.0
220
0.0
230
1.0
 70
    11
 71
     3
 72
    91
 73
    87
 74
    85
 42
0.000000001
 43
0.0000000001
 44
0.00000001
 40
0.0
 40
0.0
 40
0.0
 40
0.0
 40
0.0345987051695718
 40
0.1258134969461369
 40
0.2547723404888987
 40
0.4026032099154125
 40
0.5504340793416704
 40
0.679392922883608
 40
0.7706077146571035
 40
0.8052064287780925
 40
1.124852390615284
 40
1.427402236308885
 40
1.706356627453532
 40
1.955541417875209
 40
2.169485938566354
 40
2.34435078666481
 40
2.48056841156194
 40
2.590440557428935
 40
2.649189927151089
 40
2.749320643306314
 40
2.91263273988001
 40
3.1477456560002
 40
3.244827496385136
 40
3.338490056946754
 40
3.583815413207175
 40
3.761423943238528
 40
3.886956104362692
 40
3.985855451886875
 40
4.091766255337704
 40
4.250186473811924
 40
4.422734315084591
 40
4.628285684838701
 40
4.872093227758545
 40
5.152549652145656
 40
5.464967135837633
 40
5.803201477852548
 40
6.160362988814025
 40
6.193449448276109
 40
6.284170385501763
 40
6.419718138764633
 40
6.587285046385912
 40
6.774063446723797
 40
6.96724567811378
 40
7.154024078817823
 40
7.32159098702618
 40
7.457138740890539
 40
7.547859678556303
 40
7.580946138182863
 40
7.608533084714916
 40
7.669224367077891
 40
7.729915649430108
 40
7.757502595950159
 40
7.790278062553613
 40
7.880146277431111
 40
8.014419963180574
 40
8.180411842398103
 40
8.365434637679572
 40
8.556801071622901
 40
8.741823866830986
 40
8.907815745916524
 40
9.042089431507707
 40
9.131957646249832
 40
9.164733112797409
 40
9.415425063140333
 40
9.667986180958795
 40
9.694169807462934
 40
9.756607686047866
 40
9.831130315322673
 40
9.89356819390008
 40
9.919751820398897
 40
9.95096796469071
 40
9.996421631210874
 40
10.22087981037476
 40
10.44341866197564
 40
10.47847970788876
 40
10.57091337438777
 40
10.70159545461251
 40
10.85140174170382
 40
11.00120802880499
 40
11.13189010907404
 40
11.22432377583032
 40
11.25938480938978
 40
11.28697175596167
 40
11.34766303835941
 40
11.40835432042091
 40
11.43594125892126
 40
11.43594125892126
 40
11.43594125892126
 40
11.43594125892126
 10
190.0818114333289
 20
15.55242795125078
 30
0.0
 10
190.0702785844941
 20
15.55242790287916
 30
0.0
 10
190.0283409444998
 20
15.55242773704165
 30
0.0
 10
189.9434129719026
 20
15.5524312580091
 30
0.0
 10
189.8207688553128
 20
15.55240926435879
 30
0.0
 10
189.6791206916993
 20
15.55250801177055
 30
0.0
 10
189.537975369849
 20
15.55214686232421
 30
0.0
 10
189.4141351317905
 20
15.5532188360909
 30
0.0
 10
189.3317217825382
 20
15.55092249091269
 30
0.0
 10
189.1727791229692
 20
15.5604856937342
 30
0.0
 10
189.3503402353377
 20
15.19785394311372
 30
0.0
 10
189.3379739205452
 20
14.95243127723114
 30
0.0
 10
189.4064519473866
 20
14.66862501324836
 30
0.0
 10
189.469302432097
 20
14.43250999939035
 30
0.0
 10
189.5452253431729
 20
14.2332674039613
 30
0.0
 10
189.6303189577017
 20
14.07745347451375
 30
0.0
 10
189.7244607592936
 20
13.97657857781393
 30
0.0
 10
189.8282648207728
 20
13.92465852638965
 30
0.0
 10
189.9125872030774
 20
13.97606484379618
 30
0.0
 10
189.9351322179452
 20
14.09144544037515
 30
0.0
 10
189.9745730975371
 20
14.21885149702383
 30
0.0
 10
189.9202919734941
 20
14.53622328086754
 30
0.0
 10
190.0451218072473
 20
14.38982180140906
 30
0.0
 10
190.2019291513603
 20
14.35795300331172
 30
0.0
 10
190.0947720007057
 20
14.12421357767628
 30
0.0
 10
190.0808711209868
 20
13.95972776583656
 30
0.0
 10
190.0234709467226
 20
13.83130869122482
 30
0.0
 10
189.9335020145009
 20
13.76018802352828
 30
0.0
 10
189.8095274657878
 20
13.74432324142253
 30
0.0
 10
189.6634273196861
 20
13.77993797554172
 30
0.0
 10
189.5243894320284
 20
13.90000570500277
 30
0.0
 10
189.4102003962144
 20
14.07435682550319
 30
0.0
 10
189.3146141301486
 20
14.2994660311124
 30
0.0
 10
189.2318652572626
 20
14.56388246006442
 30
0.0
 10
189.1807179256411
 20
14.88187933098543
 30
0.0
 10
189.077018920734
 20
15.15543728488914
 30
0.0
 10
189.204284120852
 20
15.56005818612869
 30
0.0
 10
189.0357890623019
 20
15.55112367849679
 30
0.0
 10
188.9511995787078
 20
15.55315961418364
 30
0.0
 10
188.8189876387628
 20
15.55213937388407
 30
0.0
 10
188.6560505094103
 20
15.5525323031843
 30
0.0
 10
188.4733759170534
 20
15.5523569631337
 30
0.0
 10
188.2847057373382
 20
15.55260105307468
 30
0.0
 10
188.1014469020189
 20
15.55185657906238
 30
0.0
 10
187.9404746832718
 20
15.55416360522426
 30
0.0
 10
187.8029808335275
 20
15.54799804883663
 30
0.0
 10
187.7289590372311
 20
15.56032838458212
 30
0.0
 10
187.6613215186856
 20
15.54329323723557
 30
0.0
 10
187.6732373719269
 20
15.59524438447528
 30
0.0
 10
187.6655677285694
 20
15.64071424966529
 30
0.0
 10
187.6732592225115
 20
15.68614453703706
 30
0.0
 10
187.6613141797762
 20
15.7380239598457
 30
0.0
 10
187.7283588305867
 20
15.72119143490264
 30
0.0
 10
187.8017375665676
 20
15.73335409092671
 30
0.0
 10
187.9379128305272
 20
15.72727231074958
 30
0.0
 10
188.0973811801512
 20
15.72954834315058
 30
0.0
 10
188.2789173085837
 20
15.72881233998962
 30
0.0
 10
188.465803486218
 20
15.72905954196134
 30
0.0
 10
188.6468012316836
 20
15.72886400799254
 30
0.0
 10
188.8080802578879
 20
15.72932234714839
 30
0.0
 10
188.9393882124887
 20
15.72812673751205
 30
0.0
 10
189.0225051322597
 20
15.73051347319743
 30
0.0
 10
189.1556236547815
 20
15.72230605725464
 30
0.0
 10
189.0645893502656
 20
15.97752868952653
 30
0.0
 10
188.978963307442
 20
16.24164358328246
 30
0.0
 10
189.0990589003455
 20
16.22904442969165
 30
0.0
 10
189.1514264948544
 20
16.22694235763075
 30
0.0
 10
189.2214497569715
 20
16.22535399889657
 30
0.0
 10
189.2671922337817
 20
16.21602567538113
 30
0.0
 10
189.3220812646933
 20
16.22545966915427
 30
0.0
 10
189.2963574785682
 20
16.17733028655168
 30
0.0
 10
189.1825397571452
 20
16.18266829744177
 30
0.0
 10
189.3159346621136
 20
15.95449174576773
 30
0.0
 10
189.1943658735472
 20
15.72156856595923
 30
0.0
 10
189.3223188769412
 20
15.73087258884438
 30
0.0
 10
189.4049048406461
 20
15.7280100175468
 30
0.0
 10
189.5307214850824
 20
15.72923437412302
 30
0.0
 10
189.6741469838057
 20
15.72932431888965
 30
0.0
 10
189.8157420951728
 20
15.72746163183853
 30
0.0
 10
189.9459127249967
 20
15.73333075937163
 30
0.0
 10
190.0193452286191
 20
15.72070340823204
 30
0.0
 10
190.0891112922096
 20
15.73877563110412
 30
0.0
 10
190.0775772605396
 20
15.68612850546326
 30
0.0
 10
190.0833184346682
 20
15.64221317686548
 30
0.0
 10
190.0816615770911
 20
15.5908998267655
 30
0.0
 10
190.081775756167
 20
15.56158792021635
 30
0.0
 10
190.0818114333289
 20
15.55242795125078
 30
0.0
 11
190.0818114333289
 21
15.55242795125078
 31
0.0
 11
190.0472127192051
 21
15.55242795125078
 31
0.0
 11
189.9559979274241
 21
15.55242795125078
 31
0.0
 11
189.8270390838717
 21
15.55242795125078
 31
0.0
 11
189.6792082144335
 21
15.55242795125078
 31
0.0
 11
189.5313773449954
 21
15.55242795125078
 31
0.0
 11
189.402418501443
 21
15.55242795125078
 31
0.0
 11
189.311203709662
 21
15.55242795125078
 31
0.0
 11
189.2766049955382
 21
15.55242795125078
 31
0.0
 11
189.3083140497693
 21
15.23435864930121
 31
0.0
 11
189.3527866656866
 21
14.93509522788081
 31
0.0
 11
189.409238911832
 21
14.66191269512576
 31
0.0
 11
189.4768868567479
 21
14.42208605917227
 31
0.0
 11
189.5549465689762
 21
14.22289032815655
 31
0.0
 11
189.6426341170592
 21
14.07160051021478
 31
0.0
 11
189.7391655695389
 21
13.97549161348317
 31
0.0
 11
189.8437569949575
 21
13.94183864609792
 31
0.0
 11
189.8943077302786
 21
13.97177376978835
 31
0.0
 11
189.9310588991552
 21
14.06491619815047
 31
0.0
 11
189.9562640977528
 21
14.22627151712055
 31
0.0
 11
189.9721769222367
 21
14.46084531263482
 31
0.0
 11
190.0494082682583
 21
14.40202182306618
 31
0.0
 11
190.1327184184385
 21
14.3592188543269
 31
0.0
 11
190.1066365811217
 21
14.1152838866101
 31
0.0
 11
190.0673317805106
 21
13.94207902887562
 31
0.0
 11
190.0105702596765
 21
13.83011272445917
 31
0.0
 11
189.9321182616911
 21
13.76989341669645
 31
0.0
 11
189.8277420296257
 21
13.75192954892317
 31
0.0
 11
189.6738595065098
 21
13.78957440012361
 31
0.0
 11
189.5388902376748
 21
13.89707348877403
 31
0.0
 11
189.4221739916163
 21
14.06627361744808
 31
0.0
 11
189.32305053683
 21
14.28902158871943
 31
0.0
 11
189.2408596418113
 21
14.55716420516172
 31
0.0
 11
189.1749410750559
 21
14.8625482693486
 31
0.0
 11
189.1246346050594
 21
15.19702058385374
 31
0.0
 11
189.0892800003172
 21
15.55242795125078
 31
0.0
 11
189.0561935405844
 21
15.55242795125078
 31
0.0
 11
188.9654726026075
 21
15.55242795125078
 31
0.0
 11
188.8299248482186
 21
15.55242795125078
 31
0.0
 11
188.6623579392495
 21
15.55242795125078
 31
0.0
 11
188.4755795375324
 21
15.55242795125078
 31
0.0
 11
188.2823973048993
 21
15.55242795125078
 31
0.0
 11
188.0956189031822
 21
15.55242795125078
 31
0.0
 11
187.9280519942131
 21
15.55242795125078
 31
0.0
 11
187.7925042398242
 21
15.55242795125078
 31
0.0
 11
187.7017833018473
 21
15.55242795125078
 31
0.0
 11
187.6686968421145
 21
15.55242795125078
 31
0.0
 11
187.6686968421145
 21
15.58001489785847
 31
0.0
 11
187.6686968421145
 21
15.64070618039538
 31
0.0
 11
187.6686968421145
 21
15.70139746293229
 31
0.0
 11
187.6686968421145
 21
15.72898440953998
 31
0.0
 11
187.7014723087631
 21
15.72898440953998
 31
0.0
 11
187.7913405237673
 21
15.72898440953998
 31
0.0
 11
187.9256142097148
 21
15.72898440953998
 31
0.0
 11
188.0916060891932
 21
15.72898440953998
 31
0.0
 11
188.2766288847901
 21
15.72898440953998
 31
0.0
 11
188.4679953190933
 21
15.72898440953998
 31
0.0
 11
188.6530181146902
 21
15.72898440953998
 31
0.0
 11
188.8190099941685
 21
15.72898440953998
 31
0.0
 11
188.9532836801161
 21
15.72898440953998
 31
0.0
 11
189.0431518951203
 21
15.72898440953998
 31
0.0
 11
189.0759273617689
 21
15.72898440953998
 31
0.0
 11
189.0659183950103
 21
15.97947647544958
 31
0.0
 11
189.0599112510664
 21
16.23196614552531
 31
0.0
 11
189.086057587066
 21
16.23056921608122
 31
0.0
 11
189.148406542142
 21
16.22723807663761
 31
0.0
 11
189.22282303691
 21
16.22326220052749
 31
0.0
 11
189.2851719919859
 21
16.21993106108388
 31
0.0
 11
189.3113183279855
 21
16.21853413163979
 31
0.0
 11
189.298293111304
 21
16.19016528616079
 31
0.0
 11
189.2551649266405
 21
16.17581274276164
 31
0.0
 11
189.2574991961821
 21
15.95136670115108
 31
0.0
 11
189.2658452735903
 21
15.72898440953998
 31
0.0
 11
189.3009063195165
 21
15.72898440953998
 31
0.0
 11
189.3933399860495
 21
15.72898440953998
 31
0.0
 11
189.5240220663201
 21
15.72898440953998
 31
0.0
 11
189.6738283534596
 21
15.72898440953998
 31
0.0
 11
189.8236346405991
 21
15.72898440953998
 31
0.0
 11
189.9543167208697
 21
15.72898440953998
 31
0.0
 11
190.0467503874027
 21
15.72898440953998
 31
0.0
 11
190.0818114333289
 21
15.72898440953998
 31
0.0
 11
190.0818114333289
 21
15.70139746293229
 31
0.0
 11
190.0818114333289
 21
15.64070618039538
 31
0.0
 11
190.0818114333289
 21
15.58001489785847
 31
0.0
 11
190.0818114333289
 21
15.55242795125078
 31
0.0
  0
SPLINE
  5
A8
102
{ACAD_REACTORS
330
C5
102
}
330
48
100
AcDbEntity
  8
_U_30EC_U_30A4_U_30E4_U_30FC_1
  6
Continuous
 62
     2
100
AcDbSpline
210
0.0
220
0.0
230
1.0
 70
    11
 71
     3
 72
    75
 73
    71
 74
    69
 42
0.000000001
 43
0.0000000001
 44
0.00000001
 40
0.0
 40
0.0
 40
0.0
 40
0.0
 40
0.0342546099129691
 40
0.1245622414432364
 40
0.2522385480897589
 40
0.3985991922940769
 40
0.5449598364980963
 40
0.6726361431439012
 40
0.7629437746737155
 40
0.7971983935298186
 40
1.101723623449657
 40
1.408591244036606
 40
1.43333247169031
 40
1.487763172450105
 40
1.54219387308193
 40
1.566935100592478
 40
1.923523931821791
 40
2.271755704953647
 40
2.590579755100835
 40
2.858943305581094
 40
2.889120339309101
 40
2.918305855190995
 40
2.941366645531117
 40
2.996357760973021
 40
3.061992318140589
 40
3.116983433626789
 40
3.140044223997469
 40
3.411273122936442
 40
3.732441619741163
 40
3.761068217532861
 40
3.837787499630427
 40
3.948858699126064
 40
4.080541049104442
 40
4.219093782625828
 40
4.35077613272238
 40
4.461847332405714
 40
4.538566614678448
 40
4.567193212544696
 40
4.594907573998954
 40
4.666381453557522
 40
4.764111044011132
 40
4.870592538125935
 40
4.968322128642386
 40
5.0397960082871
 40
5.067510369784531
 40
5.094263603185743
 40
5.153120716668376
 40
5.211977830150818
 40
5.238731063551823
 40
5.27229053513909
 40
5.363380529444894
 40
5.497618415781572
 40
5.660621563453814
 40
5.838007341749515
 40
6.015393119910838
 40
6.178396267038435
 40
6.312634151842387
 40
6.403724143059376
 40
6.437283612672472
 40
6.464036846261088
 40
6.522893960004701
 40
6.581751071483961
 40
6.608504301590907
 40
6.637253941281054
 40
6.711397748902906
 40
6.81277805728349
 40
6.923237199249209
 40
7.024617507623882
 40
7.098761315207506
 40
7.127510946007456
 40
7.127510946007456
 40
7.127510946007456
 40
7.127510946007456
 10
188.4418622390565
 20
14.95849128473265
 30
0.0
 10
188.4418622819707
 20
14.9470731340872
 30
0.0
 10
188.4418624481129
 20
14.9055525784263
 30
0.0
 10
188.4418593081787
 20
14.82146922003772
 30
0.0
 10
188.4418788279802
 20
14.70004497322329
 30
0.0
 10
188.4417912187738
 20
14.55980494047448
 30
0.0
 10
188.4421116235231
 20
14.42006556794576
 30
0.0
 10
188.441160590974
 20
14.29745038894928
 30
0.0
 10
188.4431978595968
 20
14.21587074438042
 30
0.0
 10
188.4349433178746
 20
14.06271267077696
 30
0.0
 10
188.7430797940901
 20
14.22560236054721
 30
0.0
 10
189.0350645173737
 20
14.39482938688001
 30
0.0
 10
189.0408354448707
 20
14.25973235781911
 30
0.0
 10
189.0455471719891
 20
14.21617221160444
 30
0.0
 10
189.0482535411917
 20
14.17211249350545
 30
0.0
 10
189.0672545672961
 20
14.02272590363135
 30
0.0
 10
188.6583942247302
 20
14.08681172241261
 30
0.0
 10
188.3793710348832
 20
13.9729634141102
 30
0.0
 10
188.1018081587166
 20
13.87364095811139
 30
0.0
 10
187.8099837184399
 20
13.91630687596358
 30
0.0
 10
187.7869144678658
 20
13.81321679744541
 30
0.0
 10
187.7537474383334
 20
13.78691091244471
 30
0.0
 10
187.748065396274
 20
13.83455309036306
 30
0.0
 10
187.7284214559044
 20
13.87180336115069
 30
0.0
 10
187.7095089485623
 20
13.93007387847564
 30
0.0
 10
187.6942849867707
 20
13.97385201007806
 30
0.0
 10
187.6477246372935
 20
14.08759421046313
 30
0.0
 10
187.989089731245
 20
14.05576301120046
 30
0.0
 10
188.267964936739
 20
14.02161435106478
 30
0.0
 10
188.2617753034907
 20
14.16913976479652
 30
0.0
 10
188.2630935452775
 20
14.24013150908833
 30
0.0
 10
188.2624831689949
 20
14.34719767958661
 30
0.0
 10
188.2625871570726
 20
14.47398529785998
 30
0.0
 10
188.2629987964057
 20
14.60849243496051
 30
0.0
 10
188.261390784197
 20
14.73395549951185
 30
0.0
 10
188.2659902567926
 20
14.84505246719118
 30
0.0
 10
188.256418650221
 20
14.90761886800689
 30
0.0
 10
188.2704001783692
 20
14.96595388295002
 30
0.0
 10
188.2147384386706
 20
14.95289710582239
 30
0.0
 10
188.1575655197821
 20
14.96136307749499
 30
0.0
 10
188.0616048925648
 20
14.95729976080637
 30
0.0
 10
187.9633767522822
 20
14.95970889852476
 30
0.0
 10
187.867258245756
 20
14.95551600613388
 30
0.0
 10
187.8104648525812
 20
14.96429346441163
 30
0.0
 10
187.7550356873385
 20
14.95094936850123
 30
0.0
 10
187.7670679427918
 20
15.00036910959257
 30
0.0
 10
187.7592003173938
 20
15.04393988030396
 30
0.0
 10
187.766629556383
 20
15.08830469118526
 30
0.0
 10
187.7551930564144
 20
15.13902297763992
 30
0.0
 10
187.8232102370134
 20
15.12162460757743
 30
0.0
 10
187.8968496879747
 20
15.13417450237189
 30
0.0
 10
188.0325064058211
 20
15.12799677011097
 30
0.0
 10
188.1884909024526
 20
15.13029203093084
 30
0.0
 10
188.3615926358144
 20
15.1294096826253
 30
0.0
 10
188.5346942964181
 20
15.13029207142408
 30
0.0
 10
188.6906789811217
 20
15.1279966295555
 30
0.0
 10
188.8263351889797
 20
15.13417486262432
 30
0.0
 10
188.8999756705652
 20
15.12162394218334
 30
0.0
 10
188.9679914174724
 20
15.13902373012142
 30
0.0
 10
188.9565590885922
 20
15.08830130414555
 30
0.0
 10
188.9639539458297
 20
15.04397060811109
 30
0.0
 10
188.956203991227
 20
15.00028307550197
 30
0.0
 10
188.9681203741877
 20
14.95063590098477
 30
0.0
 10
188.9108170223616
 20
14.96461411338426
 30
0.0
 10
188.8520145789773
 20
14.95539755673255
 30
0.0
 10
188.75252936332
 20
14.95952268164931
 30
0.0
 10
188.6494280098349
 20
14.95822760025888
 30
0.0
 10
188.5537846354574
 20
14.95854077077641
 30
0.0
 10
188.4857467971617
 20
14.95848776697147
 30
0.0
 10
188.4514462213444
 20
14.95849051871657
 30
0.0
 10
188.4418622390565
 20
14.95849128473265
 30
0.0
 11
188.4418622390565
 21
14.95849128473265
 31
0.0
 11
188.4418622390565
 21
14.92423666587186
 31
0.0
 11
188.4418622390565
 21
14.83392903432976
 31
0.0
 11
188.4418622390565
 21
14.70625272766679
 31
0.0
 11
188.4418622390565
 21
14.5598920834434
 31
0.0
 11
188.4418622390565
 21
14.41353143922
 31
0.0
 11
188.4418622390565
 21
14.28585513255703
 31
0.0
 11
188.4418622390565
 21
14.19554750101493
 31
0.0
 11
188.4418622390565
 21
14.16129288215414
 31
0.0
 11
188.7391932644568
 21
14.22709475713769
 31
0.0
 11
189.0384623627245
 21
14.29496038212072
 31
0.0
 11
189.0405487124976
 21
14.27030727882828
 31
0.0
 11
189.0451386819987
 21
14.2160704515849
 31
0.0
 11
189.0497286514996
 21
14.16183362434152
 31
0.0
 11
189.0518150012728
 21
14.13718052104908
 31
0.0
 11
188.705639688924
 21
14.05163370140898
 31
0.0
 11
188.3669653138837
 21
13.97060877629901
 31
0.0
 11
188.0563731516688
 21
13.89862764024928
 31
0.0
 11
187.7944444777955
 21
13.8402121877899
 31
0.0
 11
187.7817515029292
 21
13.81283442738012
 31
0.0
 11
187.7569794787514
 21
13.79740260446735
 31
0.0
 11
187.7491867589502
 21
13.81910683390636
 31
0.0
 11
187.7306041194242
 21
13.87086307333786
 31
0.0
 11
187.70842483999
 21
13.93263664943352
 31
0.0
 11
187.689842200464
 21
13.98439288886502
 31
0.0
 11
187.6820494806628
 21
14.00609711830403
 31
0.0
 11
187.9482776335932
 21
14.05794001759666
 31
0.0
 11
188.262633493629
 21
14.1237396877191
 31
0.0
 11
188.262633493629
 21
14.15236628569624
 31
0.0
 11
188.262633493629
 21
14.22908556827499
 31
0.0
 11
188.262633493629
 21
14.34015676842631
 31
0.0
 11
188.262633493629
 21
14.47183911912118
 31
0.0
 11
188.262633493629
 21
14.61039185333057
 31
0.0
 11
188.262633493629
 21
14.74207420402543
 31
0.0
 11
188.262633493629
 21
14.85314540417675
 31
0.0
 11
188.262633493629
 21
14.9298646867555
 31
0.0
 11
188.262633493629
 21
14.95849128473265
 31
0.0
 11
188.2349191321109
 21
14.95849128473265
 31
0.0
 11
188.1634452524064
 21
14.95849128473265
 31
0.0
 11
188.0657156617901
 21
14.95849128473265
 31
0.0
 11
187.9592341675365
 21
14.95849128473265
 31
0.0
 11
187.8615045769201
 21
14.95849128473265
 31
0.0
 11
187.7900306972156
 21
14.95849128473265
 31
0.0
 11
187.7623163356976
 21
14.95849128473265
 31
0.0
 11
187.7623163356976
 21
14.9852445182329
 31
0.0
 11
187.7623163356976
 21
15.04410163193345
 31
0.0
 11
187.7623163356976
 21
15.10295874563399
 31
0.0
 11
187.7623163356976
 21
15.12971197913424
 31
0.0
 11
187.7958758072876
 21
15.12971197913424
 31
0.0
 11
187.8869658016031
 21
15.12971197913424
 31
0.0
 11
188.021203687963
 21
15.12971197913424
 31
0.0
 11
188.1842068356856
 21
15.12971197913424
 31
0.0
 11
188.3615926140897
 21
15.12971197913424
 31
0.0
 11
188.5389783924938
 21
15.12971197913424
 31
0.0
 11
188.7019815402164
 21
15.12971197913424
 31
0.0
 11
188.8362194265763
 21
15.12971197913424
 31
0.0
 11
188.9273094208918
 21
15.12971197913424
 31
0.0
 11
188.9608688924818
 21
15.12971197913424
 31
0.0
 11
188.9608688924818
 21
15.10295874563399
 31
0.0
 11
188.9608688924818
 21
15.04410163193344
 31
0.0
 11
188.9608688924818
 21
14.9852445182329
 31
0.0
 11
188.9608688924818
 21
14.95849128473265
 31
0.0
 11
188.9321192527877
 21
14.95849128473265
 31
0.0
 11
188.8579754451555
 21
14.95849128473265
 31
0.0
 11
188.7565951367605
 21
14.95849128473265
 31
0.0
 11
188.6461359947778
 21
14.95849128473265
 31
0.0
 11
188.5447556863828
 21
14.95849128473265
 31
0.0
 11
188.4706118787506
 21
14.95849128473265
 31
0.0
 11
188.4418622390565
 21
14.95849128473265
 31
0.0
  0
SPLINE
  5
A9
102
{ACAD_REACTORS
330
C6
102
}
330
48
100
AcDbEntity
  8
_U_30EC_U_30A4_U_30E4_U_30FC_1
  6
Continuous
 62
     2
100
AcDbSpline
210
0.0
220
0.0
230
1.0
 70
    11
 71
     3
 72
    15
 73
    11
 74
     9
 42
0.000000001
 43
0.0000000001
 44
0.00000001
 40
0.0
 40
0.0
 40
0.0
 40
0.0
 40
0.2785535985096117
 40
0.5215624748198209
 40
0.6076917376039844
 40
0.6938210001740579
 40
0.9405019146453989
 40
1.221691403489145
 40
1.300471877081127
 40
1.379252341684957
 40
1.379252341684957
 40
1.379252341684957
 40
1.379252341684957
 10
189.5681493631
 20
16.22930267330381
 30
0.0
 10
189.6296017794178
 20
16.17691646592716
 30
0.0
 10
189.7446649974113
 20
16.07882876798221
 30
0.0
 10
190.0397348497243
 20
15.92889785897222
 30
0.0
 10
189.9025147631857
 20
15.84343227515014
 30
0.0
 10
189.8041227843778
 20
15.71085785201555
 30
0.0
 10
189.713003359065
 20
16.01616985781428
 30
0.0
 10
189.3636839480653
 20
16.07967869465377
 30
0.0
 10
189.511925837657
 20
16.17896509880878
 30
0.0
 10
189.5494081874237
 20
16.21252348402382
 30
0.0
 10
189.5681493631
 20
16.22930267330381
 30
0.0
 11
189.5681493631
 21
16.22930267330381
 31
0.0
 11
189.7919222440596
 21
16.06341774278972
 31
0.0
 11
189.9695046306383
 21
15.89753281227564
 31
0.0
 11
189.9066308127979
 21
15.83866743034592
 31
0.0
 11
189.8437569949575
 21
15.7798020484162
 31
0.0
 11
189.6688535117725
 21
15.95375677059491
 31
0.0
 11
189.4478256856139
 21
16.12757920110703
 31
0.0
 11
189.507987524357
 21
16.17844093720542
 31
0.0
 11
189.5681493631
 21
16.22930267330381
 31
0.0
  0
SPLINE
  5
AA
102
{ACAD_REACTORS
330
C7
102
}
330
48
100
AcDbEntity
  8
_U_30EC_U_30A4_U_30E4_U_30FC_1
  6
Continuous
 62
     2
100
AcDbSpline
210
0.0
220
0.0
230
1.0
 70
    11
 71
     3
 72
    35
 73
    31
 74
    29
 42
0.000000001
 43
0.0000000001
 44
0.00000001
 40
0.0
 40
0.0
 40
0.0
 40
0.0
 40
0.0335231036621181
 40
0.0713218571711795
 40
0.4278866681486214
 40
0.8116865841963021
 40
1.198190237999959
 40
1.561379546812586
 40
1.659983174621926
 40
1.759315573807092
 40
2.132719617230953
 40
2.52523336358868
 40
2.910815397779588
 40
3.265244364303179
 40
3.592606723581883
 40
3.964386154603853
 40
4.359942131737697
 40
4.758154118639128
 40
4.84384653869972
 40
4.936650065543062
 40
5.256616602537115
 40
5.581707404415803
 40
5.89971915830794
 40
6.198363494280546
 40
6.466301046615609
 40
6.493895311536931
 40
6.559697020196723
 40
6.638234543442298
 40
6.704036252154079
 40
6.731630508422857
 40
6.731630508422857
 40
6.731630508422857
 40
6.731630508422857
 10
191.973601056867
 20
16.23463843719134
 30
0.0
 10
191.967600609779
 20
16.22480690542323
 30
0.0
 10
191.9548344099157
 20
16.20388988579802
 30
0.0
 10
191.7949362006559
 20
16.17127126532671
 30
0.0
 10
192.2322025842335
 20
15.88206680336707
 30
0.0
 10
192.4345394828262
 20
15.68041138358437
 30
0.0
 10
192.6819564267973
 20
15.43749387603275
 30
0.0
 10
193.1831513624606
 20
15.36047662757784
 30
0.0
 10
193.012556219897
 20
15.21876939174652
 30
0.0
 10
192.9383299463201
 20
15.01710366209113
 30
0.0
 10
192.6131432248189
 20
15.36956287174723
 30
0.0
 10
192.3277741670665
 20
15.53175212559565
 30
0.0
 10
192.0337604077658
 20
15.73687130053045
 30
0.0
 10
191.8084452691134
 20
16.21827488595455
 30
0.0
 10
191.5993085055522
 20
15.7534304660922
 30
0.0
 10
191.3207873674834
 20
15.54350952252911
 30
0.0
 10
191.0371383177209
 20
15.37424456359989
 30
0.0
 10
190.7078639527831
 20
15.00142360907937
 30
0.0
 10
190.6277012318225
 20
15.19708014459004
 30
0.0
 10
190.4759724909744
 20
15.32491104190593
 30
0.0
 10
190.9083395826795
 20
15.40454031765936
 30
0.0
 10
191.0962565329766
 20
15.60026634915477
 30
0.0
 10
191.3468477420503
 20
15.81632996916753
 30
0.0
 10
191.5714350470162
 20
15.98190992300061
 30
0.0
 10
191.6259775409713
 20
16.26133964636826
 30
0.0
 10
191.7494661029012
 20
16.24737950408079
 30
0.0
 10
191.8060273344521
 20
16.24521268867647
 30
0.0
 10
191.8761870984945
 20
16.2404685988136
 30
0.0
 10
191.9333414022107
 20
16.23709429350542
 30
0.0
 10
191.964419032084
 20
16.23519854711119
 30
0.0
 10
191.973601056867
 20
16.23463843719134
 30
0.0
 11
191.973601056867
 21
16.23463843719134
 31
0.0
 11
191.9525319069884
 21
16.20856374969785
 31
0.0
 11
191.9174464559426
 21
16.19450114553469
 31
0.0
 11
192.1512374769095
 21
15.92527961131382
 31
0.0
 11
192.4414585957566
 21
15.6741340796926
 31
0.0
 11
192.7612797483684
 21
15.45710987618784
 31
0.0
 11
193.0838708706289
 21
15.29025232631638
 31
0.0
 11
193.0213299868077
 21
15.21402035584928
 31
0.0
 11
192.9688035818975
 21
15.12971197913424
 31
0.0
 11
192.6436279095814
 21
15.3132640483158
 31
0.0
 11
192.3237227768436
 21
15.54070139743428
 31
0.0
 11
192.0354200158608
 21
15.79673855123309
 31
0.0
 11
191.8050514588095
 21
16.06609003445566
 31
0.0
 11
191.5995531719516
 21
15.81126348721036
 31
0.0
 11
191.3288301341536
 21
15.55645182277756
 31
0.0
 11
191.0119538423246
 21
15.31969466354856
 31
0.0
 11
190.6679957933742
 21
15.11903163191467
 31
0.0
 11
190.6218855341339
 21
15.19126067703553
 31
0.0
 11
190.5636970460349
 21
15.26355586798967
 31
0.0
 11
190.8433040489015
 21
15.41911456961745
 31
0.0
 11
191.1093004621154
 21
15.60601009790405
 31
0.0
 11
191.3499997459747
 21
15.81384496285209
 31
0.0
 11
191.5537153607775
 21
16.03222167446416
 31
0.0
 11
191.7087607668219
 21
16.25074274274287
 31
0.0
 11
191.7363041569866
 21
16.24906789496551
 31
0.0
 11
191.8019845489178
 21
16.24507402718873
 31
0.0
 11
191.8803772747711
 21
16.24030715274548
 31
0.0
 11
191.9460576667023
 21
16.2363132849687
 31
0.0
 11
191.973601056867
 21
16.23463843719134
 31
0.0
  0
SPLINE
  5
AB
102
{ACAD_REACTORS
330
C8
102
}
330
48
100
AcDbEntity
  8
_U_30EC_U_30A4_U_30E4_U_30FC_1
  6
Continuous
 62
     2
100
AcDbSpline
210
0.0
220
0.0
230
1.0
 70
    11
 71
     3
 72
    91
 73
    87
 74
    85
 42
0.000000001
 43
0.0000000001
 44
0.00000001
 40
0.0
 40
0.0
 40
0.0
 40
0.0
 40
0.0267532254356701
 40
0.0856103386464102
 40
0.1444674521996621
 40
0.1712206856618514
 40
0.2039416005642536
 40
0.2955601971652484
 40
0.4362601844616918
 40
0.616225284450725
 40
0.8256392189704698
 40
1.054685709844411
 40
1.293548478893474
 40
1.532411247938218
 40
1.761457738799483
 40
1.970871673298451
 40
2.150836773256647
 40
2.29153676049548
 40
2.383155356836586
 40
2.415876284101206
 40
2.442629517487851
 40
2.501486630948981
 40
2.560343744424128
 40
2.587096977826401
 40
2.6170681944408
 40
2.699247336755941
 40
2.822032643466254
 40
2.973822353257755
 40
3.143014704823197
 40
3.318007936879748
 40
3.487200288186581
 40
3.638989997548062
 40
3.761775303794532
 40
3.843954445752867
 40
3.873925662229563
 40
3.89081277350027
 40
3.907699884771422
 40
3.937960767857049
 40
3.980983618142053
 40
4.199085915228211
 40
4.439444339236989
 40
4.677588241260633
 40
5.050698317837519
 40
5.448212454762876
 40
5.85529121804443
 40
6.138575438885125
 40
6.417434507583933
 40
6.444551104393592
 40
6.504207617362868
 40
6.563864130314193
 40
6.590980727103762
 40
6.848609460381145
 40
7.109611990668063
 40
7.352910904445765
 40
7.557830220705186
 40
7.587518925913103
 40
7.652834077375545
 40
7.718149228845528
 40
7.74783793406183
 40
7.854880190300785
 40
7.976511257403323
 40
8.369487896592096
 40
8.757514959223418
 40
9.12607241933088
 40
9.460639380391942
 40
9.74669559303557
 40
9.77756994311839
 40
9.807050320931516
 40
9.830377336128649
 40
9.886003295435724
 40
9.95239556942964
 40
10.00802152870599
 40
10.03134854388192
 40
10.21356951009562
 40
10.42203479292836
 40
10.66154556731033
 40
10.91693789564276
 40
11.15832906556538
 40
11.18982674596593
 40
11.2728660852038
 40
11.39026653033325
 40
11.52484752840858
 40
11.65942852648415
 40
11.77682897161456
 40
11.85986831085652
 40
11.89136598230398
 40
11.89136598230398
 40
11.89136598230398
 40
11.89136598230398
 10
190.7027885008197
 20
14.70699600701772
 30
0.0
 10
190.7028237765289
 20
14.71587847311985
 30
0.0
 10
190.7029366710797
 20
14.74430237047346
 30
0.0
 10
190.7012984568489
 20
14.79409639169803
 30
0.0
 10
190.7069750292912
 20
14.83657564478154
 30
0.0
 10
190.6956928731707
 20
14.88730154856847
 30
0.0
 10
190.7632296979033
 20
14.87012900740109
 30
0.0
 10
190.8388029210701
 20
14.88290227165996
 30
0.0
 10
190.9828357056001
 20
14.87629729457382
 30
0.0
 10
191.1569419185428
 20
14.87888462206466
 30
0.0
 10
191.3639599611004
 20
14.87800591955553
 30
0.0
 10
191.5894688172378
 20
14.87828207920026
 30
0.0
 10
191.8251162293406
 20
14.87818339658663
 30
0.0
 10
192.0607640531349
 20
14.87828184412767
 30
0.0
 10
192.2862717580626
 20
14.87800678190789
 30
0.0
 10
192.4932934632805
 20
14.87888186270735
 30
0.0
 10
192.6673888915288
 20
14.87630522678446
 30
0.0
 10
192.8114492071986
 20
14.88288290449214
 30
0.0
 10
192.8869691915292
 20
14.87016243405604
 30
0.0
 10
192.954577603703
 20
14.88726400191686
 30
0.0
 10
192.9430840140676
 20
14.83674785802941
 30
0.0
 10
192.9505104581733
 20
14.79253252226501
 30
0.0
 10
192.9428838927986
 20
14.7486796650361
 30
0.0
 10
192.9546489459425
 20
14.69878374479328
 30
0.0
 10
192.8930788491983
 20
14.71393227712512
 30
0.0
 10
192.8256791738672
 20
14.70310665350673
 30
0.0
 10
192.7013004056221
 20
14.70852031626236
 30
0.0
 10
192.5554428236571
 20
14.70649205390785
 30
0.0
 10
192.3893576440086
 20
14.70715777578387
 30
0.0
 10
192.2188412621725
 20
14.70689643521242
 30
0.0
 10
192.051979085539
 20
14.70721553391094
 30
0.0
 10
191.9087346827106
 20
14.70635302590762
 30
0.0
 10
191.7773313869835
 20
14.70863300482987
 30
0.0
 10
191.7239859134658
 20
14.70407704374202
 30
0.0
 10
191.6485188456913
 20
14.70999914992877
 30
0.0
 10
191.6769075779233
 20
14.70094169343353
 30
0.0
 10
191.7033652409543
 20
14.69725912268928
 30
0.0
 10
191.6633522907702
 20
14.66654271968276
 30
0.0
 10
191.571366369187
 20
14.67667591174631
 30
0.0
 10
191.5439396207069
 20
14.43032502247787
 30
0.0
 10
191.4478793967235
 20
14.27499558764374
 30
0.0
 10
191.1917277964474
 20
13.94525417931569
 30
0.0
 10
191.7627537732764
 20
14.08430022210452
 30
0.0
 10
192.0173656320517
 20
14.08291779973363
 30
0.0
 10
192.6279647048618
 20
13.99790569242085
 30
0.0
 10
192.3340698578084
 20
14.29685417558204
 30
0.0
 10
192.0133304286518
 20
14.44330856901774
 30
0.0
 10
192.1313543360434
 20
14.50025540818287
 30
0.0
 10
192.1724716466261
 20
14.52420099873349
 30
0.0
 10
192.2156812394412
 20
14.54599758811229
 30
0.0
 10
192.3174574094449
 20
14.60928721253907
 30
0.0
 10
192.4328867625247
 20
14.35147151408781
 30
0.0
 10
192.6329591642276
 20
14.2161604111368
 30
0.0
 10
192.7269077387228
 20
14.03792795138881
 30
0.0
 10
192.9558829746393
 20
13.87997821027049
 30
0.0
 10
192.8596031846709
 20
13.829159725763
 30
0.0
 10
192.8167959763779
 20
13.79881292523053
 30
0.0
 10
192.771824352878
 20
13.77466130281461
 30
0.0
 10
192.7121720925213
 20
13.72552146747569
 30
0.0
 10
192.6789731061325
 20
13.8599747567361
 30
0.0
 10
192.5582013350795
 20
14.0159426528658
 30
0.0
 10
192.1970976005979
 20
13.88569928059556
 30
0.0
 10
191.838506195554
 20
13.90224694409483
 30
0.0
 10
191.4570920450081
 20
13.89331229351863
 30
0.0
 10
191.170345528289
 20
13.82882671672415
 30
0.0
 10
190.8592055599718
 20
13.94230668192809
 30
0.0
 10
190.8268737818788
 20
13.83122259927768
 30
0.0
 10
190.7896178253318
 20
13.81196313850012
 30
0.0
 10
190.7865737632753
 20
13.85874784087296
 30
0.0
 10
190.7679892860607
 20
13.89806853919135
 30
0.0
 10
190.7512436616778
 20
13.95765983478232
 30
0.0
 10
190.7383730915754
 20
14.00201969871284
 30
0.0
 10
190.7042327806427
 20
14.091063311202
 30
0.0
 10
190.9482714457754
 20
14.02181042943771
 30
0.0
 10
191.144139448667
 20
14.00030369057748
 30
0.0
 10
191.2395426381277
 20
14.28226484478463
 30
0.0
 10
191.2945135769597
 20
14.44363045421122
 30
0.0
 10
191.5159619357156
 20
14.71391177589737
 30
0.0
 10
191.3849239381217
 20
14.70548446853735
 30
0.0
 10
191.3110026555855
 20
14.70779008496969
 30
0.0
 10
191.1977459876244
 20
14.70671378321658
 30
0.0
 10
191.0694251807485
 20
14.7070763907651
 30
0.0
 10
190.9404252030416
 20
14.70697724466085
 30
0.0
 10
190.8287840946292
 20
14.70699932712572
 30
0.0
 10
190.7514663970028
 20
14.7069957918967
 30
0.0
 10
190.7132876532011
 20
14.70699595845081
 30
0.0
 10
190.7027885008197
 20
14.70699600701772
 30
0.0
 11
190.7027885008197
 21
14.70699600701772
 31
0.0
 11
190.7027885008197
 21
14.73374924051797
 31
0.0
 11
190.7027885008197
 21
14.79260635421853
 31
0.0
 11
190.7027885008197
 21
14.85146346791909
 31
0.0
 11
190.7027885008197
 21
14.87821670141935
 31
0.0
 11
190.735509428099
 21
14.87821670141935
 31
0.0
 11
190.827128024481
 21
14.87821670141935
 31
0.0
 11
190.967828011782
 21
14.87821670141935
 31
0.0
 11
191.1477931118181
 21
14.87821670141935
 31
0.0
 11
191.3572070464055
 21
14.87821670141935
 31
0.0
 11
191.5862535373605
 21
14.87821670141935
 31
0.0
 11
191.8251163064993
 21
14.87821670141935
 31
0.0
 11
192.0639790756381
 21
14.87821670141935
 31
0.0
 11
192.2930255665931
 21
14.87821670141935
 31
0.0
 11
192.5024395011806
 21
14.87821670141935
 31
0.0
 11
192.6824046012167
 21
14.87821670141935
 31
0.0
 11
192.8231045885176
 21
14.87821670141935
 31
0.0
 11
192.9147231848996
 21
14.87821670141935
 31
0.0
 11
192.9474441121789
 21
14.87821670141935
 31
0.0
 11
192.9474441121789
 21
14.85146346791909
 31
0.0
 11
192.9474441121789
 21
14.79260635421853
 31
0.0
 11
192.9474441121789
 21
14.73374924051797
 31
0.0
 11
192.9474441121789
 21
14.70699600701772
 31
0.0
 11
192.9174728954758
 21
14.70699600701772
 31
0.0
 11
192.8352937529027
 21
14.70699600701772
 31
0.0
 11
192.712508445764
 21
14.70699600701772
 31
0.0
 11
192.5607187353642
 21
14.70699600701772
 31
0.0
 11
192.3915263830078
 21
14.70699600701772
 31
0.0
 11
192.2165331499992
 21
14.70699600701772
 31
0.0
 11
192.0473407976427
 21
14.70699600701772
 31
0.0
 11
191.8955510872429
 21
14.70699600701772
 31
0.0
 11
191.7727657801043
 21
14.70699600701772
 31
0.0
 11
191.6905866375311
 21
14.70699600701772
 31
0.0
 11
191.660615420828
 21
14.70699600701772
 31
0.0
 11
191.6766359412526
 21
14.70165583340794
 31
0.0
 11
191.6926564616772
 21
14.69631565979815
 31
0.0
 11
191.6706155681421
 21
14.67558114591443
 31
0.0
 11
191.6284861855364
 21
14.6668587153611
 31
0.0
 11
191.5365235541378
 21
14.46909247312657
 31
0.0
 11
191.4279078521764
 21
14.25467511978509
 31
0.0
 11
191.3127500824808
 21
14.0462255905162
 31
0.0
 11
191.6857366675021
 21
14.05582441253029
 31
0.0
 11
192.0830700036151
 21
14.06781232404995
 31
0.0
 11
192.4899342191146
 21
14.08102711828532
 31
0.0
 11
192.2983119496979
 21
14.28966761302481
 31
0.0
 11
192.0966752013699
 21
14.48229420151831
 31
0.0
 11
192.120494779475
 21
14.49525327269564
 31
0.0
 11
192.1728978513062
 21
14.52376322928576
 31
0.0
 11
192.2253009231374
 21
14.55227318587587
 31
0.0
 11
192.2491205012425
 21
14.5652322570532
 31
0.0
 11
192.4387101558627
 21
14.39079508370268
 31
0.0
 11
192.6200310940435
 21
14.20305846374091
 31
0.0
 11
192.7777729231147
 21
14.01782380992436
 31
0.0
 11
192.8966252504059
 21
13.85089253500949
 31
0.0
 11
192.8715408217924
 21
13.83501202286069
 31
0.0
 11
192.8163550788426
 21
13.80007489613332
 31
0.0
 11
192.7611693358928
 21
13.76513776940596
 31
0.0
 11
192.7360849072793
 21
13.74925725725716
 31
0.0
 11
192.6775518151612
 21
13.8388782468181
 31
0.0
 11
192.6050015078457
 21
13.93650288221032
 31
0.0
 11
192.2125412924095
 21
13.91636286943759
 31
0.0
 11
191.824947406956
 21
13.89803302999773
 31
0.0
 11
191.4567378976213
 21
13.88202178722395
 31
0.0
 11
191.1224308105412
 21
13.86883756444947
 31
0.0
 11
190.8365441918519
 21
13.8589887850075
 31
0.0
 11
190.821186232174
 21
13.83220523466695
 31
0.0
 11
190.7937434290546
 21
13.82143559057245
 31
0.0
 11
190.7867927192319
 21
13.84370299445577
 31
0.0
 11
190.7702179496548
 21
13.89680218833139
 31
0.0
 11
190.7504351601596
 21
13.96017864553777
 31
0.0
 11
190.7338603905825
 21
14.01327783941338
 31
0.0
 11
190.7269096807598
 21
14.0355452432967
 31
0.0
 11
190.9091199859153
 21
14.03751638912953
 31
0.0
 11
191.1174975848587
 21
14.04356211829472
 31
0.0
 11
191.2303203127216
 21
14.25483550301554
 31
0.0
 11
191.3407936722035
 21
14.48509813155879
 31
0.0
 11
191.4358254265628
 21
14.70699600701772
 31
0.0
 11
191.4043277461598
 21
14.70699600701772
 31
0.0
 11
191.3212884069154
 21
14.70699600701772
 31
0.0
 11
191.2038879617769
 21
14.70699600701772
 31
0.0
 11
191.0693069636912
 21
14.70699600701772
 31
0.0
 11
190.9347259656056
 21
14.70699600701772
 31
0.0
 11
190.8173255204671
 21
14.70699600701772
 31
0.0
 11
190.7342861812227
 21
14.70699600701772
 31
0.0
 11
190.7027885008197
 21
14.70699600701772
 31
0.0
  0
SPLINE
  5
AC
102
{ACAD_REACTORS
330
C9
102
}
330
48
100
AcDbEntity
  8
_U_30EC_U_30A4_U_30E4_U_30FC_1
  6
Continuous
 62
     2
100
AcDbSpline
210
0.0
220
0.0
230
1.0
 70
    11
 71
     3
 72
   131
 73
   127
 74
   125
 42
0.000000001
 43
0.0000000001
 44
0.00000001
 40
0.0
 40
0.0
 40
0.0
 40
0.0
 40
0.0195577029826023
 40
0.0426490537460664
 40
0.2863607575855708
 40
0.534494843618882
 40
0.7842238845572886
 40
0.8737315789467306
 40
0.9803832810313287
 40
1.092842274517077
 40
1.199761146656835
 40
1.289788768186563
 40
1.351573580786253
 40
1.370727117561498
 40
1.416400936017924
 40
1.470914848356069
 40
1.516588666791891
 40
1.535742203552972
 40
1.634216592293282
 40
1.760283341175118
 40
1.897966686682223
 40
2.031216387369046
 40
2.04968975113804
 40
2.101115601646976
 40
2.179502577740093
 40
2.278859318314208
 40
2.393194462258865
 40
2.516516648383979
 40
2.642834515406108
 40
2.76615670198361
 40
2.880491846754724
 40
2.979848588358767
 40
3.058235565443944
 40
3.109661416669098
 40
3.128134780704274
 40
3.146783742386591
 40
3.191254343315451
 40
3.24433215731611
 40
3.288802758226014
 40
3.307451719895257
 40
3.32771785384487
 40
3.383747753580229
 40
3.468388665924619
 40
3.574487837698928
 40
3.694892515729032
 40
3.822449946852171
 40
3.95000737792056
 40
4.070412055800652
 40
4.176511227368207
 40
4.261152139501654
 40
4.317182039076847
 40
4.337448172964766
 40
4.620011002696375
 40
4.885096638397555
 40
4.945373043518384
 40
5.014107710488701
 40
5.070481727652083
 40
5.319246955636561
 40
5.584812164506053
 40
5.859000912056924
 40
6.133746937542055
 40
6.401732212968843
 40
6.420736683995434
 40
6.472845717451085
 40
6.550702743894012
 40
6.646951193874221
 40
6.754234497930545
 40
6.865196086587323
 40
6.972479390357782
 40
7.068727839771944
 40
7.146584865450953
 40
7.198693898189182
 40
7.217698368905323
 40
7.234950401630799
 40
7.276089864269842
 40
7.325191803515949
 40
7.366331266090333
 40
7.383583298769683
 40
7.40277916349206
 40
7.453386443254491
 40
7.524934666445493
 40
7.606953361405832
 40
7.688972056428984
 40
7.760520279784235
 40
7.811127559734476
 40
7.830323424546098
 40
7.847844055299728
 40
7.894799345666769
 40
7.962779392744457
 40
8.043374293560504
 40
8.12817414514941
 40
8.208769044817215
 40
8.276749090376915
 40
8.323704379669474
 40
8.341225010056208
 40
8.358497614800356
 40
8.401679126686561
 40
8.45781509218562
 40
8.513951057728024
 40
8.55713256970798
 40
8.574405174505022
 40
8.602340668616353
 40
8.64345566053995
 40
8.663225271966617
 40
8.715345156564265
 40
8.7890318896286
 40
8.873502045520329
 40
8.957972194323952
 40
9.031658925567843
 40
9.083778811234534
 40
9.103548423002996
 40
9.119550083123533
 40
9.160817522379835
 40
9.2172444291102
 40
9.278724491644686
 40
9.335151398295471
 40
9.376418837357766
 40
9.392420497300554
 40
9.401196302734773
 40
9.417494229384248
 40
9.42627002774952
 40
9.440875075477553
 40
9.475702496998732
 40
9.517270709865894
 40
9.552098131994061
 40
9.566703169884269
 40
9.566703169884269
 40
9.566703169884269
 40
9.566703169884269
 10
194.6170254148479
 20
15.67015871511028
 30
0.0
 10
194.613434509337
 20
15.6645369070216
 30
0.0
 10
194.6056039123626
 20
15.65227754419114
 30
0.0
 10
194.5129968974545
 20
15.61601916040948
 30
0.0
 10
194.4887622233248
 20
15.4014844421272
 30
0.0
 10
194.3858709845939
 20
15.22197284509708
 30
0.0
 10
194.1220492364304
 20
15.03615573798144
 30
0.0
 10
194.284547156918
 20
14.95959336566081
 30
0.0
 10
194.3607225760839
 20
14.89856693195443
 30
0.0
 10
194.4492171072759
 20
14.83515804544759
 30
0.0
 10
194.5389930233111
 20
14.77525634219559
 30
0.0
 10
194.5883817636047
 20
14.72102154849208
 30
0.0
 10
194.6745708157383
 20
14.69286240541832
 30
0.0
 10
194.641126067423
 20
14.65713309652812
 30
0.0
 10
194.6214671166311
 20
14.62550387991907
 30
0.0
 10
194.5919888217883
 20
14.58475872796067
 30
0.0
 10
194.5688989446031
 20
14.55504663489645
 30
0.0
 10
194.5380205968356
 20
14.50211422668495
 30
0.0
 10
194.4729193365741
 20
14.62740334938905
 30
0.0
 10
194.3796000122415
 20
14.68213900233935
 30
0.0
 10
194.2950636285139
 20
14.73916423939341
 30
0.0
 10
194.1722498125742
 20
14.89675287427523
 30
0.0
 10
194.1764450847301
 20
14.82035806766836
 30
0.0
 10
194.1751478652677
 20
14.77361280161296
 30
0.0
 10
194.1758126448076
 20
14.695847858126
 30
0.0
 10
194.1755549986957
 20
14.59902068324423
 30
0.0
 10
194.1756431239921
 20
14.48650279078809
 30
0.0
 10
194.1756077302282
 20
14.365240859457
 30
0.0
 10
194.1756511758278
 20
14.24086897858961
 30
0.0
 10
194.1755199942406
 20
14.11967683631337
 30
0.0
 10
194.1759477562046
 20
14.00691148919743
 30
0.0
 10
194.174667820231
 20
13.91082913768744
 30
0.0
 10
194.1779759851044
 20
13.831138264687
 30
0.0
 10
194.1715197740086
 20
13.78815175788784
 30
0.0
 10
194.1806208705556
 20
13.74955432372043
 30
0.0
 10
194.1447910339935
 20
13.7581088772407
 30
0.0
 10
194.1115223815252
 20
13.75342519985446
 30
0.0
 10
194.060456257604
 20
13.75351298759784
 30
0.0
 10
194.0269723972813
 20
13.75794430283821
 30
0.0
 10
193.9907585408754
 20
13.74960793842509
 30
0.0
 10
194.0009782568665
 20
13.79145277179284
 30
0.0
 10
193.9936487887773
 20
13.83778560820173
 30
0.0
 10
193.9973633136103
 20
13.92374831106015
 30
0.0
 10
193.9959480554896
 20
14.02605142704849
 30
0.0
 10
193.9964105554638
 20
14.14453223931512
 30
0.0
 10
193.996277368623
 20
14.26957683153356
 30
0.0
 10
193.9963015910045
 20
14.3947582810705
 30
0.0
 10
193.9963354925551
 20
14.51286645379058
 30
0.0
 10
193.9962060293132
 20
14.61628748709516
 30
0.0
 10
193.9965507549081
 20
14.69932036153667
 30
0.0
 10
193.995869827869
 20
14.75143368521243
 30
0.0
 10
193.9994586600624
 20
14.87912907821361
 30
0.0
 10
193.7826171386436
 20
14.58048716819626
 30
0.0
 10
193.6021354921952
 20
14.35263981511519
 30
0.0
 10
193.5490322295612
 20
14.49373443289813
 30
0.0
 10
193.5200429133149
 20
14.54325767560943
 30
0.0
 10
193.4196648062822
 20
14.64641779790108
 30
0.0
 10
193.7405127723261
 20
14.72695035023781
 30
0.0
 10
193.868989700543
 20
14.91066283036435
 30
0.0
 10
194.090645432536
 20
15.1193199577176
 30
0.0
 10
194.1770224894069
 20
15.29339211228347
 30
0.0
 10
194.4549394229074
 20
15.56967051342513
 30
0.0
 10
194.3346247839284
 20
15.56534559551115
 30
0.0
 10
194.2863197351348
 20
15.56614856202554
 30
0.0
 10
194.2102377454905
 20
15.56574582146585
 30
0.0
 10
194.116701000975
 20
15.56590275611611
 30
0.0
 10
194.0117594788557
 20
15.56582502576224
 30
0.0
 10
193.9033887738717
 20
15.56595464378556
 30
0.0
 10
193.7981454235897
 20
15.56554393490692
 30
0.0
 10
193.7056237819412
 20
15.56682073671592
 30
0.0
 10
193.6268130800707
 20
15.5634076653485
 30
0.0
 10
193.5839674565379
 20
15.57023350036321
 30
0.0
 10
193.5449499586516
 20
15.56065064201124
 30
0.0
 10
193.5526365271863
 20
15.59420779565543
 30
0.0
 10
193.5485464404312
 20
15.62523550322234
 30
0.0
 10
193.5485531368814
 20
15.672365292709
 30
0.0
 10
193.5526239724911
 20
15.70340941646779
 30
0.0
 10
193.5449495574582
 20
15.73701861635901
 30
0.0
 10
193.5834819405495
 20
15.72748410420872
 30
0.0
 10
193.624122801448
 20
15.73397435498071
 30
0.0
 10
193.6951471850463
 20
15.73100150650254
 30
0.0
 10
193.7729318149633
 20
15.73174761399158
 30
0.0
 10
193.8507292246474
 20
15.73247814044525
 30
0.0
 10
193.9217232089907
 20
15.7295423551416
 30
0.0
 10
193.962427979182
 20
15.73595468772952
 30
0.0
 10
194.000985348991
 20
15.72650524176004
 30
0.0
 10
193.9927342754927
 20
15.76264692158784
 30
0.0
 10
193.9982346669359
 20
15.80129837613227
 30
0.0
 10
193.9955754206163
 20
15.86913528561839
 30
0.0
 10
193.9965815471533
 20
15.9459164153874
 30
0.0
 10
193.9960178018319
 20
16.02849393582757
 30
0.0
 10
193.9970714526592
 20
16.10517329229878
 30
0.0
 10
193.994267586313
 20
16.173319907767
 30
0.0
 10
194.0000702721304
 20
16.21132399809346
 30
0.0
 10
193.9915654551158
 20
16.24758448077646
 30
0.0
 10
194.0255610233125
 20
16.23755723771853
 30
0.0
 10
194.05945756831
 20
16.24073266813706
 30
0.0
 10
194.1126669060346
 20
16.2350896564061
 30
0.0
 10
194.1660768574482
 20
16.23434774436425
 30
0.0
 10
194.1995914649491
 20
16.2281922348298
 30
0.0
 10
194.2388086183039
 20
16.23346029773593
 30
0.0
 10
194.2120263698492
 20
16.19253380793486
 30
0.0
 10
194.1708111001724
 20
16.20371204538113
 30
0.0
 10
194.1782641540873
 20
16.15867056192124
 30
0.0
 10
194.1742227952185
 20
16.11412278028144
 30
0.0
 10
194.176171404964
 20
16.04223572621703
 30
0.0
 10
194.1752364849758
 20
15.96168630588771
 30
0.0
 10
194.176510719003
 20
15.88173995404994
 30
0.0
 10
194.1732043793863
 20
15.80841837083183
 30
0.0
 10
194.1802106179961
 20
15.76688643002568
 30
0.0
 10
194.1701440380126
 20
15.72752418568113
 30
0.0
 10
194.2029814803921
 20
15.73468063430981
 30
0.0
 10
194.236457729648
 20
15.73027243137945
 30
0.0
 10
194.2915053476019
 20
15.73217943347897
 30
0.0
 10
194.3489502595314
 20
15.73185366407288
 30
0.0
 10
194.4023026248309
 20
15.73106308733081
 30
0.0
 10
194.4398540896638
 20
15.73313959118074
 30
0.0
 10
194.4623172523237
 20
15.73022338167109
 30
0.0
 10
194.4751678073731
 20
15.73572552644056
 30
0.0
 10
194.4858255685888
 20
15.7380111819779
 30
0.0
 10
194.4986635650143
 20
15.74494972588052
 30
0.0
 10
194.5145991033071
 20
15.72853046313672
 30
0.0
 10
194.5410623920891
 20
15.71709122319449
 30
0.0
 10
194.5726805253757
 20
15.6964468783519
 30
0.0
 10
194.5987255892151
 20
15.68116869628295
 30
0.0
 10
194.6128517723973
 20
15.67266976323184
 30
0.0
 10
194.6170254148479
 20
15.67015871511028
 30
0.0
 11
194.6170254148479
 21
15.67015871511028
 31
0.0
 11
194.6049990002244
 21
15.65473571164188
 31
0.0
 11
194.5848961795566
 21
15.64337406233916
 31
0.0
 11
194.4778986355814
 21
15.42440620231159
 31
0.0
 11
194.3477039934324
 21
15.21317201512161
 31
0.0
 11
194.1996540366071
 21
15.01206059027479
 31
0.0
 11
194.2734958253735
 21
14.96147384935379
 31
0.0
 11
194.3605664311801
 21
14.89988411653739
 31
0.0
 11
194.4518003750405
 21
14.83413160594425
 31
0.0
 11
194.5381321779688
 21
14.77105653169304
 31
0.0
 11
194.6104963609788
 21
14.71749910790241
 31
0.0
 11
194.6598274450844
 21
14.68029954869104
 31
0.0
 11
194.6486940702214
 21
14.66471410869494
 31
0.0
 11
194.6221452532403
 21
14.62754882870424
 31
0.0
 11
194.5904579555533
 21
14.58319026871533
 31
0.0
 11
194.5639091385723
 21
14.54602498872462
 31
0.0
 11
194.5527757637093
 21
14.53043954872852
 31
0.0
 11
194.4807013362948
 21
14.59754008690618
 31
0.0
 11
194.3852856985381
 21
14.67993354174669
 31
0.0
 11
194.279326415217
 21
14.76785017366916
 31
0.0
 11
194.175621051109
 21
14.85152024309267
 31
0.0
 11
194.175621051109
 21
14.83304687900863
 31
0.0
 11
194.175621051109
 21
14.78162102763955
 31
0.0
 11
194.175621051109
 21
14.70323405030999
 31
0.0
 11
194.175621051109
 21
14.60387730834449
 31
0.0
 11
194.175621051109
 21
14.4895421630676
 31
0.0
 11
194.175621051109
 21
14.36621997580389
 31
0.0
 11
194.175621051109
 21
14.2399021078779
 31
0.0
 11
194.175621051109
 21
14.11657992061419
 31
0.0
 11
194.175621051109
 21
14.0022447753373
 31
0.0
 11
194.175621051109
 21
13.9028880333718
 31
0.0
 11
194.175621051109
 21
13.82450105604223
 31
0.0
 11
194.175621051109
 21
13.77307520467316
 31
0.0
 11
194.175621051109
 21
13.75460184058912
 31
0.0
 11
194.1569720893626
 21
13.75460184058912
 31
0.0
 11
194.1125014882749
 21
13.75460184058912
 31
0.0
 11
194.0594236740736
 21
13.75460184058912
 31
0.0
 11
194.0149530729859
 21
13.75460184058912
 31
0.0
 11
193.9963041112395
 21
13.75460184058912
 31
0.0
 11
193.9963041112395
 21
13.77486797460219
 31
0.0
 11
193.9963041112395
 21
13.83089787452066
 31
0.0
 11
193.9963041112395
 21
13.91553878716347
 31
0.0
 11
193.9963041112395
 21
14.02163795934953
 31
0.0
 11
193.9963041112395
 21
14.14204263789775
 31
0.0
 11
193.9963041112395
 21
14.26960006962705
 31
0.0
 11
193.9963041112395
 21
14.39715750135636
 31
0.0
 11
193.9963041112395
 21
14.51756217990458
 31
0.0
 11
193.9963041112395
 21
14.62366135209064
 31
0.0
 11
193.9963041112395
 21
14.70830226473344
 31
0.0
 11
193.9963041112395
 21
14.76433216465193
 31
0.0
 11
193.9963041112395
 21
14.78459829866499
 31
0.0
 11
193.7883272849481
 21
14.59331998274057
 31
0.0
 11
193.5763486358426
 21
14.43414885430811
 31
0.0
 11
193.5495629014483
 21
14.48814671952095
 31
0.0
 11
193.5138765415025
 21
14.54689140572026
 31
0.0
 11
193.4799697494125
 21
14.59192871537977
 31
0.0
 11
193.6830287742319
 21
14.73563387201055
 31
0.0
 11
193.8818531958261
 21
14.91168423529989
 31
0.0
 11
194.0677041444179
 21
15.11327514524951
 31
0.0
 11
194.2318427502303
 21
15.3336019418611
 31
0.0
 11
194.3655301434864
 21
15.56585996513636
 31
0.0
 11
194.3465256724482
 21
15.56585996513636
 31
0.0
 11
194.2944166389562
 21
15.56585996513636
 31
0.0
 11
194.2165596124447
 21
15.56585996513636
 31
0.0
 11
194.1203111623478
 21
15.56585996513636
 31
0.0
 11
194.0130278580997
 21
15.56585996513636
 31
0.0
 11
193.9020662691345
 21
15.56585996513636
 31
0.0
 11
193.7947829648864
 21
15.56585996513636
 31
0.0
 11
193.6985345147895
 21
15.56585996513636
 31
0.0
 11
193.620677488278
 21
15.56585996513636
 31
0.0
 11
193.568568454786
 21
15.56585996513636
 31
0.0
 11
193.5495639837478
 21
15.56585996513636
 31
0.0
 11
193.5495639837478
 21
15.58311199790982
 31
0.0
 11
193.5495639837478
 21
15.62425146067732
 31
0.0
 11
193.5495639837478
 21
15.67335340010949
 31
0.0
 11
193.5495639837478
 21
15.71449286287699
 31
0.0
 11
193.5495639837478
 21
15.73174489565045
 31
0.0
 11
193.5687598486009
 21
15.73174489565045
 31
0.0
 11
193.6193671286684
 21
15.73174489565045
 31
0.0
 11
193.690915352212
 21
15.73174489565045
 31
0.0
 11
193.7729340474937
 21
15.73174489565045
 31
0.0
 11
193.8549527427753
 21
15.73174489565045
 31
0.0
 11
193.9265009663189
 21
15.73174489565045
 31
0.0
 11
193.9771082463864
 21
15.73174489565045
 31
0.0
 11
193.9963041112395
 21
15.73174489565045
 31
0.0
 11
193.9963041112395
 21
15.74926552655218
 31
0.0
 11
193.9963041112395
 21
15.79622081736882
 31
0.0
 11
193.9963041112395
 21
15.86420086526753
 31
0.0
 11
193.9963041112395
 21
15.94479576741549
 31
0.0
 11
193.9963041112395
 21
16.02959562097986
 31
0.0
 11
193.9963041112395
 21
16.11019052312782
 31
0.0
 11
193.9963041112395
 21
16.17817057102653
 31
0.0
 11
193.9963041112395
 21
16.22512586184317
 31
0.0
 11
193.9963041112395
 21
16.2426464927449
 31
0.0
 11
194.0135484112111
 21
16.24165806167519
 31
0.0
 11
194.0566591611401
 21
16.23918698400091
 31
0.0
 11
194.1127031360477
 21
16.23597458302435
 31
0.0
 11
194.1687471109553
 21
16.2327621820478
 31
0.0
 11
194.2118578608843
 21
16.23029110437352
 31
0.0
 11
194.2291021608559
 21
16.22930267330381
 31
0.0
 11
194.2143774674852
 21
16.2055629337264
 31
0.0
 11
194.175621051109
 21
16.19183767331312
 31
0.0
 11
194.175621051109
 21
16.17206806177293
 31
0.0
 11
194.175621051109
 21
16.11994817680333
 31
0.0
 11
194.175621051109
 21
16.04626144288079
 31
0.0
 11
194.175621051109
 21
15.96179128448179
 31
0.0
 11
194.175621051109
 21
15.87732112608278
 31
0.0
 11
194.175621051109
 21
15.80363439216024
 31
0.0
 11
194.175621051109
 21
15.75151450719064
 31
0.0
 11
194.175621051109
 21
15.73174489565045
 31
0.0
 11
194.1916227112935
 21
15.73174489565045
 31
0.0
 11
194.232890150717
 21
15.73174489565045
 31
0.0
 11
194.2893170576837
 21
15.73174489565045
 31
0.0
 11
194.3507971204981
 21
15.73174489565045
 31
0.0
 11
194.4072240274648
 21
15.73174489565045
 31
0.0
 11
194.4484914668882
 21
15.73174489565045
 31
0.0
 11
194.4644931270728
 21
15.73174489565045
 31
0.0
 11
194.4728206422924
 21
15.73451387455921
 31
0.0
 11
194.4882860277004
 21
15.73965626396118
 31
0.0
 11
194.49661354292
 21
15.74242524286994
 31
0.0
 11
194.5091363776005
 21
15.73490952398294
 31
0.0
 11
194.5389985218386
 21
15.71698742509854
 31
0.0
 11
194.5746404359293
 21
15.69559653288168
 31
0.0
 11
194.6045025801674
 21
15.67767443399729
 31
0.0
 11
194.6170254148479
 21
15.67015871511028
 31
0.0
  0
SPLINE
  5
AD
102
{ACAD_REACTORS
330
CA
102
}
330
48
100
AcDbEntity
  8
_U_30EC_U_30A4_U_30E4_U_30FC_1
  6
Continuous
 62
     2
100
AcDbSpline
210
0.0
220
0.0
230
1.0
 70
    11
 71
     3
 72
   124
 73
   120
 74
   118
 42
0.000000001
 43
0.0000000001
 44
0.00000001
 40
0.0
 40
0.0
 40
0.0
 40
0.0
 40
0.027818722962451
 40
0.1011590162384269
 40
0.2048470170590239
 40
0.3237088716559245
 40
0.4425707262522
 40
0.5462587270699547
 40
0.6195990203311798
 40
0.647417752257866
 40
0.6750060736115224
 40
0.7357003855242759
 40
0.7963946998054492
 40
0.8239830245571784
 40
0.8540933811102878
 40
0.9373396629409558
 40
1.063094687343208
 40
1.220731268638046
 40
1.399622220914721
 40
1.589140358637706
 40
1.778658496423815
 40
1.957549448940454
 40
2.115186030873075
 40
2.240941056914379
 40
2.324187341760449
 40
2.354297700109298
 40
2.381886024671805
 40
2.442580338710393
 40
2.503274652750417
 40
2.530862977314524
 40
2.560983949278477
 40
2.640393784452823
 40
2.752662861759018
 40
2.881361560118006
 40
3.010060258455025
 40
3.122329335705172
 40
3.201739170817786
 40
3.231860142753146
 40
3.264298024030203
 40
3.352343701778074
 40
3.482095226868599
 40
3.63965065017286
 40
3.811108022565315
 40
3.982565394927824
 40
4.140120818152405
 40
4.269872343141116
 40
4.357918020802178
 40
4.390355902043807
 40
4.423256253992377
 40
4.508104530072841
 40
4.624121560636609
 40
4.750528176031337
 40
4.866545206601784
 40
4.951393482691713
 40
4.984293834645114
 40
5.011450833242027
 40
5.07119623015181
 40
5.130941627056884
 40
5.158098625648548
 40
5.19099897760121
 40
5.275847253689007
 40
5.39186428425647
 40
5.518270899647958
 40
5.634287930208969
 40
5.719136206287643
 40
5.75203655823553
 40
5.782130946282556
 40
5.862783906228731
 40
5.979550131774597
 40
6.117984316640004
 40
6.263641154587549
 40
6.402075339413755
 40
6.518841564907549
 40
6.599494524815131
 40
6.629588912848368
 40
6.654403028225945
 40
6.713575149487712
 40
6.784199939329029
 40
6.843372060493131
 40
6.868186175802377
 40
6.896246243201427
 40
6.939586233757877
 40
6.967846564564505
 40
7.043584251089444
 40
7.153234334451302
 40
7.283231855734051
 40
7.420011856035085
 40
7.550009376579437
 40
7.659659458834836
 40
7.735397144416829
 40
7.763657474851001
 40
7.796409728010659
 40
7.880876065095933
 40
7.996370852465319
 40
8.122208446418213
 40
8.237703224798807
 40
8.322169562010501
 40
8.354921815205515
 40
8.382078813307295
 40
8.441824209206597
 40
8.501569605239744
 40
8.528726603485321
 40
8.56147885669537
 40
8.64594519387742
 40
8.761439980864932
 40
8.887277580764074
 40
9.002772362000595
 40
9.087238696660815
 40
9.11999094923527
 40
9.152428830612969
 40
9.240474508638185
 40
9.370226034149136
 40
9.527781457984021
 40
9.69923883098101
 40
9.870696203978202
 40
10.02825162781362
 40
10.15800315332524
 40
10.24604883135079
 40
10.27848670378482
 40
10.27848670378482
 40
10.27848670378482
 40
10.27848670378482
 10
195.3821827564383
 20
14.01410517385757
 30
0.0
 10
195.3914554737523
 20
14.01410498511274
 30
0.0
 10
195.4251744536861
 20
14.01410430876714
 30
0.0
 10
195.4934706812465
 20
14.01411807243305
 30
0.0
 10
195.592014171158
 20
14.01403224219544
 30
0.0
 10
195.7062066464812
 20
14.01441755612251
 30
0.0
 10
195.818589441707
 20
14.01300835897545
 30
0.0
 10
195.9214376600118
 20
14.01719117422243
 30
0.0
 10
195.9806839874849
 20
14.00823089251983
 30
0.0
 10
196.0371265937032
 20
14.02164434526061
 30
0.0
 10
196.0246255586955
 20
13.97087198613361
 30
0.0
 10
196.0329549635704
 20
13.92589320939067
 30
0.0
 10
196.0248170841119
 20
13.88056752990488
 30
0.0
 10
196.0370529214457
 20
13.82931932408466
 30
0.0
 10
195.9747773490333
 20
13.84447955365276
 30
0.0
 10
195.9060513026868
 20
13.83359750710743
 30
0.0
 10
195.7782756749592
 20
13.83911304747972
 30
0.0
 10
195.6262984511643
 20
13.83700851253698
 30
0.0
 10
195.4502695972523
 20
13.83771002588473
 30
0.0
 10
195.2644431934287
 20
13.83745237531291
 30
0.0
 10
195.0786167437176
 20
13.83771005144603
 30
0.0
 10
194.9025880142169
 20
13.83700841847731
 30
0.0
 10
194.7506104154195
 20
13.83911332229988
 30
0.0
 10
194.6228357664555
 20
13.8335968076764
 30
0.0
 10
194.5541077836581
 20
13.84448077125942
 30
0.0
 10
194.4918349042884
 20
13.82931786684209
 30
0.0
 10
194.5040616290018
 20
13.88057510805171
 30
0.0
 10
194.4960004462598
 20
13.92582473272425
 30
0.0
 10
194.5040675809893
 20
13.97106357955323
 30
0.0
 10
194.4918238487084
 20
14.02234176909958
 30
0.0
 10
194.5525017120698
 20
14.00749577363134
 30
0.0
 10
194.6162810745737
 20
14.01756448170736
 30
0.0
 10
194.7277314353503
 20
14.01294644211999
 30
0.0
 10
194.8497533443823
 20
14.01413328905469
 30
0.0
 10
194.9719538137824
 20
14.01515863900634
 30
0.0
 10
195.0829794287392
 20
14.01092475623402
 30
0.0
 10
195.1476517413958
 20
14.02018584521739
 30
0.0
 10
195.2091162810501
 20
14.00604423049682
 30
0.0
 10
195.1930065601336
 20
14.07235527884517
 30
0.0
 10
195.2042980327358
 20
14.14447790121976
 30
0.0
 10
195.1987400822561
 20
14.27513760888286
 30
0.0
 10
195.2008035061691
 20
14.42607323708242
 30
0.0
 10
195.2000167127295
 20
14.59335873107886
 30
0.0
 10
195.2007845215627
 20
14.76061110332304
 30
0.0
 10
195.1988038785628
 20
14.91163289269914
 30
0.0
 10
195.2041306156621
 20
15.04206069552996
 30
0.0
 10
195.1933101388425
 20
15.11465442605899
 30
0.0
 10
195.2090326429875
 20
15.18150469436799
 30
0.0
 10
195.143270813249
 20
15.16580512490826
 30
0.0
 10
195.0756367830764
 20
15.17609243083996
 30
0.0
 10
194.9615885293811
 20
15.17113786847123
 30
0.0
 10
194.8451242674903
 20
15.17414128030476
 30
0.0
 10
194.7306554121478
 20
15.16880303143389
 30
0.0
 10
194.6640324657813
 20
15.18001268074825
 30
0.0
 10
194.5990769715186
 20
15.16349132665011
 30
0.0
 10
194.610798975871
 20
15.2147372047706
 30
0.0
 10
194.6032830189121
 20
15.25950333784091
 30
0.0
 10
194.6107989878836
 20
15.30426944897961
 30
0.0
 10
194.5990769505348
 20
15.3555153612974
 30
0.0
 10
194.66403263392
 20
15.33899381766815
 30
0.0
 10
194.7306533339822
 20
15.35020571373944
 30
0.0
 10
194.8451352858064
 20
15.34485436710665
 30
0.0
 10
194.9615454436963
 20
15.34791188771116
 30
0.0
 10
195.0757660174642
 20
15.34278499010709
 30
0.0
 10
195.1430150439226
 20
15.35345733355598
 30
0.0
 10
195.2083325941438
 20
15.33742082669077
 30
0.0
 10
195.1941391448552
 20
15.39949685750053
 30
0.0
 10
195.2036059462995
 20
15.46586761628763
 30
0.0
 10
195.1990269004084
 20
15.58239972741966
 30
0.0
 10
195.2007696555948
 20
15.71426685022376
 30
0.0
 10
195.1997551495391
 20
15.85615960150273
 30
0.0
 10
195.2017191344373
 20
15.9876905070258
 30
0.0
 10
195.1964668553851
 20
16.10524577283002
 30
0.0
 10
195.2073408763474
 20
16.16947789001584
 30
0.0
 10
195.1919536641853
 20
16.23108802545047
 30
0.0
 10
195.24075915378
 20
16.21702407382111
 30
0.0
 10
195.2853995564726
 20
16.21954742075314
 30
0.0
 10
195.3538643946742
 20
16.2151279740171
 30
0.0
 10
195.3959106169102
 20
16.20613025544035
 30
0.0
 10
195.4487544758775
 20
16.21411714866511
 30
0.0
 10
195.4207035002015
 20
16.1711391761167
 30
0.0
 10
195.3749142248594
 20
16.18259552043839
 30
0.0
 10
195.3869539073265
 20
16.12173520005136
 30
0.0
 10
195.379608607064
 20
16.05769299468773
 30
0.0
 10
195.3831195826162
 20
15.94909368863911
 30
0.0
 10
195.3819806760173
 20
15.82494319144753
 30
0.0
 10
195.3819174780262
 20
15.69189719829878
 30
0.0
 10
195.3832872966867
 20
15.56797381249555
 30
0.0
 10
195.3791638801314
 20
15.45868337849339
 30
0.0
 10
195.3877763103564
 20
15.3960858009417
 30
0.0
 10
195.3746757454401
 20
15.33740133296365
 30
0.0
 10
195.4393884328198
 20
15.35362113810902
 30
0.0
 10
195.5060405953156
 20
15.34270260383311
 30
0.0
 10
195.6198779541102
 20
15.34793740173756
 30
0.0
 10
195.7357259122097
 20
15.34485547516913
 30
0.0
 10
195.849692426328
 20
15.35018259812512
 30
0.0
 10
195.91603410181
 20
15.33904208166543
 30
0.0
 10
195.9807188525479
 20
15.35546979593178
 30
0.0
 10
195.9689820772722
 20
15.30425925210051
 30
0.0
 10
195.9765168063041
 20
15.25950334121001
 30
0.0
 10
195.9689820992258
 20
15.21474739010028
 30
0.0
 10
195.9807188140737
 20
15.16353690871041
 30
0.0
 10
195.9160344075252
 20
15.17996427794221
 30
0.0
 10
195.8496886430824
 20
15.1688278444727
 30
0.0
 10
195.7357459487012
 20
15.17413115893121
 30
0.0
 10
195.6197995623054
 20
15.17114764593544
 30
0.0
 10
195.5062756882122
 20
15.17606892268395
 30
0.0
 10
195.4389231318804
 20
15.1658508751352
 30
0.0
 10
195.3734285122495
 20
15.18145996138816
 30
0.0
 10
195.3891713619218
 20
15.11463851827411
 30
0.0
 10
195.3783275998212
 20
15.04207057815879
 30
0.0
 10
195.3836581629793
 20
14.91162247614417
 30
0.0
 10
195.3817136151854
 20
14.76064558185226
 30
0.0
 10
195.3823133683214
 20
14.59322243934158
 30
0.0
 10
195.3821506559605
 20
14.42656176118372
 30
0.0
 10
195.3821895488135
 20
14.27360142921636
 30
0.0
 10
195.38218164131
 20
14.14849178985705
 30
0.0
 10
195.3821828382744
 20
14.0650789099142
 30
0.0
 10
195.3821827716208
 20
14.02491778281976
 30
0.0
 10
195.3821827564383
 20
14.01410517385757
 30
0.0
 11
195.3821827564383
 21
14.01410517385757
 31
0.0
 11
195.4100014883675
 21
14.01410517385757
 31
0.0
 11
195.4833417816353
 21
14.01410517385757
 31
0.0
 11
195.5870297824622
 21
14.01410517385757
 31
0.0
 11
195.7058916370687
 21
14.01410517385757
 31
0.0
 11
195.8247534916751
 21
14.01410517385757
 31
0.0
 11
195.928441492502
 21
14.01410517385757
 31
0.0
 11
196.0017817857698
 21
14.01410517385757
 31
0.0
 11
196.029600517699
 21
14.01410517385757
 31
0.0
 11
196.029600517699
 21
13.9865168492117
 31
0.0
 11
196.029600517699
 21
13.92582253499077
 31
0.0
 11
196.029600517699
 21
13.86512822076984
 31
0.0
 11
196.029600517699
 21
13.83753989612397
 31
0.0
 11
195.9994901593494
 21
13.83753989612397
 31
0.0
 11
195.9162438745004
 21
13.83753989612397
 31
0.0
 11
195.7904888484521
 21
13.83753989612397
 31
0.0
 11
195.6328522665042
 21
13.83753989612397
 31
0.0
 11
195.4539613139565
 21
13.83753989612397
 31
0.0
 11
195.2644431761089
 21
13.83753989612397
 31
0.0
 11
195.0749250382613
 21
13.83753989612397
 31
0.0
 11
194.8960340857137
 21
13.83753989612397
 31
0.0
 11
194.7383975037657
 21
13.83753989612397
 31
0.0
 11
194.6126424777173
 21
13.83753989612397
 31
0.0
 11
194.5293961928684
 21
13.83753989612397
 31
0.0
 11
194.4992858345188
 21
13.83753989612397
 31
0.0
 11
194.4992858345188
 21
13.86512822076984
 31
0.0
 11
194.4992858345188
 21
13.92582253499077
 31
0.0
 11
194.4992858345188
 21
13.9865168492117
 31
0.0
 11
194.4992858345188
 21
14.01410517385757
 31
0.0
 11
194.5294068064948
 21
14.01410517385757
 31
0.0
 11
194.6088166417041
 21
14.01410517385757
 31
0.0
 11
194.7210857190691
 21
14.01410517385757
 31
0.0
 11
194.8497844175118
 21
14.01410517385757
 31
0.0
 11
194.9784831159545
 21
14.01410517385757
 31
0.0
 11
195.0907521933195
 21
14.01410517385757
 31
0.0
 11
195.1701620285289
 21
14.01410517385757
 31
0.0
 11
195.2002830005048
 21
14.01410517385757
 31
0.0
 11
195.2002830005048
 21
14.04654305523835
 31
0.0
 11
195.2002830005048
 21
14.1345887332719
 31
0.0
 11
195.2002830005048
 21
14.26434025879503
 31
0.0
 11
195.2002830005048
 21
14.42189568264454
 31
0.0
 11
195.2002830005048
 21
14.59335305565724
 31
0.0
 11
195.2002830005048
 21
14.76481042866994
 31
0.0
 11
195.2002830005048
 21
14.92236585251945
 31
0.0
 11
195.2002830005048
 21
15.05211737804258
 31
0.0
 11
195.2002830005048
 21
15.14016305607613
 31
0.0
 11
195.2002830005048
 21
15.17260093745691
 31
0.0
 11
195.1673826485529
 21
15.17260093745691
 31
0.0
 11
195.0825343724663
 21
15.17260093745691
 31
0.0
 11
194.9665173418989
 21
15.17260093745691
 31
0.0
 11
194.8401107265045
 21
15.17260093745691
 31
0.0
 11
194.7240936959371
 21
15.17260093745691
 31
0.0
 11
194.6392454198505
 21
15.17260093745691
 31
0.0
 11
194.6063450678985
 21
15.17260093745691
 31
0.0
 11
194.6063450678985
 21
15.19975793614803
 31
0.0
 11
194.6063450678985
 21
15.2595033332685
 31
0.0
 11
194.6063450678985
 21
15.31924873038898
 31
0.0
 11
194.6063450678985
 21
15.3464057290801
 31
0.0
 11
194.6392454198505
 21
15.3464057290801
 31
0.0
 11
194.7240936959371
 21
15.3464057290801
 31
0.0
 11
194.8401107265045
 21
15.3464057290801
 31
0.0
 11
194.9665173418988
 21
15.3464057290801
 31
0.0
 11
195.0825343724662
 21
15.3464057290801
 31
0.0
 11
195.1673826485529
 21
15.3464057290801
 31
0.0
 11
195.2002830005048
 21
15.3464057290801
 31
0.0
 11
195.2002830005048
 21
15.3765001173137
 31
0.0
 11
195.2002830005048
 21
15.45715307777974
 31
0.0
 11
195.2002830005048
 21
15.57391930412609
 31
0.0
 11
195.2002830005048
 21
15.71235349000063
 31
0.0
 11
195.2002830005048
 21
15.85801032905124
 31
0.0
 11
195.2002830005048
 21
15.99644451492578
 31
0.0
 11
195.2002830005048
 21
16.11321074127214
 31
0.0
 11
195.2002830005048
 21
16.19386370173817
 31
0.0
 11
195.2002830005048
 21
16.22395808997177
 31
0.0
 11
195.2250405288618
 21
16.22228324219442
 31
0.0
 11
195.2840777118669
 21
16.21828937441765
 31
0.0
 11
195.3545414464214
 21
16.21352249997441
 31
0.0
 11
195.4135786294265
 21
16.20952863219765
 31
0.0
 11
195.4383361577835
 21
16.20785378442029
 31
0.0
 11
195.4233067224031
 21
16.1841581420651
 31
0.0
 11
195.3821827564383
 21
16.17047697887404
 31
0.0
 11
195.3821827564383
 21
16.14221664794832
 31
0.0
 11
195.3821827564383
 21
16.0664789610674
 31
0.0
 11
195.3821827564383
 21
15.95682887707561
 31
0.0
 11
195.3821827564383
 21
15.82683135481731
 31
0.0
 11
195.3821827564383
 21
15.69005135313683
 31
0.0
 11
195.3821827564383
 21
15.56005383087853
 31
0.0
 11
195.3821827564383
 21
15.45040374688674
 31
0.0
 11
195.3821827564383
 21
15.37466606000582
 31
0.0
 11
195.3821827564383
 21
15.3464057290801
 31
0.0
 11
195.4149350096115
 21
15.3464057290801
 31
0.0
 11
195.4994013467422
 21
15.3464057290801
 31
0.0
 11
195.6148961342476
 21
15.3464057290801
 31
0.0
 11
195.7407337385445
 21
15.3464057290801
 31
0.0
 11
195.8562285260498
 21
15.3464057290801
 31
0.0
 11
195.9406948631806
 21
15.3464057290801
 31
0.0
 11
195.9734471163538
 21
15.3464057290801
 31
0.0
 11
195.9734471163538
 21
15.31924873038898
 31
0.0
 11
195.9734471163538
 21
15.2595033332685
 31
0.0
 11
195.9734471163538
 21
15.19975793614803
 31
0.0
 11
195.9734471163538
 21
15.17260093745691
 31
0.0
 11
195.9406948631806
 21
15.17260093745691
 31
0.0
 11
195.8562285260498
 21
15.17260093745691
 31
0.0
 11
195.7407337385445
 21
15.17260093745691
 31
0.0
 11
195.6148961342476
 21
15.17260093745691
 31
0.0
 11
195.4994013467422
 21
15.17260093745691
 31
0.0
 11
195.4149350096114
 21
15.17260093745691
 31
0.0
 11
195.3821827564383
 21
15.17260093745691
 31
0.0
 11
195.3821827564383
 21
15.14016305607613
 31
0.0
 11
195.3821827564383
 21
15.05211737804258
 31
0.0
 11
195.3821827564383
 21
14.92236585251945
 31
0.0
 11
195.3821827564383
 21
14.76481042866994
 31
0.0
 11
195.3821827564383
 21
14.59335305565724
 31
0.0
 11
195.3821827564383
 21
14.42189568264454
 31
0.0
 11
195.3821827564383
 21
14.26434025879503
 31
0.0
 11
195.3821827564383
 21
14.1345887332719
 31
0.0
 11
195.3821827564383
 21
14.04654305523835
 31
0.0
 11
195.3821827564383
 21
14.01410517385757
 31
0.0
  0
SPLINE
  5
AE
102
{ACAD_REACTORS
330
CB
102
}
330
48
100
AcDbEntity
  8
_U_30EC_U_30A4_U_30E4_U_30FC_1
  6
Continuous
 62
     2
100
AcDbSpline
210
0.0
220
0.0
230
1.0
 70
     8
 71
     3
 72
    62
 73
    58
 74
    56
 42
0.000000001
 43
0.0000000001
 44
0.00000001
 40
0.0
 40
0.0
 40
0.0
 40
0.0
 40
0.0598250028308485
 40
0.2024846486896763
 40
0.372755838921961
 40
0.5154154847934365
 40
0.575240497578335
 40
0.9332326775484908
 40
1.29045176283924
 40
1.602077253145598
 40
1.699931634111834
 40
1.799359756424766
 40
2.270120149656806
 40
2.804661928461229
 40
2.882342287382941
 40
3.076543185718792
 40
3.329004354835259
 40
3.581465524568086
 40
3.775666424543374
 40
3.853346784557993
 40
3.899120679594767
 40
3.984129341791709
 40
4.029903236817058
 40
4.105797496059214
 40
4.295533144152174
 40
4.542189486611415
 40
4.788845828875361
 40
4.978581476409747
 40
5.05447573524399
 40
5.621734664339039
 40
6.13086724203709
 40
6.225249780948301
 40
6.318913039726958
 40
6.663579954558553
 40
7.047498900224381
 40
7.435230791575279
 40
7.498943906667691
 40
7.650875181209685
 40
7.832212509001195
 40
7.984143783696581
 40
8.047856898902708
 40
8.091554632732219
 40
8.172707566963885
 40
8.216405300767613
 40
8.289021782160498
 40
8.462184160756872
 40
8.668861838005038
 40
8.84202421526363
 40
8.914640695474853
 40
8.98988158086106
 40
9.155411528826962
 40
9.320941477743743
 40
9.396182352486992
 40
9.454709011143482
 40
9.583467660170502
 40
9.712226309012724
 40
9.770752957989206
 40
9.770752957989206
 40
9.770752957989206
 40
9.770752957989206
 10
187.1521871691832
 20
14.93980288195949
 30
0.0
 10
187.1322348171623
 20
14.93980875568671
 30
0.0
 10
187.0647037716464
 20
14.93982863806157
 30
0.0
 10
186.9410612161789
 20
14.93949362520325
 30
0.0
 10
186.7863180150056
 20
14.94107673750511
 30
0.0
 10
186.6697349482481
 20
14.93686078860494
 30
0.0
 10
186.4550942634241
 20
14.95215205331624
 30
0.0
 10
186.851894840723
 20
14.5919872128619
 30
0.0
 10
186.8945656069267
 20
14.37510503397167
 30
0.0
 10
187.3189162146611
 20
14.19325062511448
 30
0.0
 10
187.1439821496074
 20
14.0898519656807
 30
0.0
 10
187.0194523925084
 20
13.87831523212727
 30
0.0
 10
186.7666277235943
 20
14.34806081001557
 30
0.0
 10
186.4797602893627
 20
14.99511516984523
 30
0.0
 10
186.4906335926661
 20
14.68782672154695
 30
0.0
 10
186.4882892777961
 20
14.5228861697178
 30
0.0
 10
186.4861096126411
 20
14.28879670711694
 30
0.0
 10
186.4980774396348
 20
14.04498072421783
 30
0.0
 10
186.4687984740632
 20
13.89855796860985
 30
0.0
 10
186.511452262547
 20
13.75113490174537
 30
0.0
 10
186.4239814005641
 20
13.7668579730622
 30
0.0
 10
186.3768527606745
 20
13.76694303543454
 30
0.0
 10
186.2898973207714
 20
13.75109425482909
 30
0.0
 10
186.3313474021724
 20
13.89527771422762
 30
0.0
 10
186.3029875004286
 20
14.03855052698456
 30
0.0
 10
186.31459737753
 20
14.27674947365264
 30
0.0
 10
186.3124175648273
 20
14.50517235240346
 30
0.0
 10
186.3103111127994
 20
14.66705729375994
 30
0.0
 10
186.3208035438325
 20
14.98153709333754
 30
0.0
 10
186.0128963252894
 20
14.29229470872436
 30
0.0
 10
185.7055258267456
 20
13.81476750243048
 30
0.0
 10
185.5851367066275
 20
14.03741112637426
 30
0.0
 10
185.4074607910723
 20
14.15011034955572
 30
0.0
 10
185.8853326362895
 20
14.32548143465459
 30
0.0
 10
185.9353959057209
 20
14.56091929252031
 30
0.0
 10
186.3583799621717
 20
14.95322989344606
 30
0.0
 10
186.127675427354
 20
14.93655307029065
 30
0.0
 10
186.0049685859341
 20
14.9426951894877
 30
0.0
 10
185.8325483095662
 20
14.93312822699573
 30
0.0
 10
185.7213224694449
 20
14.95448818489665
 30
0.0
 10
185.6025779627448
 20
14.92136265357419
 30
0.0
 10
185.6183169706686
 20
15.00203900606883
 30
0.0
 10
185.6178550933763
 20
15.04645414290854
 30
0.0
 10
185.6027881889931
 20
15.12967081778534
 30
0.0
 10
185.7372380935443
 20
15.09062651983884
 30
0.0
 10
185.8619755545747
 20
15.11739729328423
 30
0.0
 10
186.062875523728
 20
15.10063949044053
 30
0.0
 10
186.1921540949355
 20
15.12204225913006
 30
0.0
 10
186.3328419928295
 20
15.0886877885342
 30
0.0
 10
186.2980927452617
 20
15.22651875785069
 30
0.0
 10
186.3222185666713
 20
15.34963257349482
 30
0.0
 10
186.2967086182394
 20
15.47024055670335
 30
0.0
 10
186.3333251146686
 20
15.60539865141493
 30
0.0
 10
186.221141702777
 20
15.58094545781891
 30
0.0
 10
186.1280356457138
 20
15.59307749842022
 30
0.0
 10
186.0191547579821
 20
15.58957630069994
 30
0.0
 10
185.9569697640965
 20
15.58981755951602
 30
0.0
 10
185.9375369557247
 20
15.58989295124144
 30
0.0
 11
187.1521871691832
 21
14.93980288195949
 31
0.0
 11
187.0923621563981
 21
14.93980288195949
 31
0.0
 11
186.9497025105259
 21
14.93980288195949
 31
0.0
 11
186.7794313202914
 21
14.93980288195949
 31
0.0
 11
186.6367716744192
 21
14.93980288195949
 31
0.0
 11
186.5769466616341
 21
14.93980288195949
 31
0.0
 11
186.7679960754843
 21
14.6370512796689
 31
0.0
 11
186.994127278563
 21
14.36051890576684
 31
0.0
 11
187.2244526173371
 21
14.15061253493457
 31
0.0
 11
187.1521596330704
 21
14.08466403668716
 31
0.0
 11
187.0879364402643
 21
14.0087605905256
 31
0.0
 11
186.7732818215558
 21
14.35891458349363
 31
0.0
 11
186.4886640249977
 21
14.81138295143602
 31
0.0
 11
186.4886640249977
 21
14.73370259137314
 31
0.0
 11
186.4886640249977
 21
14.53950169121594
 31
0.0
 11
186.4886640249977
 21
14.28704052101157
 31
0.0
 11
186.4886640249977
 21
14.03457935080721
 31
0.0
 11
186.4886640249977
 21
13.84037845065
 31
0.0
 11
186.4886640249977
 21
13.76269809058712
 31
0.0
 11
186.4428901295606
 21
13.76269809058712
 31
0.0
 11
186.3578814666059
 21
13.76269809058712
 31
0.0
 11
186.3121075711688
 21
13.76269809058712
 31
0.0
 11
186.3121075711688
 21
13.8385923498274
 31
0.0
 11
186.3121075711688
 21
14.02832799792811
 31
0.0
 11
186.3121075711688
 21
14.27498434045904
 31
0.0
 11
186.3121075711688
 21
14.52164068298996
 31
0.0
 11
186.3121075711688
 21
14.71137633109067
 31
0.0
 11
186.3121075711688
 21
14.78727059033095
 31
0.0
 11
185.9987626399267
 21
14.31440946197693
 31
0.0
 11
185.6352328662148
 21
13.95795177109382
 31
0.0
 11
185.5773927461628
 21
14.03253450545022
 31
0.0
 11
185.5094852305342
 21
14.09704322939243
 31
0.0
 11
185.775072189832
 21
14.3167221979589
 31
0.0
 11
186.0233764972062
 21
14.60953395971697
 31
0.0
 11
186.226498280526
 21
14.93980288195949
 31
0.0
 11
186.1627851652721
 21
14.93980288195949
 31
0.0
 11
186.0108538904359
 21
14.93980288195949
 31
0.0
 11
185.8295165624055
 21
14.93980288195949
 31
0.0
 11
185.6775852875693
 21
14.93980288195949
 31
0.0
 11
185.6138721723154
 21
14.93980288195949
 31
0.0
 11
185.6138721723154
 21
14.98350061600208
 31
0.0
 11
185.6138721723154
 21
15.06465355065259
 31
0.0
 11
185.6138721723154
 21
15.10835128469518
 31
0.0
 11
185.6864886537961
 21
15.10835128469518
 31
0.0
 11
185.8596510327118
 21
15.10835128469518
 31
0.0
 11
186.0663287107724
 21
15.10835128469518
 31
0.0
 11
186.239491089688
 21
15.10835128469518
 31
0.0
 11
186.3121075711688
 21
15.10835128469518
 31
0.0
 11
186.3121075711688
 21
15.18359217009304
 31
0.0
 11
186.3121075711688
 21
15.34912211796831
 31
0.0
 11
186.3121075711688
 21
15.51465206584359
 31
0.0
 11
186.3121075711688
 21
15.58989295124144
 31
0.0
 11
186.2535809125057
 21
15.58989295124144
 31
0.0
 11
186.1248222634468
 21
15.58989295124144
 31
0.0
 11
185.9960636143879
 21
15.58989295124144
 31
0.0
 11
185.9375369557247
 21
15.58989295124144
 31
0.0
  0
SPLINE
  5
AF
102
{ACAD_REACTORS
330
CB
102
}
330
48
100
AcDbEntity
  8
_U_30EC_U_30A4_U_30E4_U_30FC_1
  6
Continuous
 62
     2
100
AcDbSpline
210
0.0
220
0.0
230
1.0
 70
     8
 71
     3
 72
    70
 73
    66
 74
    64
 42
0.000000001
 43
0.0000000001
 44
0.00000001
 40
0.0
 40
0.0
 40
0.0
 40
0.0
 40
0.0241731073021472
 40
0.0846058988987582
 40
0.1631685280353852
 40
0.2417311571790608
 40
0.302163948829332
 40
0.3263370654896678
 40
0.3533118254250018
 40
0.4228783438923248
 40
0.5179999095314539
 40
0.6216398239467239
 40
0.7167613891500842
 40
0.7863279069651
 40
0.8133026791762973
 40
0.837294399877281
 40
0.8945054261373439
 40
0.9627895541962925
 40
1.020000580349074
 40
1.043992300975172
 40
1.071934345522872
 40
1.113121768772859
 40
1.145225199332183
 40
1.225483775412718
 40
1.329819923771426
 40
1.434156071994316
 40
1.514414647795738
 40
1.546518078208346
 40
1.578974764260147
 40
1.662678849314086
 40
1.777131373668335
 40
1.901833377474725
 40
2.016285900500515
 40
2.099989982527882
 40
2.132446666570241
 40
2.158782354485963
 40
2.216720867907754
 40
2.274659381334177
 40
2.300995069256111
 40
2.333451754066083
 40
2.417155836543764
 40
2.531608358985203
 40
2.656310362283698
 40
2.770762886388831
 40
2.854466971339996
 40
2.886923657363802
 40
2.913597976833236
 40
2.982389642875038
 40
3.076451716946901
 40
3.178937260458513
 40
3.272999334739915
 40
3.341791001059134
 40
3.368465320663447
 40
3.396976080738668
 40
3.472140811845876
 40
3.578408190308565
 40
3.700226892455973
 40
3.822045594634134
 40
3.928312973256212
 40
4.003477705314581
 40
4.031988456866647
 40
4.058324144797447
 40
4.116262658236615
 40
4.174201171400422
 40
4.200536849608357
 40
4.200536849608357
 40
4.200536849608357
 40
4.200536849608357
 10
185.9857704961609
 20
15.75844135397705
 30
0.0
 10
185.9938259544679
 20
15.75844359811686
 30
0.0
 10
186.0220200663241
 20
15.75845146032797
 30
0.0
 10
186.0765534803673
 20
15.75830754828372
 30
0.0
 10
186.1482891808604
 20
15.75909120499898
 30
0.0
 10
186.2236240137062
 20
15.7562757046381
 30
0.0
 10
186.2713052366439
 20
15.76298403400958
 30
0.0
 10
186.3195071245617
 20
15.75197563692431
 30
0.0
 10
186.3062571799875
 20
15.80546402997033
 30
0.0
 10
186.3151093964539
 20
15.86049583543092
 30
0.0
 10
186.3108698036287
 20
15.95419908726109
 30
0.0
 10
186.313348348128
 20
16.04959482218532
 30
0.0
 10
186.3090938706062
 20
16.14356821983387
 30
0.0
 10
186.3179818665847
 20
16.19795062438012
 30
0.0
 10
186.3046977409946
 20
16.25233997691461
 30
0.0
 10
186.351411927711
 20
16.23842216335358
 30
0.0
 10
186.3943254545738
 20
16.24103877374043
 30
0.0
 10
186.4605443456686
 20
16.23648422450755
 30
0.0
 10
186.5013342271799
 20
16.22778162134161
 30
0.0
 10
186.5525145690818
 20
16.23531799890195
 30
0.0
 10
186.5253720487202
 20
16.19349970223285
 30
0.0
 10
186.4803096055707
 20
16.20284992072595
 30
0.0
 10
186.4942065045051
 20
16.13841207371837
 30
0.0
 10
186.4858414431655
 20
16.07378219627399
 30
0.0
 10
186.49036321784
 20
15.97529141193887
 30
0.0
 10
186.4854741311168
 20
15.8759593284257
 30
0.0
 10
186.4950258992082
 20
15.81293115552968
 30
0.0
 10
186.4799761455201
 20
15.74964011499788
 30
0.0
 10
186.5449159457209
 20
15.76515072944268
 30
0.0
 10
186.6116246399498
 20
15.75499387697813
 30
0.0
 10
186.7241435470827
 20
15.75988800099367
 30
0.0
 10
186.8390235448955
 20
15.75691204732784
 30
0.0
 10
186.9519871999747
 20
15.76221664184991
 30
0.0
 10
187.0176267597678
 20
15.75107306472089
 30
0.0
 10
187.0816276691054
 20
15.76744532319857
 30
0.0
 10
187.070314288919
 20
15.71761689905274
 30
0.0
 10
187.0775339871511
 20
15.67416715212123
 30
0.0
 10
187.070314261127
 20
15.63071745587445
 30
0.0
 10
187.0816277175995
 20
15.58088895196876
 30
0.0
 10
187.0176263598972
 20
15.59726166091362
 30
0.0
 10
186.9519921240461
 20
15.58611271661588
 30
0.0
 10
186.8389974317331
 20
15.59144857206854
 30
0.0
 10
186.7242456548644
 20
15.58834345663822
 30
0.0
 10
186.6113183686861
 20
15.59364894682588
 30
0.0
 10
186.5455220903585
 20
15.58257300019594
 30
0.0
 10
186.4816097975358
 20
15.59887597847617
 30
0.0
 10
186.4936015165127
 20
15.54423524395742
 30
0.0
 10
186.4862104613007
 20
15.48854295047842
 30
0.0
 10
186.4892684841983
 20
15.3964968914057
 30
0.0
 10
186.4893422785684
 20
15.30179109873102
 30
0.0
 10
186.4860313578361
 20
15.20952782902266
 30
0.0
 10
186.4939505989903
 20
15.1543576873614
 30
0.0
 10
186.4815076611618
 20
15.10058169100137
 30
0.0
 10
186.5389116551633
 20
15.11453768862782
 30
0.0
 10
186.5994708140383
 20
15.10511457884228
 30
0.0
 10
186.7048680855081
 20
15.10942885928705
 30
0.0
 10
186.8204294070623
 20
15.10835504612032
 30
0.0
 10
186.9359688877797
 20
15.10725965900996
 30
0.0
 10
187.041418113084
 20
15.11162525770633
 30
0.0
 10
187.1018680471804
 20
15.10209426030673
 30
0.0
 10
187.1592837739108
 20
15.1161728960638
 30
0.0
 10
187.1477773876709
 20
15.06707153265684
 30
0.0
 10
187.1537566781748
 20
15.02564658018649
 30
0.0
 10
187.1520311050801
 20
14.97651677966695
 30
0.0
 10
187.152150012297
 20
14.94854428447607
 30
0.0
 10
187.1521871691832
 20
14.93980288195949
 30
0.0
 11
185.9857704961609
 21
15.75844135397705
 31
0.0
 11
186.0099436128282
 21
15.75844135397705
 31
0.0
 11
186.0703764044963
 21
15.75844135397705
 31
0.0
 11
186.1489390336649
 21
15.75844135397705
 31
0.0
 11
186.2275016628334
 21
15.75844135397705
 31
0.0
 11
186.2879344545015
 21
15.75844135397705
 31
0.0
 11
186.3121075711688
 21
15.75844135397705
 31
0.0
 11
186.3121075711688
 21
15.78541612620063
 31
0.0
 11
186.3121075711688
 21
15.85498264404039
 31
0.0
 11
186.3121075711688
 21
15.95010420924985
 31
0.0
 11
186.3121075711688
 21
16.05374412358256
 31
0.0
 11
186.3121075711688
 21
16.14886568879202
 31
0.0
 11
186.3121075711688
 21
16.21843220663178
 31
0.0
 11
186.3121075711688
 21
16.24540697885536
 31
0.0
 11
186.3360407604893
 21
16.243732131078
 31
0.0
 11
186.3931122119458
 21
16.23973826330121
 31
0.0
 11
186.4612297507811
 21
16.23497138885795
 31
0.0
 11
186.5183012022376
 21
16.23097752108117
 31
0.0
 11
186.5422343915581
 21
16.22930267330381
 31
0.0
 11
186.527497273123
 21
16.2055629337264
 31
0.0
 11
186.4886640249977
 21
16.19183767331312
 31
0.0
 11
186.4886640249977
 21
16.15973424225119
 31
0.0
 11
186.4886640249977
 21
16.07947566459636
 31
0.0
 11
186.4886640249977
 21
15.97513951364509
 31
0.0
 11
186.4886640249977
 21
15.87080336269381
 31
0.0
 11
186.4886640249977
 21
15.79054478503898
 31
0.0
 11
186.4886640249977
 21
15.75844135397705
 31
0.0
 11
186.5211207110825
 21
15.75844135397705
 31
0.0
 11
186.6048247962486
 21
15.75844135397705
 31
0.0
 11
186.7192773208635
 21
15.75844135397705
 31
0.0
 11
186.8439793252947
 21
15.75844135397705
 31
0.0
 11
186.9584318499095
 21
15.75844135397705
 31
0.0
 11
187.0421359350757
 21
15.75844135397705
 31
0.0
 11
187.0745926211605
 21
15.75844135397705
 31
0.0
 11
187.0745926211605
 21
15.73210566604961
 31
0.0
 11
187.0745926211605
 21
15.67416715260924
 31
0.0
 11
187.0745926211605
 21
15.61622863916888
 31
0.0
 11
187.0745926211605
 21
15.58989295124144
 31
0.0
 11
187.0421359350757
 21
15.58989295124144
 31
0.0
 11
186.9584318499095
 21
15.58989295124144
 31
0.0
 11
186.8439793252947
 21
15.58989295124144
 31
0.0
 11
186.7192773208635
 21
15.58989295124144
 31
0.0
 11
186.6048247962486
 21
15.58989295124144
 31
0.0
 11
186.5211207110825
 21
15.58989295124144
 31
0.0
 11
186.4886640249977
 21
15.58989295124144
 31
0.0
 11
186.4886640249977
 21
15.56321863152022
 31
0.0
 11
186.4886640249977
 21
15.49442696487075
 31
0.0
 11
186.4886640249977
 21
15.40036489006434
 31
0.0
 11
186.4886640249977
 21
15.29787934587228
 31
0.0
 11
186.4886640249977
 21
15.20381727106587
 31
0.0
 11
186.4886640249977
 21
15.1350256044164
 31
0.0
 11
186.4886640249977
 21
15.10835128469518
 31
0.0
 11
186.5171747850994
 21
15.10835128469518
 31
0.0
 11
186.5923395162767
 21
15.10835128469518
 31
0.0
 11
186.6986068948377
 21
15.10835128469518
 31
0.0
 11
186.8204255970905
 21
15.10835128469518
 31
0.0
 11
186.9422442993433
 21
15.10835128469518
 31
0.0
 11
187.0485116779042
 21
15.10835128469518
 31
0.0
 11
187.1236764090815
 21
15.10835128469518
 31
0.0
 11
187.1521871691832
 21
15.10835128469518
 31
0.0
 11
187.1521871691832
 21
15.08201559676773
 31
0.0
 11
187.1521871691832
 21
15.02407708332734
 31
0.0
 11
187.1521871691832
 21
14.96613856988694
 31
0.0
 11
187.1521871691832
 21
14.93980288195949
 31
0.0
  0
SPLINE
  5
B0
102
{ACAD_REACTORS
330
CB
102
}
330
48
100
AcDbEntity
  8
_U_30EC_U_30A4_U_30E4_U_30FC_1
  6
Continuous
 62
     2
100
AcDbSpline
210
0.0
220
0.0
230
1.0
 70
     8
 71
     3
 72
    24
 73
    20
 74
    18
 42
0.000000001
 43
0.0000000001
 44
0.00000001
 40
0.0
 40
0.0
 40
0.0
 40
0.0
 40
0.2211075008753867
 40
0.4273218586245223
 40
0.5080174679239233
 40
0.5914835907871192
 40
0.8143265690193628
 40
1.054651302686672
 40
1.295452694023269
 40
1.518109231328933
 40
1.540864321905549
 40
1.59512646062281
 40
1.659890947896123
 40
1.714153085187509
 40
1.736908174961782
 40
1.764951100735504
 40
1.801562291221039
 40
1.953914424543728
 40
2.126104167379813
 40
2.126104167379813
 40
2.126104167379813
 40
2.126104167379813
 10
185.937536955689
 20
15.58989295113015
 30
0.0
 10
185.9112579081813
 20
15.53097628234373
 30
0.0
 10
185.8604698894426
 20
15.41711139679259
 30
0.0
 10
185.8131784839111
 20
15.14441958233114
 30
0.0
 10
185.7043482802619
 20
15.24445482575458
 30
0.0
 10
185.5514800279636
 20
15.27118593367324
 30
0.0
 10
185.7686155181199
 20
15.48518135017633
 30
0.0
 10
185.7838483674381
 20
15.70332117782487
 30
0.0
 10
185.8906889492001
 20
15.88451579066425
 30
0.0
 10
185.8305380947078
 20
16.16913226311403
 30
0.0
 10
185.9334317395403
 20
16.1411408922245
 30
0.0
 10
185.977993346815
 20
16.13243251602299
 30
0.0
 10
186.0380842395397
 20
16.12139654183354
 30
0.0
 10
186.0756619587439
 20
16.10767523055561
 30
0.0
 10
186.1252466928607
 20
16.1075607616022
 30
0.0
 10
186.0930158919326
 20
16.07306592398627
 30
0.0
 10
186.0171802221882
 20
16.08404104537956
 30
0.0
 10
186.0429447159693
 20
15.89858969582453
 30
0.0
 10
186.005589676385
 20
15.8070231354959
 30
0.0
 10
185.9857704961609
 20
15.75844135397705
 30
0.0
 11
185.937536955689
 21
15.58989295113015
 31
0.0
 11
185.8616471328553
 21
15.38221708318559
 31
0.0
 11
185.7717402238434
 21
15.19663392356192
 31
0.0
 11
185.7011493923111
 21
15.23573272563551
 31
0.0
 11
185.6245525192651
 21
15.2688916318772
 31
0.0
 11
185.7214026947455
 21
15.46958801203538
 31
0.0
 11
185.7994641467471
 21
15.69688163177024
 31
0.0
 11
185.858971692972
 21
15.93021436608691
 31
0.0
 11
185.9001601511227
 21
16.14902808999054
 31
0.0
 11
185.9224183822215
 21
16.14429889221395
 31
0.0
 11
185.9754957025341
 21
16.13302157443899
 31
0.0
 11
186.0388460525845
 21
16.11956154999792
 31
0.0
 11
186.0919233728971
 21
16.10828423222296
 31
0.0
 11
186.1141816039959
 21
16.10355503444637
 31
0.0
 11
186.0964097157461
 21
16.0818625084101
 31
0.0
 11
186.0606122998072
 21
16.07418628445367
 31
0.0
 11
186.028195330148
 21
15.92532288171314
 31
0.0
 11
185.9857704961609
 21
15.75844135397705
 31
0.0
  0
LWPOLYLINE
  5
B1
102
{ACAD_REACTORS
330
CC
102
}
330
48
100
AcDbEntity
  8
_U_30EC_U_30A4_U_30E4_U_30FC_1
  6
Continuous
 62
     2
100
AcDbPolyline
 90
        5
 70
     1
 43
0.0
 10
191.1602971697031
 20
15.39722336795624
 10
192.4578138032672
 20
15.39722336795624
 10
192.4578138032672
 20
15.22875434022058
 10
191.1602971697031
 20
15.22875434022058
 10
191.1602971697031
 20
15.39722336795624
  0
MTEXT
  5
B3
330
48
100
AcDbEntity
  8
1
 62
   250
100
AcDbMText
 10
25.0
 20
5.0
 30
0.0
 40
3.5
 41
0.0
 71
     4
 72
     1
  1
備考欄の文字列 原点位置=4
  7
CONVERTER_11
 73
     1
 44
0.54545454545455
  0
MTEXT
  5
B4
330
48
100
AcDbEntity
  8
1
 62
     2
100
AcDbMText
 10
89.50000000000006
 20
24.0
 30
0.0
 40
3.5
 41
0.0
 71
     5
 72
     1
  1
尺度
  7
CONVERTER_11
 73
     1
 44
0.54545454545455
  0
MTEXT
  5
B5
330
48
100
AcDbEntity
  8
1
 62
     2
100
AcDbMText
 10
135.5000000000001
 20
25.0
 30
0.0
 40
3.0
 41
0.0
 71
     5
 72
     1
  1
製図
  7
CONVERTER_11
 73
     1
 44
0.59090909090909
  0
MTEXT
  5
B6
330
48
100
AcDbEntity
  8
1
 62
     2
100
AcDbMText
 10
152.5000000000001
 20
25.0
 30
0.0
 40
3.0
 41
0.0
 71
     5
 72
     1
  1
設計
  7
CONVERTER_11
 73
     1
 44
0.59090909090909
  0
MTEXT
  5
B7
330
48
100
AcDbEntity
  8
1
 62
     2
100
AcDbMText
 10
118.5000000000001
 20
25.0
 30
0.0
 40
3.0
 41
0.0
 71
     5
 72
     1
  1
検図
  7
CONVERTER_11
 73
     1
 44
0.59090909090909
  0
MTEXT
  5
B8
330
48
100
AcDbEntity
  8
1
 62
     2
100
AcDbMText
 10
175.0000000000001
 20
23.5
 30
0.0
 40
3.5
 41
0.0
 71
     5
 72
     1
  1
第三角法
  7
CONVERTER_11
 73
     1
 44
0.54545454545455
  0
MTEXT
  5
B9
330
48
100
AcDbEntity
  8
1
 62
     2
100
AcDbMText
 10
101.5000000000001
 20
25.0
 30
0.0
 40
3.0
 41
0.0
 71
     5
 72
     1
  1
承認
  7
CONVERTER_11
 73
     1
 44
0.59090909090909
  0
MTEXT
  5
BA
330
48
100
AcDbEntity
  8
1
 62
     2
100
AcDbMText
 10
29.0
 20
14.25
 30
0.0
 40
3.5
 41
0.0
 71
     5
 72
     1
  1
品番
  7
CONVERTER_11
 73
     1
 44
0.72727272727273
  0
MTEXT
  5
BB
330
48
100
AcDbEntity
  8
1
 62
     2
100
AcDbMText
 10
29.0
 20
22.75
 30
0.0
 40
3.5
 41
0.0
 71
     5
 72
     1
  1
品名
  7
CONVERTER_11
 73
     1
 44
0.72727272727273
  0
MTEXT
  5
BC
330
48
100
AcDbEntity
  8
1
 62
     2
100
AcDbMText
 10
29.0
 20
34.0
 30
0.0
 40
3.5
 41
0.0
 71
     5
 72
     1
  1
備考
  7
CONVERTER_11
 73
     1
 44
0.45454545454545
  0
MTEXT
  5
BD
330
48
100
AcDbEntity
  8
1
 62
     2
100
AcDbMText
 10
32.5
 20
282.0000000000003
 30
0.0
 40
5.0
 41
0.0
 71
     5
 72
     1
  1
図番
  7
CONVERTER_11
 73
     1
 44
0.45454545454545
  0
HATCH
  5
BE
330
48
100
AcDbEntity
  8
1
  6
Continuous
 62
     2
100
AcDbHatch
 10
0.0
 20
0.0
 30
0.0
210
0.0
220
0.0
230
1.0
  2
CUSTOM0
 70
     0
 71
     1
 91
        1
 92
        1
 93
        1
 72
     4
 94
        3
 73
     0
 74
     0
 95
       99
 96
       95
 40
0.0
 40
0.0
 40
0.0
 40
0.0
 40
0.0796417172272862
 40
0.1621768542356609
 40
0.2486489160958024
 40
0.3404969668524463
 40
0.4381912511164761
 40
0.5434463660245629
 40
0.6518115192847382
 40
0.7530190937886683
 40
0.8492196919725469
 40
0.9419290312998009
 40
1.034249663570067
 40
1.129078600620193
 40
1.226697027573239
 40
1.327220425421708
 40
1.470572134938027
 40
1.595489863371246
 40
1.719934125348371
 40
1.850576620127466
 40
1.989059629987298
 40
2.134139054226865
 40
2.280698007207207
 40
2.424529739039524
 40
2.565929576985849
 40
2.708239260773576
 40
2.86171788744366
 40
3.045168540347364
 40
3.183798301138613
 40
3.314813961455469
 40
3.442083470447305
 40
3.569912708372847
 40
3.70217751250936
 40
3.842307559659553
 40
3.992872223245874
 40
4.156750662218377
 40
4.310981861107599
 40
4.445859909322616
 40
4.572393936131556
 40
4.701656719781932
 40
4.76827908600842
 40
4.835960697898354
 40
4.91278891872928
 40
5.006285208481461
 40
5.026909478751594
 40
5.047533749021215
 40
5.101808031471285
 40
5.162325165538567
 40
5.226919745995902
 40
5.294231806596681
 40
5.36454485255485
 40
5.438319055467971
 40
5.517877651324252
 40
5.607647714861621
 40
5.700449642544467
 40
5.788251142364198
 40
5.87271470603983
 40
5.955167292575345
 40
6.037192395190398
 40
6.120669181469117
 40
6.206848616686356
 40
6.296680855416778
 40
6.44255839287259
 40
6.568190371608265
 40
6.69290456736035
 40
6.824220446557198
 40
6.963121850329408
 40
7.107843738851249
 40
7.253431663907334
 40
7.395187468036682
 40
7.533140753237738
 40
7.670550457175226
 40
7.816236511769266
 40
7.987691657359224
 40
8.142277421969265
 40
8.293662615415
 40
8.442962460879277
 40
8.591598316185353
 40
8.743678992361785
 40
8.903725323699144
 40
9.07630700889049
 40
9.26557860468063
 40
9.45920379536072
 40
9.617619810273478
 40
9.753609671361913
 40
9.874873300004108
 40
9.954520184977811
 40
10.0241641371925
 40
10.09769764405449
 40
10.18909955924977
 40
10.20974586420133
 40
10.23039218263373
 40
10.30057101881257
 40
10.37632012987539
 40
10.37632012987539
 40
10.37632012987539
 40
10.37632012987539
 10
170.1465954835851
 20
14.13795663215994
 10
170.1632217851219
 20
14.11720608845313
 10
170.1970784206577
 20
14.07495111711901
 10
170.2599822541037
 20
14.02029811392073
 10
170.3332500940393
 20
13.97299025121051
 10
170.4175969238636
 20
13.93527231437933
 10
170.513224061546
 20
13.91040619731951
 10
170.6171853775346
 20
13.90309559345937
 10
170.7224020220405
 20
13.91142322794053
 10
170.8206626371333
 20
13.94149179651531
 10
170.9058986427549
 20
13.98848822971872
 10
170.9779220206103
 20
14.04952991250861
 10
171.0350917709097
 20
14.12412969578579
 10
171.076786874744
 20
14.21002464660176
 10
171.1026952846292
 20
14.30485850432211
 10
171.1118037332654
 20
14.41854979038367
 10
171.0986864796487
 20
14.54332587770781
 10
171.0325330334414
 20
14.66014719171887
 10
170.936937091957
 20
14.74512539577379
 10
170.8249681022369
 20
14.81416684459158
 10
170.699365958327
 20
14.8720414204589
 10
170.5656691620857
 20
14.92373723284343
 10
170.4313122818831
 20
14.97899092397182
 10
170.3051983986877
 20
15.04939770641645
 10
170.1926579987535
 20
15.13785540731254
 10
170.0969963064457
 20
15.24981067868467
 10
170.0334157151827
 20
15.39949910101386
 10
170.0200706505016
 20
15.55932794385141
 10
170.0320510987449
 20
15.71048405306846
 10
170.0712298928842
 20
15.83809244591538
 10
170.1354987750911
 20
15.95080874030839
 10
170.2238204999739
 20
16.04648609268697
 10
170.3338091207628
 20
16.12354214985748
 10
170.4632284401265
 20
16.18151396936276
 10
170.6111838967794
 20
16.21739177588825
 10
170.7682069455487
 20
16.22746719050563
 10
170.9174940466431
 20
16.21863637762591
 10
171.0596253614171
 20
16.19074899340353
 10
171.1595922609625
 20
16.13413314701137
 10
171.3125074736185
 20
16.08674602105506
 10
171.2455131717168
 20
16.00197553001185
 10
171.2296479120268
 20
15.93438901873485
 10
171.1978750531297
 20
15.8692609279319
 10
171.2150202209572
 20
15.76723453256952
 10
171.1666427208232
 20
15.77493211681903
 10
171.1315789440766
 20
15.76806771724806
 10
171.1296697985717
 20
15.83263831158195
 10
171.0985692931989
 20
15.87825639621397
 10
171.0664551628456
 20
15.93561036628448
 10
171.0208038475169
 20
15.98540462692565
 10
170.9658508218387
 20
16.02994813718996
 10
170.9010841173007
 20
16.06763988836547
 10
170.8232377310597
 20
16.09283375791354
 10
170.7355160553352
 20
16.0993123099811
 10
170.6452903277807
 20
16.09235709285608
 10
170.5594594694064
 20
16.06909190460921
 10
170.4828343638596
 20
16.03131644107545
 10
170.4165265636201
 20
15.98051641089575
 10
170.3622560536965
 20
15.91731143407209
 10
170.322492534546
 20
15.84276455710367
 10
170.2976775510589
 20
15.75917313997763
 10
170.2892124262871
 20
15.65192948382286
 10
170.3019697987104
 20
15.5296545726756
 10
170.3681548409273
 20
15.41149724291211
 10
170.4640977399832
 20
15.32606325709524
 10
170.5757914963183
 20
15.25583362306725
 10
170.7010863668703
 20
15.19659162305301
 10
170.8349823941448
 20
15.14616708086134
 10
170.968993033315
 20
15.09322516984383
 10
171.0950885316915
 20
15.02750170625173
 10
171.2076216638417
 20
14.94480352537322
 10
171.3031370284233
 20
14.83996006310073
 10
171.3672706486964
 20
14.69937117251572
 10
171.3811103725278
 20
14.54065409451592
 10
171.3673954712229
 20
14.38153155217876
 10
171.3244739153986
 20
14.23483828819208
 10
171.2545906329066
 20
14.10119796587139
 10
171.1574592213829
 20
13.98532387699296
 10
171.0347806023658
 20
13.89089981770086
 10
170.8874408413168
 20
13.82179270651981
 10
170.7177132497124
 20
13.77953210858852
 10
170.5317404979598
 20
13.76781736230408
 10
170.3528955926183
 20
13.77809486683437
 10
170.1881733753745
 20
13.81966573769156
 10
170.0834410841056
 20
13.8879764288394
 10
169.9350960790365
 20
13.93675219032104
 10
169.9980378194729
 20
14.02976591290843
 10
170.0072274430061
 20
14.10296536248278
 10
170.0303711301231
 20
14.16936294501347
 10
170.0034588335318
 20
14.26974809527579
 10
170.0521338956339
 20
14.26234033517379
 10
170.0916530580697
 20
14.26894063620894
 10
170.0996204944701
 20
14.19078703218929
 10
170.1305436967923
 20
14.15600927375856
 10
170.1465954835851
 20
14.13795663215994
 97
        1
330
A0
 75
     1
 76
     2
 52
45.0
 41
0.1
 77
     0
 78
     1
 53
45.0
 43
0.0
 44
0.0
 45
-0.282842712474619
 46
0.0
 79
     0
 98
        1
 10
0.0
 20
0.0
  0
HATCH
  5
BF
330
48
100
AcDbEntity
  8
1
  6
Continuous
 62
     2
100
AcDbHatch
 10
0.0
 20
0.0
 30
0.0
210
0.0
220
0.0
230
1.0
  2
CUSTOM1
 70
     0
 71
     1
 91
        2
 92
        1
 93
        1
 72
     4
 94
        3
 73
     0
 74
     0
 95
       57
 96
       53
 40
0.0
 40
0.0
 40
0.0
 40
0.0
 40
0.0471632082810078
 40
0.0914861054632998
 40
0.1357762519702665
 40
0.1826527001611528
 40
0.2295203288573153
 40
0.2737751972222459
 40
0.3181310461544201
 40
0.365260719839851
 40
0.4571007286314522
 40
0.5671851029165462
 40
0.6894623283868448
 40
0.818175827254614
 40
0.9510087229273883
 40
1.085852229674041
 40
1.218126164475309
 40
1.343545131142369
 40
1.454537202956814
 40
1.567187607530879
 40
1.680710966642413
 40
1.794226869736862
 40
1.900009184247605
 40
2.004085860448055
 40
2.108162674451858
 40
2.214000150155288
 40
2.496038577352156
 40
2.762350745479295
 40
2.997275353279405
 40
3.185110082137705
 40
3.246407890063988
 40
3.312607550212776
 40
3.378877742711678
 40
3.440140399651419
 40
4.100501696006406
 40
4.754913085563448
 40
5.411331693423866
 40
6.077890432568671
 40
6.11057529267095
 40
6.14326015277573
 40
6.3679893633951
 40
6.610525374951508
 40
6.863389136467271
 40
7.119380025547574
 40
7.37603660509104
 40
7.631164770966224
 40
7.876722425456365
 40
8.10495373585584
 40
8.312916685924215
 40
8.497730294941261
 40
8.651018984313813
 40
8.764738853624536
 40
8.764738853624536
 40
8.764738853624536
 40
8.764738853624536
 10
174.7922649500514
 20
13.81626739612928
 10
174.7766616726932
 20
13.81826231079079
 10
174.7463947960302
 20
13.82213201360299
 10
174.7010994202252
 20
13.82341984967269
 10
174.6559553129348
 20
13.82308683554051
 10
174.60990171234
 20
13.82314658674225
 10
174.5640496172095
 20
13.82325813650002
 10
174.5183711648165
 20
13.82277833456592
 10
174.4750811541608
 20
13.82461109618721
 10
174.4039947951514
 20
13.80049556814661
 10
174.4057477261441
 20
13.92184693977252
 10
174.358619637057
 20
14.00726239751232
 10
174.3191478251762
 20
14.12486929345137
 10
174.2706635532645
 20
14.24232752540436
 10
174.2201017402523
 20
14.3640593576151
 10
174.1718634610477
 20
14.49075967862466
 10
174.1135232947595
 20
14.5993368778495
 10
174.0980892667262
 20
14.75620657134411
 10
173.9566586330636
 20
14.72373446548321
 10
173.8508397414904
 20
14.7351288868218
 10
173.7358569725222
 20
14.73392591514616
 10
173.6253142252141
 20
14.73506945347408
 10
173.5176583522783
 20
14.73418350037526
 10
173.4121322529242
 20
14.73416602390519
 10
173.3109192682012
 20
14.72714032472415
 10
173.1266804827754
 20
14.75135859859864
 10
173.1157393685411
 20
14.44741691121886
 10
173.0087691634749
 20
14.22353177253398
 10
172.9098148604347
 20
14.03895314292496
 10
172.9225090524008
 20
13.79530204804206
 10
172.8050091716397
 20
13.82508046753198
 10
172.742205586831
 20
13.82258089509604
 10
172.67858720934
 20
13.82344075102806
 10
172.3946014194075
 20
13.78098039941946
 10
173.0251638499382
 20
14.50081952444789
 10
173.1087645289071
 20
15.01276539435731
 10
173.4929252789338
 20
15.53353743550042
 10
173.4777208288569
 20
16.23519626253216
 10
173.7239265722698
 20
16.22345633081256
 10
173.8256346157563
 20
16.23225004452773
 10
173.8249752035818
 20
15.98059650730344
 10
173.9428317155829
 20
15.79818020733959
 10
174.0315515260485
 20
15.55563740662864
 10
174.132229248526
 20
15.32340030530128
 10
174.2311142712244
 20
15.08674644566912
 10
174.3299676990669
 20
14.8546173917009
 10
174.4256166390927
 20
14.63122222788793
 10
174.515990457327
 20
14.42272549049312
 10
174.5989944568189
 20
14.2330844852932
 10
174.67260885828
 20
14.06663106068101
 10
174.7342815895546
 20
13.92917699626097
 10
174.7749458885605
 20
13.84999239430034
 10
174.7922649500514
 20
13.81626739612928
 97
        1
330
A1
 92
       16
 93
        1
 72
     4
 94
        3
 73
     0
 74
     0
 95
       25
 96
       21
 40
0.0
 40
0.0
 40
0.0
 40
0.0
 40
0.0911479969064537
 40
0.1858117896204953
 40
0.2804128399734207
 40
0.3715889190713658
 40
0.4679080494217855
 40
0.5642683809228378
 40
0.6605683222644707
 40
0.7569653015809403
 40
0.8561348172521887
 40
1.092615965104196
 40
1.374867658141778
 40
1.61134881201147
 40
1.71051832842513
 40
1.809403163726437
 40
2.045205463293962
 40
2.326646917622011
 40
2.562449217190484
 40
2.661334043833792
 40
2.661334043833792
 40
2.661334043833792
 40
2.661334043833792
 10
173.26837005672
 20
14.88614538197292
 10
173.2987525917923
 20
14.88598079714554
 10
173.3606895889112
 20
14.88564528689922
 10
173.4541356960331
 20
14.88269055451998
 10
173.5475095236357
 20
14.87977752877151
 10
173.6417760753477
 20
14.87894201643417
 10
173.7354964790967
 20
14.87996644658046
 10
173.8352040303205
 20
14.87916977470972
 10
173.9188949546312
 20
14.88921410235219
 10
174.0637996315045
 20
14.86234617674167
 10
173.93961324448
 20
15.03665530280048
 10
173.8965867286283
 20
15.19651711006092
 10
173.780892214221
 20
15.45518458550213
 10
173.7017565431258
 20
15.5923105286186
 10
173.6431576621816
 20
15.80937033134077
 10
173.586480393944
 20
15.59266134213426
 10
173.5052809900477
 20
15.45327012438239
 10
173.4063701281489
 20
15.20406969370192
 10
173.3253625094259
 20
15.01925830226075
 10
173.2813683325839
 20
14.91650446856117
 10
173.26837005672
 20
14.88614538197292
 97
        1
330
A2
 75
     1
 76
     2
 52
45.0
 41
0.1
 77
     0
 78
     1
 53
45.0
 43
0.0
 44
0.0
 45
-0.282842712474619
 46
0.0
 79
     0
 98
        1
 10
0.0
 20
0.0
  0
HATCH
  5
C0
330
48
100
AcDbEntity
  8
1
  6
Continuous
 62
     2
100
AcDbHatch
 10
0.0
 20
0.0
 30
0.0
210
0.0
220
0.0
230
1.0
  2
CUSTOM2
 70
     0
 71
     1
 91
        1
 92
        1
 93
        1
 72
     4
 94
        3
 73
     0
 74
     0
 95
       95
 96
       91
 40
0.0
 40
0.0
 40
0.0
 40
0.0
 40
0.6550406656910706
 40
1.308087289031874
 40
1.420803739835745
 40
1.566130759770752
 40
1.75706734188841
 40
2.006513545026412
 40
2.0873282631215
 40
2.185328872295573
 40
2.294612454748308
 40
2.408936380534759
 40
2.526802767798505
 40
2.646360524615552
 40
2.762535723971523
 40
2.870057342870095
 40
2.966883448431589
 40
3.05080324351824
 40
3.115818222436548
 40
3.156030057150177
 40
3.213914225080079
 40
3.276689026450395
 40
3.3429603209812
 40
3.404230667150506
 40
3.453822809493305
 40
3.532499827188379
 40
3.634775188507101
 40
3.754909333008104
 40
3.889736761660599
 40
4.035769602175163
 40
4.187256681197549
 40
4.338733685675895
 40
4.488478734676051
 40
4.634708317831527
 40
4.771493189921214
 40
4.892686571561152
 40
5.199775528944389
 40
5.460353566929578
 40
5.667603142345453
 40
5.814722905404429
 40
5.828990806219756
 40
5.855488336304368
 40
5.869756237118671
 40
6.189796507762715
 40
6.531890469872871
 40
6.883053637016857
 40
7.230512024911405
 40
7.566966656764512
 40
7.885203559707339
 40
8.172887439719103
 40
8.418011594062616
 40
8.443926721190538
 40
8.510760470613025
 40
8.602145393795535
 40
8.701714041646976
 40
8.793098965075206
 40
8.859932715057779
 40
8.885847842603429
 40
9.242301256612647
 40
9.589275455016598
 40
9.921808543164005
 40
10.23479624298451
 40
10.29968150889179
 40
10.3532349388777
 40
10.40154625355146
 40
10.46482922477819
 40
10.55973900668399
 40
10.69239545985611
 40
10.84920353475665
 40
11.01626328594773
 40
11.18672024367437
 40
11.35372582577205
 40
11.5025744229242
 40
11.61866495023285
 40
11.71329869152868
 40
11.82511050573901
 40
11.9446488084571
 40
12.069292426425
 40
12.1970729043517
 40
12.32562632860523
 40
12.45034565331273
 40
12.56646595170322
 40
12.67099007414629
 40
12.76077625936777
 40
12.82703233506688
 40
12.87429132785987
 40
12.89831990323326
 40
12.92234847860015
 40
13.53984767410313
 40
14.18294284359366
 40
14.18294284359366
 40
14.18294284359366
 40
14.18294284359366
 10
177.306793564802
 20
14.70898038201725
 10
177.175201975855
 20
14.82265058603233
 10
176.9124193802729
 20
15.04964496316164
 10
176.399739344102
 20
15.89214462956289
 10
176.4106654595363
 20
15.53423377577019
 10
176.4041226527992
 20
15.39267392272132
 10
176.4028026631772
 20
15.1942130529928
 10
176.4018117602538
 20
15.02150296045983
 10
176.4024101751974
 20
14.87865373257579
 10
176.4038994301882
 20
14.78265005413358
 10
176.4055683588472
 20
14.67545503263141
 10
176.4071934954619
 20
14.56164211517582
 10
176.4092429501686
 20
14.44441572604589
 10
176.4123165501926
 20
14.3265641123297
 10
176.4156339697043
 20
14.2122808732062
 10
176.4193605340281
 20
14.10521401867278
 10
176.4217338161424
 20
14.01007408766921
 10
176.4278718888357
 20
13.92558557205696
 10
176.4239784495946
 20
13.86923087298142
 10
176.4455230443077
 20
13.79825022472357
 10
176.3680940058618
 20
13.82902677604482
 10
176.3116353240191
 20
13.82011242517614
 10
176.2540495896808
 20
13.82896218398276
 10
176.1690163478473
 20
13.79738225225944
 10
176.2009714146382
 20
13.88095155992191
 10
176.199070528254
 20
13.94882608968309
 10
176.2107960047299
 20
14.05233256764419
 10
176.2164241053001
 20
14.17002125616694
 10
176.223790217894
 20
14.30388609164424
 10
176.2320759701611
 20
14.44764152872632
 10
176.2398851897427
 20
14.59714022843445
 10
176.2457571222658
 20
14.74792549402078
 10
176.2503667817968
 20
14.89699943878438
 10
176.2542632117544
 20
15.04122913163022
 10
176.2570715126565
 20
15.17583905213017
 10
176.2576698755023
 20
15.36469614347355
 10
176.2616023867151
 20
15.58975494313154
 10
176.2442175378497
 20
15.86367091125707
 10
176.2850417342584
 20
16.02787112098597
 10
176.1995153256
 20
16.22749661465096
 10
176.2660558907689
 20
16.22385458403978
 10
176.2838724273231
 20
16.22413447160854
 10
176.4056801797504
 20
16.22632927398613
 10
176.5080770335462
 20
15.94675118721518
 10
176.7580021509356
 20
15.74563008535999
 10
176.9870035331111
 20
15.47792614987913
 10
177.2245151213109
 20
15.22646413862379
 10
177.4486090740773
 20
14.98969974061358
 10
177.675071628301
 20
14.73218692583081
 10
177.8325687886515
 20
14.6164933505692
 10
178.0472129612673
 20
14.27997152538795
 10
178.0422645974619
 20
14.40464754091604
 10
178.0433931602546
 20
14.46327691935736
 10
178.0428877841516
 20
14.55043662371977
 10
178.0430475158113
 20
14.64416143182872
 10
178.0430054891318
 20
14.73018971297035
 10
178.0430202040373
 20
14.79153891945496
 10
178.0429706255983
 20
14.94135231520991
 10
178.0458811522811
 20
15.17989612510105
 10
178.0259521041161
 20
15.54486509868699
 10
178.0750433936248
 20
15.80799631993417
 10
177.9177951509179
 20
16.2192890494775
 10
178.0762112872421
 20
16.16398282551748
 10
178.1311680478629
 20
16.16199686500174
 10
178.1827887766741
 20
16.16264778248253
 10
178.2713198965366
 20
16.20369527738245
 10
178.2204898303168
 20
16.05696326622987
 10
178.2313389930283
 20
15.95019971954433
 10
178.2166036994848
 20
15.79085705414112
 10
178.2099976446205
 20
15.62853061652874
 10
178.2014961399916
 20
15.45992521892395
 10
178.1943227202198
 20
15.29814814703541
 10
178.1889063215389
 20
15.15422331457932
 10
178.1871713967649
 20
15.03437493466926
 10
178.1875440672319
 20
14.92686101590514
 10
178.1873656126263
 20
14.81820024645586
 10
178.187701086314
 20
14.6995357016553
 10
178.1890040622183
 20
14.57555163512741
 10
178.1908887351575
 20
14.44858294171105
 10
178.1925004454849
 20
14.32153861551031
 10
178.194140313743
 20
14.19854884492177
 10
178.1962570745752
 20
14.08300931383759
 10
178.1963848422364
 20
13.98090903955836
 10
178.2006514396554
 20
13.89009848838156
 10
178.1908440085289
 20
13.83213621208786
 10
178.2118474771689
 20
13.76517130132029
 10
178.1725639739897
 20
13.77291153966688
 10
177.9595307117743
 20
13.75755254145188
 10
177.7636297943187
 20
14.31403058094477
 10
177.4611197631544
 20
14.57556035348512
 10
177.306793564802
 20
14.70898038201725
 97
        1
330
A3
 75
     1
 76
     2
 52
45.0
 41
0.1
 77
     0
 78
     1
 53
45.0
 43
0.0
 44
0.0
 45
-0.282842712474619
 46
0.0
 79
     0
 98
        1
 10
0.0
 20
0.0
  0
HATCH
  5
C1
330
48
100
AcDbEntity
  8
1
  6
Continuous
 62
     2
100
AcDbHatch
 10
0.0
 20
0.0
 30
0.0
210
0.0
220
0.0
230
1.0
  2
CUSTOM3
 70
     0
 71
     1
 91
        1
 92
        1
 93
        1
 72
     4
 94
        3
 73
     0
 74
     0
 95
      110
 96
      106
 40
0.0
 40
0.0
 40
0.0
 40
0.0
 40
0.2203406257277714
 40
0.4407808782838093
 40
0.5952494494614787
 40
0.7488431659393074
 40
0.9023581831309344
 40
1.056801968670405
 40
1.210736449099933
 40
1.363041386539869
 40
1.515315729683155
 40
1.669377239148077
 40
1.721611652756556
 40
1.773199502942938
 40
1.824933793209983
 40
1.87711042648795
 40
1.982682281206684
 40
2.078781667087521
 40
2.172809640822186
 40
2.271937807378896
 40
2.378349933379289
 40
2.494131557736364
 40
2.626681683943555
 40
2.783145050795954
 40
2.890701232940809
 40
2.993130312454705
 40
3.099869730691693
 40
3.220237816691186
 40
3.352695482737476
 40
3.481732806389727
 40
3.593499473690257
 40
3.674323013331771
 40
3.81795171195272
 40
3.946167120793831
 40
4.06140505345346
 40
4.166480796003044
 40
4.262478775059166
 40
4.35073667355115
 40
4.433071991253979
 40
4.511216293814638
 40
4.564262454117968
 40
4.618474415571582
 40
4.670128488754188
 40
4.722296879126395
 40
4.819540945314321
 40
4.931194984128121
 40
5.049996040257819
 40
5.168643755415507
 40
5.283970811762662
 40
5.39226078491046
 40
5.486512254876478
 40
5.559178233949933
 40
5.591425852853593
 40
5.626215969637982
 40
5.667155838674511
 40
5.717449290214318
 40
5.738402360944932
 40
5.784499116553902
 40
5.830595872164875
 40
5.851548942897733
 40
5.873019280661848
 40
5.92421777840839
 40
5.985325662817769
 40
6.036524160567786
 40
6.057994498334314
 40
6.236847789607563
 40
6.38140992894574
 40
6.493190424178768
 40
6.57406753423058
 40
6.691018086205589
 40
6.814881554220592
 40
6.944307823240459
 40
7.071266716066083
 40
7.193488604461928
 40
7.309042773128155
 40
7.414007203170837
 40
7.505140441886537
 40
7.531150360599695
 40
7.55922164532229
 40
7.587202218920952
 40
7.612569159499157
 40
7.662550809481036
 40
7.702878875764154
 40
7.857328205230883
 40
8.0107995680885
 40
8.165256399657478
 40
8.322232698713902
 40
8.479564855016589
 40
8.635216230290792
 40
8.79088255092571
 40
8.948305154947276
 40
9.168271839032952
 40
9.387358980987237
 40
9.608047961033478
 40
9.832914234792671
 40
9.858338694963006
 40
9.925366817230014
 40
10.0201307142276
 40
10.12876249858998
 40
10.23739428295249
 40
10.33215817995191
 40
10.39918630222394
 40
10.42461076239783
 40
10.64992019336943
 40
10.87188524531188
 40
10.87188524531188
 40
10.87188524531188
 40
10.87188524531188
 10
179.9057788376618
 20
15.7392326039819
 10
179.9092864933542
 20
15.80616462073804
 10
179.9163033987663
 20
15.94005891915858
 10
179.8198027599072
 20
16.22548554971469
 10
180.0510134726109
 20
16.16284386190283
 10
180.1919290057156
 20
16.17001554055992
 10
180.3490417757588
 20
16.16235883078244
 10
180.5025913427288
 20
16.16252752283039
 10
180.6545104935081
 20
16.16182040535432
 10
180.8142214813232
 20
16.1721015835164
 10
180.9408972601118
 20
16.15496511080751
 10
181.137082112208
 20
16.22727260107146
 10
181.1034395279079
 20
16.12640699080116
 10
181.1052011317184
 20
16.0761925394767
 10
181.1027342073459
 20
16.02712335586466
 10
181.1347076966011
 20
15.94063490847
 10
181.0010399903256
 20
15.98997438608338
 10
180.9172208688057
 20
15.98430634314167
 10
180.8173861139324
 20
15.99465516706298
 10
180.7186576720146
 20
16.00086450411087
 10
180.6121532771111
 20
16.00697763816778
 10
180.491051169806
 20
16.01588883484585
 10
180.3703381502455
 20
16.00521605912383
 10
180.1812553843438
 20
16.06468503080366
 10
180.2129028505312
 20
15.9055832007754
 10
180.1995563316833
 20
15.80839128339904
 10
180.197495842645
 20
15.69634065110102
 10
180.195818804467
 20
15.5769968562935
 10
180.1973336794233
 20
15.4503259215511
 10
180.1956582478671
 20
15.32301588016117
 10
180.2058844271657
 20
15.22451566404463
 10
180.1779006596583
 20
15.0838870262563
 10
180.3508029999306
 20
15.13989551134097
 10
180.4645020202772
 20
15.12719951478496
 10
180.584015167224
 20
15.13448377051255
 10
180.6888491425072
 20
15.13878017056756
 10
180.7843084898612
 20
15.14330568258976
 10
180.8763823507033
 20
15.15149201146199
 10
180.9476551782439
 20
15.14643850638113
 10
181.0544931705687
 20
15.18536425031674
 10
181.0226603598036
 20
15.1051712200588
 10
181.0266164503929
 20
15.05562936846033
 10
181.0234502392014
 20
15.00557478039819
 10
181.0550791490586
 20
14.92128847612021
 10
180.9210133677692
 20
14.97425365495156
 10
180.82923227932
 20
14.96540080890441
 10
180.7079729189603
 20
14.97570049965155
 10
180.5914113119772
 20
14.97748911767502
 10
180.4783375745878
 20
14.97787017109694
 10
180.3679246308471
 20
14.98415449472181
 10
180.289812406784
 20
14.97189133255364
 10
180.1913625833644
 20
15.00453887616127
 10
180.201235517356
 20
14.94769748054205
 10
180.1973923244404
 20
14.91392130557983
 10
180.1966789884269
 20
14.87119604709411
 10
180.1963369642975
 20
14.83401607262153
 10
180.1963834255345
 20
14.79487237370771
 10
180.1963649429927
 20
14.75716849497686
 10
180.1963703431806
 20
14.71944955232402
 10
180.1963697214201
 20
14.6899432474515
 10
180.1963698151545
 20
14.65873577699301
 10
180.1963704287921
 20
14.61414424908085
 10
180.1963671499336
 20
14.5596395650885
 10
180.1963759623481
 20
14.51505540201448
 10
180.1963359653417
 20
14.4311780858574
 10
180.1976024270255
 20
14.31737520677678
 10
180.1950274117843
 20
14.16830395933709
 10
180.2065009381719
 20
14.06597203813905
 10
180.1823506222265
 20
13.93338903885837
 10
180.3332993946477
 20
13.97895732272022
 10
180.4428436671555
 20
13.96427012162349
 10
180.5733970473921
 20
13.96920435125062
 10
180.6990312209513
 20
13.97257705323363
 10
180.8188730625601
 20
13.97711497498772
 10
180.9391362611426
 20
13.99048536182005
 10
181.0222761663516
 20
13.98068712782594
 10
181.1456080421074
 20
14.04126214623318
 10
181.1244269203956
 20
13.9853246013402
 10
181.1235950270115
 20
13.95939249372347
 10
181.1218963707558
 20
13.93197256190938
 10
181.121797488883
 20
13.89738195206386
 10
181.120365930133
 20
13.86050408220768
 10
181.1532804192189
 20
13.7684684102181
 10
180.9551306988108
 20
13.84132015974832
 10
180.8300548294891
 20
13.81825726508606
 10
180.6673071295156
 20
13.82454021985787
 10
180.5129366450001
 20
13.82260943909927
 10
180.3566670436943
 20
13.82393762599269
 10
180.1970544465283
 20
13.82059872487863
 10
180.0540326342237
 20
13.83265795728241
 10
179.8197144881628
 20
13.76952001976919
 10
179.9173810751197
 20
14.05620527466318
 10
179.9006868780058
 20
14.24988308142661
 10
179.9146296709686
 20
14.47848242880295
 10
179.9142987846633
 20
14.63384593955049
 10
179.9143078119264
 20
14.73966336444125
 10
179.9143055876316
 20
14.80205784124214
 10
179.914306555189
 20
14.89220425248327
 10
179.9143065473262
 20
14.99621167157438
 10
179.9143053861104
 20
15.10022131375296
 10
179.9143090971502
 20
15.19036243688768
 10
179.9143011051052
 20
15.25276803097215
 10
179.9143334275019
 20
15.35868835961119
 10
179.913144078832
 20
15.5162671654474
 10
179.9082216489257
 20
15.66528219822066
 10
179.9057788376618
 20
15.7392326039819
 97
        1
330
A4
 75
     1
 76
     2
 52
45.0
 41
0.1
 77
     0
 78
     1
 53
45.0
 43
0.0
 44
0.0
 45
-0.282842712474619
 46
0.0
 79
     0
 98
        1
 10
0.0
 20
0.0
  0
HATCH
  5
C2
330
48
100
AcDbEntity
  8
1
  6
Continuous
 62
     2
100
AcDbHatch
 10
0.0
 20
0.0
 30
0.0
210
0.0
220
0.0
230
1.0
  2
CUSTOM4
 70
     0
 71
     1
 91
        1
 92
        1
 93
        1
 72
     4
 94
        3
 73
     0
 74
     0
 95
       47
 96
       43
 40
0.0
 40
0.0
 40
0.0
 40
0.0
 40
0.2207912809957201
 40
0.4459404186303043
 40
0.4902387190458977
 40
0.5327473892721926
 40
0.5742260451224971
 40
0.6155432630559696
 40
0.6568164066314615
 40
0.6982511618779542
 40
0.7407663929315483
 40
0.7851366743175231
 40
1.010288833836327
 40
1.231080507002181
 40
1.451765243652408
 40
1.676638205891692
 40
1.720461045359662
 40
1.830018144043527
 40
1.972442372353158
 40
2.114866600677527
 40
2.224423699395152
 40
2.268246538883393
 40
2.49362880120722
 40
2.715602830286621
 40
2.934211330706372
 40
3.149502369855367
 40
3.231387784851097
 40
3.318231873854161
 40
3.40514319819812
 40
3.486970301720472
 40
3.702258172493909
 40
3.920866283534134
 40
4.142839325931924
 40
4.368221903865384
 40
4.412044743359863
 40
4.521601842095879
 40
4.664026070452359
 40
4.806450298809067
 40
4.91600739754676
 40
4.959830237043083
 40
5.184703515847114
 40
5.405387250767488
 40
5.405387250767488
 40
5.405387250767488
 40
5.405387250767488
 10
182.6507427258646
 20
15.73406440953872
 10
182.6568139420003
 20
15.7975848250121
 10
182.6690762107243
 20
15.92587938689626
 10
182.5604706879413
 20
16.20166220174077
 10
182.6761985896605
 20
16.17188133432053
 10
182.7171842509016
 20
16.16765556262821
 10
182.7591205797519
 20
16.16310446389607
 10
182.800419662571
 20
16.16201982929484
 10
182.8417032115555
 20
16.16310338195227
 10
182.8836148270647
 20
16.16766112711343
 10
182.9245983549019
 20
16.1718743020973
 10
183.0404922843489
 20
16.20177611317532
 10
182.9295652727457
 20
15.92339806609894
 10
182.9574856365265
 20
15.74283140824951
 10
182.940426734697
 20
15.50961042346472
 10
182.9414637282102
 20
15.34906622543145
 10
182.9414099399405
 20
15.22284817558722
 10
182.9414277372481
 20
15.12428963336241
 10
182.941418858108
 20
14.99280702442963
 10
182.9414263928033
 20
14.86132844968649
 10
182.9414129405129
 20
14.7627622269409
 10
182.9414531717491
 20
14.63639735624152
 10
182.9406746403817
 20
14.4748206882287
 10
182.9565958319266
 20
14.24361821892914
 10
182.9333468885407
 20
14.05874351972001
 10
183.0360183444367
 20
13.78935602770054
 10
182.8820238362836
 20
13.82660112685818
 10
182.8004129802832
 20
13.82137994680535
 10
182.7188192292583
 20
13.82660620378351
 10
182.5648513666844
 20
13.78937069885389
 10
182.6674183421918
 20
14.05875129862881
 10
182.6442045316089
 20
14.24361585325414
 10
182.6600444655138
 20
14.47482218565638
 10
182.6593296313427
 20
14.63639712308503
 10
182.6593664569907
 20
14.76276231210521
 10
182.659354900027
 20
14.86132756635981
 10
182.6593575019214
 20
14.9928112741722
 10
182.6593648531779
 20
15.124275480312
 10
182.6593442541351
 20
15.22287786275326
 10
182.6594082192028
 20
15.34896149354427
 10
182.6581733947589
 20
15.51210091383771
 10
182.6532040396746
 20
15.6605418377755
 10
182.6507427258646
 20
15.73406440953872
 97
        1
330
A5
 75
     1
 76
     2
 52
45.0
 41
0.1
 77
     0
 78
     1
 53
45.0
 43
0.0
 44
0.0
 45
-0.282842712474619
 46
0.0
 79
     0
 98
        1
 10
0.0
 20
0.0
  0
HATCH
  5
C3
330
48
100
AcDbEntity
  8
1
  6
Continuous
 62
     2
100
AcDbHatch
 10
0.0
 20
0.0
 30
0.0
210
0.0
220
0.0
230
1.0
  2
CUSTOM5
 70
     0
 71
     1
 91
        1
 92
        1
 93
        1
 72
     4
 94
        3
 73
     0
 74
     0
 95
      118
 96
      114
 40
0.0
 40
0.0
 40
0.0
 40
0.0
 40
0.1054708162973597
 40
0.2466098270052614
 40
0.3965912874591966
 40
0.5285525069754722
 40
0.6156245055642788
 40
0.6431434105797946
 40
0.7036850037986496
 40
0.7642265984504586
 40
0.7917455052354905
 40
0.9287404319990326
 40
1.1065728190881
 40
1.287544879681146
 40
1.317578308030663
 40
1.399928030857302
 40
1.522968204800076
 40
1.675072986590697
 40
1.844616533180774
 40
2.019973001638839
 40
2.189516548880151
 40
2.34162133158549
 40
2.464661506320626
 40
2.54701122964719
 40
2.577044658168154
 40
2.603797890893167
 40
2.662655002908826
 40
2.721512114949581
 40
2.748265347702732
 40
2.774215307344809
 40
2.845959313407139
 40
2.954338556588338
 40
3.090194227585515
 40
3.244367517100478
 40
3.407699615844239
 40
3.571031714539389
 40
3.725205003920065
 40
3.861060674729565
 40
3.969439917716258
 40
4.04118392362893
 40
4.067133883212923
 40
4.3118867460121
 40
4.547897258335488
 40
4.764747083043957
 40
4.952749679951764
 40
5.045772974195853
 40
5.13786201964499
 40
5.330543169793041
 40
5.553448265244033
 40
5.795083855888215
 40
6.04329341217728
 40
6.285761695541238
 40
6.31390290875275
 40
6.38425594179334
 40
6.475714884766928
 40
6.567173827759019
 40
6.637526860839825
 40
6.665668074074189
 40
6.692018920328161
 40
6.749990782071226
 40
6.807962643790594
 40
6.834313490018065
 40
6.856393084245344
 40
6.913335195649967
 40
6.991194817302659
 40
7.076026942283949
 40
7.153886563725468
 40
7.210828674845022
 40
7.232908268931386
 40
7.258199334923907
 40
7.324875781592556
 40
7.419142481925213
 40
7.527204308842153
 40
7.635266135230731
 40
7.729532834168717
 40
7.79620927929304
 40
7.821500344594986
 40
7.844652988851085
 40
7.899863140541835
 40
7.965759128054001
 40
8.020969279771315
 40
8.044121924046781
 40
8.0693566101609
 40
8.109134395441805
 40
8.132238100191516
 40
8.193147867786882
 40
8.279261678877054
 40
8.377977512674269
 40
8.476693347147052
 40
8.562807160412106
 40
8.623716930826893
 40
8.646820636853844
 40
8.671988793774686
 40
8.734909185828597
 40
8.816705695189311
 40
8.89850220481591
 40
8.9614225973784
 40
8.986590754551512
 40
9.012941600733665
 40
9.070913462380748
 40
9.128885324082237
 40
9.155236170325558
 40
9.18040432792963
 40
9.243324721948674
 40
9.325121234212496
 40
9.406917746638179
 40
9.469838141978691
 40
9.495006288271437
 40
9.517811184379578
 40
9.572192090487578
 40
9.63709833328181
 40
9.691479239516008
 40
9.714284125644047
 40
9.714284125644047
 40
9.714284125644047
 40
9.714284125644047
 10
185.2874469028652
 20
15.2688916318772
 10
185.3090990569037
 20
15.24111869242812
 10
185.3597257109473
 20
15.17618054561236
 10
185.4349383202592
 20
15.06891060312901
 10
185.5248482274346
 20
14.95377438266625
 10
185.5709169676673
 20
14.85357045748319
 10
185.6655825294655
 20
14.78434006814944
 10
185.6204439320413
 20
14.73771639678272
 10
185.5947047785791
 20
14.6966030886604
 10
185.5645196708012
 20
14.66065971727937
 10
185.5193684730563
 20
14.58579782596091
 10
185.4710504458561
 20
14.80782524253603
 10
185.3968539713073
 20
14.84510677337711
 10
185.2836047324605
 20
15.11610202130602
 10
185.2885133578169
 20
15.00095328446229
 10
185.2868486556305
 20
14.92836675781628
 10
185.2876830076713
 20
14.80625588483986
 10
185.2873609540263
 20
14.6591380081046
 10
185.2875076912455
 20
14.49307063956557
 10
185.287295009272
 20
14.32187554608602
 10
185.2879497252034
 20
14.15552828635498
 10
185.2859192461137
 20
14.00935173055694
 10
185.291346039993
 20
13.8847104747461
 10
185.2804930868707
 20
13.81718656540627
 10
185.2956739155554
 20
13.75549061417023
 10
185.2457895108133
 20
13.76727503897001
 10
185.2017150342522
 20
13.75943822779969
 10
185.1582371630201
 20
13.76760441372703
 10
185.1092346786489
 20
13.75538056738468
 10
185.1218731234825
 20
13.80960667249313
 10
185.113018296845
 20
13.86936918907557
 10
185.1175058770315
 20
13.97922029044371
 10
185.1157960135993
 20
14.11029975405679
 10
185.1163550915986
 20
14.26198011444328
 10
185.1161928768695
 20
14.42211074929953
 10
185.1162269924675
 20
14.58236865674566
 10
185.1162514960128
 20
14.73370247520439
 10
185.1161453543226
 20
14.86582156338601
 10
185.1164299141932
 20
14.97294802533193
 10
185.1158675547568
 20
15.03808619579474
 10
185.1180765083691
 20
15.16618957858675
 10
185.0319435998603
 20
14.79097610391573
 10
184.95551408185
 20
14.63918193123394
 10
184.8660040767833
 20
14.47766206446309
 10
184.7640413217327
 20
14.20471848820168
 10
184.7187976491039
 20
14.36717346596515
 10
184.610235594167
 20
14.45605432058115
 10
184.7995791751753
 20
14.6054979496141
 10
184.85653405457
 20
14.79749136974926
 10
184.9717520993353
 20
15.02899622906756
 10
184.9940151630132
 20
15.21797259759065
 10
185.1771905152141
 20
15.49454089325931
 10
185.0538033597552
 20
15.48698978832095
 10
184.9925684166834
 20
15.48856772366119
 10
184.9081999617064
 20
15.48882592573674
 10
184.8204235085966
 20
15.48544845751206
 10
184.7656768696123
 20
15.49394814982022
 10
184.7104703026024
 20
15.48048561049788
 10
184.7222823035536
 20
15.52931442126764
 10
184.7142496151793
 20
15.57269004896709
 10
184.7228186104679
 20
15.61509438309573
 10
184.7102943409157
 20
15.66267796552118
 10
184.7555101538735
 20
15.65267212995109
 10
184.8014815562723
 20
15.65894105174061
 10
184.877722204771
 20
15.65593561405872
 10
184.9561296131994
 20
15.65770448278541
 10
185.0323992648933
 20
15.65464793981659
 10
185.0783009459475
 20
15.66103971376177
 10
185.1231733965401
 20
15.65093822978896
 10
185.1105552275634
 20
15.70157201581898
 10
185.1191936582707
 20
15.7550126188207
 10
185.1152361595444
 20
15.8486325513168
 10
185.1162325068335
 20
15.95112606688924
 10
185.1171927413074
 20
16.05353270248163
 10
185.1133211458006
 20
16.14735929609321
 10
185.1217789814365
 20
16.20036542840353
 10
185.1093075932836
 20
16.25211435651189
 10
185.1542106389851
 20
16.23850747226757
 10
185.1955083836773
 20
16.24100480320586
 10
185.2595344281051
 20
16.23648060574487
 10
185.2986111148787
 20
16.2278100304331
 10
185.3476543498742
 20
16.23515102070685
 10
185.3225080030591
 20
16.19602896051754
 10
185.2815901333722
 20
16.20563842455813
 10
185.2910109616603
 20
16.15540148169778
 10
185.2855647318745
 20
16.1038594563949
 10
185.2881699601803
 20
16.0195970758452
 10
185.2870102202153
 20
15.92559135583408
 10
185.288359106423
 20
15.83196865395525
 10
185.2849970101508
 20
15.74679517552223
 10
185.2920959917768
 20
15.69716856072043
 10
185.2812569154545
 20
15.64993694969988
 10
185.3304010225244
 20
15.66201674936851
 10
185.3794877630147
 20
15.65447393363011
 10
185.4573714280641
 20
15.65686070361433
 10
185.5350365172895
 20
15.65899381905415
 10
185.5845393931355
 20
15.65193391922454
 10
185.6344594750639
 20
15.66360151936214
 10
185.622319851688
 20
15.61540235371393
 10
185.6305838229143
 20
15.57249219801236
 10
185.6223198650783
 20
15.52958201851385
 10
185.6344594549854
 20
15.48138288754865
 10
185.5845395158746
 20
15.49305034471511
 10
185.5350350651203
 20
15.48599202435046
 10
185.4573784382972
 20
15.48811665228605
 10
185.3794643865759
 20
15.49053389365761
 10
185.3304500352715
 20
15.48291848194486
 10
185.2813246108942
 20
15.49507952557592
 10
185.2915559988569
 20
15.45073013424159
 10
185.2856677678053
 20
15.40925436202912
 10
185.2878788305568
 20
15.34915394315304
 10
185.2874109346145
 20
15.3022578276289
 10
185.2874386992912
 20
15.27650146418197
 10
185.2874469028652
 20
15.2688916318772
 97
        1
330
A6
 75
     1
 76
     2
 52
45.0
 41
0.1
 77
     0
 78
     1
 53
45.0
 43
0.0
 44
0.0
 45
-0.282842712474619
 46
0.0
 79
     0
 98
        1
 10
0.0
 20
0.0
  0
HATCH
  5
C4
330
48
100
AcDbEntity
  8
1
  6
Continuous
 62
     2
100
AcDbHatch
 10
0.0
 20
0.0
 30
0.0
210
0.0
220
0.0
230
1.0
  2
CUSTOM6
 70
     0
 71
     1
 91
        1
 92
        1
 93
        1
 72
     4
 94
        3
 73
     0
 74
     0
 95
       91
 96
       87
 40
0.0
 40
0.0
 40
0.0
 40
0.0
 40
0.0345987051695718
 40
0.1258134969461369
 40
0.2547723404888987
 40
0.4026032099154125
 40
0.5504340793416704
 40
0.679392922883608
 40
0.7706077146571035
 40
0.8052064287780925
 40
1.124852390615284
 40
1.427402236308885
 40
1.706356627453532
 40
1.955541417875209
 40
2.169485938566354
 40
2.34435078666481
 40
2.48056841156194
 40
2.590440557428935
 40
2.649189927151089
 40
2.749320643306314
 40
2.91263273988001
 40
3.1477456560002
 40
3.244827496385136
 40
3.338490056946754
 40
3.583815413207175
 40
3.761423943238528
 40
3.886956104362692
 40
3.985855451886875
 40
4.091766255337704
 40
4.250186473811924
 40
4.422734315084591
 40
4.628285684838701
 40
4.872093227758545
 40
5.152549652145656
 40
5.464967135837633
 40
5.803201477852548
 40
6.160362988814025
 40
6.193449448276109
 40
6.284170385501763
 40
6.419718138764633
 40
6.587285046385912
 40
6.774063446723797
 40
6.96724567811378
 40
7.154024078817823
 40
7.32159098702618
 40
7.457138740890539
 40
7.547859678556303
 40
7.580946138182863
 40
7.608533084714916
 40
7.669224367077891
 40
7.729915649430108
 40
7.757502595950159
 40
7.790278062553613
 40
7.880146277431111
 40
8.014419963180574
 40
8.180411842398103
 40
8.365434637679572
 40
8.556801071622901
 40
8.741823866830986
 40
8.907815745916524
 40
9.042089431507707
 40
9.131957646249832
 40
9.164733112797409
 40
9.415425063140333
 40
9.667986180958795
 40
9.694169807462934
 40
9.756607686047866
 40
9.831130315322673
 40
9.89356819390008
 40
9.919751820398897
 40
9.95096796469071
 40
9.996421631210874
 40
10.22087981037476
 40
10.44341866197564
 40
10.47847970788876
 40
10.57091337438777
 40
10.70159545461251
 40
10.85140174170382
 40
11.00120802880499
 40
11.13189010907404
 40
11.22432377583032
 40
11.25938480938978
 40
11.28697175596167
 40
11.34766303835941
 40
11.40835432042091
 40
11.43594125892126
 40
11.43594125892126
 40
11.43594125892126
 40
11.43594125892126
 10
190.0818114333289
 20
15.55242795125078
 10
190.0702785844941
 20
15.55242790287916
 10
190.0283409444998
 20
15.55242773704165
 10
189.9434129719026
 20
15.5524312580091
 10
189.8207688553128
 20
15.55240926435879
 10
189.6791206916993
 20
15.55250801177055
 10
189.537975369849
 20
15.55214686232421
 10
189.4141351317905
 20
15.5532188360909
 10
189.3317217825382
 20
15.55092249091269
 10
189.1727791229692
 20
15.5604856937342
 10
189.3503402353377
 20
15.19785394311372
 10
189.3379739205452
 20
14.95243127723114
 10
189.4064519473866
 20
14.66862501324836
 10
189.469302432097
 20
14.43250999939035
 10
189.5452253431729
 20
14.2332674039613
 10
189.6303189577017
 20
14.07745347451375
 10
189.7244607592936
 20
13.97657857781393
 10
189.8282648207728
 20
13.92465852638965
 10
189.9125872030774
 20
13.97606484379618
 10
189.9351322179452
 20
14.09144544037515
 10
189.9745730975371
 20
14.21885149702383
 10
189.9202919734941
 20
14.53622328086754
 10
190.0451218072473
 20
14.38982180140906
 10
190.2019291513603
 20
14.35795300331172
 10
190.0947720007057
 20
14.12421357767628
 10
190.0808711209868
 20
13.95972776583656
 10
190.0234709467226
 20
13.83130869122482
 10
189.9335020145009
 20
13.76018802352828
 10
189.8095274657878
 20
13.74432324142253
 10
189.6634273196861
 20
13.77993797554172
 10
189.5243894320284
 20
13.90000570500277
 10
189.4102003962144
 20
14.07435682550319
 10
189.3146141301486
 20
14.2994660311124
 10
189.2318652572626
 20
14.56388246006442
 10
189.1807179256411
 20
14.88187933098543
 10
189.077018920734
 20
15.15543728488914
 10
189.204284120852
 20
15.56005818612869
 10
189.0357890623019
 20
15.55112367849679
 10
188.9511995787078
 20
15.55315961418364
 10
188.8189876387628
 20
15.55213937388407
 10
188.6560505094103
 20
15.5525323031843
 10
188.4733759170534
 20
15.5523569631337
 10
188.2847057373382
 20
15.55260105307468
 10
188.1014469020189
 20
15.55185657906238
 10
187.9404746832718
 20
15.55416360522426
 10
187.8029808335275
 20
15.54799804883663
 10
187.7289590372311
 20
15.56032838458212
 10
187.6613215186856
 20
15.54329323723557
 10
187.6732373719269
 20
15.59524438447528
 10
187.6655677285694
 20
15.64071424966529
 10
187.6732592225115
 20
15.68614453703706
 10
187.6613141797762
 20
15.7380239598457
 10
187.7283588305867
 20
15.72119143490264
 10
187.8017375665676
 20
15.73335409092671
 10
187.9379128305272
 20
15.72727231074958
 10
188.0973811801512
 20
15.72954834315058
 10
188.2789173085837
 20
15.72881233998962
 10
188.465803486218
 20
15.72905954196134
 10
188.6468012316836
 20
15.72886400799254
 10
188.8080802578879
 20
15.72932234714839
 10
188.9393882124887
 20
15.72812673751205
 10
189.0225051322597
 20
15.73051347319743
 10
189.1556236547815
 20
15.72230605725464
 10
189.0645893502656
 20
15.97752868952653
 10
188.978963307442
 20
16.24164358328246
 10
189.0990589003455
 20
16.22904442969165
 10
189.1514264948544
 20
16.22694235763075
 10
189.2214497569715
 20
16.22535399889657
 10
189.2671922337817
 20
16.21602567538113
 10
189.3220812646933
 20
16.22545966915427
 10
189.2963574785682
 20
16.17733028655168
 10
189.1825397571452
 20
16.18266829744177
 10
189.3159346621136
 20
15.95449174576773
 10
189.1943658735472
 20
15.72156856595923
 10
189.3223188769412
 20
15.73087258884438
 10
189.4049048406461
 20
15.7280100175468
 10
189.5307214850824
 20
15.72923437412302
 10
189.6741469838057
 20
15.72932431888965
 10
189.8157420951728
 20
15.72746163183853
 10
189.9459127249967
 20
15.73333075937163
 10
190.0193452286191
 20
15.72070340823204
 10
190.0891112922096
 20
15.73877563110412
 10
190.0775772605396
 20
15.68612850546326
 10
190.0833184346682
 20
15.64221317686548
 10
190.0816615770911
 20
15.5908998267655
 10
190.081775756167
 20
15.56158792021635
 10
190.0818114333289
 20
15.55242795125078
 97
        1
330
A7
 75
     1
 76
     2
 52
45.0
 41
0.1
 77
     0
 78
     1
 53
45.0
 43
0.0
 44
0.0
 45
-0.282842712474619
 46
0.0
 79
     0
 98
        1
 10
0.0
 20
0.0
  0
HATCH
  5
C5
330
48
100
AcDbEntity
  8
1
  6
Continuous
 62
     2
100
AcDbHatch
 10
0.0
 20
0.0
 30
0.0
210
0.0
220
0.0
230
1.0
  2
CUSTOM7
 70
     0
 71
     1
 91
        1
 92
        1
 93
        1
 72
     4
 94
        3
 73
     0
 74
     0
 95
       75
 96
       71
 40
0.0
 40
0.0
 40
0.0
 40
0.0
 40
0.0342546099129691
 40
0.1245622414432364
 40
0.2522385480897589
 40
0.3985991922940769
 40
0.5449598364980963
 40
0.6726361431439012
 40
0.7629437746737155
 40
0.7971983935298186
 40
1.101723623449657
 40
1.408591244036606
 40
1.43333247169031
 40
1.487763172450105
 40
1.54219387308193
 40
1.566935100592478
 40
1.923523931821791
 40
2.271755704953647
 40
2.590579755100835
 40
2.858943305581094
 40
2.889120339309101
 40
2.918305855190995
 40
2.941366645531117
 40
2.996357760973021
 40
3.061992318140589
 40
3.116983433626789
 40
3.140044223997469
 40
3.411273122936442
 40
3.732441619741163
 40
3.761068217532861
 40
3.837787499630427
 40
3.948858699126064
 40
4.080541049104442
 40
4.219093782625828
 40
4.35077613272238
 40
4.461847332405714
 40
4.538566614678448
 40
4.567193212544696
 40
4.594907573998954
 40
4.666381453557522
 40
4.764111044011132
 40
4.870592538125935
 40
4.968322128642386
 40
5.0397960082871
 40
5.067510369784531
 40
5.094263603185743
 40
5.153120716668376
 40
5.211977830150818
 40
5.238731063551823
 40
5.27229053513909
 40
5.363380529444894
 40
5.497618415781572
 40
5.660621563453814
 40
5.838007341749515
 40
6.015393119910838
 40
6.178396267038435
 40
6.312634151842387
 40
6.403724143059376
 40
6.437283612672472
 40
6.464036846261088
 40
6.522893960004701
 40
6.581751071483961
 40
6.608504301590907
 40
6.637253941281054
 40
6.711397748902906
 40
6.81277805728349
 40
6.923237199249209
 40
7.024617507623882
 40
7.098761315207506
 40
7.127510946007456
 40
7.127510946007456
 40
7.127510946007456
 40
7.127510946007456
 10
188.4418622390565
 20
14.95849128473265
 10
188.4418622819707
 20
14.9470731340872
 10
188.4418624481129
 20
14.9055525784263
 10
188.4418593081787
 20
14.82146922003772
 10
188.4418788279802
 20
14.70004497322329
 10
188.4417912187738
 20
14.55980494047448
 10
188.4421116235231
 20
14.42006556794576
 10
188.441160590974
 20
14.29745038894928
 10
188.4431978595968
 20
14.21587074438042
 10
188.4349433178746
 20
14.06271267077696
 10
188.7430797940901
 20
14.22560236054721
 10
189.0350645173737
 20
14.39482938688001
 10
189.0408354448707
 20
14.25973235781911
 10
189.0455471719891
 20
14.21617221160444
 10
189.0482535411917
 20
14.17211249350545
 10
189.0672545672961
 20
14.02272590363135
 10
188.6583942247302
 20
14.08681172241261
 10
188.3793710348832
 20
13.9729634141102
 10
188.1018081587166
 20
13.87364095811139
 10
187.8099837184399
 20
13.91630687596358
 10
187.7869144678658
 20
13.81321679744541
 10
187.7537474383334
 20
13.78691091244471
 10
187.748065396274
 20
13.83455309036306
 10
187.7284214559044
 20
13.87180336115069
 10
187.7095089485623
 20
13.93007387847564
 10
187.6942849867707
 20
13.97385201007806
 10
187.6477246372935
 20
14.08759421046313
 10
187.989089731245
 20
14.05576301120046
 10
188.267964936739
 20
14.02161435106478
 10
188.2617753034907
 20
14.16913976479652
 10
188.2630935452775
 20
14.24013150908833
 10
188.2624831689949
 20
14.34719767958661
 10
188.2625871570726
 20
14.47398529785998
 10
188.2629987964057
 20
14.60849243496051
 10
188.261390784197
 20
14.73395549951185
 10
188.2659902567926
 20
14.84505246719118
 10
188.256418650221
 20
14.90761886800689
 10
188.2704001783692
 20
14.96595388295002
 10
188.2147384386706
 20
14.95289710582239
 10
188.1575655197821
 20
14.96136307749499
 10
188.0616048925648
 20
14.95729976080637
 10
187.9633767522822
 20
14.95970889852476
 10
187.867258245756
 20
14.95551600613388
 10
187.8104648525812
 20
14.96429346441163
 10
187.7550356873385
 20
14.95094936850123
 10
187.7670679427918
 20
15.00036910959257
 10
187.7592003173938
 20
15.04393988030396
 10
187.766629556383
 20
15.08830469118526
 10
187.7551930564144
 20
15.13902297763992
 10
187.8232102370134
 20
15.12162460757743
 10
187.8968496879747
 20
15.13417450237189
 10
188.0325064058211
 20
15.12799677011097
 10
188.1884909024526
 20
15.13029203093084
 10
188.3615926358144
 20
15.1294096826253
 10
188.5346942964181
 20
15.13029207142408
 10
188.6906789811217
 20
15.1279966295555
 10
188.8263351889797
 20
15.13417486262432
 10
188.8999756705652
 20
15.12162394218334
 10
188.9679914174724
 20
15.13902373012142
 10
188.9565590885922
 20
15.08830130414555
 10
188.9639539458297
 20
15.04397060811109
 10
188.956203991227
 20
15.00028307550197
 10
188.9681203741877
 20
14.95063590098477
 10
188.9108170223616
 20
14.96461411338426
 10
188.8520145789773
 20
14.95539755673255
 10
188.75252936332
 20
14.95952268164931
 10
188.6494280098349
 20
14.95822760025888
 10
188.5537846354574
 20
14.95854077077641
 10
188.4857467971617
 20
14.95848776697147
 10
188.4514462213444
 20
14.95849051871657
 10
188.4418622390565
 20
14.95849128473265
 97
        1
330
A8
 75
     1
 76
     2
 52
45.0
 41
0.1
 77
     0
 78
     1
 53
45.0
 43
0.0
 44
0.0
 45
-0.282842712474619
 46
0.0
 79
     0
 98
        1
 10
0.0
 20
0.0
  0
HATCH
  5
C6
330
48
100
AcDbEntity
  8
1
  6
Continuous
 62
     2
100
AcDbHatch
 10
0.0
 20
0.0
 30
0.0
210
0.0
220
0.0
230
1.0
  2
CUSTOM8
 70
     0
 71
     1
 91
        1
 92
        1
 93
        1
 72
     4
 94
        3
 73
     0
 74
     0
 95
       15
 96
       11
 40
0.0
 40
0.0
 40
0.0
 40
0.0
 40
0.2785535985096117
 40
0.5215624748198209
 40
0.6076917376039844
 40
0.6938210001740579
 40
0.9405019146453989
 40
1.221691403489145
 40
1.300471877081127
 40
1.379252341684957
 40
1.379252341684957
 40
1.379252341684957
 40
1.379252341684957
 10
189.5681493631
 20
16.22930267330381
 10
189.6296017794178
 20
16.17691646592716
 10
189.7446649974113
 20
16.07882876798221
 10
190.0397348497243
 20
15.92889785897222
 10
189.9025147631857
 20
15.84343227515014
 10
189.8041227843778
 20
15.71085785201555
 10
189.713003359065
 20
16.01616985781428
 10
189.3636839480653
 20
16.07967869465377
 10
189.511925837657
 20
16.17896509880878
 10
189.5494081874237
 20
16.21252348402382
 10
189.5681493631
 20
16.22930267330381
 97
        1
330
A9
 75
     1
 76
     2
 52
45.0
 41
0.1
 77
     0
 78
     1
 53
45.0
 43
0.0
 44
0.0
 45
-0.282842712474619
 46
0.0
 79
     0
 98
        1
 10
0.0
 20
0.0
  0
HATCH
  5
C7
330
48
100
AcDbEntity
  8
1
  6
Continuous
 62
     2
100
AcDbHatch
 10
0.0
 20
0.0
 30
0.0
210
0.0
220
0.0
230
1.0
  2
CUSTOM9
 70
     0
 71
     1
 91
        1
 92
        1
 93
        1
 72
     4
 94
        3
 73
     0
 74
     0
 95
       35
 96
       31
 40
0.0
 40
0.0
 40
0.0
 40
0.0
 40
0.0335231036621181
 40
0.0713218571711795
 40
0.4278866681486214
 40
0.8116865841963021
 40
1.198190237999959
 40
1.561379546812586
 40
1.659983174621926
 40
1.759315573807092
 40
2.132719617230953
 40
2.52523336358868
 40
2.910815397779588
 40
3.265244364303179
 40
3.592606723581883
 40
3.964386154603853
 40
4.359942131737697
 40
4.758154118639128
 40
4.84384653869972
 40
4.936650065543062
 40
5.256616602537115
 40
5.581707404415803
 40
5.89971915830794
 40
6.198363494280546
 40
6.466301046615609
 40
6.493895311536931
 40
6.559697020196723
 40
6.638234543442298
 40
6.704036252154079
 40
6.731630508422857
 40
6.731630508422857
 40
6.731630508422857
 40
6.731630508422857
 10
191.973601056867
 20
16.23463843719134
 10
191.967600609779
 20
16.22480690542323
 10
191.9548344099157
 20
16.20388988579802
 10
191.7949362006559
 20
16.17127126532671
 10
192.2322025842335
 20
15.88206680336707
 10
192.4345394828262
 20
15.68041138358437
 10
192.6819564267973
 20
15.43749387603275
 10
193.1831513624606
 20
15.36047662757784
 10
193.012556219897
 20
15.21876939174652
 10
192.9383299463201
 20
15.01710366209113
 10
192.6131432248189
 20
15.36956287174723
 10
192.3277741670665
 20
15.53175212559565
 10
192.0337604077658
 20
15.73687130053045
 10
191.8084452691134
 20
16.21827488595455
 10
191.5993085055522
 20
15.7534304660922
 10
191.3207873674834
 20
15.54350952252911
 10
191.0371383177209
 20
15.37424456359989
 10
190.7078639527831
 20
15.00142360907937
 10
190.6277012318225
 20
15.19708014459004
 10
190.4759724909744
 20
15.32491104190593
 10
190.9083395826795
 20
15.40454031765936
 10
191.0962565329766
 20
15.60026634915477
 10
191.3468477420503
 20
15.81632996916753
 10
191.5714350470162
 20
15.98190992300061
 10
191.6259775409713
 20
16.26133964636826
 10
191.7494661029012
 20
16.24737950408079
 10
191.8060273344521
 20
16.24521268867647
 10
191.8761870984945
 20
16.2404685988136
 10
191.9333414022107
 20
16.23709429350542
 10
191.964419032084
 20
16.23519854711119
 10
191.973601056867
 20
16.23463843719134
 97
        1
330
AA
 75
     1
 76
     2
 52
45.0
 41
0.1
 77
     0
 78
     1
 53
45.0
 43
0.0
 44
0.0
 45
-0.282842712474619
 46
0.0
 79
     0
 98
        1
 10
0.0
 20
0.0
  0
HATCH
  5
C8
330
48
100
AcDbEntity
  8
1
  6
Continuous
 62
     2
100
AcDbHatch
 10
0.0
 20
0.0
 30
0.0
210
0.0
220
0.0
230
1.0
  2
CUSTOM10
 70
     0
 71
     1
 91
        1
 92
        1
 93
        1
 72
     4
 94
        3
 73
     0
 74
     0
 95
       91
 96
       87
 40
0.0
 40
0.0
 40
0.0
 40
0.0
 40
0.0267532254356701
 40
0.0856103386464102
 40
0.1444674521996621
 40
0.1712206856618514
 40
0.2039416005642536
 40
0.2955601971652484
 40
0.4362601844616918
 40
0.616225284450725
 40
0.8256392189704698
 40
1.054685709844411
 40
1.293548478893474
 40
1.532411247938218
 40
1.761457738799483
 40
1.970871673298451
 40
2.150836773256647
 40
2.29153676049548
 40
2.383155356836586
 40
2.415876284101206
 40
2.442629517487851
 40
2.501486630948981
 40
2.560343744424128
 40
2.587096977826401
 40
2.6170681944408
 40
2.699247336755941
 40
2.822032643466254
 40
2.973822353257755
 40
3.143014704823197
 40
3.318007936879748
 40
3.487200288186581
 40
3.638989997548062
 40
3.761775303794532
 40
3.843954445752867
 40
3.873925662229563
 40
3.89081277350027
 40
3.907699884771422
 40
3.937960767857049
 40
3.980983618142053
 40
4.199085915228211
 40
4.439444339236989
 40
4.677588241260633
 40
5.050698317837519
 40
5.448212454762876
 40
5.85529121804443
 40
6.138575438885125
 40
6.417434507583933
 40
6.444551104393592
 40
6.504207617362868
 40
6.563864130314193
 40
6.590980727103762
 40
6.848609460381145
 40
7.109611990668063
 40
7.352910904445765
 40
7.557830220705186
 40
7.587518925913103
 40
7.652834077375545
 40
7.718149228845528
 40
7.74783793406183
 40
7.854880190300785
 40
7.976511257403323
 40
8.369487896592096
 40
8.757514959223418
 40
9.12607241933088
 40
9.460639380391942
 40
9.74669559303557
 40
9.77756994311839
 40
9.807050320931516
 40
9.830377336128649
 40
9.886003295435724
 40
9.95239556942964
 40
10.00802152870599
 40
10.03134854388192
 40
10.21356951009562
 40
10.42203479292836
 40
10.66154556731033
 40
10.91693789564276
 40
11.15832906556538
 40
11.18982674596593
 40
11.2728660852038
 40
11.39026653033325
 40
11.52484752840858
 40
11.65942852648415
 40
11.77682897161456
 40
11.85986831085652
 40
11.89136598230398
 40
11.89136598230398
 40
11.89136598230398
 40
11.89136598230398
 10
190.7027885008197
 20
14.70699600701772
 10
190.7028237765289
 20
14.71587847311985
 10
190.7029366710797
 20
14.74430237047346
 10
190.7012984568489
 20
14.79409639169803
 10
190.7069750292912
 20
14.83657564478154
 10
190.6956928731707
 20
14.88730154856847
 10
190.7632296979033
 20
14.87012900740109
 10
190.8388029210701
 20
14.88290227165996
 10
190.9828357056001
 20
14.87629729457382
 10
191.1569419185428
 20
14.87888462206466
 10
191.3639599611004
 20
14.87800591955553
 10
191.5894688172378
 20
14.87828207920026
 10
191.8251162293406
 20
14.87818339658663
 10
192.0607640531349
 20
14.87828184412767
 10
192.2862717580626
 20
14.87800678190789
 10
192.4932934632805
 20
14.87888186270735
 10
192.6673888915288
 20
14.87630522678446
 10
192.8114492071986
 20
14.88288290449214
 10
192.8869691915292
 20
14.87016243405604
 10
192.954577603703
 20
14.88726400191686
 10
192.9430840140676
 20
14.83674785802941
 10
192.9505104581733
 20
14.79253252226501
 10
192.9428838927986
 20
14.7486796650361
 10
192.9546489459425
 20
14.69878374479328
 10
192.8930788491983
 20
14.71393227712512
 10
192.8256791738672
 20
14.70310665350673
 10
192.7013004056221
 20
14.70852031626236
 10
192.5554428236571
 20
14.70649205390785
 10
192.3893576440086
 20
14.70715777578387
 10
192.2188412621725
 20
14.70689643521242
 10
192.051979085539
 20
14.70721553391094
 10
191.9087346827106
 20
14.70635302590762
 10
191.7773313869835
 20
14.70863300482987
 10
191.7239859134658
 20
14.70407704374202
 10
191.6485188456913
 20
14.70999914992877
 10
191.6769075779233
 20
14.70094169343353
 10
191.7033652409543
 20
14.69725912268928
 10
191.6633522907702
 20
14.66654271968276
 10
191.571366369187
 20
14.67667591174631
 10
191.5439396207069
 20
14.43032502247787
 10
191.4478793967235
 20
14.27499558764374
 10
191.1917277964474
 20
13.94525417931569
 10
191.7627537732764
 20
14.08430022210452
 10
192.0173656320517
 20
14.08291779973363
 10
192.6279647048618
 20
13.99790569242085
 10
192.3340698578084
 20
14.29685417558204
 10
192.0133304286518
 20
14.44330856901774
 10
192.1313543360434
 20
14.50025540818287
 10
192.1724716466261
 20
14.52420099873349
 10
192.2156812394412
 20
14.54599758811229
 10
192.3174574094449
 20
14.60928721253907
 10
192.4328867625247
 20
14.35147151408781
 10
192.6329591642276
 20
14.2161604111368
 10
192.7269077387228
 20
14.03792795138881
 10
192.9558829746393
 20
13.87997821027049
 10
192.8596031846709
 20
13.829159725763
 10
192.8167959763779
 20
13.79881292523053
 10
192.771824352878
 20
13.77466130281461
 10
192.7121720925213
 20
13.72552146747569
 10
192.6789731061325
 20
13.8599747567361
 10
192.5582013350795
 20
14.0159426528658
 10
192.1970976005979
 20
13.88569928059556
 10
191.838506195554
 20
13.90224694409483
 10
191.4570920450081
 20
13.89331229351863
 10
191.170345528289
 20
13.82882671672415
 10
190.8592055599718
 20
13.94230668192809
 10
190.8268737818788
 20
13.83122259927768
 10
190.7896178253318
 20
13.81196313850012
 10
190.7865737632753
 20
13.85874784087296
 10
190.7679892860607
 20
13.89806853919135
 10
190.7512436616778
 20
13.95765983478232
 10
190.7383730915754
 20
14.00201969871284
 10
190.7042327806427
 20
14.091063311202
 10
190.9482714457754
 20
14.02181042943771
 10
191.144139448667
 20
14.00030369057748
 10
191.2395426381277
 20
14.28226484478463
 10
191.2945135769597
 20
14.44363045421122
 10
191.5159619357156
 20
14.71391177589737
 10
191.3849239381217
 20
14.70548446853735
 10
191.3110026555855
 20
14.70779008496969
 10
191.1977459876244
 20
14.70671378321658
 10
191.0694251807485
 20
14.7070763907651
 10
190.9404252030416
 20
14.70697724466085
 10
190.8287840946292
 20
14.70699932712572
 10
190.7514663970028
 20
14.7069957918967
 10
190.7132876532011
 20
14.70699595845081
 10
190.7027885008197
 20
14.70699600701772
 97
        1
330
AB
 75
     1
 76
     2
 52
45.0
 41
0.1
 77
     0
 78
     1
 53
45.0
 43
0.0
 44
0.0
 45
-0.282842712474619
 46
0.0
 79
     0
 98
        1
 10
0.0
 20
0.0
  0
HATCH
  5
C9
330
48
100
AcDbEntity
  8
1
  6
Continuous
 62
     2
100
AcDbHatch
 10
0.0
 20
0.0
 30
0.0
210
0.0
220
0.0
230
1.0
  2
CUSTOM11
 70
     0
 71
     1
 91
        1
 92
        1
 93
        1
 72
     4
 94
        3
 73
     0
 74
     0
 95
      131
 96
      127
 40
0.0
 40
0.0
 40
0.0
 40
0.0
 40
0.0195577029826023
 40
0.0426490537460664
 40
0.2863607575855708
 40
0.534494843618882
 40
0.7842238845572886
 40
0.8737315789467306
 40
0.9803832810313287
 40
1.092842274517077
 40
1.199761146656835
 40
1.289788768186563
 40
1.351573580786253
 40
1.370727117561498
 40
1.416400936017924
 40
1.470914848356069
 40
1.516588666791891
 40
1.535742203552972
 40
1.634216592293282
 40
1.760283341175118
 40
1.897966686682223
 40
2.031216387369046
 40
2.04968975113804
 40
2.101115601646976
 40
2.179502577740093
 40
2.278859318314208
 40
2.393194462258865
 40
2.516516648383979
 40
2.642834515406108
 40
2.76615670198361
 40
2.880491846754724
 40
2.979848588358767
 40
3.058235565443944
 40
3.109661416669098
 40
3.128134780704274
 40
3.146783742386591
 40
3.191254343315451
 40
3.24433215731611
 40
3.288802758226014
 40
3.307451719895257
 40
3.32771785384487
 40
3.383747753580229
 40
3.468388665924619
 40
3.574487837698928
 40
3.694892515729032
 40
3.822449946852171
 40
3.95000737792056
 40
4.070412055800652
 40
4.176511227368207
 40
4.261152139501654
 40
4.317182039076847
 40
4.337448172964766
 40
4.620011002696375
 40
4.885096638397555
 40
4.945373043518384
 40
5.014107710488701
 40
5.070481727652083
 40
5.319246955636561
 40
5.584812164506053
 40
5.859000912056924
 40
6.133746937542055
 40
6.401732212968843
 40
6.420736683995434
 40
6.472845717451085
 40
6.550702743894012
 40
6.646951193874221
 40
6.754234497930545
 40
6.865196086587323
 40
6.972479390357782
 40
7.068727839771944
 40
7.146584865450953
 40
7.198693898189182
 40
7.217698368905323
 40
7.234950401630799
 40
7.276089864269842
 40
7.325191803515949
 40
7.366331266090333
 40
7.383583298769683
 40
7.40277916349206
 40
7.453386443254491
 40
7.524934666445493
 40
7.606953361405832
 40
7.688972056428984
 40
7.760520279784235
 40
7.811127559734476
 40
7.830323424546098
 40
7.847844055299728
 40
7.894799345666769
 40
7.962779392744457
 40
8.043374293560504
 40
8.12817414514941
 40
8.208769044817215
 40
8.276749090376915
 40
8.323704379669474
 40
8.341225010056208
 40
8.358497614800356
 40
8.401679126686561
 40
8.45781509218562
 40
8.513951057728024
 40
8.55713256970798
 40
8.574405174505022
 40
8.602340668616353
 40
8.64345566053995
 40
8.663225271966617
 40
8.715345156564265
 40
8.7890318896286
 40
8.873502045520329
 40
8.957972194323952
 40
9.031658925567843
 40
9.083778811234534
 40
9.103548423002996
 40
9.119550083123533
 40
9.160817522379835
 40
9.2172444291102
 40
9.278724491644686
 40
9.335151398295471
 40
9.376418837357766
 40
9.392420497300554
 40
9.401196302734773
 40
9.417494229384248
 40
9.42627002774952
 40
9.440875075477553
 40
9.475702496998732
 40
9.517270709865894
 40
9.552098131994061
 40
9.566703169884269
 40
9.566703169884269
 40
9.566703169884269
 40
9.566703169884269
 10
194.6170254148479
 20
15.67015871511028
 10
194.613434509337
 20
15.6645369070216
 10
194.6056039123626
 20
15.65227754419114
 10
194.5129968974545
 20
15.61601916040948
 10
194.4887622233248
 20
15.4014844421272
 10
194.3858709845939
 20
15.22197284509708
 10
194.1220492364304
 20
15.03615573798144
 10
194.284547156918
 20
14.95959336566081
 10
194.3607225760839
 20
14.89856693195443
 10
194.4492171072759
 20
14.83515804544759
 10
194.5389930233111
 20
14.77525634219559
 10
194.5883817636047
 20
14.72102154849208
 10
194.6745708157383
 20
14.69286240541832
 10
194.641126067423
 20
14.65713309652812
 10
194.6214671166311
 20
14.62550387991907
 10
194.5919888217883
 20
14.58475872796067
 10
194.5688989446031
 20
14.55504663489645
 10
194.5380205968356
 20
14.50211422668495
 10
194.4729193365741
 20
14.62740334938905
 10
194.3796000122415
 20
14.68213900233935
 10
194.2950636285139
 20
14.73916423939341
 10
194.1722498125742
 20
14.89675287427523
 10
194.1764450847301
 20
14.82035806766836
 10
194.1751478652677
 20
14.77361280161296
 10
194.1758126448076
 20
14.695847858126
 10
194.1755549986957
 20
14.59902068324423
 10
194.1756431239921
 20
14.48650279078809
 10
194.1756077302282
 20
14.365240859457
 10
194.1756511758278
 20
14.24086897858961
 10
194.1755199942406
 20
14.11967683631337
 10
194.1759477562046
 20
14.00691148919743
 10
194.174667820231
 20
13.91082913768744
 10
194.1779759851044
 20
13.831138264687
 10
194.1715197740086
 20
13.78815175788784
 10
194.1806208705556
 20
13.74955432372043
 10
194.1447910339935
 20
13.7581088772407
 10
194.1115223815252
 20
13.75342519985446
 10
194.060456257604
 20
13.75351298759784
 10
194.0269723972813
 20
13.75794430283821
 10
193.9907585408754
 20
13.74960793842509
 10
194.0009782568665
 20
13.79145277179284
 10
193.9936487887773
 20
13.83778560820173
 10
193.9973633136103
 20
13.92374831106015
 10
193.9959480554896
 20
14.02605142704849
 10
193.9964105554638
 20
14.14453223931512
 10
193.996277368623
 20
14.26957683153356
 10
193.9963015910045
 20
14.3947582810705
 10
193.9963354925551
 20
14.51286645379058
 10
193.9962060293132
 20
14.61628748709516
 10
193.9965507549081
 20
14.69932036153667
 10
193.995869827869
 20
14.75143368521243
 10
193.9994586600624
 20
14.87912907821361
 10
193.7826171386436
 20
14.58048716819626
 10
193.6021354921952
 20
14.35263981511519
 10
193.5490322295612
 20
14.49373443289813
 10
193.5200429133149
 20
14.54325767560943
 10
193.4196648062822
 20
14.64641779790108
 10
193.7405127723261
 20
14.72695035023781
 10
193.868989700543
 20
14.91066283036435
 10
194.090645432536
 20
15.1193199577176
 10
194.1770224894069
 20
15.29339211228347
 10
194.4549394229074
 20
15.56967051342513
 10
194.3346247839284
 20
15.56534559551115
 10
194.2863197351348
 20
15.56614856202554
 10
194.2102377454905
 20
15.56574582146585
 10
194.116701000975
 20
15.56590275611611
 10
194.0117594788557
 20
15.56582502576224
 10
193.9033887738717
 20
15.56595464378556
 10
193.7981454235897
 20
15.56554393490692
 10
193.7056237819412
 20
15.56682073671592
 10
193.6268130800707
 20
15.5634076653485
 10
193.5839674565379
 20
15.57023350036321
 10
193.5449499586516
 20
15.56065064201124
 10
193.5526365271863
 20
15.59420779565543
 10
193.5485464404312
 20
15.62523550322234
 10
193.5485531368814
 20
15.672365292709
 10
193.5526239724911
 20
15.70340941646779
 10
193.5449495574582
 20
15.73701861635901
 10
193.5834819405495
 20
15.72748410420872
 10
193.624122801448
 20
15.73397435498071
 10
193.6951471850463
 20
15.73100150650254
 10
193.7729318149633
 20
15.73174761399158
 10
193.8507292246474
 20
15.73247814044525
 10
193.9217232089907
 20
15.7295423551416
 10
193.962427979182
 20
15.73595468772952
 10
194.000985348991
 20
15.72650524176004
 10
193.9927342754927
 20
15.76264692158784
 10
193.9982346669359
 20
15.80129837613227
 10
193.9955754206163
 20
15.86913528561839
 10
193.9965815471533
 20
15.9459164153874
 10
193.9960178018319
 20
16.02849393582757
 10
193.9970714526592
 20
16.10517329229878
 10
193.994267586313
 20
16.173319907767
 10
194.0000702721304
 20
16.21132399809346
 10
193.9915654551158
 20
16.24758448077646
 10
194.0255610233125
 20
16.23755723771853
 10
194.05945756831
 20
16.24073266813706
 10
194.1126669060346
 20
16.2350896564061
 10
194.1660768574482
 20
16.23434774436425
 10
194.1995914649491
 20
16.2281922348298
 10
194.2388086183039
 20
16.23346029773593
 10
194.2120263698492
 20
16.19253380793486
 10
194.1708111001724
 20
16.20371204538113
 10
194.1782641540873
 20
16.15867056192124
 10
194.1742227952185
 20
16.11412278028144
 10
194.176171404964
 20
16.04223572621703
 10
194.1752364849758
 20
15.96168630588771
 10
194.176510719003
 20
15.88173995404994
 10
194.1732043793863
 20
15.80841837083183
 10
194.1802106179961
 20
15.76688643002568
 10
194.1701440380126
 20
15.72752418568113
 10
194.2029814803921
 20
15.73468063430981
 10
194.236457729648
 20
15.73027243137945
 10
194.2915053476019
 20
15.73217943347897
 10
194.3489502595314
 20
15.73185366407288
 10
194.4023026248309
 20
15.73106308733081
 10
194.4398540896638
 20
15.73313959118074
 10
194.4623172523237
 20
15.73022338167109
 10
194.4751678073731
 20
15.73572552644056
 10
194.4858255685888
 20
15.7380111819779
 10
194.4986635650143
 20
15.74494972588052
 10
194.5145991033071
 20
15.72853046313672
 10
194.5410623920891
 20
15.71709122319449
 10
194.5726805253757
 20
15.6964468783519
 10
194.5987255892151
 20
15.68116869628295
 10
194.6128517723973
 20
15.67266976323184
 10
194.6170254148479
 20
15.67015871511028
 97
        1
330
AC
 75
     1
 76
     2
 52
45.0
 41
0.1
 77
     0
 78
     1
 53
45.0
 43
0.0
 44
0.0
 45
-0.282842712474619
 46
0.0
 79
     0
 98
        1
 10
0.0
 20
0.0
  0
HATCH
  5
CA
330
48
100
AcDbEntity
  8
1
  6
Continuous
 62
     2
100
AcDbHatch
 10
0.0
 20
0.0
 30
0.0
210
0.0
220
0.0
230
1.0
  2
CUSTOM12
 70
     0
 71
     1
 91
        1
 92
        1
 93
        1
 72
     4
 94
        3
 73
     0
 74
     0
 95
      124
 96
      120
 40
0.0
 40
0.0
 40
0.0
 40
0.0
 40
0.027818722962451
 40
0.1011590162384269
 40
0.2048470170590239
 40
0.3237088716559245
 40
0.4425707262522
 40
0.5462587270699547
 40
0.6195990203311798
 40
0.647417752257866
 40
0.6750060736115224
 40
0.7357003855242759
 40
0.7963946998054492
 40
0.8239830245571784
 40
0.8540933811102878
 40
0.9373396629409558
 40
1.063094687343208
 40
1.220731268638046
 40
1.399622220914721
 40
1.589140358637706
 40
1.778658496423815
 40
1.957549448940454
 40
2.115186030873075
 40
2.240941056914379
 40
2.324187341760449
 40
2.354297700109298
 40
2.381886024671805
 40
2.442580338710393
 40
2.503274652750417
 40
2.530862977314524
 40
2.560983949278477
 40
2.640393784452823
 40
2.752662861759018
 40
2.881361560118006
 40
3.010060258455025
 40
3.122329335705172
 40
3.201739170817786
 40
3.231860142753146
 40
3.264298024030203
 40
3.352343701778074
 40
3.482095226868599
 40
3.63965065017286
 40
3.811108022565315
 40
3.982565394927824
 40
4.140120818152405
 40
4.269872343141116
 40
4.357918020802178
 40
4.390355902043807
 40
4.423256253992377
 40
4.508104530072841
 40
4.624121560636609
 40
4.750528176031337
 40
4.866545206601784
 40
4.951393482691713
 40
4.984293834645114
 40
5.011450833242027
 40
5.07119623015181
 40
5.130941627056884
 40
5.158098625648548
 40
5.19099897760121
 40
5.275847253689007
 40
5.39186428425647
 40
5.518270899647958
 40
5.634287930208969
 40
5.719136206287643
 40
5.75203655823553
 40
5.782130946282556
 40
5.862783906228731
 40
5.979550131774597
 40
6.117984316640004
 40
6.263641154587549
 40
6.402075339413755
 40
6.518841564907549
 40
6.599494524815131
 40
6.629588912848368
 40
6.654403028225945
 40
6.713575149487712
 40
6.784199939329029
 40
6.843372060493131
 40
6.868186175802377
 40
6.896246243201427
 40
6.939586233757877
 40
6.967846564564505
 40
7.043584251089444
 40
7.153234334451302
 40
7.283231855734051
 40
7.420011856035085
 40
7.550009376579437
 40
7.659659458834836
 40
7.735397144416829
 40
7.763657474851001
 40
7.796409728010659
 40
7.880876065095933
 40
7.996370852465319
 40
8.122208446418213
 40
8.237703224798807
 40
8.322169562010501
 40
8.354921815205515
 40
8.382078813307295
 40
8.441824209206597
 40
8.501569605239744
 40
8.528726603485321
 40
8.56147885669537
 40
8.64594519387742
 40
8.761439980864932
 40
8.887277580764074
 40
9.002772362000595
 40
9.087238696660815
 40
9.11999094923527
 40
9.152428830612969
 40
9.240474508638185
 40
9.370226034149136
 40
9.527781457984021
 40
9.69923883098101
 40
9.870696203978202
 40
10.02825162781362
 40
10.15800315332524
 40
10.24604883135079
 40
10.27848670378482
 40
10.27848670378482
 40
10.27848670378482
 40
10.27848670378482
 10
195.3821827564383
 20
14.01410517385757
 10
195.3914554737523
 20
14.01410498511274
 10
195.4251744536861
 20
14.01410430876714
 10
195.4934706812465
 20
14.01411807243305
 10
195.592014171158
 20
14.01403224219544
 10
195.7062066464812
 20
14.01441755612251
 10
195.818589441707
 20
14.01300835897545
 10
195.9214376600118
 20
14.01719117422243
 10
195.9806839874849
 20
14.00823089251983
 10
196.0371265937032
 20
14.02164434526061
 10
196.0246255586955
 20
13.97087198613361
 10
196.0329549635704
 20
13.92589320939067
 10
196.0248170841119
 20
13.88056752990488
 10
196.0370529214457
 20
13.82931932408466
 10
195.9747773490333
 20
13.84447955365276
 10
195.9060513026868
 20
13.83359750710743
 10
195.7782756749592
 20
13.83911304747972
 10
195.6262984511643
 20
13.83700851253698
 10
195.4502695972523
 20
13.83771002588473
 10
195.2644431934287
 20
13.83745237531291
 10
195.0786167437176
 20
13.83771005144603
 10
194.9025880142169
 20
13.83700841847731
 10
194.7506104154195
 20
13.83911332229988
 10
194.6228357664555
 20
13.8335968076764
 10
194.5541077836581
 20
13.84448077125942
 10
194.4918349042884
 20
13.82931786684209
 10
194.5040616290018
 20
13.88057510805171
 10
194.4960004462598
 20
13.92582473272425
 10
194.5040675809893
 20
13.97106357955323
 10
194.4918238487084
 20
14.02234176909958
 10
194.5525017120698
 20
14.00749577363134
 10
194.6162810745737
 20
14.01756448170736
 10
194.7277314353503
 20
14.01294644211999
 10
194.8497533443823
 20
14.01413328905469
 10
194.9719538137824
 20
14.01515863900634
 10
195.0829794287392
 20
14.01092475623402
 10
195.1476517413958
 20
14.02018584521739
 10
195.2091162810501
 20
14.00604423049682
 10
195.1930065601336
 20
14.07235527884517
 10
195.2042980327358
 20
14.14447790121976
 10
195.1987400822561
 20
14.27513760888286
 10
195.2008035061691
 20
14.42607323708242
 10
195.2000167127295
 20
14.59335873107886
 10
195.2007845215627
 20
14.76061110332304
 10
195.1988038785628
 20
14.91163289269914
 10
195.2041306156621
 20
15.04206069552996
 10
195.1933101388425
 20
15.11465442605899
 10
195.2090326429875
 20
15.18150469436799
 10
195.143270813249
 20
15.16580512490826
 10
195.0756367830764
 20
15.17609243083996
 10
194.9615885293811
 20
15.17113786847123
 10
194.8451242674903
 20
15.17414128030476
 10
194.7306554121478
 20
15.16880303143389
 10
194.6640324657813
 20
15.18001268074825
 10
194.5990769715186
 20
15.16349132665011
 10
194.610798975871
 20
15.2147372047706
 10
194.6032830189121
 20
15.25950333784091
 10
194.6107989878836
 20
15.30426944897961
 10
194.5990769505348
 20
15.3555153612974
 10
194.66403263392
 20
15.33899381766815
 10
194.7306533339822
 20
15.35020571373944
 10
194.8451352858064
 20
15.34485436710665
 10
194.9615454436963
 20
15.34791188771116
 10
195.0757660174642
 20
15.34278499010709
 10
195.1430150439226
 20
15.35345733355598
 10
195.2083325941438
 20
15.33742082669077
 10
195.1941391448552
 20
15.39949685750053
 10
195.2036059462995
 20
15.46586761628763
 10
195.1990269004084
 20
15.58239972741966
 10
195.2007696555948
 20
15.71426685022376
 10
195.1997551495391
 20
15.85615960150273
 10
195.2017191344373
 20
15.9876905070258
 10
195.1964668553851
 20
16.10524577283002
 10
195.2073408763474
 20
16.16947789001584
 10
195.1919536641853
 20
16.23108802545047
 10
195.24075915378
 20
16.21702407382111
 10
195.2853995564726
 20
16.21954742075314
 10
195.3538643946742
 20
16.2151279740171
 10
195.3959106169102
 20
16.20613025544035
 10
195.4487544758775
 20
16.21411714866511
 10
195.4207035002015
 20
16.1711391761167
 10
195.3749142248594
 20
16.18259552043839
 10
195.3869539073265
 20
16.12173520005136
 10
195.379608607064
 20
16.05769299468773
 10
195.3831195826162
 20
15.94909368863911
 10
195.3819806760173
 20
15.82494319144753
 10
195.3819174780262
 20
15.69189719829878
 10
195.3832872966867
 20
15.56797381249555
 10
195.3791638801314
 20
15.45868337849339
 10
195.3877763103564
 20
15.3960858009417
 10
195.3746757454401
 20
15.33740133296365
 10
195.4393884328198
 20
15.35362113810902
 10
195.5060405953156
 20
15.34270260383311
 10
195.6198779541102
 20
15.34793740173756
 10
195.7357259122097
 20
15.34485547516913
 10
195.849692426328
 20
15.35018259812512
 10
195.91603410181
 20
15.33904208166543
 10
195.9807188525479
 20
15.35546979593178
 10
195.9689820772722
 20
15.30425925210051
 10
195.9765168063041
 20
15.25950334121001
 10
195.9689820992258
 20
15.21474739010028
 10
195.9807188140737
 20
15.16353690871041
 10
195.9160344075252
 20
15.17996427794221
 10
195.8496886430824
 20
15.1688278444727
 10
195.7357459487012
 20
15.17413115893121
 10
195.6197995623054
 20
15.17114764593544
 10
195.5062756882122
 20
15.17606892268395
 10
195.4389231318804
 20
15.1658508751352
 10
195.3734285122495
 20
15.18145996138816
 10
195.3891713619218
 20
15.11463851827411
 10
195.3783275998212
 20
15.04207057815879
 10
195.3836581629793
 20
14.91162247614417
 10
195.3817136151854
 20
14.76064558185226
 10
195.3823133683214
 20
14.59322243934158
 10
195.3821506559605
 20
14.42656176118372
 10
195.3821895488135
 20
14.27360142921636
 10
195.38218164131
 20
14.14849178985705
 10
195.3821828382744
 20
14.0650789099142
 10
195.3821827716208
 20
14.02491778281976
 10
195.3821827564383
 20
14.01410517385757
 97
        1
330
AD
 75
     1
 76
     2
 52
45.0
 41
0.1
 77
     0
 78
     1
 53
45.0
 43
0.0
 44
0.0
 45
-0.282842712474619
 46
0.0
 79
     0
 98
        1
 10
0.0
 20
0.0
  0
HATCH
  5
CB
330
48
100
AcDbEntity
  8
1
  6
Continuous
 62
     2
100
AcDbHatch
 10
0.0
 20
0.0
 30
0.0
210
0.0
220
0.0
230
1.0
  2
CUSTOM13
 70
     0
 71
     1
 91
        1
 92
        1
 93
        3
 72
     4
 94
        3
 73
     0
 74
     0
 95
       24
 96
       20
 40
0.0
 40
0.0
 40
0.0
 40
0.0
 40
0.2211075008753867
 40
0.4273218586245223
 40
0.5080174679239233
 40
0.5914835907871192
 40
0.8143265690193628
 40
1.054651302686672
 40
1.295452694023269
 40
1.518109231328933
 40
1.540864321905549
 40
1.59512646062281
 40
1.659890947896123
 40
1.714153085187509
 40
1.736908174961782
 40
1.764951100735504
 40
1.801562291221039
 40
1.953914424543728
 40
2.126104167379813
 40
2.126104167379813
 40
2.126104167379813
 40
2.126104167379813
 10
185.937536955689
 20
15.58989295113015
 10
185.9112579081813
 20
15.53097628234373
 10
185.8604698894426
 20
15.41711139679259
 10
185.8131784839111
 20
15.14441958233114
 10
185.7043482802619
 20
15.24445482575458
 10
185.5514800279636
 20
15.27118593367324
 10
185.7686155181199
 20
15.48518135017633
 10
185.7838483674381
 20
15.70332117782487
 10
185.8906889492001
 20
15.88451579066425
 10
185.8305380947078
 20
16.16913226311403
 10
185.9334317395403
 20
16.1411408922245
 10
185.977993346815
 20
16.13243251602299
 10
186.0380842395397
 20
16.12139654183354
 10
186.0756619587439
 20
16.10767523055561
 10
186.1252466928607
 20
16.1075607616022
 10
186.0930158919326
 20
16.07306592398627
 10
186.0171802221882
 20
16.08404104537956
 10
186.0429447159693
 20
15.89858969582453
 10
186.005589676385
 20
15.8070231354959
 10
185.9857704961609
 20
15.75844135397705
 72
     4
 94
        3
 73
     0
 74
     0
 95
       70
 96
       66
 40
0.0
 40
0.0
 40
0.0
 40
0.0
 40
0.0241731073021472
 40
0.0846058988987582
 40
0.1631685280353852
 40
0.2417311571790608
 40
0.302163948829332
 40
0.3263370654896678
 40
0.3533118254250018
 40
0.4228783438923248
 40
0.5179999095314539
 40
0.6216398239467239
 40
0.7167613891500842
 40
0.7863279069651
 40
0.8133026791762973
 40
0.837294399877281
 40
0.8945054261373439
 40
0.9627895541962925
 40
1.020000580349074
 40
1.043992300975172
 40
1.071934345522872
 40
1.113121768772859
 40
1.145225199332183
 40
1.225483775412718
 40
1.329819923771426
 40
1.434156071994316
 40
1.514414647795738
 40
1.546518078208346
 40
1.578974764260147
 40
1.662678849314086
 40
1.777131373668335
 40
1.901833377474725
 40
2.016285900500515
 40
2.099989982527882
 40
2.132446666570241
 40
2.158782354485963
 40
2.216720867907754
 40
2.274659381334177
 40
2.300995069256111
 40
2.333451754066083
 40
2.417155836543764
 40
2.531608358985203
 40
2.656310362283698
 40
2.770762886388831
 40
2.854466971339996
 40
2.886923657363802
 40
2.913597976833236
 40
2.982389642875038
 40
3.076451716946901
 40
3.178937260458513
 40
3.272999334739915
 40
3.341791001059134
 40
3.368465320663447
 40
3.396976080738668
 40
3.472140811845876
 40
3.578408190308565
 40
3.700226892455973
 40
3.822045594634134
 40
3.928312973256212
 40
4.003477705314581
 40
4.031988456866647
 40
4.058324144797447
 40
4.116262658236615
 40
4.174201171400422
 40
4.200536849608357
 40
4.200536849608357
 40
4.200536849608357
 40
4.200536849608357
 10
185.9857704961609
 20
15.75844135397705
 10
185.9938259544679
 20
15.75844359811686
 10
186.0220200663241
 20
15.75845146032797
 10
186.0765534803673
 20
15.75830754828372
 10
186.1482891808604
 20
15.75909120499898
 10
186.2236240137062
 20
15.7562757046381
 10
186.2713052366439
 20
15.76298403400958
 10
186.3195071245617
 20
15.75197563692431
 10
186.3062571799875
 20
15.80546402997033
 10
186.3151093964539
 20
15.86049583543092
 10
186.3108698036287
 20
15.95419908726109
 10
186.313348348128
 20
16.04959482218532
 10
186.3090938706062
 20
16.14356821983387
 10
186.3179818665847
 20
16.19795062438012
 10
186.3046977409946
 20
16.25233997691461
 10
186.351411927711
 20
16.23842216335358
 10
186.3943254545738
 20
16.24103877374043
 10
186.4605443456686
 20
16.23648422450755
 10
186.5013342271799
 20
16.22778162134161
 10
186.5525145690818
 20
16.23531799890195
 10
186.5253720487202
 20
16.19349970223285
 10
186.4803096055707
 20
16.20284992072595
 10
186.4942065045051
 20
16.13841207371837
 10
186.4858414431655
 20
16.07378219627399
 10
186.49036321784
 20
15.97529141193887
 10
186.4854741311168
 20
15.8759593284257
 10
186.4950258992082
 20
15.81293115552968
 10
186.4799761455201
 20
15.74964011499788
 10
186.5449159457209
 20
15.76515072944268
 10
186.6116246399498
 20
15.75499387697813
 10
186.7241435470827
 20
15.75988800099367
 10
186.8390235448955
 20
15.75691204732784
 10
186.9519871999747
 20
15.76221664184991
 10
187.0176267597678
 20
15.75107306472089
 10
187.0816276691054
 20
15.76744532319857
 10
187.070314288919
 20
15.71761689905274
 10
187.0775339871511
 20
15.67416715212123
 10
187.070314261127
 20
15.63071745587445
 10
187.0816277175995
 20
15.58088895196876
 10
187.0176263598972
 20
15.59726166091362
 10
186.9519921240461
 20
15.58611271661588
 10
186.8389974317331
 20
15.59144857206854
 10
186.7242456548644
 20
15.58834345663822
 10
186.6113183686861
 20
15.59364894682588
 10
186.5455220903585
 20
15.58257300019594
 10
186.4816097975358
 20
15.59887597847617
 10
186.4936015165127
 20
15.54423524395742
 10
186.4862104613007
 20
15.48854295047842
 10
186.4892684841983
 20
15.3964968914057
 10
186.4893422785684
 20
15.30179109873102
 10
186.4860313578361
 20
15.20952782902266
 10
186.4939505989903
 20
15.1543576873614
 10
186.4815076611618
 20
15.10058169100137
 10
186.5389116551633
 20
15.11453768862782
 10
186.5994708140383
 20
15.10511457884228
 10
186.7048680855081
 20
15.10942885928705
 10
186.8204294070623
 20
15.10835504612032
 10
186.9359688877797
 20
15.10725965900996
 10
187.041418113084
 20
15.11162525770633
 10
187.1018680471804
 20
15.10209426030673
 10
187.1592837739108
 20
15.1161728960638
 10
187.1477773876709
 20
15.06707153265684
 10
187.1537566781748
 20
15.02564658018649
 10
187.1520311050801
 20
14.97651677966695
 10
187.152150012297
 20
14.94854428447607
 10
187.1521871691832
 20
14.93980288195949
 72
     4
 94
        3
 73
     0
 74
     0
 95
       62
 96
       58
 40
0.0
 40
0.0
 40
0.0
 40
0.0
 40
0.0598250028308485
 40
0.2024846486896763
 40
0.372755838921961
 40
0.5154154847934365
 40
0.575240497578335
 40
0.9332326775484908
 40
1.29045176283924
 40
1.602077253145598
 40
1.699931634111834
 40
1.799359756424766
 40
2.270120149656806
 40
2.804661928461229
 40
2.882342287382941
 40
3.076543185718792
 40
3.329004354835259
 40
3.581465524568086
 40
3.775666424543374
 40
3.853346784557993
 40
3.899120679594767
 40
3.984129341791709
 40
4.029903236817058
 40
4.105797496059214
 40
4.295533144152174
 40
4.542189486611415
 40
4.788845828875361
 40
4.978581476409747
 40
5.05447573524399
 40
5.621734664339039
 40
6.13086724203709
 40
6.225249780948301
 40
6.318913039726958
 40
6.663579954558553
 40
7.047498900224381
 40
7.435230791575279
 40
7.498943906667691
 40
7.650875181209685
 40
7.832212509001195
 40
7.984143783696581
 40
8.047856898902708
 40
8.091554632732219
 40
8.172707566963885
 40
8.216405300767613
 40
8.289021782160498
 40
8.462184160756872
 40
8.668861838005038
 40
8.84202421526363
 40
8.914640695474853
 40
8.98988158086106
 40
9.155411528826962
 40
9.320941477743743
 40
9.396182352486992
 40
9.454709011143482
 40
9.583467660170502
 40
9.712226309012724
 40
9.770752957989206
 40
9.770752957989206
 40
9.770752957989206
 40
9.770752957989206
 10
187.1521871691832
 20
14.93980288195949
 10
187.1322348171623
 20
14.93980875568671
 10
187.0647037716464
 20
14.93982863806157
 10
186.9410612161789
 20
14.93949362520325
 10
186.7863180150056
 20
14.94107673750511
 10
186.6697349482481
 20
14.93686078860494
 10
186.4550942634241
 20
14.95215205331624
 10
186.851894840723
 20
14.5919872128619
 10
186.8945656069267
 20
14.37510503397167
 10
187.3189162146611
 20
14.19325062511448
 10
187.1439821496074
 20
14.0898519656807
 10
187.0194523925084
 20
13.87831523212727
 10
186.7666277235943
 20
14.34806081001557
 10
186.4797602893627
 20
14.99511516984523
 10
186.4906335926661
 20
14.68782672154695
 10
186.4882892777961
 20
14.5228861697178
 10
186.4861096126411
 20
14.28879670711694
 10
186.4980774396348
 20
14.04498072421783
 10
186.4687984740632
 20
13.89855796860985
 10
186.511452262547
 20
13.75113490174537
 10
186.4239814005641
 20
13.7668579730622
 10
186.3768527606745
 20
13.76694303543454
 10
186.2898973207714
 20
13.75109425482909
 10
186.3313474021724
 20
13.89527771422762
 10
186.3029875004286
 20
14.03855052698456
 10
186.31459737753
 20
14.27674947365264
 10
186.3124175648273
 20
14.50517235240346
 10
186.3103111127994
 20
14.66705729375994
 10
186.3208035438325
 20
14.98153709333754
 10
186.0128963252894
 20
14.29229470872436
 10
185.7055258267456
 20
13.81476750243048
 10
185.5851367066275
 20
14.03741112637426
 10
185.4074607910723
 20
14.15011034955572
 10
185.8853326362895
 20
14.32548143465459
 10
185.9353959057209
 20
14.56091929252031
 10
186.3583799621717
 20
14.95322989344606
 10
186.127675427354
 20
14.93655307029065
 10
186.0049685859341
 20
14.9426951894877
 10
185.8325483095662
 20
14.93312822699573
 10
185.7213224694449
 20
14.95448818489665
 10
185.6025779627448
 20
14.92136265357419
 10
185.6183169706686
 20
15.00203900606883
 10
185.6178550933763
 20
15.04645414290854
 10
185.6027881889931
 20
15.12967081778534
 10
185.7372380935443
 20
15.09062651983884
 10
185.8619755545747
 20
15.11739729328423
 10
186.062875523728
 20
15.10063949044053
 10
186.1921540949355
 20
15.12204225913006
 10
186.3328419928295
 20
15.0886877885342
 10
186.2980927452617
 20
15.22651875785069
 10
186.3222185666713
 20
15.34963257349482
 10
186.2967086182394
 20
15.47024055670335
 10
186.3333251146686
 20
15.60539865141493
 10
186.221141702777
 20
15.58094545781891
 10
186.1280356457138
 20
15.59307749842022
 10
186.0191547579821
 20
15.58957630069994
 10
185.9569697640965
 20
15.58981755951602
 10
185.9375369557247
 20
15.58989295124144
 97
        3
330
AF
330
B0
330
AE
 75
     1
 76
     2
 52
45.0
 41
0.1
 77
     0
 78
     1
 53
45.0
 43
0.0
 44
0.0
 45
-0.282842712474619
 46
0.0
 79
     0
 98
        1
 10
0.0
 20
0.0
  0
HATCH
  5
CC
330
48
100
AcDbEntity
  8
1
  6
Continuous
 62
     2
100
AcDbHatch
 10
0.0
 20
0.0
 30
0.0
210
0.0
220
0.0
230
1.0
  2
CUSTOM14
 70
     0
 71
     1
 91
        1
 92
        1
 93
        4
 72
     1
 10
192.4578138032672
 20
15.22875434022058
 11
191.1602971697031
 21
15.22875434022058
 72
     1
 10
191.1602971697031
 20
15.22875434022058
 11
191.1602971697031
 21
15.39722336795624
 72
     1
 10
191.1602971697031
 20
15.39722336795624
 11
192.4578138032672
 21
15.39722336795624
 72
     1
 10
192.4578138032672
 20
15.39722336795624
 11
192.4578138032672
 21
15.22875434022058
 97
        1
330
B1
 75
     1
 76
     2
 52
45.0
 41
0.1
 77
     0
 78
     1
 53
45.0
 43
0.0
 44
0.0
 45
-0.282842712474619
 46
0.0
 79
     0
 98
        1
 10
0.0
 20
0.0
  0
ENDBLK
  5
4A
330
48
100
AcDbEntity
  8
0
100
AcDbBlockEnd
  0
BLOCK
  5
4D
330
4B
100
AcDbEntity
  8
0
100
AcDbBlockBegin
  2
開示A4枠
 70
     0
 10
0.0
 20
0.0
 30
0.0
  3
開示A4枠
  1

  0
INSERT
  5
4C
330
4B
100
AcDbEntity
  8
1
100
AcDbBlockReference
  2
開示A4
 10
0.0
 20
0.0
 30
0.0
  0
ENDBLK
  5
4E
330
4B
100
AcDbEntity
  8
0
100
AcDbBlockEnd
  0
BLOCK
  5
ED
330
E6
100
AcDbEntity
  8
0
100
AcDbBlockBegin
  2
*D3
 70
     1
 10
0.0
 20
0.0
 30
0.0
  3
*D3
  1

  0
LINE
  5
E7
330
E6
100
AcDbEntity
  8
1
  6
Continuous
 62
     2
100
AcDbLine
 10
87.18401907907109
 20
211.7858218791188
 30
0.0
 11
137.1840190790711
 21
211.7858218791188
 31
0.0
  0
LINE
  5
E8
330
E6
100
AcDbEntity
  8
1
  6
Continuous
 62
     2
100
AcDbLine
 10
137.1840190790711
 20
200.7858218791188
 30
0.0
 11
137.1840190790711
 21
212.7858218791188
 31
0.0
  0
LINE
  5
E9
330
E6
100
AcDbEntity
  8
1
  6
Continuous
 62
     2
100
AcDbLine
 10
87.18401907907109
 20
200.7858218791188
 30
0.0
 11
87.18401907907109
 21
212.7858218791188
 31
0.0
  0
SOLID
  5
EA
330
E6
100
AcDbEntity
  8
1
 62
     2
100
AcDbTrace
 10
90.68401907907109
 20
212.2466056206747
 30
0.0
 11
90.68401907907109
 21
211.3250381375629
 31
0.0
 12
87.18401907907109
 22
211.7858218791188
 32
0.0
 13
87.18401907907109
 23
211.7858218791188
 33
0.0
  0
SOLID
  5
EB
330
E6
100
AcDbEntity
  8
1
 62
     2
100
AcDbTrace
 10
133.6840190790711
 20
211.3250381375629
 30
0.0
 11
133.6840190790711
 21
212.2466056206747
 31
0.0
 12
137.1840190790711
 22
211.7858218791188
 32
0.0
 13
137.1840190790711
 23
211.7858218791188
 33
0.0
  0
MTEXT
  5
EC
330
E6
100
AcDbEntity
  8
1
 62
     7
100
AcDbMText
 10
109.2354468506281
 20
212.7858218791188
 30
0.0
 40
3.5
 41
0.0
 71
     7
 72
     1
  1
50
  7
CONVERTER_12
 11
0.9999999999970619
 21
2.424068405545306E-6
 31
0.0
 73
     1
 44
0.60024009603842
  0
ENDBLK
  5
EE
330
E6
100
AcDbEntity
  8
0
100
AcDbBlockEnd
  0
BLOCK
  5
F8
330
F1
100
AcDbEntity
  8
0
100
AcDbBlockBegin
  2
*D4
 70
     1
 10
0.0
 20
0.0
 30
0.0
  3
*D4
  1

  0
LINE
  5
F2
330
F1
100
AcDbEntity
  8
1
  6
Continuous
 62
     2
100
AcDbLine
 10
146.1840190790711
 20
200.7858218791188
 30
0.0
 11
146.1840190790711
 21
100.7858218791188
 31
0.0
  0
LINE
  5
F3
330
F1
100
AcDbEntity
  8
1
  6
Continuous
 62
     2
100
AcDbLine
 10
137.1840190790711
 20
100.7858218791188
 30
0.0
 11
147.1840190790711
 21
100.7858218791188
 31
0.0
  0
LINE
  5
F4
330
F1
100
AcDbEntity
  8
1
  6
Continuous
 62
     2
100
AcDbLine
 10
137.1840190790711
 20
200.7858218791188
 30
0.0
 11
147.1840190790711
 21
200.7858218791188
 31
0.0
  0
SOLID
  5
F5
330
F1
100
AcDbEntity
  8
1
 62
     2
100
AcDbTrace
 10
146.644802820627
 20
197.2858218791188
 30
0.0
 11
145.7232353375152
 21
197.2858218791188
 31
0.0
 12
146.1840190790711
 22
200.7858218791188
 32
0.0
 13
146.1840190790711
 23
200.7858218791188
 33
0.0
  0
SOLID
  5
F6
330
F1
100
AcDbEntity
  8
1
 62
     2
100
AcDbTrace
 10
145.7232353375152
 20
104.2858218791188
 30
0.0
 11
146.644802820627
 21
104.2858218791188
 31
0.0
 12
146.1840190790711
 22
100.7858218791188
 32
0.0
 13
146.1840190790711
 23
100.7858218791188
 33
0.0
  0
MTEXT
  5
F7
330
F1
100
AcDbEntity
  8
1
 62
     7
100
AcDbMText
 10
145.1840190790711
 20
142.7646292699368
 30
0.0
 40
3.5
 41
0.0
 71
     7
 72
     1
  1
4000
  7
CONVERTER_12
 11
0.0
 21
1.0
 31
0.0
 73
     1
 44
0.60024009603842
  0
ENDBLK
  5
F9
330
F1
100
AcDbEntity
  8
0
100
AcDbBlockEnd
  0
ENDSEC
  0
SECTION
  2
ENTITIES
  0
INSERT
  5
4F
330
1F
100
AcDbEntity
  8
0
100
AcDbBlockReference
  2
開示A4枠
 10
0.0
 20
0.0
 30
0.0
  0
LINE
  5
CD
330
1F
100
AcDbEntity
  8
0
  6
Continuous
 62
     2
100
AcDbLine
 10
155.738020310095
 20
105.6559238993888
 30
0.0
 11
162.774865220228
 21
105.6559238993888
 31
0.0
  0
LINE
  5
CE
330
1F
100
AcDbEntity
  8
1
  6
DASH_CENTER
 62
     2
100
AcDbLine
 10
112.1840190790711
 20
203.7858218791188
 30
0.0
 11
112.1840190790711
 21
97.7858218791188
 31
0.0
  0
LINE
  5
CF
330
1F
100
AcDbEntity
  8
1
  6
Continuous
 62
     7
100
AcDbLine
 10
87.18401907907105
 20
200.7858218791188
 30
0.0
 11
137.1840190790711
 21
200.7858218791188
 31
0.0
  0
LINE
  5
D0
330
1F
100
AcDbEntity
  8
1
  6
Continuous
 62
     7
100
AcDbLine
 10
137.1840190790711
 20
200.7858218791188
 30
0.0
 11
137.1840190790711
 21
153.8482804814868
 31
0.0
  0
LINE
  5
D1
330
1F
100
AcDbEntity
  8
1
  6
Continuous
 62
     7
100
AcDbLine
 10
137.1840190790711
 20
100.7858218791188
 30
0.0
 11
87.18401907907105
 21
100.7858218791188
 31
0.0
  0
LINE
  5
D2
330
1F
100
AcDbEntity
  8
1
  6
Continuous
 62
     7
100
AcDbLine
 10
87.18401907907105
 20
100.7858218791188
 30
0.0
 11
87.18401907907105
 21
155.7451696869408
 31
0.0
  0
LINE
  5
D3
330
1F
100
AcDbEntity
  8
1
  6
Continuous
 62
     7
100
AcDbLine
 10
87.18401907907105
 20
157.7451696869408
 30
0.0
 11
87.18401907907105
 21
200.7858218791188
 31
0.0
  0
LINE
  5
D4
330
1F
100
AcDbEntity
  8
1
  6
Continuous
 62
     7
100
AcDbLine
 10
137.1840190790711
 20
151.8482804814868
 30
0.0
 11
137.1840190790711
 21
100.7858218791188
 31
0.0
  0
SPLINE
  5
D5
330
1F
100
AcDbEntity
  8
1
  6
Continuous
 62
     2
100
AcDbSpline
210
0.0
220
0.0
230
1.0
 70
     8
 71
     3
 72
    21
 73
    17
 74
    15
 42
0.000000001
 43
0.0000000001
 44
0.00000001
 40
0.0
 40
0.0
 40
0.0
 40
0.0
 40
4.582623829803431
 40
8.666811792558313
 40
13.1158279221724
 40
17.1252257544089
 40
20.28521795623908
 40
23.35118373549545
 40
27.47846270503182
 40
31.89595867637809
 40
35.93013881538633
 40
39.73242621872069
 40
42.88190492702008
 40
46.24144633780241
 40
50.0950322135326
 40
54.80431217189583
 40
54.80431217189583
 40
54.80431217189583
 40
54.80431217189583
 10
87.18401907907105
 20
155.7451696869408
 30
0.0
 10
88.41934335218124
 20
154.8548712436116
 30
0.0
 10
90.75563003086168
 20
153.1711089975012
 30
0.0
 10
95.37641496488637
 20
152.1118533674644
 30
0.0
 10
98.94345643687862
 20
154.3918676210765
 30
0.0
 10
103.0931515820573
 20
155.7733952457672
 30
0.0
 10
105.7497582785528
 20
153.3335412221504
 30
0.0
 10
108.6498296023952
 20
150.9277296692599
 30
0.0
 10
112.4864244479125
 20
153.0235735318341
 30
0.0
 10
116.3738446370458
 20
155.3245530599476
 30
0.0
 10
120.0999455264884
 20
153.0078187331849
 30
0.0
 10
123.5525012801089
 20
150.8738585235883
 30
0.0
 10
126.691149322543
 20
152.9984755229334
 30
0.0
 10
129.3311047912763
 20
155.3910011357695
 30
0.0
 10
133.7067037741236
 20
154.5442355589879
 30
0.0
 10
135.9501830810928
 20
152.8048708828331
 30
0.0
 10
137.1840190790711
 20
151.8482804814868
 30
0.0
 11
87.18401907907105
 21
155.7451696869408
 31
0.0
 11
91.09047567267697
 21
153.349332022419
 31
0.0
 11
95.11513047302836
 21
152.6545334205468
 31
0.0
 11
99.23877578889794
 21
154.3246513203163
 31
0.0
 11
103.1776598636226
 21
155.0732922377248
 31
0.0
 11
105.807139238526
 21
153.3207543781248
 31
0.0
 11
108.4183039675091
 21
151.7139049916438
 31
0.0
 11
112.3478778086066
 21
152.9759989320565
 31
0.0
 11
116.480833358103
 21
154.5357902783518
 31
0.0
 11
120.19163499934
 21
152.9532099125514
 31
0.0
 11
123.737109809638
 21
151.5795295018008
 31
0.0
 11
126.5515748448436
 21
152.993036733935
 31
0.0
 11
129.3808803830541
 21
154.8045412580378
 31
0.0
 11
133.2105534164811
 21
154.3759055398679
 31
0.0
 11
137.1840190790711
 21
151.8482804814868
 31
0.0
  0
SPLINE
  5
D6
330
1F
100
AcDbEntity
  8
1
  6
Continuous
 62
     2
100
AcDbSpline
210
0.0
220
0.0
230
1.0
 70
     8
 71
     3
 72
    21
 73
    17
 74
    15
 42
0.000000001
 43
0.0000000001
 44
0.00000001
 40
0.0
 40
0.0
 40
0.0
 40
0.0
 40
4.582623829803431
 40
8.666811792558313
 40
13.1158279221724
 40
17.1252257544089
 40
20.28521795623908
 40
23.35118373549545
 40
27.47846270503182
 40
31.89595867637809
 40
35.93013881538633
 40
39.73242621872069
 40
42.88190492702008
 40
46.24144633780241
 40
50.0950322135326
 40
54.80431217189583
 40
54.80431217189583
 40
54.80431217189583
 40
54.80431217189583
 10
87.18401907907105
 20
157.7451696869408
 30
0.0
 10
88.41934335218124
 20
156.8548712436116
 30
0.0
 10
90.75563003086168
 20
155.1711089975012
 30
0.0
 10
95.37641496488637
 20
154.1118533674644
 30
0.0
 10
98.94345643687862
 20
156.3918676210765
 30
0.0
 10
103.0931515820573
 20
157.7733952457672
 30
0.0
 10
105.7497582785528
 20
155.3335412221504
 30
0.0
 10
108.6498296023952
 20
152.9277296692599
 30
0.0
 10
112.4864244479125
 20
155.0235735318342
 30
0.0
 10
116.3738446370458
 20
157.3245530599476
 30
0.0
 10
120.0999455264884
 20
155.0078187331849
 30
0.0
 10
123.5525012801089
 20
152.8738585235883
 30
0.0
 10
126.691149322543
 20
154.9984755229334
 30
0.0
 10
129.3311047912763
 20
157.3910011357695
 30
0.0
 10
133.7067037741236
 20
156.5442355589879
 30
0.0
 10
135.9501830810928
 20
154.8048708828331
 30
0.0
 10
137.1840190790711
 20
153.8482804814868
 30
0.0
 11
87.18401907907105
 21
157.7451696869408
 31
0.0
 11
91.09047567267697
 21
155.349332022419
 31
0.0
 11
95.11513047302836
 21
154.6545334205468
 31
0.0
 11
99.23877578889794
 21
156.3246513203163
 31
0.0
 11
103.1776598636226
 21
157.0732922377248
 31
0.0
 11
105.807139238526
 21
155.3207543781248
 31
0.0
 11
108.4183039675091
 21
153.7139049916438
 31
0.0
 11
112.3478778086066
 21
154.9759989320565
 31
0.0
 11
116.480833358103
 21
156.5357902783518
 31
0.0
 11
120.19163499934
 21
154.9532099125514
 31
0.0
 11
123.737109809638
 21
153.5795295018008
 31
0.0
 11
126.5515748448436
 21
154.993036733935
 31
0.0
 11
129.3808803830541
 21
156.8045412580378
 31
0.0
 11
133.2105534164811
 21
156.3759055398679
 31
0.0
 11
137.1840190790711
 21
153.8482804814868
 31
0.0
  0
MTEXT
  5
D8
330
1F
100
AcDbEntity
  8
1
 62
     7
100
AcDbMText
 10
157.5000000000001
 20
12.5
 30
0.0
 40
2.5
 41
0.0
 71
     5
 72
     1
  1
3
  7
CONVERTER_12
 73
     1
 44
0.7202881152461
  0
MTEXT
  5
D9
330
1F
100
AcDbEntity
  8
1
 62
     7
100
AcDbMText
 10
151.7500000000001
 20
12.5
 30
0.0
 40
2.5
 41
0.0
 71
     5
 72
     1
  1
04
  7
CONVERTER_12
 73
     1
 44
0.7202881152461
  0
MTEXT
  5
DA
330
1F
100
AcDbEntity
  8
1
 62
     7
100
AcDbMText
 10
140.5000000000001
 20
12.5
 30
0.0
 40
2.5
 41
0.0
 71
     5
 72
     1
  1
3
  7
CONVERTER_12
 73
     1
 44
0.7202881152461
  0
MTEXT
  5
DB
330
1F
100
AcDbEntity
  8
1
 62
     7
100
AcDbMText
 10
134.7500000000001
 20
12.5
 30
0.0
 40
2.5
 41
0.0
 71
     5
 72
     1
  1
04
  7
CONVERTER_12
 73
     1
 44
0.7202881152461
  0
MTEXT
  5
DC
330
1F
100
AcDbEntity
  8
1
 62
     7
100
AcDbMText
 10
123.5000000000001
 20
12.5
 30
0.0
 40
2.5
 41
0.0
 71
     5
 72
     1
  1
3
  7
CONVERTER_12
 73
     1
 44
0.7202881152461
  0
MTEXT
  5
DD
330
1F
100
AcDbEntity
  8
1
 62
     7
100
AcDbMText
 10
117.7500000000001
 20
12.5
 30
0.0
 40
2.5
 41
0.0
 71
     5
 72
     1
  1
04
  7
CONVERTER_12
 73
     1
 44
0.7202881152461
  0
MTEXT
  5
DE
330
1F
100
AcDbEntity
  8
1
 62
     7
100
AcDbMText
 10
100.7500000000001
 20
12.5
 30
0.0
 40
2.5
 41
0.0
 71
     5
 72
     1
  1
04
  7
CONVERTER_12
 73
     1
 44
0.7202881152461
  0
MTEXT
  5
DF
330
1F
100
AcDbEntity
  8
1
 62
     7
100
AcDbMText
 10
106.5000000000001
 20
12.5
 30
0.0
 40
2.5
 41
0.0
 71
     5
 72
     1
  1
3
  7
CONVERTER_12
 73
     1
 44
0.7202881152461
  0
MTEXT
  5
E1
330
1F
100
AcDbEntity
  8
0
 62
     7
100
AcDbMText
 10
158.9250057577951
 20
108.4318025815168
 30
0.0
 40
3.0
 41
0.0
 71
     5
 72
     1
  1
t=2
  7
CONVERTER_13
 73
     1
 44
1.32052821128451
  0
MTEXT
  5
E2
330
1F
100
AcDbEntity
  8
1
 62
     7
100
AcDbMText
 10
93.75000000000006
 20
17.0
 30
0.0
 40
3.5
 41
0.0
 71
     5
 72
     1
  1
1
  7
CONVERTER_12
 73
     1
 44
0.7202881152461
  0
MTEXT
  5
E3
330
1F
100
AcDbEntity
  8
1
 62
     7
100
AcDbMText
 10
57.00000000000004
 20
14.25
 30
0.0
 40
3.5
 41
0.0
 71
     5
 72
     1
  1
R55-88
  7
CONVERTER_12
 73
     1
 44
0.7202881152461
  0
MTEXT
  5
E4
330
1F
100
AcDbEntity
  8
1
 62
     7
100
AcDbMText
 10
57.00000000000004
 20
22.75
 30
0.0
 40
3.5
 41
0.0
 71
     5
 72
     1
  1
保温テープ
  7
CONVERTER_11
 73
     1
 44
0.54545454545455
  0
MTEXT
  5
E5
330
1F
100
AcDbEntity
  8
1
 62
     7
100
AcDbMText
 10
85.25000000000006
 20
17.0
 30
0.0
 40
3.5
 41
0.0
 71
     5
 72
     1
  1
1
  7
CONVERTER_12
 73
     1
 44
0.7202881152461
  0
DIMENSION
  5
F0
330
1F
100
AcDbEntity
  8
1
100
AcDbDimension
  2
*D3
 10
87.18401907907109
 20
211.7858218791188
 30
0.0
 11
111.8604468506281
 21
214.5358218791188
 31
0.0
 70
    33
  1
<>
 71
     5
 42
-1.0
 53
0.00013888888889
  3
ME10_DIM_10
100
AcDbAlignedDimension
 13
137.1840190790711
 23
200.7858218791188
 33
0.0
 14
87.18401907907105
 24
200.7858218791188
 34
0.0
  0
DIMENSION
  5
FB
330
1F
100
AcDbEntity
  8
1
100
AcDbDimension
  2
*D4
 10
146.1840190790711
 20
200.7858218791188
 30
0.0
 11
143.4340190790711
 21
148.5396292699368
 31
0.0
 70
    33
  1
4000
 71
     5
 42
-1.0
 53
90.0
  3
ME10_DIM_11
100
AcDbAlignedDimension
 13
137.1840190790711
 23
100.7858218791188
 33
0.0
 14
137.1840190790711
 24
200.7858218791188
 34
0.0
  0
ENDSEC
  0
SECTION
  2
OBJECTS
  0
DICTIONARY
  5
C
330
0
100
AcDbDictionary
281
     1
  3
ACAD_GROUP
350
D
  3
ACAD_LAYOUT
350
1A
  3
ACAD_MATERIAL
350
3B
  3
ACAD_MLEADERSTYLE
350
FE
  3
ACAD_MLINESTYLE
350
17
  3
ACAD_PLOTSETTINGS
350
19
  3
ACAD_PLOTSTYLENAME
350
E
  3
ACAD_VISUALSTYLE
350
2A
  3
AcDbVariableDictionary
350
FC
  0
DICTIONARY
  5
D
102
{ACAD_REACTORS
330
C
102
}
330
C
100
AcDbDictionary
281
     1
  0
DICTIONARY
  5
1A
102
{ACAD_REACTORS
330
C
102
}
330
C
100
AcDbDictionary
281
     1
  3
Layout1
350
1E
  3
Layout2
350
26
  3
Model
350
22
  0
DICTIONARY
  5
3B
102
{ACAD_REACTORS
330
C
102
}
330
C
100
AcDbDictionary
281
     1
  3
ByBlock
350
3D
  3
ByLayer
350
3C
  3
Global
350
3E
  0
DICTIONARY
  5
FE
102
{ACAD_REACTORS
330
C
102
}
330
C
100
AcDbDictionary
281
     1
  0
DICTIONARY
  5
17
102
{ACAD_REACTORS
330
C
102
}
330
C
100
AcDbDictionary
281
     1
  3
Standard
350
18
  0
DICTIONARY
  5
19
102
{ACAD_REACTORS
330
C
102
}
330
C
100
AcDbDictionary
281
     1
  0
ACDBDICTIONARYWDFLT
  5
E
102
{ACAD_REACTORS
330
C
102
}
330
C
100
AcDbDictionary
281
     1
  3
Normal
350
F
100
AcDbDictionaryWithDefault
340
F
  0
DICTIONARY
  5
2A
102
{ACAD_REACTORS
330
C
102
}
330
C
100
AcDbDictionary
281
     1
  3
2dWireframe
350
2F
  3
3D Hidden
350
31
  3
3dWireframe
350
30
  3
Basic
350
32
  3
Brighten
350
36
  3
ColorChange
350
3A
  3
Conceptual
350
34
  3
Dim
350
35
  3
Facepattern
350
39
  3
Flat
350
2B
  3
FlatWithEdges
350
2C
  3
Gouraud
350
2D
  3
GouraudWithEdges
350
2E
  3
Linepattern
350
38
  3
Realistic
350
33
  3
Thicken
350
37
  0
DICTIONARY
  5
FC
102
{ACAD_REACTORS
330
C
102
}
330
C
100
AcDbDictionary
281
     1
  3
DIMASSOC
350
FF
  3
HIDETEXT
350
100
  0
LAYOUT
  5
1E
102
{ACAD_REACTORS
330
1A
102
}
330
1A
100
AcDbPlotSettings
  1

  2
none_device
  4

  6

 40
0.0
 41
0.0
 42
0.0
 43
0.0
 44
0.0
 45
0.0
 46
0.0
 47
0.0
 48
0.0
 49
0.0
140
0.0
141
0.0
142
1.0
143
1.0
 70
   688
 72
     0
 73
     0
 74
     5
  7

 75
    16
147
1.0
148
0.0
149
0.0
100
AcDbLayout
  1
Layout1
 70
     1
 71
     1
 10
0.0
 20
0.0
 11
12.0
 21
9.0
 12
0.0
 22
0.0
 32
0.0
 14
1.00000000000000E+20
 24
1.00000000000000E+20
 34
1.00000000000000E+20
 15
-1.00000000000000E+20
 25
-1.00000000000000E+20
 35
-1.00000000000000E+20
146
0.0
 13
0.0
 23
0.0
 33
0.0
 16
1.0
 26
0.0
 36
0.0
 17
0.0
 27
1.0
 37
0.0
 76
     0
330
1B
  0
LAYOUT
  5
26
102
{ACAD_REACTORS
330
1A
102
}
330
1A
100
AcDbPlotSettings
  1

  2
none_device
  4

  6

 40
0.0
 41
0.0
 42
0.0
 43
0.0
 44
0.0
 45
0.0
 46
0.0
 47
0.0
 48
0.0
 49
0.0
140
0.0
141
0.0
142
1.0
143
1.0
 70
   688
 72
     0
 73
     0
 74
     5
  7

 75
    16
147
1.0
148
0.0
149
0.0
100
AcDbLayout
  1
Layout2
 70
     1
 71
     2
 10
0.0
 20
0.0
 11
0.0
 21
0.0
 12
0.0
 22
0.0
 32
0.0
 14
0.0
 24
0.0
 34
0.0
 15
0.0
 25
0.0
 35
0.0
146
0.0
 13
0.0
 23
0.0
 33
0.0
 16
1.0
 26
0.0
 36
0.0
 17
0.0
 27
1.0
 37
0.0
 76
     0
330
23
  0
LAYOUT
  5
22
102
{ACAD_REACTORS
330
1A
102
}
330
1A
100
AcDbPlotSettings
  1

  2
none_device
  4

  6

 40
0.0
 41
0.0
 42
0.0
 43
0.0
 44
0.0
 45
0.0
 46
0.0
 47
0.0
 48
0.0
 49
0.0
140
0.0
141
0.0
142
1.0
143
1.0
 70
  1712
 72
     0
 73
     0
 74
     0
  7

 75
     0
147
1.0
148
0.0
149
0.0
100
AcDbLayout
  1
Model
 70
     1
 71
     0
 10
0.0
 20
0.0
 11
12.0
 21
9.0
 12
0.0
 22
0.0
 32
0.0
 14
0.0
 24
0.0
 34
0.0
 15
210.0000000000001
 25
297.0
 35
0.0
146
0.0
 13
0.0
 23
0.0
 33
0.0
 16
1.0
 26
0.0
 36
0.0
 17
0.0
 27
1.0
 37
0.0
 76
     0
330
1F
331
29
  0
MATERIAL
  5
3D
102
{ACAD_REACTORS
330
3B
102
}
102
{ACAD_XDICTIONARY
360
123
102
}
330
3B
100
AcDbMaterial
  1
ByBlock
  0
MATERIAL
  5
3C
102
{ACAD_REACTORS
330
3B
102
}
102
{ACAD_XDICTIONARY
360
121
102
}
330
3B
100
AcDbMaterial
  1
ByLayer
  0
MATERIAL
  5
3E
102
{ACAD_REACTORS
330
3B
102
}
102
{ACAD_XDICTIONARY
360
125
102
}
330
3B
100
AcDbMaterial
  1
Global
  0
MLINESTYLE
  5
18
102
{ACAD_REACTORS
330
17
102
}
330
17
100
AcDbMlineStyle
  2
Standard
 70
     0
  3

 62
   256
 51
90.0
 52
90.0
 71
     2
 49
0.5
 62
   256
  6
BYLAYER
 49
-0.5
 62
   256
  6
BYLAYER
  0
ACDBPLACEHOLDER
  5
F
102
{ACAD_REACTORS
330
E
102
}
330
E
  0
VISUALSTYLE
  5
2F
102
{ACAD_REACTORS
330
2A
102
}
102
{ACAD_XDICTIONARY
360
109
102
}
330
2A
100
AcDbVisualStyle
  2
2dWireframe
 70
     4
 71
     0
 72
     2
 73
     0
 90
        0
 40
-0.6
 41
-30.0
 62
     5
 63
     7
 74
     1
 91
        4
 64
     7
 65
   257
 75
     1
175
     1
 42
1.0
 92
        0
 66
   257
 43
1.0
 76
     1
 77
     6
 78
     2
 67
     7
 79
     5
170
     0
171
     0
290
     0
174
     0
 93
        1
 44
0.0
173
     0
291
     0
 45
0.0
1001
ACAD
1000
AcDbSavedByObjectVersion
1070
     0
  0
VISUALSTYLE
  5
31
102
{ACAD_REACTORS
330
2A
102
}
102
{ACAD_XDICTIONARY
360
10D
102
}
330
2A
100
AcDbVisualStyle
  2
3D Hidden
 70
     6
 71
     1
 72
     2
 73
     2
 90
        0
 40
-0.6
 41
-30.0
 62
     5
 63
     7
 74
     2
 91
        2
 64
     7
 65
   257
 75
     2
175
     1
 42
40.0
 92
        0
 66
   257
 43
1.0
 76
     1
 77
     6
 78
     2
 67
     7
 79
     3
170
     0
171
     0
290
     0
174
     0
 93
        1
 44
0.0
173
     0
291
     0
 45
0.0
1001
ACAD
1000
AcDbSavedByObjectVersion
1070
     0
  0
VISUALSTYLE
  5
30
102
{ACAD_REACTORS
330
2A
102
}
102
{ACAD_XDICTIONARY
360
10B
102
}
330
2A
100
AcDbVisualStyle
  2
3dWireframe
 70
     5
 71
     0
 72
     2
 73
     0
 90
        0
 40
-0.6
 41
-30.0
 62
     5
 63
     7
 74
     1
 91
        4
 64
     7
 65
   257
 75
     1
175
     1
 42
1.0
 92
        0
 66
   257
 43
1.0
 76
     1
 77
     6
 78
     2
 67
     7
 79
     5
170
     0
171
     0
290
     0
174
     0
 93
        1
 44
0.0
173
     0
291
     0
 45
0.0
1001
ACAD
1000
AcDbSavedByObjectVersion
1070
     0
  0
VISUALSTYLE
  5
32
102
{ACAD_REACTORS
330
2A
102
}
102
{ACAD_XDICTIONARY
360
10F
102
}
330
2A
100
AcDbVisualStyle
  2
Basic
 70
     7
 71
     1
 72
     0
 73
     1
 90
        0
 40
-0.6
 41
-30.0
 62
     5
 63
     7
 74
     0
 91
        4
 64
     7
 65
   257
 75
     1
175
     1
 42
1.0
 92
        8
 66
     7
 43
1.0
 76
     1
 77
     6
 78
     2
 67
     7
 79
     5
170
     0
171
     0
290
     0
174
     0
 93
        1
 44
0.0
173
     0
291
     1
 45
0.0
1001
ACAD
1000
AcDbSavedByObjectVersion
1070
     0
  0
VISUALSTYLE
  5
36
102
{ACAD_REACTORS
330
2A
102
}
102
{ACAD_XDICTIONARY
360
117
102
}
330
2A
100
AcDbVisualStyle
  2
Brighten
 70
    12
 71
     2
 72
     2
 73
     0
 90
        0
 40
-0.6
 41
-30.0
 62
     5
 63
     7
 74
     1
 91
        4
 64
     7
 65
   257
 75
     1
175
     1
 42
1.0
 92
        8
 66
     7
 43
1.0
 76
     1
 77
     6
 78
     2
 67
     7
 79
     5
170
     0
171
     0
290
     0
174
     0
 93
        1
 44
50.0
173
     0
291
     1
 45
0.0
1001
ACAD
1000
AcDbSavedByObjectVersion
1070
     0
  0
VISUALSTYLE
  5
3A
102
{ACAD_REACTORS
330
2A
102
}
102
{ACAD_XDICTIONARY
360
11F
102
}
330
2A
100
AcDbVisualStyle
  2
ColorChange
 70
    16
 71
     2
 72
     2
 73
     3
 90
        0
 40
-0.6
 41
-30.0
 62
     5
 63
     8
 74
     1
 91
        4
 64
     7
 65
   257
 75
     1
175
     1
 42
1.0
 92
        8
 66
     8
 43
1.0
 76
     1
 77
     6
 78
     2
 67
     7
 79
     5
170
     0
171
     0
290
     0
174
     0
 93
        1
 44
0.0
173
     0
291
     1
 45
0.0
1001
ACAD
1000
AcDbSavedByObjectVersion
1070
     0
  0
VISUALSTYLE
  5
34
102
{ACAD_REACTORS
330
2A
102
}
102
{ACAD_XDICTIONARY
360
113
102
}
330
2A
100
AcDbVisualStyle
  2
Conceptual
 70
     9
 71
     3
 72
     2
 73
     0
 90
        0
 40
-0.6
 41
-30.0
 62
     5
 63
     7
 74
     2
 91
        2
 64
     7
 65
   257
 75
     1
175
     1
 42
40.0
 92
        8
 66
     7
 43
1.0
 76
     1
 77
     6
 78
     2
 67
     7
 79
     3
170
     0
171
     0
290
     0
174
     0
 93
        1
 44
0.0
173
     0
291
     0
 45
0.0
1001
ACAD
1000
AcDbSavedByObjectVersion
1070
     0
  0
VISUALSTYLE
  5
35
102
{ACAD_REACTORS
330
2A
102
}
102
{ACAD_XDICTIONARY
360
115
102
}
330
2A
100
AcDbVisualStyle
  2
Dim
 70
    11
 71
     2
 72
     2
 73
     0
 90
        0
 40
-0.6
 41
-30.0
 62
     5
 63
     7
 74
     1
 91
        4
 64
     7
 65
   257
 75
     1
175
     1
 42
1.0
 92
        8
 66
     7
 43
1.0
 76
     1
 77
     6
 78
     2
 67
     7
 79
     5
170
     0
171
     0
290
     0
174
     0
 93
        1
 44
-50.0
173
     0
291
     1
 45
0.0
1001
ACAD
1000
AcDbSavedByObjectVersion
1070
     0
  0
VISUALSTYLE
  5
39
102
{ACAD_REACTORS
330
2A
102
}
102
{ACAD_XDICTIONARY
360
11D
102
}
330
2A
100
AcDbVisualStyle
  2
Facepattern
 70
    15
 71
     2
 72
     2
 73
     0
 90
        0
 40
-0.6
 41
-30.0
 62
     5
 63
     7
 74
     1
 91
        4
 64
     7
 65
   257
 75
     1
175
     1
 42
1.0
 92
        8
 66
     7
 43
1.0
 76
     1
 77
     6
 78
     2
 67
     7
 79
     5
170
     0
171
     0
290
     0
174
     0
 93
        1
 44
0.0
173
     0
291
     1
 45
0.0
1001
ACAD
1000
AcDbSavedByObjectVersion
1070
     0
  0
VISUALSTYLE
  5
2B
102
{ACAD_REACTORS
330
2A
102
}
102
{ACAD_XDICTIONARY
360
101
102
}
330
2A
100
AcDbVisualStyle
  2
Flat
 70
     0
 71
     2
 72
     1
 73
     1
 90
        2
 40
-0.6
 41
30.0
 62
     5
 63
     7
 74
     0
 91
        4
 64
     7
 65
   257
 75
     1
175
     1
 42
1.0
 92
        8
 66
     7
 43
1.0
 76
     1
 77
     6
 78
     2
 67
     7
 79
     5
170
     0
171
     0
290
     0
174
     0
 93
       13
 44
0.0
173
     0
291
     1
 45
0.0
1001
ACAD
1000
AcDbSavedByObjectVersion
1070
     0
  0
VISUALSTYLE
  5
2C
102
{ACAD_REACTORS
330
2A
102
}
102
{ACAD_XDICTIONARY
360
103
102
}
330
2A
100
AcDbVisualStyle
  2
FlatWithEdges
 70
     1
 71
     2
 72
     1
 73
     1
 90
        2
 40
-0.6
 41
30.0
 62
     5
 63
     7
 74
     1
 91
        4
 64
     7
 65
   257
 75
     1
175
     1
 42
1.0
 92
        0
 66
   257
 43
1.0
 76
     1
 77
     6
 78
     2
 67
     7
 79
     5
170
     0
171
     0
290
     0
174
     0
 93
       13
 44
0.0
173
     0
291
     1
 45
0.0
1001
ACAD
1000
AcDbSavedByObjectVersion
1070
     0
  0
VISUALSTYLE
  5
2D
102
{ACAD_REACTORS
330
2A
102
}
102
{ACAD_XDICTIONARY
360
105
102
}
330
2A
100
AcDbVisualStyle
  2
Gouraud
 70
     2
 71
     2
 72
     2
 73
     1
 90
        2
 40
-0.6
 41
30.0
 62
     5
 63
     7
 74
     0
 91
        4
 64
     7
 65
   257
 75
     1
175
     1
 42
1.0
 92
        0
 66
     7
 43
1.0
 76
     1
 77
     6
 78
     2
 67
     7
 79
     5
170
     0
171
     0
290
     0
174
     0
 93
       13
 44
0.0
173
     0
291
     1
 45
0.0
1001
ACAD
1000
AcDbSavedByObjectVersion
1070
     0
  0
VISUALSTYLE
  5
2E
102
{ACAD_REACTORS
330
2A
102
}
102
{ACAD_XDICTIONARY
360
107
102
}
330
2A
100
AcDbVisualStyle
  2
GouraudWithEdges
 70
     3
 71
     2
 72
     2
 73
     1
 90
        2
 40
-0.6
 41
30.0
 62
     5
 63
     7
 74
     1
 91
        4
 64
     7
 65
   257
 75
     1
175
     1
 42
1.0
 92
        0
 66
   257
 43
1.0
 76
     1
 77
     6
 78
     2
 67
     7
 79
     5
170
     0
171
     0
290
     0
174
     0
 93
       13
 44
0.0
173
     0
291
     1
 45
0.0
1001
ACAD
1000
AcDbSavedByObjectVersion
1070
     0
  0
VISUALSTYLE
  5
38
102
{ACAD_REACTORS
330
2A
102
}
102
{ACAD_XDICTIONARY
360
11B
102
}
330
2A
100
AcDbVisualStyle
  2
Linepattern
 70
    14
 71
     2
 72
     2
 73
     0
 90
        0
 40
-0.6
 41
-30.0
 62
     5
 63
     7
 74
     1
 91
        4
 64
     7
 65
   257
 75
     7
175
     7
 42
1.0
 92
        8
 66
     7
 43
1.0
 76
     1
 77
     6
 78
     2
 67
     7
 79
     5
170
     0
171
     0
290
     0
174
     0
 93
        1
 44
0.0
173
     0
291
     1
 45
0.0
1001
ACAD
1000
AcDbSavedByObjectVersion
1070
     0
  0
VISUALSTYLE
  5
33
102
{ACAD_REACTORS
330
2A
102
}
102
{ACAD_XDICTIONARY
360
111
102
}
330
2A
100
AcDbVisualStyle
  2
Realistic
 70
     8
 71
     2
 72
     2
 73
     0
 90
        0
 40
-0.6
 41
-30.0
 62
     5
 63
     7
 74
     1
 91
        0
 64
     7
 65
   257
 75
     1
175
     1
 42
1.0
 92
        8
 66
     8
 43
1.0
 76
     1
 77
     6
 78
     2
 67
     7
 79
     5
170
     0
171
     0
290
     0
174
     0
 93
       13
 44
0.0
173
     0
291
     0
 45
0.0
1001
ACAD
1000
AcDbSavedByObjectVersion
1070
     0
  0
VISUALSTYLE
  5
37
102
{ACAD_REACTORS
330
2A
102
}
102
{ACAD_XDICTIONARY
360
119
102
}
330
2A
100
AcDbVisualStyle
  2
Thicken
 70
    13
 71
     2
 72
     2
 73
     0
 90
        0
 40
-0.6
 41
-30.0
 62
     5
 63
     7
 74
     1
 91
        4
 64
     7
 65
   257
 75
     1
175
     1
 42
1.0
 92
       12
 66
     7
 43
1.0
 76
     1
 77
     6
 78
     2
 67
     7
 79
     5
170
     0
171
     0
290
     0
174
     0
 93
        1
 44
0.0
173
     0
291
     1
 45
0.0
1001
ACAD
1000
AcDbSavedByObjectVersion
1070
     0
  0
DICTIONARYVAR
  5
FF
102
{ACAD_REACTORS
330
FC
102
}
330
FC
100
DictionaryVariables
280
     0
  1
2
  0
DICTIONARYVAR
  5
100
102
{ACAD_REACTORS
330
FC
102
}
330
FC
100
DictionaryVariables
280
     0
  1
1
  0
DICTIONARY
  5
123
330
3D
100
AcDbDictionary
280
     1
281
     1
  3
ACAD_XREC_ROUNDTRIP
360
124
  0
DICTIONARY
  5
121
330
3C
100
AcDbDictionary
280
     1
281
     1
  3
ACAD_XREC_ROUNDTRIP
360
122
  0
DICTIONARY
  5
125
330
3E
100
AcDbDictionary
280
     1
281
     1
  3
ACAD_XREC_ROUNDTRIP
360
126
  0
DICTIONARY
  5
109
330
2F
100
AcDbDictionary
280
     1
281
     1
  3
ACAD_XREC_ROUNDTRIP
360
10A
  0
DICTIONARY
  5
10D
330
31
100
AcDbDictionary
280
     1
281
     1
  3
ACAD_XREC_ROUNDTRIP
360
10E
  0
DICTIONARY
  5
10B
330
30
100
AcDbDictionary
280
     1
281
     1
  3
ACAD_XREC_ROUNDTRIP
360
10C
  0
DICTIONARY
  5
10F
330
32
100
AcDbDictionary
280
     1
281
     1
  3
ACAD_XREC_ROUNDTRIP
360
110
  0
DICTIONARY
  5
117
330
36
100
AcDbDictionary
280
     1
281
     1
  3
ACAD_XREC_ROUNDTRIP
360
118
  0
DICTIONARY
  5
11F
330
3A
100
AcDbDictionary
280
     1
281
     1
  3
ACAD_XREC_ROUNDTRIP
360
120
  0
DICTIONARY
  5
113
330
34
100
AcDbDictionary
280
     1
281
     1
  3
ACAD_XREC_ROUNDTRIP
360
114
  0
DICTIONARY
  5
115
330
35
100
AcDbDictionary
280
     1
281
     1
  3
ACAD_XREC_ROUNDTRIP
360
116
  0
DICTIONARY
  5
11D
330
39
100
AcDbDictionary
280
     1
281
     1
  3
ACAD_XREC_ROUNDTRIP
360
11E
  0
DICTIONARY
  5
101
330
2B
100
AcDbDictionary
280
     1
281
     1
  3
ACAD_XREC_ROUNDTRIP
360
102
  0
DICTIONARY
  5
103
330
2C
100
AcDbDictionary
280
     1
281
     1
  3
ACAD_XREC_ROUNDTRIP
360
104
  0
DICTIONARY
  5
105
330
2D
100
AcDbDictionary
280
     1
281
     1
  3
ACAD_XREC_ROUNDTRIP
360
106
  0
DICTIONARY
  5
107
330
2E
100
AcDbDictionary
280
     1
281
     1
  3
ACAD_XREC_ROUNDTRIP
360
108
  0
DICTIONARY
  5
11B
330
38
100
AcDbDictionary
280
     1
281
     1
  3
ACAD_XREC_ROUNDTRIP
360
11C
  0
DICTIONARY
  5
111
330
33
100
AcDbDictionary
280
     1
281
     1
  3
ACAD_XREC_ROUNDTRIP
360
112
  0
DICTIONARY
  5
119
330
37
100
AcDbDictionary
280
     1
281
     1
  3
ACAD_XREC_ROUNDTRIP
360
11A
  0
XRECORD
  5
124
102
{ACAD_REACTORS
330
123
102
}
330
123
100
AcDbXrecord
280
     1
102
MATERIAL
148
0.0
149
0.0
149
0.0
 93
        0
 94
      127
282
     0
 72
     1
 77
     1
171
     1
175
     1
179
     1
273
     0
  0
XRECORD
  5
122
102
{ACAD_REACTORS
330
121
102
}
330
121
100
AcDbXrecord
280
     1
102
MATERIAL
148
0.0
149
0.0
149
0.0
 93
        0
 94
      127
282
     0
 72
     1
 77
     1
171
     1
175
     1
179
     1
273
     0
  0
XRECORD
  5
126
102
{ACAD_REACTORS
330
125
102
}
330
125
100
AcDbXrecord
280
     1
102
MATERIAL
148
0.0
149
0.0
149
0.0
 93
        0
 94
      127
282
     0
 72
     1
 77
     1
171
     1
175
     1
179
     1
273
     0
  0
XRECORD
  5
10A
102
{ACAD_REACTORS
330
109
102
}
330
109
100
AcDbXrecord
280
     1
102
RTVSPropertyOp0
 70
     1
102
RTVSPropertyOp1
 70
     1
102
RTVSPropertyOp2
 70
     1
102
RTVSPropertyOp3
 70
     1
102
RTVSPropertyOp4
 70
     1
102
RTVSPropertyOp5
 70
     1
102
RTVSPropertyOp6
 70
     1
102
RTVSPropertyOp7
 70
     1
102
RTVSPropertyOp8
 70
     1
102
RTVSPropertyOp9
 70
     1
102
RTVSPropertyOp10
 70
     1
102
RTVSPropertyOp11
 70
     1
102
RTVSPropertyOp12
 70
     1
102
RTVSPropertyOp13
 70
     1
102
RTVSPropertyOp14
 70
     1
102
RTVSPropertyOp15
 70
     1
102
RTVSPropertyOp16
 70
     1
102
RTVSPropertyOp17
 70
     1
102
RTVSPropertyOp18
 70
     1
102
RTVSPropertyOp19
 70
     1
102
RTVSPropertyOp20
 70
     1
102
RTVSPropertyOp21
 70
     1
102
RTVSPropertyOp22
 70
     1
102
RTVSPropertyOp23
 70
     1
102
RTVSPropertyOp24
 70
     1
102
RTVSPropertyOp25
 70
     1
102
RTVSPropertyOp26
 70
     1
102
RTVSPropertyOp27
 70
     1
102
RTVSPropertyOp28
 70
     1
102
RTVSPropertyOp29
 70
     1
102
RTVSPropertyOp30
 70
     1
102
RTVSPropertyOp31
 70
     1
102
RTVSPropertyOp32
 70
     1
  0
XRECORD
  5
10E
102
{ACAD_REACTORS
330
10D
102
}
330
10D
100
AcDbXrecord
280
     1
102
RTVSPropertyOp0
 70
     1
102
RTVSPropertyOp1
 70
     1
102
RTVSPropertyOp2
 70
     1
102
RTVSPropertyOp3
 70
     1
102
RTVSPropertyOp4
 70
     1
102
RTVSPropertyOp5
 70
     1
102
RTVSPropertyOp6
 70
     1
102
RTVSPropertyOp7
 70
     1
102
RTVSPropertyOp8
 70
     1
102
RTVSPropertyOp9
 70
     1
102
RTVSPropertyOp10
 70
     1
102
RTVSPropertyOp11
 70
     1
102
RTVSPropertyOp12
 70
     1
102
RTVSPropertyOp13
 70
     1
102
RTVSPropertyOp14
 70
     1
102
RTVSPropertyOp15
 70
     1
102
RTVSPropertyOp16
 70
     1
102
RTVSPropertyOp17
 70
     1
102
RTVSPropertyOp18
 70
     1
102
RTVSPropertyOp19
 70
     1
102
RTVSPropertyOp20
 70
     1
102
RTVSPropertyOp21
 70
     1
102
RTVSPropertyOp22
 70
     1
102
RTVSPropertyOp23
 70
     1
102
RTVSPropertyOp24
 70
     1
102
RTVSPropertyOp25
 70
     1
102
RTVSPropertyOp26
 70
     1
102
RTVSPropertyOp27
 70
     1
102
RTVSPropertyOp28
 70
     1
102
RTVSPropertyOp29
 70
     1
102
RTVSPropertyOp30
 70
     1
102
RTVSPropertyOp31
 70
     1
102
RTVSPropertyOp32
 70
     1
  0
XRECORD
  5
10C
102
{ACAD_REACTORS
330
10B
102
}
330
10B
100
AcDbXrecord
280
     1
102
RTVSPropertyOp0
 70
     1
102
RTVSPropertyOp1
 70
     1
102
RTVSPropertyOp2
 70
     1
102
RTVSPropertyOp3
 70
     1
102
RTVSPropertyOp4
 70
     1
102
RTVSPropertyOp5
 70
     1
102
RTVSPropertyOp6
 70
     1
102
RTVSPropertyOp7
 70
     1
102
RTVSPropertyOp8
 70
     1
102
RTVSPropertyOp9
 70
     1
102
RTVSPropertyOp10
 70
     1
102
RTVSPropertyOp11
 70
     1
102
RTVSPropertyOp12
 70
     1
102
RTVSPropertyOp13
 70
     1
102
RTVSPropertyOp14
 70
     1
102
RTVSPropertyOp15
 70
     1
102
RTVSPropertyOp16
 70
     1
102
RTVSPropertyOp17
 70
     1
102
RTVSPropertyOp18
 70
     1
102
RTVSPropertyOp19
 70
     1
102
RTVSPropertyOp20
 70
     1
102
RTVSPropertyOp21
 70
     1
102
RTVSPropertyOp22
 70
     1
102
RTVSPropertyOp23
 70
     1
102
RTVSPropertyOp24
 70
     1
102
RTVSPropertyOp25
 70
     1
102
RTVSPropertyOp26
 70
     1
102
RTVSPropertyOp27
 70
     1
102
RTVSPropertyOp28
 70
     1
102
RTVSPropertyOp29
 70
     1
102
RTVSPropertyOp30
 70
     1
102
RTVSPropertyOp31
 70
     1
102
RTVSPropertyOp32
 70
     1
  0
XRECORD
  5
110
102
{ACAD_REACTORS
330
10F
102
}
330
10F
100
AcDbXrecord
280
     1
102
RTVSPropertyOp0
 70
     1
102
RTVSPropertyOp1
 70
     1
102
RTVSPropertyOp2
 70
     1
102
RTVSPropertyOp3
 70
     1
102
RTVSPropertyOp4
 70
     1
102
RTVSPropertyOp5
 70
     1
102
RTVSPropertyOp6
 70
     1
102
RTVSPropertyOp7
 70
     1
102
RTVSPropertyOp8
 70
     1
102
RTVSPropertyOp9
 70
     1
102
RTVSPropertyOp10
 70
     1
102
RTVSPropertyOp11
 70
     1
102
RTVSPropertyOp12
 70
     1
102
RTVSPropertyOp13
 70
     1
102
RTVSPropertyOp14
 70
     1
102
RTVSPropertyOp15
 70
     1
102
RTVSPropertyOp16
 70
     1
102
RTVSPropertyOp17
 70
     1
102
RTVSPropertyOp18
 70
     1
102
RTVSPropertyOp19
 70
     1
102
RTVSPropertyOp20
 70
     1
102
RTVSPropertyOp21
 70
     1
102
RTVSPropertyOp22
 70
     1
102
RTVSPropertyOp23
 70
     1
102
RTVSPropertyOp24
 70
     1
102
RTVSPropertyOp25
 70
     1
102
RTVSPropertyOp26
 70
     1
102
RTVSPropertyOp27
 70
     1
102
RTVSPropertyOp28
 70
     1
102
RTVSPropertyOp29
 70
     1
102
RTVSPropertyOp30
 70
     1
102
RTVSPropertyOp31
 70
     1
102
RTVSPropertyOp32
 70
     1
  0
XRECORD
  5
118
102
{ACAD_REACTORS
330
117
102
}
330
117
100
AcDbXrecord
280
     1
102
RTVSPropertyOp0
 70
     1
102
RTVSPropertyOp1
 70
     1
102
RTVSPropertyOp2
 70
     1
102
RTVSPropertyOp3
 70
     1
102
RTVSPropertyOp4
 70
     1
102
RTVSPropertyOp5
 70
     1
102
RTVSPropertyOp6
 70
     1
102
RTVSPropertyOp7
 70
     1
102
RTVSPropertyOp8
 70
     1
102
RTVSPropertyOp9
 70
     1
102
RTVSPropertyOp10
 70
     1
102
RTVSPropertyOp11
 70
     1
102
RTVSPropertyOp12
 70
     1
102
RTVSPropertyOp13
 70
     1
102
RTVSPropertyOp14
 70
     1
102
RTVSPropertyOp15
 70
     1
102
RTVSPropertyOp16
 70
     1
102
RTVSPropertyOp17
 70
     1
102
RTVSPropertyOp18
 70
     1
102
RTVSPropertyOp19
 70
     1
102
RTVSPropertyOp20
 70
     1
102
RTVSPropertyOp21
 70
     1
102
RTVSPropertyOp22
 70
     1
102
RTVSPropertyOp23
 70
     1
102
RTVSPropertyOp24
 70
     1
102
RTVSPropertyOp25
 70
     1
102
RTVSPropertyOp26
 70
     1
102
RTVSPropertyOp27
 70
     1
102
RTVSPropertyOp28
 70
     1
102
RTVSPropertyOp29
 70
     1
102
RTVSPropertyOp30
 70
     1
102
RTVSPropertyOp31
 70
     1
102
RTVSPropertyOp32
 70
     1
  0
XRECORD
  5
120
102
{ACAD_REACTORS
330
11F
102
}
330
11F
100
AcDbXrecord
280
     1
102
RTVSPropertyOp0
 70
     1
102
RTVSPropertyOp1
 70
     1
102
RTVSPropertyOp2
 70
     1
102
RTVSPropertyOp3
 70
     1
102
RTVSPropertyOp4
 70
     1
102
RTVSPropertyOp5
 70
     1
102
RTVSPropertyOp6
 70
     1
102
RTVSPropertyOp7
 70
     1
102
RTVSPropertyOp8
 70
     1
102
RTVSPropertyOp9
 70
     1
102
RTVSPropertyOp10
 70
     1
102
RTVSPropertyOp11
 70
     1
102
RTVSPropertyOp12
 70
     1
102
RTVSPropertyOp13
 70
     1
102
RTVSPropertyOp14
 70
     1
102
RTVSPropertyOp15
 70
     1
102
RTVSPropertyOp16
 70
     1
102
RTVSPropertyOp17
 70
     1
102
RTVSPropertyOp18
 70
     1
102
RTVSPropertyOp19
 70
     1
102
RTVSPropertyOp20
 70
     1
102
RTVSPropertyOp21
 70
     1
102
RTVSPropertyOp22
 70
     1
102
RTVSPropertyOp23
 70
     1
102
RTVSPropertyOp24
 70
     1
102
RTVSPropertyOp25
 70
     1
102
RTVSPropertyOp26
 70
     1
102
RTVSPropertyOp27
 70
     1
102
RTVSPropertyOp28
 70
     1
102
RTVSPropertyOp29
 70
     1
102
RTVSPropertyOp30
 70
     1
102
RTVSPropertyOp31
 70
     1
102
RTVSPropertyOp32
 70
     1
  0
XRECORD
  5
114
102
{ACAD_REACTORS
330
113
102
}
330
113
100
AcDbXrecord
280
     1
102
RTVSPropertyOp0
 70
     1
102
RTVSPropertyOp1
 70
     1
102
RTVSPropertyOp2
 70
     1
102
RTVSPropertyOp3
 70
     1
102
RTVSPropertyOp4
 70
     1
102
RTVSPropertyOp5
 70
     1
102
RTVSPropertyOp6
 70
     1
102
RTVSPropertyOp7
 70
     1
102
RTVSPropertyOp8
 70
     1
102
RTVSPropertyOp9
 70
     1
102
RTVSPropertyOp10
 70
     1
102
RTVSPropertyOp11
 70
     1
102
RTVSPropertyOp12
 70
     1
102
RTVSPropertyOp13
 70
     1
102
RTVSPropertyOp14
 70
     1
102
RTVSPropertyOp15
 70
     1
102
RTVSPropertyOp16
 70
     1
102
RTVSPropertyOp17
 70
     1
102
RTVSPropertyOp18
 70
     1
102
RTVSPropertyOp19
 70
     1
102
RTVSPropertyOp20
 70
     1
102
RTVSPropertyOp21
 70
     1
102
RTVSPropertyOp22
 70
     1
102
RTVSPropertyOp23
 70
     1
102
RTVSPropertyOp24
 70
     1
102
RTVSPropertyOp25
 70
     1
102
RTVSPropertyOp26
 70
     1
102
RTVSPropertyOp27
 70
     1
102
RTVSPropertyOp28
 70
     1
102
RTVSPropertyOp29
 70
     1
102
RTVSPropertyOp30
 70
     1
102
RTVSPropertyOp31
 70
     1
102
RTVSPropertyOp32
 70
     1
  0
XRECORD
  5
116
102
{ACAD_REACTORS
330
115
102
}
330
115
100
AcDbXrecord
280
     1
102
RTVSPropertyOp0
 70
     1
102
RTVSPropertyOp1
 70
     1
102
RTVSPropertyOp2
 70
     1
102
RTVSPropertyOp3
 70
     1
102
RTVSPropertyOp4
 70
     1
102
RTVSPropertyOp5
 70
     1
102
RTVSPropertyOp6
 70
     1
102
RTVSPropertyOp7
 70
     1
102
RTVSPropertyOp8
 70
     1
102
RTVSPropertyOp9
 70
     1
102
RTVSPropertyOp10
 70
     1
102
RTVSPropertyOp11
 70
     1
102
RTVSPropertyOp12
 70
     1
102
RTVSPropertyOp13
 70
     1
102
RTVSPropertyOp14
 70
     1
102
RTVSPropertyOp15
 70
     1
102
RTVSPropertyOp16
 70
     1
102
RTVSPropertyOp17
 70
     1
102
RTVSPropertyOp18
 70
     1
102
RTVSPropertyOp19
 70
     1
102
RTVSPropertyOp20
 70
     1
102
RTVSPropertyOp21
 70
     1
102
RTVSPropertyOp22
 70
     1
102
RTVSPropertyOp23
 70
     1
102
RTVSPropertyOp24
 70
     1
102
RTVSPropertyOp25
 70
     1
102
RTVSPropertyOp26
 70
     1
102
RTVSPropertyOp27
 70
     1
102
RTVSPropertyOp28
 70
     1
102
RTVSPropertyOp29
 70
     1
102
RTVSPropertyOp30
 70
     1
102
RTVSPropertyOp31
 70
     1
102
RTVSPropertyOp32
 70
     1
  0
XRECORD
  5
11E
102
{ACAD_REACTORS
330
11D
102
}
330
11D
100
AcDbXrecord
280
     1
102
RTVSPropertyOp0
 70
     1
102
RTVSPropertyOp1
 70
     1
102
RTVSPropertyOp2
 70
     1
102
RTVSPropertyOp3
 70
     1
102
RTVSPropertyOp4
 70
     1
102
RTVSPropertyOp5
 70
     1
102
RTVSPropertyOp6
 70
     1
102
RTVSPropertyOp7
 70
     1
102
RTVSPropertyOp8
 70
     1
102
RTVSPropertyOp9
 70
     1
102
RTVSPropertyOp10
 70
     1
102
RTVSPropertyOp11
 70
     1
102
RTVSPropertyOp12
 70
     1
102
RTVSPropertyOp13
 70
     1
102
RTVSPropertyOp14
 70
     1
102
RTVSPropertyOp15
 70
     1
102
RTVSPropertyOp16
 70
     1
102
RTVSPropertyOp17
 70
     1
102
RTVSPropertyOp18
 70
     1
102
RTVSPropertyOp19
 70
     1
102
RTVSPropertyOp20
 70
     1
102
RTVSPropertyOp21
 70
     1
102
RTVSPropertyOp22
 70
     1
102
RTVSPropertyOp23
 70
     1
102
RTVSPropertyOp24
 70
     1
102
RTVSPropertyOp25
 70
     1
102
RTVSPropertyOp26
 70
     1
102
RTVSPropertyOp27
 70
     1
102
RTVSPropertyOp28
 70
     1
102
RTVSPropertyOp29
 70
     1
102
RTVSPropertyOp30
 70
     1
102
RTVSPropertyOp31
 70
     1
102
RTVSPropertyOp32
 70
     1
  0
XRECORD
  5
102
102
{ACAD_REACTORS
330
101
102
}
330
101
100
AcDbXrecord
280
     1
102
RTVSPropertyOp0
 70
     1
102
RTVSPropertyOp1
 70
     1
102
RTVSPropertyOp2
 70
     1
102
RTVSPropertyOp3
 70
     1
102
RTVSPropertyOp4
 70
     1
102
RTVSPropertyOp5
 70
     1
102
RTVSPropertyOp6
 70
     1
102
RTVSPropertyOp7
 70
     1
102
RTVSPropertyOp8
 70
     1
102
RTVSPropertyOp9
 70
     1
102
RTVSPropertyOp10
 70
     1
102
RTVSPropertyOp11
 70
     1
102
RTVSPropertyOp12
 70
     1
102
RTVSPropertyOp13
 70
     1
102
RTVSPropertyOp14
 70
     1
102
RTVSPropertyOp15
 70
     1
102
RTVSPropertyOp16
 70
     1
102
RTVSPropertyOp17
 70
     1
102
RTVSPropertyOp18
 70
     1
102
RTVSPropertyOp19
 70
     1
102
RTVSPropertyOp20
 70
     1
102
RTVSPropertyOp21
 70
     1
102
RTVSPropertyOp22
 70
     1
102
RTVSPropertyOp23
 70
     1
102
RTVSPropertyOp24
 70
     1
102
RTVSPropertyOp25
 70
     1
102
RTVSPropertyOp26
 70
     1
102
RTVSPropertyOp27
 70
     1
102
RTVSPropertyOp28
 70
     1
102
RTVSPropertyOp29
 70
     1
102
RTVSPropertyOp30
 70
     1
102
RTVSPropertyOp31
 70
     1
102
RTVSPropertyOp32
 70
     1
  0
XRECORD
  5
104
102
{ACAD_REACTORS
330
103
102
}
330
103
100
AcDbXrecord
280
     1
102
RTVSPropertyOp0
 70
     1
102
RTVSPropertyOp1
 70
     1
102
RTVSPropertyOp2
 70
     1
102
RTVSPropertyOp3
 70
     1
102
RTVSPropertyOp4
 70
     1
102
RTVSPropertyOp5
 70
     1
102
RTVSPropertyOp6
 70
     1
102
RTVSPropertyOp7
 70
     1
102
RTVSPropertyOp8
 70
     1
102
RTVSPropertyOp9
 70
     1
102
RTVSPropertyOp10
 70
     1
102
RTVSPropertyOp11
 70
     1
102
RTVSPropertyOp12
 70
     1
102
RTVSPropertyOp13
 70
     1
102
RTVSPropertyOp14
 70
     1
102
RTVSPropertyOp15
 70
     1
102
RTVSPropertyOp16
 70
     1
102
RTVSPropertyOp17
 70
     1
102
RTVSPropertyOp18
 70
     1
102
RTVSPropertyOp19
 70
     1
102
RTVSPropertyOp20
 70
     1
102
RTVSPropertyOp21
 70
     1
102
RTVSPropertyOp22
 70
     1
102
RTVSPropertyOp23
 70
     1
102
RTVSPropertyOp24
 70
     1
102
RTVSPropertyOp25
 70
     1
102
RTVSPropertyOp26
 70
     1
102
RTVSPropertyOp27
 70
     1
102
RTVSPropertyOp28
 70
     1
102
RTVSPropertyOp29
 70
     1
102
RTVSPropertyOp30
 70
     1
102
RTVSPropertyOp31
 70
     1
102
RTVSPropertyOp32
 70
     1
  0
XRECORD
  5
106
102
{ACAD_REACTORS
330
105
102
}
330
105
100
AcDbXrecord
280
     1
102
RTVSPropertyOp0
 70
     1
102
RTVSPropertyOp1
 70
     1
102
RTVSPropertyOp2
 70
     1
102
RTVSPropertyOp3
 70
     1
102
RTVSPropertyOp4
 70
     1
102
RTVSPropertyOp5
 70
     1
102
RTVSPropertyOp6
 70
     1
102
RTVSPropertyOp7
 70
     1
102
RTVSPropertyOp8
 70
     1
102
RTVSPropertyOp9
 70
     1
102
RTVSPropertyOp10
 70
     1
102
RTVSPropertyOp11
 70
     1
102
RTVSPropertyOp12
 70
     1
102
RTVSPropertyOp13
 70
     1
102
RTVSPropertyOp14
 70
     1
102
RTVSPropertyOp15
 70
     1
102
RTVSPropertyOp16
 70
     1
102
RTVSPropertyOp17
 70
     1
102
RTVSPropertyOp18
 70
     1
102
RTVSPropertyOp19
 70
     1
102
RTVSPropertyOp20
 70
     1
102
RTVSPropertyOp21
 70
     1
102
RTVSPropertyOp22
 70
     1
102
RTVSPropertyOp23
 70
     1
102
RTVSPropertyOp24
 70
     1
102
RTVSPropertyOp25
 70
     1
102
RTVSPropertyOp26
 70
     1
102
RTVSPropertyOp27
 70
     1
102
RTVSPropertyOp28
 70
     1
102
RTVSPropertyOp29
 70
     1
102
RTVSPropertyOp30
 70
     1
102
RTVSPropertyOp31
 70
     1
102
RTVSPropertyOp32
 70
     1
  0
XRECORD
  5
108
102
{ACAD_REACTORS
330
107
102
}
330
107
100
AcDbXrecord
280
     1
102
RTVSPropertyOp0
 70
     1
102
RTVSPropertyOp1
 70
     1
102
RTVSPropertyOp2
 70
     1
102
RTVSPropertyOp3
 70
     1
102
RTVSPropertyOp4
 70
     1
102
RTVSPropertyOp5
 70
     1
102
RTVSPropertyOp6
 70
     1
102
RTVSPropertyOp7
 70
     1
102
RTVSPropertyOp8
 70
     1
102
RTVSPropertyOp9
 70
     1
102
RTVSPropertyOp10
 70
     1
102
RTVSPropertyOp11
 70
     1
102
RTVSPropertyOp12
 70
     1
102
RTVSPropertyOp13
 70
     1
102
RTVSPropertyOp14
 70
     1
102
RTVSPropertyOp15
 70
     1
102
RTVSPropertyOp16
 70
     1
102
RTVSPropertyOp17
 70
     1
102
RTVSPropertyOp18
 70
     1
102
RTVSPropertyOp19
 70
     1
102
RTVSPropertyOp20
 70
     1
102
RTVSPropertyOp21
 70
     1
102
RTVSPropertyOp22
 70
     1
102
RTVSPropertyOp23
 70
     1
102
RTVSPropertyOp24
 70
     1
102
RTVSPropertyOp25
 70
     1
102
RTVSPropertyOp26
 70
     1
102
RTVSPropertyOp27
 70
     1
102
RTVSPropertyOp28
 70
     1
102
RTVSPropertyOp29
 70
     1
102
RTVSPropertyOp30
 70
     1
102
RTVSPropertyOp31
 70
     1
102
RTVSPropertyOp32
 70
     1
  0
XRECORD
  5
11C
102
{ACAD_REACTORS
330
11B
102
}
330
11B
100
AcDbXrecord
280
     1
102
RTVSPropertyOp0
 70
     1
102
RTVSPropertyOp1
 70
     1
102
RTVSPropertyOp2
 70
     1
102
RTVSPropertyOp3
 70
     1
102
RTVSPropertyOp4
 70
     1
102
RTVSPropertyOp5
 70
     1
102
RTVSPropertyOp6
 70
     1
102
RTVSPropertyOp7
 70
     1
102
RTVSPropertyOp8
 70
     1
102
RTVSPropertyOp9
 70
     1
102
RTVSPropertyOp10
 70
     1
102
RTVSPropertyOp11
 70
     1
102
RTVSPropertyOp12
 70
     1
102
RTVSPropertyOp13
 70
     1
102
RTVSPropertyOp14
 70
     1
102
RTVSPropertyOp15
 70
     1
102
RTVSPropertyOp16
 70
     1
102
RTVSPropertyOp17
 70
     1
102
RTVSPropertyOp18
 70
     1
102
RTVSPropertyOp19
 70
     1
102
RTVSPropertyOp20
 70
     1
102
RTVSPropertyOp21
 70
     1
102
RTVSPropertyOp22
 70
     1
102
RTVSPropertyOp23
 70
     1
102
RTVSPropertyOp24
 70
     1
102
RTVSPropertyOp25
 70
     1
102
RTVSPropertyOp26
 70
     1
102
RTVSPropertyOp27
 70
     1
102
RTVSPropertyOp28
 70
     1
102
RTVSPropertyOp29
 70
     1
102
RTVSPropertyOp30
 70
     1
102
RTVSPropertyOp31
 70
     1
102
RTVSPropertyOp32
 70
     1
  0
XRECORD
  5
112
102
{ACAD_REACTORS
330
111
102
}
330
111
100
AcDbXrecord
280
     1
102
RTVSPropertyOp0
 70
     1
102
RTVSPropertyOp1
 70
     1
102
RTVSPropertyOp2
 70
     1
102
RTVSPropertyOp3
 70
     1
102
RTVSPropertyOp4
 70
     1
102
RTVSPropertyOp5
 70
     1
102
RTVSPropertyOp6
 70
     1
102
RTVSPropertyOp7
 70
     1
102
RTVSPropertyOp8
 70
     1
102
RTVSPropertyOp9
 70
     1
102
RTVSPropertyOp10
 70
     1
102
RTVSPropertyOp11
 70
     1
102
RTVSPropertyOp12
 70
     1
102
RTVSPropertyOp13
 70
     1
102
RTVSPropertyOp14
 70
     1
102
RTVSPropertyOp15
 70
     1
102
RTVSPropertyOp16
 70
     1
102
RTVSPropertyOp17
 70
     1
102
RTVSPropertyOp18
 70
     1
102
RTVSPropertyOp19
 70
     1
102
RTVSPropertyOp20
 70
     1
102
RTVSPropertyOp21
 70
     1
102
RTVSPropertyOp22
 70
     1
102
RTVSPropertyOp23
 70
     1
102
RTVSPropertyOp24
 70
     1
102
RTVSPropertyOp25
 70
     1
102
RTVSPropertyOp26
 70
     1
102
RTVSPropertyOp27
 70
     1
102
RTVSPropertyOp28
 70
     1
102
RTVSPropertyOp29
 70
     1
102
RTVSPropertyOp30
 70
     1
102
RTVSPropertyOp31
 70
     1
102
RTVSPropertyOp32
 70
     1
  0
XRECORD
  5
11A
102
{ACAD_REACTORS
330
119
102
}
330
119
100
AcDbXrecord
280
     1
102
RTVSPropertyOp0
 70
     1
102
RTVSPropertyOp1
 70
     1
102
RTVSPropertyOp2
 70
     1
102
RTVSPropertyOp3
 70
     1
102
RTVSPropertyOp4
 70
     1
102
RTVSPropertyOp5
 70
     1
102
RTVSPropertyOp6
 70
     1
102
RTVSPropertyOp7
 70
     1
102
RTVSPropertyOp8
 70
     1
102
RTVSPropertyOp9
 70
     1
102
RTVSPropertyOp10
 70
     1
102
RTVSPropertyOp11
 70
     1
102
RTVSPropertyOp12
 70
     1
102
RTVSPropertyOp13
 70
     1
102
RTVSPropertyOp14
 70
     1
102
RTVSPropertyOp15
 70
     1
102
RTVSPropertyOp16
 70
     1
102
RTVSPropertyOp17
 70
     1
102
RTVSPropertyOp18
 70
     1
102
RTVSPropertyOp19
 70
     1
102
RTVSPropertyOp20
 70
     1
102
RTVSPropertyOp21
 70
     1
102
RTVSPropertyOp22
 70
     1
102
RTVSPropertyOp23
 70
     1
102
RTVSPropertyOp24
 70
     1
102
RTVSPropertyOp25
 70
     1
102
RTVSPropertyOp26
 70
     1
102
RTVSPropertyOp27
 70
     1
102
RTVSPropertyOp28
 70
     1
102
RTVSPropertyOp29
 70
     1
102
RTVSPropertyOp30
 70
     1
102
RTVSPropertyOp31
 70
     1
102
RTVSPropertyOp32
 70
     1
  0
ENDSEC
  0
EOF
