  0
SECTION
  2
HEADER
  9
$ACADVER
  1
AC1015
  9
$ACADMAINTVER
 70
     6
  9
$DWGCODEPAGE
  3
ANSI_932
  9
$INSBASE
 10
0.0
 20
0.0
 30
0.0
  9
$EXTMIN
 10
0.0
 20
0.0
 30
0.0
  9
$EXTMAX
 10
210.0
 20
297.0
 30
0.0
  9
$LIMMIN
 10
0.0
 20
0.0
  9
$LIMMAX
 10
12.0
 20
9.0
  9
$ORTHOMODE
 70
     0
  9
$REGENMODE
 70
     1
  9
$FILLMODE
 70
     1
  9
$QTEXTMODE
 70
     0
  9
$MIRRTEXT
 70
     1
  9
$LTSCALE
 40
1.0
  9
$ATTMODE
 70
     1
  9
$TEXTSIZE
 40
0.2
  9
$TRACEWID
 40
0.05
  9
$TEXTSTYLE
  7
Standard
  9
$CLAYER
  8
0
  9
$CELTYPE
  6
ByLayer
  9
$CECOLOR
 62
   256
  9
$CELTSCALE
 40
1.0
  9
$DISPSILH
 70
     0
  9
$DIMSCALE
 40
1.0
  9
$DIMASZ
 40
0.18
  9
$DIMEXO
 40
0.0625
  9
$DIMDLI
 40
0.38
  9
$DIMRND
 40
0.0
  9
$DIMDLE
 40
0.0
  9
$DIMEXE
 40
0.18
  9
$DIMTP
 40
0.0
  9
$DIMTM
 40
0.0
  9
$DIMTXT
 40
0.18
  9
$DIMCEN
 40
0.09
  9
$DIMTSZ
 40
0.0
  9
$DIMTOL
 70
     0
  9
$DIMLIM
 70
     0
  9
$DIMTIH
 70
     1
  9
$DIMTOH
 70
     1
  9
$DIMSE1
 70
     0
  9
$DIMSE2
 70
     0
  9
$DIMTAD
 70
     0
  9
$DIMZIN
 70
     0
  9
$DIMBLK
  1

  9
$DIMASO
 70
     1
  9
$DIMSHO
 70
     1
  9
$DIMPOST
  1

  9
$DIMAPOST
  1

  9
$DIMALT
 70
     0
  9
$DIMALTD
 70
     2
  9
$DIMALTF
 40
25.4
  9
$DIMLFAC
 40
1.0
  9
$DIMTOFL
 70
     0
  9
$DIMTVP
 40
0.0
  9
$DIMTIX
 70
     0
  9
$DIMSOXD
 70
     0
  9
$DIMSAH
 70
     0
  9
$DIMBLK1
  1

  9
$DIMBLK2
  1

  9
$DIMSTYLE
  2
Standard
  9
$DIMCLRD
 70
     0
  9
$DIMCLRE
 70
     0
  9
$DIMCLRT
 70
     0
  9
$DIMTFAC
 40
1.0
  9
$DIMGAP
 40
0.09
  9
$DIMJUST
 70
     0
  9
$DIMSD1
 70
     0
  9
$DIMSD2
 70
     0
  9
$DIMTOLJ
 70
     1
  9
$DIMTZIN
 70
     0
  9
$DIMALTZ
 70
     0
  9
$DIMALTTZ
 70
     0
  9
$DIMUPT
 70
     0
  9
$DIMDEC
 70
     4
  9
$DIMTDEC
 70
     4
  9
$DIMALTU
 70
     2
  9
$DIMALTTD
 70
     2
  9
$DIMTXSTY
  7
Standard
  9
$DIMAUNIT
 70
     0
  9
$DIMADEC
 70
     0
  9
$DIMALTRND
 40
0.0
  9
$DIMAZIN
 70
     0
  9
$DIMDSEP
 70
    46
  9
$DIMATFIT
 70
     3
  9
$DIMFRAC
 70
     0
  9
$DIMLDRBLK
  1

  9
$DIMLUNIT
 70
     2
  9
$DIMLWD
 70
    -2
  9
$DIMLWE
 70
    -2
  9
$DIMTMOVE
 70
     0
  9
$LUNITS
 70
     2
  9
$LUPREC
 70
     4
  9
$SKETCHINC
 40
0.1
  9
$FILLETRAD
 40
0.5
  9
$AUNITS
 70
     0
  9
$AUPREC
 70
     0
  9
$MENU
  1
.
  9
$ELEVATION
 40
0.0
  9
$PELEVATION
 40
0.0
  9
$THICKNESS
 40
0.0
  9
$LIMCHECK
 70
     0
  9
$CHAMFERA
 40
0.5
  9
$CHAMFERB
 40
0.5
  9
$CHAMFERC
 40
1.0
  9
$CHAMFERD
 40
0.0
  9
$SKPOLY
 70
     0
  9
$TDCREATE
 40
2459951.398289826
  9
$TDUCREATE
 40
2459951.023289826
  9
$TDUPDATE
 40
2459951.398291099
  9
$TDUUPDATE
 40
2459951.023291099
  9
$TDINDWG
 40
0.0000000116
  9
$TDUSRTIMER
 40
0.0000000116
  9
$USRTIMER
 70
     1
  9
$ANGBASE
 50
0.0
  9
$ANGDIR
 70
     0
  9
$PDMODE
 70
     0
  9
$PDSIZE
 40
0.0
  9
$PLINEWID
 40
0.0
  9
$SPLFRAME
 70
     0
  9
$SPLINETYPE
 70
     6
  9
$SPLINESEGS
 70
     8
  9
$HANDSEED
  5
1E0
  9
$SURFTAB1
 70
     6
  9
$SURFTAB2
 70
     6
  9
$SURFTYPE
 70
     6
  9
$SURFU
 70
     6
  9
$SURFV
 70
     6
  9
$UCSBASE
  2

  9
$UCSNAME
  2

  9
$UCSORG
 10
0.0
 20
0.0
 30
0.0
  9
$UCSXDIR
 10
1.0
 20
0.0
 30
0.0
  9
$UCSYDIR
 10
0.0
 20
1.0
 30
0.0
  9
$UCSORTHOREF
  2

  9
$UCSORTHOVIEW
 70
     0
  9
$UCSORGTOP
 10
0.0
 20
0.0
 30
0.0
  9
$UCSORGBOTTOM
 10
0.0
 20
0.0
 30
0.0
  9
$UCSORGLEFT
 10
0.0
 20
0.0
 30
0.0
  9
$UCSORGRIGHT
 10
0.0
 20
0.0
 30
0.0
  9
$UCSORGFRONT
 10
0.0
 20
0.0
 30
0.0
  9
$UCSORGBACK
 10
0.0
 20
0.0
 30
0.0
  9
$PUCSBASE
  2

  9
$PUCSNAME
  2

  9
$PUCSORG
 10
0.0
 20
0.0
 30
0.0
  9
$PUCSXDIR
 10
1.0
 20
0.0
 30
0.0
  9
$PUCSYDIR
 10
0.0
 20
1.0
 30
0.0
  9
$PUCSORTHOREF
  2

  9
$PUCSORTHOVIEW
 70
     0
  9
$PUCSORGTOP
 10
0.0
 20
0.0
 30
0.0
  9
$PUCSORGBOTTOM
 10
0.0
 20
0.0
 30
0.0
  9
$PUCSORGLEFT
 10
0.0
 20
0.0
 30
0.0
  9
$PUCSORGRIGHT
 10
0.0
 20
0.0
 30
0.0
  9
$PUCSORGFRONT
 10
0.0
 20
0.0
 30
0.0
  9
$PUCSORGBACK
 10
0.0
 20
0.0
 30
0.0
  9
$USERI1
 70
     0
  9
$USERI2
 70
     0
  9
$USERI3
 70
     0
  9
$USERI4
 70
     0
  9
$USERI5
 70
     0
  9
$USERR1
 40
18.1
  9
$USERR2
 40
0.0
  9
$USERR3
 40
0.0
  9
$USERR4
 40
0.0
  9
$USERR5
 40
0.0
  9
$WORLDVIEW
 70
     1
  9
$SHADEDGE
 70
     3
  9
$SHADEDIF
 70
    70
  9
$TILEMODE
 70
     1
  9
$MAXACTVP
 70
    64
  9
$PINSBASE
 10
0.0
 20
0.0
 30
0.0
  9
$PLIMCHECK
 70
     0
  9
$PEXTMIN
 10
1.00000000000000E+20
 20
1.00000000000000E+20
 30
1.00000000000000E+20
  9
$PEXTMAX
 10
-1.00000000000000E+20
 20
-1.00000000000000E+20
 30
-1.00000000000000E+20
  9
$PLIMMIN
 10
0.0
 20
0.0
  9
$PLIMMAX
 10
12.0
 20
9.0
  9
$UNITMODE
 70
     0
  9
$VISRETAIN
 70
     1
  9
$PLINEGEN
 70
     0
  9
$PSLTSCALE
 70
     1
  9
$TREEDEPTH
 70
  3020
  9
$CMLSTYLE
  2
Standard
  9
$CMLJUST
 70
     0
  9
$CMLSCALE
 40
1.0
  9
$PROXYGRAPHICS
 70
     1
  9
$MEASUREMENT
 70
     1
  9
$CELWEIGHT
370
    -1
  9
$ENDCAPS
280
     0
  9
$JOINSTYLE
280
     0
  9
$LWDISPLAY
290
     0
  9
$INSUNITS
 70
     4
  9
$HYPERLINKBASE
  1

  9
$STYLESHEET
  1

  9
$XEDIT
290
     1
  9
$CEPSNTYPE
380
     0
  9
$PSTYLEMODE
290
     1
  9
$FINGERPRINTGUID
  2
{78891766-A41F-4A0F-971A-B67922984065}
  9
$VERSIONGUID
  2
{FAEB1C32-E019-11D5-929B-00C0DF256EC4}
  9
$EXTNAMES
290
     1
  9
$PSVPSCALE
 40
0.0
  9
$OLESTARTUP
290
     0
  0
ENDSEC
  0
SECTION
  2
CLASSES
  0
CLASS
  1
ACDBDICTIONARYWDFLT
  2
AcDbDictionaryWithDefault
  3
ObjectDBX Classes
 90
        0
280
     0
281
     0
  0
CLASS
  1
VISUALSTYLE
  2
AcDbVisualStyle
  3
ObjectDBX Classes
 90
     4095
280
     0
281
     0
  0
CLASS
  1
MATERIAL
  2
AcDbMaterial
  3
ObjectDBX Classes
 90
     1153
280
     0
281
     0
  0
CLASS
  1
DICTIONARYVAR
  2
AcDbDictionaryVar
  3
ObjectDBX Classes
 90
        0
280
     0
281
     0
  0
CLASS
  1
ACDBPLACEHOLDER
  2
AcDbPlaceHolder
  3
ObjectDBX Classes
 90
        0
280
     0
281
     0
  0
CLASS
  1
LAYOUT
  2
AcDbLayout
  3
ObjectDBX Classes
 90
        0
280
     0
281
     0
  0
ENDSEC
  0
SECTION
  2
TABLES
  0
TABLE
  2
VPORT
  5
8
330
0
100
AcDbSymbolTable
 70
     1
  0
VPORT
  5
29
330
8
100
AcDbSymbolTableRecord
100
AcDbViewportTableRecord
  2
*Active
 70
     0
 10
0.0
 20
0.0
 11
1.0
 21
1.0
 12
105.0
 22
148.5
 13
0.0
 23
0.0
 14
0.5
 24
0.5
 15
0.5
 25
0.5
 16
0.0
 26
0.0
 36
1.0
 17
0.0
 27
0.0
 37
0.0
 40
326.7
 41
1.60267857142857
 42
50.0
 43
0.0
 44
0.0
 50
0.0
 51
0.0
 71
     0
 72
   100
 73
     1
 74
     3
 75
     0
 76
     0
 77
     0
 78
     0
281
     0
 65
     1
110
0.0
120
0.0
130
0.0
111
1.0
121
0.0
131
0.0
112
0.0
122
1.0
132
0.0
 79
     0
146
0.0
  0
ENDTAB
  0
TABLE
  2
LTYPE
  5
5
330
0
100
AcDbSymbolTable
 70
     8
  0
LTYPE
  5
14
330
5
100
AcDbSymbolTableRecord
100
AcDbLinetypeTableRecord
  2
ByBlock
 70
     0
  3

 72
    65
 73
     0
 40
0.0
  0
LTYPE
  5
15
330
5
100
AcDbSymbolTableRecord
100
AcDbLinetypeTableRecord
  2
ByLayer
 70
     0
  3

 72
    65
 73
     0
 40
0.0
  0
LTYPE
  5
16
330
5
100
AcDbSymbolTableRecord
100
AcDbLinetypeTableRecord
  2
Continuous
 70
     0
  3
Solid line
 72
    65
 73
     0
 40
0.0
  0
LTYPE
  5
3F
330
5
100
AcDbSymbolTableRecord
100
AcDbLinetypeTableRecord
  2
DASHED
 70
     0
  3
Dashed
 72
    65
 73
     2
 40
15.0
 49
7.0
 74
     0
 49
-8.0
 74
     0
  0
LTYPE
  5
40
330
5
100
AcDbSymbolTableRecord
100
AcDbLinetypeTableRecord
  2
DOTTED
 70
     0
  3
Dotted
 72
    65
 73
     2
 40
1.0
 49
0.0
 74
     0
 49
-1.0
 74
     0
  0
LTYPE
  5
41
330
5
100
AcDbSymbolTableRecord
100
AcDbLinetypeTableRecord
  2
DOT_CENTER
 70
     0
  3
Dot_Center
 72
    65
 73
     4
 40
14.0
 49
12.0
 74
     0
 49
-1.0
 74
     0
 49
0.0
 74
     0
 49
-1.0
 74
     0
  0
LTYPE
  5
42
330
5
100
AcDbSymbolTableRecord
100
AcDbLinetypeTableRecord
  2
LONG_DASHED
 70
     0
  3
Long_Dashed
 72
    65
 73
     2
 40
15.0
 49
10.0
 74
     0
 49
-5.0
 74
     0
  0
LTYPE
  5
43
330
5
100
AcDbSymbolTableRecord
100
AcDbLinetypeTableRecord
  2
DASH_CENTER
 70
     0
  3
Dash_Center
 72
    65
 73
     4
 40
14.0
 49
11.0
 74
     0
 49
-1.0
 74
     0
 49
1.0
 74
     0
 49
-1.0
 74
     0
  0
LTYPE
  5
44
330
5
100
AcDbSymbolTableRecord
100
AcDbLinetypeTableRecord
  2
PHANTOM
 70
     0
  3
Phantom
 72
    65
 73
     6
 40
13.0
 49
10.0
 74
     0
 49
-1.0
 74
     0
 49
0.0
 74
     0
 49
-1.0
 74
     0
 49
0.0
 74
     0
 49
-1.0
 74
     0
  0
LTYPE
  5
45
330
5
100
AcDbSymbolTableRecord
100
AcDbLinetypeTableRecord
  2
CENTER_DASH_DASH
 70
     0
  3
Center_Dash_Dash
 72
    65
 73
     6
 40
14.0
 49
9.0
 74
     0
 49
-1.0
 74
     0
 49
1.0
 74
     0
 49
-1.0
 74
     0
 49
1.0
 74
     0
 49
-1.0
 74
     0
  0
ENDTAB
  0
TABLE
  2
LAYER
  5
2
330
0
100
AcDbSymbolTable
 70
     3
  0
LAYER
  5
10
330
2
100
AcDbSymbolTableRecord
100
AcDbLayerTableRecord
  2
0
 70
     0
 62
     7
  6
Continuous
370
    -3
390
F
  0
LAYER
  5
46
330
2
100
AcDbSymbolTableRecord
100
AcDbLayerTableRecord
  2
1
 70
     0
 62
     7
  6
Continuous
370
    -3
390
F
  0
LAYER
  5
47
330
2
100
AcDbSymbolTableRecord
100
AcDbLayerTableRecord
  2
_U_30EC_U_30A4_U_30E4_U_30FC_1
 70
     0
 62
     7
  6
Continuous
370
    -3
390
F
  0
ENDTAB
  0
TABLE
  2
STYLE
  5
3
330
0
100
AcDbSymbolTable
 70
     3
  0
STYLE
  5
11
330
3
100
AcDbSymbolTableRecord
100
AcDbTextStyleTableRecord
  2
Standard
 70
     0
 40
0.0
 41
1.0
 50
0.0
 71
     0
 42
0.2
  3
txt
  4

  0
STYLE
  5
BA
330
3
100
AcDbSymbolTableRecord
100
AcDbTextStyleTableRecord
  2
CONVERTER_11
 70
     0
 40
0.0
 41
0.89
 50
0.0
 71
     0
 42
0.2
  3
MS Mincho.ttf
  4

1001
ACAD
1000
MS Mincho
1071
    32785
  0
STYLE
  5
187
330
3
100
AcDbSymbolTableRecord
100
AcDbTextStyleTableRecord
  2
CONVERTER_12
 70
     0
 40
0.0
 41
0.9
 50
0.0
 71
     0
 42
0.2
  3
txt.shx
  4

  0
ENDTAB
  0
TABLE
  2
VIEW
  5
6
330
0
100
AcDbSymbolTable
 70
     0
  0
ENDTAB
  0
TABLE
  2
UCS
  5
7
330
0
100
AcDbSymbolTable
 70
     0
  0
ENDTAB
  0
TABLE
  2
APPID
  5
9
330
0
100
AcDbSymbolTable
 70
     1
  0
APPID
  5
12
330
9
100
AcDbSymbolTableRecord
100
AcDbRegAppTableRecord
  2
ACAD
 70
     0
  0
ENDTAB
  0
TABLE
  2
DIMSTYLE
  5
A
330
0
100
AcDbSymbolTable
 70
     3
100
AcDbDimStyleTable
  0
DIMSTYLE
105
27
330
A
100
AcDbSymbolTableRecord
100
AcDbDimStyleTableRecord
  2
Standard
 70
     0
178
     0
340
11
  0
DIMSTYLE
105
1A0
102
{ACAD_REACTORS
330
1A1
102
}
330
A
100
AcDbSymbolTableRecord
100
AcDbDimStyleTableRecord
  2
ME10_DIM_10
 70
     0
  3
{\Fgdt;n}<>
 41
3.5
 42
0.0
 44
1.0
 73
     0
 74
     0
 77
     1
 78
     8
140
3.5
147
1.0
172
     1
173
     1
174
     1
175
     1
176
     2
177
     2
271
     2
178
     7
271
     2
340
187
  0
DIMSTYLE
105
1AB
102
{ACAD_REACTORS
330
1AC
102
}
330
A
100
AcDbSymbolTableRecord
100
AcDbDimStyleTableRecord
  2
ME10_DIM_11
 70
     0
 41
3.5
 42
0.0
 44
1.0
 73
     0
 74
     0
 77
     1
 78
     8
140
3.5
147
1.0
172
     1
173
     1
174
     1
175
     1
176
     2
177
     2
271
     2
178
     7
271
     2
340
187
  0
ENDTAB
  0
TABLE
  2
BLOCK_RECORD
  5
1
330
0
100
AcDbSymbolTable
 70
     8
  0
BLOCK_RECORD
  5
1F
330
1
100
AcDbSymbolTableRecord
100
AcDbBlockTableRecord
  2
*Model_Space
340
22
  0
BLOCK_RECORD
  5
1B
330
1
100
AcDbSymbolTableRecord
100
AcDbBlockTableRecord
  2
*Paper_Space
340
1E
  0
BLOCK_RECORD
  5
23
330
1
100
AcDbSymbolTableRecord
100
AcDbBlockTableRecord
  2
*Paper_Space0
340
26
  0
BLOCK_RECORD
  5
48
330
1
100
AcDbSymbolTableRecord
100
AcDbBlockTableRecord
  2
開示A4
340
0
102
{BLKREFS
331
4C
102
}
  0
BLOCK_RECORD
  5
4B
330
1
100
AcDbSymbolTableRecord
100
AcDbBlockTableRecord
  2
開示A4枠
340
0
102
{BLKREFS
331
55
102
}
  0
BLOCK_RECORD
  5
4F
330
1
100
AcDbSymbolTableRecord
100
AcDbBlockTableRecord
  2
T171-86-1
340
0
102
{BLKREFS
331
56
102
}
  0
BLOCK_RECORD
  5
52
330
1
100
AcDbSymbolTableRecord
100
AcDbBlockTableRecord
  2
T171-86-2
340
0
102
{BLKREFS
331
57
102
}
  0
BLOCK_RECORD
  5
197
330
1
100
AcDbSymbolTableRecord
100
AcDbBlockTableRecord
  2
*D5
340
0
  0
BLOCK_RECORD
  5
1A2
330
1
100
AcDbSymbolTableRecord
100
AcDbBlockTableRecord
  2
*D6
340
0
  0
BLOCK_RECORD
  5
1AD
330
1
100
AcDbSymbolTableRecord
100
AcDbBlockTableRecord
  2
*D7
340
0
102
{BLKREFS
331
1B4
102
}
  0
ENDTAB
  0
ENDSEC
  0
SECTION
  2
BLOCKS
  0
BLOCK
  5
20
330
1F
100
AcDbEntity
  8
0
100
AcDbBlockBegin
  2
*Model_Space
 70
     0
 10
0.0
 20
0.0
 30
0.0
  3
*Model_Space
  1

  0
ENDBLK
  5
21
330
1F
100
AcDbEntity
  8
0
100
AcDbBlockEnd
  0
BLOCK
  5
1C
330
1B
100
AcDbEntity
 67
     1
  8
0
100
AcDbBlockBegin
  2
*Paper_Space
 70
     0
 10
0.0
 20
0.0
 30
0.0
  3
*Paper_Space
  1

  0
ENDBLK
  5
1D
330
1B
100
AcDbEntity
 67
     1
  8
0
100
AcDbBlockEnd
  0
BLOCK
  5
24
330
23
100
AcDbEntity
  8
0
100
AcDbBlockBegin
  2
*Paper_Space0
 70
     0
 10
0.0
 20
0.0
 30
0.0
  3
*Paper_Space0
  1

  0
ENDBLK
  5
25
330
23
100
AcDbEntity
  8
0
100
AcDbBlockEnd
  0
BLOCK
  5
49
330
48
100
AcDbEntity
  8
0
100
AcDbBlockBegin
  2
開示A4
 70
     0
 10
0.0
 20
0.0
 30
0.0
  3
開示A4
  1

  0
POINT
  5
58
330
48
100
AcDbEntity
  8
1
 62
     4
100
AcDbPoint
 10
34.0
 20
34.0
 30
0.0
  0
POINT
  5
59
330
48
100
AcDbEntity
  8
1
 62
     4
100
AcDbPoint
 10
57.0
 20
12.25
 30
0.0
  0
POINT
  5
5A
330
48
100
AcDbEntity
  8
1
 62
     4
100
AcDbPoint
 10
57.0
 20
20.75
 30
0.0
  0
POINT
  5
5B
330
48
100
AcDbEntity
  8
1
 62
     4
100
AcDbPoint
 10
57.0
 20
24.75
 30
0.0
  0
POINT
  5
5C
330
48
100
AcDbEntity
  8
1
 62
     4
100
AcDbPoint
 10
57.0
 20
16.25
 30
0.0
  0
POINT
  5
5D
330
48
100
AcDbEntity
  8
1
 62
     4
100
AcDbPoint
 10
157.5
 20
19.0
 30
0.0
  0
POINT
  5
5E
330
48
100
AcDbEntity
  8
1
 62
     4
100
AcDbPoint
 10
47.5
 20
282.0000000000003
 30
0.0
  0
POINT
  5
5F
330
48
100
AcDbEntity
  8
1
 62
     4
100
AcDbPoint
 10
57.0
 20
22.75
 30
0.0
  0
POINT
  5
60
330
48
100
AcDbEntity
  8
1
 62
     4
100
AcDbPoint
 10
57.0
 20
14.25
 30
0.0
  0
POINT
  5
61
330
48
100
AcDbEntity
  8
1
 62
     4
100
AcDbPoint
 10
157.5
 20
12.5
 30
0.0
  0
POINT
  5
62
330
48
100
AcDbEntity
  8
1
 62
     4
100
AcDbPoint
 10
163.25
 20
12.5
 30
0.0
  0
POINT
  5
63
330
48
100
AcDbEntity
  8
1
 62
     4
100
AcDbPoint
 10
151.75
 20
12.5
 30
0.0
  0
POINT
  5
64
330
48
100
AcDbEntity
  8
1
 62
     4
100
AcDbPoint
 10
134.75
 20
12.5
 30
0.0
  0
POINT
  5
65
330
48
100
AcDbEntity
  8
1
 62
     4
100
AcDbPoint
 10
146.25
 20
12.5
 30
0.0
  0
POINT
  5
66
330
48
100
AcDbEntity
  8
1
 62
     4
100
AcDbPoint
 10
140.5
 20
12.5
 30
0.0
  0
POINT
  5
67
330
48
100
AcDbEntity
  8
1
 62
     4
100
AcDbPoint
 10
140.5
 20
19.0
 30
0.0
  0
POINT
  5
68
330
48
100
AcDbEntity
  8
1
 62
     4
100
AcDbPoint
 10
117.75
 20
12.5
 30
0.0
  0
POINT
  5
69
330
48
100
AcDbEntity
  8
1
 62
     4
100
AcDbPoint
 10
129.25
 20
12.5
 30
0.0
  0
POINT
  5
6A
330
48
100
AcDbEntity
  8
1
 62
     4
100
AcDbPoint
 10
123.5
 20
12.5
 30
0.0
  0
POINT
  5
6B
330
48
100
AcDbEntity
  8
1
 62
     4
100
AcDbPoint
 10
123.5
 20
19.0
 30
0.0
  0
POINT
  5
6C
330
48
100
AcDbEntity
  8
1
 62
     4
100
AcDbPoint
 10
100.75
 20
12.5
 30
0.0
  0
POINT
  5
6D
330
48
100
AcDbEntity
  8
1
 62
     4
100
AcDbPoint
 10
112.25
 20
12.5
 30
0.0
  0
POINT
  5
6E
330
48
100
AcDbEntity
  8
1
 62
     4
100
AcDbPoint
 10
106.5
 20
12.5
 30
0.0
  0
POINT
  5
6F
330
48
100
AcDbEntity
  8
1
 62
     4
100
AcDbPoint
 10
106.5
 20
19.0
 30
0.0
  0
POINT
  5
70
330
48
100
AcDbEntity
  8
1
 62
     4
100
AcDbPoint
 10
85.25
 20
17.0
 30
0.0
  0
POINT
  5
71
330
48
100
AcDbEntity
  8
1
 62
     4
100
AcDbPoint
 10
93.74999999999997
 20
17.0
 30
0.0
  0
POINT
  5
72
330
48
100
AcDbEntity
  8
1
 62
     4
100
AcDbPoint
 10
183.0
 20
15.0
 30
0.0
  0
LINE
  5
73
330
48
100
AcDbEntity
  8
1
  6
Continuous
 62
     2
100
AcDbLine
 10
81.0
 20
27.0
 30
0.0
 11
81.0
 21
10.0
 31
0.0
  0
LINE
  5
74
330
48
100
AcDbEntity
  8
1
  6
DOT_CENTER
 62
     2
100
AcDbLine
 10
187.0
 20
26.5
 30
0.0
 11
187.0
 21
20.5
 31
0.0
  0
LINE
  5
75
330
48
100
AcDbEntity
  8
1
  6
DOT_CENTER
 62
     2
100
AcDbLine
 10
184.0
 20
23.5
 30
0.0
 11
197.0
 21
23.5
 31
0.0
  0
LINE
  5
76
330
48
100
AcDbEntity
  8
1
  6
Continuous
 62
     7
100
AcDbLine
 10
196.0
 20
21.5
 30
0.0
 11
191.0
 21
22.30000000000001
 31
0.0
  0
LINE
  5
77
330
48
100
AcDbEntity
  8
1
  6
Continuous
 62
     7
100
AcDbLine
 10
196.0
 20
25.5
 30
0.0
 11
196.0
 21
21.5
 31
0.0
  0
LINE
  5
78
330
48
100
AcDbEntity
  8
1
  6
Continuous
 62
     7
100
AcDbLine
 10
191.0
 20
24.70000000000002
 30
0.0
 11
196.0
 21
25.5
 31
0.0
  0
LINE
  5
79
330
48
100
AcDbEntity
  8
1
  6
Continuous
 62
     7
100
AcDbLine
 10
191.0
 20
24.70000000000002
 30
0.0
 11
191.0
 21
22.30000000000001
 31
0.0
  0
LINE
  5
7A
330
48
100
AcDbEntity
  8
1
  6
Continuous
 62
     2
100
AcDbLine
 10
33.0
 20
27.0
 30
0.0
 11
33.0
 21
10.0
 31
0.0
  0
LINE
  5
7B
330
48
100
AcDbEntity
  8
1
  6
Continuous
 62
     2
100
AcDbLine
 10
25.0
 20
18.5
 30
0.0
 11
81.0
 21
18.5
 31
0.0
  0
LINE
  5
7C
330
48
100
AcDbEntity
  8
1
  6
Continuous
 62
     7
100
AcDbLine
 10
200.0
 20
287.0000000000003
 30
0.0
 11
105.0
 21
287.0000000000003
 31
0.0
  0
LINE
  5
7D
330
48
100
AcDbEntity
  8
1
  6
Continuous
 62
     7
100
AcDbLine
 10
200.0
 20
10.0
 30
0.0
 11
200.0
 21
148.5
 31
0.0
  0
LINE
  5
7E
330
48
100
AcDbEntity
  8
1
  6
Continuous
 62
     7
100
AcDbLine
 10
25.0
 20
10.0
 30
0.0
 11
105.0
 21
10.0
 31
0.0
  0
LINE
  5
7F
330
48
100
AcDbEntity
  8
1
  6
PHANTOM
 62
     4
100
AcDbLine
 10
0.0
 20
297.0
 30
0.0
 11
0.0
 21
0.0
 31
0.0
  0
LINE
  5
80
330
48
100
AcDbEntity
  8
1
  6
PHANTOM
 62
     4
100
AcDbLine
 10
210.0
 20
297.0
 30
0.0
 11
0.0
 21
297.0
 31
0.0
  0
LINE
  5
81
330
48
100
AcDbEntity
  8
1
  6
PHANTOM
 62
     4
100
AcDbLine
 10
210.0
 20
0.0
 30
0.0
 11
210.0
 21
297.0
 31
0.0
  0
LINE
  5
82
330
48
100
AcDbEntity
  8
1
  6
PHANTOM
 62
     4
100
AcDbLine
 10
0.0
 20
0.0
 30
0.0
 11
210.0
 21
0.0
 31
0.0
  0
LINE
  5
83
330
48
100
AcDbEntity
  8
1
  6
Continuous
 62
     7
100
AcDbLine
 10
25.0
 20
41.0
 30
0.0
 11
200.0
 21
41.0
 31
0.0
  0
LINE
  5
84
330
48
100
AcDbEntity
  8
1
  6
Continuous
 62
     7
100
AcDbLine
 10
200.0
 20
27.0
 30
0.0
 11
25.0
 21
27.0
 31
0.0
  0
LINE
  5
85
330
48
100
AcDbEntity
  8
1
  6
Continuous
 62
     2
100
AcDbLine
 10
33.0
 20
41.0
 30
0.0
 11
33.0
 21
27.0
 31
0.0
  0
LINE
  5
86
330
48
100
AcDbEntity
  8
1
  6
Continuous
 62
     2
100
AcDbLine
 10
55.0
 20
287.0000000000003
 30
0.0
 11
55.0
 21
277.0000000000003
 31
0.0
  0
LINE
  5
87
330
48
100
AcDbEntity
  8
1
  6
Continuous
 62
     2
100
AcDbLine
 10
40.0
 20
287.0000000000003
 30
0.0
 11
40.0
 21
277.0000000000003
 31
0.0
  0
LINE
  5
88
330
48
100
AcDbEntity
  8
1
  6
Continuous
 62
     7
100
AcDbLine
 10
25.0
 20
10.0
 30
0.0
 11
25.0
 21
148.5
 31
0.0
  0
LINE
  5
89
330
48
100
AcDbEntity
  8
1
  6
Continuous
 62
     2
100
AcDbLine
 10
55.0
 20
277.0000000000003
 30
0.0
 11
25.0
 21
277.0000000000003
 31
0.0
  0
LINE
  5
8A
330
48
100
AcDbEntity
  8
1
  6
Continuous
 62
     2
100
AcDbLine
 10
166.0
 20
27.0
 30
0.0
 11
166.0
 21
10.0
 31
0.0
  0
LINE
  5
8B
330
48
100
AcDbEntity
  8
1
  6
Continuous
 62
     2
100
AcDbLine
 10
132.0
 20
27.0
 30
0.0
 11
132.0
 21
10.0
 31
0.0
  0
LINE
  5
8C
330
48
100
AcDbEntity
  8
1
  6
Continuous
 62
     2
100
AcDbLine
 10
149.0
 20
27.0
 30
0.0
 11
149.0
 21
10.0
 31
0.0
  0
LINE
  5
8D
330
48
100
AcDbEntity
  8
1
  6
Continuous
 62
     2
100
AcDbLine
 10
115.0
 20
27.0
 30
0.0
 11
115.0
 21
10.0
 31
0.0
  0
LINE
  5
8E
330
48
100
AcDbEntity
  8
1
  6
Continuous
 62
     2
100
AcDbLine
 10
97.99999999999997
 20
27.0
 30
0.0
 11
97.99999999999997
 21
10.0
 31
0.0
  0
LINE
  5
8F
330
48
100
AcDbEntity
  8
1
  6
Continuous
 62
     2
100
AcDbLine
 10
166.0
 20
20.0
 30
0.0
 11
200.0
 21
20.0
 31
0.0
  0
LINE
  5
90
330
48
100
AcDbEntity
  8
1
  6
Continuous
 62
     2
100
AcDbLine
 10
105.0
 20
287.0000000000003
 30
0.0
 11
105.0
 21
292.0000000000003
 31
0.0
  0
LINE
  5
91
330
48
100
AcDbEntity
  8
1
  6
Continuous
 62
     7
100
AcDbLine
 10
105.0
 20
287.0000000000003
 30
0.0
 11
25.0
 21
287.0000000000003
 31
0.0
  0
LINE
  5
92
330
48
100
AcDbEntity
  8
1
  6
Continuous
 62
     2
100
AcDbLine
 10
25.0
 20
148.5
 30
0.0
 11
20.0
 21
148.5
 31
0.0
  0
LINE
  5
93
330
48
100
AcDbEntity
  8
1
  6
Continuous
 62
     7
100
AcDbLine
 10
25.0
 20
148.5
 30
0.0
 11
25.0
 21
287.0000000000003
 31
0.0
  0
LINE
  5
94
330
48
100
AcDbEntity
  8
1
  6
Continuous
 62
     2
100
AcDbLine
 10
200.0
 20
148.5
 30
0.0
 11
205.0
 21
148.5
 31
0.0
  0
LINE
  5
95
330
48
100
AcDbEntity
  8
1
  6
Continuous
 62
     7
100
AcDbLine
 10
200.0
 20
148.5
 30
0.0
 11
200.0
 21
287.0000000000003
 31
0.0
  0
LINE
  5
96
330
48
100
AcDbEntity
  8
1
  6
Continuous
 62
     2
100
AcDbLine
 10
105.0
 20
10.0
 30
0.0
 11
105.0
 21
5.0
 31
0.0
  0
LINE
  5
97
330
48
100
AcDbEntity
  8
1
  6
Continuous
 62
     7
100
AcDbLine
 10
105.0
 20
10.0
 30
0.0
 11
200.0
 21
10.0
 31
0.0
  0
CIRCLE
  5
9C
330
48
100
AcDbEntity
  8
1
  6
DOT_CENTER
 62
     7
100
AcDbCircle
 10
89.5
 20
18.0
 30
0.0
 40
0.0999999999999943
  0
CIRCLE
  5
9D
330
48
100
AcDbEntity
  8
1
  6
DOT_CENTER
 62
     7
100
AcDbCircle
 10
89.5
 20
16.0
 30
0.0
 40
0.0999999999999943
  0
CIRCLE
  5
9E
330
48
100
AcDbEntity
  8
1
  6
Continuous
 62
     7
100
AcDbCircle
 10
187.0
 20
23.5
 30
0.0
 40
2.0
  0
CIRCLE
  5
9F
330
48
100
AcDbEntity
  8
1
  6
Continuous
 62
     7
100
AcDbCircle
 10
187.0
 20
23.5
 30
0.0
 40
1.200000000000102
  0
CIRCLE
  5
A0
330
48
100
AcDbEntity
  8
1
  6
Continuous
 62
     7
100
AcDbCircle
 10
154.5
 20
12.5
 30
0.0
 40
0.3000000000000114
  0
CIRCLE
  5
A1
330
48
100
AcDbEntity
  8
1
  6
Continuous
 62
     7
100
AcDbCircle
 10
160.5
 20
12.5
 30
0.0
 40
0.3000000000000114
  0
CIRCLE
  5
A2
330
48
100
AcDbEntity
  8
1
  6
Continuous
 62
     7
100
AcDbCircle
 10
143.5
 20
12.5
 30
0.0
 40
0.3000000000000114
  0
CIRCLE
  5
A3
330
48
100
AcDbEntity
  8
1
  6
Continuous
 62
     7
100
AcDbCircle
 10
137.5
 20
12.5
 30
0.0
 40
0.3000000000000114
  0
CIRCLE
  5
A4
330
48
100
AcDbEntity
  8
1
  6
Continuous
 62
     7
100
AcDbCircle
 10
126.5
 20
12.5
 30
0.0
 40
0.2999999999999972
  0
CIRCLE
  5
A5
330
48
100
AcDbEntity
  8
1
  6
Continuous
 62
     7
100
AcDbCircle
 10
120.5
 20
12.5
 30
0.0
 40
0.2999999999999972
  0
CIRCLE
  5
A6
330
48
100
AcDbEntity
  8
1
  6
Continuous
 62
     7
100
AcDbCircle
 10
109.5
 20
12.5
 30
0.0
 40
0.2999999999999972
  0
CIRCLE
  5
A7
330
48
100
AcDbEntity
  8
1
  6
Continuous
 62
     7
100
AcDbCircle
 10
103.5
 20
12.5
 30
0.0
 40
0.2999999999999972
  0
SPLINE
  5
A8
102
{ACAD_REACTORS
330
C6
102
}
330
48
100
AcDbEntity
  8
_U_30EC_U_30A4_U_30E4_U_30FC_1
  6
Continuous
 62
     2
100
AcDbSpline
210
0.0
220
0.0
230
1.0
 70
    11
 71
     3
 72
    99
 73
    95
 74
    93
 42
0.000000001
 43
0.0000000001
 44
0.00000001
 40
0.0
 40
0.0
 40
0.0
 40
0.0
 40
0.0796417172272169
 40
0.1621768542355785
 40
0.2486489160956694
 40
0.3404969668523254
 40
0.4381912511163992
 40
0.5434463660243731
 40
0.6518115192846919
 40
0.7530190937886675
 40
0.84921969197251
 40
0.9419290312998142
 40
1.03424966357003
 40
1.129078600620164
 40
1.226697027573242
 40
1.327220425421691
 40
1.470572134937981
 40
1.595489863371194
 40
1.71993412534836
 40
1.850576620127411
 40
1.989059629987297
 40
2.134139054226859
 40
2.28069800720715
 40
2.424529739039415
 40
2.565929576985782
 40
2.708239260773515
 40
2.861717887443604
 40
3.045168540347268
 40
3.183798301138519
 40
3.314813961455404
 40
3.442083470447253
 40
3.569912708372839
 40
3.702177512509295
 40
3.842307559659503
 40
3.992872223245896
 40
4.156750662218284
 40
4.310981861107448
 40
4.44585990932243
 40
4.572393936131576
 40
4.701656719781981
 40
4.768279086008394
 40
4.835960697898324
 40
4.912788918729259
 40
5.006285208481437
 40
5.026909478751513
 40
5.047533749021078
 40
5.101808031471117
 40
5.16232516553842
 40
5.226919745995762
 40
5.294231806596582
 40
5.364544852554747
 40
5.438319055467777
 40
5.51787765132411
 40
5.607647714861422
 40
5.700449642544266
 40
5.788251142363987
 40
5.872714706039654
 40
5.955167292575164
 40
6.037192395190253
 40
6.120669181469045
 40
6.206848616686259
 40
6.296680855416666
 40
6.442558392872511
 40
6.568190371608169
 40
6.692904567360283
 40
6.824220446557079
 40
6.963121850329306
 40
7.107843738851088
 40
7.253431663907198
 40
7.395187468036617
 40
7.533140753237694
 40
7.670550457175185
 40
7.816236511769164
 40
7.987691657359111
 40
8.14227742196915
 40
8.293662615414863
 40
8.44296246087916
 40
8.591598316185186
 40
8.743678992361668
 40
8.903725323699055
 40
9.076307008890401
 40
9.265578604680456
 40
9.459203795360631
 40
9.617619810273416
 40
9.753609671361794
 40
9.87487330000396
 40
9.954520184977618
 40
10.0241641371923
 40
10.09769764405429
 40
10.18909955924959
 40
10.20974586420117
 40
10.23039218263354
 40
10.30057101881244
 40
10.37632012987528
 40
10.37632012987528
 40
10.37632012987528
 40
10.37632012987528
 10
170.1465954835851
 20
14.13795663215993
 30
0.0
 10
170.1632217851219
 20
14.11720608845313
 30
0.0
 10
170.1970784206578
 20
14.07495111711904
 30
0.0
 10
170.2599822541035
 20
14.02029811392076
 30
0.0
 10
170.3332500940392
 20
13.97299025121051
 30
0.0
 10
170.4175969238635
 20
13.93527231437942
 30
0.0
 10
170.5132240615459
 20
13.9104061973195
 30
0.0
 10
170.6171853775345
 20
13.90309559345935
 30
0.0
 10
170.7224020220405
 20
13.91142322794055
 30
0.0
 10
170.8206626371333
 20
13.94149179651524
 30
0.0
 10
170.9058986427548
 20
13.98848822971878
 30
0.0
 10
170.9779220206102
 20
14.04952991250858
 30
0.0
 10
171.0350917709096
 20
14.12412969578583
 30
0.0
 10
171.0767868747439
 20
14.21002464660173
 30
0.0
 10
171.1026952846292
 20
14.30485850432213
 30
0.0
 10
171.1118037332652
 20
14.41854979038369
 30
0.0
 10
171.0986864796486
 20
14.54332587770779
 30
0.0
 10
171.0325330334414
 20
14.66014719171898
 30
0.0
 10
170.9369370919569
 20
14.7451253957738
 30
0.0
 10
170.8249681022367
 20
14.81416684459152
 30
0.0
 10
170.6993659583269
 20
14.87204142045893
 30
0.0
 10
170.5656691620856
 20
14.92373723284341
 30
0.0
 10
170.4313122818831
 20
14.97899092397182
 30
0.0
 10
170.3051983986877
 20
15.04939770641649
 30
0.0
 10
170.1926579987535
 20
15.13785540731249
 30
0.0
 10
170.0969963064458
 20
15.24981067868476
 30
0.0
 10
170.0334157151825
 20
15.39949910101383
 30
0.0
 10
170.0200706505015
 20
15.55932794385141
 30
0.0
 10
170.0320510987449
 20
15.71048405306844
 30
0.0
 10
170.071229892884
 20
15.8380924459154
 30
0.0
 10
170.135498775091
 20
15.95080874030843
 30
0.0
 10
170.223820499974
 20
16.04648609268691
 30
0.0
 10
170.3338091207627
 20
16.12354214985752
 30
0.0
 10
170.4632284401264
 20
16.18151396936285
 30
0.0
 10
170.6111838967793
 20
16.21739177588822
 30
0.0
 10
170.7682069455485
 20
16.22746719050564
 30
0.0
 10
170.917494046643
 20
16.21863637762591
 30
0.0
 10
171.0596253614169
 20
16.19074899340354
 30
0.0
 10
171.1595922609625
 20
16.13413314701141
 30
0.0
 10
171.3125074736185
 20
16.08674602105499
 30
0.0
 10
171.2455131717168
 20
16.00197553001185
 30
0.0
 10
171.2296479120269
 20
15.93438901873486
 30
0.0
 10
171.1978750531297
 20
15.86926092793192
 30
0.0
 10
171.2150202209571
 20
15.76723453256958
 30
0.0
 10
171.1666427208232
 20
15.77493211681906
 30
0.0
 10
171.1315789440766
 20
15.76806771724812
 30
0.0
 10
171.1296697985718
 20
15.83263831158197
 30
0.0
 10
171.0985692931989
 20
15.878256396214
 30
0.0
 10
171.0664551628454
 20
15.93561036628452
 30
0.0
 10
171.0208038475168
 20
15.98540462692563
 30
0.0
 10
170.9658508218386
 20
16.02994813718991
 30
0.0
 10
170.9010841173007
 20
16.06763988836553
 30
0.0
 10
170.8232377310597
 20
16.09283375791352
 30
0.0
 10
170.7355160553352
 20
16.0993123099811
 30
0.0
 10
170.6452903277806
 20
16.0923570928561
 30
0.0
 10
170.5594594694064
 20
16.06909190460931
 30
0.0
 10
170.4828343638596
 20
16.03131644107542
 30
0.0
 10
170.4165265636201
 20
15.98051641089574
 30
0.0
 10
170.3622560536963
 20
15.91731143407208
 30
0.0
 10
170.3224925345459
 20
15.84276455710361
 30
0.0
 10
170.2976775510587
 20
15.75917313997762
 30
0.0
 10
170.2892124262868
 20
15.65192948382283
 30
0.0
 10
170.3019697987103
 20
15.52965457267558
 30
0.0
 10
170.3681548409273
 20
15.41149724291217
 30
0.0
 10
170.4640977399832
 20
15.32606325709528
 30
0.0
 10
170.5757914963182
 20
15.25583362306718
 30
0.0
 10
170.7010863668702
 20
15.19659162305303
 30
0.0
 10
170.8349823941447
 20
15.14616708086132
 30
0.0
 10
170.968993033315
 20
15.09322516984383
 30
0.0
 10
171.0950885316915
 20
15.02750170625178
 30
0.0
 10
171.2076216638417
 20
14.94480352537319
 30
0.0
 10
171.3031370284232
 20
14.83996006310073
 30
0.0
 10
171.3672706486963
 20
14.6993711725157
 30
0.0
 10
171.3811103725278
 20
14.54065409451593
 30
0.0
 10
171.3673954712228
 20
14.3815315521788
 30
0.0
 10
171.3244739153985
 20
14.23483828819211
 30
0.0
 10
171.2545906329066
 20
14.10119796587142
 30
0.0
 10
171.1574592213829
 20
13.98532387699294
 30
0.0
 10
171.0347806023657
 20
13.89089981770088
 30
0.0
 10
170.8874408413168
 20
13.82179270651982
 30
0.0
 10
170.7177132497125
 20
13.77953210858855
 30
0.0
 10
170.5317404979596
 20
13.76781736230407
 30
0.0
 10
170.3528955926183
 20
13.7780948668344
 30
0.0
 10
170.1881733753743
 20
13.81966573769153
 30
0.0
 10
170.0834410841056
 20
13.88797642883947
 30
0.0
 10
169.9350960790365
 20
13.93675219032109
 30
0.0
 10
169.9980378194729
 20
14.02976591290842
 30
0.0
 10
170.007227443006
 20
14.1029653624828
 30
0.0
 10
170.0303711301232
 20
14.16936294501346
 30
0.0
 10
170.0034588335317
 20
14.26974809527581
 30
0.0
 10
170.0521338956339
 20
14.26234033517382
 30
0.0
 10
170.0916530580695
 20
14.26894063620893
 30
0.0
 10
170.0996204944702
 20
14.19078703218932
 30
0.0
 10
170.1305436967922
 20
14.15600927375856
 30
0.0
 10
170.1465954835851
 20
14.13795663215993
 30
0.0
 11
170.1465954835851
 21
14.13795663215993
 31
0.0
 11
170.1982038075864
 21
14.07729869814739
 31
0.0
 11
170.2601105501335
 21
14.02271295163322
 31
0.0
 11
170.3327764009801
 21
13.97583980928385
 31
0.0
 11
170.4166468655842
 21
13.93839906276543
 31
0.0
 11
170.5112210732409
 21
13.91390636311877
 31
0.0
 11
170.6161603327164
 21
13.90575829888471
 31
0.0
 11
170.7240739497551
 21
13.91564048638224
 31
0.0
 11
170.8208419941616
 21
13.9452870488748
 31
0.0
 11
170.9050776083319
 21
13.9917511894882
 31
0.0
 11
170.9756144207686
 21
14.05191413218151
 31
0.0
 11
171.031944210998
 21
14.1250581946632
 31
0.0
 11
171.0736690016003
 21
14.2102143404752
 31
0.0
 11
171.0994680808031
 21
14.30436190989615
 31
0.0
 11
171.1080824729445
 21
14.40451552098222
 31
0.0
 11
171.0878517703356
 21
14.54643250879398
 31
0.0
 11
171.0272522666731
 21
14.65566684036392
 31
0.0
 11
170.9364971286285
 21
14.74081306430097
 31
0.0
 11
170.8260101884739
 21
14.81052746532512
 31
0.0
 11
170.7008523531254
 21
14.86979854169923
 31
0.0
 11
170.5662951950998
 21
14.9240425347412
 31
0.0
 11
170.4316884277007
 21
14.98201274306004
 31
0.0
 11
170.3065802017258
 21
15.05297399304232
 31
0.0
 11
170.196027609828
 21
15.14113315968694
 31
0.0
 11
170.1053381235265
 21
15.25080295132622
 31
0.0
 11
170.0447055469484
 21
15.39179720476317
 31
0.0
 11
170.0245079172553
 21
15.57413260402311
 31
0.0
 11
170.0374030471347
 21
15.7121613192664
 31
0.0
 11
170.0761016659391
 21
15.83733128451291
 31
0.0
 11
170.1393141731506
 21
15.94779262129085
 31
0.0
 11
170.2257499954544
 21
16.04196885390621
 31
0.0
 11
170.3336492808962
 21
16.11846540770652
 31
0.0
 11
170.4613526283328
 21
16.17615670109493
 31
0.0
 11
170.6075393259923
 21
16.21220066809975
 31
0.0
 11
170.770976856545
 21
16.22421385386062
 31
0.0
 11
170.9248918431289
 21
16.21434269066865
 31
0.0
 11
171.0564887242606
 21
16.18477329831501
 31
0.0
 11
171.172563634494
 21
16.13439993895251
 31
0.0
 11
171.2800792741122
 21
16.0626416316787
 31
0.0
 11
171.2516994050444
 21
16.00236624106887
 31
0.0
 11
171.2284855254283
 21
15.9387901733765
 31
0.0
 11
171.2078381040801
 21
15.86478841992271
 31
0.0
 11
171.1871840681487
 21
15.77360197897332
 31
0.0
 11
171.1665597978415
 21
15.77360197897332
 31
0.0
 11
171.1459355275343
 21
15.77360197897332
 31
0.0
 11
171.1256706495791
 21
15.82395108486348
 31
0.0
 11
171.0994658759421
 21
15.87850045116932
 31
0.0
 11
171.065046892445
 21
15.93316116296116
 31
0.0
 11
171.0203554612937
 21
15.98349593725411
 31
0.0
 11
170.965733335951
 21
16.02777175321528
 31
0.0
 11
170.9016722004326
 21
16.06436142334502
 31
0.0
 11
170.825968296114
 21
16.08882545979727
 31
0.0
 11
170.7365722046449
 21
16.09701100667022
 31
0.0
 11
170.6440937174207
 21
16.08926973931105
 31
0.0
 11
170.5594072091645
 21
16.06609003445573
 31
0.0
 11
170.483702448884
 21
16.02863495634007
 31
0.0
 11
170.4183754766516
 21
15.97832774281102
 31
0.0
 11
170.3650487887664
 21
15.9160029337988
 31
0.0
 11
170.3254809233901
 21
15.842499478956
 31
0.0
 11
170.300952375471
 21
15.75988443557389
 31
0.0
 11
170.2927954104107
 21
15.67042329844352
 31
0.0
 11
170.3130095765617
 21
15.52595308146572
 31
0.0
 11
170.373625616682
 21
15.41591177072942
 31
0.0
 11
170.4643479320758
 21
15.33033670130632
 31
0.0
 11
170.5748676948813
 21
15.25941954854622
 31
0.0
 11
170.7000089937719
 21
15.19914305550578
 31
0.0
 11
170.8345826882553
 21
15.14590447913022
 31
0.0
 11
170.9691729191968
 21
15.09039489581075
 31
0.0
 11
171.0942976816297
 21
15.02377281249412
 31
0.0
 11
171.204800907977
 21
14.94118863716748
 31
0.0
 11
171.2955397598288
 21
14.8380000347627
 31
0.0
 11
171.3561557999488
 21
14.70552315979585
 31
0.0
 11
171.3763699660997
 21
14.53526378483841
 31
0.0
 11
171.3621839747997
 21
14.38133030397414
 31
0.0
 11
171.3196087009193
 21
14.23605531269101
 31
0.0
 11
171.2499752884265
 21
14.10398854189067
 31
0.0
 11
171.1544992078713
 21
13.9900721877525
 31
0.0
 11
171.0341060772624
 21
13.89715272597019
 31
0.0
 11
170.8896160201846
 21
13.82832357668181
 31
0.0
 11
170.7223519532713
 21
13.78581275203969
 31
0.0
 11
170.5336103348226
 21
13.77165864614042
 31
0.0
 11
170.3405031726387
 21
13.78581275203969
 31
0.0
 11
170.1878975900911
 21
13.82832357668181
 31
0.0
 11
170.0661897942203
 21
13.88899033013895
 31
0.0
 11
169.9660261826363
 21
13.95734322942741
 31
0.0
 11
169.9922320587039
 21
14.03255545163076
 31
0.0
 11
170.0090121537618
 21
14.10014767383612
 31
0.0
 11
170.0206196447852
 21
14.17275926235962
 31
0.0
 11
170.0313606254139
 21
14.26352788212861
 31
0.0
 11
170.0520069443315
 21
14.26352788212861
 31
0.0
 11
170.0726532632491
 21
14.26352788212861
 31
0.0
 11
170.1048916391628
 21
14.20119204881084
 31
0.0
 11
170.1465954835851
 21
14.13795663215993
 31
0.0
  0
SPLINE
  5
A9
102
{ACAD_REACTORS
330
C7
102
}
330
48
100
AcDbEntity
  8
_U_30EC_U_30A4_U_30E4_U_30FC_1
  6
Continuous
 62
     2
100
AcDbSpline
210
0.0
220
0.0
230
1.0
 70
    11
 71
     3
 72
    57
 73
    53
 74
    51
 42
0.000000001
 43
0.0000000001
 44
0.00000001
 40
0.0
 40
0.0
 40
0.0
 40
0.0
 40
0.047163208280917
 40
0.0914861054632088
 40
0.1357762519702324
 40
0.1826527001611755
 40
0.2295203288573096
 40
0.2737751972221549
 40
0.318131046154329
 40
0.3652607198398386
 40
0.4571007286314087
 40
0.5671851029164882
 40
0.6894623283868002
 40
0.8181758272545655
 40
0.9510087229273722
 40
1.085852229673941
 40
1.218126164475256
 40
1.343545131142288
 40
1.454537202956734
 40
1.567187607530828
 40
1.680710966642362
 40
1.794226869736697
 40
1.900009184247554
 40
2.004085860447776
 40
2.108162674451665
 40
2.21400015015521
 40
2.496038577351992
 40
2.762350745479139
 40
2.997275353279262
 40
3.185110082137557
 40
3.246407890063836
 40
3.31260755021251
 40
3.378877742711412
 40
3.440140399651261
 40
4.100501696006226
 40
4.754913085563263
 40
5.411331693423683
 40
6.077890432568477
 40
6.110575292670756
 40
6.143260152775536
 40
6.367989363394889
 40
6.610525374951389
 40
6.863389136467087
 40
7.119380025547417
 40
7.376036605090865
 40
7.631164770966056
 40
7.876722425456171
 40
8.104953735855682
 40
8.312916685924076
 40
8.49773029494104
 40
8.651018984313588
 40
8.76473885362432
 40
8.76473885362432
 40
8.76473885362432
 40
8.76473885362432
 10
174.7922649500513
 20
13.81626739612932
 30
0.0
 10
174.7766616726931
 20
13.8182623107908
 30
0.0
 10
174.7463947960302
 20
13.82213201360297
 30
0.0
 10
174.7010994202253
 20
13.82341984967267
 30
0.0
 10
174.6559553129349
 20
13.8230868355405
 30
0.0
 10
174.6099017123399
 20
13.82314658674223
 30
0.0
 10
174.5640496172095
 20
13.82325813649999
 30
0.0
 10
174.5183711648164
 20
13.8227783345659
 30
0.0
 10
174.4750811541607
 20
13.82461109618718
 30
0.0
 10
174.4039947951514
 20
13.80049556814667
 30
0.0
 10
174.4057477261441
 20
13.92184693977253
 30
0.0
 10
174.358619637057
 20
14.00726239751237
 30
0.0
 10
174.3191478251761
 20
14.12486929345137
 30
0.0
 10
174.2706635532645
 20
14.24232752540443
 30
0.0
 10
174.2201017402521
 20
14.36405935761505
 30
0.0
 10
174.1718634610477
 20
14.49075967862464
 30
0.0
 10
174.1135232947594
 20
14.59933687784949
 30
0.0
 10
174.0980892667261
 20
14.75620657134406
 30
0.0
 10
173.9566586330635
 20
14.72373446548321
 30
0.0
 10
173.8508397414903
 20
14.73512888682181
 30
0.0
 10
173.7358569725222
 20
14.73392591514616
 30
0.0
 10
173.625314225214
 20
14.73506945347406
 30
0.0
 10
173.5176583522783
 20
14.73418350037527
 30
0.0
 10
173.4121322529242
 20
14.73416602390519
 30
0.0
 10
173.3109192682013
 20
14.72714032472415
 30
0.0
 10
173.1266804827753
 20
14.7513585985986
 30
0.0
 10
173.1157393685411
 20
14.44741691121886
 30
0.0
 10
173.008769163475
 20
14.22353177253399
 30
0.0
 10
172.9098148604347
 20
14.03895314292495
 30
0.0
 10
172.9225090524006
 20
13.79530204804217
 30
0.0
 10
172.8050091716397
 20
13.82508046753193
 30
0.0
 10
172.7422055868309
 20
13.82258089509603
 30
0.0
 10
172.67858720934
 20
13.82344075102802
 30
0.0
 10
172.3946014194074
 20
13.78098039941975
 30
0.0
 10
173.0251638499381
 20
14.5008195244478
 30
0.0
 10
173.1087645289072
 20
15.01276539435729
 30
0.0
 10
173.4929252789337
 20
15.5335374355004
 30
0.0
 10
173.4777208288569
 20
16.23519626253214
 30
0.0
 10
173.7239265722696
 20
16.22345633081256
 30
0.0
 10
173.8256346157563
 20
16.23225004452773
 30
0.0
 10
173.8249752035816
 20
15.98059650730339
 30
0.0
 10
173.9428317155828
 20
15.79818020733956
 30
0.0
 10
174.0315515260485
 20
15.55563740662863
 30
0.0
 10
174.1322292485259
 20
15.32340030530124
 30
0.0
 10
174.2311142712242
 20
15.08674644566912
 30
0.0
 10
174.3299676990669
 20
14.85461739170094
 30
0.0
 10
174.4256166390925
 20
14.63122222788792
 30
0.0
 10
174.5159904573271
 20
14.42272549049314
 30
0.0
 10
174.5989944568188
 20
14.23308448529322
 30
0.0
 10
174.67260885828
 20
14.06663106068104
 30
0.0
 10
174.7342815895544
 20
13.92917699626097
 30
0.0
 10
174.7749458885604
 20
13.84999239430037
 30
0.0
 10
174.7922649500513
 20
13.81626739612932
 30
0.0
 11
174.7922649500513
 21
13.81626739612932
 31
0.0
 11
174.7453878317448
 21
13.82145433189184
 31
0.0
 11
174.7010975896125
 21
13.82315538223861
 31
0.0
 11
174.6568074431729
 21
13.82315538223861
 31
0.0
 11
174.6099309947158
 21
13.82315538223861
 31
0.0
 11
174.5630633657033
 21
13.82315538223861
 31
0.0
 11
174.5188084970407
 21
13.82315538223861
 31
0.0
 11
174.4744852776853
 21
13.82145433189184
 31
0.0
 11
174.4276419021443
 21
13.81626739612932
 31
0.0
 11
174.3992532136325
 21
13.90360966173246
 31
0.0
 11
174.3622721815898
 21
14.00729656274822
 31
0.0
 11
174.3188386236701
 21
14.1215998700113
 31
0.0
 11
174.2711055866936
 21
14.24113531268972
 31
0.0
 11
174.2208160133236
 21
14.36408057307565
 31
0.0
 11
174.1696467003932
 21
14.4888382292944
 31
0.0
 11
174.1197531801326
 21
14.61134141502772
 31
0.0
 11
174.0733119111841
 21
14.72784517367913
 31
0.0
 11
173.9623611907589
 21
14.73087465284505
 31
0.0
 11
173.8497309225088
 21
14.73300454867791
 31
0.0
 11
173.7362152069449
 21
14.7343219531914
 31
0.0
 11
173.62270004768
 21
14.73473315978851
 31
0.0
 11
173.5169185312815
 21
14.7343219531914
 31
0.0
 11
173.4128501919225
 21
14.73300454867791
 31
0.0
 11
173.3087951724045
 21
14.73087465284505
 31
0.0
 11
173.2030010615596
 21
14.72784517367913
 31
0.0
 11
173.0980914750139
 21
14.46604437513352
 31
0.0
 11
173.0034868690331
 21
14.21710232658461
 31
0.0
 11
172.9252231210298
 21
13.99559756969558
 31
0.0
 11
172.8693431224555
 21
13.81626739612932
 31
0.0
 11
172.8082651639441
 21
13.82145433189184
 31
0.0
 11
172.742087361813
 21
13.82315538223861
 31
0.0
 11
172.6758390041282
 21
13.82145433189184
 31
0.0
 11
172.6147963233938
 21
13.81626739612932
 31
0.0
 11
172.889968495193
 21
14.41656508695144
 31
0.0
 11
173.158294573417
 21
15.01343642360772
 31
0.0
 11
173.4240277350405
 21
15.6136624564438
 31
0.0
 11
173.6914740737033
 21
16.22421385386062
 31
0.0
 11
173.7241589339806
 21
16.22421385386062
 31
0.0
 11
173.7568437942579
 21
16.22421385386062
 31
0.0
 11
173.8428300681056
 21
16.01658539037084
 31
0.0
 11
173.9357285813609
 21
15.7925461456351
 31
0.0
 11
174.0328714521463
 21
15.55908663180468
 31
0.0
 11
174.1317936458031
 21
15.3229812846414
 31
0.0
 11
174.2315341249927
 21
15.08649780379784
 31
0.0
 11
174.3313071129353
 21
14.85168781253711
 31
0.0
 11
174.4280608257448
 21
14.62599492196852
 31
0.0
 11
174.5188084970407
 21
14.41658052097921
 31
0.0
 11
174.6022150834546
 21
14.2260761113046
 31
0.0
 11
174.6770293263377
 21
14.05708232662471
 31
0.0
 11
174.7410729186603
 21
13.91781337700669
 31
0.0
 11
174.7922649500513
 21
13.81626739612932
 31
0.0
  0
SPLINE
  5
AA
102
{ACAD_REACTORS
330
C7
102
}
330
48
100
AcDbEntity
  8
_U_30EC_U_30A4_U_30E4_U_30FC_1
  6
Continuous
 62
     2
100
AcDbSpline
210
0.0
220
0.0
230
1.0
 70
    11
 71
     3
 72
    25
 73
    21
 74
    19
 42
0.000000001
 43
0.0000000001
 44
0.00000001
 40
0.0
 40
0.0
 40
0.0
 40
0.0
 40
0.0911479969064819
 40
0.1858117896203805
 40
0.2804128399733928
 40
0.371588919071366
 40
0.4679080494218142
 40
0.564268380922923
 40
0.6605683222644992
 40
0.7569653015810252
 40
0.85613481725228
 40
1.092615965104316
 40
1.374867658141923
 40
1.611348812011666
 40
1.710518328425322
 40
1.809403163726647
 40
2.045205463294169
 40
2.326646917622252
 40
2.562449217190732
 40
2.661334043834058
 40
2.661334043834058
 40
2.661334043834058
 40
2.661334043834058
 10
173.2683700567199
 20
14.88614538197291
 30
0.0
 10
173.2987525917923
 20
14.88598079714554
 30
0.0
 10
173.360689588911
 20
14.88564528689923
 30
0.0
 10
173.454135696033
 20
14.88269055452006
 30
0.0
 10
173.5475095236356
 20
14.87977752877147
 30
0.0
 10
173.6417760753475
 20
14.8789420164342
 30
0.0
 10
173.7354964790966
 20
14.87996644658049
 30
0.0
 10
173.8352040303205
 20
14.87916977470971
 30
0.0
 10
173.9188949546313
 20
14.88921410235221
 30
0.0
 10
174.0637996315045
 20
14.86234617674163
 30
0.0
 10
173.9396132444801
 20
15.0366553028005
 30
0.0
 10
173.8965867286282
 20
15.19651711006092
 30
0.0
 10
173.780892214221
 20
15.4551845855022
 30
0.0
 10
173.7017565431257
 20
15.59231052861863
 30
0.0
 10
173.6431576621816
 20
15.80937033134085
 30
0.0
 10
173.5864803939438
 20
15.59266134213433
 30
0.0
 10
173.5052809900477
 20
15.4532701243824
 30
0.0
 10
173.4063701281487
 20
15.20406969370196
 30
0.0
 10
173.325362509426
 20
15.01925830226073
 30
0.0
 10
173.2813683325838
 20
14.91650446856116
 30
0.0
 10
173.2683700567199
 20
14.88614538197291
 30
0.0
 11
173.2683700567199
 21
14.88614538197291
 31
0.0
 11
173.359513773782
 21
14.88526123266761
 31
0.0
 11
173.454142829758
 21
14.88269697919603
 31
0.0
 11
173.5487082179705
 21
14.88009965280776
 31
0.0
 11
173.6398803250195
 21
14.87924857641912
 31
0.0
 11
173.7361985777705
 21
14.87965978301623
 31
0.0
 11
173.8325499034376
 21
14.88097718752971
 31
0.0
 11
173.9288262638286
 21
14.88310818579313
 31
0.0
 11
174.0251753846343
 21
14.88614538197291
 31
0.0
 11
173.9854633323141
 21
14.9770164219502
 31
0.0
 11
173.8907653613968
 21
15.19370890189604
 31
0.0
 11
173.7777387509471
 21
15.45234186183139
 31
0.0
 11
173.6830407800297
 21
15.66903434177723
 31
0.0
 11
173.6433287277095
 21
15.75990538175452
 31
0.0
 11
173.6043330259266
 21
15.66903434177723
 31
0.0
 11
173.5113432755212
 21
15.45234186183139
 31
0.0
 11
173.4003555089082
 21
15.19370890189604
 31
0.0
 11
173.3073657585028
 21
14.9770164219502
 31
0.0
 11
173.2683700567199
 21
14.88614538197291
 31
0.0
  0
SPLINE
  5
AB
102
{ACAD_REACTORS
330
C8
102
}
330
48
100
AcDbEntity
  8
_U_30EC_U_30A4_U_30E4_U_30FC_1
  6
Continuous
 62
     2
100
AcDbSpline
210
0.0
220
0.0
230
1.0
 70
    11
 71
     3
 72
    95
 73
    91
 74
    89
 42
0.000000001
 43
0.0000000001
 44
0.00000001
 40
0.0
 40
0.0
 40
0.0
 40
0.0
 40
0.655040665691165
 40
1.308087289031954
 40
1.420803739835809
 40
1.566130759770814
 40
1.757067341888503
 40
2.006513545026445
 40
2.087328263121583
 40
2.185328872295655
 40
2.294612454748403
 40
2.408936380534818
 40
2.526802767798596
 40
2.646360524615606
 40
2.76253572397159
 40
2.870057342870153
 40
2.966883448431695
 40
3.050803243518323
 40
3.115818222436618
 40
3.156030057150225
 40
3.213914225080122
 40
3.276689026450522
 40
3.342960320981299
 40
3.404230667150657
 40
3.45382280949345
 40
3.532499827188449
 40
3.634775188507229
 40
3.754909333008214
 40
3.889736761660747
 40
4.035769602175258
 40
4.187256681197694
 40
4.33873368567599
 40
4.488478734676153
 40
4.634708317831629
 40
4.771493189921319
 40
4.892686571561282
 40
5.199775528944518
 40
5.460353566929768
 40
5.667603142345582
 40
5.814722905404554
 40
5.828990806219852
 40
5.855488336304549
 40
5.869756237118881
 40
6.1897965077629
 40
6.53189046987301
 40
6.883053637017053
 40
7.230512024911516
 40
7.566966656764652
 40
7.885203559707443
 40
8.172887439719252
 40
8.418011594062811
 40
8.443926721190733
 40
8.51076047061322
 40
8.60214539379573
 40
8.701714041647168
 40
8.793098965075401
 40
8.859932715057974
 40
8.885847842603622
 40
9.242301256612832
 40
9.58927545501684
 40
9.921808543164202
 40
10.23479624298471
 40
10.29968150889191
 40
10.35323493887771
 40
10.40154625355159
 40
10.46482922477841
 40
10.55973900668424
 40
10.69239545985639
 40
10.84920353475689
 40
11.01626328594797
 40
11.18672024367461
 40
11.35372582577226
 40
11.50257442292448
 40
11.61866495023308
 40
11.71329869152895
 40
11.82511050573921
 40
11.94464880845733
 40
12.06929242642523
 40
12.19707290435192
 40
12.32562632860545
 40
12.45034565331299
 40
12.56646595170344
 40
12.67099007414649
 40
12.76077625936803
 40
12.82703233506711
 40
12.87429132786011
 40
12.8983199032335
 40
12.92234847860039
 40
13.53984767410337
 40
14.18294284359381
 40
14.18294284359381
 40
14.18294284359381
 40
14.18294284359381
 10
177.3067935648021
 20
14.70898038201722
 30
0.0
 10
177.175201975855
 20
14.8226505860323
 30
0.0
 10
176.9124193802729
 20
15.04964496316156
 30
0.0
 10
176.399739344102
 20
15.89214462956287
 30
0.0
 10
176.4106654595363
 20
15.53423377577021
 30
0.0
 10
176.4041226527991
 20
15.39267392272133
 30
0.0
 10
176.4028026631772
 20
15.19421305299282
 30
0.0
 10
176.4018117602539
 20
15.02150296045984
 30
0.0
 10
176.4024101751974
 20
14.87865373257581
 30
0.0
 10
176.4038994301883
 20
14.78265005413357
 30
0.0
 10
176.4055683588473
 20
14.67545503263142
 30
0.0
 10
176.4071934954616
 20
14.56164211517582
 30
0.0
 10
176.4092429501685
 20
14.4444157260459
 30
0.0
 10
176.4123165501926
 20
14.32656411232971
 30
0.0
 10
176.4156339697043
 20
14.21228087320623
 30
0.0
 10
176.4193605340278
 20
14.10521401867277
 30
0.0
 10
176.4217338161424
 20
14.01007408766922
 30
0.0
 10
176.4278718888356
 20
13.92558557205695
 30
0.0
 10
176.4239784495946
 20
13.86923087298143
 30
0.0
 10
176.4455230443077
 20
13.79825022472362
 30
0.0
 10
176.3680940058617
 20
13.8290267760448
 30
0.0
 10
176.3116353240191
 20
13.82011242517614
 30
0.0
 10
176.2540495896806
 20
13.82896218398272
 30
0.0
 10
176.1690163478471
 20
13.79738225225949
 30
0.0
 10
176.2009714146383
 20
13.88095155992188
 30
0.0
 10
176.1990705282538
 20
13.94882608968309
 30
0.0
 10
176.21079600473
 20
14.05233256764417
 30
0.0
 10
176.2164241052999
 20
14.17002125616695
 30
0.0
 10
176.2237902178941
 20
14.30388609164422
 30
0.0
 10
176.232075970161
 20
14.44764152872632
 30
0.0
 10
176.2398851897426
 20
14.59714022843444
 30
0.0
 10
176.2457571222657
 20
14.74792549402077
 30
0.0
 10
176.2503667817968
 20
14.89699943878435
 30
0.0
 10
176.2542632117543
 20
15.0412291316302
 30
0.0
 10
176.2570715126562
 20
15.17583905213016
 30
0.0
 10
176.2576698755023
 20
15.36469614347354
 30
0.0
 10
176.2616023867149
 20
15.58975494313156
 30
0.0
 10
176.2442175378499
 20
15.86367091125711
 30
0.0
 10
176.2850417342581
 20
16.02787112098598
 30
0.0
 10
176.1995153256003
 20
16.22749661465098
 30
0.0
 10
176.2660558907687
 20
16.22385458403977
 30
0.0
 10
176.283872427323
 20
16.22413447160854
 30
0.0
 10
176.4056801797504
 20
16.22632927398613
 30
0.0
 10
176.5080770335462
 20
15.94675118721517
 30
0.0
 10
176.7580021509355
 20
15.74563008535994
 30
0.0
 10
176.987003533111
 20
15.47792614987918
 30
0.0
 10
177.2245151213109
 20
15.22646413862379
 30
0.0
 10
177.4486090740772
 20
14.98969974061357
 30
0.0
 10
177.6750716283009
 20
14.73218692583084
 30
0.0
 10
177.8325687886514
 20
14.61649335056923
 30
0.0
 10
178.0472129612675
 20
14.27997152538797
 30
0.0
 10
178.0422645974618
 20
14.40464754091605
 30
0.0
 10
178.0433931602546
 20
14.46327691935739
 30
0.0
 10
178.0428877841517
 20
14.55043662371979
 30
0.0
 10
178.0430475158114
 20
14.64416143182875
 30
0.0
 10
178.0430054891318
 20
14.73018971297036
 30
0.0
 10
178.0430202040372
 20
14.79153891945497
 30
0.0
 10
178.0429706255985
 20
14.94135231520995
 30
0.0
 10
178.045881152281
 20
15.17989612510107
 30
0.0
 10
178.0259521041164
 20
15.54486509868705
 30
0.0
 10
178.0750433936247
 20
15.80799631993417
 30
0.0
 10
177.917795150918
 20
16.21928904947758
 30
0.0
 10
178.076211287242
 20
16.16398282551749
 30
0.0
 10
178.1311680478628
 20
16.16199686500165
 30
0.0
 10
178.1827887766739
 20
16.16264778248252
 30
0.0
 10
178.2713198965366
 20
16.20369527738249
 30
0.0
 10
178.2204898303167
 20
16.05696326622988
 30
0.0
 10
178.2313389930282
 20
15.95019971954432
 30
0.0
 10
178.2166036994847
 20
15.79085705414113
 30
0.0
 10
178.2099976446204
 20
15.62853061652875
 30
0.0
 10
178.2014961399915
 20
15.45992521892397
 30
0.0
 10
178.1943227202199
 20
15.29814814703541
 30
0.0
 10
178.1889063215388
 20
15.15422331457933
 30
0.0
 10
178.1871713967648
 20
15.03437493466924
 30
0.0
 10
178.1875440672318
 20
14.92686101590517
 30
0.0
 10
178.1873656126262
 20
14.81820024645588
 30
0.0
 10
178.187701086314
 20
14.69953570165534
 30
0.0
 10
178.1890040622183
 20
14.57555163512744
 30
0.0
 10
178.1908887351573
 20
14.44858294171107
 30
0.0
 10
178.1925004454851
 20
14.32153861551033
 30
0.0
 10
178.1941403137429
 20
14.19854884492179
 30
0.0
 10
178.1962570745751
 20
14.08300931383761
 30
0.0
 10
178.1963848422364
 20
13.98090903955839
 30
0.0
 10
178.2006514396554
 20
13.89009848838158
 30
0.0
 10
178.1908440085289
 20
13.83213621208786
 30
0.0
 10
178.2118474771689
 20
13.7651713013203
 30
0.0
 10
178.1725639739896
 20
13.77291153966689
 30
0.0
 10
177.9595307117744
 20
13.75755254145192
 30
0.0
 10
177.7636297943187
 20
14.31403058094469
 30
0.0
 10
177.4611197631544
 20
14.57556035348508
 30
0.0
 10
177.3067935648021
 20
14.70898038201722
 30
0.0
 11
177.3067935648021
 21
14.70898038201722
 31
0.0
 11
176.8595529338511
 21
15.18757635411976
 31
0.0
 11
176.4124049070643
 21
15.6635264928897
 31
0.0
 11
176.4089664262494
 21
15.55086249986234
 31
0.0
 11
176.40556101835
 21
15.40557538184311
 31
0.0
 11
176.4029636920274
 21
15.21465645827966
 31
0.0
 11
176.4021126156603
 21
14.96521170139761
 31
0.0
 11
176.4025239230289
 21
14.88439802954279
 31
0.0
 11
176.4038420329817
 21
14.78640628477561
 31
0.0
 11
176.4055192267718
 21
14.67713557299738
 31
0.0
 11
176.4072367127517
 21
14.56282454872041
 31
0.0
 11
176.4094007838772
 21
14.44497802965265
 31
0.0
 11
176.4124049070643
 21
14.32545802100202
 31
0.0
 11
176.4158359733138
 21
14.20933349846158
 31
0.0
 11
176.4192928929997
 21
14.10186746550232
 31
0.0
 11
176.4227085253088
 21
14.00510162351262
 31
0.0
 11
176.4261896983792
 21
13.92125406276972
 31
0.0
 11
176.4296006184313
 21
13.85632862007762
 31
0.0
 11
176.4330776843148
 21
13.81626739612932
 31
0.0
 11
176.3754263821571
 21
13.82145433189184
 31
0.0
 11
176.3126746318309
 21
13.82315538223861
 31
0.0
 11
176.2464251717157
 21
13.82145433189184
 31
0.0
 11
176.1853747739674
 21
13.81626739612932
 31
0.0
 11
176.1926772737812
 21
13.86531894125591
 31
0.0
 11
176.2008793569054
 21
13.94356725720851
 31
0.0
 11
176.2090098822348
 21
14.04551893253029
 31
0.0
 11
176.2163406441397
 21
14.16542920159751
 31
0.0
 11
176.2236358280421
 21
14.30005912343892
 31
0.0
 11
176.2318444255596
 21
14.44586107652742
 31
0.0
 11
176.2395504149465
 21
14.59715203135075
 31
0.0
 11
176.2455763002093
 21
14.74850913200731
 31
0.0
 11
176.2503046247416
 21
14.89817951391433
 31
0.0
 11
176.254192897212
 21
15.0443573958222
 31
0.0
 11
176.2567527408964
 21
15.18111831592694
 31
0.0
 11
176.2576324804574
 21
15.30230850686891
 31
0.0
 11
176.257192610677
 21
15.60939715262545
 31
0.0
 11
176.2559126888347
 21
15.86997204839372
 31
0.0
 11
176.2528658717892
 21
16.07719922716126
 31
0.0
 11
176.2473049112763
 21
16.22421385386062
 31
0.0
 11
176.2615728121469
 21
16.22421385386062
 31
0.0
 11
176.2880703423352
 21
16.22421385386062
 31
0.0
 11
176.3023382432058
 21
16.22421385386062
 31
0.0
 11
176.5194743650277
 21
15.98910179662771
 31
0.0
 11
176.7512744123078
 21
15.7375128123156
 31
0.0
 11
176.9894816018839
 21
15.47949555543569
 31
0.0
 11
177.2260074557521
 21
15.22497079855492
 31
0.0
 11
177.4555698717705
 21
14.97899759549136
 31
0.0
 11
177.6731797360103
 21
14.74678934034111
 31
0.0
 11
177.8713724913707
 21
14.53826680567103
 31
0.0
 11
178.0430143099086
 21
14.36326697932591
 31
0.0
 11
178.0430143099086
 21
14.38918210687045
 31
0.0
 11
178.0430143099086
 21
14.45601585685373
 31
0.0
 11
178.0430143099086
 21
14.54740078030027
 31
0.0
 11
178.0430143099086
 21
14.64696942823455
 31
0.0
 11
178.0430143099086
 21
14.73835435168109
 31
0.0
 11
178.0430143099086
 21
14.80518810166437
 31
0.0
 11
178.0430143099086
 21
14.83110322920891
 31
0.0
 11
178.0417233637609
 21
15.18755430550869
 31
0.0
 11
178.0378461155959
 21
15.53450684014422
 31
0.0
 11
178.0296197790002
 21
15.86693815950554
 31
0.0
 11
178.0154535467227
 21
16.17960510387181
 31
0.0
 11
178.0790351249618
 21
16.16666367158332
 31
0.0
 11
178.132417015961
 21
16.162380728876
 31
0.0
 11
178.1805381084832
 21
16.16666367158332
 31
0.0
 11
178.2424836798197
 21
16.17960510387181
 31
0.0
 11
178.2351216487574
 21
16.084981284451
 31
0.0
 11
178.2269790968817
 21
15.95257496503962
 31
0.0
 11
178.2183705364004
 21
15.79600336785657
 31
0.0
 11
178.2097547223215
 21
15.62916593734272
 31
0.0
 11
178.2016187850288
 21
15.45890325509362
 31
0.0
 11
178.1942501393835
 21
15.29206031242703
 31
0.0
 11
178.1891406931521
 21
15.14329943572807
 31
0.0
 11
178.1874503478904
 21
15.02722121527103
 31
0.0
 11
178.1874503478904
 21
14.93258747397518
 31
0.0
 11
178.1874503478904
 21
14.82077565976712
 31
0.0
 11
178.1878461204497
 21
14.70123801222751
 31
0.0
 11
178.1890819450707
 21
14.57660052093922
 31
0.0
 11
178.1908392193317
 21
14.44883212687395
 31
0.0
 11
178.1925303477608
 21
14.32028982655882
 31
0.0
 11
178.1942876220214
 21
14.19558288214554
 31
0.0
 11
178.1959787504505
 21
14.07947489606352
 31
0.0
 11
178.1972884379172
 21
13.97495896727022
 31
0.0
 11
178.1976985420735
 21
13.88517371555651
 31
0.0
 11
178.1976985420735
 21
13.81891763918419
 31
0.0
 11
178.1976985420735
 21
13.77165864614042
 31
0.0
 11
178.1736699662976
 21
13.77165864614042
 31
0.0
 11
178.1496413905217
 21
13.77165864614042
 31
0.0
 11
177.7410729200423
 21
14.23466735262189
 31
0.0
 11
177.3067935648021
 21
14.70898038201722
 31
0.0
  0
SPLINE
  5
AC
102
{ACAD_REACTORS
330
C9
102
}
330
48
100
AcDbEntity
  8
_U_30EC_U_30A4_U_30E4_U_30FC_1
  6
Continuous
 62
     2
100
AcDbSpline
210
0.0
220
0.0
230
1.0
 70
    11
 71
     3
 72
   110
 73
   106
 74
   104
 42
0.000000001
 43
0.0000000001
 44
0.00000001
 40
0.0
 40
0.0
 40
0.0
 40
0.0
 40
0.2203406257277483
 40
0.4407808782838107
 40
0.5952494494614808
 40
0.7488431659393114
 40
0.9023581831309097
 40
1.056801968670408
 40
1.210736449099881
 40
1.363041386539674
 40
1.515315729683103
 40
1.669377239148083
 40
1.721611652756599
 40
1.773199502943003
 40
1.824933793210003
 40
1.877110426488026
 40
1.982682281206793
 40
2.078781667087689
 40
2.172809640822351
 40
2.271937807378976
 40
2.378349933379427
 40
2.494131557736555
 40
2.626681683943746
 40
2.783145050796117
 40
2.890701232940953
 40
2.993130312454899
 40
3.099869730691854
 40
3.220237816691338
 40
3.352695482737611
 40
3.481732806389918
 40
3.5934994736904
 40
3.674323013331954
 40
3.817951711952904
 40
3.946167120793903
 40
4.061405053453587
 40
4.16648079600323
 40
4.262478775059265
 40
4.350736673551138
 40
4.433071991254077
 40
4.511216293814705
 40
4.564262454117991
 40
4.618474415571601
 40
4.670128488754217
 40
4.722296879126434
 40
4.819540945314305
 40
4.931194984128159
 40
5.049996040257802
 40
5.168643755415433
 40
5.283970811762588
 40
5.392260784910386
 40
5.486512254876461
 40
5.55917823394986
 40
5.591425852853518
 40
5.626215969637914
 40
5.667155838674458
 40
5.717449290214317
 40
5.738402360944926
 40
5.784499116553885
 40
5.830595872164851
 40
5.851548942897704
 40
5.873019280661817
 40
5.924217778408359
 40
5.985325662817734
 40
6.036524160567748
 40
6.057994498334274
 40
6.236847789607532
 40
6.381409928945718
 40
6.493190424178739
 40
6.574067534230593
 40
6.691018086205801
 40
6.814881554220719
 40
6.944307823240615
 40
7.071266716066296
 40
7.193488604462139
 40
7.309042773128368
 40
7.414007203170994
 40
7.505140441886749
 40
7.5311503605999
 40
7.559221645322512
 40
7.587202218921132
 40
7.612569159499371
 40
7.662550809481219
 40
7.702878875764318
 40
7.857328205231187
 40
8.010799568088776
 40
8.165256399657812
 40
8.322232698714151
 40
8.47956485501681
 40
8.635216230290956
 40
8.790882550925874
 40
8.948305154947438
 40
9.168271839033107
 40
9.387358980987342
 40
9.608047961033597
 40
9.832914234792863
 40
9.858338694963196
 40
9.925366817230199
 40
10.02013071422778
 40
10.12876249859016
 40
10.23739428295265
 40
10.33215817995206
 40
10.39918630222409
 40
10.42461076239798
 40
10.64992019336955
 40
10.87188524531201
 40
10.87188524531201
 40
10.87188524531201
 40
10.87188524531201
 10
179.9057788376618
 20
15.73923260398192
 30
0.0
 10
179.9092864933541
 20
15.80616462073805
 30
0.0
 10
179.9163033987662
 20
15.94005891915859
 30
0.0
 10
179.8198027599073
 20
16.22548554971472
 30
0.0
 10
180.0510134726108
 20
16.16284386190284
 30
0.0
 10
180.1919290057156
 20
16.17001554055985
 30
0.0
 10
180.3490417757588
 20
16.16235883078243
 30
0.0
 10
180.5025913427287
 20
16.1625275228303
 30
0.0
 10
180.654510493508
 20
16.1618204053543
 30
0.0
 10
180.8142214813231
 20
16.17210158351632
 30
0.0
 10
180.9408972601117
 20
16.15496511080751
 30
0.0
 10
181.1370821122081
 20
16.22727260107149
 30
0.0
 10
181.1034395279078
 20
16.12640699080116
 30
0.0
 10
181.1052011317184
 20
16.0761925394767
 30
0.0
 10
181.1027342073458
 20
16.02712335586465
 30
0.0
 10
181.1347076966011
 20
15.94063490846995
 30
0.0
 10
181.0010399903256
 20
15.98997438608341
 30
0.0
 10
180.9172208688056
 20
15.98430634314175
 30
0.0
 10
180.8173861139323
 20
15.994655167063
 30
0.0
 10
180.7186576720146
 20
16.00086450411088
 30
0.0
 10
180.612153277111
 20
16.00697763816784
 30
0.0
 10
180.4910511698059
 20
16.01588883484581
 30
0.0
 10
180.3703381502453
 20
16.00521605912381
 30
0.0
 10
180.1812553843437
 20
16.06468503080365
 30
0.0
 10
180.2129028505311
 20
15.90558320077539
 30
0.0
 10
180.1995563316833
 20
15.80839128339904
 30
0.0
 10
180.197495842645
 20
15.69634065110102
 30
0.0
 10
180.1958188044671
 20
15.57699685629352
 30
0.0
 10
180.1973336794233
 20
15.4503259215511
 30
0.0
 10
180.195658247867
 20
15.32301588016117
 30
0.0
 10
180.2058844271657
 20
15.22451566404463
 30
0.0
 10
180.1779006596582
 20
15.08388702625628
 30
0.0
 10
180.3508029999306
 20
15.13989551134089
 30
0.0
 10
180.4645020202771
 20
15.12719951478508
 30
0.0
 10
180.584015167224
 20
15.13448377051252
 30
0.0
 10
180.6888491425071
 20
15.13878017056765
 30
0.0
 10
180.7843084898611
 20
15.14330568258974
 30
0.0
 10
180.8763823507032
 20
15.15149201146208
 30
0.0
 10
180.9476551782438
 20
15.14643850638111
 30
0.0
 10
181.0544931705685
 20
15.18536425031671
 30
0.0
 10
181.0226603598036
 20
15.10517122005881
 30
0.0
 10
181.0266164503929
 20
15.05562936846034
 30
0.0
 10
181.0234502392013
 20
15.0055747803982
 30
0.0
 10
181.0550791490585
 20
14.9212884761202
 30
0.0
 10
180.9210133677691
 20
14.97425365495161
 30
0.0
 10
180.82923227932
 20
14.96540080890437
 30
0.0
 10
180.7079729189602
 20
14.97570049965155
 30
0.0
 10
180.5914113119771
 20
14.97748911767505
 30
0.0
 10
180.4783375745878
 20
14.97787017109696
 30
0.0
 10
180.3679246308471
 20
14.98415449472186
 30
0.0
 10
180.289812406784
 20
14.97189133255366
 30
0.0
 10
180.1913625833644
 20
15.0045388761613
 30
0.0
 10
180.2012355173561
 20
14.9476974805421
 30
0.0
 10
180.1973923244402
 20
14.91392130557988
 30
0.0
 10
180.1966789884268
 20
14.87119604709413
 30
0.0
 10
180.1963369642975
 20
14.83401607262154
 30
0.0
 10
180.1963834255345
 20
14.79487237370769
 30
0.0
 10
180.1963649429927
 20
14.75716849497685
 30
0.0
 10
180.1963703431806
 20
14.71944955232403
 30
0.0
 10
180.19636972142
 20
14.6899432474515
 30
0.0
 10
180.1963698151545
 20
14.65873577699302
 30
0.0
 10
180.196370428792
 20
14.61414424908086
 30
0.0
 10
180.1963671499337
 20
14.55963956508852
 30
0.0
 10
180.196375962348
 20
14.51505540201449
 30
0.0
 10
180.1963359653417
 20
14.43117808585741
 30
0.0
 10
180.1976024270255
 20
14.31737520677679
 30
0.0
 10
180.1950274117842
 20
14.1683039593371
 30
0.0
 10
180.206500938172
 20
14.06597203813904
 30
0.0
 10
180.1823506222261
 20
13.93338903885826
 30
0.0
 10
180.3332993946476
 20
13.97895732272018
 30
0.0
 10
180.4428436671556
 20
13.96427012162344
 30
0.0
 10
180.573397047392
 20
13.96920435125062
 30
0.0
 10
180.6990312209514
 20
13.97257705323361
 30
0.0
 10
180.8188730625601
 20
13.97711497498767
 30
0.0
 10
180.9391362611426
 20
13.99048536182005
 30
0.0
 10
181.0222761663515
 20
13.98068712782596
 30
0.0
 10
181.1456080421074
 20
14.04126214623318
 30
0.0
 10
181.1244269203956
 20
13.98532460134019
 30
0.0
 10
181.1235950270116
 20
13.95939249372346
 30
0.0
 10
181.1218963707558
 20
13.93197256190938
 30
0.0
 10
181.1217974888828
 20
13.89738195206386
 30
0.0
 10
181.120365930133
 20
13.86050408220769
 30
0.0
 10
181.153280419219
 20
13.7684684102181
 30
0.0
 10
180.9551306988107
 20
13.84132015974827
 30
0.0
 10
180.830054829489
 20
13.81825726508606
 30
0.0
 10
180.6673071295155
 20
13.82454021985784
 30
0.0
 10
180.512936645
 20
13.82260943909925
 30
0.0
 10
180.3566670436943
 20
13.82393762599266
 30
0.0
 10
180.1970544465282
 20
13.82059872487861
 30
0.0
 10
180.0540326342237
 20
13.83265795728238
 30
0.0
 10
179.8197144881628
 20
13.76952001976925
 30
0.0
 10
179.9173810751196
 20
14.05620527466319
 30
0.0
 10
179.9006868780059
 20
14.24988308142661
 30
0.0
 10
179.9146296709683
 20
14.47848242880297
 30
0.0
 10
179.914298784663
 20
14.63384593955052
 30
0.0
 10
179.9143078119263
 20
14.73966336444133
 30
0.0
 10
179.9143055876314
 20
14.8020578412422
 30
0.0
 10
179.9143065551888
 20
14.89220425248332
 30
0.0
 10
179.914306547326
 20
14.99621167157443
 30
0.0
 10
179.9143053861101
 20
15.100221313753
 30
0.0
 10
179.9143090971502
 20
15.19036243688772
 30
0.0
 10
179.9143011051049
 20
15.25276803097218
 30
0.0
 10
179.9143334275019
 20
15.35868835961122
 30
0.0
 10
179.9131440788318
 20
15.51626716544741
 30
0.0
 10
179.9082216489255
 20
15.66528219822066
 30
0.0
 10
179.9057788376618
 20
15.73923260398192
 30
0.0
 11
179.9057788376618
 21
15.73923260398192
 31
0.0
 11
179.896691822374
 21
15.95938578101017
 31
0.0
 11
179.8868249573133
 21
16.17960510387181
 31
0.0
 11
180.04115751414
 21
16.17312391463729
 31
0.0
 11
180.1946500189046
 21
16.1675489233192
 31
0.0
 11
180.3481160653366
 21
16.16367167505627
 31
0.0
 11
180.5025544554939
 21
16.162380728876
 31
0.0
 11
180.6564835227473
 21
16.16367167505627
 31
0.0
 11
180.8087391004599
 21
16.1675489233192
 31
0.0
 11
180.9609113551073
 21
16.17312391463729
 31
0.0
 11
181.1148364762483
 21
16.17960510387181
 31
0.0
 11
181.1070811703123
 21
16.12794961777357
 31
0.0
 11
181.1044991623591
 21
16.07642642334201
 31
0.0
 11
181.1070811703123
 21
16.02475660564662
 31
0.0
 11
181.1148364762483
 21
15.97315954836782
 31
0.0
 11
181.0094874054411
 21
15.9800144615606
 31
0.0
 11
180.9136375700059
 21
15.98693552058663
 31
0.0
 11
180.8198593171903
 21
15.99378381919601
 31
0.0
 11
180.7209679915881
 21
16.00063211780542
 31
0.0
 11
180.6147532199923
 21
16.00710999974828
 31
0.0
 11
180.4991060528038
 21
16.01268829835792
 31
0.0
 11
180.3666126447257
 21
16.01656554662086
 31
0.0
 11
180.2101546018423
 21
16.01785649280112
 31
0.0
 11
180.2062663293721
 21
15.91037061609189
 31
0.0
 11
180.2015380048399
 21
15.80805072896462
 31
0.0
 11
180.1976607566749
 21
15.70138175329687
 31
0.0
 11
180.1963698105272
 21
15.58102059013251
 31
0.0
 11
180.1967799146836
 21
15.44856355891567
 31
0.0
 11
180.1980896021502
 21
15.31953288186452
 31
0.0
 11
180.1994074577049
 21
15.2077739843231
 31
0.0
 11
180.199819115366
 21
15.12695149302382
 31
0.0
 11
180.3434452935874
 21
15.12780256941248
 31
0.0
 11
180.4716343930758
 21
15.13039989580082
 31
0.0
 11
180.5868078221795
 21
15.13425509545255
 31
0.0
 11
180.691775631222
 21
15.13901649302082
 31
0.0
 11
180.7876346289421
 21
15.14418027774176
 31
0.0
 11
180.8757413374192
 21
15.14934406246272
 31
0.0
 11
180.9578881438496
 21
15.1549124391974
 31
0.0
 11
181.0357692335571
 21
15.16132086801522
 31
0.0
 11
181.0280180445185
 21
15.10884407115338
 31
0.0
 11
181.0254328449317
 21
15.0546937847086
 31
0.0
 11
181.0280180445186
 21
15.00310444444368
 31
0.0
 11
181.0357692335571
 21
14.95151510417881
 31
0.0
 11
180.9389813454014
 21
14.96092324653758
 31
0.0
 11
180.8275950722015
 21
14.9686512847301
 31
0.0
 11
180.7089261429373
 21
14.97425273438146
 31
0.0
 11
180.5903167449212
 21
14.97726788195013
 31
0.0
 11
180.4750025117521
 21
14.97898767361641
 31
0.0
 11
180.36672619507
 21
14.98070746528262
 31
0.0
 11
180.2724839317708
 21
14.9820248697962
 31
0.0
 11
180.199819115366
 21
14.98243607639333
 31
0.0
 11
180.199407457705
 21
14.95019108508196
 31
0.0
 11
180.1980896021502
 21
14.91542593752121
 31
0.0
 11
180.1967799146836
 21
14.87450702260088
 31
0.0
 11
180.1963698105272
 21
14.8242152430995
 31
0.0
 11
180.1963698105272
 21
14.80326217235821
 31
0.0
 11
180.1963698105272
 21
14.75716541672736
 31
0.0
 11
180.1963698105272
 21
14.71106866109651
 31
0.0
 11
180.1963698105272
 21
14.69011559035522
 31
0.0
 11
180.1963698105272
 21
14.66864525258281
 31
0.0
 11
180.1963698105272
 21
14.61744675481785
 31
0.0
 11
180.1963698105272
 21
14.55633887038869
 31
0.0
 11
180.1963698105272
 21
14.50514037262372
 31
0.0
 11
180.1963698105272
 21
14.48367003485132
 31
0.0
 11
180.1967799146836
 21
14.30481721371549
 31
0.0
 11
180.1980896021502
 21
14.16026100715442
 31
0.0
 11
180.2002868589709
 21
14.0485021096129
 31
0.0
 11
180.2032586986984
 21
13.96767961831361
 31
0.0
 11
180.3202092517447
 21
13.96767961831361
 31
0.0
 11
180.4440727208746
 21
13.96767961831361
 31
0.0
 11
180.5734925526421
 21
13.96897056449388
 31
0.0
 11
180.7003922282244
 21
13.97284781275681
 31
0.0
 11
180.8224658067973
 21
13.97886708358861
 31
0.0
 11
180.9377587499463
 21
13.98663260442001
 31
0.0
 11
181.0421754573518
 21
13.99734161483402
 31
0.0
 11
181.1320599255448
 21
14.01237656274691
 31
0.0
 11
181.1264254031191
 21
13.98698427976715
 31
0.0
 11
181.1234433285422
 21
13.959071840538
 31
0.0
 11
181.1221339881199
 21
13.93112191867004
 31
0.0
 11
181.1217235369195
 21
13.90575829888471
 31
0.0
 11
181.1243087365064
 21
13.85584355063327
 31
0.0
 11
181.1320599255448
 21
13.81626739612932
 31
0.0
 11
180.9776977178343
 21
13.82145433189184
 31
0.0
 11
180.8242357818765
 21
13.82315538223861
 31
0.0
 11
180.6697789496482
 21
13.82315538223861
 31
0.0
 11
180.5128026496767
 21
13.82315538223861
 31
0.0
 11
180.3554704921536
 21
13.82315538223861
 31
0.0
 11
180.199819115366
 21
13.82315538223861
 31
0.0
 11
180.0441620874241
 21
13.82145433189184
 31
0.0
 11
179.8868249573133
 21
13.81626739612932
 31
0.0
 11
179.896691822374
 21
14.03601267385213
 31
0.0
 11
179.9057788376618
 21
14.2549112849085
 31
0.0
 11
179.91217215184
 21
14.47550763902003
 31
0.0
 11
179.9143063455008
 21
14.70036378479722
 31
0.0
 11
179.9143063455008
 21
14.72578824496881
 31
0.0
 11
179.9143063455008
 21
14.79281636723938
 31
0.0
 11
179.9143063455008
 21
14.88758026424259
 31
0.0
 11
179.9143063455008
 21
14.99621204861213
 31
0.0
 11
179.9143063455008
 21
15.10484383298166
 31
0.0
 11
179.9143063455008
 21
15.19960772998487
 31
0.0
 11
179.9143063455008
 21
15.26663585225544
 31
0.0
 11
179.9143063455008
 21
15.29206031242703
 31
0.0
 11
179.91217215184
 21
15.51735963528735
 31
0.0
 11
179.9057788376618
 21
15.73923260398192
 31
0.0
  0
SPLINE
  5
AD
102
{ACAD_REACTORS
330
CA
102
}
330
48
100
AcDbEntity
  8
_U_30EC_U_30A4_U_30E4_U_30FC_1
  6
Continuous
 62
     2
100
AcDbSpline
210
0.0
220
0.0
230
1.0
 70
    11
 71
     3
 72
    47
 73
    43
 74
    41
 42
0.000000001
 43
0.0000000001
 44
0.00000001
 40
0.0
 40
0.0
 40
0.0
 40
0.0
 40
0.2207912809957142
 40
0.4459404186303292
 40
0.4902387190460095
 40
0.5327473892723396
 40
0.5742260451226714
 40
0.6155432630562017
 40
0.6568164066316945
 40
0.6982511618781863
 40
0.7407663929318437
 40
0.7851366743176523
 40
1.010288833836482
 40
1.231080507002327
 40
1.451765243652558
 40
1.676638205891911
 40
1.720461045359875
 40
1.830018144043717
 40
1.972442372353321
 40
2.114866600677666
 40
2.22442369939527
 40
2.268246538883502
 40
2.493628801207376
 40
2.715602830286771
 40
2.934211330706513
 40
3.149502369855473
 40
3.231387784851115
 40
3.31823187385415
 40
3.405143198198195
 40
3.486970301720655
 40
3.702258172494065
 40
3.920866283534282
 40
4.142839325932069
 40
4.368221903865574
 40
4.412044743360046
 40
4.521601842096039
 40
4.664026070452494
 40
4.806450298809176
 40
4.91600739754685
 40
4.959830237043163
 40
5.184703515847263
 40
5.405387250767642
 40
5.405387250767642
 40
5.405387250767642
 40
5.405387250767642
 10
182.6507427258645
 20
15.73406440953872
 30
0.0
 10
182.6568139420003
 20
15.79758482501211
 30
0.0
 10
182.6690762107242
 20
15.92587938689628
 30
0.0
 10
182.5604706879411
 20
16.2016622017408
 30
0.0
 10
182.6761985896603
 20
16.17188133432055
 30
0.0
 10
182.7171842509015
 20
16.16765556262814
 30
0.0
 10
182.7591205797518
 20
16.16310446389604
 30
0.0
 10
182.800419662571
 20
16.16201982929476
 30
0.0
 10
182.8417032115555
 20
16.16310338195225
 30
0.0
 10
182.8836148270648
 20
16.16766112711337
 30
0.0
 10
182.9245983549019
 20
16.17187430209729
 30
0.0
 10
183.040492284349
 20
16.20177611317537
 30
0.0
 10
182.9295652727455
 20
15.92339806609889
 30
0.0
 10
182.9574856365266
 20
15.74283140824953
 30
0.0
 10
182.9404267346968
 20
15.50961042346469
 30
0.0
 10
182.9414637282102
 20
15.34906622543141
 30
0.0
 10
182.9414099399403
 20
15.22284817558716
 30
0.0
 10
182.941427737248
 20
15.12428963336237
 30
0.0
 10
182.9414188581079
 20
14.99280702442961
 30
0.0
 10
182.9414263928032
 20
14.8613284496865
 30
0.0
 10
182.9414129405128
 20
14.76276222694093
 30
0.0
 10
182.941453171749
 20
14.63639735624154
 30
0.0
 10
182.9406746403817
 20
14.47482068822871
 30
0.0
 10
182.9565958319266
 20
14.24361821892915
 30
0.0
 10
182.9333468885406
 20
14.05874351972001
 30
0.0
 10
183.0360183444366
 20
13.78935602770066
 30
0.0
 10
182.8820238362836
 20
13.82660112685814
 30
0.0
 10
182.8004129802832
 20
13.82137994680534
 30
0.0
 10
182.7188192292582
 20
13.82660620378348
 30
0.0
 10
182.5648513666841
 20
13.78937069885396
 30
0.0
 10
182.6674183421917
 20
14.05875129862879
 30
0.0
 10
182.6442045316088
 20
14.24361585325416
 30
0.0
 10
182.6600444655138
 20
14.47482218565639
 30
0.0
 10
182.6593296313427
 20
14.63639712308505
 30
0.0
 10
182.6593664569907
 20
14.76276231210523
 30
0.0
 10
182.659354900027
 20
14.86132756635982
 30
0.0
 10
182.6593575019214
 20
14.99281127417218
 30
0.0
 10
182.6593648531779
 20
15.12427548031196
 30
0.0
 10
182.659344254135
 20
15.22287786275319
 30
0.0
 10
182.6594082192028
 20
15.34896149354423
 30
0.0
 10
182.658173394759
 20
15.51210091383768
 30
0.0
 10
182.6532040396745
 20
15.6605418377755
 30
0.0
 10
182.6507427258645
 20
15.73406440953872
 30
0.0
 11
182.6507427258645
 21
15.73406440953872
 31
0.0
 11
182.6417328200379
 21
15.95467178795576
 31
0.0
 11
182.6318769706145
 21
16.17960510387181
 31
0.0
 11
182.6756985840801
 21
16.17312391463729
 31
0.0
 11
182.7178400934215
 21
16.1675489233192
 31
0.0
 11
182.759137140979
 21
16.16367167505627
 31
0.0
 11
182.8004341885365
 21
16.162380728876
 31
0.0
 11
182.841687138873
 21
16.16367167505627
 31
0.0
 11
182.8829400892097
 21
16.1675489233192
 31
0.0
 11
182.9250882131343
 21
16.17312391463729
 31
0.0
 11
182.9689825870145
 21
16.17960510387181
 31
0.0
 11
182.9590577693891
 21
15.95467178795576
 31
0.0
 11
182.9500384208309
 21
15.73406440953872
 31
0.0
 11
182.9435638463434
 21
15.51347467001054
 31
0.0
 11
182.9414218238285
 21
15.28861190965
 31
0.0
 11
182.9414218238285
 21
15.24478907015479
 31
0.0
 11
182.9414218238285
 21
15.13523197141678
 31
0.0
 11
182.9414218238285
 21
14.99280774305736
 31
0.0
 11
182.9414218238285
 21
14.85038351469793
 31
0.0
 11
182.9414218238285
 21
14.74082641595992
 31
0.0
 11
182.9414218238285
 21
14.69700357646471
 31
0.0
 11
182.9435638463434
 21
14.47163149318766
 31
0.0
 11
182.9500384208309
 21
14.2497519099098
 31
0.0
 11
182.9590577693891
 21
14.0313295488533
 31
0.0
 11
182.9689825870145
 21
13.81626739612932
 31
0.0
 11
182.887261616877
 21
13.82145433189184
 31
0.0
 11
182.8004341885365
 21
13.82315538223861
 31
0.0
 11
182.7135395119338
 21
13.82145433189184
 31
0.0
 11
182.6318769706145
 21
13.81626739612932
 31
0.0
 11
182.6417328200379
 21
14.0313295488533
 31
0.0
 11
182.6507427258645
 21
14.2497519099098
 31
0.0
 11
182.6571833838798
 21
14.47163149318766
 31
0.0
 11
182.6593583588023
 21
14.69700357646471
 31
0.0
 11
182.6593583588023
 21
14.74082641595992
 31
0.0
 11
182.6593583588023
 21
14.85038351469793
 31
0.0
 11
182.6593583588023
 21
14.99280774305736
 31
0.0
 11
182.6593583588023
 21
15.13523197141678
 31
0.0
 11
182.6593583588023
 21
15.24478907015479
 31
0.0
 11
182.6593583588023
 21
15.28861190965
 31
0.0
 11
182.6571833838798
 21
15.51347467001054
 31
0.0
 11
182.6507427258645
 21
15.73406440953872
 31
0.0
  0
SPLINE
  5
AE
102
{ACAD_REACTORS
330
CB
102
}
330
48
100
AcDbEntity
  8
_U_30EC_U_30A4_U_30E4_U_30FC_1
  6
Continuous
 62
     2
100
AcDbSpline
210
0.0
220
0.0
230
1.0
 70
    11
 71
     3
 72
   118
 73
   114
 74
   112
 42
0.000000001
 43
0.0000000001
 44
0.00000001
 40
0.0
 40
0.0
 40
0.0
 40
0.0
 40
0.1054708162973325
 40
0.2466098270051825
 40
0.3965912874591192
 40
0.5285525069754007
 40
0.6156245055642277
 40
0.6431434105797561
 40
0.7036850037986334
 40
0.7642265984504815
 40
0.7917455052355259
 40
0.9287404319989997
 40
1.106572819088022
 40
1.287544879680995
 40
1.317578308030512
 40
1.399928030857151
 40
1.522968204799925
 40
1.675072986590546
 40
1.844616533180623
 40
2.019973001638688
 40
2.18951654888
 40
2.341621331585339
 40
2.464661506320475
 40
2.547011229647039
 40
2.577044658168003
 40
2.603797890893073
 40
2.662655002908846
 40
2.721512114949686
 40
2.748265347702866
 40
2.774215307344944
 40
2.845959313407278
 40
2.954338556588484
 40
3.090194227585668
 40
3.244367517100638
 40
3.407699615844408
 40
3.571031714539565
 40
3.72520500392025
 40
3.861060674729757
 40
3.969439917716455
 40
4.041183923629132
 40
4.067133883213128
 40
4.311886746012334
 40
4.5478972583357
 40
4.764747083044148
 40
4.952749679951941
 40
5.04577297419608
 40
5.137862019645152
 40
5.330543169793176
 40
5.553448265244169
 40
5.795083855888324
 40
6.043293412177372
 40
6.285761695541277
 40
6.313902908752761
 40
6.384255941793322
 40
6.475714884766882
 40
6.567173827758916
 40
6.637526860839666
 40
6.665668074074029
 40
6.692018920328003
 40
6.749990782071078
 40
6.80796264379045
 40
6.834313490017925
 40
6.856393084245175
 40
6.913335195649827
 40
6.991194817302462
 40
7.076026942283667
 40
7.153886563725186
 40
7.210828674844711
 40
7.232908268931046
 40
7.258199334923567
 40
7.324875781592214
 40
7.419142481924871
 40
7.527204308841808
 40
7.635266135230383
 40
7.729532834168369
 40
7.796209279292688
 40
7.821500344594634
 40
7.844652988850733
 40
7.89986314054154
 40
7.965759128053706
 40
8.020969279771046
 40
8.044121924046513
 40
8.069356610160636
 40
8.109134395441348
 40
8.132238100191064
 40
8.19314786778643
 40
8.279261678876608
 40
8.377977512673827
 40
8.476693347146618
 40
8.562807160411674
 40
8.623716930826463
 40
8.646820636853418
 40
8.671988793774231
 40
8.734909185828142
 40
8.816705695188856
 40
8.898502204815427
 40
8.961422597377888
 40
8.986590754551
 40
9.012941600733157
 40
9.070913462380247
 40
9.128885324081743
 40
9.155236170325066
 40
9.180404327929109
 40
9.243324721948182
 40
9.325121234211975
 40
9.40691774663763
 40
9.469838141978085
 40
9.49500628827086
 40
9.517811184378996
 40
9.572192090486984
 40
9.637098333281198
 40
9.691479239515386
 40
9.71428412564342
 40
9.71428412564342
 40
9.71428412564342
 40
9.71428412564342
 10
185.2874469028653
 20
15.26889163187721
 30
0.0
 10
185.3090990569037
 20
15.24111869242813
 30
0.0
 10
185.3597257109473
 20
15.17618054561238
 30
0.0
 10
185.4349383202591
 20
15.06891060312901
 30
0.0
 10
185.5248482274347
 20
14.95377438266628
 30
0.0
 10
185.5709169676672
 20
14.8535704574832
 30
0.0
 10
185.6655825294654
 20
14.78434006814944
 30
0.0
 10
185.6204439320413
 20
14.73771639678275
 30
0.0
 10
185.5947047785789
 20
14.69660308866042
 30
0.0
 10
185.5645196708011
 20
14.66065971727942
 30
0.0
 10
185.519368473056
 20
14.585797825961
 30
0.0
 10
185.4710504458562
 20
14.80782524253605
 30
0.0
 10
185.3968539713073
 20
14.84510677337716
 30
0.0
 10
185.2836047324607
 20
15.11610202130599
 30
0.0
 10
185.2885133578168
 20
15.00095328446228
 30
0.0
 10
185.2868486556307
 20
14.92836675781628
 30
0.0
 10
185.2876830076713
 20
14.80625588483986
 30
0.0
 10
185.2873609540264
 20
14.6591380081046
 30
0.0
 10
185.2875076912456
 20
14.49307063956557
 30
0.0
 10
185.2872950092722
 20
14.32187554608602
 30
0.0
 10
185.2879497252034
 20
14.15552828635498
 30
0.0
 10
185.2859192461139
 20
14.00935173055693
 30
0.0
 10
185.291346039993
 20
13.8847104747461
 30
0.0
 10
185.2804930868708
 20
13.81718656540626
 30
0.0
 10
185.2956739155555
 20
13.75549061417022
 30
0.0
 10
185.2457895108133
 20
13.76727503897003
 30
0.0
 10
185.2017150342521
 20
13.75943822779969
 30
0.0
 10
185.15823716302
 20
13.76760441372703
 30
0.0
 10
185.1092346786487
 20
13.75538056738468
 30
0.0
 10
185.1218731234824
 20
13.80960667249314
 30
0.0
 10
185.1130182968448
 20
13.86936918907558
 30
0.0
 10
185.1175058770312
 20
13.97922029044372
 30
0.0
 10
185.115796013599
 20
14.1102997540568
 30
0.0
 10
185.1163550915985
 20
14.2619801144433
 30
0.0
 10
185.1161928768693
 20
14.42211074929957
 30
0.0
 10
185.1162269924673
 20
14.5823686567457
 30
0.0
 10
185.1162514960125
 20
14.73370247520445
 30
0.0
 10
185.1161453543224
 20
14.86582156338606
 30
0.0
 10
185.1164299141929
 20
14.97294802533199
 30
0.0
 10
185.1158675547567
 20
15.03808619579481
 30
0.0
 10
185.1180765083687
 20
15.16618957858682
 30
0.0
 10
185.0319435998601
 20
14.79097610391578
 30
0.0
 10
184.9555140818499
 20
14.63918193123395
 30
0.0
 10
184.8660040767834
 20
14.47766206446306
 30
0.0
 10
184.7640413217326
 20
14.20471848820172
 30
0.0
 10
184.7187976491038
 20
14.36717346596512
 30
0.0
 10
184.6102355941671
 20
14.4560543205812
 30
0.0
 10
184.7995791751752
 20
14.60549794961413
 30
0.0
 10
184.85653405457
 20
14.79749136974926
 30
0.0
 10
184.9717520993351
 20
15.02899622906758
 30
0.0
 10
184.9940151630132
 20
15.21797259759062
 30
0.0
 10
185.1771905152138
 20
15.49454089325926
 30
0.0
 10
185.0538033597551
 20
15.48698978832091
 30
0.0
 10
184.9925684166833
 20
15.48856772366116
 30
0.0
 10
184.9081999617063
 20
15.48882592573669
 30
0.0
 10
184.8204235085965
 20
15.48544845751203
 30
0.0
 10
184.7656768696122
 20
15.49394814982016
 30
0.0
 10
184.7104703026025
 20
15.48048561049785
 30
0.0
 10
184.7222823035536
 20
15.5293144212676
 30
0.0
 10
184.7142496151793
 20
15.57269004896706
 30
0.0
 10
184.7228186104679
 20
15.61509438309571
 30
0.0
 10
184.7102943409157
 20
15.66267796552115
 30
0.0
 10
184.7555101538735
 20
15.65267212995107
 30
0.0
 10
184.8014815562723
 20
15.65894105174059
 30
0.0
 10
184.877722204771
 20
15.6559356140587
 30
0.0
 10
184.9561296131993
 20
15.65770448278539
 30
0.0
 10
185.0323992648932
 20
15.65464793981658
 30
0.0
 10
185.0783009459473
 20
15.66103971376175
 30
0.0
 10
185.1231733965399
 20
15.65093822978894
 30
0.0
 10
185.1105552275633
 20
15.70157201581897
 30
0.0
 10
185.1191936582705
 20
15.75501261882068
 30
0.0
 10
185.1152361595441
 20
15.84863255131678
 30
0.0
 10
185.1162325068334
 20
15.95112606688921
 30
0.0
 10
185.1171927413072
 20
16.0535327024816
 30
0.0
 10
185.1133211458005
 20
16.14735929609318
 30
0.0
 10
185.1217789814363
 20
16.20036542840351
 30
0.0
 10
185.1093075932835
 20
16.25211435651185
 30
0.0
 10
185.1542106389849
 20
16.23850747226754
 30
0.0
 10
185.1955083836771
 20
16.24100480320583
 30
0.0
 10
185.259534428105
 20
16.23648060574486
 30
0.0
 10
185.2986111148786
 20
16.22781003043308
 30
0.0
 10
185.3476543498742
 20
16.23515102070686
 30
0.0
 10
185.3225080030589
 20
16.19602896051762
 30
0.0
 10
185.2815901333724
 20
16.20563842455807
 30
0.0
 10
185.2910109616604
 20
16.15540148169779
 30
0.0
 10
185.2855647318746
 20
16.1038594563949
 30
0.0
 10
185.2881699601803
 20
16.0195970758452
 30
0.0
 10
185.2870102202154
 20
15.92559135583408
 30
0.0
 10
185.2883591064231
 20
15.83196865395524
 30
0.0
 10
185.284997010151
 20
15.74679517552222
 30
0.0
 10
185.2920959917768
 20
15.69716856072042
 30
0.0
 10
185.2812569154546
 20
15.64993694969987
 30
0.0
 10
185.3304010225245
 20
15.6620167493685
 30
0.0
 10
185.3794877630147
 20
15.65447393363009
 30
0.0
 10
185.4573714280641
 20
15.65686070361431
 30
0.0
 10
185.5350365172896
 20
15.65899381905412
 30
0.0
 10
185.5845393931355
 20
15.65193391922453
 30
0.0
 10
185.6344594750639
 20
15.66360151936212
 30
0.0
 10
185.6223198516881
 20
15.6154023537139
 30
0.0
 10
185.6305838229144
 20
15.57249219801233
 30
0.0
 10
185.6223198650783
 20
15.52958201851382
 30
0.0
 10
185.6344594549855
 20
15.48138288754862
 30
0.0
 10
185.5845395158746
 20
15.49305034471507
 30
0.0
 10
185.5350350651202
 20
15.48599202435042
 30
0.0
 10
185.4573784382973
 20
15.488116652286
 30
0.0
 10
185.379464386576
 20
15.49053389365757
 30
0.0
 10
185.3304500352716
 20
15.48291848194482
 30
0.0
 10
185.2813246108943
 20
15.49507952557589
 30
0.0
 10
185.2915559988571
 20
15.45073013424156
 30
0.0
 10
185.2856677678053
 20
15.4092543620291
 30
0.0
 10
185.2878788305568
 20
15.34915394315303
 30
0.0
 10
185.2874109346146
 20
15.3022578276289
 30
0.0
 10
185.2874386992913
 20
15.27650146418198
 30
0.0
 10
185.2874469028653
 20
15.26889163187721
 30
0.0
 11
185.2874469028653
 21
15.26889163187721
 31
0.0
 11
185.3516977534484
 21
15.18524999634259
 31
0.0
 11
185.4348258835499
 21
15.07118889748224
 31
0.0
 11
185.5216831568896
 21
14.94891767195726
 31
0.0
 11
185.5971214371872
 21
14.84064565642878
 31
0.0
 11
185.6459925881626
 21
14.76858218755791
 31
0.0
 11
185.6296821285093
 21
14.74641782124401
 31
0.0
 11
185.5937991172719
 21
14.69765621535342
 31
0.0
 11
185.5579161060346
 21
14.64889460946283
 31
0.0
 11
185.5416056463812
 21
14.62673024314893
 31
0.0
 11
185.4763067109445
 21
14.74716139023816
 31
0.0
 11
185.3848434243234
 21
14.8996698367021
 31
0.0
 11
185.2874469028653
 21
15.05219788193142
 31
0.0
 11
185.2874469028653
 21
15.02216445328253
 31
0.0
 11
185.2874469028653
 21
14.93981472956783
 31
0.0
 11
185.2874469028653
 21
14.81677455413528
 31
0.0
 11
185.2874469028653
 21
14.66466977033283
 31
0.0
 11
185.2874469028653
 21
14.49512622150845
 31
0.0
 11
185.2874469028653
 21
14.31976975101009
 31
0.0
 11
185.2874469028653
 21
14.15022620218571
 31
0.0
 11
185.2874469028653
 21
13.99812141838326
 31
0.0
 11
185.2874469028653
 21
13.87508124295071
 31
0.0
 11
185.2874469028653
 21
13.79273151923601
 31
0.0
 11
185.2874469028653
 21
13.76269809058712
 31
0.0
 11
185.2606936700409
 21
13.76269809058712
 31
0.0
 11
185.2018365578271
 21
13.76269809058712
 31
0.0
 11
185.1429794456133
 21
13.76269809058712
 31
0.0
 11
185.1162262127889
 21
13.76269809058712
 31
0.0
 11
185.1162262127889
 21
13.7886480503125
 31
0.0
 11
185.1162262127889
 21
13.86039205661208
 31
0.0
 11
185.1162262127889
 21
13.96877130017103
 31
0.0
 11
185.1162262127889
 21
14.10462697167449
 31
0.0
 11
185.1162262127889
 21
14.25880026180763
 31
0.0
 11
185.1162262127889
 21
14.42213236125562
 31
0.0
 11
185.1162262127889
 21
14.58546446070361
 31
0.0
 11
185.1162262127889
 21
14.73963775083675
 31
0.0
 11
185.1162262127889
 21
14.87549342234021
 31
0.0
 11
185.1162262127889
 21
14.98387266589916
 31
0.0
 11
185.1162262127889
 21
15.05561667219874
 31
0.0
 11
185.1162262127889
 21
15.08156663192412
 31
0.0
 11
185.0379865861721
 21
14.84965603302375
 31
0.0
 11
184.9497110789303
 21
14.63077616328679
 31
0.0
 11
184.8544106930045
 21
14.43598991333547
 31
0.0
 11
184.7550964303356
 21
14.27636017379203
 31
0.0
 11
184.7109198342406
 21
14.35822446196601
 31
0.0
 11
184.658805738348
 21
14.43414885430812
 31
0.0
 11
184.7627302590298
 21
14.59640087926759
 31
0.0
 11
184.8629319864734
 21
14.79551465421782
 31
0.0
 11
184.9550446607901
 21
15.01890447916198
 31
0.0
 11
185.0347020220911
 21
15.25398465410319
 31
0.0
 11
185.0975378104879
 21
15.48816947904462
 31
0.0
 11
185.0693965972141
 21
15.48816947904462
 31
0.0
 11
184.9990435640296
 21
15.48816947904462
 31
0.0
 11
184.9075846208898
 21
15.48816947904462
 31
0.0
 11
184.8161256777499
 21
15.48816947904462
 31
0.0
 11
184.7457726445654
 21
15.48816947904462
 31
0.0
 11
184.7176314312916
 21
15.48816947904462
 31
0.0
 11
184.7176314312916
 21
15.51452032539219
 31
0.0
 11
184.7176314312916
 21
15.57249218735686
 31
0.0
 11
184.7176314312916
 21
15.63046404932153
 31
0.0
 11
184.7176314312916
 21
15.6568148956691
 31
0.0
 11
184.7397110256019
 21
15.6568148956691
 31
0.0
 11
184.7966531372444
 21
15.6568148956691
 31
0.0
 11
184.8745127592862
 21
15.6568148956691
 31
0.0
 11
184.9593448847943
 21
15.6568148956691
 31
0.0
 11
185.0372045068361
 21
15.6568148956691
 31
0.0
 11
185.0941466184785
 21
15.6568148956691
 31
0.0
 11
185.1162262127889
 21
15.6568148956691
 31
0.0
 11
185.1162262127889
 21
15.68210596174351
 31
0.0
 11
185.1162262127889
 21
15.74878240866695
 31
0.0
 11
185.1162262127889
 21
15.84304910948974
 31
0.0
 11
185.1162262127889
 21
15.95111093726221
 31
0.0
 11
185.1162262127889
 21
16.05917276503468
 31
0.0
 11
185.1162262127889
 21
16.15343946585748
 31
0.0
 11
185.1162262127889
 21
16.22011591278092
 31
0.0
 11
185.1162262127889
 21
16.24540697885533
 31
0.0
 11
185.1393181988664
 21
16.24373213107797
 31
0.0
 11
185.1943837041284
 21
16.2397382633012
 31
0.0
 11
185.2601070491183
 21
16.23497138885795
 31
0.0
 11
185.3151725543802
 21
16.23097752108117
 31
0.0
 11
185.3382645404578
 21
16.22930267330381
 31
0.0
 11
185.3249012644361
 21
16.20789677921191
 31
0.0
 11
185.2874469028653
 21
16.1945011455347
 31
0.0
 11
185.2874469028653
 21
16.17139743948579
 31
0.0
 11
185.2874469028653
 21
16.1104876689932
 31
0.0
 11
185.2874469028653
 21
16.02437385553816
 31
0.0
 11
185.2874469028653
 21
15.9256580206019
 31
0.0
 11
185.2874469028653
 21
15.82694218566564
 31
0.0
 11
185.2874469028653
 21
15.7408283722106
 31
0.0
 11
185.2874469028653
 21
15.67991860171801
 31
0.0
 11
185.2874469028653
 21
15.6568148956691
 31
0.0
 11
185.3126150604809
 21
15.6568148956691
 31
0.0
 11
185.3755354545199
 21
15.6568148956691
 31
0.0
 11
185.4573319667706
 21
15.6568148956691
 31
0.0
 11
185.5391284790212
 21
15.6568148956691
 31
0.0
 11
185.6020488730602
 21
15.6568148956691
 31
0.0
 11
185.6272170306758
 21
15.6568148956691
 31
0.0
 11
185.6272170306758
 21
15.63046404932153
 31
0.0
 11
185.6272170306758
 21
15.57249218735686
 31
0.0
 11
185.6272170306758
 21
15.5145203253922
 31
0.0
 11
185.6272170306758
 21
15.48816947904462
 31
0.0
 11
185.6020488730602
 21
15.48816947904462
 31
0.0
 11
185.5391284790212
 21
15.48816947904462
 31
0.0
 11
185.4573319667705
 21
15.48816947904462
 31
0.0
 11
185.3755354545199
 21
15.48816947904462
 31
0.0
 11
185.3126150604809
 21
15.48816947904462
 31
0.0
 11
185.2874469028653
 21
15.48816947904462
 31
0.0
 11
185.2874469028653
 21
15.46536458293921
 31
0.0
 11
185.2874469028653
 21
15.41098367684169
 31
0.0
 11
185.2874469028653
 21
15.34607743408014
 31
0.0
 11
185.2874469028653
 21
15.29169652798262
 31
0.0
 11
185.2874469028653
 21
15.26889163187721
 31
0.0
  0
SPLINE
  5
AF
102
{ACAD_REACTORS
330
CC
102
}
330
48
100
AcDbEntity
  8
_U_30EC_U_30A4_U_30E4_U_30FC_1
  6
Continuous
 62
     2
100
AcDbSpline
210
0.0
220
0.0
230
1.0
 70
    11
 71
     3
 72
    91
 73
    87
 74
    85
 42
0.000000001
 43
0.0000000001
 44
0.00000001
 40
0.0
 40
0.0
 40
0.0
 40
0.0
 40
0.0345987051695718
 40
0.1258134969461369
 40
0.2547723404888987
 40
0.4026032099154125
 40
0.5504340793416704
 40
0.679392922883608
 40
0.7706077146571035
 40
0.8052064287780925
 40
1.124852390615279
 40
1.427402236308871
 40
1.706356627453526
 40
1.955541417875219
 40
2.169485938566362
 40
2.344350786664811
 40
2.480568411561965
 40
2.590440557428961
 40
2.649189927151164
 40
2.749320643306377
 40
2.912632739880074
 40
3.14774565600026
 40
3.244827496385125
 40
3.338490056946723
 40
3.583815413207177
 40
3.761423943238561
 40
3.886956104362738
 40
3.985855451886906
 40
4.091766255337792
 40
4.250186473811986
 40
4.422734315084637
 40
4.628285684838747
 40
4.872093227758597
 40
5.152549652145729
 40
5.464967135837728
 40
5.803201477852661
 40
6.160362988814143
 40
6.193449448276198
 40
6.284170385501852
 40
6.419718138764694
 40
6.587285046385944
 40
6.774063446723858
 40
6.967245678113812
 40
7.154024078817827
 40
7.321590987026184
 40
7.457138740890514
 40
7.54785967855625
 40
7.58094613818281
 40
7.608533084714859
 40
7.669224367077828
 40
7.729915649430039
 40
7.757502595950086
 40
7.790278062553568
 40
7.880146277431038
 40
8.014419963180472
 40
8.180411842397973
 40
8.365434637679442
 40
8.556801071622715
 40
8.7418238668308
 40
8.907815745916366
 40
9.042089431507463
 40
9.131957646249589
 40
9.164733112797165
 40
9.41542506314008
 40
9.667986180958541
 40
9.694169807462709
 40
9.756607686047667
 40
9.831130315322474
 40
9.893568193899938
 40
9.919751820398755
 40
9.950967964690598
 40
9.996421631210717
 40
10.22087981037456
 40
10.44341866197544
 40
10.47847970788857
 40
10.57091337438757
 40
10.70159545461232
 40
10.85140174170362
 40
11.0012080288048
 40
11.13189010907385
 40
11.22432377583013
 40
11.25938480938959
 40
11.28697175596147
 40
11.3476630383592
 40
11.4083543204207
 40
11.43594125892104
 40
11.43594125892104
 40
11.43594125892104
 40
11.43594125892104
 10
190.0818114333289
 20
15.55242795125082
 30
0.0
 10
190.0702785844941
 20
15.5524279028792
 30
0.0
 10
190.0283409444998
 20
15.55242773704169
 30
0.0
 10
189.9434129719026
 20
15.55243125800914
 30
0.0
 10
189.8207688553128
 20
15.55240926435883
 30
0.0
 10
189.6791206916993
 20
15.55250801177059
 30
0.0
 10
189.537975369849
 20
15.55214686232426
 30
0.0
 10
189.4141351317904
 20
15.55321883609093
 30
0.0
 10
189.3317217825382
 20
15.55092249091274
 30
0.0
 10
189.1727791229692
 20
15.56048569373424
 30
0.0
 10
189.3503402353376
 20
15.19785394311376
 30
0.0
 10
189.3379739205452
 20
14.95243127723118
 30
0.0
 10
189.4064519473865
 20
14.66862501324839
 30
0.0
 10
189.469302432097
 20
14.43250999939039
 30
0.0
 10
189.5452253431728
 20
14.23326740396132
 30
0.0
 10
189.6303189577015
 20
14.07745347451374
 30
0.0
 10
189.7244607592935
 20
13.97657857781393
 30
0.0
 10
189.8282648207727
 20
13.92465852638966
 30
0.0
 10
189.9125872030774
 20
13.97606484379615
 30
0.0
 10
189.9351322179452
 20
14.09144544037517
 30
0.0
 10
189.9745730975371
 20
14.2188514970238
 30
0.0
 10
189.9202919734942
 20
14.5362232808675
 30
0.0
 10
190.0451218072473
 20
14.38982180140909
 30
0.0
 10
190.2019291513602
 20
14.3579530033117
 30
0.0
 10
190.0947720007057
 20
14.12421357767627
 30
0.0
 10
190.0808711209867
 20
13.95972776583653
 30
0.0
 10
190.0234709467225
 20
13.83130869122478
 30
0.0
 10
189.9335020145008
 20
13.76018802352819
 30
0.0
 10
189.8095274657877
 20
13.74432324142247
 30
0.0
 10
189.663427319686
 20
13.77993797554165
 30
0.0
 10
189.5243894320284
 20
13.90000570500272
 30
0.0
 10
189.4102003962144
 20
14.07435682550317
 30
0.0
 10
189.3146141301486
 20
14.29946603111239
 30
0.0
 10
189.2318652572627
 20
14.56388246006443
 30
0.0
 10
189.1807179256412
 20
14.88187933098546
 30
0.0
 10
189.0770189207337
 20
15.15543728488915
 30
0.0
 10
189.2042841208523
 20
15.56005818612874
 30
0.0
 10
189.0357890623017
 20
15.55112367849682
 30
0.0
 10
188.9511995787078
 20
15.55315961418369
 30
0.0
 10
188.8189876387628
 20
15.55213937388411
 30
0.0
 10
188.6560505094104
 20
15.55253230318434
 30
0.0
 10
188.4733759170533
 20
15.55235696313374
 30
0.0
 10
188.2847057373383
 20
15.55260105307473
 30
0.0
 10
188.1014469020189
 20
15.55185657906241
 30
0.0
 10
187.9404746832719
 20
15.55416360522431
 30
0.0
 10
187.8029808335276
 20
15.54799804883667
 30
0.0
 10
187.7289590372311
 20
15.56032838458215
 30
0.0
 10
187.6613215186857
 20
15.54329323723561
 30
0.0
 10
187.6732373719271
 20
15.59524438447532
 30
0.0
 10
187.6655677285694
 20
15.64071424966532
 30
0.0
 10
187.6732592225116
 20
15.68614453703708
 30
0.0
 10
187.6613141797762
 20
15.73802395984573
 30
0.0
 10
187.7283588305868
 20
15.72119143490266
 30
0.0
 10
187.8017375665677
 20
15.73335409092673
 30
0.0
 10
187.9379128305273
 20
15.7272723107496
 30
0.0
 10
188.0973811801513
 20
15.7295483431506
 30
0.0
 10
188.2789173085837
 20
15.72881233998964
 30
0.0
 10
188.4658034862179
 20
15.72905954196136
 30
0.0
 10
188.6468012316836
 20
15.72886400799256
 30
0.0
 10
188.8080802578879
 20
15.72932234714841
 30
0.0
 10
188.9393882124886
 20
15.72812673751208
 30
0.0
 10
189.0225051322597
 20
15.73051347319745
 30
0.0
 10
189.1556236547813
 20
15.72230605725466
 30
0.0
 10
189.0645893502656
 20
15.97752868952655
 30
0.0
 10
188.9789633074421
 20
16.2416435832825
 30
0.0
 10
189.0990589003454
 20
16.22904442969165
 30
0.0
 10
189.1514264948544
 20
16.22694235763077
 30
0.0
 10
189.2214497569715
 20
16.22535399889658
 30
0.0
 10
189.2671922337817
 20
16.21602567538115
 30
0.0
 10
189.3220812646933
 20
16.22545966915428
 30
0.0
 10
189.2963574785681
 20
16.17733028655174
 30
0.0
 10
189.1825397571453
 20
16.18266829744161
 30
0.0
 10
189.3159346621136
 20
15.95449174576779
 30
0.0
 10
189.194365873547
 20
15.72156856595924
 30
0.0
 10
189.3223188769413
 20
15.73087258884441
 30
0.0
 10
189.4049048406461
 20
15.72801001754682
 30
0.0
 10
189.5307214850824
 20
15.72923437412305
 30
0.0
 10
189.6741469838058
 20
15.72932431888966
 30
0.0
 10
189.8157420951728
 20
15.72746163183855
 30
0.0
 10
189.9459127249968
 20
15.73333075937165
 30
0.0
 10
190.019345228619
 20
15.72070340823205
 30
0.0
 10
190.0891112922097
 20
15.73877563110414
 30
0.0
 10
190.0775772605395
 20
15.68612850546329
 30
0.0
 10
190.0833184346682
 20
15.6422131768655
 30
0.0
 10
190.081661577091
 20
15.59089982676554
 30
0.0
 10
190.081775756167
 20
15.56158792021639
 30
0.0
 10
190.0818114333289
 20
15.55242795125082
 30
0.0
 11
190.0818114333289
 21
15.55242795125082
 31
0.0
 11
190.0472127192051
 21
15.55242795125082
 31
0.0
 11
189.9559979274241
 21
15.55242795125082
 31
0.0
 11
189.8270390838717
 21
15.55242795125082
 31
0.0
 11
189.6792082144335
 21
15.55242795125082
 31
0.0
 11
189.5313773449954
 21
15.55242795125082
 31
0.0
 11
189.402418501443
 21
15.55242795125082
 31
0.0
 11
189.311203709662
 21
15.55242795125082
 31
0.0
 11
189.2766049955382
 21
15.55242795125082
 31
0.0
 11
189.3083140497693
 21
15.23435864930126
 31
0.0
 11
189.3527866656865
 21
14.93509522788085
 31
0.0
 11
189.4092389118319
 21
14.6619126951258
 31
0.0
 11
189.4768868567478
 21
14.4220860591723
 31
0.0
 11
189.5549465689761
 21
14.22289032815656
 31
0.0
 11
189.6426341170591
 21
14.07160051021478
 31
0.0
 11
189.7391655695388
 21
13.97549161348317
 31
0.0
 11
189.8437569949574
 21
13.94183864609792
 31
0.0
 11
189.8943077302785
 21
13.97177376978835
 31
0.0
 11
189.9310588991551
 21
14.06491619815047
 31
0.0
 11
189.9562640977528
 21
14.22627151712054
 31
0.0
 11
189.9721769222368
 21
14.4608453126348
 31
0.0
 11
190.0494082682583
 21
14.40202182306621
 31
0.0
 11
190.1327184184385
 21
14.35921885432691
 31
0.0
 11
190.1066365811217
 21
14.11528388661008
 31
0.0
 11
190.0673317805105
 21
13.94207902887558
 31
0.0
 11
190.0105702596765
 21
13.83011272445912
 31
0.0
 11
189.932118261691
 21
13.76989341669639
 31
0.0
 11
189.8277420296256
 21
13.7519295489231
 31
0.0
 11
189.6738595065097
 21
13.78957440012355
 31
0.0
 11
189.5388902376747
 21
13.89707348877398
 31
0.0
 11
189.4221739916163
 21
14.06627361744805
 31
0.0
 11
189.32305053683
 21
14.28902158871942
 31
0.0
 11
189.2408596418113
 21
14.55716420516173
 31
0.0
 11
189.1749410750559
 21
14.86254826934863
 31
0.0
 11
189.1246346050593
 21
15.19702058385378
 31
0.0
 11
189.0892800003171
 21
15.55242795125082
 31
0.0
 11
189.0561935405844
 21
15.55242795125082
 31
0.0
 11
188.9654726026075
 21
15.55242795125082
 31
0.0
 11
188.8299248482185
 21
15.55242795125082
 31
0.0
 11
188.6623579392495
 21
15.55242795125082
 31
0.0
 11
188.4755795375324
 21
15.55242795125082
 31
0.0
 11
188.2823973048993
 21
15.55242795125082
 31
0.0
 11
188.0956189031822
 21
15.55242795125082
 31
0.0
 11
187.9280519942131
 21
15.55242795125082
 31
0.0
 11
187.7925042398242
 21
15.55242795125082
 31
0.0
 11
187.7017833018473
 21
15.55242795125082
 31
0.0
 11
187.6686968421146
 21
15.55242795125082
 31
0.0
 11
187.6686968421146
 21
15.5800148978585
 31
0.0
 11
187.6686968421146
 21
15.64070618039541
 31
0.0
 11
187.6686968421146
 21
15.70139746293232
 31
0.0
 11
187.6686968421146
 21
15.72898440954
 31
0.0
 11
187.7014723087632
 21
15.72898440954
 31
0.0
 11
187.7913405237674
 21
15.72898440954
 31
0.0
 11
187.9256142097149
 21
15.72898440954
 31
0.0
 11
188.0916060891932
 21
15.72898440954
 31
0.0
 11
188.2766288847902
 21
15.72898440954
 31
0.0
 11
188.4679953190932
 21
15.72898440954
 31
0.0
 11
188.6530181146902
 21
15.72898440954
 31
0.0
 11
188.8190099941685
 21
15.72898440954
 31
0.0
 11
188.953283680116
 21
15.72898440954
 31
0.0
 11
189.0431518951202
 21
15.72898440954
 31
0.0
 11
189.0759273617688
 21
15.72898440954
 31
0.0
 11
189.0659183950102
 21
15.97947647544959
 31
0.0
 11
189.0599112510663
 21
16.23196614552532
 31
0.0
 11
189.0860575870659
 21
16.23056921608123
 31
0.0
 11
189.1484065421419
 21
16.22723807663762
 31
0.0
 11
189.2228230369099
 21
16.22326220052751
 31
0.0
 11
189.2851719919859
 21
16.2199310610839
 31
0.0
 11
189.3113183279855
 21
16.21853413163981
 31
0.0
 11
189.298293111304
 21
16.19016528616081
 31
0.0
 11
189.2551649266405
 21
16.17581274276162
 31
0.0
 11
189.2574991961821
 21
15.95136670115111
 31
0.0
 11
189.2658452735903
 21
15.72898440954
 31
0.0
 11
189.3009063195165
 21
15.72898440954
 31
0.0
 11
189.3933399860495
 21
15.72898440954
 31
0.0
 11
189.5240220663201
 21
15.72898440954
 31
0.0
 11
189.6738283534596
 21
15.72898440954
 31
0.0
 11
189.8236346405991
 21
15.72898440954
 31
0.0
 11
189.9543167208697
 21
15.72898440954
 31
0.0
 11
190.0467503874027
 21
15.72898440954
 31
0.0
 11
190.0818114333289
 21
15.72898440954
 31
0.0
 11
190.0818114333289
 21
15.70139746293232
 31
0.0
 11
190.0818114333289
 21
15.64070618039541
 31
0.0
 11
190.0818114333289
 21
15.5800148978585
 31
0.0
 11
190.0818114333289
 21
15.55242795125082
 31
0.0
  0
SPLINE
  5
B0
102
{ACAD_REACTORS
330
CD
102
}
330
48
100
AcDbEntity
  8
_U_30EC_U_30A4_U_30E4_U_30FC_1
  6
Continuous
 62
     2
100
AcDbSpline
210
0.0
220
0.0
230
1.0
 70
    11
 71
     3
 72
    75
 73
    71
 74
    69
 42
0.000000001
 43
0.0000000001
 44
0.00000001
 40
0.0
 40
0.0
 40
0.0
 40
0.0
 40
0.0342546099129691
 40
0.1245622414432382
 40
0.2522385480897607
 40
0.3985991922940822
 40
0.5449598364981052
 40
0.6726361431439101
 40
0.7629437746737227
 40
0.7971983935298275
 40
1.101723623449697
 40
1.408591244036704
 40
1.433332471690401
 40
1.487763172450177
 40
1.542193873081988
 40
1.566935100592527
 40
1.923523931821845
 40
2.271755704953644
 40
2.590579755100885
 40
2.858943305581148
 40
2.889120339309206
 40
2.918305855191231
 40
2.941366645531346
 40
2.996357760973233
 40
3.061992318140785
 40
3.116983433626967
 40
3.140044223997648
 40
3.41127312293654
 40
3.732441619741237
 40
3.761068217532935
 40
3.837787499630491
 40
3.94885869912613
 40
4.080541049104499
 40
4.219093782625877
 40
4.350776132722424
 40
4.461847332405752
 40
4.538566614678484
 40
4.567193212544729
 40
4.594907573998987
 40
4.666381453557526
 40
4.764111044011137
 40
4.87059253812594
 40
4.968322128642391
 40
5.039796008287076
 40
5.067510369784535
 40
5.094263603185747
 40
5.15312071666838
 40
5.211977830150825
 40
5.238731063551827
 40
5.272290535139066
 40
5.363380529444927
 40
5.497618415781633
 40
5.660621563453875
 40
5.838007341749576
 40
6.015393119910928
 40
6.178396267038582
 40
6.312634151842562
 40
6.403724143059551
 40
6.437283612672647
 40
6.464036846261261
 40
6.522893960004875
 40
6.581751071484137
 40
6.608504301591082
 40
6.637253941281229
 40
6.711397748903109
 40
6.812778057283722
 40
6.923237199249498
 40
7.024617507624142
 40
7.098761315207851
 40
7.127510946007802
 40
7.127510946007802
 40
7.127510946007802
 40
7.127510946007802
 10
188.4418622390564
 20
14.95849128473262
 30
0.0
 10
188.4418622819707
 20
14.94707313408717
 30
0.0
 10
188.4418624481128
 20
14.90555257842627
 30
0.0
 10
188.4418593081787
 20
14.82146922003769
 30
0.0
 10
188.4418788279801
 20
14.70004497322325
 30
0.0
 10
188.4417912187737
 20
14.55980494047444
 30
0.0
 10
188.442111623523
 20
14.42006556794572
 30
0.0
 10
188.4411605909741
 20
14.29745038894924
 30
0.0
 10
188.4431978595967
 20
14.21587074438038
 30
0.0
 10
188.4349433178746
 20
14.06271267077693
 30
0.0
 10
188.74307979409
 20
14.22560236054718
 30
0.0
 10
189.0350645173738
 20
14.39482938688004
 30
0.0
 10
189.0408354448707
 20
14.25973235781911
 30
0.0
 10
189.0455471719891
 20
14.21617221160446
 30
0.0
 10
189.0482535411918
 20
14.17211249350548
 30
0.0
 10
189.0672545672959
 20
14.02272590363137
 30
0.0
 10
188.6583942247303
 20
14.08681172241264
 30
0.0
 10
188.3793710348832
 20
13.97296341411018
 30
0.0
 10
188.1018081587166
 20
13.87364095811148
 30
0.0
 10
187.80998371844
 20
13.91630687596355
 30
0.0
 10
187.7869144678658
 20
13.81321679744537
 30
0.0
 10
187.7537474383332
 20
13.78691091244464
 30
0.0
 10
187.7480653962738
 20
13.83455309036301
 30
0.0
 10
187.7284214559044
 20
13.87180336115068
 30
0.0
 10
187.7095089485622
 20
13.93007387847561
 30
0.0
 10
187.6942849867708
 20
13.97385201007804
 30
0.0
 10
187.6477246372933
 20
14.08759421046309
 30
0.0
 10
187.9890897312451
 20
14.05576301120046
 30
0.0
 10
188.2679649367386
 20
14.02161435106478
 30
0.0
 10
188.2617753034907
 20
14.16913976479653
 30
0.0
 10
188.2630935452773
 20
14.24013150908833
 30
0.0
 10
188.2624831689948
 20
14.34719767958662
 30
0.0
 10
188.2625871570725
 20
14.47398529785998
 30
0.0
 10
188.2629987964054
 20
14.60849243496049
 30
0.0
 10
188.2613907841969
 20
14.73395549951183
 30
0.0
 10
188.2659902567925
 20
14.84505246719116
 30
0.0
 10
188.256418650221
 20
14.90761886800687
 30
0.0
 10
188.2704001783691
 20
14.96595388294999
 30
0.0
 10
188.2147384386705
 20
14.95289710582236
 30
0.0
 10
188.1575655197821
 20
14.96136307749496
 30
0.0
 10
188.0616048925648
 20
14.95729976080634
 30
0.0
 10
187.963376752282
 20
14.95970889852472
 30
0.0
 10
187.8672582457561
 20
14.95551600613386
 30
0.0
 10
187.8104648525811
 20
14.96429346441161
 30
0.0
 10
187.7550356873384
 20
14.95094936850118
 30
0.0
 10
187.7670679427917
 20
15.00036910959254
 30
0.0
 10
187.7592003173937
 20
15.04393988030393
 30
0.0
 10
187.7666295563828
 20
15.08830469118522
 30
0.0
 10
187.7551930564144
 20
15.13902297763988
 30
0.0
 10
187.8232102370132
 20
15.1216246075774
 30
0.0
 10
187.8968496879747
 20
15.13417450237185
 30
0.0
 10
188.032506405821
 20
15.12799677011094
 30
0.0
 10
188.1884909024525
 20
15.1302920309308
 30
0.0
 10
188.3615926358144
 20
15.12940968262527
 30
0.0
 10
188.5346942964182
 20
15.13029207142405
 30
0.0
 10
188.6906789811216
 20
15.12799662955547
 30
0.0
 10
188.8263351889798
 20
15.13417486262428
 30
0.0
 10
188.8999756705653
 20
15.12162394218332
 30
0.0
 10
188.9679914174724
 20
15.13902373012139
 30
0.0
 10
188.9565590885923
 20
15.08830130414553
 30
0.0
 10
188.9639539458298
 20
15.04397060811106
 30
0.0
 10
188.9562039912271
 20
15.00028307550193
 30
0.0
 10
188.9681203741877
 20
14.95063590098475
 30
0.0
 10
188.9108170223617
 20
14.96461411338423
 30
0.0
 10
188.8520145789773
 20
14.95539755673252
 30
0.0
 10
188.75252936332
 20
14.95952268164928
 30
0.0
 10
188.649428009835
 20
14.95822760025885
 30
0.0
 10
188.5537846354574
 20
14.95854077077639
 30
0.0
 10
188.4857467971617
 20
14.95848776697143
 30
0.0
 10
188.4514462213443
 20
14.95849051871654
 30
0.0
 10
188.4418622390564
 20
14.95849128473262
 30
0.0
 11
188.4418622390564
 21
14.95849128473262
 31
0.0
 11
188.4418622390564
 21
14.92423666587183
 31
0.0
 11
188.4418622390564
 21
14.83392903432973
 31
0.0
 11
188.4418622390564
 21
14.70625272766676
 31
0.0
 11
188.4418622390564
 21
14.55989208344336
 31
0.0
 11
188.4418622390564
 21
14.41353143921996
 31
0.0
 11
188.4418622390564
 21
14.28585513255699
 31
0.0
 11
188.4418622390564
 21
14.1955475010149
 31
0.0
 11
188.4418622390564
 21
14.1612928821541
 31
0.0
 11
188.7391932644567
 21
14.22709475713766
 31
0.0
 11
189.0384623627245
 21
14.29496038212071
 31
0.0
 11
189.0405487124976
 21
14.27030727882827
 31
0.0
 11
189.0451386819987
 21
14.21607045158492
 31
0.0
 11
189.0497286514996
 21
14.16183362434155
 31
0.0
 11
189.0518150012728
 21
14.13718052104912
 31
0.0
 11
188.705639688924
 21
14.051633701409
 31
0.0
 11
188.3669653138838
 21
13.97060877629904
 31
0.0
 11
188.0563731516688
 21
13.89862764024932
 31
0.0
 11
187.7944444777955
 21
13.84021218778992
 31
0.0
 11
187.7817515029292
 21
13.81283442738011
 31
0.0
 11
187.7569794787512
 21
13.79740260446732
 31
0.0
 11
187.74918675895
 21
13.81910683390634
 31
0.0
 11
187.7306041194241
 21
13.87086307333784
 31
0.0
 11
187.7084248399899
 21
13.9326366494335
 31
0.0
 11
187.689842200464
 21
13.984392888865
 31
0.0
 11
187.6820494806628
 21
14.00609711830401
 31
0.0
 11
187.9482776335931
 21
14.05794001759665
 31
0.0
 11
188.2626334936289
 21
14.12373968771911
 31
0.0
 11
188.2626334936289
 21
14.15236628569625
 31
0.0
 11
188.2626334936289
 21
14.229085568275
 31
0.0
 11
188.2626334936289
 21
14.34015676842632
 31
0.0
 11
188.2626334936289
 21
14.47183911912118
 31
0.0
 11
188.2626334936289
 21
14.61039185333055
 31
0.0
 11
188.2626334936289
 21
14.74207420402541
 31
0.0
 11
188.2626334936289
 21
14.85314540417673
 31
0.0
 11
188.2626334936289
 21
14.92986468675548
 31
0.0
 11
188.2626334936289
 21
14.95849128473262
 31
0.0
 11
188.2349191321108
 21
14.95849128473262
 31
0.0
 11
188.1634452524063
 21
14.95849128473262
 31
0.0
 11
188.06571566179
 21
14.95849128473262
 31
0.0
 11
187.9592341675364
 21
14.95849128473262
 31
0.0
 11
187.8615045769201
 21
14.95849128473262
 31
0.0
 11
187.7900306972156
 21
14.95849128473262
 31
0.0
 11
187.7623163356975
 21
14.95849128473262
 31
0.0
 11
187.7623163356975
 21
14.98524451823287
 31
0.0
 11
187.7623163356975
 21
15.04410163193342
 31
0.0
 11
187.7623163356975
 21
15.10295874563396
 31
0.0
 11
187.7623163356975
 21
15.12971197913421
 31
0.0
 11
187.7958758072874
 21
15.12971197913421
 31
0.0
 11
187.8869658016031
 21
15.12971197913421
 31
0.0
 11
188.021203687963
 21
15.12971197913421
 31
0.0
 11
188.1842068356856
 21
15.12971197913421
 31
0.0
 11
188.3615926140897
 21
15.12971197913421
 31
0.0
 11
188.5389783924938
 21
15.12971197913421
 31
0.0
 11
188.7019815402165
 21
15.12971197913421
 31
0.0
 11
188.8362194265763
 21
15.12971197913421
 31
0.0
 11
188.9273094208919
 21
15.12971197913421
 31
0.0
 11
188.9608688924819
 21
15.12971197913421
 31
0.0
 11
188.9608688924819
 21
15.10295874563396
 31
0.0
 11
188.9608688924819
 21
15.04410163193342
 31
0.0
 11
188.9608688924819
 21
14.98524451823287
 31
0.0
 11
188.9608688924819
 21
14.95849128473262
 31
0.0
 11
188.9321192527878
 21
14.95849128473262
 31
0.0
 11
188.8579754451555
 21
14.95849128473262
 31
0.0
 11
188.7565951367605
 21
14.95849128473262
 31
0.0
 11
188.6461359947778
 21
14.95849128473262
 31
0.0
 11
188.5447556863828
 21
14.95849128473262
 31
0.0
 11
188.4706118787505
 21
14.95849128473262
 31
0.0
 11
188.4418622390564
 21
14.95849128473262
 31
0.0
  0
SPLINE
  5
B1
102
{ACAD_REACTORS
330
CE
102
}
330
48
100
AcDbEntity
  8
_U_30EC_U_30A4_U_30E4_U_30FC_1
  6
Continuous
 62
     2
100
AcDbSpline
210
0.0
220
0.0
230
1.0
 70
    11
 71
     3
 72
    15
 73
    11
 74
     9
 42
0.000000001
 43
0.0000000001
 44
0.00000001
 40
0.0
 40
0.0
 40
0.0
 40
0.0
 40
0.2785535985097297
 40
0.5215624748200645
 40
0.6076917376042598
 40
0.6938210001744053
 40
0.9405019146457451
 40
1.221691403489414
 40
1.300471877081316
 40
1.379252341685086
 40
1.379252341685086
 40
1.379252341685086
 40
1.379252341685086
 10
189.5681493630998
 20
16.22930267330381
 30
0.0
 10
189.6296017794177
 20
16.17691646592717
 30
0.0
 10
189.7446649974114
 20
16.07882876798228
 30
0.0
 10
190.0397348497244
 20
15.92889785897218
 30
0.0
 10
189.9025147631857
 20
15.84343227515011
 30
0.0
 10
189.8041227843777
 20
15.7108578520156
 30
0.0
 10
189.7130033590649
 20
16.01616985781422
 30
0.0
 10
189.3636839480654
 20
16.07967869465369
 30
0.0
 10
189.5119258376569
 20
16.17896509880878
 30
0.0
 10
189.5494081874235
 20
16.21252348402382
 30
0.0
 10
189.5681493630998
 20
16.22930267330381
 30
0.0
 11
189.5681493630998
 21
16.22930267330381
 31
0.0
 11
189.7919222440596
 21
16.06341774278976
 31
0.0
 11
189.9695046306384
 21
15.89753281227561
 31
0.0
 11
189.9066308127979
 21
15.8386674303459
 31
0.0
 11
189.8437569949574
 21
15.7798020484162
 31
0.0
 11
189.6688535117725
 21
15.95375677059491
 31
0.0
 11
189.4478256856139
 21
16.12757920110701
 31
0.0
 11
189.5079875243568
 21
16.17844093720541
 31
0.0
 11
189.5681493630998
 21
16.22930267330381
 31
0.0
  0
SPLINE
  5
B2
102
{ACAD_REACTORS
330
CF
102
}
330
48
100
AcDbEntity
  8
_U_30EC_U_30A4_U_30E4_U_30FC_1
  6
Continuous
 62
     2
100
AcDbSpline
210
0.0
220
0.0
230
1.0
 70
    11
 71
     3
 72
    35
 73
    31
 74
    29
 42
0.000000001
 43
0.0000000001
 44
0.00000001
 40
0.0
 40
0.0
 40
0.0
 40
0.0
 40
0.0335231036620479
 40
0.0713218571711819
 40
0.4278866681487011
 40
0.8116865841964067
 40
1.198190238000054
 40
1.56137954681266
 40
1.659983174622093
 40
1.75931557380723
 40
2.132719617231119
 40
2.525233363588882
 40
2.91081539777977
 40
3.265244364303391
 40
3.592606723582206
 40
3.964386154604167
 40
4.359942131737996
 40
4.758154118639472
 40
4.843846538700096
 40
4.936650065543405
 40
5.256616602537505
 40
5.581707404416249
 40
5.899719158308335
 40
6.198363494280915
 40
6.466301046615919
 40
6.49389531153724
 40
6.559697020197031
 40
6.638234543442606
 40
6.704036252154358
 40
6.731630508423164
 40
6.731630508423164
 40
6.731630508423164
 40
6.731630508423164
 10
191.9736010568669
 20
16.23463843719131
 30
0.0
 10
191.9676006097789
 20
16.22480690542321
 30
0.0
 10
191.9548344099157
 20
16.20388988579797
 30
0.0
 10
191.7949362006553
 20
16.17127126532694
 30
0.0
 10
192.2322025842338
 20
15.88206680336699
 30
0.0
 10
192.4345394828262
 20
15.68041138358437
 30
0.0
 10
192.6819564267973
 20
15.43749387603275
 30
0.0
 10
193.1831513624606
 20
15.3604766275778
 30
0.0
 10
193.012556219897
 20
15.21876939174657
 30
0.0
 10
192.9383299463202
 20
15.01710366209102
 30
0.0
 10
192.6131432248188
 20
15.36956287174725
 30
0.0
 10
192.3277741670664
 20
15.53175212559561
 30
0.0
 10
192.0337604077658
 20
15.73687130053052
 30
0.0
 10
191.8084452691134
 20
16.21827488595464
 30
0.0
 10
191.5993085055521
 20
15.75343046609227
 30
0.0
 10
191.3207873674833
 20
15.54350952252911
 30
0.0
 10
191.0371383177209
 20
15.37424456359987
 30
0.0
 10
190.7078639527831
 20
15.00142360907932
 30
0.0
 10
190.6277012318224
 20
15.19708014458998
 30
0.0
 10
190.4759724909745
 20
15.32491104190591
 30
0.0
 10
190.9083395826794
 20
15.40454031765937
 30
0.0
 10
191.0962565329766
 20
15.60026634915474
 30
0.0
 10
191.3468477420502
 20
15.81632996916756
 30
0.0
 10
191.5714350470161
 20
15.98190992300055
 30
0.0
 10
191.6259775409713
 20
16.26133964636821
 30
0.0
 10
191.7494661029011
 20
16.24737950408072
 30
0.0
 10
191.806027334452
 20
16.24521268867642
 30
0.0
 10
191.8761870984944
 20
16.24046859881356
 30
0.0
 10
191.9333414022105
 20
16.23709429350538
 30
0.0
 10
191.9644190320838
 20
16.23519854711116
 30
0.0
 10
191.9736010568669
 20
16.23463843719131
 30
0.0
 11
191.9736010568669
 21
16.23463843719131
 31
0.0
 11
191.9525319069884
 21
16.20856374969784
 31
0.0
 11
191.9174464559425
 21
16.1945011455347
 31
0.0
 11
192.1512374769094
 21
15.9252796113138
 31
0.0
 11
192.4414585957566
 21
15.67413407969257
 31
0.0
 11
192.7612797483684
 21
15.45710987618784
 31
0.0
 11
193.0838708706289
 21
15.29025232631642
 31
0.0
 11
193.0213299868076
 21
15.21402035584927
 31
0.0
 11
192.9688035818975
 21
15.12971197913421
 31
0.0
 11
192.6436279095814
 21
15.31326404831578
 31
0.0
 11
192.3237227768436
 21
15.54070139743428
 31
0.0
 11
192.0354200158608
 21
15.79673855123313
 31
0.0
 11
191.8050514588095
 21
16.06609003445573
 31
0.0
 11
191.5995531719515
 21
15.81126348721038
 31
0.0
 11
191.3288301341535
 21
15.55645182277756
 31
0.0
 11
191.0119538423246
 21
15.31969466354855
 31
0.0
 11
190.6679957933741
 21
15.11903163191462
 31
0.0
 11
190.6218855341338
 21
15.1912606770355
 31
0.0
 11
190.5636970460348
 21
15.26355586798962
 31
0.0
 11
190.8433040489015
 21
15.41911456961744
 31
0.0
 11
191.1093004621154
 21
15.60601009790406
 31
0.0
 11
191.3499997459746
 21
15.81384496285209
 31
0.0
 11
191.5537153607774
 21
16.03222167446413
 31
0.0
 11
191.7087607668218
 21
16.2507427427428
 31
0.0
 11
191.7363041569865
 21
16.24906789496545
 31
0.0
 11
191.8019845489177
 21
16.24507402718868
 31
0.0
 11
191.880377274771
 21
16.24030715274544
 31
0.0
 11
191.9460576667022
 21
16.23631328496867
 31
0.0
 11
191.9736010568669
 21
16.23463843719131
 31
0.0
  0
SPLINE
  5
B3
102
{ACAD_REACTORS
330
D0
102
}
330
48
100
AcDbEntity
  8
_U_30EC_U_30A4_U_30E4_U_30FC_1
  6
Continuous
 62
     2
100
AcDbSpline
210
0.0
220
0.0
230
1.0
 70
    11
 71
     3
 72
    91
 73
    87
 74
    85
 42
0.000000001
 43
0.0000000001
 44
0.00000001
 40
0.0
 40
0.0
 40
0.0
 40
0.0
 40
0.0267532254356648
 40
0.085610338646396
 40
0.1444674521996372
 40
0.1712206856618212
 40
0.2039416005642234
 40
0.2955601971652182
 40
0.4362601844616616
 40
0.6162252844506948
 40
0.8256392189704111
 40
1.054685709844352
 40
1.293548478893444
 40
1.532411247938188
 40
1.761457738799453
 40
1.970871673298421
 40
2.150836773256589
 40
2.29153676049545
 40
2.383155356836556
 40
2.415876284101176
 40
2.442629517487815
 40
2.501486630948935
 40
2.560343744424073
 40
2.587096977826341
 40
2.617068194440768
 40
2.699247336755909
 40
2.822032643466193
 40
2.973822353257723
 40
3.143014704823137
 40
3.318007936879716
 40
3.487200288186492
 40
3.63898999754803
 40
3.761775303794471
 40
3.843954445752806
 40
3.873925662229502
 40
3.890812773500199
 40
3.907699884771366
 40
3.937960767857016
 40
3.980983618142045
 40
4.199085915228191
 40
4.439444339236997
 40
4.677588241260644
 40
5.050698317837529
 40
5.448212454762915
 40
5.85529121804444
 40
6.138575438885104
 40
6.417434507583945
 40
6.444551104393631
 40
6.504207617362939
 40
6.56386413031427
 40
6.590980727103867
 40
6.848609460381282
 40
7.109611990668246
 40
7.35291090444589
 40
7.557830220705251
 40
7.587518925913174
 40
7.652834077375605
 40
7.718149228845554
 40
7.747837934061862
 40
7.854880190300906
 40
7.976511257403449
 40
8.369487896592222
 40
8.757514959223487
 40
9.12607241933095
 40
9.460639380392012
 40
9.746695593035694
 40
9.777569943118465
 40
9.807050320931545
 40
9.830377336128674
 40
9.886003295435737
 40
9.952395569429639
 40
10.00802152870598
 40
10.0313485438819
 40
10.21356951009555
 40
10.42203479292835
 40
10.6615455673103
 40
10.9169378956427
 40
11.15832906556528
 40
11.18982674596585
 40
11.27286608520367
 40
11.39026653033312
 40
11.52484752840842
 40
11.65942852648399
 40
11.77682897161437
 40
11.85986831085634
 40
11.89136598230379
 40
11.89136598230379
 40
11.89136598230379
 40
11.89136598230379
 10
190.7027885008196
 20
14.70699600701772
 30
0.0
 10
190.7028237765288
 20
14.71587847311985
 30
0.0
 10
190.7029366710796
 20
14.74430237047346
 30
0.0
 10
190.7012984568489
 20
14.79409639169801
 30
0.0
 10
190.7069750292911
 20
14.83657564478152
 30
0.0
 10
190.6956928731706
 20
14.88730154856844
 30
0.0
 10
190.7632296979032
 20
14.87012900740105
 30
0.0
 10
190.83880292107
 20
14.88290227165993
 30
0.0
 10
190.9828357056001
 20
14.87629729457378
 30
0.0
 10
191.1569419185427
 20
14.87888462206463
 30
0.0
 10
191.3639599611003
 20
14.8780059195555
 30
0.0
 10
191.5894688172377
 20
14.87828207920024
 30
0.0
 10
191.8251162293405
 20
14.87818339658659
 30
0.0
 10
192.0607640531348
 20
14.87828184412764
 30
0.0
 10
192.2862717580625
 20
14.87800678190786
 30
0.0
 10
192.4932934632803
 20
14.87888186270731
 30
0.0
 10
192.6673888915287
 20
14.87630522678444
 30
0.0
 10
192.8114492071985
 20
14.8828829044921
 30
0.0
 10
192.8869691915291
 20
14.87016243405601
 30
0.0
 10
192.9545776037029
 20
14.88726400191683
 30
0.0
 10
192.9430840140675
 20
14.83674785802938
 30
0.0
 10
192.9505104581732
 20
14.792532522265
 30
0.0
 10
192.9428838927985
 20
14.74867966503609
 30
0.0
 10
192.9546489459423
 20
14.69878374479327
 30
0.0
 10
192.8930788491982
 20
14.71393227712512
 30
0.0
 10
192.825679173867
 20
14.70310665350673
 30
0.0
 10
192.701300405622
 20
14.70852031626236
 30
0.0
 10
192.555442823657
 20
14.70649205390785
 30
0.0
 10
192.3893576440084
 20
14.70715777578386
 30
0.0
 10
192.2188412621724
 20
14.70689643521243
 30
0.0
 10
192.0519790855388
 20
14.70721553391094
 30
0.0
 10
191.9087346827105
 20
14.70635302590762
 30
0.0
 10
191.7773313869834
 20
14.70863300482987
 30
0.0
 10
191.7239859134656
 20
14.70407704374203
 30
0.0
 10
191.6485188456913
 20
14.70999914992876
 30
0.0
 10
191.6769075779231
 20
14.70094169343356
 30
0.0
 10
191.7033652409543
 20
14.69725912268939
 30
0.0
 10
191.6633522907701
 20
14.66654271968271
 30
0.0
 10
191.5713663691868
 20
14.67667591174645
 30
0.0
 10
191.5439396207069
 20
14.43032502247783
 30
0.0
 10
191.4478793967234
 20
14.27499558764377
 30
0.0
 10
191.1917277964474
 20
13.94525417931568
 30
0.0
 10
191.7627537732762
 20
14.08430022210453
 30
0.0
 10
192.0173656320516
 20
14.08291779973366
 30
0.0
 10
192.6279647048617
 20
13.99790569242083
 30
0.0
 10
192.3340698578082
 20
14.29685417558203
 30
0.0
 10
192.0133304286518
 20
14.44330856901777
 30
0.0
 10
192.1313543360433
 20
14.50025540818286
 30
0.0
 10
192.1724716466261
 20
14.52420099873348
 30
0.0
 10
192.2156812394411
 20
14.54599758811232
 30
0.0
 10
192.317457409445
 20
14.60928721253908
 30
0.0
 10
192.4328867625248
 20
14.35147151408782
 30
0.0
 10
192.6329591642278
 20
14.21616041113685
 30
0.0
 10
192.7269077387227
 20
14.03792795138881
 30
0.0
 10
192.9558829746392
 20
13.87997821027052
 30
0.0
 10
192.8596031846708
 20
13.829159725763
 30
0.0
 10
192.8167959763779
 20
13.79881292523053
 30
0.0
 10
192.7718243528778
 20
13.77466130281455
 30
0.0
 10
192.7121720925213
 20
13.72552146747562
 30
0.0
 10
192.6789731061323
 20
13.85997475673603
 30
0.0
 10
192.5582013350795
 20
14.01594265286581
 30
0.0
 10
192.1970976005977
 20
13.88569928059555
 30
0.0
 10
191.838506195554
 20
13.90224694409481
 30
0.0
 10
191.4570920450079
 20
13.89331229351865
 30
0.0
 10
191.1703455282892
 20
13.82882671672406
 30
0.0
 10
190.8592055599712
 20
13.94230668192829
 30
0.0
 10
190.8268737818788
 20
13.83122259927768
 30
0.0
 10
190.7896178253317
 20
13.81196313850021
 30
0.0
 10
190.7865737632754
 20
13.85874784087302
 30
0.0
 10
190.7679892860606
 20
13.8980685391914
 30
0.0
 10
190.7512436616778
 20
13.95765983478237
 30
0.0
 10
190.7383730915753
 20
14.00201969871287
 30
0.0
 10
190.7042327806429
 20
14.091063311202
 30
0.0
 10
190.9482714457754
 20
14.02181042943772
 30
0.0
 10
191.144139448667
 20
14.00030369057745
 30
0.0
 10
191.2395426381277
 20
14.28226484478463
 30
0.0
 10
191.2945135769595
 20
14.44363045421124
 30
0.0
 10
191.5159619357156
 20
14.71391177589739
 30
0.0
 10
191.3849239381215
 20
14.70548446853734
 30
0.0
 10
191.3110026555853
 20
14.7077900849697
 30
0.0
 10
191.1977459876243
 20
14.70671378321658
 30
0.0
 10
191.0694251807484
 20
14.7070763907651
 30
0.0
 10
190.9404252030415
 20
14.70697724466086
 30
0.0
 10
190.8287840946291
 20
14.70699932712572
 30
0.0
 10
190.7514663970027
 20
14.70699579189671
 30
0.0
 10
190.713287653201
 20
14.70699595845081
 30
0.0
 10
190.7027885008196
 20
14.70699600701772
 30
0.0
 11
190.7027885008196
 21
14.70699600701772
 31
0.0
 11
190.7027885008196
 21
14.73374924051797
 31
0.0
 11
190.7027885008196
 21
14.79260635421852
 31
0.0
 11
190.7027885008196
 21
14.85146346791907
 31
0.0
 11
190.7027885008196
 21
14.87821670141932
 31
0.0
 11
190.7355094280989
 21
14.87821670141932
 31
0.0
 11
190.8271280244809
 21
14.87821670141932
 31
0.0
 11
190.9678280117818
 21
14.87821670141932
 31
0.0
 11
191.1477931118179
 21
14.87821670141932
 31
0.0
 11
191.3572070464054
 21
14.87821670141932
 31
0.0
 11
191.5862535373604
 21
14.87821670141932
 31
0.0
 11
191.8251163064992
 21
14.87821670141932
 31
0.0
 11
192.063979075638
 21
14.87821670141932
 31
0.0
 11
192.293025566593
 21
14.87821670141932
 31
0.0
 11
192.5024395011805
 21
14.87821670141932
 31
0.0
 11
192.6824046012166
 21
14.87821670141932
 31
0.0
 11
192.8231045885175
 21
14.87821670141932
 31
0.0
 11
192.9147231848995
 21
14.87821670141932
 31
0.0
 11
192.9474441121788
 21
14.87821670141932
 31
0.0
 11
192.9474441121788
 21
14.85146346791907
 31
0.0
 11
192.9474441121788
 21
14.79260635421852
 31
0.0
 11
192.9474441121788
 21
14.73374924051797
 31
0.0
 11
192.9474441121788
 21
14.70699600701772
 31
0.0
 11
192.9174728954756
 21
14.70699600701772
 31
0.0
 11
192.8352937529025
 21
14.70699600701772
 31
0.0
 11
192.7125084457639
 21
14.70699600701772
 31
0.0
 11
192.5607187353641
 21
14.70699600701772
 31
0.0
 11
192.3915263830077
 21
14.70699600701772
 31
0.0
 11
192.216533149999
 21
14.70699600701772
 31
0.0
 11
192.0473407976426
 21
14.70699600701772
 31
0.0
 11
191.8955510872428
 21
14.70699600701772
 31
0.0
 11
191.7727657801042
 21
14.70699600701772
 31
0.0
 11
191.690586637531
 21
14.70699600701772
 31
0.0
 11
191.6606154208279
 21
14.70699600701772
 31
0.0
 11
191.6766359412525
 21
14.70165583340797
 31
0.0
 11
191.6926564616771
 21
14.69631565979822
 31
0.0
 11
191.670615568142
 21
14.67558114591443
 31
0.0
 11
191.6284861855363
 21
14.66685871536112
 31
0.0
 11
191.5365235541377
 21
14.46909247312659
 31
0.0
 11
191.4279078521763
 21
14.25467511978509
 31
0.0
 11
191.3127500824807
 21
14.0462255905162
 31
0.0
 11
191.685736667502
 21
14.0558244125303
 31
0.0
 11
192.083070003615
 21
14.06781232404996
 31
0.0
 11
192.4899342191145
 21
14.08102711828531
 31
0.0
 11
192.2983119496978
 21
14.28966761302479
 31
0.0
 11
192.0966752013698
 21
14.4822942015183
 31
0.0
 11
192.1204947794749
 21
14.49525327269563
 31
0.0
 11
192.1728978513061
 21
14.52376322928576
 31
0.0
 11
192.2253009231374
 21
14.5522731858759
 31
0.0
 11
192.2491205012425
 21
14.56523225705323
 31
0.0
 11
192.4387101558627
 21
14.39079508370269
 31
0.0
 11
192.6200310940436
 21
14.20305846374092
 31
0.0
 11
192.7777729231147
 21
14.01782380992437
 31
0.0
 11
192.8966252504058
 21
13.85089253500951
 31
0.0
 11
192.8715408217923
 21
13.8350120228607
 31
0.0
 11
192.8163550788425
 21
13.80007489613331
 31
0.0
 11
192.7611693358928
 21
13.76513776940592
 31
0.0
 11
192.7360849072793
 21
13.74925725725711
 31
0.0
 11
192.6775518151611
 21
13.83887824681808
 31
0.0
 11
192.6050015078456
 21
13.93650288221031
 31
0.0
 11
192.2125412924094
 21
13.91636286943758
 31
0.0
 11
191.824947406956
 21
13.89803302999772
 31
0.0
 11
191.4567378976212
 21
13.88202178722394
 31
0.0
 11
191.1224308105412
 21
13.86883756444947
 31
0.0
 11
190.8365441918518
 21
13.85898878500751
 31
0.0
 11
190.821186232174
 21
13.83220523466697
 31
0.0
 11
190.7937434290546
 21
13.82143559057252
 31
0.0
 11
190.7867927192319
 21
13.84370299445584
 31
0.0
 11
190.7702179496548
 21
13.89680218833144
 31
0.0
 11
190.7504351601596
 21
13.9601786455378
 31
0.0
 11
190.7338603905825
 21
14.0132778394134
 31
0.0
 11
190.7269096807598
 21
14.03554524329672
 31
0.0
 11
190.9091199859152
 21
14.03751638912954
 31
0.0
 11
191.1174975848587
 21
14.04356211829472
 31
0.0
 11
191.2303203127215
 21
14.25483550301555
 31
0.0
 11
191.3407936722034
 21
14.48509813155881
 31
0.0
 11
191.4358254265626
 21
14.70699600701772
 31
0.0
 11
191.4043277461595
 21
14.70699600701772
 31
0.0
 11
191.3212884069152
 21
14.70699600701772
 31
0.0
 11
191.2038879617767
 21
14.70699600701772
 31
0.0
 11
191.0693069636911
 21
14.70699600701772
 31
0.0
 11
190.9347259656055
 21
14.70699600701772
 31
0.0
 11
190.8173255204669
 21
14.70699600701772
 31
0.0
 11
190.7342861812226
 21
14.70699600701772
 31
0.0
 11
190.7027885008196
 21
14.70699600701772
 31
0.0
  0
SPLINE
  5
B4
102
{ACAD_REACTORS
330
D1
102
}
330
48
100
AcDbEntity
  8
_U_30EC_U_30A4_U_30E4_U_30FC_1
  6
Continuous
 62
     2
100
AcDbSpline
210
0.0
220
0.0
230
1.0
 70
    11
 71
     3
 72
   131
 73
   127
 74
   125
 42
0.000000001
 43
0.0000000001
 44
0.00000001
 40
0.0
 40
0.0
 40
0.0
 40
0.0
 40
0.0195577029826681
 40
0.0426490537462314
 40
0.2863607575857425
 40
0.534494843619018
 40
0.7842238845573741
 40
0.8737315789468078
 40
0.9803832810313393
 40
1.092842274517083
 40
1.199761146656816
 40
1.289788768186546
 40
1.351573580786274
 40
1.370727117561515
 40
1.416400936017925
 40
1.470914848356079
 40
1.516588666791866
 40
1.535742203552961
 40
1.634216592293265
 40
1.76028334117508
 40
1.897966686682153
 40
2.031216387369007
 40
2.049689751138003
 40
2.101115601646941
 40
2.179502577740062
 40
2.27885931831418
 40
2.393194462258843
 40
2.516516648383961
 40
2.642834515406094
 40
2.766156701983605
 40
2.880491846754725
 40
2.979848588358771
 40
3.058235565443951
 40
3.109661416669109
 40
3.128134780704285
 40
3.14678374238663
 40
3.191254343315491
 40
3.244332157316178
 40
3.28880275822611
 40
3.307451719895381
 40
3.327717853844995
 40
3.383747753580354
 40
3.468388665924746
 40
3.574487837699055
 40
3.694892515729161
 40
3.822449946852301
 40
3.950007377920692
 40
4.070412055800782
 40
4.176511227368339
 40
4.261152139501785
 40
4.317182039076979
 40
4.337448172964899
 40
4.620011002696459
 40
4.88509663839769
 40
4.945373043518541
 40
5.014107710488863
 40
5.070481727652246
 40
5.31924695563671
 40
5.584812164506149
 40
5.859000912057011
 40
6.133746937542182
 40
6.401732212969002
 40
6.420736683995593
 40
6.472845717451244
 40
6.550702743894171
 40
6.64695119387438
 40
6.754234497930761
 40
6.865196086587511
 40
6.972479390358026
 40
7.068727839772159
 40
7.146584865451197
 40
7.198693898189426
 40
7.217698368905567
 40
7.234950401631044
 40
7.276089864270086
 40
7.325191803516193
 40
7.366331266090577
 40
7.383583298769927
 40
7.402779163492304
 40
7.453386443254707
 40
7.524934666445737
 40
7.606953361406048
 40
7.6889720564292
 40
7.76052027978445
 40
7.811127559734692
 40
7.830323424546314
 40
7.847844055299945
 40
7.894799345666988
 40
7.962779392744681
 40
8.043374293560738
 40
8.12817414514965
 40
8.208769044817458
 40
8.276749090377166
 40
8.323704379669735
 40
8.341225010056466
 40
8.358497614800642
 40
8.401679126686847
 40
8.457815092185934
 40
8.513951057728395
 40
8.557132569708351
 40
8.574405174505394
 40
8.602340668616778
 40
8.643455660540276
 40
8.663225271966947
 40
8.715345156564592
 40
8.789031889628927
 40
8.873502045520661
 40
8.957972194324286
 40
9.03165892556818
 40
9.083778811234868
 40
9.103548423003332
 40
9.119550083123869
 40
9.16081752238017
 40
9.217244429110536
 40
9.278724491645022
 40
9.335151398295807
 40
9.376418837358102
 40
9.39242049730089
 40
9.40119630273511
 40
9.41749422938459
 40
9.426270027749862
 40
9.44087507547789
 40
9.475702496999064
 40
9.517270709866219
 40
9.55209813199438
 40
9.566703169884585
 40
9.566703169884585
 40
9.566703169884585
 40
9.566703169884585
 10
194.6170254148479
 20
15.67015871511032
 30
0.0
 10
194.6134345093371
 20
15.66453690702162
 30
0.0
 10
194.6056039123624
 20
15.65227754419111
 30
0.0
 10
194.5129968974545
 20
15.61601916040999
 30
0.0
 10
194.4887622233247
 20
15.40148444212707
 30
0.0
 10
194.3858709845937
 20
15.22197284509714
 30
0.0
 10
194.1220492364305
 20
15.03615573798147
 30
0.0
 10
194.284547156918
 20
14.95959336566081
 30
0.0
 10
194.3607225760838
 20
14.89856693195439
 30
0.0
 10
194.4492171072757
 20
14.83515804544759
 30
0.0
 10
194.538993023311
 20
14.77525634219558
 30
0.0
 10
194.5883817636046
 20
14.72102154849208
 30
0.0
 10
194.6745708157382
 20
14.6928624054183
 30
0.0
 10
194.6411260674229
 20
14.6571330965281
 30
0.0
 10
194.621467116631
 20
14.62550387991902
 30
0.0
 10
194.5919888217882
 20
14.58475872796069
 30
0.0
 10
194.568898944603
 20
14.55504663489641
 30
0.0
 10
194.5380205968355
 20
14.50211422668496
 30
0.0
 10
194.472919336574
 20
14.627403349389
 30
0.0
 10
194.3796000122415
 20
14.68213900233933
 30
0.0
 10
194.2950636285138
 20
14.73916423939342
 30
0.0
 10
194.1722498125741
 20
14.89675287427529
 30
0.0
 10
194.1764450847301
 20
14.82035806766841
 30
0.0
 10
194.1751478652677
 20
14.773612801613
 30
0.0
 10
194.1758126448077
 20
14.69584785812605
 30
0.0
 10
194.1755549986957
 20
14.59902068324426
 30
0.0
 10
194.1756431239921
 20
14.48650279078813
 30
0.0
 10
194.1756077302281
 20
14.36524085945702
 30
0.0
 10
194.1756511758279
 20
14.24086897858963
 30
0.0
 10
194.1755199942405
 20
14.11967683631337
 30
0.0
 10
194.1759477562046
 20
14.00691148919745
 30
0.0
 10
194.174667820231
 20
13.91082913768744
 30
0.0
 10
194.1779759851044
 20
13.831138264687
 30
0.0
 10
194.1715197740086
 20
13.78815175788784
 30
0.0
 10
194.1806208705556
 20
13.74955432372042
 30
0.0
 10
194.1447910339934
 20
13.75810887724071
 30
0.0
 10
194.1115223815252
 20
13.75342519985447
 30
0.0
 10
194.060456257604
 20
13.75351298759784
 30
0.0
 10
194.0269723972812
 20
13.75794430283822
 30
0.0
 10
193.9907585408753
 20
13.74960793842509
 30
0.0
 10
194.0009782568663
 20
13.79145277179284
 30
0.0
 10
193.9936487887772
 20
13.83778560820174
 30
0.0
 10
193.9973633136101
 20
13.92374831106014
 30
0.0
 10
193.9959480554895
 20
14.0260514270485
 30
0.0
 10
193.9964105554637
 20
14.14453223931512
 30
0.0
 10
193.9962773686229
 20
14.26957683153356
 30
0.0
 10
193.9963015910044
 20
14.3947582810705
 30
0.0
 10
193.996335492555
 20
14.51286645379058
 30
0.0
 10
193.9962060293131
 20
14.61628748709516
 30
0.0
 10
193.996550754908
 20
14.69932036153667
 30
0.0
 10
193.9958698278689
 20
14.75143368521244
 30
0.0
 10
193.999458660062
 20
14.8791290782136
 30
0.0
 10
193.7826171386436
 20
14.58048716819621
 30
0.0
 10
193.6021354921952
 20
14.35263981511521
 30
0.0
 10
193.549032229561
 20
14.49373443289814
 30
0.0
 10
193.5200429133148
 20
14.54325767560945
 30
0.0
 10
193.4196648062821
 20
14.64641779790116
 30
0.0
 10
193.740512772326
 20
14.72695035023781
 30
0.0
 10
193.8689897005428
 20
14.91066283036439
 30
0.0
 10
194.0906454325358
 20
15.11931995771761
 30
0.0
 10
194.1770224894067
 20
15.29339211228345
 30
0.0
 10
194.4549394229076
 20
15.5696705134251
 30
0.0
 10
194.3346247839284
 20
15.56534559551112
 30
0.0
 10
194.2863197351349
 20
15.56614856202551
 30
0.0
 10
194.2102377454905
 20
15.56574582146582
 30
0.0
 10
194.116701000975
 20
15.56590275611607
 30
0.0
 10
194.0117594788556
 20
15.56582502576222
 30
0.0
 10
193.9033887738718
 20
15.56595464378552
 30
0.0
 10
193.7981454235896
 20
15.56554393490689
 30
0.0
 10
193.7056237819411
 20
15.56682073671589
 30
0.0
 10
193.6268130800707
 20
15.56340766534847
 30
0.0
 10
193.5839674565378
 20
15.57023350036318
 30
0.0
 10
193.5449499586515
 20
15.56065064201121
 30
0.0
 10
193.5526365271863
 20
15.5942077956554
 30
0.0
 10
193.548546440431
 20
15.6252355032223
 30
0.0
 10
193.5485531368814
 20
15.67236529270898
 30
0.0
 10
193.552623972491
 20
15.70340941646775
 30
0.0
 10
193.5449495574582
 20
15.73701861635898
 30
0.0
 10
193.5834819405493
 20
15.72748410420869
 30
0.0
 10
193.6241228014479
 20
15.73397435498067
 30
0.0
 10
193.6951471850463
 20
15.73100150650252
 30
0.0
 10
193.7729318149632
 20
15.73174761399154
 30
0.0
 10
193.8507292246474
 20
15.73247814044523
 30
0.0
 10
193.9217232089906
 20
15.72954235514157
 30
0.0
 10
193.9624279791819
 20
15.73595468772949
 30
0.0
 10
194.0009853489908
 20
15.72650524176001
 30
0.0
 10
193.9927342754926
 20
15.76264692158782
 30
0.0
 10
193.9982346669358
 20
15.80129837613224
 30
0.0
 10
193.9955754206161
 20
15.86913528561837
 30
0.0
 10
193.9965815471532
 20
15.94591641538738
 30
0.0
 10
193.9960178018318
 20
16.02849393582756
 30
0.0
 10
193.997071452659
 20
16.10517329229877
 30
0.0
 10
193.994267586313
 20
16.173319907767
 30
0.0
 10
194.0000702721302
 20
16.21132399809347
 30
0.0
 10
193.9915654551158
 20
16.24758448077648
 30
0.0
 10
194.0255610233123
 20
16.23755723771853
 30
0.0
 10
194.0594575683099
 20
16.24073266813707
 30
0.0
 10
194.1126669060346
 20
16.2350896564061
 30
0.0
 10
194.1660768574484
 20
16.23434774436426
 30
0.0
 10
194.199591464949
 20
16.22819223482981
 30
0.0
 10
194.2388086183039
 20
16.23346029773592
 30
0.0
 10
194.2120263698491
 20
16.19253380793495
 30
0.0
 10
194.1708111001724
 20
16.20371204538106
 30
0.0
 10
194.1782641540873
 20
16.15867056192122
 30
0.0
 10
194.1742227952185
 20
16.11412278028142
 30
0.0
 10
194.176171404964
 20
16.042235726217
 30
0.0
 10
194.1752364849758
 20
15.96168630588768
 30
0.0
 10
194.176510719003
 20
15.88173995404992
 30
0.0
 10
194.1732043793863
 20
15.8084183708318
 30
0.0
 10
194.1802106179962
 20
15.76688643002565
 30
0.0
 10
194.1701440380125
 20
15.7275241856811
 30
0.0
 10
194.2029814803921
 20
15.73468063430978
 30
0.0
 10
194.236457729648
 20
15.73027243137941
 30
0.0
 10
194.2915053476019
 20
15.73217943347894
 30
0.0
 10
194.3489502595314
 20
15.73185366407285
 30
0.0
 10
194.4023026248309
 20
15.73106308733078
 30
0.0
 10
194.4398540896639
 20
15.73313959118072
 30
0.0
 10
194.4623172523236
 20
15.73022338167105
 30
0.0
 10
194.4751678073731
 20
15.73572552644054
 30
0.0
 10
194.4858255685888
 20
15.73801118197788
 30
0.0
 10
194.4986635650143
 20
15.74494972588052
 30
0.0
 10
194.5145991033071
 20
15.72853046313672
 30
0.0
 10
194.5410623920891
 20
15.71709122319449
 30
0.0
 10
194.5726805253757
 20
15.69644687835193
 30
0.0
 10
194.5987255892151
 20
15.68116869628298
 30
0.0
 10
194.6128517723973
 20
15.67266976323188
 30
0.0
 10
194.6170254148479
 20
15.67015871511032
 30
0.0
 11
194.6170254148479
 21
15.67015871511032
 31
0.0
 11
194.6049990002243
 21
15.65473571164188
 31
0.0
 11
194.5848961795564
 21
15.64337406233921
 31
0.0
 11
194.4778986355813
 21
15.42440620231162
 31
0.0
 11
194.3477039934324
 21
15.21317201512162
 31
0.0
 11
194.1996540366071
 21
15.01206059027481
 31
0.0
 11
194.2734958253735
 21
14.96147384935378
 31
0.0
 11
194.36056643118
 21
14.89988411653738
 31
0.0
 11
194.4518003750404
 21
14.83413160594424
 31
0.0
 11
194.5381321779687
 21
14.77105653169304
 31
0.0
 11
194.6104963609787
 21
14.71749910790241
 31
0.0
 11
194.6598274450843
 21
14.68029954869101
 31
0.0
 11
194.6486940702213
 21
14.66471410869491
 31
0.0
 11
194.6221452532403
 21
14.62754882870421
 31
0.0
 11
194.5904579555532
 21
14.58319026871531
 31
0.0
 11
194.5639091385722
 21
14.54602498872461
 31
0.0
 11
194.5527757637092
 21
14.53043954872851
 31
0.0
 11
194.4807013362947
 21
14.59754008690616
 31
0.0
 11
194.385285698538
 21
14.67993354174667
 31
0.0
 11
194.279326415217
 21
14.76785017366916
 31
0.0
 11
194.175621051109
 21
14.85152024309272
 31
0.0
 11
194.175621051109
 21
14.83304687900868
 31
0.0
 11
194.175621051109
 21
14.7816210276396
 31
0.0
 11
194.175621051109
 21
14.70323405031003
 31
0.0
 11
194.175621051109
 21
14.60387730834453
 31
0.0
 11
194.175621051109
 21
14.48954216306764
 31
0.0
 11
194.175621051109
 21
14.36621997580392
 31
0.0
 11
194.175621051109
 21
14.23990210787792
 31
0.0
 11
194.175621051109
 21
14.11657992061421
 31
0.0
 11
194.175621051109
 21
14.00224477533731
 31
0.0
 11
194.175621051109
 21
13.90288803337181
 31
0.0
 11
194.175621051109
 21
13.82450105604224
 31
0.0
 11
194.175621051109
 21
13.77307520467316
 31
0.0
 11
194.175621051109
 21
13.75460184058912
 31
0.0
 11
194.1569720893626
 21
13.75460184058912
 31
0.0
 11
194.1125014882749
 21
13.75460184058912
 31
0.0
 11
194.0594236740735
 21
13.75460184058912
 31
0.0
 11
194.0149530729858
 21
13.75460184058912
 31
0.0
 11
193.9963041112394
 21
13.75460184058912
 31
0.0
 11
193.9963041112394
 21
13.77486797460219
 31
0.0
 11
193.9963041112394
 21
13.83089787452066
 31
0.0
 11
193.9963041112394
 21
13.91553878716347
 31
0.0
 11
193.9963041112394
 21
14.02163795934953
 31
0.0
 11
193.9963041112394
 21
14.14204263789776
 31
0.0
 11
193.9963041112394
 21
14.26960006962706
 31
0.0
 11
193.9963041112394
 21
14.39715750135636
 31
0.0
 11
193.9963041112394
 21
14.51756217990459
 31
0.0
 11
193.9963041112394
 21
14.62366135209064
 31
0.0
 11
193.9963041112394
 21
14.70830226473345
 31
0.0
 11
193.9963041112394
 21
14.76433216465193
 31
0.0
 11
193.9963041112394
 21
14.784598298665
 31
0.0
 11
193.7883272849481
 21
14.59331998274059
 31
0.0
 11
193.5763486358425
 21
14.43414885430812
 31
0.0
 11
193.5495629014482
 21
14.48814671952097
 31
0.0
 11
193.5138765415024
 21
14.54689140572029
 31
0.0
 11
193.4799697494124
 21
14.59192871537982
 31
0.0
 11
193.6830287742318
 21
14.73563387201057
 31
0.0
 11
193.8818531958259
 21
14.9116842352999
 31
0.0
 11
194.0677041444177
 21
15.1132751452495
 31
0.0
 11
194.2318427502302
 21
15.33360194186108
 31
0.0
 11
194.3655301434864
 21
15.56585996513633
 31
0.0
 11
194.3465256724482
 21
15.56585996513633
 31
0.0
 11
194.2944166389562
 21
15.56585996513633
 31
0.0
 11
194.2165596124447
 21
15.56585996513633
 31
0.0
 11
194.1203111623478
 21
15.56585996513633
 31
0.0
 11
194.0130278580996
 21
15.56585996513633
 31
0.0
 11
193.9020662691345
 21
15.56585996513633
 31
0.0
 11
193.7947829648863
 21
15.56585996513633
 31
0.0
 11
193.6985345147894
 21
15.56585996513633
 31
0.0
 11
193.6206774882779
 21
15.56585996513633
 31
0.0
 11
193.5685684547859
 21
15.56585996513633
 31
0.0
 11
193.5495639837477
 21
15.56585996513633
 31
0.0
 11
193.5495639837477
 21
15.58311199790979
 31
0.0
 11
193.5495639837477
 21
15.62425146067729
 31
0.0
 11
193.5495639837477
 21
15.67335340010946
 31
0.0
 11
193.5495639837477
 21
15.71449286287696
 31
0.0
 11
193.5495639837477
 21
15.73174489565042
 31
0.0
 11
193.5687598486008
 21
15.73174489565042
 31
0.0
 11
193.6193671286682
 21
15.73174489565042
 31
0.0
 11
193.6909153522119
 21
15.73174489565042
 31
0.0
 11
193.7729340474935
 21
15.73174489565042
 31
0.0
 11
193.8549527427752
 21
15.73174489565042
 31
0.0
 11
193.9265009663188
 21
15.73174489565042
 31
0.0
 11
193.9771082463863
 21
15.73174489565042
 31
0.0
 11
193.9963041112394
 21
15.73174489565042
 31
0.0
 11
193.9963041112394
 21
15.74926552655215
 31
0.0
 11
193.9963041112394
 21
15.79622081736879
 31
0.0
 11
193.9963041112394
 21
15.86420086526751
 31
0.0
 11
193.9963041112394
 21
15.94479576741548
 31
0.0
 11
193.9963041112394
 21
16.02959562097985
 31
0.0
 11
193.9963041112394
 21
16.11019052312782
 31
0.0
 11
193.9963041112394
 21
16.17817057102654
 31
0.0
 11
193.9963041112394
 21
16.22512586184318
 31
0.0
 11
193.9963041112394
 21
16.24264649274491
 31
0.0
 11
194.013548411211
 21
16.2416580616752
 31
0.0
 11
194.05665916114
 21
16.23918698400092
 31
0.0
 11
194.1127031360477
 21
16.23597458302436
 31
0.0
 11
194.1687471109553
 21
16.2327621820478
 31
0.0
 11
194.2118578608843
 21
16.23029110437352
 31
0.0
 11
194.2291021608559
 21
16.22930267330381
 31
0.0
 11
194.2143774674851
 21
16.20556293372641
 31
0.0
 11
194.175621051109
 21
16.1918376733131
 31
0.0
 11
194.175621051109
 21
16.1720680617729
 31
0.0
 11
194.175621051109
 21
16.11994817680331
 31
0.0
 11
194.175621051109
 21
16.04626144288077
 31
0.0
 11
194.175621051109
 21
15.96179128448176
 31
0.0
 11
194.175621051109
 21
15.87732112608275
 31
0.0
 11
194.175621051109
 21
15.80363439216021
 31
0.0
 11
194.175621051109
 21
15.75151450719061
 31
0.0
 11
194.175621051109
 21
15.73174489565042
 31
0.0
 11
194.1916227112935
 21
15.73174489565042
 31
0.0
 11
194.232890150717
 21
15.73174489565042
 31
0.0
 11
194.2893170576837
 21
15.73174489565042
 31
0.0
 11
194.3507971204981
 21
15.73174489565042
 31
0.0
 11
194.4072240274648
 21
15.73174489565042
 31
0.0
 11
194.4484914668882
 21
15.73174489565042
 31
0.0
 11
194.4644931270728
 21
15.73174489565042
 31
0.0
 11
194.4728206422924
 21
15.73451387455918
 31
0.0
 11
194.4882860277004
 21
15.73965626396117
 31
0.0
 11
194.49661354292
 21
15.74242524286993
 31
0.0
 11
194.5091363776005
 21
15.73490952398293
 31
0.0
 11
194.5389985218386
 21
15.71698742509855
 31
0.0
 11
194.5746404359293
 21
15.6955965328817
 31
0.0
 11
194.6045025801674
 21
15.67767443399732
 31
0.0
 11
194.6170254148479
 21
15.67015871511032
 31
0.0
  0
SPLINE
  5
B5
102
{ACAD_REACTORS
330
D2
102
}
330
48
100
AcDbEntity
  8
_U_30EC_U_30A4_U_30E4_U_30FC_1
  6
Continuous
 62
     2
100
AcDbSpline
210
0.0
220
0.0
230
1.0
 70
    11
 71
     3
 72
   124
 73
   120
 74
   118
 42
0.000000001
 43
0.0000000001
 44
0.00000001
 40
0.0
 40
0.0
 40
0.0
 40
0.0
 40
0.027818722962451
 40
0.1011590162384269
 40
0.2048470170590239
 40
0.3237088716559245
 40
0.4425707262522
 40
0.5462587270699547
 40
0.6195990203311798
 40
0.647417752257866
 40
0.6750060736115242
 40
0.7357003855242741
 40
0.7963946998054456
 40
0.8239830245571766
 40
0.854093381110286
 40
0.937339662940954
 40
1.063094687343235
 40
1.220731268638073
 40
1.399622220914748
 40
1.589140358637732
 40
1.778658496423898
 40
1.957549448940509
 40
2.115186030873159
 40
2.240941056914463
 40
2.324187341760532
 40
2.354297700109382
 40
2.38188602467189
 40
2.442580338710477
 40
2.503274652750499
 40
2.530862977314606
 40
2.560983949278559
 40
2.640393784452905
 40
2.752662861759128
 40
2.881361560118145
 40
3.010060258455192
 40
3.122329335705339
 40
3.201739170817953
 40
3.231860142753313
 40
3.264298024030372
 40
3.352343701778248
 40
3.48209522686878
 40
3.639650650173052
 40
3.811108022565517
 40
3.982565394928037
 40
4.140120818152629
 40
4.269872343141347
 40
4.357918020802415
 40
4.390355902044045
 40
4.423256253992615
 40
4.508104530073136
 40
4.624121560636904
 40
4.75052817603166
 40
4.866545206602107
 40
4.951393482692064
 40
4.984293834645466
 40
5.011450833242384
 40
5.071196230152172
 40
5.130941627057251
 40
5.158098625648919
 40
5.19099897760161
 40
5.275847253689435
 40
5.39186428425687
 40
5.518270899648415
 40
5.634287930209454
 40
5.719136206288128
 40
5.752036558236015
 40
5.782130946283041
 40
5.862783906229214
 40
5.979550131775086
 40
6.117984316640491
 40
6.263641154588037
 40
6.402075339414243
 40
6.51884156490804
 40
6.599494524815625
 40
6.629588912848862
 40
6.654403028226411
 40
6.713575149488178
 40
6.784199939329496
 40
6.843372060493513
 40
6.868186175802759
 40
6.896246243201808
 40
6.939586233758186
 40
6.967846564564814
 40
7.043584251089746
 40
7.153234334451598
 40
7.283231855734341
 40
7.420011856035366
 40
7.550009376579709
 40
7.659659458835103
 40
7.735397144417092
 40
7.763657474851263
 40
7.79640972801092
 40
7.880876065096194
 40
7.99637085246558
 40
8.122208446418474
 40
8.237703224799068
 40
8.322169562010762
 40
8.354921815205776
 40
8.382078813307558
 40
8.441824209206867
 40
8.501569605240022
 40
8.528726603485602
 40
8.56147885669565
 40
8.6459451938777
 40
8.761439980865212
 40
8.887277580764355
 40
9.002772362000876
 40
9.087238696661096
 40
9.11999094923555
 40
9.152428830613252
 40
9.240474508638473
 40
9.370226034149432
 40
9.527781457984327
 40
9.699238830981328
 40
9.870696203978529
 40
10.02825162781396
 40
10.15800315332559
 40
10.24604883135114
 40
10.27848670378517
 40
10.27848670378517
 40
10.27848670378517
 40
10.27848670378517
 10
195.3821827564383
 20
14.0141051738575
 30
0.0
 10
195.3914554737523
 20
14.01410498511267
 30
0.0
 10
195.4251744536861
 20
14.01410430876707
 30
0.0
 10
195.4934706812465
 20
14.01411807243297
 30
0.0
 10
195.592014171158
 20
14.01403224219538
 30
0.0
 10
195.7062066464812
 20
14.01441755612243
 30
0.0
 10
195.818589441707
 20
14.01300835897538
 30
0.0
 10
195.9214376600118
 20
14.01719117422236
 30
0.0
 10
195.9806839874849
 20
14.00823089251976
 30
0.0
 10
196.0371265937032
 20
14.02164434526054
 30
0.0
 10
196.0246255586955
 20
13.97087198613354
 30
0.0
 10
196.0329549635703
 20
13.92589320939059
 30
0.0
 10
196.024817084112
 20
13.88056752990481
 30
0.0
 10
196.0370529214457
 20
13.82931932408459
 30
0.0
 10
195.9747773490333
 20
13.84447955365269
 30
0.0
 10
195.9060513026868
 20
13.83359750710735
 30
0.0
 10
195.7782756749592
 20
13.83911304747965
 30
0.0
 10
195.6262984511643
 20
13.83700851253691
 30
0.0
 10
195.4502695972523
 20
13.83771002588467
 30
0.0
 10
195.2644431934287
 20
13.83745237531284
 30
0.0
 10
195.0786167437175
 20
13.83771005144596
 30
0.0
 10
194.9025880142168
 20
13.83700841847724
 30
0.0
 10
194.7506104154195
 20
13.83911332229982
 30
0.0
 10
194.6228357664554
 20
13.83359680767633
 30
0.0
 10
194.5541077836581
 20
13.84448077125935
 30
0.0
 10
194.4918349042883
 20
13.82931786684202
 30
0.0
 10
194.5040616290017
 20
13.88057510805165
 30
0.0
 10
194.4960004462597
 20
13.92582473272418
 30
0.0
 10
194.5040675809892
 20
13.97106357955316
 30
0.0
 10
194.4918238487083
 20
14.02234176909951
 30
0.0
 10
194.5525017120697
 20
14.00749577363128
 30
0.0
 10
194.6162810745736
 20
14.01756448170728
 30
0.0
 10
194.7277314353502
 20
14.01294644211992
 30
0.0
 10
194.8497533443824
 20
14.01413328905462
 30
0.0
 10
194.9719538137823
 20
14.01515863900628
 30
0.0
 10
195.0829794287392
 20
14.01092475623394
 30
0.0
 10
195.1476517413958
 20
14.02018584521731
 30
0.0
 10
195.2091162810501
 20
14.00604423049675
 30
0.0
 10
195.1930065601337
 20
14.0723552788451
 30
0.0
 10
195.2042980327357
 20
14.14447790121969
 30
0.0
 10
195.1987400822561
 20
14.2751376088828
 30
0.0
 10
195.200803506169
 20
14.42607323708237
 30
0.0
 10
195.2000167127295
 20
14.59335873107882
 30
0.0
 10
195.2007845215627
 20
14.760611103323
 30
0.0
 10
195.1988038785628
 20
14.91163289269913
 30
0.0
 10
195.2041306156621
 20
15.04206069552995
 30
0.0
 10
195.1933101388425
 20
15.11465442605899
 30
0.0
 10
195.2090326429875
 20
15.18150469436799
 30
0.0
 10
195.143270813249
 20
15.16580512490825
 30
0.0
 10
195.0756367830764
 20
15.17609243083996
 30
0.0
 10
194.9615885293809
 20
15.17113786847123
 30
0.0
 10
194.8451242674902
 20
15.17414128030475
 30
0.0
 10
194.7306554121477
 20
15.16880303143389
 30
0.0
 10
194.6640324657812
 20
15.18001268074825
 30
0.0
 10
194.5990769715186
 20
15.16349132665012
 30
0.0
 10
194.6107989758707
 20
15.2147372047706
 30
0.0
 10
194.6032830189122
 20
15.25950333784092
 30
0.0
 10
194.6107989878835
 20
15.30426944897963
 30
0.0
 10
194.5990769505347
 20
15.35551536129743
 30
0.0
 10
194.6640326339199
 20
15.33899381766817
 30
0.0
 10
194.7306533339822
 20
15.35020571373946
 30
0.0
 10
194.8451352858063
 20
15.34485436710666
 30
0.0
 10
194.9615454436962
 20
15.3479118877112
 30
0.0
 10
195.0757660174641
 20
15.3427849901071
 30
0.0
 10
195.1430150439227
 20
15.353457333556
 30
0.0
 10
195.2083325941438
 20
15.33742082669079
 30
0.0
 10
195.1941391448553
 20
15.39949685750056
 30
0.0
 10
195.2036059462994
 20
15.46586761628765
 30
0.0
 10
195.1990269004085
 20
15.58239972741968
 30
0.0
 10
195.2007696555948
 20
15.71426685022378
 30
0.0
 10
195.1997551495391
 20
15.85615960150275
 30
0.0
 10
195.2017191344373
 20
15.98769050702582
 30
0.0
 10
195.1964668553851
 20
16.10524577283005
 30
0.0
 10
195.2073408763474
 20
16.16947789001586
 30
0.0
 10
195.1919536641853
 20
16.23108802545049
 30
0.0
 10
195.2407591537801
 20
16.21702407382114
 30
0.0
 10
195.2853995564725
 20
16.21954742075317
 30
0.0
 10
195.3538643946741
 20
16.21512797401712
 30
0.0
 10
195.3959106169102
 20
16.20613025544037
 30
0.0
 10
195.4487544758773
 20
16.21411714866513
 30
0.0
 10
195.4207035002014
 20
16.17113917611672
 30
0.0
 10
195.3749142248594
 20
16.18259552043833
 30
0.0
 10
195.3869539073265
 20
16.12173520005134
 30
0.0
 10
195.3796086070641
 20
16.05769299468771
 30
0.0
 10
195.3831195826162
 20
15.94909368863909
 30
0.0
 10
195.3819806760173
 20
15.82494319144752
 30
0.0
 10
195.3819174780263
 20
15.69189719829878
 30
0.0
 10
195.3832872966867
 20
15.56797381249556
 30
0.0
 10
195.3791638801313
 20
15.4586833784934
 30
0.0
 10
195.3877763103564
 20
15.39608580094172
 30
0.0
 10
195.3746757454401
 20
15.33740133296367
 30
0.0
 10
195.4393884328198
 20
15.35362113810904
 30
0.0
 10
195.5060405953156
 20
15.34270260383314
 30
0.0
 10
195.6198779541102
 20
15.34793740173757
 30
0.0
 10
195.7357259122097
 20
15.34485547516916
 30
0.0
 10
195.849692426328
 20
15.35018259812513
 30
0.0
 10
195.9160341018099
 20
15.33904208166545
 30
0.0
 10
195.980718852548
 20
15.3554697959318
 30
0.0
 10
195.9689820772722
 20
15.30425925210052
 30
0.0
 10
195.976516806304
 20
15.25950334121002
 30
0.0
 10
195.9689820992258
 20
15.21474739010028
 30
0.0
 10
195.9807188140736
 20
15.16353690871041
 30
0.0
 10
195.9160344075252
 20
15.1799642779422
 30
0.0
 10
195.8496886430824
 20
15.1688278444727
 30
0.0
 10
195.7357459487012
 20
15.17413115893121
 30
0.0
 10
195.6197995623054
 20
15.17114764593545
 30
0.0
 10
195.5062756882123
 20
15.17606892268394
 30
0.0
 10
195.4389231318804
 20
15.1658508751352
 30
0.0
 10
195.3734285122495
 20
15.18145996138816
 30
0.0
 10
195.3891713619218
 20
15.11463851827411
 30
0.0
 10
195.3783275998212
 20
15.04207057815878
 30
0.0
 10
195.3836581629793
 20
14.91162247614415
 30
0.0
 10
195.3817136151854
 20
14.76064558185223
 30
0.0
 10
195.3823133683215
 20
14.59322243934155
 30
0.0
 10
195.3821506559604
 20
14.42656176118367
 30
0.0
 10
195.3821895488136
 20
14.2736014292163
 30
0.0
 10
195.3821816413099
 20
14.14849178985699
 30
0.0
 10
195.3821828382744
 20
14.06507890991413
 30
0.0
 10
195.3821827716209
 20
14.02491778281969
 30
0.0
 10
195.3821827564383
 20
14.0141051738575
 30
0.0
 11
195.3821827564383
 21
14.0141051738575
 31
0.0
 11
195.4100014883675
 21
14.0141051738575
 31
0.0
 11
195.4833417816353
 21
14.0141051738575
 31
0.0
 11
195.5870297824622
 21
14.0141051738575
 31
0.0
 11
195.7058916370687
 21
14.0141051738575
 31
0.0
 11
195.8247534916751
 21
14.0141051738575
 31
0.0
 11
195.928441492502
 21
14.0141051738575
 31
0.0
 11
196.0017817857698
 21
14.0141051738575
 31
0.0
 11
196.029600517699
 21
14.0141051738575
 31
0.0
 11
196.029600517699
 21
13.98651684921162
 31
0.0
 11
196.029600517699
 21
13.9258225349907
 31
0.0
 11
196.029600517699
 21
13.86512822076978
 31
0.0
 11
196.029600517699
 21
13.8375398961239
 31
0.0
 11
195.9994901593494
 21
13.8375398961239
 31
0.0
 11
195.9162438745004
 21
13.8375398961239
 31
0.0
 11
195.7904888484521
 21
13.8375398961239
 31
0.0
 11
195.6328522665041
 21
13.8375398961239
 31
0.0
 11
195.4539613139564
 21
13.8375398961239
 31
0.0
 11
195.2644431761089
 21
13.8375398961239
 31
0.0
 11
195.0749250382613
 21
13.8375398961239
 31
0.0
 11
194.8960340857136
 21
13.8375398961239
 31
0.0
 11
194.7383975037656
 21
13.8375398961239
 31
0.0
 11
194.6126424777172
 21
13.8375398961239
 31
0.0
 11
194.5293961928683
 21
13.8375398961239
 31
0.0
 11
194.4992858345187
 21
13.8375398961239
 31
0.0
 11
194.4992858345187
 21
13.86512822076978
 31
0.0
 11
194.4992858345187
 21
13.9258225349907
 31
0.0
 11
194.4992858345187
 21
13.98651684921163
 31
0.0
 11
194.4992858345187
 21
14.0141051738575
 31
0.0
 11
194.5294068064947
 21
14.0141051738575
 31
0.0
 11
194.608816641704
 21
14.0141051738575
 31
0.0
 11
194.721085719069
 21
14.0141051738575
 31
0.0
 11
194.8497844175118
 21
14.0141051738575
 31
0.0
 11
194.9784831159545
 21
14.0141051738575
 31
0.0
 11
195.0907521933195
 21
14.0141051738575
 31
0.0
 11
195.1701620285289
 21
14.0141051738575
 31
0.0
 11
195.2002830005048
 21
14.0141051738575
 31
0.0
 11
195.2002830005048
 21
14.04654305523828
 31
0.0
 11
195.2002830005048
 21
14.13458873327184
 31
0.0
 11
195.2002830005048
 21
14.26434025879497
 31
0.0
 11
195.2002830005048
 21
14.42189568264449
 31
0.0
 11
195.2002830005048
 21
14.5933530556572
 31
0.0
 11
195.2002830005048
 21
14.76481042866992
 31
0.0
 11
195.2002830005048
 21
14.92236585251944
 31
0.0
 11
195.2002830005048
 21
15.05211737804257
 31
0.0
 11
195.2002830005048
 21
15.14016305607613
 31
0.0
 11
195.2002830005048
 21
15.17260093745691
 31
0.0
 11
195.1673826485529
 21
15.17260093745691
 31
0.0
 11
195.0825343724662
 21
15.17260093745691
 31
0.0
 11
194.9665173418988
 21
15.17260093745691
 31
0.0
 11
194.8401107265044
 21
15.17260093745691
 31
0.0
 11
194.724093695937
 21
15.17260093745691
 31
0.0
 11
194.6392454198503
 21
15.17260093745691
 31
0.0
 11
194.6063450678984
 21
15.17260093745691
 31
0.0
 11
194.6063450678984
 21
15.19975793614804
 31
0.0
 11
194.6063450678984
 21
15.25950333326852
 31
0.0
 11
194.6063450678984
 21
15.31924873038899
 31
0.0
 11
194.6063450678984
 21
15.34640572908012
 31
0.0
 11
194.6392454198504
 21
15.34640572908012
 31
0.0
 11
194.724093695937
 21
15.34640572908012
 31
0.0
 11
194.8401107265044
 21
15.34640572908012
 31
0.0
 11
194.9665173418988
 21
15.34640572908012
 31
0.0
 11
195.0825343724662
 21
15.34640572908012
 31
0.0
 11
195.1673826485529
 21
15.34640572908012
 31
0.0
 11
195.2002830005048
 21
15.34640572908012
 31
0.0
 11
195.2002830005048
 21
15.37650011731372
 31
0.0
 11
195.2002830005048
 21
15.45715307777975
 31
0.0
 11
195.2002830005048
 21
15.57391930412611
 31
0.0
 11
195.2002830005048
 21
15.71235349000065
 31
0.0
 11
195.2002830005048
 21
15.85801032905126
 31
0.0
 11
195.2002830005048
 21
15.99644451492581
 31
0.0
 11
195.2002830005048
 21
16.11321074127216
 31
0.0
 11
195.2002830005048
 21
16.1938637017382
 31
0.0
 11
195.2002830005048
 21
16.2239580899718
 31
0.0
 11
195.2250405288618
 21
16.22228324219444
 31
0.0
 11
195.2840777118669
 21
16.21828937441768
 31
0.0
 11
195.3545414464214
 21
16.21352249997443
 31
0.0
 11
195.4135786294264
 21
16.20952863219766
 31
0.0
 11
195.4383361577834
 21
16.20785378442031
 31
0.0
 11
195.423306722403
 21
16.1841581420651
 31
0.0
 11
195.3821827564383
 21
16.17047697887401
 31
0.0
 11
195.3821827564383
 21
16.1422166479483
 31
0.0
 11
195.3821827564383
 21
16.06647896106738
 31
0.0
 11
195.3821827564383
 21
15.95682887707559
 31
0.0
 11
195.3821827564383
 21
15.8268313548173
 31
0.0
 11
195.3821827564383
 21
15.69005135313683
 31
0.0
 11
195.3821827564383
 21
15.56005383087854
 31
0.0
 11
195.3821827564383
 21
15.45040374688676
 31
0.0
 11
195.3821827564383
 21
15.37466606000584
 31
0.0
 11
195.3821827564383
 21
15.34640572908012
 31
0.0
 11
195.4149350096115
 21
15.34640572908012
 31
0.0
 11
195.4994013467422
 21
15.34640572908012
 31
0.0
 11
195.6148961342476
 21
15.34640572908012
 31
0.0
 11
195.7407337385445
 21
15.34640572908012
 31
0.0
 11
195.8562285260498
 21
15.34640572908012
 31
0.0
 11
195.9406948631806
 21
15.34640572908012
 31
0.0
 11
195.9734471163538
 21
15.34640572908012
 31
0.0
 11
195.9734471163538
 21
15.31924873038899
 31
0.0
 11
195.9734471163538
 21
15.25950333326852
 31
0.0
 11
195.9734471163538
 21
15.19975793614804
 31
0.0
 11
195.9734471163538
 21
15.17260093745691
 31
0.0
 11
195.9406948631806
 21
15.17260093745691
 31
0.0
 11
195.8562285260498
 21
15.17260093745691
 31
0.0
 11
195.7407337385445
 21
15.17260093745691
 31
0.0
 11
195.6148961342476
 21
15.17260093745691
 31
0.0
 11
195.4994013467422
 21
15.17260093745691
 31
0.0
 11
195.4149350096114
 21
15.17260093745691
 31
0.0
 11
195.3821827564383
 21
15.17260093745691
 31
0.0
 11
195.3821827564383
 21
15.14016305607612
 31
0.0
 11
195.3821827564383
 21
15.05211737804257
 31
0.0
 11
195.3821827564383
 21
14.92236585251944
 31
0.0
 11
195.3821827564383
 21
14.76481042866992
 31
0.0
 11
195.3821827564383
 21
14.5933530556572
 31
0.0
 11
195.3821827564383
 21
14.42189568264449
 31
0.0
 11
195.3821827564383
 21
14.26434025879497
 31
0.0
 11
195.3821827564383
 21
14.13458873327184
 31
0.0
 11
195.3821827564383
 21
14.04654305523828
 31
0.0
 11
195.3821827564383
 21
14.0141051738575
 31
0.0
  0
SPLINE
  5
B6
102
{ACAD_REACTORS
330
D3
102
}
330
48
100
AcDbEntity
  8
_U_30EC_U_30A4_U_30E4_U_30FC_1
  6
Continuous
 62
     2
100
AcDbSpline
210
0.0
220
0.0
230
1.0
 70
     8
 71
     3
 72
    62
 73
    58
 74
    56
 42
0.000000001
 43
0.0000000001
 44
0.00000001
 40
0.0
 40
0.0
 40
0.0
 40
0.0
 40
0.0598250028308769
 40
0.2024846486897331
 40
0.3727558389220746
 40
0.515415484793607
 40
0.5752404975785339
 40
0.9332326775487246
 40
1.29045176283948
 40
1.602077253145908
 40
1.699931634112206
 40
1.79935975642511
 40
2.27012014965721
 40
2.804661928461599
 40
2.882342287383308
 40
3.076543185719158
 40
3.329004354835618
 40
3.581465524568443
 40
3.775666424543724
 40
3.853346784558344
 40
3.899120679595089
 40
3.984129341792087
 40
4.029903236817436
 40
4.105797496059598
 40
4.29553314415257
 40
4.542189486611829
 40
4.788845828875793
 40
4.978581476410191
 40
5.05447573524444
 40
5.621734664339541
 40
6.130867242037531
 40
6.225249780948837
 40
6.318913039727553
 40
6.66357995455919
 40
7.047498900225065
 40
7.435230791575971
 40
7.498943906668354
 40
7.650875181210348
 40
7.832212509001802
 40
7.984143783697188
 40
8.047856898903316
 40
8.091554632732826
 40
8.172707566964494
 40
8.216405300768221
 40
8.289021782161106
 40
8.462184160757479
 40
8.66886183800556
 40
8.842024215264152
 40
8.914640695475347
 40
8.989881580861542
 40
9.15541152882743
 40
9.320941477744194
 40
9.396182352487436
 40
9.454709011143983
 40
9.583467660170918
 40
9.712226309013197
 40
9.77075295798965
 40
9.77075295798965
 40
9.77075295798965
 40
9.77075295798965
 10
187.1521871691832
 20
14.93980288195951
 30
0.0
 10
187.1322348171622
 20
14.93980875568672
 30
0.0
 10
187.0647037716465
 20
14.93982863806158
 30
0.0
 10
186.9410612161787
 20
14.93949362520326
 30
0.0
 10
186.7863180150056
 20
14.94107673750513
 30
0.0
 10
186.6697349482479
 20
14.93686078860496
 30
0.0
 10
186.455094263424
 20
14.95215205331627
 30
0.0
 10
186.8518948407227
 20
14.59198721286193
 30
0.0
 10
186.8945656069267
 20
14.37510503397167
 30
0.0
 10
187.3189162146611
 20
14.19325062511451
 30
0.0
 10
187.1439821496074
 20
14.08985196568075
 30
0.0
 10
187.0194523925084
 20
13.8783152321272
 30
0.0
 10
186.7666277235942
 20
14.34806081001561
 30
0.0
 10
186.4797602893626
 20
14.99511516984518
 30
0.0
 10
186.490633592666
 20
14.68782672154694
 30
0.0
 10
186.4882892777959
 20
14.52288616971777
 30
0.0
 10
186.4861096126411
 20
14.28879670711693
 30
0.0
 10
186.4980774396346
 20
14.04498072421783
 30
0.0
 10
186.468798474063
 20
13.89855796860985
 30
0.0
 10
186.511452262547
 20
13.75113490174538
 30
0.0
 10
186.4239814005639
 20
13.7668579730622
 30
0.0
 10
186.3768527606744
 20
13.76694303543455
 30
0.0
 10
186.2898973207713
 20
13.75109425482909
 30
0.0
 10
186.3313474021721
 20
13.89527771422763
 30
0.0
 10
186.3029875004286
 20
14.03855052698457
 30
0.0
 10
186.3145973775299
 20
14.27674947365268
 30
0.0
 10
186.3124175648272
 20
14.50517235240352
 30
0.0
 10
186.3103111127993
 20
14.66705729376
 30
0.0
 10
186.3208035438325
 20
14.98153709333763
 30
0.0
 10
186.0128963252892
 20
14.29229470872444
 30
0.0
 10
185.7055258267455
 20
13.81476750243047
 30
0.0
 10
185.5851367066274
 20
14.03741112637431
 30
0.0
 10
185.4074607910721
 20
14.15011034955561
 30
0.0
 10
185.8853326362894
 20
14.32548143465463
 30
0.0
 10
185.9353959057208
 20
14.56091929252027
 30
0.0
 10
186.3583799621717
 20
14.95322989344609
 30
0.0
 10
186.1276754273539
 20
14.93655307029066
 30
0.0
 10
186.0049685859341
 20
14.94269518948772
 30
0.0
 10
185.8325483095661
 20
14.93312822699574
 30
0.0
 10
185.7213224694449
 20
14.95448818489667
 30
0.0
 10
185.6025779627448
 20
14.92136265357421
 30
0.0
 10
185.6183169706686
 20
15.00203900606885
 30
0.0
 10
185.6178550933763
 20
15.04645414290856
 30
0.0
 10
185.6027881889931
 20
15.12967081778536
 30
0.0
 10
185.7372380935444
 20
15.09062651983886
 30
0.0
 10
185.8619755545747
 20
15.11739729328425
 30
0.0
 10
186.062875523728
 20
15.10063949044055
 30
0.0
 10
186.1921540949352
 20
15.12204225913007
 30
0.0
 10
186.3328419928295
 20
15.08868778853424
 30
0.0
 10
186.2980927452615
 20
15.22651875785069
 30
0.0
 10
186.3222185666713
 20
15.34963257349481
 30
0.0
 10
186.2967086182392
 20
15.47024055670334
 30
0.0
 10
186.3333251146685
 20
15.60539865141492
 30
0.0
 10
186.2211417027769
 20
15.58094545781888
 30
0.0
 10
186.1280356457136
 20
15.59307749842019
 30
0.0
 10
186.0191547579819
 20
15.58957630069991
 30
0.0
 10
185.9569697640964
 20
15.589817559516
 30
0.0
 10
185.9375369557246
 20
15.58989295124141
 30
0.0
 11
187.1521871691832
 21
14.93980288195951
 31
0.0
 11
187.0923621563981
 21
14.93980288195951
 31
0.0
 11
186.9497025105259
 21
14.93980288195951
 31
0.0
 11
186.7794313202913
 21
14.93980288195951
 31
0.0
 11
186.636771674419
 21
14.93980288195951
 31
0.0
 11
186.5769466616339
 21
14.93980288195951
 31
0.0
 11
186.7679960754841
 21
14.63705127966892
 31
0.0
 11
186.9941272785629
 21
14.36051890576687
 31
0.0
 11
187.2244526173371
 21
14.15061253493462
 31
0.0
 11
187.1521596330703
 21
14.08466403668718
 31
0.0
 11
187.0879364402643
 21
14.00876059052561
 31
0.0
 11
186.7732818215557
 21
14.35891458349367
 31
0.0
 11
186.4886640249976
 21
14.811382951436
 31
0.0
 11
186.4886640249976
 21
14.73370259137312
 31
0.0
 11
186.4886640249976
 21
14.53950169121592
 31
0.0
 11
186.4886640249976
 21
14.28704052101156
 31
0.0
 11
186.4886640249976
 21
14.0345793508072
 31
0.0
 11
186.4886640249976
 21
13.84037845065
 31
0.0
 11
186.4886640249976
 21
13.76269809058712
 31
0.0
 11
186.4428901295605
 21
13.76269809058712
 31
0.0
 11
186.3578814666058
 21
13.76269809058712
 31
0.0
 11
186.3121075711687
 21
13.76269809058712
 31
0.0
 11
186.3121075711687
 21
13.83859234982741
 31
0.0
 11
186.3121075711687
 21
14.02832799792813
 31
0.0
 11
186.3121075711687
 21
14.27498434045907
 31
0.0
 11
186.3121075711687
 21
14.52164068299001
 31
0.0
 11
186.3121075711687
 21
14.71137633109073
 31
0.0
 11
186.3121075711687
 21
14.78727059033102
 31
0.0
 11
185.9987626399266
 21
14.31440946197694
 31
0.0
 11
185.6352328662148
 21
13.9579517710938
 31
0.0
 11
185.5773927461627
 21
14.03253450545026
 31
0.0
 11
185.509485230534
 21
14.09704322939243
 31
0.0
 11
185.7750721898319
 21
14.31672219795889
 31
0.0
 11
186.0233764972061
 21
14.60953395971698
 31
0.0
 11
186.2264982805259
 21
14.93980288195951
 31
0.0
 11
186.162785165272
 21
14.93980288195951
 31
0.0
 11
186.0108538904358
 21
14.93980288195951
 31
0.0
 11
185.8295165624055
 21
14.93980288195951
 31
0.0
 11
185.6775852875693
 21
14.93980288195951
 31
0.0
 11
185.6138721723154
 21
14.93980288195951
 31
0.0
 11
185.6138721723154
 21
14.9835006160021
 31
0.0
 11
185.6138721723154
 21
15.06465355065261
 31
0.0
 11
185.6138721723154
 21
15.1083512846952
 31
0.0
 11
185.6864886537961
 21
15.1083512846952
 31
0.0
 11
185.8596510327118
 21
15.1083512846952
 31
0.0
 11
186.0663287107723
 21
15.1083512846952
 31
0.0
 11
186.239491089688
 21
15.1083512846952
 31
0.0
 11
186.3121075711687
 21
15.1083512846952
 31
0.0
 11
186.3121075711687
 21
15.18359217009304
 31
0.0
 11
186.3121075711687
 21
15.3491221179683
 31
0.0
 11
186.3121075711687
 21
15.51465206584357
 31
0.0
 11
186.3121075711687
 21
15.58989295124141
 31
0.0
 11
186.2535809125055
 21
15.58989295124141
 31
0.0
 11
186.1248222634467
 21
15.58989295124141
 31
0.0
 11
185.9960636143877
 21
15.58989295124141
 31
0.0
 11
185.9375369557246
 21
15.58989295124141
 31
0.0
  0
SPLINE
  5
B7
102
{ACAD_REACTORS
330
D3
102
}
330
48
100
AcDbEntity
  8
_U_30EC_U_30A4_U_30E4_U_30FC_1
  6
Continuous
 62
     2
100
AcDbSpline
210
0.0
220
0.0
230
1.0
 70
     8
 71
     3
 72
    70
 73
    66
 74
    64
 42
0.000000001
 43
0.0000000001
 44
0.00000001
 40
0.0
 40
0.0
 40
0.0
 40
0.0
 40
0.0241731073021472
 40
0.0846058988987013
 40
0.1631685280353284
 40
0.2417311571789756
 40
0.3021639488292751
 40
0.3263370654895541
 40
0.3533118254248881
 40
0.4228783438922094
 40
0.5179999095313402
 40
0.6216398239466084
 40
0.7167613891499688
 40
0.7863279069649846
 40
0.8133026791761818
 40
0.8372943998771654
 40
0.8945054261372845
 40
0.9627895541962608
 40
1.02000058034907
 40
1.043992300975168
 40
1.071934345522892
 40
1.113121768772915
 40
1.145225199332239
 40
1.225483775412778
 40
1.329819923771488
 40
1.43415607199438
 40
1.514414647795803
 40
1.546518078208411
 40
1.578974764260184
 40
1.662678849314179
 40
1.7771313736684
 40
1.90183337747479
 40
2.01628590050058
 40
2.099989982527947
 40
2.132446666570306
 40
2.15878235448603
 40
2.216720867907819
 40
2.27465938133424
 40
2.300995069256176
 40
2.333451754066148
 40
2.417155836543829
 40
2.531608358985268
 40
2.656310362283763
 40
2.770762886388896
 40
2.854466971340061
 40
2.886923657363867
 40
2.913597976833298
 40
2.982389642875091
 40
3.076451716946946
 40
3.178937260458548
 40
3.272999334739939
 40
3.341791001059155
 40
3.368465320663462
 40
3.396976080738683
 40
3.472140811845919
 40
3.578408190308609
 40
3.700226892456017
 40
3.822045594634234
 40
3.928312973256312
 40
4.003477705314682
 40
4.031988456866747
 40
4.058324144797549
 40
4.116262658236716
 40
4.174201171400522
 40
4.200536849608458
 40
4.200536849608458
 40
4.200536849608458
 40
4.200536849608458
 10
185.9857704961609
 20
15.75844135397702
 30
0.0
 10
185.9938259544679
 20
15.75844359811683
 30
0.0
 10
186.0220200663241
 20
15.75845146032794
 30
0.0
 10
186.0765534803672
 20
15.75830754828368
 30
0.0
 10
186.1482891808604
 20
15.75909120499895
 30
0.0
 10
186.2236240137062
 20
15.75627570463808
 30
0.0
 10
186.2713052366438
 20
15.76298403400954
 30
0.0
 10
186.3195071245616
 20
15.7519756369243
 30
0.0
 10
186.3062571799873
 20
15.8054640299703
 30
0.0
 10
186.3151093964538
 20
15.86049583543088
 30
0.0
 10
186.3108698036285
 20
15.95419908726106
 30
0.0
 10
186.313348348128
 20
16.04959482218529
 30
0.0
 10
186.3090938706059
 20
16.14356821983384
 30
0.0
 10
186.3179818665846
 20
16.19795062438009
 30
0.0
 10
186.3046977409945
 20
16.25233997691457
 30
0.0
 10
186.3514119277108
 20
16.23842216335355
 30
0.0
 10
186.3943254545736
 20
16.24103877374041
 30
0.0
 10
186.4605443456685
 20
16.23648422450754
 30
0.0
 10
186.5013342271799
 20
16.22778162134161
 30
0.0
 10
186.5525145690819
 20
16.23531799890195
 30
0.0
 10
186.52537204872
 20
16.19349970223286
 30
0.0
 10
186.4803096055707
 20
16.20284992072594
 30
0.0
 10
186.4942065045051
 20
16.13841207371836
 30
0.0
 10
186.4858414431653
 20
16.07378219627396
 30
0.0
 10
186.4903632178399
 20
15.97529141193885
 30
0.0
 10
186.4854741311167
 20
15.87595932842567
 30
0.0
 10
186.4950258992081
 20
15.81293115552965
 30
0.0
 10
186.47997614552
 20
15.74964011499786
 30
0.0
 10
186.5449159457209
 20
15.76515072944266
 30
0.0
 10
186.6116246399496
 20
15.75499387697809
 30
0.0
 10
186.7241435470828
 20
15.75988800099364
 30
0.0
 10
186.8390235448954
 20
15.7569120473278
 30
0.0
 10
186.9519871999747
 20
15.76221664184988
 30
0.0
 10
187.0176267597678
 20
15.75107306472086
 30
0.0
 10
187.0816276691053
 20
15.76744532319854
 30
0.0
 10
187.0703142889189
 20
15.71761689905272
 30
0.0
 10
187.0775339871509
 20
15.67416715212119
 30
0.0
 10
187.0703142611269
 20
15.63071745587442
 30
0.0
 10
187.0816277175994
 20
15.58088895196873
 30
0.0
 10
187.0176263598972
 20
15.59726166091359
 30
0.0
 10
186.9519921240459
 20
15.58611271661585
 30
0.0
 10
186.838997431733
 20
15.59144857206851
 30
0.0
 10
186.7242456548644
 20
15.58834345663819
 30
0.0
 10
186.611318368686
 20
15.59364894682585
 30
0.0
 10
186.5455220903584
 20
15.58257300019591
 30
0.0
 10
186.4816097975358
 20
15.59887597847614
 30
0.0
 10
186.4936015165126
 20
15.54423524395739
 30
0.0
 10
186.4862104613005
 20
15.4885429504784
 30
0.0
 10
186.4892684841983
 20
15.39649689140569
 30
0.0
 10
186.4893422785683
 20
15.30179109873102
 30
0.0
 10
186.486031357836
 20
15.20952782902267
 30
0.0
 10
186.4939505989903
 20
15.15435768736141
 30
0.0
 10
186.4815076611617
 20
15.10058169100139
 30
0.0
 10
186.5389116551631
 20
15.11453768862784
 30
0.0
 10
186.5994708140383
 20
15.10511457884229
 30
0.0
 10
186.7048680855081
 20
15.10942885928708
 30
0.0
 10
186.8204294070622
 20
15.10835504612034
 30
0.0
 10
186.9359688877797
 20
15.10725965900998
 30
0.0
 10
187.041418113084
 20
15.11162525770635
 30
0.0
 10
187.1018680471803
 20
15.10209426030674
 30
0.0
 10
187.1592837739109
 20
15.11617289606382
 30
0.0
 10
187.1477773876708
 20
15.06707153265685
 30
0.0
 10
187.1537566781748
 20
15.02564658018651
 30
0.0
 10
187.1520311050801
 20
14.97651677966697
 30
0.0
 10
187.152150012297
 20
14.94854428447609
 30
0.0
 10
187.1521871691832
 20
14.93980288195951
 30
0.0
 11
185.9857704961609
 21
15.75844135397702
 31
0.0
 11
186.0099436128282
 21
15.75844135397702
 31
0.0
 11
186.0703764044962
 21
15.75844135397702
 31
0.0
 11
186.1489390336648
 21
15.75844135397702
 31
0.0
 11
186.2275016628334
 21
15.75844135397702
 31
0.0
 11
186.2879344545015
 21
15.75844135397702
 31
0.0
 11
186.3121075711687
 21
15.75844135397702
 31
0.0
 11
186.3121075711687
 21
15.7854161262006
 31
0.0
 11
186.3121075711687
 21
15.85498264404035
 31
0.0
 11
186.3121075711687
 21
15.95010420924982
 31
0.0
 11
186.3121075711687
 21
16.05374412358253
 31
0.0
 11
186.3121075711687
 21
16.14886568879199
 31
0.0
 11
186.3121075711687
 21
16.21843220663175
 31
0.0
 11
186.3121075711687
 21
16.24540697885533
 31
0.0
 11
186.3360407604892
 21
16.24373213107797
 31
0.0
 11
186.3931122119458
 21
16.23973826330119
 31
0.0
 11
186.461229750781
 21
16.23497138885794
 31
0.0
 11
186.5183012022376
 21
16.23097752108117
 31
0.0
 11
186.5422343915581
 21
16.22930267330381
 31
0.0
 11
186.5274972731229
 21
16.20556293372641
 31
0.0
 11
186.4886640249976
 21
16.1918376733131
 31
0.0
 11
186.4886640249976
 21
16.15973424225117
 31
0.0
 11
186.4886640249976
 21
16.07947566459634
 31
0.0
 11
186.4886640249976
 21
15.97513951364506
 31
0.0
 11
186.4886640249976
 21
15.87080336269378
 31
0.0
 11
186.4886640249976
 21
15.79054478503895
 31
0.0
 11
186.4886640249976
 21
15.75844135397702
 31
0.0
 11
186.5211207110824
 21
15.75844135397702
 31
0.0
 11
186.6048247962486
 21
15.75844135397702
 31
0.0
 11
186.7192773208634
 21
15.75844135397702
 31
0.0
 11
186.8439793252946
 21
15.75844135397702
 31
0.0
 11
186.9584318499095
 21
15.75844135397702
 31
0.0
 11
187.0421359350756
 21
15.75844135397702
 31
0.0
 11
187.0745926211604
 21
15.75844135397702
 31
0.0
 11
187.0745926211604
 21
15.73210566604958
 31
0.0
 11
187.0745926211604
 21
15.67416715260921
 31
0.0
 11
187.0745926211604
 21
15.61622863916885
 31
0.0
 11
187.0745926211604
 21
15.58989295124141
 31
0.0
 11
187.0421359350756
 21
15.58989295124141
 31
0.0
 11
186.9584318499095
 21
15.58989295124141
 31
0.0
 11
186.8439793252946
 21
15.58989295124141
 31
0.0
 11
186.7192773208634
 21
15.58989295124141
 31
0.0
 11
186.6048247962485
 21
15.58989295124141
 31
0.0
 11
186.5211207110824
 21
15.58989295124141
 31
0.0
 11
186.4886640249976
 21
15.58989295124141
 31
0.0
 11
186.4886640249976
 21
15.56321863152019
 31
0.0
 11
186.4886640249976
 21
15.49442696487073
 31
0.0
 11
186.4886640249976
 21
15.40036489006433
 31
0.0
 11
186.4886640249976
 21
15.29787934587228
 31
0.0
 11
186.4886640249976
 21
15.20381727106588
 31
0.0
 11
186.4886640249976
 21
15.13502560441642
 31
0.0
 11
186.4886640249976
 21
15.1083512846952
 31
0.0
 11
186.5171747850993
 21
15.1083512846952
 31
0.0
 11
186.5923395162766
 21
15.1083512846952
 31
0.0
 11
186.6986068948376
 21
15.1083512846952
 31
0.0
 11
186.8204255970904
 21
15.1083512846952
 31
0.0
 11
186.9422442993433
 21
15.1083512846952
 31
0.0
 11
187.0485116779042
 21
15.1083512846952
 31
0.0
 11
187.1236764090815
 21
15.1083512846952
 31
0.0
 11
187.1521871691832
 21
15.1083512846952
 31
0.0
 11
187.1521871691832
 21
15.08201559676775
 31
0.0
 11
187.1521871691832
 21
15.02407708332736
 31
0.0
 11
187.1521871691832
 21
14.96613856988696
 31
0.0
 11
187.1521871691832
 21
14.93980288195951
 31
0.0
  0
SPLINE
  5
B8
102
{ACAD_REACTORS
330
D3
102
}
330
48
100
AcDbEntity
  8
_U_30EC_U_30A4_U_30E4_U_30FC_1
  6
Continuous
 62
     2
100
AcDbSpline
210
0.0
220
0.0
230
1.0
 70
     8
 71
     3
 72
    24
 73
    20
 74
    18
 42
0.000000001
 43
0.0000000001
 44
0.00000001
 40
0.0
 40
0.0
 40
0.0
 40
0.0
 40
0.2211075008754735
 40
0.4273218586245995
 40
0.5080174679240135
 40
0.5914835907871029
 40
0.8143265690193737
 40
1.054651302686691
 40
1.295452694023252
 40
1.518109231328855
 40
1.540864321905469
 40
1.595126460622726
 40
1.659890947896037
 40
1.714153085187392
 40
1.73690817496169
 40
1.764951100735396
 40
1.801562291220982
 40
1.953914424543712
 40
2.126104167379793
 40
2.126104167379793
 40
2.126104167379793
 40
2.126104167379793
 10
185.9375369556889
 20
15.58989295113022
 30
0.0
 10
185.9112579081811
 20
15.53097628234378
 30
0.0
 10
185.8604698894426
 20
15.41711139679261
 30
0.0
 10
185.8131784839111
 20
15.14441958233113
 30
0.0
 10
185.7043482802618
 20
15.24445482575456
 30
0.0
 10
185.5514800279637
 20
15.27118593367332
 30
0.0
 10
185.7686155181199
 20
15.48518135017636
 30
0.0
 10
185.7838483674381
 20
15.7033211778249
 30
0.0
 10
185.8906889492
 20
15.88451579066429
 30
0.0
 10
185.8305380947078
 20
16.16913226311395
 30
0.0
 10
185.9334317395402
 20
16.14114089222448
 30
0.0
 10
185.977993346815
 20
16.13243251602299
 30
0.0
 10
186.0380842395397
 20
16.12139654183356
 30
0.0
 10
186.0756619587438
 20
16.10767523055561
 30
0.0
 10
186.1252466928606
 20
16.10756076160226
 30
0.0
 10
186.0930158919325
 20
16.07306592398623
 30
0.0
 10
186.0171802221882
 20
16.08404104537971
 30
0.0
 10
186.0429447159692
 20
15.89858969582449
 30
0.0
 10
186.005589676385
 20
15.80702313549586
 30
0.0
 10
185.9857704961609
 20
15.75844135397702
 30
0.0
 11
185.9375369556889
 21
15.58989295113022
 31
0.0
 11
185.8616471328552
 21
15.38221708318557
 31
0.0
 11
185.7717402238433
 21
15.19663392356191
 31
0.0
 11
185.701149392311
 21
15.23573272563552
 31
0.0
 11
185.6245525192651
 21
15.26889163187721
 31
0.0
 11
185.7214026947455
 21
15.46958801203542
 31
0.0
 11
185.7994641467471
 21
15.69688163177029
 31
0.0
 11
185.858971692972
 21
15.93021436608693
 31
0.0
 11
185.9001601511226
 21
16.14902808999051
 31
0.0
 11
185.9224183822214
 21
16.14429889221392
 31
0.0
 11
185.975495702534
 21
16.13302157443898
 31
0.0
 11
186.0388460525844
 21
16.11956154999793
 31
0.0
 11
186.091923372897
 21
16.10828423222299
 31
0.0
 11
186.1141816039958
 21
16.1035550344464
 31
0.0
 11
186.096409715746
 21
16.0818625084101
 31
0.0
 11
186.0606122998071
 21
16.0741862844537
 31
0.0
 11
186.0281953301479
 21
15.92532288171312
 31
0.0
 11
185.9857704961609
 21
15.75844135397702
 31
0.0
  0
LWPOLYLINE
  5
B9
102
{ACAD_REACTORS
330
D4
102
}
330
48
100
AcDbEntity
  8
_U_30EC_U_30A4_U_30E4_U_30FC_1
  6
Continuous
 62
     2
100
AcDbPolyline
 90
        5
 70
     1
 43
0.0
 10
191.1602971697031
 20
15.3972233679562
 10
192.4578138032671
 20
15.3972233679562
 10
192.4578138032671
 20
15.2287543402206
 10
191.1602971697031
 20
15.2287543402206
 10
191.1602971697031
 20
15.3972233679562
  0
MTEXT
  5
BB
330
48
100
AcDbEntity
  8
1
 62
   250
100
AcDbMText
 10
25.0
 20
5.0
 30
0.0
 40
3.5
 41
0.0
 71
     4
 72
     1
  1
備考欄の文字列 原点位置=4
  7
CONVERTER_11
 73
     1
 44
0.54545454545455
  0
MTEXT
  5
BC
330
48
100
AcDbEntity
  8
1
 62
     2
100
AcDbMText
 10
89.5
 20
24.0
 30
0.0
 40
3.5
 41
0.0
 71
     5
 72
     1
  1
尺度
  7
CONVERTER_11
 73
     1
 44
0.54545454545455
  0
MTEXT
  5
BD
330
48
100
AcDbEntity
  8
1
 62
     2
100
AcDbMText
 10
135.5
 20
25.0
 30
0.0
 40
3.0
 41
0.0
 71
     5
 72
     1
  1
製図
  7
CONVERTER_11
 73
     1
 44
0.59090909090909
  0
MTEXT
  5
BE
330
48
100
AcDbEntity
  8
1
 62
     2
100
AcDbMText
 10
152.5
 20
25.0
 30
0.0
 40
3.0
 41
0.0
 71
     5
 72
     1
  1
設計
  7
CONVERTER_11
 73
     1
 44
0.59090909090909
  0
MTEXT
  5
BF
330
48
100
AcDbEntity
  8
1
 62
     2
100
AcDbMText
 10
118.5
 20
25.0
 30
0.0
 40
3.0
 41
0.0
 71
     5
 72
     1
  1
検図
  7
CONVERTER_11
 73
     1
 44
0.59090909090909
  0
MTEXT
  5
C0
330
48
100
AcDbEntity
  8
1
 62
     2
100
AcDbMText
 10
175.0
 20
23.5
 30
0.0
 40
3.5
 41
0.0
 71
     5
 72
     1
  1
第三角法
  7
CONVERTER_11
 73
     1
 44
0.54545454545455
  0
MTEXT
  5
C1
330
48
100
AcDbEntity
  8
1
 62
     2
100
AcDbMText
 10
101.5
 20
25.0
 30
0.0
 40
3.0
 41
0.0
 71
     5
 72
     1
  1
承認
  7
CONVERTER_11
 73
     1
 44
0.59090909090909
  0
MTEXT
  5
C2
330
48
100
AcDbEntity
  8
1
 62
     2
100
AcDbMText
 10
29.0
 20
14.25
 30
0.0
 40
3.5
 41
0.0
 71
     5
 72
     1
  1
品番
  7
CONVERTER_11
 73
     1
 44
0.72727272727273
  0
MTEXT
  5
C3
330
48
100
AcDbEntity
  8
1
 62
     2
100
AcDbMText
 10
29.0
 20
22.75
 30
0.0
 40
3.5
 41
0.0
 71
     5
 72
     1
  1
品名
  7
CONVERTER_11
 73
     1
 44
0.72727272727273
  0
MTEXT
  5
C4
330
48
100
AcDbEntity
  8
1
 62
     2
100
AcDbMText
 10
29.0
 20
34.0
 30
0.0
 40
3.5
 41
0.0
 71
     5
 72
     1
  1
備考
  7
CONVERTER_11
 73
     1
 44
0.45454545454545
  0
MTEXT
  5
C5
330
48
100
AcDbEntity
  8
1
 62
     2
100
AcDbMText
 10
32.5
 20
282.0000000000003
 30
0.0
 40
5.0
 41
0.0
 71
     5
 72
     1
  1
図番
  7
CONVERTER_11
 73
     1
 44
0.45454545454545
  0
HATCH
  5
C6
330
48
100
AcDbEntity
  8
1
  6
Continuous
 62
     2
100
AcDbHatch
 10
0.0
 20
0.0
 30
0.0
210
0.0
220
0.0
230
1.0
  2
CUSTOM0
 70
     0
 71
     1
 91
        1
 92
        1
 93
        1
 72
     4
 94
        3
 73
     0
 74
     0
 95
       99
 96
       95
 40
0.0
 40
0.0
 40
0.0
 40
0.0
 40
0.0796417172272169
 40
0.1621768542355785
 40
0.2486489160956694
 40
0.3404969668523254
 40
0.4381912511163992
 40
0.5434463660243731
 40
0.6518115192846919
 40
0.7530190937886675
 40
0.84921969197251
 40
0.9419290312998142
 40
1.03424966357003
 40
1.129078600620164
 40
1.226697027573242
 40
1.327220425421691
 40
1.470572134937981
 40
1.595489863371194
 40
1.71993412534836
 40
1.850576620127411
 40
1.989059629987297
 40
2.134139054226859
 40
2.28069800720715
 40
2.424529739039415
 40
2.565929576985782
 40
2.708239260773515
 40
2.861717887443604
 40
3.045168540347268
 40
3.183798301138519
 40
3.314813961455404
 40
3.442083470447253
 40
3.569912708372839
 40
3.702177512509295
 40
3.842307559659503
 40
3.992872223245896
 40
4.156750662218284
 40
4.310981861107448
 40
4.44585990932243
 40
4.572393936131576
 40
4.701656719781981
 40
4.768279086008394
 40
4.835960697898324
 40
4.912788918729259
 40
5.006285208481437
 40
5.026909478751513
 40
5.047533749021078
 40
5.101808031471117
 40
5.16232516553842
 40
5.226919745995762
 40
5.294231806596582
 40
5.364544852554747
 40
5.438319055467777
 40
5.51787765132411
 40
5.607647714861422
 40
5.700449642544266
 40
5.788251142363987
 40
5.872714706039654
 40
5.955167292575164
 40
6.037192395190253
 40
6.120669181469045
 40
6.206848616686259
 40
6.296680855416666
 40
6.442558392872511
 40
6.568190371608169
 40
6.692904567360283
 40
6.824220446557079
 40
6.963121850329306
 40
7.107843738851088
 40
7.253431663907198
 40
7.395187468036617
 40
7.533140753237694
 40
7.670550457175185
 40
7.816236511769164
 40
7.987691657359111
 40
8.14227742196915
 40
8.293662615414863
 40
8.44296246087916
 40
8.591598316185186
 40
8.743678992361668
 40
8.903725323699055
 40
9.076307008890401
 40
9.265578604680456
 40
9.459203795360631
 40
9.617619810273416
 40
9.753609671361794
 40
9.87487330000396
 40
9.954520184977618
 40
10.0241641371923
 40
10.09769764405429
 40
10.18909955924959
 40
10.20974586420117
 40
10.23039218263354
 40
10.30057101881244
 40
10.37632012987528
 40
10.37632012987528
 40
10.37632012987528
 40
10.37632012987528
 10
170.1465954835851
 20
14.13795663215993
 10
170.1632217851219
 20
14.11720608845313
 10
170.1970784206578
 20
14.07495111711904
 10
170.2599822541035
 20
14.02029811392076
 10
170.3332500940392
 20
13.97299025121051
 10
170.4175969238635
 20
13.93527231437942
 10
170.5132240615459
 20
13.9104061973195
 10
170.6171853775345
 20
13.90309559345935
 10
170.7224020220405
 20
13.91142322794055
 10
170.8206626371333
 20
13.94149179651524
 10
170.9058986427548
 20
13.98848822971878
 10
170.9779220206102
 20
14.04952991250858
 10
171.0350917709096
 20
14.12412969578583
 10
171.0767868747439
 20
14.21002464660173
 10
171.1026952846292
 20
14.30485850432213
 10
171.1118037332652
 20
14.41854979038369
 10
171.0986864796486
 20
14.54332587770779
 10
171.0325330334414
 20
14.66014719171898
 10
170.9369370919569
 20
14.7451253957738
 10
170.8249681022367
 20
14.81416684459152
 10
170.6993659583269
 20
14.87204142045893
 10
170.5656691620856
 20
14.92373723284341
 10
170.4313122818831
 20
14.97899092397182
 10
170.3051983986877
 20
15.04939770641649
 10
170.1926579987535
 20
15.13785540731249
 10
170.0969963064458
 20
15.24981067868476
 10
170.0334157151825
 20
15.39949910101383
 10
170.0200706505015
 20
15.55932794385141
 10
170.0320510987449
 20
15.71048405306844
 10
170.071229892884
 20
15.8380924459154
 10
170.135498775091
 20
15.95080874030843
 10
170.223820499974
 20
16.04648609268691
 10
170.3338091207627
 20
16.12354214985752
 10
170.4632284401264
 20
16.18151396936285
 10
170.6111838967793
 20
16.21739177588822
 10
170.7682069455485
 20
16.22746719050564
 10
170.917494046643
 20
16.21863637762591
 10
171.0596253614169
 20
16.19074899340354
 10
171.1595922609625
 20
16.13413314701141
 10
171.3125074736185
 20
16.08674602105499
 10
171.2455131717168
 20
16.00197553001185
 10
171.2296479120269
 20
15.93438901873486
 10
171.1978750531297
 20
15.86926092793192
 10
171.2150202209571
 20
15.76723453256958
 10
171.1666427208232
 20
15.77493211681906
 10
171.1315789440766
 20
15.76806771724812
 10
171.1296697985718
 20
15.83263831158197
 10
171.0985692931989
 20
15.878256396214
 10
171.0664551628454
 20
15.93561036628452
 10
171.0208038475168
 20
15.98540462692563
 10
170.9658508218386
 20
16.02994813718991
 10
170.9010841173007
 20
16.06763988836553
 10
170.8232377310597
 20
16.09283375791352
 10
170.7355160553352
 20
16.0993123099811
 10
170.6452903277806
 20
16.0923570928561
 10
170.5594594694064
 20
16.06909190460931
 10
170.4828343638596
 20
16.03131644107542
 10
170.4165265636201
 20
15.98051641089574
 10
170.3622560536963
 20
15.91731143407208
 10
170.3224925345459
 20
15.84276455710361
 10
170.2976775510587
 20
15.75917313997762
 10
170.2892124262868
 20
15.65192948382283
 10
170.3019697987103
 20
15.52965457267558
 10
170.3681548409273
 20
15.41149724291217
 10
170.4640977399832
 20
15.32606325709528
 10
170.5757914963182
 20
15.25583362306718
 10
170.7010863668702
 20
15.19659162305303
 10
170.8349823941447
 20
15.14616708086132
 10
170.968993033315
 20
15.09322516984383
 10
171.0950885316915
 20
15.02750170625178
 10
171.2076216638417
 20
14.94480352537319
 10
171.3031370284232
 20
14.83996006310073
 10
171.3672706486963
 20
14.6993711725157
 10
171.3811103725278
 20
14.54065409451593
 10
171.3673954712228
 20
14.3815315521788
 10
171.3244739153985
 20
14.23483828819211
 10
171.2545906329066
 20
14.10119796587142
 10
171.1574592213829
 20
13.98532387699294
 10
171.0347806023657
 20
13.89089981770088
 10
170.8874408413168
 20
13.82179270651982
 10
170.7177132497125
 20
13.77953210858855
 10
170.5317404979596
 20
13.76781736230407
 10
170.3528955926183
 20
13.7780948668344
 10
170.1881733753743
 20
13.81966573769153
 10
170.0834410841056
 20
13.88797642883947
 10
169.9350960790365
 20
13.93675219032109
 10
169.9980378194729
 20
14.02976591290842
 10
170.007227443006
 20
14.1029653624828
 10
170.0303711301232
 20
14.16936294501346
 10
170.0034588335317
 20
14.26974809527581
 10
170.0521338956339
 20
14.26234033517382
 10
170.0916530580695
 20
14.26894063620893
 10
170.0996204944702
 20
14.19078703218932
 10
170.1305436967922
 20
14.15600927375856
 10
170.1465954835851
 20
14.13795663215993
 97
        1
330
A8
 75
     1
 76
     2
 52
45.0
 41
0.1
 77
     0
 78
     1
 53
45.0
 43
0.0
 44
0.0
 45
-0.282842712474619
 46
0.0
 79
     0
 98
        1
 10
0.0
 20
0.0
  0
HATCH
  5
C7
330
48
100
AcDbEntity
  8
1
  6
Continuous
 62
     2
100
AcDbHatch
 10
0.0
 20
0.0
 30
0.0
210
0.0
220
0.0
230
1.0
  2
CUSTOM1
 70
     0
 71
     1
 91
        2
 92
        1
 93
        1
 72
     4
 94
        3
 73
     0
 74
     0
 95
       57
 96
       53
 40
0.0
 40
0.0
 40
0.0
 40
0.0
 40
0.047163208280917
 40
0.0914861054632088
 40
0.1357762519702324
 40
0.1826527001611755
 40
0.2295203288573096
 40
0.2737751972221549
 40
0.318131046154329
 40
0.3652607198398386
 40
0.4571007286314087
 40
0.5671851029164882
 40
0.6894623283868002
 40
0.8181758272545655
 40
0.9510087229273722
 40
1.085852229673941
 40
1.218126164475256
 40
1.343545131142288
 40
1.454537202956734
 40
1.567187607530828
 40
1.680710966642362
 40
1.794226869736697
 40
1.900009184247554
 40
2.004085860447776
 40
2.108162674451665
 40
2.21400015015521
 40
2.496038577351992
 40
2.762350745479139
 40
2.997275353279262
 40
3.185110082137557
 40
3.246407890063836
 40
3.31260755021251
 40
3.378877742711412
 40
3.440140399651261
 40
4.100501696006226
 40
4.754913085563263
 40
5.411331693423683
 40
6.077890432568477
 40
6.110575292670756
 40
6.143260152775536
 40
6.367989363394889
 40
6.610525374951389
 40
6.863389136467087
 40
7.119380025547417
 40
7.376036605090865
 40
7.631164770966056
 40
7.876722425456171
 40
8.104953735855682
 40
8.312916685924076
 40
8.49773029494104
 40
8.651018984313588
 40
8.76473885362432
 40
8.76473885362432
 40
8.76473885362432
 40
8.76473885362432
 10
174.7922649500513
 20
13.81626739612932
 10
174.7766616726931
 20
13.8182623107908
 10
174.7463947960302
 20
13.82213201360297
 10
174.7010994202253
 20
13.82341984967267
 10
174.6559553129349
 20
13.8230868355405
 10
174.6099017123399
 20
13.82314658674223
 10
174.5640496172095
 20
13.82325813649999
 10
174.5183711648164
 20
13.8227783345659
 10
174.4750811541607
 20
13.82461109618718
 10
174.4039947951514
 20
13.80049556814667
 10
174.4057477261441
 20
13.92184693977253
 10
174.358619637057
 20
14.00726239751237
 10
174.3191478251761
 20
14.12486929345137
 10
174.2706635532645
 20
14.24232752540443
 10
174.2201017402521
 20
14.36405935761505
 10
174.1718634610477
 20
14.49075967862464
 10
174.1135232947594
 20
14.59933687784949
 10
174.0980892667261
 20
14.75620657134406
 10
173.9566586330635
 20
14.72373446548321
 10
173.8508397414903
 20
14.73512888682181
 10
173.7358569725222
 20
14.73392591514616
 10
173.625314225214
 20
14.73506945347406
 10
173.5176583522783
 20
14.73418350037527
 10
173.4121322529242
 20
14.73416602390519
 10
173.3109192682013
 20
14.72714032472415
 10
173.1266804827753
 20
14.7513585985986
 10
173.1157393685411
 20
14.44741691121886
 10
173.008769163475
 20
14.22353177253399
 10
172.9098148604347
 20
14.03895314292495
 10
172.9225090524006
 20
13.79530204804217
 10
172.8050091716397
 20
13.82508046753193
 10
172.7422055868309
 20
13.82258089509603
 10
172.67858720934
 20
13.82344075102802
 10
172.3946014194074
 20
13.78098039941975
 10
173.0251638499381
 20
14.5008195244478
 10
173.1087645289072
 20
15.01276539435729
 10
173.4929252789337
 20
15.5335374355004
 10
173.4777208288569
 20
16.23519626253214
 10
173.7239265722696
 20
16.22345633081256
 10
173.8256346157563
 20
16.23225004452773
 10
173.8249752035816
 20
15.98059650730339
 10
173.9428317155828
 20
15.79818020733956
 10
174.0315515260485
 20
15.55563740662863
 10
174.1322292485259
 20
15.32340030530124
 10
174.2311142712242
 20
15.08674644566912
 10
174.3299676990669
 20
14.85461739170094
 10
174.4256166390925
 20
14.63122222788792
 10
174.5159904573271
 20
14.42272549049314
 10
174.5989944568188
 20
14.23308448529322
 10
174.67260885828
 20
14.06663106068104
 10
174.7342815895544
 20
13.92917699626097
 10
174.7749458885604
 20
13.84999239430037
 10
174.7922649500513
 20
13.81626739612932
 97
        1
330
A9
 92
       16
 93
        1
 72
     4
 94
        3
 73
     0
 74
     0
 95
       25
 96
       21
 40
0.0
 40
0.0
 40
0.0
 40
0.0
 40
0.0911479969064819
 40
0.1858117896203805
 40
0.2804128399733928
 40
0.371588919071366
 40
0.4679080494218142
 40
0.564268380922923
 40
0.6605683222644992
 40
0.7569653015810252
 40
0.85613481725228
 40
1.092615965104316
 40
1.374867658141923
 40
1.611348812011666
 40
1.710518328425322
 40
1.809403163726647
 40
2.045205463294169
 40
2.326646917622252
 40
2.562449217190732
 40
2.661334043834058
 40
2.661334043834058
 40
2.661334043834058
 40
2.661334043834058
 10
173.2683700567199
 20
14.88614538197291
 10
173.2987525917923
 20
14.88598079714554
 10
173.360689588911
 20
14.88564528689923
 10
173.454135696033
 20
14.88269055452006
 10
173.5475095236356
 20
14.87977752877147
 10
173.6417760753475
 20
14.8789420164342
 10
173.7354964790966
 20
14.87996644658049
 10
173.8352040303205
 20
14.87916977470971
 10
173.9188949546313
 20
14.88921410235221
 10
174.0637996315045
 20
14.86234617674163
 10
173.9396132444801
 20
15.0366553028005
 10
173.8965867286282
 20
15.19651711006092
 10
173.780892214221
 20
15.4551845855022
 10
173.7017565431257
 20
15.59231052861863
 10
173.6431576621816
 20
15.80937033134085
 10
173.5864803939438
 20
15.59266134213433
 10
173.5052809900477
 20
15.4532701243824
 10
173.4063701281487
 20
15.20406969370196
 10
173.325362509426
 20
15.01925830226073
 10
173.2813683325838
 20
14.91650446856116
 10
173.2683700567199
 20
14.88614538197291
 97
        1
330
AA
 75
     1
 76
     2
 52
45.0
 41
0.1
 77
     0
 78
     1
 53
45.0
 43
0.0
 44
0.0
 45
-0.282842712474619
 46
0.0
 79
     0
 98
        1
 10
0.0
 20
0.0
  0
HATCH
  5
C8
330
48
100
AcDbEntity
  8
1
  6
Continuous
 62
     2
100
AcDbHatch
 10
0.0
 20
0.0
 30
0.0
210
0.0
220
0.0
230
1.0
  2
CUSTOM2
 70
     0
 71
     1
 91
        1
 92
        1
 93
        1
 72
     4
 94
        3
 73
     0
 74
     0
 95
       95
 96
       91
 40
0.0
 40
0.0
 40
0.0
 40
0.0
 40
0.655040665691165
 40
1.308087289031954
 40
1.420803739835809
 40
1.566130759770814
 40
1.757067341888503
 40
2.006513545026445
 40
2.087328263121583
 40
2.185328872295655
 40
2.294612454748403
 40
2.408936380534818
 40
2.526802767798596
 40
2.646360524615606
 40
2.76253572397159
 40
2.870057342870153
 40
2.966883448431695
 40
3.050803243518323
 40
3.115818222436618
 40
3.156030057150225
 40
3.213914225080122
 40
3.276689026450522
 40
3.342960320981299
 40
3.404230667150657
 40
3.45382280949345
 40
3.532499827188449
 40
3.634775188507229
 40
3.754909333008214
 40
3.889736761660747
 40
4.035769602175258
 40
4.187256681197694
 40
4.33873368567599
 40
4.488478734676153
 40
4.634708317831629
 40
4.771493189921319
 40
4.892686571561282
 40
5.199775528944518
 40
5.460353566929768
 40
5.667603142345582
 40
5.814722905404554
 40
5.828990806219852
 40
5.855488336304549
 40
5.869756237118881
 40
6.1897965077629
 40
6.53189046987301
 40
6.883053637017053
 40
7.230512024911516
 40
7.566966656764652
 40
7.885203559707443
 40
8.172887439719252
 40
8.418011594062811
 40
8.443926721190733
 40
8.51076047061322
 40
8.60214539379573
 40
8.701714041647168
 40
8.793098965075401
 40
8.859932715057974
 40
8.885847842603622
 40
9.242301256612832
 40
9.58927545501684
 40
9.921808543164202
 40
10.23479624298471
 40
10.29968150889191
 40
10.35323493887771
 40
10.40154625355159
 40
10.46482922477841
 40
10.55973900668424
 40
10.69239545985639
 40
10.84920353475689
 40
11.01626328594797
 40
11.18672024367461
 40
11.35372582577226
 40
11.50257442292448
 40
11.61866495023308
 40
11.71329869152895
 40
11.82511050573921
 40
11.94464880845733
 40
12.06929242642523
 40
12.19707290435192
 40
12.32562632860545
 40
12.45034565331299
 40
12.56646595170344
 40
12.67099007414649
 40
12.76077625936803
 40
12.82703233506711
 40
12.87429132786011
 40
12.8983199032335
 40
12.92234847860039
 40
13.53984767410337
 40
14.18294284359381
 40
14.18294284359381
 40
14.18294284359381
 40
14.18294284359381
 10
177.3067935648021
 20
14.70898038201722
 10
177.175201975855
 20
14.8226505860323
 10
176.9124193802729
 20
15.04964496316156
 10
176.399739344102
 20
15.89214462956287
 10
176.4106654595363
 20
15.53423377577021
 10
176.4041226527991
 20
15.39267392272133
 10
176.4028026631772
 20
15.19421305299282
 10
176.4018117602539
 20
15.02150296045984
 10
176.4024101751974
 20
14.87865373257581
 10
176.4038994301883
 20
14.78265005413357
 10
176.4055683588473
 20
14.67545503263142
 10
176.4071934954616
 20
14.56164211517582
 10
176.4092429501685
 20
14.4444157260459
 10
176.4123165501926
 20
14.32656411232971
 10
176.4156339697043
 20
14.21228087320623
 10
176.4193605340278
 20
14.10521401867277
 10
176.4217338161424
 20
14.01007408766922
 10
176.4278718888356
 20
13.92558557205695
 10
176.4239784495946
 20
13.86923087298143
 10
176.4455230443077
 20
13.79825022472362
 10
176.3680940058617
 20
13.8290267760448
 10
176.3116353240191
 20
13.82011242517614
 10
176.2540495896806
 20
13.82896218398272
 10
176.1690163478471
 20
13.79738225225949
 10
176.2009714146383
 20
13.88095155992188
 10
176.1990705282538
 20
13.94882608968309
 10
176.21079600473
 20
14.05233256764417
 10
176.2164241052999
 20
14.17002125616695
 10
176.2237902178941
 20
14.30388609164422
 10
176.232075970161
 20
14.44764152872632
 10
176.2398851897426
 20
14.59714022843444
 10
176.2457571222657
 20
14.74792549402077
 10
176.2503667817968
 20
14.89699943878435
 10
176.2542632117543
 20
15.0412291316302
 10
176.2570715126562
 20
15.17583905213016
 10
176.2576698755023
 20
15.36469614347354
 10
176.2616023867149
 20
15.58975494313156
 10
176.2442175378499
 20
15.86367091125711
 10
176.2850417342581
 20
16.02787112098598
 10
176.1995153256003
 20
16.22749661465098
 10
176.2660558907687
 20
16.22385458403977
 10
176.283872427323
 20
16.22413447160854
 10
176.4056801797504
 20
16.22632927398613
 10
176.5080770335462
 20
15.94675118721517
 10
176.7580021509355
 20
15.74563008535994
 10
176.987003533111
 20
15.47792614987918
 10
177.2245151213109
 20
15.22646413862379
 10
177.4486090740772
 20
14.98969974061357
 10
177.6750716283009
 20
14.73218692583084
 10
177.8325687886514
 20
14.61649335056923
 10
178.0472129612675
 20
14.27997152538797
 10
178.0422645974618
 20
14.40464754091605
 10
178.0433931602546
 20
14.46327691935739
 10
178.0428877841517
 20
14.55043662371979
 10
178.0430475158114
 20
14.64416143182875
 10
178.0430054891318
 20
14.73018971297036
 10
178.0430202040372
 20
14.79153891945497
 10
178.0429706255985
 20
14.94135231520995
 10
178.045881152281
 20
15.17989612510107
 10
178.0259521041164
 20
15.54486509868705
 10
178.0750433936247
 20
15.80799631993417
 10
177.917795150918
 20
16.21928904947758
 10
178.076211287242
 20
16.16398282551749
 10
178.1311680478628
 20
16.16199686500165
 10
178.1827887766739
 20
16.16264778248252
 10
178.2713198965366
 20
16.20369527738249
 10
178.2204898303167
 20
16.05696326622988
 10
178.2313389930282
 20
15.95019971954432
 10
178.2166036994847
 20
15.79085705414113
 10
178.2099976446204
 20
15.62853061652875
 10
178.2014961399915
 20
15.45992521892397
 10
178.1943227202199
 20
15.29814814703541
 10
178.1889063215388
 20
15.15422331457933
 10
178.1871713967648
 20
15.03437493466924
 10
178.1875440672318
 20
14.92686101590517
 10
178.1873656126262
 20
14.81820024645588
 10
178.187701086314
 20
14.69953570165534
 10
178.1890040622183
 20
14.57555163512744
 10
178.1908887351573
 20
14.44858294171107
 10
178.1925004454851
 20
14.32153861551033
 10
178.1941403137429
 20
14.19854884492179
 10
178.1962570745751
 20
14.08300931383761
 10
178.1963848422364
 20
13.98090903955839
 10
178.2006514396554
 20
13.89009848838158
 10
178.1908440085289
 20
13.83213621208786
 10
178.2118474771689
 20
13.7651713013203
 10
178.1725639739896
 20
13.77291153966689
 10
177.9595307117744
 20
13.75755254145192
 10
177.7636297943187
 20
14.31403058094469
 10
177.4611197631544
 20
14.57556035348508
 10
177.3067935648021
 20
14.70898038201722
 97
        1
330
AB
 75
     1
 76
     2
 52
45.0
 41
0.1
 77
     0
 78
     1
 53
45.0
 43
0.0
 44
0.0
 45
-0.282842712474619
 46
0.0
 79
     0
 98
        1
 10
0.0
 20
0.0
  0
HATCH
  5
C9
330
48
100
AcDbEntity
  8
1
  6
Continuous
 62
     2
100
AcDbHatch
 10
0.0
 20
0.0
 30
0.0
210
0.0
220
0.0
230
1.0
  2
CUSTOM3
 70
     0
 71
     1
 91
        1
 92
        1
 93
        1
 72
     4
 94
        3
 73
     0
 74
     0
 95
      110
 96
      106
 40
0.0
 40
0.0
 40
0.0
 40
0.0
 40
0.2203406257277483
 40
0.4407808782838107
 40
0.5952494494614808
 40
0.7488431659393114
 40
0.9023581831309097
 40
1.056801968670408
 40
1.210736449099881
 40
1.363041386539674
 40
1.515315729683103
 40
1.669377239148083
 40
1.721611652756599
 40
1.773199502943003
 40
1.824933793210003
 40
1.877110426488026
 40
1.982682281206793
 40
2.078781667087689
 40
2.172809640822351
 40
2.271937807378976
 40
2.378349933379427
 40
2.494131557736555
 40
2.626681683943746
 40
2.783145050796117
 40
2.890701232940953
 40
2.993130312454899
 40
3.099869730691854
 40
3.220237816691338
 40
3.352695482737611
 40
3.481732806389918
 40
3.5934994736904
 40
3.674323013331954
 40
3.817951711952904
 40
3.946167120793903
 40
4.061405053453587
 40
4.16648079600323
 40
4.262478775059265
 40
4.350736673551138
 40
4.433071991254077
 40
4.511216293814705
 40
4.564262454117991
 40
4.618474415571601
 40
4.670128488754217
 40
4.722296879126434
 40
4.819540945314305
 40
4.931194984128159
 40
5.049996040257802
 40
5.168643755415433
 40
5.283970811762588
 40
5.392260784910386
 40
5.486512254876461
 40
5.55917823394986
 40
5.591425852853518
 40
5.626215969637914
 40
5.667155838674458
 40
5.717449290214317
 40
5.738402360944926
 40
5.784499116553885
 40
5.830595872164851
 40
5.851548942897704
 40
5.873019280661817
 40
5.924217778408359
 40
5.985325662817734
 40
6.036524160567748
 40
6.057994498334274
 40
6.236847789607532
 40
6.381409928945718
 40
6.493190424178739
 40
6.574067534230593
 40
6.691018086205801
 40
6.814881554220719
 40
6.944307823240615
 40
7.071266716066296
 40
7.193488604462139
 40
7.309042773128368
 40
7.414007203170994
 40
7.505140441886749
 40
7.5311503605999
 40
7.559221645322512
 40
7.587202218921132
 40
7.612569159499371
 40
7.662550809481219
 40
7.702878875764318
 40
7.857328205231187
 40
8.010799568088776
 40
8.165256399657812
 40
8.322232698714151
 40
8.47956485501681
 40
8.635216230290956
 40
8.790882550925874
 40
8.948305154947438
 40
9.168271839033107
 40
9.387358980987342
 40
9.608047961033597
 40
9.832914234792863
 40
9.858338694963196
 40
9.925366817230199
 40
10.02013071422778
 40
10.12876249859016
 40
10.23739428295265
 40
10.33215817995206
 40
10.39918630222409
 40
10.42461076239798
 40
10.64992019336955
 40
10.87188524531201
 40
10.87188524531201
 40
10.87188524531201
 40
10.87188524531201
 10
179.9057788376618
 20
15.73923260398192
 10
179.9092864933541
 20
15.80616462073805
 10
179.9163033987662
 20
15.94005891915859
 10
179.8198027599073
 20
16.22548554971472
 10
180.0510134726108
 20
16.16284386190284
 10
180.1919290057156
 20
16.17001554055985
 10
180.3490417757588
 20
16.16235883078243
 10
180.5025913427287
 20
16.1625275228303
 10
180.654510493508
 20
16.1618204053543
 10
180.8142214813231
 20
16.17210158351632
 10
180.9408972601117
 20
16.15496511080751
 10
181.1370821122081
 20
16.22727260107149
 10
181.1034395279078
 20
16.12640699080116
 10
181.1052011317184
 20
16.0761925394767
 10
181.1027342073458
 20
16.02712335586465
 10
181.1347076966011
 20
15.94063490846995
 10
181.0010399903256
 20
15.98997438608341
 10
180.9172208688056
 20
15.98430634314175
 10
180.8173861139323
 20
15.994655167063
 10
180.7186576720146
 20
16.00086450411088
 10
180.612153277111
 20
16.00697763816784
 10
180.4910511698059
 20
16.01588883484581
 10
180.3703381502453
 20
16.00521605912381
 10
180.1812553843437
 20
16.06468503080365
 10
180.2129028505311
 20
15.90558320077539
 10
180.1995563316833
 20
15.80839128339904
 10
180.197495842645
 20
15.69634065110102
 10
180.1958188044671
 20
15.57699685629352
 10
180.1973336794233
 20
15.4503259215511
 10
180.195658247867
 20
15.32301588016117
 10
180.2058844271657
 20
15.22451566404463
 10
180.1779006596582
 20
15.08388702625628
 10
180.3508029999306
 20
15.13989551134089
 10
180.4645020202771
 20
15.12719951478508
 10
180.584015167224
 20
15.13448377051252
 10
180.6888491425071
 20
15.13878017056765
 10
180.7843084898611
 20
15.14330568258974
 10
180.8763823507032
 20
15.15149201146208
 10
180.9476551782438
 20
15.14643850638111
 10
181.0544931705685
 20
15.18536425031671
 10
181.0226603598036
 20
15.10517122005881
 10
181.0266164503929
 20
15.05562936846034
 10
181.0234502392013
 20
15.0055747803982
 10
181.0550791490585
 20
14.9212884761202
 10
180.9210133677691
 20
14.97425365495161
 10
180.82923227932
 20
14.96540080890437
 10
180.7079729189602
 20
14.97570049965155
 10
180.5914113119771
 20
14.97748911767505
 10
180.4783375745878
 20
14.97787017109696
 10
180.3679246308471
 20
14.98415449472186
 10
180.289812406784
 20
14.97189133255366
 10
180.1913625833644
 20
15.0045388761613
 10
180.2012355173561
 20
14.9476974805421
 10
180.1973923244402
 20
14.91392130557988
 10
180.1966789884268
 20
14.87119604709413
 10
180.1963369642975
 20
14.83401607262154
 10
180.1963834255345
 20
14.79487237370769
 10
180.1963649429927
 20
14.75716849497685
 10
180.1963703431806
 20
14.71944955232403
 10
180.19636972142
 20
14.6899432474515
 10
180.1963698151545
 20
14.65873577699302
 10
180.196370428792
 20
14.61414424908086
 10
180.1963671499337
 20
14.55963956508852
 10
180.196375962348
 20
14.51505540201449
 10
180.1963359653417
 20
14.43117808585741
 10
180.1976024270255
 20
14.31737520677679
 10
180.1950274117842
 20
14.1683039593371
 10
180.206500938172
 20
14.06597203813904
 10
180.1823506222261
 20
13.93338903885826
 10
180.3332993946476
 20
13.97895732272018
 10
180.4428436671556
 20
13.96427012162344
 10
180.573397047392
 20
13.96920435125062
 10
180.6990312209514
 20
13.97257705323361
 10
180.8188730625601
 20
13.97711497498767
 10
180.9391362611426
 20
13.99048536182005
 10
181.0222761663515
 20
13.98068712782596
 10
181.1456080421074
 20
14.04126214623318
 10
181.1244269203956
 20
13.98532460134019
 10
181.1235950270116
 20
13.95939249372346
 10
181.1218963707558
 20
13.93197256190938
 10
181.1217974888828
 20
13.89738195206386
 10
181.120365930133
 20
13.86050408220769
 10
181.153280419219
 20
13.7684684102181
 10
180.9551306988107
 20
13.84132015974827
 10
180.830054829489
 20
13.81825726508606
 10
180.6673071295155
 20
13.82454021985784
 10
180.512936645
 20
13.82260943909925
 10
180.3566670436943
 20
13.82393762599266
 10
180.1970544465282
 20
13.82059872487861
 10
180.0540326342237
 20
13.83265795728238
 10
179.8197144881628
 20
13.76952001976925
 10
179.9173810751196
 20
14.05620527466319
 10
179.9006868780059
 20
14.24988308142661
 10
179.9146296709683
 20
14.47848242880297
 10
179.914298784663
 20
14.63384593955052
 10
179.9143078119263
 20
14.73966336444133
 10
179.9143055876314
 20
14.8020578412422
 10
179.9143065551888
 20
14.89220425248332
 10
179.914306547326
 20
14.99621167157443
 10
179.9143053861101
 20
15.100221313753
 10
179.9143090971502
 20
15.19036243688772
 10
179.9143011051049
 20
15.25276803097218
 10
179.9143334275019
 20
15.35868835961122
 10
179.9131440788318
 20
15.51626716544741
 10
179.9082216489255
 20
15.66528219822066
 10
179.9057788376618
 20
15.73923260398192
 97
        1
330
AC
 75
     1
 76
     2
 52
45.0
 41
0.1
 77
     0
 78
     1
 53
45.0
 43
0.0
 44
0.0
 45
-0.282842712474619
 46
0.0
 79
     0
 98
        1
 10
0.0
 20
0.0
  0
HATCH
  5
CA
330
48
100
AcDbEntity
  8
1
  6
Continuous
 62
     2
100
AcDbHatch
 10
0.0
 20
0.0
 30
0.0
210
0.0
220
0.0
230
1.0
  2
CUSTOM4
 70
     0
 71
     1
 91
        1
 92
        1
 93
        1
 72
     4
 94
        3
 73
     0
 74
     0
 95
       47
 96
       43
 40
0.0
 40
0.0
 40
0.0
 40
0.0
 40
0.2207912809957142
 40
0.4459404186303292
 40
0.4902387190460095
 40
0.5327473892723396
 40
0.5742260451226714
 40
0.6155432630562017
 40
0.6568164066316945
 40
0.6982511618781863
 40
0.7407663929318437
 40
0.7851366743176523
 40
1.010288833836482
 40
1.231080507002327
 40
1.451765243652558
 40
1.676638205891911
 40
1.720461045359875
 40
1.830018144043717
 40
1.972442372353321
 40
2.114866600677666
 40
2.22442369939527
 40
2.268246538883502
 40
2.493628801207376
 40
2.715602830286771
 40
2.934211330706513
 40
3.149502369855473
 40
3.231387784851115
 40
3.31823187385415
 40
3.405143198198195
 40
3.486970301720655
 40
3.702258172494065
 40
3.920866283534282
 40
4.142839325932069
 40
4.368221903865574
 40
4.412044743360046
 40
4.521601842096039
 40
4.664026070452494
 40
4.806450298809176
 40
4.91600739754685
 40
4.959830237043163
 40
5.184703515847263
 40
5.405387250767642
 40
5.405387250767642
 40
5.405387250767642
 40
5.405387250767642
 10
182.6507427258645
 20
15.73406440953872
 10
182.6568139420003
 20
15.79758482501211
 10
182.6690762107242
 20
15.92587938689628
 10
182.5604706879411
 20
16.2016622017408
 10
182.6761985896603
 20
16.17188133432055
 10
182.7171842509015
 20
16.16765556262814
 10
182.7591205797518
 20
16.16310446389604
 10
182.800419662571
 20
16.16201982929476
 10
182.8417032115555
 20
16.16310338195225
 10
182.8836148270648
 20
16.16766112711337
 10
182.9245983549019
 20
16.17187430209729
 10
183.040492284349
 20
16.20177611317537
 10
182.9295652727455
 20
15.92339806609889
 10
182.9574856365266
 20
15.74283140824953
 10
182.9404267346968
 20
15.50961042346469
 10
182.9414637282102
 20
15.34906622543141
 10
182.9414099399403
 20
15.22284817558716
 10
182.941427737248
 20
15.12428963336237
 10
182.9414188581079
 20
14.99280702442961
 10
182.9414263928032
 20
14.8613284496865
 10
182.9414129405128
 20
14.76276222694093
 10
182.941453171749
 20
14.63639735624154
 10
182.9406746403817
 20
14.47482068822871
 10
182.9565958319266
 20
14.24361821892915
 10
182.9333468885406
 20
14.05874351972001
 10
183.0360183444366
 20
13.78935602770066
 10
182.8820238362836
 20
13.82660112685814
 10
182.8004129802832
 20
13.82137994680534
 10
182.7188192292582
 20
13.82660620378348
 10
182.5648513666841
 20
13.78937069885396
 10
182.6674183421917
 20
14.05875129862879
 10
182.6442045316088
 20
14.24361585325416
 10
182.6600444655138
 20
14.47482218565639
 10
182.6593296313427
 20
14.63639712308505
 10
182.6593664569907
 20
14.76276231210523
 10
182.659354900027
 20
14.86132756635982
 10
182.6593575019214
 20
14.99281127417218
 10
182.6593648531779
 20
15.12427548031196
 10
182.659344254135
 20
15.22287786275319
 10
182.6594082192028
 20
15.34896149354423
 10
182.658173394759
 20
15.51210091383768
 10
182.6532040396745
 20
15.6605418377755
 10
182.6507427258645
 20
15.73406440953872
 97
        1
330
AD
 75
     1
 76
     2
 52
45.0
 41
0.1
 77
     0
 78
     1
 53
45.0
 43
0.0
 44
0.0
 45
-0.282842712474619
 46
0.0
 79
     0
 98
        1
 10
0.0
 20
0.0
  0
HATCH
  5
CB
330
48
100
AcDbEntity
  8
1
  6
Continuous
 62
     2
100
AcDbHatch
 10
0.0
 20
0.0
 30
0.0
210
0.0
220
0.0
230
1.0
  2
CUSTOM5
 70
     0
 71
     1
 91
        1
 92
        1
 93
        1
 72
     4
 94
        3
 73
     0
 74
     0
 95
      118
 96
      114
 40
0.0
 40
0.0
 40
0.0
 40
0.0
 40
0.1054708162973325
 40
0.2466098270051825
 40
0.3965912874591192
 40
0.5285525069754007
 40
0.6156245055642277
 40
0.6431434105797561
 40
0.7036850037986334
 40
0.7642265984504815
 40
0.7917455052355259
 40
0.9287404319989997
 40
1.106572819088022
 40
1.287544879680995
 40
1.317578308030512
 40
1.399928030857151
 40
1.522968204799925
 40
1.675072986590546
 40
1.844616533180623
 40
2.019973001638688
 40
2.18951654888
 40
2.341621331585339
 40
2.464661506320475
 40
2.547011229647039
 40
2.577044658168003
 40
2.603797890893073
 40
2.662655002908846
 40
2.721512114949686
 40
2.748265347702866
 40
2.774215307344944
 40
2.845959313407278
 40
2.954338556588484
 40
3.090194227585668
 40
3.244367517100638
 40
3.407699615844408
 40
3.571031714539565
 40
3.72520500392025
 40
3.861060674729757
 40
3.969439917716455
 40
4.041183923629132
 40
4.067133883213128
 40
4.311886746012334
 40
4.5478972583357
 40
4.764747083044148
 40
4.952749679951941
 40
5.04577297419608
 40
5.137862019645152
 40
5.330543169793176
 40
5.553448265244169
 40
5.795083855888324
 40
6.043293412177372
 40
6.285761695541277
 40
6.313902908752761
 40
6.384255941793322
 40
6.475714884766882
 40
6.567173827758916
 40
6.637526860839666
 40
6.665668074074029
 40
6.692018920328003
 40
6.749990782071078
 40
6.80796264379045
 40
6.834313490017925
 40
6.856393084245175
 40
6.913335195649827
 40
6.991194817302462
 40
7.076026942283667
 40
7.153886563725186
 40
7.210828674844711
 40
7.232908268931046
 40
7.258199334923567
 40
7.324875781592214
 40
7.419142481924871
 40
7.527204308841808
 40
7.635266135230383
 40
7.729532834168369
 40
7.796209279292688
 40
7.821500344594634
 40
7.844652988850733
 40
7.89986314054154
 40
7.965759128053706
 40
8.020969279771046
 40
8.044121924046513
 40
8.069356610160636
 40
8.109134395441348
 40
8.132238100191064
 40
8.19314786778643
 40
8.279261678876608
 40
8.377977512673827
 40
8.476693347146618
 40
8.562807160411674
 40
8.623716930826463
 40
8.646820636853418
 40
8.671988793774231
 40
8.734909185828142
 40
8.816705695188856
 40
8.898502204815427
 40
8.961422597377888
 40
8.986590754551
 40
9.012941600733157
 40
9.070913462380247
 40
9.128885324081743
 40
9.155236170325066
 40
9.180404327929109
 40
9.243324721948182
 40
9.325121234211975
 40
9.40691774663763
 40
9.469838141978085
 40
9.49500628827086
 40
9.517811184378996
 40
9.572192090486984
 40
9.637098333281198
 40
9.691479239515386
 40
9.71428412564342
 40
9.71428412564342
 40
9.71428412564342
 40
9.71428412564342
 10
185.2874469028653
 20
15.26889163187721
 10
185.3090990569037
 20
15.24111869242813
 10
185.3597257109473
 20
15.17618054561238
 10
185.4349383202591
 20
15.06891060312901
 10
185.5248482274347
 20
14.95377438266628
 10
185.5709169676672
 20
14.8535704574832
 10
185.6655825294654
 20
14.78434006814944
 10
185.6204439320413
 20
14.73771639678275
 10
185.5947047785789
 20
14.69660308866042
 10
185.5645196708011
 20
14.66065971727942
 10
185.519368473056
 20
14.585797825961
 10
185.4710504458562
 20
14.80782524253605
 10
185.3968539713073
 20
14.84510677337716
 10
185.2836047324607
 20
15.11610202130599
 10
185.2885133578168
 20
15.00095328446228
 10
185.2868486556307
 20
14.92836675781628
 10
185.2876830076713
 20
14.80625588483986
 10
185.2873609540264
 20
14.6591380081046
 10
185.2875076912456
 20
14.49307063956557
 10
185.2872950092722
 20
14.32187554608602
 10
185.2879497252034
 20
14.15552828635498
 10
185.2859192461139
 20
14.00935173055693
 10
185.291346039993
 20
13.8847104747461
 10
185.2804930868708
 20
13.81718656540626
 10
185.2956739155555
 20
13.75549061417022
 10
185.2457895108133
 20
13.76727503897003
 10
185.2017150342521
 20
13.75943822779969
 10
185.15823716302
 20
13.76760441372703
 10
185.1092346786487
 20
13.75538056738468
 10
185.1218731234824
 20
13.80960667249314
 10
185.1130182968448
 20
13.86936918907558
 10
185.1175058770312
 20
13.97922029044372
 10
185.115796013599
 20
14.1102997540568
 10
185.1163550915985
 20
14.2619801144433
 10
185.1161928768693
 20
14.42211074929957
 10
185.1162269924673
 20
14.5823686567457
 10
185.1162514960125
 20
14.73370247520445
 10
185.1161453543224
 20
14.86582156338606
 10
185.1164299141929
 20
14.97294802533199
 10
185.1158675547567
 20
15.03808619579481
 10
185.1180765083687
 20
15.16618957858682
 10
185.0319435998601
 20
14.79097610391578
 10
184.9555140818499
 20
14.63918193123395
 10
184.8660040767834
 20
14.47766206446306
 10
184.7640413217326
 20
14.20471848820172
 10
184.7187976491038
 20
14.36717346596512
 10
184.6102355941671
 20
14.4560543205812
 10
184.7995791751752
 20
14.60549794961413
 10
184.85653405457
 20
14.79749136974926
 10
184.9717520993351
 20
15.02899622906758
 10
184.9940151630132
 20
15.21797259759062
 10
185.1771905152138
 20
15.49454089325926
 10
185.0538033597551
 20
15.48698978832091
 10
184.9925684166833
 20
15.48856772366116
 10
184.9081999617063
 20
15.48882592573669
 10
184.8204235085965
 20
15.48544845751203
 10
184.7656768696122
 20
15.49394814982016
 10
184.7104703026025
 20
15.48048561049785
 10
184.7222823035536
 20
15.5293144212676
 10
184.7142496151793
 20
15.57269004896706
 10
184.7228186104679
 20
15.61509438309571
 10
184.7102943409157
 20
15.66267796552115
 10
184.7555101538735
 20
15.65267212995107
 10
184.8014815562723
 20
15.65894105174059
 10
184.877722204771
 20
15.6559356140587
 10
184.9561296131993
 20
15.65770448278539
 10
185.0323992648932
 20
15.65464793981658
 10
185.0783009459473
 20
15.66103971376175
 10
185.1231733965399
 20
15.65093822978894
 10
185.1105552275633
 20
15.70157201581897
 10
185.1191936582705
 20
15.75501261882068
 10
185.1152361595441
 20
15.84863255131678
 10
185.1162325068334
 20
15.95112606688921
 10
185.1171927413072
 20
16.0535327024816
 10
185.1133211458005
 20
16.14735929609318
 10
185.1217789814363
 20
16.20036542840351
 10
185.1093075932835
 20
16.25211435651185
 10
185.1542106389849
 20
16.23850747226754
 10
185.1955083836771
 20
16.24100480320583
 10
185.259534428105
 20
16.23648060574486
 10
185.2986111148786
 20
16.22781003043308
 10
185.3476543498742
 20
16.23515102070686
 10
185.3225080030589
 20
16.19602896051762
 10
185.2815901333724
 20
16.20563842455807
 10
185.2910109616604
 20
16.15540148169779
 10
185.2855647318746
 20
16.1038594563949
 10
185.2881699601803
 20
16.0195970758452
 10
185.2870102202154
 20
15.92559135583408
 10
185.2883591064231
 20
15.83196865395524
 10
185.284997010151
 20
15.74679517552222
 10
185.2920959917768
 20
15.69716856072042
 10
185.2812569154546
 20
15.64993694969987
 10
185.3304010225245
 20
15.6620167493685
 10
185.3794877630147
 20
15.65447393363009
 10
185.4573714280641
 20
15.65686070361431
 10
185.5350365172896
 20
15.65899381905412
 10
185.5845393931355
 20
15.65193391922453
 10
185.6344594750639
 20
15.66360151936212
 10
185.6223198516881
 20
15.6154023537139
 10
185.6305838229144
 20
15.57249219801233
 10
185.6223198650783
 20
15.52958201851382
 10
185.6344594549855
 20
15.48138288754862
 10
185.5845395158746
 20
15.49305034471507
 10
185.5350350651202
 20
15.48599202435042
 10
185.4573784382973
 20
15.488116652286
 10
185.379464386576
 20
15.49053389365757
 10
185.3304500352716
 20
15.48291848194482
 10
185.2813246108943
 20
15.49507952557589
 10
185.2915559988571
 20
15.45073013424156
 10
185.2856677678053
 20
15.4092543620291
 10
185.2878788305568
 20
15.34915394315303
 10
185.2874109346146
 20
15.3022578276289
 10
185.2874386992913
 20
15.27650146418198
 10
185.2874469028653
 20
15.26889163187721
 97
        1
330
AE
 75
     1
 76
     2
 52
45.0
 41
0.1
 77
     0
 78
     1
 53
45.0
 43
0.0
 44
0.0
 45
-0.282842712474619
 46
0.0
 79
     0
 98
        1
 10
0.0
 20
0.0
  0
HATCH
  5
CC
330
48
100
AcDbEntity
  8
1
  6
Continuous
 62
     2
100
AcDbHatch
 10
0.0
 20
0.0
 30
0.0
210
0.0
220
0.0
230
1.0
  2
CUSTOM6
 70
     0
 71
     1
 91
        1
 92
        1
 93
        1
 72
     4
 94
        3
 73
     0
 74
     0
 95
       91
 96
       87
 40
0.0
 40
0.0
 40
0.0
 40
0.0
 40
0.0345987051695718
 40
0.1258134969461369
 40
0.2547723404888987
 40
0.4026032099154125
 40
0.5504340793416704
 40
0.679392922883608
 40
0.7706077146571035
 40
0.8052064287780925
 40
1.124852390615279
 40
1.427402236308871
 40
1.706356627453526
 40
1.955541417875219
 40
2.169485938566362
 40
2.344350786664811
 40
2.480568411561965
 40
2.590440557428961
 40
2.649189927151164
 40
2.749320643306377
 40
2.912632739880074
 40
3.14774565600026
 40
3.244827496385125
 40
3.338490056946723
 40
3.583815413207177
 40
3.761423943238561
 40
3.886956104362738
 40
3.985855451886906
 40
4.091766255337792
 40
4.250186473811986
 40
4.422734315084637
 40
4.628285684838747
 40
4.872093227758597
 40
5.152549652145729
 40
5.464967135837728
 40
5.803201477852661
 40
6.160362988814143
 40
6.193449448276198
 40
6.284170385501852
 40
6.419718138764694
 40
6.587285046385944
 40
6.774063446723858
 40
6.967245678113812
 40
7.154024078817827
 40
7.321590987026184
 40
7.457138740890514
 40
7.54785967855625
 40
7.58094613818281
 40
7.608533084714859
 40
7.669224367077828
 40
7.729915649430039
 40
7.757502595950086
 40
7.790278062553568
 40
7.880146277431038
 40
8.014419963180472
 40
8.180411842397973
 40
8.365434637679442
 40
8.556801071622715
 40
8.7418238668308
 40
8.907815745916366
 40
9.042089431507463
 40
9.131957646249589
 40
9.164733112797165
 40
9.41542506314008
 40
9.667986180958541
 40
9.694169807462709
 40
9.756607686047667
 40
9.831130315322474
 40
9.893568193899938
 40
9.919751820398755
 40
9.950967964690598
 40
9.996421631210717
 40
10.22087981037456
 40
10.44341866197544
 40
10.47847970788857
 40
10.57091337438757
 40
10.70159545461232
 40
10.85140174170362
 40
11.0012080288048
 40
11.13189010907385
 40
11.22432377583013
 40
11.25938480938959
 40
11.28697175596147
 40
11.3476630383592
 40
11.4083543204207
 40
11.43594125892104
 40
11.43594125892104
 40
11.43594125892104
 40
11.43594125892104
 10
190.0818114333289
 20
15.55242795125082
 10
190.0702785844941
 20
15.5524279028792
 10
190.0283409444998
 20
15.55242773704169
 10
189.9434129719026
 20
15.55243125800914
 10
189.8207688553128
 20
15.55240926435883
 10
189.6791206916993
 20
15.55250801177059
 10
189.537975369849
 20
15.55214686232426
 10
189.4141351317904
 20
15.55321883609093
 10
189.3317217825382
 20
15.55092249091274
 10
189.1727791229692
 20
15.56048569373424
 10
189.3503402353376
 20
15.19785394311376
 10
189.3379739205452
 20
14.95243127723118
 10
189.4064519473865
 20
14.66862501324839
 10
189.469302432097
 20
14.43250999939039
 10
189.5452253431728
 20
14.23326740396132
 10
189.6303189577015
 20
14.07745347451374
 10
189.7244607592935
 20
13.97657857781393
 10
189.8282648207727
 20
13.92465852638966
 10
189.9125872030774
 20
13.97606484379615
 10
189.9351322179452
 20
14.09144544037517
 10
189.9745730975371
 20
14.2188514970238
 10
189.9202919734942
 20
14.5362232808675
 10
190.0451218072473
 20
14.38982180140909
 10
190.2019291513602
 20
14.3579530033117
 10
190.0947720007057
 20
14.12421357767627
 10
190.0808711209867
 20
13.95972776583653
 10
190.0234709467225
 20
13.83130869122478
 10
189.9335020145008
 20
13.76018802352819
 10
189.8095274657877
 20
13.74432324142247
 10
189.663427319686
 20
13.77993797554165
 10
189.5243894320284
 20
13.90000570500272
 10
189.4102003962144
 20
14.07435682550317
 10
189.3146141301486
 20
14.29946603111239
 10
189.2318652572627
 20
14.56388246006443
 10
189.1807179256412
 20
14.88187933098546
 10
189.0770189207337
 20
15.15543728488915
 10
189.2042841208523
 20
15.56005818612874
 10
189.0357890623017
 20
15.55112367849682
 10
188.9511995787078
 20
15.55315961418369
 10
188.8189876387628
 20
15.55213937388411
 10
188.6560505094104
 20
15.55253230318434
 10
188.4733759170533
 20
15.55235696313374
 10
188.2847057373383
 20
15.55260105307473
 10
188.1014469020189
 20
15.55185657906241
 10
187.9404746832719
 20
15.55416360522431
 10
187.8029808335276
 20
15.54799804883667
 10
187.7289590372311
 20
15.56032838458215
 10
187.6613215186857
 20
15.54329323723561
 10
187.6732373719271
 20
15.59524438447532
 10
187.6655677285694
 20
15.64071424966532
 10
187.6732592225116
 20
15.68614453703708
 10
187.6613141797762
 20
15.73802395984573
 10
187.7283588305868
 20
15.72119143490266
 10
187.8017375665677
 20
15.73335409092673
 10
187.9379128305273
 20
15.7272723107496
 10
188.0973811801513
 20
15.7295483431506
 10
188.2789173085837
 20
15.72881233998964
 10
188.4658034862179
 20
15.72905954196136
 10
188.6468012316836
 20
15.72886400799256
 10
188.8080802578879
 20
15.72932234714841
 10
188.9393882124886
 20
15.72812673751208
 10
189.0225051322597
 20
15.73051347319745
 10
189.1556236547813
 20
15.72230605725466
 10
189.0645893502656
 20
15.97752868952655
 10
188.9789633074421
 20
16.2416435832825
 10
189.0990589003454
 20
16.22904442969165
 10
189.1514264948544
 20
16.22694235763077
 10
189.2214497569715
 20
16.22535399889658
 10
189.2671922337817
 20
16.21602567538115
 10
189.3220812646933
 20
16.22545966915428
 10
189.2963574785681
 20
16.17733028655174
 10
189.1825397571453
 20
16.18266829744161
 10
189.3159346621136
 20
15.95449174576779
 10
189.194365873547
 20
15.72156856595924
 10
189.3223188769413
 20
15.73087258884441
 10
189.4049048406461
 20
15.72801001754682
 10
189.5307214850824
 20
15.72923437412305
 10
189.6741469838058
 20
15.72932431888966
 10
189.8157420951728
 20
15.72746163183855
 10
189.9459127249968
 20
15.73333075937165
 10
190.019345228619
 20
15.72070340823205
 10
190.0891112922097
 20
15.73877563110414
 10
190.0775772605395
 20
15.68612850546329
 10
190.0833184346682
 20
15.6422131768655
 10
190.081661577091
 20
15.59089982676554
 10
190.081775756167
 20
15.56158792021639
 10
190.0818114333289
 20
15.55242795125082
 97
        1
330
AF
 75
     1
 76
     2
 52
45.0
 41
0.1
 77
     0
 78
     1
 53
45.0
 43
0.0
 44
0.0
 45
-0.282842712474619
 46
0.0
 79
     0
 98
        1
 10
0.0
 20
0.0
  0
HATCH
  5
CD
330
48
100
AcDbEntity
  8
1
  6
Continuous
 62
     2
100
AcDbHatch
 10
0.0
 20
0.0
 30
0.0
210
0.0
220
0.0
230
1.0
  2
CUSTOM7
 70
     0
 71
     1
 91
        1
 92
        1
 93
        1
 72
     4
 94
        3
 73
     0
 74
     0
 95
       75
 96
       71
 40
0.0
 40
0.0
 40
0.0
 40
0.0
 40
0.0342546099129691
 40
0.1245622414432382
 40
0.2522385480897607
 40
0.3985991922940822
 40
0.5449598364981052
 40
0.6726361431439101
 40
0.7629437746737227
 40
0.7971983935298275
 40
1.101723623449697
 40
1.408591244036704
 40
1.433332471690401
 40
1.487763172450177
 40
1.542193873081988
 40
1.566935100592527
 40
1.923523931821845
 40
2.271755704953644
 40
2.590579755100885
 40
2.858943305581148
 40
2.889120339309206
 40
2.918305855191231
 40
2.941366645531346
 40
2.996357760973233
 40
3.061992318140785
 40
3.116983433626967
 40
3.140044223997648
 40
3.41127312293654
 40
3.732441619741237
 40
3.761068217532935
 40
3.837787499630491
 40
3.94885869912613
 40
4.080541049104499
 40
4.219093782625877
 40
4.350776132722424
 40
4.461847332405752
 40
4.538566614678484
 40
4.567193212544729
 40
4.594907573998987
 40
4.666381453557526
 40
4.764111044011137
 40
4.87059253812594
 40
4.968322128642391
 40
5.039796008287076
 40
5.067510369784535
 40
5.094263603185747
 40
5.15312071666838
 40
5.211977830150825
 40
5.238731063551827
 40
5.272290535139066
 40
5.363380529444927
 40
5.497618415781633
 40
5.660621563453875
 40
5.838007341749576
 40
6.015393119910928
 40
6.178396267038582
 40
6.312634151842562
 40
6.403724143059551
 40
6.437283612672647
 40
6.464036846261261
 40
6.522893960004875
 40
6.581751071484137
 40
6.608504301591082
 40
6.637253941281229
 40
6.711397748903109
 40
6.812778057283722
 40
6.923237199249498
 40
7.024617507624142
 40
7.098761315207851
 40
7.127510946007802
 40
7.127510946007802
 40
7.127510946007802
 40
7.127510946007802
 10
188.4418622390564
 20
14.95849128473262
 10
188.4418622819707
 20
14.94707313408717
 10
188.4418624481128
 20
14.90555257842627
 10
188.4418593081787
 20
14.82146922003769
 10
188.4418788279801
 20
14.70004497322325
 10
188.4417912187737
 20
14.55980494047444
 10
188.442111623523
 20
14.42006556794572
 10
188.4411605909741
 20
14.29745038894924
 10
188.4431978595967
 20
14.21587074438038
 10
188.4349433178746
 20
14.06271267077693
 10
188.74307979409
 20
14.22560236054718
 10
189.0350645173738
 20
14.39482938688004
 10
189.0408354448707
 20
14.25973235781911
 10
189.0455471719891
 20
14.21617221160446
 10
189.0482535411918
 20
14.17211249350548
 10
189.0672545672959
 20
14.02272590363137
 10
188.6583942247303
 20
14.08681172241264
 10
188.3793710348832
 20
13.97296341411018
 10
188.1018081587166
 20
13.87364095811148
 10
187.80998371844
 20
13.91630687596355
 10
187.7869144678658
 20
13.81321679744537
 10
187.7537474383332
 20
13.78691091244464
 10
187.7480653962738
 20
13.83455309036301
 10
187.7284214559044
 20
13.87180336115068
 10
187.7095089485622
 20
13.93007387847561
 10
187.6942849867708
 20
13.97385201007804
 10
187.6477246372933
 20
14.08759421046309
 10
187.9890897312451
 20
14.05576301120046
 10
188.2679649367386
 20
14.02161435106478
 10
188.2617753034907
 20
14.16913976479653
 10
188.2630935452773
 20
14.24013150908833
 10
188.2624831689948
 20
14.34719767958662
 10
188.2625871570725
 20
14.47398529785998
 10
188.2629987964054
 20
14.60849243496049
 10
188.2613907841969
 20
14.73395549951183
 10
188.2659902567925
 20
14.84505246719116
 10
188.256418650221
 20
14.90761886800687
 10
188.2704001783691
 20
14.96595388294999
 10
188.2147384386705
 20
14.95289710582236
 10
188.1575655197821
 20
14.96136307749496
 10
188.0616048925648
 20
14.95729976080634
 10
187.963376752282
 20
14.95970889852472
 10
187.8672582457561
 20
14.95551600613386
 10
187.8104648525811
 20
14.96429346441161
 10
187.7550356873384
 20
14.95094936850118
 10
187.7670679427917
 20
15.00036910959254
 10
187.7592003173937
 20
15.04393988030393
 10
187.7666295563828
 20
15.08830469118522
 10
187.7551930564144
 20
15.13902297763988
 10
187.8232102370132
 20
15.1216246075774
 10
187.8968496879747
 20
15.13417450237185
 10
188.032506405821
 20
15.12799677011094
 10
188.1884909024525
 20
15.1302920309308
 10
188.3615926358144
 20
15.12940968262527
 10
188.5346942964182
 20
15.13029207142405
 10
188.6906789811216
 20
15.12799662955547
 10
188.8263351889798
 20
15.13417486262428
 10
188.8999756705653
 20
15.12162394218332
 10
188.9679914174724
 20
15.13902373012139
 10
188.9565590885923
 20
15.08830130414553
 10
188.9639539458298
 20
15.04397060811106
 10
188.9562039912271
 20
15.00028307550193
 10
188.9681203741877
 20
14.95063590098475
 10
188.9108170223617
 20
14.96461411338423
 10
188.8520145789773
 20
14.95539755673252
 10
188.75252936332
 20
14.95952268164928
 10
188.649428009835
 20
14.95822760025885
 10
188.5537846354574
 20
14.95854077077639
 10
188.4857467971617
 20
14.95848776697143
 10
188.4514462213443
 20
14.95849051871654
 10
188.4418622390564
 20
14.95849128473262
 97
        1
330
B0
 75
     1
 76
     2
 52
45.0
 41
0.1
 77
     0
 78
     1
 53
45.0
 43
0.0
 44
0.0
 45
-0.282842712474619
 46
0.0
 79
     0
 98
        1
 10
0.0
 20
0.0
  0
HATCH
  5
CE
330
48
100
AcDbEntity
  8
1
  6
Continuous
 62
     2
100
AcDbHatch
 10
0.0
 20
0.0
 30
0.0
210
0.0
220
0.0
230
1.0
  2
CUSTOM8
 70
     0
 71
     1
 91
        1
 92
        1
 93
        1
 72
     4
 94
        3
 73
     0
 74
     0
 95
       15
 96
       11
 40
0.0
 40
0.0
 40
0.0
 40
0.0
 40
0.2785535985097297
 40
0.5215624748200645
 40
0.6076917376042598
 40
0.6938210001744053
 40
0.9405019146457451
 40
1.221691403489414
 40
1.300471877081316
 40
1.379252341685086
 40
1.379252341685086
 40
1.379252341685086
 40
1.379252341685086
 10
189.5681493630998
 20
16.22930267330381
 10
189.6296017794177
 20
16.17691646592717
 10
189.7446649974114
 20
16.07882876798228
 10
190.0397348497244
 20
15.92889785897218
 10
189.9025147631857
 20
15.84343227515011
 10
189.8041227843777
 20
15.7108578520156
 10
189.7130033590649
 20
16.01616985781422
 10
189.3636839480654
 20
16.07967869465369
 10
189.5119258376569
 20
16.17896509880878
 10
189.5494081874235
 20
16.21252348402382
 10
189.5681493630998
 20
16.22930267330381
 97
        1
330
B1
 75
     1
 76
     2
 52
45.0
 41
0.1
 77
     0
 78
     1
 53
45.0
 43
0.0
 44
0.0
 45
-0.282842712474619
 46
0.0
 79
     0
 98
        1
 10
0.0
 20
0.0
  0
HATCH
  5
CF
330
48
100
AcDbEntity
  8
1
  6
Continuous
 62
     2
100
AcDbHatch
 10
0.0
 20
0.0
 30
0.0
210
0.0
220
0.0
230
1.0
  2
CUSTOM9
 70
     0
 71
     1
 91
        1
 92
        1
 93
        1
 72
     4
 94
        3
 73
     0
 74
     0
 95
       35
 96
       31
 40
0.0
 40
0.0
 40
0.0
 40
0.0
 40
0.0335231036620479
 40
0.0713218571711819
 40
0.4278866681487011
 40
0.8116865841964067
 40
1.198190238000054
 40
1.56137954681266
 40
1.659983174622093
 40
1.75931557380723
 40
2.132719617231119
 40
2.525233363588882
 40
2.91081539777977
 40
3.265244364303391
 40
3.592606723582206
 40
3.964386154604167
 40
4.359942131737996
 40
4.758154118639472
 40
4.843846538700096
 40
4.936650065543405
 40
5.256616602537505
 40
5.581707404416249
 40
5.899719158308335
 40
6.198363494280915
 40
6.466301046615919
 40
6.49389531153724
 40
6.559697020197031
 40
6.638234543442606
 40
6.704036252154358
 40
6.731630508423164
 40
6.731630508423164
 40
6.731630508423164
 40
6.731630508423164
 10
191.9736010568669
 20
16.23463843719131
 10
191.9676006097789
 20
16.22480690542321
 10
191.9548344099157
 20
16.20388988579797
 10
191.7949362006553
 20
16.17127126532694
 10
192.2322025842338
 20
15.88206680336699
 10
192.4345394828262
 20
15.68041138358437
 10
192.6819564267973
 20
15.43749387603275
 10
193.1831513624606
 20
15.3604766275778
 10
193.012556219897
 20
15.21876939174657
 10
192.9383299463202
 20
15.01710366209102
 10
192.6131432248188
 20
15.36956287174725
 10
192.3277741670664
 20
15.53175212559561
 10
192.0337604077658
 20
15.73687130053052
 10
191.8084452691134
 20
16.21827488595464
 10
191.5993085055521
 20
15.75343046609227
 10
191.3207873674833
 20
15.54350952252911
 10
191.0371383177209
 20
15.37424456359987
 10
190.7078639527831
 20
15.00142360907932
 10
190.6277012318224
 20
15.19708014458998
 10
190.4759724909745
 20
15.32491104190591
 10
190.9083395826794
 20
15.40454031765937
 10
191.0962565329766
 20
15.60026634915474
 10
191.3468477420502
 20
15.81632996916756
 10
191.5714350470161
 20
15.98190992300055
 10
191.6259775409713
 20
16.26133964636821
 10
191.7494661029011
 20
16.24737950408072
 10
191.806027334452
 20
16.24521268867642
 10
191.8761870984944
 20
16.24046859881356
 10
191.9333414022105
 20
16.23709429350538
 10
191.9644190320838
 20
16.23519854711116
 10
191.9736010568669
 20
16.23463843719131
 97
        1
330
B2
 75
     1
 76
     2
 52
45.0
 41
0.1
 77
     0
 78
     1
 53
45.0
 43
0.0
 44
0.0
 45
-0.282842712474619
 46
0.0
 79
     0
 98
        1
 10
0.0
 20
0.0
  0
HATCH
  5
D0
330
48
100
AcDbEntity
  8
1
  6
Continuous
 62
     2
100
AcDbHatch
 10
0.0
 20
0.0
 30
0.0
210
0.0
220
0.0
230
1.0
  2
CUSTOM10
 70
     0
 71
     1
 91
        1
 92
        1
 93
        1
 72
     4
 94
        3
 73
     0
 74
     0
 95
       91
 96
       87
 40
0.0
 40
0.0
 40
0.0
 40
0.0
 40
0.0267532254356648
 40
0.085610338646396
 40
0.1444674521996372
 40
0.1712206856618212
 40
0.2039416005642234
 40
0.2955601971652182
 40
0.4362601844616616
 40
0.6162252844506948
 40
0.8256392189704111
 40
1.054685709844352
 40
1.293548478893444
 40
1.532411247938188
 40
1.761457738799453
 40
1.970871673298421
 40
2.150836773256589
 40
2.29153676049545
 40
2.383155356836556
 40
2.415876284101176
 40
2.442629517487815
 40
2.501486630948935
 40
2.560343744424073
 40
2.587096977826341
 40
2.617068194440768
 40
2.699247336755909
 40
2.822032643466193
 40
2.973822353257723
 40
3.143014704823137
 40
3.318007936879716
 40
3.487200288186492
 40
3.63898999754803
 40
3.761775303794471
 40
3.843954445752806
 40
3.873925662229502
 40
3.890812773500199
 40
3.907699884771366
 40
3.937960767857016
 40
3.980983618142045
 40
4.199085915228191
 40
4.439444339236997
 40
4.677588241260644
 40
5.050698317837529
 40
5.448212454762915
 40
5.85529121804444
 40
6.138575438885104
 40
6.417434507583945
 40
6.444551104393631
 40
6.504207617362939
 40
6.56386413031427
 40
6.590980727103867
 40
6.848609460381282
 40
7.109611990668246
 40
7.35291090444589
 40
7.557830220705251
 40
7.587518925913174
 40
7.652834077375605
 40
7.718149228845554
 40
7.747837934061862
 40
7.854880190300906
 40
7.976511257403449
 40
8.369487896592222
 40
8.757514959223487
 40
9.12607241933095
 40
9.460639380392012
 40
9.746695593035694
 40
9.777569943118465
 40
9.807050320931545
 40
9.830377336128674
 40
9.886003295435737
 40
9.952395569429639
 40
10.00802152870598
 40
10.0313485438819
 40
10.21356951009555
 40
10.42203479292835
 40
10.6615455673103
 40
10.9169378956427
 40
11.15832906556528
 40
11.18982674596585
 40
11.27286608520367
 40
11.39026653033312
 40
11.52484752840842
 40
11.65942852648399
 40
11.77682897161437
 40
11.85986831085634
 40
11.89136598230379
 40
11.89136598230379
 40
11.89136598230379
 40
11.89136598230379
 10
190.7027885008196
 20
14.70699600701772
 10
190.7028237765288
 20
14.71587847311985
 10
190.7029366710796
 20
14.74430237047346
 10
190.7012984568489
 20
14.79409639169801
 10
190.7069750292911
 20
14.83657564478152
 10
190.6956928731706
 20
14.88730154856844
 10
190.7632296979032
 20
14.87012900740105
 10
190.83880292107
 20
14.88290227165993
 10
190.9828357056001
 20
14.87629729457378
 10
191.1569419185427
 20
14.87888462206463
 10
191.3639599611003
 20
14.8780059195555
 10
191.5894688172377
 20
14.87828207920024
 10
191.8251162293405
 20
14.87818339658659
 10
192.0607640531348
 20
14.87828184412764
 10
192.2862717580625
 20
14.87800678190786
 10
192.4932934632803
 20
14.87888186270731
 10
192.6673888915287
 20
14.87630522678444
 10
192.8114492071985
 20
14.8828829044921
 10
192.8869691915291
 20
14.87016243405601
 10
192.9545776037029
 20
14.88726400191683
 10
192.9430840140675
 20
14.83674785802938
 10
192.9505104581732
 20
14.792532522265
 10
192.9428838927985
 20
14.74867966503609
 10
192.9546489459423
 20
14.69878374479327
 10
192.8930788491982
 20
14.71393227712512
 10
192.825679173867
 20
14.70310665350673
 10
192.701300405622
 20
14.70852031626236
 10
192.555442823657
 20
14.70649205390785
 10
192.3893576440084
 20
14.70715777578386
 10
192.2188412621724
 20
14.70689643521243
 10
192.0519790855388
 20
14.70721553391094
 10
191.9087346827105
 20
14.70635302590762
 10
191.7773313869834
 20
14.70863300482987
 10
191.7239859134656
 20
14.70407704374203
 10
191.6485188456913
 20
14.70999914992876
 10
191.6769075779231
 20
14.70094169343356
 10
191.7033652409543
 20
14.69725912268939
 10
191.6633522907701
 20
14.66654271968271
 10
191.5713663691868
 20
14.67667591174645
 10
191.5439396207069
 20
14.43032502247783
 10
191.4478793967234
 20
14.27499558764377
 10
191.1917277964474
 20
13.94525417931568
 10
191.7627537732762
 20
14.08430022210453
 10
192.0173656320516
 20
14.08291779973366
 10
192.6279647048617
 20
13.99790569242083
 10
192.3340698578082
 20
14.29685417558203
 10
192.0133304286518
 20
14.44330856901777
 10
192.1313543360433
 20
14.50025540818286
 10
192.1724716466261
 20
14.52420099873348
 10
192.2156812394411
 20
14.54599758811232
 10
192.317457409445
 20
14.60928721253908
 10
192.4328867625248
 20
14.35147151408782
 10
192.6329591642278
 20
14.21616041113685
 10
192.7269077387227
 20
14.03792795138881
 10
192.9558829746392
 20
13.87997821027052
 10
192.8596031846708
 20
13.829159725763
 10
192.8167959763779
 20
13.79881292523053
 10
192.7718243528778
 20
13.77466130281455
 10
192.7121720925213
 20
13.72552146747562
 10
192.6789731061323
 20
13.85997475673603
 10
192.5582013350795
 20
14.01594265286581
 10
192.1970976005977
 20
13.88569928059555
 10
191.838506195554
 20
13.90224694409481
 10
191.4570920450079
 20
13.89331229351865
 10
191.1703455282892
 20
13.82882671672406
 10
190.8592055599712
 20
13.94230668192829
 10
190.8268737818788
 20
13.83122259927768
 10
190.7896178253317
 20
13.81196313850021
 10
190.7865737632754
 20
13.85874784087302
 10
190.7679892860606
 20
13.8980685391914
 10
190.7512436616778
 20
13.95765983478237
 10
190.7383730915753
 20
14.00201969871287
 10
190.7042327806429
 20
14.091063311202
 10
190.9482714457754
 20
14.02181042943772
 10
191.144139448667
 20
14.00030369057745
 10
191.2395426381277
 20
14.28226484478463
 10
191.2945135769595
 20
14.44363045421124
 10
191.5159619357156
 20
14.71391177589739
 10
191.3849239381215
 20
14.70548446853734
 10
191.3110026555853
 20
14.7077900849697
 10
191.1977459876243
 20
14.70671378321658
 10
191.0694251807484
 20
14.7070763907651
 10
190.9404252030415
 20
14.70697724466086
 10
190.8287840946291
 20
14.70699932712572
 10
190.7514663970027
 20
14.70699579189671
 10
190.713287653201
 20
14.70699595845081
 10
190.7027885008196
 20
14.70699600701772
 97
        1
330
B3
 75
     1
 76
     2
 52
45.0
 41
0.1
 77
     0
 78
     1
 53
45.0
 43
0.0
 44
0.0
 45
-0.282842712474619
 46
0.0
 79
     0
 98
        1
 10
0.0
 20
0.0
  0
HATCH
  5
D1
330
48
100
AcDbEntity
  8
1
  6
Continuous
 62
     2
100
AcDbHatch
 10
0.0
 20
0.0
 30
0.0
210
0.0
220
0.0
230
1.0
  2
CUSTOM11
 70
     0
 71
     1
 91
        1
 92
        1
 93
        1
 72
     4
 94
        3
 73
     0
 74
     0
 95
      131
 96
      127
 40
0.0
 40
0.0
 40
0.0
 40
0.0
 40
0.0195577029826681
 40
0.0426490537462314
 40
0.2863607575857425
 40
0.534494843619018
 40
0.7842238845573741
 40
0.8737315789468078
 40
0.9803832810313393
 40
1.092842274517083
 40
1.199761146656816
 40
1.289788768186546
 40
1.351573580786274
 40
1.370727117561515
 40
1.416400936017925
 40
1.470914848356079
 40
1.516588666791866
 40
1.535742203552961
 40
1.634216592293265
 40
1.76028334117508
 40
1.897966686682153
 40
2.031216387369007
 40
2.049689751138003
 40
2.101115601646941
 40
2.179502577740062
 40
2.27885931831418
 40
2.393194462258843
 40
2.516516648383961
 40
2.642834515406094
 40
2.766156701983605
 40
2.880491846754725
 40
2.979848588358771
 40
3.058235565443951
 40
3.109661416669109
 40
3.128134780704285
 40
3.14678374238663
 40
3.191254343315491
 40
3.244332157316178
 40
3.28880275822611
 40
3.307451719895381
 40
3.327717853844995
 40
3.383747753580354
 40
3.468388665924746
 40
3.574487837699055
 40
3.694892515729161
 40
3.822449946852301
 40
3.950007377920692
 40
4.070412055800782
 40
4.176511227368339
 40
4.261152139501785
 40
4.317182039076979
 40
4.337448172964899
 40
4.620011002696459
 40
4.88509663839769
 40
4.945373043518541
 40
5.014107710488863
 40
5.070481727652246
 40
5.31924695563671
 40
5.584812164506149
 40
5.859000912057011
 40
6.133746937542182
 40
6.401732212969002
 40
6.420736683995593
 40
6.472845717451244
 40
6.550702743894171
 40
6.64695119387438
 40
6.754234497930761
 40
6.865196086587511
 40
6.972479390358026
 40
7.068727839772159
 40
7.146584865451197
 40
7.198693898189426
 40
7.217698368905567
 40
7.234950401631044
 40
7.276089864270086
 40
7.325191803516193
 40
7.366331266090577
 40
7.383583298769927
 40
7.402779163492304
 40
7.453386443254707
 40
7.524934666445737
 40
7.606953361406048
 40
7.6889720564292
 40
7.76052027978445
 40
7.811127559734692
 40
7.830323424546314
 40
7.847844055299945
 40
7.894799345666988
 40
7.962779392744681
 40
8.043374293560738
 40
8.12817414514965
 40
8.208769044817458
 40
8.276749090377166
 40
8.323704379669735
 40
8.341225010056466
 40
8.358497614800642
 40
8.401679126686847
 40
8.457815092185934
 40
8.513951057728395
 40
8.557132569708351
 40
8.574405174505394
 40
8.602340668616778
 40
8.643455660540276
 40
8.663225271966947
 40
8.715345156564592
 40
8.789031889628927
 40
8.873502045520661
 40
8.957972194324286
 40
9.03165892556818
 40
9.083778811234868
 40
9.103548423003332
 40
9.119550083123869
 40
9.16081752238017
 40
9.217244429110536
 40
9.278724491645022
 40
9.335151398295807
 40
9.376418837358102
 40
9.39242049730089
 40
9.40119630273511
 40
9.41749422938459
 40
9.426270027749862
 40
9.44087507547789
 40
9.475702496999064
 40
9.517270709866219
 40
9.55209813199438
 40
9.566703169884585
 40
9.566703169884585
 40
9.566703169884585
 40
9.566703169884585
 10
194.6170254148479
 20
15.67015871511032
 10
194.6134345093371
 20
15.66453690702162
 10
194.6056039123624
 20
15.65227754419111
 10
194.5129968974545
 20
15.61601916040999
 10
194.4887622233247
 20
15.40148444212707
 10
194.3858709845937
 20
15.22197284509714
 10
194.1220492364305
 20
15.03615573798147
 10
194.284547156918
 20
14.95959336566081
 10
194.3607225760838
 20
14.89856693195439
 10
194.4492171072757
 20
14.83515804544759
 10
194.538993023311
 20
14.77525634219558
 10
194.5883817636046
 20
14.72102154849208
 10
194.6745708157382
 20
14.6928624054183
 10
194.6411260674229
 20
14.6571330965281
 10
194.621467116631
 20
14.62550387991902
 10
194.5919888217882
 20
14.58475872796069
 10
194.568898944603
 20
14.55504663489641
 10
194.5380205968355
 20
14.50211422668496
 10
194.472919336574
 20
14.627403349389
 10
194.3796000122415
 20
14.68213900233933
 10
194.2950636285138
 20
14.73916423939342
 10
194.1722498125741
 20
14.89675287427529
 10
194.1764450847301
 20
14.82035806766841
 10
194.1751478652677
 20
14.773612801613
 10
194.1758126448077
 20
14.69584785812605
 10
194.1755549986957
 20
14.59902068324426
 10
194.1756431239921
 20
14.48650279078813
 10
194.1756077302281
 20
14.36524085945702
 10
194.1756511758279
 20
14.24086897858963
 10
194.1755199942405
 20
14.11967683631337
 10
194.1759477562046
 20
14.00691148919745
 10
194.174667820231
 20
13.91082913768744
 10
194.1779759851044
 20
13.831138264687
 10
194.1715197740086
 20
13.78815175788784
 10
194.1806208705556
 20
13.74955432372042
 10
194.1447910339934
 20
13.75810887724071
 10
194.1115223815252
 20
13.75342519985447
 10
194.060456257604
 20
13.75351298759784
 10
194.0269723972812
 20
13.75794430283822
 10
193.9907585408753
 20
13.74960793842509
 10
194.0009782568663
 20
13.79145277179284
 10
193.9936487887772
 20
13.83778560820174
 10
193.9973633136101
 20
13.92374831106014
 10
193.9959480554895
 20
14.0260514270485
 10
193.9964105554637
 20
14.14453223931512
 10
193.9962773686229
 20
14.26957683153356
 10
193.9963015910044
 20
14.3947582810705
 10
193.996335492555
 20
14.51286645379058
 10
193.9962060293131
 20
14.61628748709516
 10
193.996550754908
 20
14.69932036153667
 10
193.9958698278689
 20
14.75143368521244
 10
193.999458660062
 20
14.8791290782136
 10
193.7826171386436
 20
14.58048716819621
 10
193.6021354921952
 20
14.35263981511521
 10
193.549032229561
 20
14.49373443289814
 10
193.5200429133148
 20
14.54325767560945
 10
193.4196648062821
 20
14.64641779790116
 10
193.740512772326
 20
14.72695035023781
 10
193.8689897005428
 20
14.91066283036439
 10
194.0906454325358
 20
15.11931995771761
 10
194.1770224894067
 20
15.29339211228345
 10
194.4549394229076
 20
15.5696705134251
 10
194.3346247839284
 20
15.56534559551112
 10
194.2863197351349
 20
15.56614856202551
 10
194.2102377454905
 20
15.56574582146582
 10
194.116701000975
 20
15.56590275611607
 10
194.0117594788556
 20
15.56582502576222
 10
193.9033887738718
 20
15.56595464378552
 10
193.7981454235896
 20
15.56554393490689
 10
193.7056237819411
 20
15.56682073671589
 10
193.6268130800707
 20
15.56340766534847
 10
193.5839674565378
 20
15.57023350036318
 10
193.5449499586515
 20
15.56065064201121
 10
193.5526365271863
 20
15.5942077956554
 10
193.548546440431
 20
15.6252355032223
 10
193.5485531368814
 20
15.67236529270898
 10
193.552623972491
 20
15.70340941646775
 10
193.5449495574582
 20
15.73701861635898
 10
193.5834819405493
 20
15.72748410420869
 10
193.6241228014479
 20
15.73397435498067
 10
193.6951471850463
 20
15.73100150650252
 10
193.7729318149632
 20
15.73174761399154
 10
193.8507292246474
 20
15.73247814044523
 10
193.9217232089906
 20
15.72954235514157
 10
193.9624279791819
 20
15.73595468772949
 10
194.0009853489908
 20
15.72650524176001
 10
193.9927342754926
 20
15.76264692158782
 10
193.9982346669358
 20
15.80129837613224
 10
193.9955754206161
 20
15.86913528561837
 10
193.9965815471532
 20
15.94591641538738
 10
193.9960178018318
 20
16.02849393582756
 10
193.997071452659
 20
16.10517329229877
 10
193.994267586313
 20
16.173319907767
 10
194.0000702721302
 20
16.21132399809347
 10
193.9915654551158
 20
16.24758448077648
 10
194.0255610233123
 20
16.23755723771853
 10
194.0594575683099
 20
16.24073266813707
 10
194.1126669060346
 20
16.2350896564061
 10
194.1660768574484
 20
16.23434774436426
 10
194.199591464949
 20
16.22819223482981
 10
194.2388086183039
 20
16.23346029773592
 10
194.2120263698491
 20
16.19253380793495
 10
194.1708111001724
 20
16.20371204538106
 10
194.1782641540873
 20
16.15867056192122
 10
194.1742227952185
 20
16.11412278028142
 10
194.176171404964
 20
16.042235726217
 10
194.1752364849758
 20
15.96168630588768
 10
194.176510719003
 20
15.88173995404992
 10
194.1732043793863
 20
15.8084183708318
 10
194.1802106179962
 20
15.76688643002565
 10
194.1701440380125
 20
15.7275241856811
 10
194.2029814803921
 20
15.73468063430978
 10
194.236457729648
 20
15.73027243137941
 10
194.2915053476019
 20
15.73217943347894
 10
194.3489502595314
 20
15.73185366407285
 10
194.4023026248309
 20
15.73106308733078
 10
194.4398540896639
 20
15.73313959118072
 10
194.4623172523236
 20
15.73022338167105
 10
194.4751678073731
 20
15.73572552644054
 10
194.4858255685888
 20
15.73801118197788
 10
194.4986635650143
 20
15.74494972588052
 10
194.5145991033071
 20
15.72853046313672
 10
194.5410623920891
 20
15.71709122319449
 10
194.5726805253757
 20
15.69644687835193
 10
194.5987255892151
 20
15.68116869628298
 10
194.6128517723973
 20
15.67266976323188
 10
194.6170254148479
 20
15.67015871511032
 97
        1
330
B4
 75
     1
 76
     2
 52
45.0
 41
0.1
 77
     0
 78
     1
 53
45.0
 43
0.0
 44
0.0
 45
-0.282842712474619
 46
0.0
 79
     0
 98
        1
 10
0.0
 20
0.0
  0
HATCH
  5
D2
330
48
100
AcDbEntity
  8
1
  6
Continuous
 62
     2
100
AcDbHatch
 10
0.0
 20
0.0
 30
0.0
210
0.0
220
0.0
230
1.0
  2
CUSTOM12
 70
     0
 71
     1
 91
        1
 92
        1
 93
        1
 72
     4
 94
        3
 73
     0
 74
     0
 95
      124
 96
      120
 40
0.0
 40
0.0
 40
0.0
 40
0.0
 40
0.027818722962451
 40
0.1011590162384269
 40
0.2048470170590239
 40
0.3237088716559245
 40
0.4425707262522
 40
0.5462587270699547
 40
0.6195990203311798
 40
0.647417752257866
 40
0.6750060736115242
 40
0.7357003855242741
 40
0.7963946998054456
 40
0.8239830245571766
 40
0.854093381110286
 40
0.937339662940954
 40
1.063094687343235
 40
1.220731268638073
 40
1.399622220914748
 40
1.589140358637732
 40
1.778658496423898
 40
1.957549448940509
 40
2.115186030873159
 40
2.240941056914463
 40
2.324187341760532
 40
2.354297700109382
 40
2.38188602467189
 40
2.442580338710477
 40
2.503274652750499
 40
2.530862977314606
 40
2.560983949278559
 40
2.640393784452905
 40
2.752662861759128
 40
2.881361560118145
 40
3.010060258455192
 40
3.122329335705339
 40
3.201739170817953
 40
3.231860142753313
 40
3.264298024030372
 40
3.352343701778248
 40
3.48209522686878
 40
3.639650650173052
 40
3.811108022565517
 40
3.982565394928037
 40
4.140120818152629
 40
4.269872343141347
 40
4.357918020802415
 40
4.390355902044045
 40
4.423256253992615
 40
4.508104530073136
 40
4.624121560636904
 40
4.75052817603166
 40
4.866545206602107
 40
4.951393482692064
 40
4.984293834645466
 40
5.011450833242384
 40
5.071196230152172
 40
5.130941627057251
 40
5.158098625648919
 40
5.19099897760161
 40
5.275847253689435
 40
5.39186428425687
 40
5.518270899648415
 40
5.634287930209454
 40
5.719136206288128
 40
5.752036558236015
 40
5.782130946283041
 40
5.862783906229214
 40
5.979550131775086
 40
6.117984316640491
 40
6.263641154588037
 40
6.402075339414243
 40
6.51884156490804
 40
6.599494524815625
 40
6.629588912848862
 40
6.654403028226411
 40
6.713575149488178
 40
6.784199939329496
 40
6.843372060493513
 40
6.868186175802759
 40
6.896246243201808
 40
6.939586233758186
 40
6.967846564564814
 40
7.043584251089746
 40
7.153234334451598
 40
7.283231855734341
 40
7.420011856035366
 40
7.550009376579709
 40
7.659659458835103
 40
7.735397144417092
 40
7.763657474851263
 40
7.79640972801092
 40
7.880876065096194
 40
7.99637085246558
 40
8.122208446418474
 40
8.237703224799068
 40
8.322169562010762
 40
8.354921815205776
 40
8.382078813307558
 40
8.441824209206867
 40
8.501569605240022
 40
8.528726603485602
 40
8.56147885669565
 40
8.6459451938777
 40
8.761439980865212
 40
8.887277580764355
 40
9.002772362000876
 40
9.087238696661096
 40
9.11999094923555
 40
9.152428830613252
 40
9.240474508638473
 40
9.370226034149432
 40
9.527781457984327
 40
9.699238830981328
 40
9.870696203978529
 40
10.02825162781396
 40
10.15800315332559
 40
10.24604883135114
 40
10.27848670378517
 40
10.27848670378517
 40
10.27848670378517
 40
10.27848670378517
 10
195.3821827564383
 20
14.0141051738575
 10
195.3914554737523
 20
14.01410498511267
 10
195.4251744536861
 20
14.01410430876707
 10
195.4934706812465
 20
14.01411807243297
 10
195.592014171158
 20
14.01403224219538
 10
195.7062066464812
 20
14.01441755612243
 10
195.818589441707
 20
14.01300835897538
 10
195.9214376600118
 20
14.01719117422236
 10
195.9806839874849
 20
14.00823089251976
 10
196.0371265937032
 20
14.02164434526054
 10
196.0246255586955
 20
13.97087198613354
 10
196.0329549635703
 20
13.92589320939059
 10
196.024817084112
 20
13.88056752990481
 10
196.0370529214457
 20
13.82931932408459
 10
195.9747773490333
 20
13.84447955365269
 10
195.9060513026868
 20
13.83359750710735
 10
195.7782756749592
 20
13.83911304747965
 10
195.6262984511643
 20
13.83700851253691
 10
195.4502695972523
 20
13.83771002588467
 10
195.2644431934287
 20
13.83745237531284
 10
195.0786167437175
 20
13.83771005144596
 10
194.9025880142168
 20
13.83700841847724
 10
194.7506104154195
 20
13.83911332229982
 10
194.6228357664554
 20
13.83359680767633
 10
194.5541077836581
 20
13.84448077125935
 10
194.4918349042883
 20
13.82931786684202
 10
194.5040616290017
 20
13.88057510805165
 10
194.4960004462597
 20
13.92582473272418
 10
194.5040675809892
 20
13.97106357955316
 10
194.4918238487083
 20
14.02234176909951
 10
194.5525017120697
 20
14.00749577363128
 10
194.6162810745736
 20
14.01756448170728
 10
194.7277314353502
 20
14.01294644211992
 10
194.8497533443824
 20
14.01413328905462
 10
194.9719538137823
 20
14.01515863900628
 10
195.0829794287392
 20
14.01092475623394
 10
195.1476517413958
 20
14.02018584521731
 10
195.2091162810501
 20
14.00604423049675
 10
195.1930065601337
 20
14.0723552788451
 10
195.2042980327357
 20
14.14447790121969
 10
195.1987400822561
 20
14.2751376088828
 10
195.200803506169
 20
14.42607323708237
 10
195.2000167127295
 20
14.59335873107882
 10
195.2007845215627
 20
14.760611103323
 10
195.1988038785628
 20
14.91163289269913
 10
195.2041306156621
 20
15.04206069552995
 10
195.1933101388425
 20
15.11465442605899
 10
195.2090326429875
 20
15.18150469436799
 10
195.143270813249
 20
15.16580512490825
 10
195.0756367830764
 20
15.17609243083996
 10
194.9615885293809
 20
15.17113786847123
 10
194.8451242674902
 20
15.17414128030475
 10
194.7306554121477
 20
15.16880303143389
 10
194.6640324657812
 20
15.18001268074825
 10
194.5990769715186
 20
15.16349132665012
 10
194.6107989758707
 20
15.2147372047706
 10
194.6032830189122
 20
15.25950333784092
 10
194.6107989878835
 20
15.30426944897963
 10
194.5990769505347
 20
15.35551536129743
 10
194.6640326339199
 20
15.33899381766817
 10
194.7306533339822
 20
15.35020571373946
 10
194.8451352858063
 20
15.34485436710666
 10
194.9615454436962
 20
15.3479118877112
 10
195.0757660174641
 20
15.3427849901071
 10
195.1430150439227
 20
15.353457333556
 10
195.2083325941438
 20
15.33742082669079
 10
195.1941391448553
 20
15.39949685750056
 10
195.2036059462994
 20
15.46586761628765
 10
195.1990269004085
 20
15.58239972741968
 10
195.2007696555948
 20
15.71426685022378
 10
195.1997551495391
 20
15.85615960150275
 10
195.2017191344373
 20
15.98769050702582
 10
195.1964668553851
 20
16.10524577283005
 10
195.2073408763474
 20
16.16947789001586
 10
195.1919536641853
 20
16.23108802545049
 10
195.2407591537801
 20
16.21702407382114
 10
195.2853995564725
 20
16.21954742075317
 10
195.3538643946741
 20
16.21512797401712
 10
195.3959106169102
 20
16.20613025544037
 10
195.4487544758773
 20
16.21411714866513
 10
195.4207035002014
 20
16.17113917611672
 10
195.3749142248594
 20
16.18259552043833
 10
195.3869539073265
 20
16.12173520005134
 10
195.3796086070641
 20
16.05769299468771
 10
195.3831195826162
 20
15.94909368863909
 10
195.3819806760173
 20
15.82494319144752
 10
195.3819174780263
 20
15.69189719829878
 10
195.3832872966867
 20
15.56797381249556
 10
195.3791638801313
 20
15.4586833784934
 10
195.3877763103564
 20
15.39608580094172
 10
195.3746757454401
 20
15.33740133296367
 10
195.4393884328198
 20
15.35362113810904
 10
195.5060405953156
 20
15.34270260383314
 10
195.6198779541102
 20
15.34793740173757
 10
195.7357259122097
 20
15.34485547516916
 10
195.849692426328
 20
15.35018259812513
 10
195.9160341018099
 20
15.33904208166545
 10
195.980718852548
 20
15.3554697959318
 10
195.9689820772722
 20
15.30425925210052
 10
195.976516806304
 20
15.25950334121002
 10
195.9689820992258
 20
15.21474739010028
 10
195.9807188140736
 20
15.16353690871041
 10
195.9160344075252
 20
15.1799642779422
 10
195.8496886430824
 20
15.1688278444727
 10
195.7357459487012
 20
15.17413115893121
 10
195.6197995623054
 20
15.17114764593545
 10
195.5062756882123
 20
15.17606892268394
 10
195.4389231318804
 20
15.1658508751352
 10
195.3734285122495
 20
15.18145996138816
 10
195.3891713619218
 20
15.11463851827411
 10
195.3783275998212
 20
15.04207057815878
 10
195.3836581629793
 20
14.91162247614415
 10
195.3817136151854
 20
14.76064558185223
 10
195.3823133683215
 20
14.59322243934155
 10
195.3821506559604
 20
14.42656176118367
 10
195.3821895488136
 20
14.2736014292163
 10
195.3821816413099
 20
14.14849178985699
 10
195.3821828382744
 20
14.06507890991413
 10
195.3821827716209
 20
14.02491778281969
 10
195.3821827564383
 20
14.0141051738575
 97
        1
330
B5
 75
     1
 76
     2
 52
45.0
 41
0.1
 77
     0
 78
     1
 53
45.0
 43
0.0
 44
0.0
 45
-0.282842712474619
 46
0.0
 79
     0
 98
        1
 10
0.0
 20
0.0
  0
HATCH
  5
D3
330
48
100
AcDbEntity
  8
1
  6
Continuous
 62
     2
100
AcDbHatch
 10
0.0
 20
0.0
 30
0.0
210
0.0
220
0.0
230
1.0
  2
CUSTOM13
 70
     0
 71
     1
 91
        1
 92
        1
 93
        3
 72
     4
 94
        3
 73
     0
 74
     0
 95
       24
 96
       20
 40
0.0
 40
0.0
 40
0.0
 40
0.0
 40
0.2211075008754735
 40
0.4273218586245995
 40
0.5080174679240135
 40
0.5914835907871029
 40
0.8143265690193737
 40
1.054651302686691
 40
1.295452694023252
 40
1.518109231328855
 40
1.540864321905469
 40
1.595126460622726
 40
1.659890947896037
 40
1.714153085187392
 40
1.73690817496169
 40
1.764951100735396
 40
1.801562291220982
 40
1.953914424543712
 40
2.126104167379793
 40
2.126104167379793
 40
2.126104167379793
 40
2.126104167379793
 10
185.9375369556889
 20
15.58989295113022
 10
185.9112579081811
 20
15.53097628234378
 10
185.8604698894426
 20
15.41711139679261
 10
185.8131784839111
 20
15.14441958233113
 10
185.7043482802618
 20
15.24445482575456
 10
185.5514800279637
 20
15.27118593367332
 10
185.7686155181199
 20
15.48518135017636
 10
185.7838483674381
 20
15.7033211778249
 10
185.8906889492
 20
15.88451579066429
 10
185.8305380947078
 20
16.16913226311395
 10
185.9334317395402
 20
16.14114089222448
 10
185.977993346815
 20
16.13243251602299
 10
186.0380842395397
 20
16.12139654183356
 10
186.0756619587438
 20
16.10767523055561
 10
186.1252466928606
 20
16.10756076160226
 10
186.0930158919325
 20
16.07306592398623
 10
186.0171802221882
 20
16.08404104537971
 10
186.0429447159692
 20
15.89858969582449
 10
186.005589676385
 20
15.80702313549586
 10
185.9857704961609
 20
15.75844135397702
 72
     4
 94
        3
 73
     0
 74
     0
 95
       70
 96
       66
 40
0.0
 40
0.0
 40
0.0
 40
0.0
 40
0.0241731073021472
 40
0.0846058988987013
 40
0.1631685280353284
 40
0.2417311571789756
 40
0.3021639488292751
 40
0.3263370654895541
 40
0.3533118254248881
 40
0.4228783438922094
 40
0.5179999095313402
 40
0.6216398239466084
 40
0.7167613891499688
 40
0.7863279069649846
 40
0.8133026791761818
 40
0.8372943998771654
 40
0.8945054261372845
 40
0.9627895541962608
 40
1.02000058034907
 40
1.043992300975168
 40
1.071934345522892
 40
1.113121768772915
 40
1.145225199332239
 40
1.225483775412778
 40
1.329819923771488
 40
1.43415607199438
 40
1.514414647795803
 40
1.546518078208411
 40
1.578974764260184
 40
1.662678849314179
 40
1.7771313736684
 40
1.90183337747479
 40
2.01628590050058
 40
2.099989982527947
 40
2.132446666570306
 40
2.15878235448603
 40
2.216720867907819
 40
2.27465938133424
 40
2.300995069256176
 40
2.333451754066148
 40
2.417155836543829
 40
2.531608358985268
 40
2.656310362283763
 40
2.770762886388896
 40
2.854466971340061
 40
2.886923657363867
 40
2.913597976833298
 40
2.982389642875091
 40
3.076451716946946
 40
3.178937260458548
 40
3.272999334739939
 40
3.341791001059155
 40
3.368465320663462
 40
3.396976080738683
 40
3.472140811845919
 40
3.578408190308609
 40
3.700226892456017
 40
3.822045594634234
 40
3.928312973256312
 40
4.003477705314682
 40
4.031988456866747
 40
4.058324144797549
 40
4.116262658236716
 40
4.174201171400522
 40
4.200536849608458
 40
4.200536849608458
 40
4.200536849608458
 40
4.200536849608458
 10
185.9857704961609
 20
15.75844135397702
 10
185.9938259544679
 20
15.75844359811683
 10
186.0220200663241
 20
15.75845146032794
 10
186.0765534803672
 20
15.75830754828368
 10
186.1482891808604
 20
15.75909120499895
 10
186.2236240137062
 20
15.75627570463808
 10
186.2713052366438
 20
15.76298403400954
 10
186.3195071245616
 20
15.7519756369243
 10
186.3062571799873
 20
15.8054640299703
 10
186.3151093964538
 20
15.86049583543088
 10
186.3108698036285
 20
15.95419908726106
 10
186.313348348128
 20
16.04959482218529
 10
186.3090938706059
 20
16.14356821983384
 10
186.3179818665846
 20
16.19795062438009
 10
186.3046977409945
 20
16.25233997691457
 10
186.3514119277108
 20
16.23842216335355
 10
186.3943254545736
 20
16.24103877374041
 10
186.4605443456685
 20
16.23648422450754
 10
186.5013342271799
 20
16.22778162134161
 10
186.5525145690819
 20
16.23531799890195
 10
186.52537204872
 20
16.19349970223286
 10
186.4803096055707
 20
16.20284992072594
 10
186.4942065045051
 20
16.13841207371836
 10
186.4858414431653
 20
16.07378219627396
 10
186.4903632178399
 20
15.97529141193885
 10
186.4854741311167
 20
15.87595932842567
 10
186.4950258992081
 20
15.81293115552965
 10
186.47997614552
 20
15.74964011499786
 10
186.5449159457209
 20
15.76515072944266
 10
186.6116246399496
 20
15.75499387697809
 10
186.7241435470828
 20
15.75988800099364
 10
186.8390235448954
 20
15.7569120473278
 10
186.9519871999747
 20
15.76221664184988
 10
187.0176267597678
 20
15.75107306472086
 10
187.0816276691053
 20
15.76744532319854
 10
187.0703142889189
 20
15.71761689905272
 10
187.0775339871509
 20
15.67416715212119
 10
187.0703142611269
 20
15.63071745587442
 10
187.0816277175994
 20
15.58088895196873
 10
187.0176263598972
 20
15.59726166091359
 10
186.9519921240459
 20
15.58611271661585
 10
186.838997431733
 20
15.59144857206851
 10
186.7242456548644
 20
15.58834345663819
 10
186.611318368686
 20
15.59364894682585
 10
186.5455220903584
 20
15.58257300019591
 10
186.4816097975358
 20
15.59887597847614
 10
186.4936015165126
 20
15.54423524395739
 10
186.4862104613005
 20
15.4885429504784
 10
186.4892684841983
 20
15.39649689140569
 10
186.4893422785683
 20
15.30179109873102
 10
186.486031357836
 20
15.20952782902267
 10
186.4939505989903
 20
15.15435768736141
 10
186.4815076611617
 20
15.10058169100139
 10
186.5389116551631
 20
15.11453768862784
 10
186.5994708140383
 20
15.10511457884229
 10
186.7048680855081
 20
15.10942885928708
 10
186.8204294070622
 20
15.10835504612034
 10
186.9359688877797
 20
15.10725965900998
 10
187.041418113084
 20
15.11162525770635
 10
187.1018680471803
 20
15.10209426030674
 10
187.1592837739109
 20
15.11617289606382
 10
187.1477773876708
 20
15.06707153265685
 10
187.1537566781748
 20
15.02564658018651
 10
187.1520311050801
 20
14.97651677966697
 10
187.152150012297
 20
14.94854428447609
 10
187.1521871691832
 20
14.93980288195951
 72
     4
 94
        3
 73
     0
 74
     0
 95
       62
 96
       58
 40
0.0
 40
0.0
 40
0.0
 40
0.0
 40
0.0598250028308769
 40
0.2024846486897331
 40
0.3727558389220746
 40
0.515415484793607
 40
0.5752404975785339
 40
0.9332326775487246
 40
1.29045176283948
 40
1.602077253145908
 40
1.699931634112206
 40
1.79935975642511
 40
2.27012014965721
 40
2.804661928461599
 40
2.882342287383308
 40
3.076543185719158
 40
3.329004354835618
 40
3.581465524568443
 40
3.775666424543724
 40
3.853346784558344
 40
3.899120679595089
 40
3.984129341792087
 40
4.029903236817436
 40
4.105797496059598
 40
4.29553314415257
 40
4.542189486611829
 40
4.788845828875793
 40
4.978581476410191
 40
5.05447573524444
 40
5.621734664339541
 40
6.130867242037531
 40
6.225249780948837
 40
6.318913039727553
 40
6.66357995455919
 40
7.047498900225065
 40
7.435230791575971
 40
7.498943906668354
 40
7.650875181210348
 40
7.832212509001802
 40
7.984143783697188
 40
8.047856898903316
 40
8.091554632732826
 40
8.172707566964494
 40
8.216405300768221
 40
8.289021782161106
 40
8.462184160757479
 40
8.66886183800556
 40
8.842024215264152
 40
8.914640695475347
 40
8.989881580861542
 40
9.15541152882743
 40
9.320941477744194
 40
9.396182352487436
 40
9.454709011143983
 40
9.583467660170918
 40
9.712226309013197
 40
9.77075295798965
 40
9.77075295798965
 40
9.77075295798965
 40
9.77075295798965
 10
187.1521871691832
 20
14.93980288195951
 10
187.1322348171622
 20
14.93980875568672
 10
187.0647037716465
 20
14.93982863806158
 10
186.9410612161787
 20
14.93949362520326
 10
186.7863180150056
 20
14.94107673750513
 10
186.6697349482479
 20
14.93686078860496
 10
186.455094263424
 20
14.95215205331627
 10
186.8518948407227
 20
14.59198721286193
 10
186.8945656069267
 20
14.37510503397167
 10
187.3189162146611
 20
14.19325062511451
 10
187.1439821496074
 20
14.08985196568075
 10
187.0194523925084
 20
13.8783152321272
 10
186.7666277235942
 20
14.34806081001561
 10
186.4797602893626
 20
14.99511516984518
 10
186.490633592666
 20
14.68782672154694
 10
186.4882892777959
 20
14.52288616971777
 10
186.4861096126411
 20
14.28879670711693
 10
186.4980774396346
 20
14.04498072421783
 10
186.468798474063
 20
13.89855796860985
 10
186.511452262547
 20
13.75113490174538
 10
186.4239814005639
 20
13.7668579730622
 10
186.3768527606744
 20
13.76694303543455
 10
186.2898973207713
 20
13.75109425482909
 10
186.3313474021721
 20
13.89527771422763
 10
186.3029875004286
 20
14.03855052698457
 10
186.3145973775299
 20
14.27674947365268
 10
186.3124175648272
 20
14.50517235240352
 10
186.3103111127993
 20
14.66705729376
 10
186.3208035438325
 20
14.98153709333763
 10
186.0128963252892
 20
14.29229470872444
 10
185.7055258267455
 20
13.81476750243047
 10
185.5851367066274
 20
14.03741112637431
 10
185.4074607910721
 20
14.15011034955561
 10
185.8853326362894
 20
14.32548143465463
 10
185.9353959057208
 20
14.56091929252027
 10
186.3583799621717
 20
14.95322989344609
 10
186.1276754273539
 20
14.93655307029066
 10
186.0049685859341
 20
14.94269518948772
 10
185.8325483095661
 20
14.93312822699574
 10
185.7213224694449
 20
14.95448818489667
 10
185.6025779627448
 20
14.92136265357421
 10
185.6183169706686
 20
15.00203900606885
 10
185.6178550933763
 20
15.04645414290856
 10
185.6027881889931
 20
15.12967081778536
 10
185.7372380935444
 20
15.09062651983886
 10
185.8619755545747
 20
15.11739729328425
 10
186.062875523728
 20
15.10063949044055
 10
186.1921540949352
 20
15.12204225913007
 10
186.3328419928295
 20
15.08868778853424
 10
186.2980927452615
 20
15.22651875785069
 10
186.3222185666713
 20
15.34963257349481
 10
186.2967086182392
 20
15.47024055670334
 10
186.3333251146685
 20
15.60539865141492
 10
186.2211417027769
 20
15.58094545781888
 10
186.1280356457136
 20
15.59307749842019
 10
186.0191547579819
 20
15.58957630069991
 10
185.9569697640964
 20
15.589817559516
 10
185.9375369557246
 20
15.58989295124141
 97
        3
330
B7
330
B8
330
B6
 75
     1
 76
     2
 52
45.0
 41
0.1
 77
     0
 78
     1
 53
45.0
 43
0.0
 44
0.0
 45
-0.282842712474619
 46
0.0
 79
     0
 98
        1
 10
0.0
 20
0.0
  0
HATCH
  5
D4
330
48
100
AcDbEntity
  8
1
  6
Continuous
 62
     2
100
AcDbHatch
 10
0.0
 20
0.0
 30
0.0
210
0.0
220
0.0
230
1.0
  2
CUSTOM14
 70
     0
 71
     1
 91
        1
 92
        1
 93
        4
 72
     1
 10
192.4578138032671
 20
15.2287543402206
 11
191.1602971697031
 21
15.2287543402206
 72
     1
 10
191.1602971697031
 20
15.2287543402206
 11
191.1602971697031
 21
15.3972233679562
 72
     1
 10
191.1602971697031
 20
15.3972233679562
 11
192.4578138032671
 21
15.3972233679562
 72
     1
 10
192.4578138032671
 20
15.3972233679562
 11
192.4578138032671
 21
15.2287543402206
 97
        1
330
B9
 75
     1
 76
     2
 52
45.0
 41
0.1
 77
     0
 78
     1
 53
45.0
 43
0.0
 44
0.0
 45
-0.282842712474619
 46
0.0
 79
     0
 98
        1
 10
0.0
 20
0.0
  0
ENDBLK
  5
4A
330
48
100
AcDbEntity
  8
0
100
AcDbBlockEnd
  0
BLOCK
  5
4D
330
4B
100
AcDbEntity
  8
0
100
AcDbBlockBegin
  2
開示A4枠
 70
     0
 10
0.0
 20
0.0
 30
0.0
  3
開示A4枠
  1

  0
INSERT
  5
4C
330
4B
100
AcDbEntity
  8
1
100
AcDbBlockReference
  2
開示A4
 10
0.0
 20
0.0
 30
0.0
  0
ENDBLK
  5
4E
330
4B
100
AcDbEntity
  8
0
100
AcDbBlockEnd
  0
BLOCK
  5
50
330
4F
100
AcDbEntity
  8
0
100
AcDbBlockBegin
  2
T171-86-1
 70
     0
 10
103.9833333333333
 20
103.3866370922036
 30
0.0
  3
T171-86-1
  1

  0
LINE
  5
D5
330
4F
100
AcDbEntity
  8
0
  6
Continuous
 62
     7
100
AcDbLine
 10
120.9000000000001
 20
199.4034211355834
 30
0.0
 11
120.9000000000001
 21
194.5698530488233
 31
0.0
  0
LINE
  5
D6
330
4F
100
AcDbEntity
  8
0
  6
Continuous
 62
     7
100
AcDbLine
 10
120.9000000000001
 20
192.2034211355834
 30
0.0
 11
120.9000000000001
 21
189.2212245388573
 31
0.0
  0
LINE
  5
D7
330
4F
100
AcDbEntity
  8
0
  6
Continuous
 62
     7
100
AcDbLine
 10
120.9000000000001
 20
189.2212245388573
 30
0.0
 11
120.9000000000001
 21
187.3698530488232
 31
0.0
  0
LINE
  5
D8
330
4F
100
AcDbEntity
  8
0
  6
Continuous
 62
     7
100
AcDbLine
 10
120.9000000000001
 20
185.0034211355834
 30
0.0
 11
120.9000000000001
 21
180.1698530488233
 31
0.0
  0
LINE
  5
D9
330
4F
100
AcDbEntity
  8
0
  6
Continuous
 62
     7
100
AcDbLine
 10
120.9000000000001
 20
177.8034211355835
 30
0.0
 11
120.9000000000001
 21
172.9698530488232
 31
0.0
  0
LINE
  5
DA
330
4F
100
AcDbEntity
  8
0
  6
Continuous
 62
     7
100
AcDbLine
 10
120.9000000000001
 20
170.6034211355834
 30
0.0
 11
120.9000000000001
 21
165.7698530488233
 31
0.0
  0
LINE
  5
DB
330
4F
100
AcDbEntity
  8
0
  6
Continuous
 62
     7
100
AcDbLine
 10
120.9000000000001
 20
163.4034211355835
 30
0.0
 11
120.9000000000001
 21
158.5698530488234
 31
0.0
  0
LINE
  5
DC
330
4F
100
AcDbEntity
  8
0
  6
Continuous
 62
     7
100
AcDbLine
 10
104.1
 20
162.1698530488233
 30
0.0
 11
104.1
 21
167.0034211355834
 31
0.0
  0
LINE
  5
DD
330
4F
100
AcDbEntity
  8
0
  6
Continuous
 62
     7
100
AcDbLine
 10
104.1
 20
169.3698530488233
 30
0.0
 11
104.1
 21
174.2034211355834
 31
0.0
  0
LINE
  5
DE
330
4F
100
AcDbEntity
  8
0
  6
Continuous
 62
     7
100
AcDbLine
 10
104.1
 20
176.5698530488233
 30
0.0
 11
104.1
 21
181.4034211355834
 31
0.0
  0
LINE
  5
DF
330
4F
100
AcDbEntity
  8
0
  6
Continuous
 62
     7
100
AcDbLine
 10
104.1
 20
183.7698530488232
 30
0.0
 11
104.1
 21
187.0093924190923
 31
0.0
  0
LINE
  5
E0
330
4F
100
AcDbEntity
  8
0
  6
Continuous
 62
     7
100
AcDbLine
 10
104.1
 20
190.9698530488232
 30
0.0
 11
104.1
 21
195.8034211355835
 31
0.0
  0
LINE
  5
E1
330
4F
100
AcDbEntity
  8
0
  6
Continuous
 62
     7
100
AcDbLine
 10
104.1
 20
187.0093924190923
 30
0.0
 11
104.1
 21
188.6034211355834
 31
0.0
  0
LINE
  5
E2
330
4F
100
AcDbEntity
  8
0
  6
Continuous
 62
     7
100
AcDbLine
 10
104.1
 20
198.1698530488233
 30
0.0
 11
104.1
 21
200.5866370922033
 31
0.0
  0
LINE
  5
E3
330
4F
100
AcDbEntity
  8
0
  6
Continuous
 62
     7
100
AcDbLine
 10
120.9000000000001
 20
156.2034211355836
 30
0.0
 11
120.9000000000001
 21
154.505567369907
 31
0.0
  0
LINE
  5
E4
330
4F
100
AcDbEntity
  8
0
  6
Continuous
 62
     7
100
AcDbLine
 10
104.1
 20
154.9698530488233
 30
0.0
 11
104.1
 21
159.8034211355835
 31
0.0
  0
LINE
  5
E5
330
4F
100
AcDbEntity
  8
0
  6
Continuous
 62
     7
100
AcDbLine
 10
120.9000000000001
 20
149.0034211355835
 30
0.0
 11
120.9000000000001
 21
144.1698530488233
 31
0.0
  0
LINE
  5
E6
330
4F
100
AcDbEntity
  8
0
  6
Continuous
 62
     7
100
AcDbLine
 10
104.1
 20
140.5698530488234
 30
0.0
 11
104.1
 21
145.4034211355835
 31
0.0
  0
LINE
  5
E7
330
4F
100
AcDbEntity
  8
0
  6
Continuous
 62
     7
100
AcDbLine
 10
120.9000000000001
 20
141.8034211355835
 30
0.0
 11
120.9000000000001
 21
136.9698530488233
 31
0.0
  0
LINE
  5
E8
330
4F
100
AcDbEntity
  8
0
  6
Continuous
 62
     7
100
AcDbLine
 10
104.1
 20
133.3698530488234
 30
0.0
 11
104.1
 21
138.2034211355836
 31
0.0
  0
LINE
  5
E9
330
4F
100
AcDbEntity
  8
0
  6
Continuous
 62
     7
100
AcDbLine
 10
104.1
 20
126.1698530488233
 30
0.0
 11
104.1
 21
131.0034211355835
 31
0.0
  0
LINE
  5
EA
330
4F
100
AcDbEntity
  8
0
  6
Continuous
 62
     7
100
AcDbLine
 10
120.9000000000001
 20
134.6034211355835
 30
0.0
 11
120.9000000000001
 21
129.7698530488233
 31
0.0
  0
LINE
  5
EB
330
4F
100
AcDbEntity
  8
0
  6
Continuous
 62
     7
100
AcDbLine
 10
120.9000000000001
 20
127.4034211355835
 30
0.0
 11
120.9000000000001
 21
122.5698530488234
 31
0.0
  0
LINE
  5
EC
330
4F
100
AcDbEntity
  8
0
  6
Continuous
 62
     7
100
AcDbLine
 10
104.1
 20
118.9698530488233
 30
0.0
 11
104.1
 21
123.8034211355835
 31
0.0
  0
LINE
  5
ED
330
4F
100
AcDbEntity
  8
0
  6
Continuous
 62
     7
100
AcDbLine
 10
120.9000000000001
 20
120.2034211355836
 30
0.0
 11
120.9000000000001
 21
115.3698530488234
 31
0.0
  0
LINE
  5
EE
330
4F
100
AcDbEntity
  8
0
  6
Continuous
 62
     7
100
AcDbLine
 10
120.9000000000001
 20
113.0034211355835
 30
0.0
 11
120.9000000000001
 21
108.1698530488234
 31
0.0
  0
LINE
  5
EF
330
4F
100
AcDbEntity
  8
0
  6
Continuous
 62
     7
100
AcDbLine
 10
120.9000000000001
 20
105.8034211355835
 30
0.0
 11
120.9000000000001
 21
103.3866370922034
 31
0.0
  0
LINE
  5
F0
330
4F
100
AcDbEntity
  8
0
  6
Continuous
 62
     7
100
AcDbLine
 10
104.1
 20
104.5698530488234
 30
0.0
 11
104.1
 21
109.4034211355835
 31
0.0
  0
LINE
  5
F1
330
4F
100
AcDbEntity
  8
0
  6
Continuous
 62
     7
100
AcDbLine
 10
104.1
 20
111.7698530488233
 30
0.0
 11
104.1
 21
116.6034211355835
 31
0.0
  0
LINE
  5
F2
330
4F
100
AcDbEntity
  8
1
  6
Continuous
 62
     7
100
AcDbLine
 10
120.9000000000001
 20
103.3866370922034
 30
0.0
 11
102.7
 21
103.3866370922034
 31
0.0
  0
LINE
  5
F3
330
4F
100
AcDbEntity
  8
1
  6
Continuous
 62
     7
100
AcDbLine
 10
122.3000000000001
 20
200.5866370922033
 30
0.0
 11
104.1
 21
200.5866370922033
 31
0.0
  0
LINE
  5
F4
330
4F
100
AcDbEntity
  8
0
  6
Continuous
 62
     7
100
AcDbLine
 10
104.1
 20
147.7698530488233
 30
0.0
 11
104.1
 21
149.883952280016
 31
0.0
  0
LINE
  5
F5
330
4F
100
AcDbEntity
  8
0
  6
Continuous
 62
     7
100
AcDbLine
 10
120.9000000000001
 20
152.505567369907
 30
0.0
 11
120.9000000000001
 21
151.3698530488233
 31
0.0
  0
LINE
  5
F6
330
4F
100
AcDbEntity
  8
0
  6
Continuous
 62
     7
100
AcDbLine
 10
104.1
 20
151.883952280016
 30
0.0
 11
104.1
 21
152.6034211355835
 31
0.0
  0
CIRCLE
  5
F7
330
4F
100
AcDbEntity
  8
1
  6
Continuous
 62
     7
100
AcDbCircle
 10
112.5
 20
234.269807922374
 30
0.0
 40
7.600000000000023
  0
CIRCLE
  5
F8
330
4F
100
AcDbEntity
  8
1
  6
Continuous
 62
     7
100
AcDbCircle
 10
112.5
 20
234.269807922374
 30
0.0
 40
8.400000000000006
  0
SPLINE
  5
F9
330
4F
100
AcDbEntity
  8
0
  6
Continuous
 62
     2
100
AcDbSpline
210
0.0
220
0.0
230
1.0
 70
     8
 71
     3
 72
    10
 73
     6
 74
     4
 42
0.000000001
 43
0.0000000001
 44
0.00000001
 40
0.0
 40
0.0
 40
0.0
 40
0.0
 40
5.675101260509703
 40
12.10139532817734
 40
18.51395457760169
 40
18.51395457760169
 40
18.51395457760169
 40
18.51395457760169
 10
104.1
 20
149.883952280016
 30
0.0
 10
105.9242421354699
 20
150.8259555634561
 30
0.0
 10
109.8141947996213
 20
152.8346517072887
 30
0.0
 10
115.6356350808155
 20
147.1593910748544
 30
0.0
 10
119.1464636395582
 20
150.7247799989563
 30
0.0
 10
120.9000000000001
 20
152.505567369907
 30
0.0
 11
104.1
 21
149.883952280016
 31
0.0
 11
109.5540663201061
 21
151.4523702510473
 31
0.0
 11
115.5081322701593
 21
149.0344467193337
 31
0.0
 11
120.9000000000001
 21
152.505567369907
 31
0.0
  0
SPLINE
  5
FA
330
4F
100
AcDbEntity
  8
0
  6
Continuous
 62
     2
100
AcDbSpline
210
0.0
220
0.0
230
1.0
 70
     8
 71
     3
 72
    10
 73
     6
 74
     4
 42
0.000000001
 43
0.0000000001
 44
0.00000001
 40
0.0
 40
0.0
 40
0.0
 40
0.0
 40
5.675101260509695
 40
12.10139532817733
 40
18.51395457760167
 40
18.51395457760167
 40
18.51395457760167
 40
18.51395457760167
 10
104.1
 20
151.883952280016
 30
0.0
 10
105.9242421354699
 20
152.8259555634561
 30
0.0
 10
109.8141947996212
 20
154.8346517072886
 30
0.0
 10
115.6356350808155
 20
149.1593910748544
 30
0.0
 10
119.1464636395582
 20
152.7247799989563
 30
0.0
 10
120.9000000000001
 20
154.505567369907
 30
0.0
 11
104.1
 21
151.883952280016
 31
0.0
 11
109.5540663201061
 21
153.4523702510473
 31
0.0
 11
115.5081322701593
 21
151.0344467193337
 31
0.0
 11
120.9000000000001
 21
154.505567369907
 31
0.0
  0
ARC
  5
FB
330
4F
100
AcDbEntity
  8
0
  6
Continuous
 62
     7
100
AcDbCircle
 10
121.0
 20
129.7698530488233
 30
0.0
 40
0.0999999999998948
100
AcDbArc
 50
180.0
 51
279.594068226989
  0
ARC
  5
FC
330
4F
100
AcDbEntity
  8
0
  6
Continuous
 62
     7
100
AcDbCircle
 10
121.0
 20
158.5698530488235
 30
0.0
 40
0.0999999999998948
100
AcDbArc
 50
180.0000000000488
 51
279.5940682269727
  0
ARC
  5
FD
330
4F
100
AcDbEntity
  8
0
  6
Continuous
 62
     7
100
AcDbCircle
 10
121.0
 20
163.4034211355835
 30
0.0
 40
0.1000000000001156
100
AcDbArc
 50
80.40593177301916
 51
180.0
  0
ARC
  5
FE
330
4F
100
AcDbEntity
  8
0
  6
Continuous
 62
     7
100
AcDbCircle
 10
121.0
 20
199.4034211355834
 30
0.0
 40
0.1000000000000315
100
AcDbArc
 50
80.40593177301102
 51
180.0
  0
ARC
  5
FF
330
4F
100
AcDbEntity
  8
0
  6
Continuous
 62
     7
100
AcDbCircle
 10
121.0
 20
194.5698530488233
 30
0.0
 40
0.0999999999998948
100
AcDbArc
 50
180.0
 51
279.5940682269836
  0
ARC
  5
100
330
4F
100
AcDbEntity
  8
0
  6
Continuous
 62
     7
100
AcDbCircle
 10
121.0
 20
192.2034211355834
 30
0.0
 40
0.1000000000000034
100
AcDbArc
 50
80.4059317730083
 51
180.0
  0
ARC
  5
101
330
4F
100
AcDbEntity
  8
0
  6
Continuous
 62
     7
100
AcDbCircle
 10
121.0
 20
187.3698530488232
 30
0.0
 40
0.0999999999998948
100
AcDbArc
 50
180.0
 51
279.5940682270025
  0
ARC
  5
102
330
4F
100
AcDbEntity
  8
0
  6
Continuous
 62
     7
100
AcDbCircle
 10
121.0
 20
185.0034211355834
 30
0.0
 40
0.1000000000000875
100
AcDbArc
 50
80.40593177301645
 51
180.0
  0
ARC
  5
103
330
4F
100
AcDbEntity
  8
0
  6
Continuous
 62
     7
100
AcDbCircle
 10
121.0
 20
180.1698530488233
 30
0.0
 40
0.0999999999998948
100
AcDbArc
 50
180.0
 51
279.5940682269808
  0
ARC
  5
104
330
4F
100
AcDbEntity
  8
0
  6
Continuous
 62
     7
100
AcDbCircle
 10
121.0
 20
177.8034211355835
 30
0.0
 40
0.1000000000000034
100
AcDbArc
 50
80.4059317730083
 51
180.0
  0
ARC
  5
105
330
4F
100
AcDbEntity
  8
0
  6
Continuous
 62
     7
100
AcDbCircle
 10
121.0
 20
172.9698530488232
 30
0.0
 40
0.0999999999998948
100
AcDbArc
 50
180.0
 51
279.594068226989
  0
ARC
  5
106
330
4F
100
AcDbEntity
  8
0
  6
Continuous
 62
     7
100
AcDbCircle
 10
121.0
 20
170.6034211355834
 30
0.0
 40
0.1000000000001156
100
AcDbArc
 50
80.40593177301916
 51
180.0
  0
ARC
  5
107
330
4F
100
AcDbEntity
  8
0
  6
Continuous
 62
     7
100
AcDbCircle
 10
121.0
 20
165.7698530488233
 30
0.0
 40
0.0999999999998948
100
AcDbArc
 50
180.0
 51
279.594068226989
  0
ARC
  5
108
330
4F
100
AcDbEntity
  8
0
  6
Continuous
 62
     7
100
AcDbCircle
 10
121.0
 20
151.3698530488233
 30
0.0
 40
0.0999999999998948
100
AcDbArc
 50
180.0
 51
279.5940682269917
  0
ARC
  5
109
330
4F
100
AcDbEntity
  8
0
  6
Continuous
 62
     7
100
AcDbCircle
 10
121.0
 20
156.2034211355836
 30
0.0
 40
0.1000000000000034
100
AcDbArc
 50
80.4059317730083
 51
180.0
  0
ARC
  5
10A
330
4F
100
AcDbEntity
  8
0
  6
Continuous
 62
     7
100
AcDbCircle
 10
121.0
 20
144.1698530488233
 30
0.0
 40
0.0999999999998948
100
AcDbArc
 50
180.0
 51
279.594068226989
  0
ARC
  5
10B
330
4F
100
AcDbEntity
  8
0
  6
Continuous
 62
     7
100
AcDbCircle
 10
121.0
 20
149.0034211355835
 30
0.0
 40
0.1000000000001156
100
AcDbArc
 50
80.40593177301916
 51
180.0
  0
ARC
  5
10C
330
4F
100
AcDbEntity
  8
0
  6
Continuous
 62
     7
100
AcDbCircle
 10
121.0
 20
136.9698530488233
 30
0.0
 40
0.0999999999998948
100
AcDbArc
 50
180.0
 51
279.5940682269999
  0
ARC
  5
10D
330
4F
100
AcDbEntity
  8
0
  6
Continuous
 62
     7
100
AcDbCircle
 10
121.0
 20
141.8034211355835
 30
0.0
 40
0.1000000000000034
100
AcDbArc
 50
80.4059317730083
 51
180.0
  0
ARC
  5
10E
330
4F
100
AcDbEntity
  8
0
  6
Continuous
 62
     7
100
AcDbCircle
 10
121.0
 20
134.6034211355835
 30
0.0
 40
0.1000000000000315
100
AcDbArc
 50
80.40593177301102
 51
180.0
  0
ARC
  5
10F
330
4F
100
AcDbEntity
  8
0
  6
Continuous
 62
     7
100
AcDbCircle
 10
121.0
 20
122.5698530488234
 30
0.0
 40
0.0999999999998948
100
AcDbArc
 50
180.0
 51
279.5940682269808
  0
ARC
  5
110
330
4F
100
AcDbEntity
  8
0
  6
Continuous
 62
     7
100
AcDbCircle
 10
121.0
 20
127.4034211355835
 30
0.0
 40
0.1000000000000175
100
AcDbArc
 50
80.40593177300966
 51
180.0
  0
ARC
  5
111
330
4F
100
AcDbEntity
  8
0
  6
Continuous
 62
     7
100
AcDbCircle
 10
121.0
 20
115.3698530488234
 30
0.0
 40
0.0999999999998948
100
AcDbArc
 50
180.0
 51
279.5940682269808
  0
ARC
  5
112
330
4F
100
AcDbEntity
  8
0
  6
Continuous
 62
     7
100
AcDbCircle
 10
121.0
 20
120.2034211355836
 30
0.0
 40
0.1000000000000175
100
AcDbArc
 50
80.40593177300966
 51
180.0
  0
ARC
  5
113
330
4F
100
AcDbEntity
  8
0
  6
Continuous
 62
     7
100
AcDbCircle
 10
121.0
 20
108.1698530488234
 30
0.0
 40
0.0999999999998948
100
AcDbArc
 50
180.0
 51
279.5940682269822
  0
ARC
  5
114
330
4F
100
AcDbEntity
  8
0
  6
Continuous
 62
     7
100
AcDbCircle
 10
121.0
 20
113.0034211355835
 30
0.0
 40
0.1000000000002136
100
AcDbArc
 50
80.40593177302866
 51
180.0
  0
ARC
  5
115
330
4F
100
AcDbEntity
  8
0
  6
Continuous
 62
     7
100
AcDbCircle
 10
121.0
 20
105.8034211355835
 30
0.0
 40
0.1000000000000034
100
AcDbArc
 50
80.4059317730083
 51
180.0
  0
ENDBLK
  5
51
330
4F
100
AcDbEntity
  8
0
100
AcDbBlockEnd
  0
BLOCK
  5
53
330
52
100
AcDbEntity
  8
0
100
AcDbBlockBegin
  2
T171-86-2
 70
     0
 10
102.7
 20
103.3866370922036
 30
0.0
  3
T171-86-2
  1

  0
LINE
  5
116
330
52
100
AcDbEntity
  8
0
  6
Continuous
 62
     7
100
AcDbLine
 10
109.5117943915692
 20
103.3866370922036
 30
0.0
 11
121.0166666666669
 21
105.9020224653018
 31
0.0
  0
LINE
  5
117
330
52
100
AcDbEntity
  8
0
  6
Continuous
 62
     7
100
AcDbLine
 10
121.0166666666669
 20
108.071251719105
 30
0.0
 11
104.1
 21
104.5698530488234
 31
0.0
  0
LINE
  5
118
330
52
100
AcDbEntity
  8
0
  6
Continuous
 62
     7
100
AcDbLine
 10
104.1
 20
109.4034211355835
 30
0.0
 11
121.0166666666669
 21
113.102022465302
 31
0.0
  0
LINE
  5
119
330
52
100
AcDbEntity
  8
0
  6
Continuous
 62
     7
100
AcDbLine
 10
121.0166666666669
 20
115.271251719105
 30
0.0
 11
104.1
 21
111.7698530488233
 31
0.0
  0
LINE
  5
11A
330
52
100
AcDbEntity
  8
0
  6
Continuous
 62
     7
100
AcDbLine
 10
104.1
 20
116.6034211355835
 30
0.0
 11
121.0166666666669
 21
120.3020224653019
 31
0.0
  0
LINE
  5
11B
330
52
100
AcDbEntity
  8
0
  6
Continuous
 62
     7
100
AcDbLine
 10
121.0166666666669
 20
122.471251719105
 30
0.0
 11
104.1
 21
118.9698530488233
 31
0.0
  0
LINE
  5
11C
330
52
100
AcDbEntity
  8
0
  6
Continuous
 62
     7
100
AcDbLine
 10
121.0166666666669
 20
129.6712517191051
 30
0.0
 11
104.1
 21
126.1698530488233
 31
0.0
  0
LINE
  5
11D
330
52
100
AcDbEntity
  8
0
  6
Continuous
 62
     7
100
AcDbLine
 10
104.1
 20
123.8034211355835
 30
0.0
 11
121.0166666666669
 21
127.5020224653018
 31
0.0
  0
LINE
  5
11E
330
52
100
AcDbEntity
  8
0
  6
Continuous
 62
     7
100
AcDbLine
 10
104.1
 20
131.0034211355835
 30
0.0
 11
121.0166666666669
 21
134.7020224653018
 31
0.0
  0
LINE
  5
11F
330
52
100
AcDbEntity
  8
0
  6
Continuous
 62
     7
100
AcDbLine
 10
121.0166666666669
 20
136.8712517191051
 30
0.0
 11
104.1
 21
133.3698530488234
 31
0.0
  0
LINE
  5
120
330
52
100
AcDbEntity
  8
0
  6
Continuous
 62
     7
100
AcDbLine
 10
104.1
 20
138.2034211355836
 30
0.0
 11
121.0166666666669
 21
141.9020224653018
 31
0.0
  0
LINE
  5
121
330
52
100
AcDbEntity
  8
0
  6
Continuous
 62
     7
100
AcDbLine
 10
121.0166666666669
 20
144.071251719105
 30
0.0
 11
104.1
 21
140.5698530488234
 31
0.0
  0
LINE
  5
122
330
52
100
AcDbEntity
  8
0
  6
Continuous
 62
     7
100
AcDbLine
 10
121.0166666666669
 20
151.271251719105
 30
0.0
 11
120.0687918557832
 21
151.0750613189618
 31
0.0
  0
LINE
  5
123
330
52
100
AcDbEntity
  8
0
  6
Continuous
 62
     7
100
AcDbLine
 10
104.1
 20
145.4034211355835
 30
0.0
 11
121.0166666666669
 21
149.1020224653019
 31
0.0
  0
LINE
  5
124
330
52
100
AcDbEntity
  8
0
  6
Continuous
 62
     7
100
AcDbLine
 10
113.4566901957601
 20
149.7064935971783
 30
0.0
 11
104.1
 21
147.7698530488233
 31
0.0
  0
LINE
  5
125
330
52
100
AcDbEntity
  8
0
  6
Continuous
 62
     7
100
AcDbLine
 10
104.1
 20
152.6034211355835
 30
0.0
 11
104.8506979477593
 21
152.7675511313154
 31
0.0
  0
LINE
  5
126
330
52
100
AcDbEntity
  8
0
  6
Continuous
 62
     7
100
AcDbLine
 10
108.9077089271617
 20
153.6545619413508
 30
0.0
 11
121.0166666666669
 21
156.3020224653019
 31
0.0
  0
LINE
  5
127
330
52
100
AcDbEntity
  8
0
  6
Continuous
 62
     7
100
AcDbLine
 10
121.0166666666669
 20
158.471251719105
 30
0.0
 11
104.1
 21
154.9698530488233
 31
0.0
  0
LINE
  5
128
330
52
100
AcDbEntity
  8
0
  6
Continuous
 62
     7
100
AcDbLine
 10
104.1
 20
159.8034211355835
 30
0.0
 11
121.0166666666669
 21
163.5020224653019
 31
0.0
  0
LINE
  5
129
330
52
100
AcDbEntity
  8
0
  6
Continuous
 62
     7
100
AcDbLine
 10
121.0166666666669
 20
165.671251719105
 30
0.0
 11
104.1
 21
162.1698530488233
 31
0.0
  0
LINE
  5
12A
330
52
100
AcDbEntity
  8
0
  6
Continuous
 62
     7
100
AcDbLine
 10
104.1
 20
167.0034211355834
 30
0.0
 11
121.0166666666669
 21
170.7020224653018
 31
0.0
  0
LINE
  5
12B
330
52
100
AcDbEntity
  8
0
  6
Continuous
 62
     7
100
AcDbLine
 10
121.0166666666669
 20
172.8712517191049
 30
0.0
 11
104.1
 21
169.3698530488233
 31
0.0
  0
LINE
  5
12C
330
52
100
AcDbEntity
  8
0
  6
Continuous
 62
     7
100
AcDbLine
 10
121.0166666666669
 20
180.0712517191049
 30
0.0
 11
104.1
 21
176.5698530488233
 31
0.0
  0
LINE
  5
12D
330
52
100
AcDbEntity
  8
0
  6
Continuous
 62
     7
100
AcDbLine
 10
104.1
 20
174.2034211355834
 30
0.0
 11
121.0166666666669
 21
177.9020224653018
 31
0.0
  0
LINE
  5
12E
330
52
100
AcDbEntity
  8
0
  6
Continuous
 62
     7
100
AcDbLine
 10
104.1
 20
181.4034211355834
 30
0.0
 11
121.0166666666669
 21
185.1020224653018
 31
0.0
  0
LINE
  5
12F
330
52
100
AcDbEntity
  8
0
  6
Continuous
 62
     7
100
AcDbLine
 10
121.0166666666669
 20
187.271251719105
 30
0.0
 11
104.1
 21
183.7698530488232
 31
0.0
  0
LINE
  5
130
330
52
100
AcDbEntity
  8
0
  6
Continuous
 62
     7
100
AcDbLine
 10
104.1
 20
188.6034211355834
 30
0.0
 11
121.0166666666669
 21
192.3020224653017
 31
0.0
  0
LINE
  5
131
330
52
100
AcDbEntity
  8
0
  6
Continuous
 62
     7
100
AcDbLine
 10
121.0166666666669
 20
194.4712517191049
 30
0.0
 11
104.1
 21
190.9698530488232
 31
0.0
  0
LINE
  5
132
330
52
100
AcDbEntity
  8
0
  6
Continuous
 62
     7
100
AcDbLine
 10
104.1
 20
195.8034211355835
 30
0.0
 11
121.0166666666669
 21
199.5020224653017
 31
0.0
  0
LINE
  5
133
330
52
100
AcDbEntity
  8
0
  6
Continuous
 62
     7
100
AcDbLine
 10
115.776456729759
 20
200.5866370922033
 30
0.0
 11
104.1
 21
198.1698530488233
 31
0.0
  0
ARC
  5
134
330
52
100
AcDbEntity
  8
0
  6
Continuous
 62
     7
100
AcDbCircle
 10
121.2
 20
128.5866370922035
 30
0.0
 40
1.100000000000048
100
AcDbArc
 50
260.4059317731518
 51
0.0
  0
ARC
  5
135
330
52
100
AcDbEntity
  8
0
  6
Continuous
 62
     7
100
AcDbCircle
 10
121.2
 20
128.5866370922035
 30
0.0
 40
1.100000000000094
100
AcDbArc
 50
0.0
 51
99.59406822684885
  0
ARC
  5
136
330
52
100
AcDbEntity
  8
0
  6
Continuous
 62
     7
100
AcDbCircle
 10
103.8000000000001
 20
139.3866370922034
 30
0.0
 40
1.100000000000094
100
AcDbArc
 50
180.0
 51
279.594068226855
  0
ARC
  5
137
330
52
100
AcDbEntity
  8
0
  6
Continuous
 62
     7
100
AcDbCircle
 10
103.8000000000001
 20
139.3866370922034
 30
0.0
 40
1.100000000000107
100
AcDbArc
 50
80.40593177314703
 51
180.0
  0
ARC
  5
138
330
52
100
AcDbEntity
  8
0
  6
Continuous
 62
     7
100
AcDbCircle
 10
103.8000000000001
 20
153.7866370922034
 30
0.0
 40
1.100000000000094
100
AcDbArc
 50
180.0
 51
279.5940682268542
  0
ARC
  5
139
330
52
100
AcDbEntity
  8
0
  6
Continuous
 62
     7
100
AcDbCircle
 10
103.8000000000001
 20
153.7866370922034
 30
0.0
 40
1.099999999999995
100
AcDbArc
 50
80.40593177314605
 51
180.0
  0
ARC
  5
13A
330
52
100
AcDbEntity
  8
0
  6
Continuous
 62
     7
100
AcDbCircle
 10
121.2
 20
150.1866370922035
 30
0.0
 40
1.100000000000094
100
AcDbArc
 50
0.0
 51
99.59406822684983
  0
ARC
  5
13B
330
52
100
AcDbEntity
  8
0
  6
Continuous
 62
     7
100
AcDbCircle
 10
121.2
 20
150.1866370922035
 30
0.0
 40
1.099999999999978
100
AcDbArc
 50
260.4059317731512
 51
0.0
  0
ARC
  5
13C
330
52
100
AcDbEntity
  8
0
  6
Continuous
 62
     7
100
AcDbCircle
 10
121.2
 20
142.9866370922033
 30
0.0
 40
1.099999999999866
100
AcDbArc
 50
260.4059317731501
 51
0.0
  0
ARC
  5
13D
330
52
100
AcDbEntity
  8
0
  6
Continuous
 62
     7
100
AcDbCircle
 10
121.2
 20
142.9866370922033
 30
0.0
 40
1.100000000000094
100
AcDbArc
 50
0.0
 51
99.59406822684811
  0
ARC
  5
13E
330
52
100
AcDbEntity
  8
0
  6
Continuous
 62
     7
100
AcDbCircle
 10
121.2
 20
135.7866370922034
 30
0.0
 40
1.09999999999995
100
AcDbArc
 50
260.4059317731509
 51
0.0
  0
ARC
  5
13F
330
52
100
AcDbEntity
  8
0
  6
Continuous
 62
     7
100
AcDbCircle
 10
121.2
 20
135.7866370922034
 30
0.0
 40
1.100000000000094
100
AcDbArc
 50
0.0
 51
99.59406822684811
  0
ARC
  5
140
330
52
100
AcDbEntity
  8
0
  6
Continuous
 62
     7
100
AcDbCircle
 10
121.2
 20
121.3866370922034
 30
0.0
 40
1.099999999999866
100
AcDbArc
 50
260.4059317731501
 51
0.0
  0
ARC
  5
141
330
52
100
AcDbEntity
  8
0
  6
Continuous
 62
     7
100
AcDbCircle
 10
121.2
 20
121.3866370922034
 30
0.0
 40
1.100000000000094
100
AcDbArc
 50
0.0
 51
99.59406822684898
  0
ARC
  5
142
330
52
100
AcDbEntity
  8
0
  6
Continuous
 62
     7
100
AcDbCircle
 10
121.2
 20
114.1866370922035
 30
0.0
 40
1.100000000000094
100
AcDbArc
 50
0.0
 51
99.59406822684983
  0
ARC
  5
143
330
52
100
AcDbEntity
  8
0
  6
Continuous
 62
     7
100
AcDbCircle
 10
121.2
 20
114.1866370922035
 30
0.0
 40
1.099999999999866
100
AcDbArc
 50
260.4059317731501
 51
0.0
  0
ARC
  5
144
330
52
100
AcDbEntity
  8
0
  6
Continuous
 62
     7
100
AcDbCircle
 10
121.2
 20
106.9866370922033
 30
0.0
 40
1.100000000000094
100
AcDbArc
 50
0.0
 51
99.59406822684798
  0
ARC
  5
145
330
52
100
AcDbEntity
  8
0
  6
Continuous
 62
     7
100
AcDbCircle
 10
121.2
 20
106.9866370922033
 30
0.0
 40
1.099999999999866
100
AcDbArc
 50
260.4059317731501
 51
0.0
  0
ARC
  5
146
330
52
100
AcDbEntity
  8
0
  6
Continuous
 62
     7
100
AcDbCircle
 10
103.8000000000001
 20
110.5866370922035
 30
0.0
 40
1.100000000000094
100
AcDbArc
 50
180.0
 51
279.594068226855
  0
ARC
  5
147
330
52
100
AcDbEntity
  8
0
  6
Continuous
 62
     7
100
AcDbCircle
 10
103.8000000000001
 20
110.5866370922035
 30
0.0
 40
1.099999999999981
100
AcDbArc
 50
80.40593177314594
 51
180.0
  0
ARC
  5
148
330
52
100
AcDbEntity
  8
0
  6
Continuous
 62
     7
100
AcDbCircle
 10
103.8000000000001
 20
117.7866370922034
 30
0.0
 40
1.100000000000094
100
AcDbArc
 50
180.0
 51
279.5940682268539
  0
ARC
  5
149
330
52
100
AcDbEntity
  8
0
  6
Continuous
 62
     7
100
AcDbCircle
 10
103.8000000000001
 20
117.7866370922034
 30
0.0
 40
1.100000000000079
100
AcDbArc
 50
80.40593177314679
 51
180.0
  0
ARC
  5
14A
330
52
100
AcDbEntity
  8
0
  6
Continuous
 62
     7
100
AcDbCircle
 10
103.8000000000001
 20
124.9866370922033
 30
0.0
 40
1.100000000000094
100
AcDbArc
 50
180.0
 51
279.594068226855
  0
ARC
  5
14B
330
52
100
AcDbEntity
  8
0
  6
Continuous
 62
     7
100
AcDbCircle
 10
103.8000000000001
 20
124.9866370922033
 30
0.0
 40
1.100000000000092
100
AcDbArc
 50
80.40593177314692
 51
180.0
  0
ARC
  5
14C
330
52
100
AcDbEntity
  8
0
  6
Continuous
 62
     7
100
AcDbCircle
 10
103.8000000000001
 20
132.1866370922035
 30
0.0
 40
1.100000000000094
100
AcDbArc
 50
180.0
 51
279.5940682268539
  0
ARC
  5
14D
330
52
100
AcDbEntity
  8
0
  6
Continuous
 62
     7
100
AcDbCircle
 10
103.8000000000001
 20
132.1866370922035
 30
0.0
 40
1.099999999999882
100
AcDbArc
 50
80.40593177314506
 51
180.0
  0
ARC
  5
14E
330
52
100
AcDbEntity
  8
0
  6
Continuous
 62
     7
100
AcDbCircle
 10
103.8000000000001
 20
146.5866370922035
 30
0.0
 40
1.100000000000094
100
AcDbArc
 50
180.0
 51
279.5940682268532
  0
ARC
  5
14F
330
52
100
AcDbEntity
  8
0
  6
Continuous
 62
     7
100
AcDbCircle
 10
103.8000000000001
 20
146.5866370922035
 30
0.0
 40
1.099999999999995
100
AcDbArc
 50
80.40593177314605
 51
180.0
  0
ARC
  5
150
330
52
100
AcDbEntity
  8
0
  6
Continuous
 62
     7
100
AcDbCircle
 10
103.8000000000001
 20
160.9866370922034
 30
0.0
 40
1.100000000000094
100
AcDbArc
 50
180.0
 51
279.5940682268539
  0
ARC
  5
151
330
52
100
AcDbEntity
  8
0
  6
Continuous
 62
     7
100
AcDbCircle
 10
103.8000000000001
 20
160.9866370922034
 30
0.0
 40
1.099999999999882
100
AcDbArc
 50
80.40593177314506
 51
180.0
  0
ARC
  5
152
330
52
100
AcDbEntity
  8
0
  6
Continuous
 62
     7
100
AcDbCircle
 10
121.2
 20
164.5866370922035
 30
0.0
 40
1.09999999999995
100
AcDbArc
 50
260.4059317731509
 51
0.0
  0
ARC
  5
153
330
52
100
AcDbEntity
  8
0
  6
Continuous
 62
     7
100
AcDbCircle
 10
121.2
 20
164.5866370922035
 30
0.0
 40
1.100000000000094
100
AcDbArc
 50
0.0
 51
99.59406822684983
  0
ARC
  5
154
330
52
100
AcDbEntity
  8
0
  6
Continuous
 62
     7
100
AcDbCircle
 10
121.2
 20
171.7866370922033
 30
0.0
 40
1.099999999999866
100
AcDbArc
 50
260.4059317731501
 51
0.0
  0
ARC
  5
155
330
52
100
AcDbEntity
  8
0
  6
Continuous
 62
     7
100
AcDbCircle
 10
121.2
 20
171.7866370922033
 30
0.0
 40
1.100000000000094
100
AcDbArc
 50
0.0
 51
99.59406822684909
  0
ARC
  5
156
330
52
100
AcDbEntity
  8
0
  6
Continuous
 62
     7
100
AcDbCircle
 10
103.8000000000001
 20
168.1866370922035
 30
0.0
 40
1.100000000000094
100
AcDbArc
 50
180.0
 51
279.5940682268539
  0
ARC
  5
157
330
52
100
AcDbEntity
  8
0
  6
Continuous
 62
     7
100
AcDbCircle
 10
103.8000000000001
 20
168.1866370922035
 30
0.0
 40
1.099999999999882
100
AcDbArc
 50
80.40593177314506
 51
180.0
  0
ARC
  5
158
330
52
100
AcDbEntity
  8
0
  6
Continuous
 62
     7
100
AcDbCircle
 10
103.8000000000001
 20
175.3866370922034
 30
0.0
 40
1.100000000000094
100
AcDbArc
 50
180.0
 51
279.594068226855
  0
ARC
  5
159
330
52
100
AcDbEntity
  8
0
  6
Continuous
 62
     7
100
AcDbCircle
 10
103.8000000000001
 20
175.3866370922034
 30
0.0
 40
1.09999999999991
100
AcDbArc
 50
80.4059317731453
 51
180.0
  0
ARC
  5
15A
330
52
100
AcDbEntity
  8
0
  6
Continuous
 62
     7
100
AcDbCircle
 10
121.2
 20
178.9866370922033
 30
0.0
 40
1.099999999999866
100
AcDbArc
 50
260.4059317731501
 51
0.0
  0
ARC
  5
15B
330
52
100
AcDbEntity
  8
0
  6
Continuous
 62
     7
100
AcDbCircle
 10
121.2
 20
178.9866370922033
 30
0.0
 40
1.100000000000094
100
AcDbArc
 50
0.0
 51
99.59406822684885
  0
ARC
  5
15C
330
52
100
AcDbEntity
  8
0
  6
Continuous
 62
     7
100
AcDbCircle
 10
103.8000000000001
 20
182.5866370922033
 30
0.0
 40
1.100000000000079
100
AcDbArc
 50
80.40593177314679
 51
279.5940682268542
  0
ARC
  5
15D
330
52
100
AcDbEntity
  8
0
  6
Continuous
 62
     7
100
AcDbCircle
 10
121.2
 20
186.1866370922034
 30
0.0
 40
1.100000000000094
100
AcDbArc
 50
0.0
 51
99.59406822684885
  0
ARC
  5
15E
330
52
100
AcDbEntity
  8
0
  6
Continuous
 62
     7
100
AcDbCircle
 10
103.8000000000001
 20
189.7866370922033
 30
0.0
 40
1.100000000000094
100
AcDbArc
 50
180.0
 51
279.594068226855
  0
ARC
  5
15F
330
52
100
AcDbEntity
  8
0
  6
Continuous
 62
     7
100
AcDbCircle
 10
103.8000000000001
 20
189.7866370922033
 30
0.0
 40
1.099999999999967
100
AcDbArc
 50
80.4059317731458
 51
180.0
  0
ARC
  5
160
330
52
100
AcDbEntity
  8
0
  6
Continuous
 62
     7
100
AcDbCircle
 10
121.2
 20
193.3866370922034
 30
0.0
 40
1.100000000000062
100
AcDbArc
 50
260.4059317731519
 51
0.0
  0
ARC
  5
161
330
52
100
AcDbEntity
  8
0
  6
Continuous
 62
     7
100
AcDbCircle
 10
121.2
 20
193.3866370922034
 30
0.0
 40
1.100000000000094
100
AcDbArc
 50
0.0
 51
99.59406822684959
  0
ARC
  5
162
330
52
100
AcDbEntity
  8
0
  6
Continuous
 62
     7
100
AcDbCircle
 10
121.2
 20
200.5866370922033
 30
0.0
 40
1.09999999999995
100
AcDbArc
 50
260.4059317731509
 51
0.0
  0
ARC
  5
163
330
52
100
AcDbEntity
  8
0
  6
Continuous
 62
     7
100
AcDbCircle
 10
103.8000000000001
 20
196.9866370922033
 30
0.0
 40
1.099999999999994
100
AcDbArc
 50
180.0
 51
279.5940682268542
  0
ARC
  5
164
330
52
100
AcDbEntity
  8
0
  6
Continuous
 62
     7
100
AcDbCircle
 10
121.2
 20
186.1866370922034
 30
0.0
 40
1.099999999999978
100
AcDbArc
 50
260.4059317731512
 51
0.0
  0
ARC
  5
165
330
52
100
AcDbEntity
  8
0
  6
Continuous
 62
     7
100
AcDbCircle
 10
103.8000000000001
 20
103.3866370922036
 30
0.0
 40
1.099999999999784
100
AcDbArc
 50
80.40593177314419
 51
180.0
  0
ARC
  5
166
330
52
100
AcDbEntity
  8
0
  6
Continuous
 62
     7
100
AcDbCircle
 10
121.2
 20
157.3866370922034
 30
0.0
 40
1.099999999999866
100
AcDbArc
 50
260.4059317731501
 51
99.59406822684885
  0
ARC
  5
167
330
52
100
AcDbEntity
  8
0
  6
Continuous
 62
     7
100
AcDbCircle
 10
103.8000000000001
 20
196.9866370922033
 30
0.0
 40
1.099999999999995
100
AcDbArc
 50
80.40593177314605
 51
180.0
  0
CIRCLE
  5
168
330
52
100
AcDbEntity
  8
1
  6
Continuous
 62
     7
100
AcDbCircle
 10
112.5
 20
234.269807922374
 30
0.0
 40
9.799999999999898
  0
ARC
  5
169
330
52
100
AcDbEntity
  8
0
  6
Continuous
 62
     7
100
AcDbCircle
 10
104.0
 20
140.5698530488233
 30
0.0
 40
0.0999999999998582
100
AcDbArc
 50
260.4059317731098
 51
0.00000000006514
  0
ARC
  5
16A
330
52
100
AcDbEntity
  8
0
  6
Continuous
 62
     7
100
AcDbCircle
 10
104.0
 20
138.2034211355836
 30
0.0
 40
0.0999999999999943
100
AcDbArc
 50
0.0
 51
99.59406822687932
  0
ARC
  5
16B
330
52
100
AcDbEntity
  8
0
  6
Continuous
 62
     7
100
AcDbCircle
 10
104.0
 20
118.9698530488233
 30
0.0
 40
0.0999999999998722
100
AcDbArc
 50
260.4059317731111
 51
0.0
  0
ARC
  5
16C
330
52
100
AcDbEntity
  8
0
  6
Continuous
 62
     7
100
AcDbCircle
 10
104.0
 20
116.6034211355835
 30
0.0
 40
0.0999999999999943
100
AcDbArc
 50
0.0
 51
99.59406822687932
  0
ARC
  5
16D
330
52
100
AcDbEntity
  8
0
  6
Continuous
 62
     7
100
AcDbCircle
 10
104.0
 20
111.7698530488233
 30
0.0
 40
0.0999999999998722
100
AcDbArc
 50
260.4059317731111
 51
0.0
  0
ARC
  5
16E
330
52
100
AcDbEntity
  8
0
  6
Continuous
 62
     7
100
AcDbCircle
 10
104.0
 20
109.4034211355835
 30
0.0
 40
0.0999999999999943
100
AcDbArc
 50
0.0
 51
99.59406822685895
  0
ARC
  5
16F
330
52
100
AcDbEntity
  8
0
  6
Continuous
 62
     7
100
AcDbCircle
 10
104.0
 20
104.5698530488234
 30
0.0
 40
0.1000000000000824
100
AcDbArc
 50
260.4059317731316
 51
0.0
  0
ARC
  5
170
330
52
100
AcDbEntity
  8
0
  6
Continuous
 62
     7
100
AcDbCircle
 10
104.0
 20
123.8034211355835
 30
0.0
 40
0.0999999999999943
100
AcDbArc
 50
0.0
 51
99.59406822687932
  0
ARC
  5
171
330
52
100
AcDbEntity
  8
0
  6
Continuous
 62
     7
100
AcDbCircle
 10
104.0
 20
126.1698530488233
 30
0.0
 40
0.0999999999999703
100
AcDbArc
 50
260.4059317731207
 51
0.0
  0
ARC
  5
172
330
52
100
AcDbEntity
  8
0
  6
Continuous
 62
     7
100
AcDbCircle
 10
104.0
 20
131.0034211355835
 30
0.0
 40
0.0999999999999943
100
AcDbArc
 50
0.0
 51
99.59406822686846
  0
ARC
  5
173
330
52
100
AcDbEntity
  8
0
  6
Continuous
 62
     7
100
AcDbCircle
 10
104.0
 20
133.3698530488234
 30
0.0
 40
0.1000000000000544
100
AcDbArc
 50
260.4059317731288
 51
0.0
  0
ARC
  5
174
330
52
100
AcDbEntity
  8
0
  6
Continuous
 62
     7
100
AcDbCircle
 10
104.0
 20
145.4034211355835
 30
0.0
 40
0.0999999999999943
100
AcDbArc
 50
0.0
 51
99.59406822687932
  0
ARC
  5
175
330
52
100
AcDbEntity
  8
0
  6
Continuous
 62
     7
100
AcDbCircle
 10
104.0
 20
147.7698530488233
 30
0.0
 40
0.0999999999998862
100
AcDbArc
 50
260.4059317731126
 51
0.0
  0
ARC
  5
176
330
52
100
AcDbEntity
  8
0
  6
Continuous
 62
     7
100
AcDbCircle
 10
104.0
 20
152.6034211355835
 30
0.0
 40
0.0999999999999943
100
AcDbArc
 50
0.0
 51
99.59406822687659
  0
ARC
  5
177
330
52
100
AcDbEntity
  8
0
  6
Continuous
 62
     7
100
AcDbCircle
 10
104.0
 20
154.9698530488234
 30
0.0
 40
0.1000000000000824
100
AcDbArc
 50
260.4059317731316
 51
359.9999999999349
  0
ARC
  5
178
330
52
100
AcDbEntity
  8
0
  6
Continuous
 62
     7
100
AcDbCircle
 10
104.0
 20
159.8034211355835
 30
0.0
 40
0.0999999999999943
100
AcDbArc
 50
0.0
 51
99.59406822687932
  0
ARC
  5
179
330
52
100
AcDbEntity
  8
0
  6
Continuous
 62
     7
100
AcDbCircle
 10
104.0
 20
162.1698530488233
 30
0.0
 40
0.1000000000000824
100
AcDbArc
 50
260.4059317731316
 51
0.0
  0
ARC
  5
17A
330
52
100
AcDbEntity
  8
0
  6
Continuous
 62
     7
100
AcDbCircle
 10
104.0
 20
167.0034211355834
 30
0.0
 40
0.0999999999999943
100
AcDbArc
 50
0.0
 51
99.5940682268603
  0
ARC
  5
17B
330
52
100
AcDbEntity
  8
0
  6
Continuous
 62
     7
100
AcDbCircle
 10
104.0
 20
169.3698530488233
 30
0.0
 40
0.0999999999999703
100
AcDbArc
 50
260.4059317731207
 51
0.0
  0
ARC
  5
17C
330
52
100
AcDbEntity
  8
0
  6
Continuous
 62
     7
100
AcDbCircle
 10
104.0
 20
174.2034211355834
 30
0.0
 40
0.0999999999999943
100
AcDbArc
 50
0.0
 51
99.5940682268603
  0
ARC
  5
17D
330
52
100
AcDbEntity
  8
0
  6
Continuous
 62
     7
100
AcDbCircle
 10
104.0
 20
176.5698530488233
 30
0.0
 40
0.1000000000000544
100
AcDbArc
 50
260.4059317731288
 51
0.0
  0
ARC
  5
17E
330
52
100
AcDbEntity
  8
0
  6
Continuous
 62
     7
100
AcDbCircle
 10
104.0
 20
181.4034211355834
 30
0.0
 40
0.0999999999999943
100
AcDbArc
 50
0.0
 51
99.59406822687659
  0
ARC
  5
17F
330
52
100
AcDbEntity
  8
0
  6
Continuous
 62
     7
100
AcDbCircle
 10
104.0
 20
183.7698530488232
 30
0.0
 40
0.0999999999998862
100
AcDbArc
 50
260.4059317731126
 51
0.0
  0
ARC
  5
180
330
52
100
AcDbEntity
  8
0
  6
Continuous
 62
     7
100
AcDbCircle
 10
104.0
 20
188.6034211355834
 30
0.0
 40
0.0999999999999943
100
AcDbArc
 50
0.0
 51
99.59406822686846
  0
ARC
  5
181
330
52
100
AcDbEntity
  8
0
  6
Continuous
 62
     7
100
AcDbCircle
 10
104.0
 20
190.9698530488232
 30
0.0
 40
0.0999999999999983
100
AcDbArc
 50
260.4059317731234
 51
0.0
  0
ARC
  5
182
330
52
100
AcDbEntity
  8
0
  6
Continuous
 62
     7
100
AcDbCircle
 10
104.0
 20
195.8034211355835
 30
0.0
 40
0.0999999999999943
100
AcDbArc
 50
0.0
 51
99.59406822688744
  0
ARC
  5
183
330
52
100
AcDbEntity
  8
0
  6
Continuous
 62
     7
100
AcDbCircle
 10
104.0
 20
198.1698530488233
 30
0.0
 40
0.1000000000000824
100
AcDbArc
 50
260.4059317731316
 51
0.0
  0
ENDBLK
  5
54
330
52
100
AcDbEntity
  8
0
100
AcDbBlockEnd
  0
BLOCK
  5
19E
330
197
100
AcDbEntity
  8
0
100
AcDbBlockBegin
  2
*D5
 70
     1
 10
0.0
 20
0.0
 30
0.0
  3
*D5
  1

  0
LINE
  5
198
330
197
100
AcDbEntity
  8
0
  6
Continuous
 62
     2
100
AcDbLine
 10
102.7
 20
211.5866370922033
 30
0.0
 11
122.3000000000001
 21
211.5866370922033
 31
0.0
  0
LINE
  5
199
330
197
100
AcDbEntity
  8
0
  6
Continuous
 62
     2
100
AcDbLine
 10
122.3000000000001
 20
200.5866370922033
 30
0.0
 11
122.3000000000001
 21
212.5866370922033
 31
0.0
  0
LINE
  5
19A
330
197
100
AcDbEntity
  8
0
  6
Continuous
 62
     2
100
AcDbLine
 10
102.7
 20
196.9866370922033
 30
0.0
 11
102.7
 21
212.5866370922033
 31
0.0
  0
SOLID
  5
19B
330
197
100
AcDbEntity
  8
0
 62
     2
100
AcDbTrace
 10
106.2
 20
212.0474208337592
 30
0.0
 11
106.2
 21
211.1258533506474
 31
0.0
 12
102.7
 22
211.5866370922033
 32
0.0
 13
102.7
 23
211.5866370922033
 33
0.0
  0
SOLID
  5
19C
330
197
100
AcDbEntity
  8
0
 62
     2
100
AcDbTrace
 10
118.8000000000001
 20
211.1258533506474
 30
0.0
 11
118.8000000000001
 21
212.0474208337592
 31
0.0
 12
122.3000000000001
 22
211.5866370922033
 32
0.0
 13
122.3000000000001
 23
211.5866370922033
 33
0.0
  0
MTEXT
  5
19D
330
197
100
AcDbEntity
  8
0
 62
     7
100
AcDbMText
 10
109.2108199523278
 20
212.586630135127
 30
0.0
 40
3.5
 41
0.0
 71
     7
 72
     1
  1
\C7;{\Fgdt;n}\C7;20
  7
CONVERTER_12
 11
0.9999999999970619
 21
2.424068405545306E-6
 31
0.0
 73
     1
 44
0.60024009603842
  0
ENDBLK
  5
19F
330
197
100
AcDbEntity
  8
0
100
AcDbBlockEnd
  0
BLOCK
  5
1A9
330
1A2
100
AcDbEntity
  8
0
100
AcDbBlockBegin
  2
*D6
 70
     1
 10
0.0
 20
0.0
 30
0.0
  3
*D6
  1

  0
LINE
  5
1A3
330
1A2
100
AcDbEntity
  8
0
  6
Continuous
 62
     2
100
AcDbLine
 10
131.1726753934857
 20
103.3866370922034
 30
0.0
 11
131.1726753934857
 21
200.5866370922033
 31
0.0
  0
LINE
  5
1A4
330
1A2
100
AcDbEntity
  8
0
  6
Continuous
 62
     2
100
AcDbLine
 10
122.3000000000001
 20
200.5866370922033
 30
0.0
 11
132.1726753934857
 21
200.5866370922033
 31
0.0
  0
LINE
  5
1A5
330
1A2
100
AcDbEntity
  8
0
  6
Continuous
 62
     2
100
AcDbLine
 10
120.9000000000001
 20
103.3866370922034
 30
0.0
 11
132.1726753934857
 21
103.3866370922034
 31
0.0
  0
SOLID
  5
1A6
330
1A2
100
AcDbEntity
  8
0
 62
     2
100
AcDbTrace
 10
130.7118916519298
 20
106.8866370922034
 30
0.0
 11
131.6334591350416
 21
106.8866370922034
 31
0.0
 12
131.1726753934857
 22
103.3866370922034
 32
0.0
 13
131.1726753934857
 23
103.3866370922034
 33
0.0
  0
SOLID
  5
1A7
330
1A2
100
AcDbEntity
  8
0
 62
     2
100
AcDbTrace
 10
131.6334591350416
 20
197.0866370922033
 30
0.0
 11
130.7118916519298
 21
197.0866370922033
 31
0.0
 12
131.1726753934857
 22
200.5866370922033
 32
0.0
 13
131.1726753934857
 23
200.5866370922033
 33
0.0
  0
MTEXT
  5
1A8
330
1A2
100
AcDbEntity
  8
0
 62
     7
100
AcDbMText
 10
130.1726753934857
 20
141.527732516101
 30
0.0
 40
3.5
 41
0.0
 71
     7
 72
     1
  1
30000
  7
CONVERTER_12
 11
0.0
 21
1.0
 31
0.0
 73
     1
 44
0.60024009603842
  0
ENDBLK
  5
1AA
330
1A2
100
AcDbEntity
  8
0
100
AcDbBlockEnd
  0
BLOCK
  5
1B2
330
1AD
100
AcDbEntity
  8
0
100
AcDbBlockBegin
  2
*D7
 70
     1
 10
0.0
 20
0.0
 30
0.0
  3
*D7
  1

  0
LINE
  5
1AE
330
1AD
100
AcDbEntity
  8
0
  6
Continuous
 62
     2
100
AcDbLine
 10
101.274902714913
 20
228.015234320574
 30
0.0
 11
131.2817085743833
 21
244.7348912675406
 31
0.0
  0
SOLID
  5
1AF
330
1AD
100
AcDbEntity
  8
0
 62
     2
100
AcDbTrace
 10
121.9721069290577
 20
240.075108257497
 30
0.0
 11
122.4206681471237
 21
239.270074432384
 31
0.0
 12
119.1389680440981
 22
237.9690109864736
 32
0.0
 13
119.1389680440981
 23
237.9690109864736
 33
0.0
  0
SOLID
  5
1B0
330
1AD
100
AcDbEntity
  8
0
 62
     2
100
AcDbTrace
 10
103.0278930709423
 20
228.464507587251
 30
0.0
 11
102.5793318528763
 21
229.269541412364
 31
0.0
 12
105.8610319559018
 22
230.5706048582744
 32
0.0
 13
105.8610319559018
 23
230.5706048582744
 33
0.0
  0
MTEXT
  5
1B1
330
1AD
100
AcDbEntity
  8
0
 62
     7
100
AcDbMText
 10
124.6189839512421
 20
242.1672073702925
 30
0.0
 40
3.5
 41
0.0
 71
     7
 72
     1
  1
\C7;{\Fgdt;n}\C7;16
  7
CONVERTER_12
 11
0.873548426855016
 21
0.4867372452762648
 31
0.0
 73
     1
 44
0.60024009603842
  0
ENDBLK
  5
1B3
330
1AD
100
AcDbEntity
  8
0
100
AcDbBlockEnd
  0
ENDSEC
  0
SECTION
  2
ENTITIES
  0
INSERT
  5
55
330
1F
100
AcDbEntity
  8
0
100
AcDbBlockReference
  2
開示A4枠
 10
0.0
 20
0.0
 30
0.0
  0
INSERT
  5
56
330
1F
100
AcDbEntity
  8
0
100
AcDbBlockReference
  2
T171-86-1
 10
103.9833333333333
 20
103.3866370922036
 30
0.0
  0
INSERT
  5
57
330
1F
100
AcDbEntity
  8
0
100
AcDbBlockReference
  2
T171-86-2
 10
102.7
 20
103.3866370922036
 30
0.0
  0
LINE
  5
184
330
1F
100
AcDbEntity
  8
0
  6
DASH_CENTER
 62
     2
100
AcDbLine
 10
112.5
 20
202.5866370922033
 30
0.0
 11
112.5
 21
101.3866370922036
 31
0.0
  0
LINE
  5
185
330
1F
100
AcDbEntity
  8
1
  6
DASH_CENTER
 62
     2
100
AcDbLine
 10
125.2999999999998
 20
234.269807922374
 30
0.0
 11
99.70000000000007
 21
234.269807922374
 31
0.0
  0
LINE
  5
186
330
1F
100
AcDbEntity
  8
1
  6
DASH_CENTER
 62
     2
100
AcDbLine
 10
112.5
 20
247.0698079223738
 30
0.0
 11
112.5
 21
221.4698079223741
 31
0.0
  0
MTEXT
  5
188
330
1F
100
AcDbEntity
  8
1
 62
     7
100
AcDbMText
 10
134.75
 20
12.5
 30
0.0
 40
2.5
 41
0.0
 71
     5
 72
     1
  1
23
  7
CONVERTER_12
 73
     1
 44
0.7202881152461
  0
MTEXT
  5
189
330
1F
100
AcDbEntity
  8
1
 62
     7
100
AcDbMText
 10
146.25
 20
12.5
 30
0.0
 40
2.5
 41
0.0
 71
     5
 72
     1
  1
 6
  7
CONVERTER_12
 73
     1
 44
0.7202881152461
  0
MTEXT
  5
18A
330
1F
100
AcDbEntity
  8
1
 62
     7
100
AcDbMText
 10
140.5
 20
12.5
 30
0.0
 40
2.5
 41
0.0
 71
     5
 72
     1
  1
1
  7
CONVERTER_12
 73
     1
 44
0.7202881152461
  0
MTEXT
  5
18B
330
1F
100
AcDbEntity
  8
1
 62
     7
100
AcDbMText
 10
117.75
 20
12.5
 30
0.0
 40
2.5
 41
0.0
 71
     5
 72
     1
  1
23
  7
CONVERTER_12
 73
     1
 44
0.7202881152461
  0
MTEXT
  5
18C
330
1F
100
AcDbEntity
  8
1
 62
     7
100
AcDbMText
 10
129.25
 20
12.5
 30
0.0
 40
2.5
 41
0.0
 71
     5
 72
     1
  1
 6
  7
CONVERTER_12
 73
     1
 44
0.7202881152461
  0
MTEXT
  5
18D
330
1F
100
AcDbEntity
  8
1
 62
     7
100
AcDbMText
 10
123.5
 20
12.5
 30
0.0
 40
2.5
 41
0.0
 71
     5
 72
     1
  1
1
  7
CONVERTER_12
 73
     1
 44
0.7202881152461
  0
MTEXT
  5
18E
330
1F
100
AcDbEntity
  8
1
 62
     7
100
AcDbMText
 10
100.75
 20
12.5
 30
0.0
 40
2.5
 41
0.0
 71
     5
 72
     1
  1
23
  7
CONVERTER_12
 73
     1
 44
0.7202881152461
  0
MTEXT
  5
18F
330
1F
100
AcDbEntity
  8
1
 62
     7
100
AcDbMText
 10
112.25
 20
12.5
 30
0.0
 40
2.5
 41
0.0
 71
     5
 72
     1
  1
 6
  7
CONVERTER_12
 73
     1
 44
0.7202881152461
  0
MTEXT
  5
190
330
1F
100
AcDbEntity
  8
1
 62
     7
100
AcDbMText
 10
106.5
 20
12.5
 30
0.0
 40
2.5
 41
0.0
 71
     5
 72
     1
  1
1
  7
CONVERTER_12
 73
     1
 44
0.7202881152461
  0
MTEXT
  5
191
330
1F
100
AcDbEntity
  8
1
 62
     7
100
AcDbMText
 10
157.5
 20
12.5
 30
0.0
 40
2.5
 41
0.0
 71
     5
 72
     1
  1
7
  7
CONVERTER_12
 73
     1
 44
0.7202881152461
  0
MTEXT
  5
192
330
1F
100
AcDbEntity
  8
1
 62
     7
100
AcDbMText
 10
151.75
 20
12.5
 30
0.0
 40
2.5
 41
0.0
 71
     5
 72
     1
  1
04
  7
CONVERTER_12
 73
     1
 44
0.7202881152461
  0
MTEXT
  5
193
330
1F
100
AcDbEntity
  8
1
 62
     7
100
AcDbMText
 10
93.74999999999997
 20
17.0
 30
0.0
 40
3.5
 41
0.0
 71
     5
 72
     1
  1
1
  7
CONVERTER_12
 73
     1
 44
0.7202881152461
  0
MTEXT
  5
194
330
1F
100
AcDbEntity
  8
1
 62
     7
100
AcDbMText
 10
57.0
 20
22.75
 30
0.0
 40
3.5
 41
0.0
 71
     5
 72
     1
  1
風呂水給水ホース
  7
CONVERTER_11
 73
     1
 44
0.54545454545455
  0
MTEXT
  5
195
330
1F
100
AcDbEntity
  8
1
 62
     7
100
AcDbMText
 10
85.25
 20
17.0
 30
0.0
 40
3.5
 41
0.0
 71
     5
 72
     1
  1
1
  7
CONVERTER_12
 73
     1
 44
0.7202881152461
  0
MTEXT
  5
196
330
1F
100
AcDbEntity
  8
1
 62
     7
100
AcDbMText
 10
57.0
 20
14.25
 30
0.0
 40
3.5
 41
0.0
 71
     5
 72
     1
  1
T171-86
  7
CONVERTER_12
 73
     1
 44
0.7202881152461
  0
DIMENSION
  5
1A1
330
1F
100
AcDbEntity
  8
0
100
AcDbDimension
  2
*D5
 10
102.7
 20
211.5866370922033
 30
0.0
 11
112.6058199523194
 21
214.3366370922033
 31
0.0
 70
    32
  1
{\Fgdt;n}20
 71
     5
 42
-1.0
 53
0.00013888888889
  3
ME10_DIM_10
100
AcDbAlignedDimension
 13
122.3000000000001
 23
200.5866370922033
 33
0.0
 14
102.7000000000001
 24
196.9866370922033
 34
0.0
100
AcDbRotatedDimension
  0
DIMENSION
  5
1AC
330
1F
100
AcDbEntity
  8
0
100
AcDbDimension
  2
*D6
 10
131.1726753934857
 20
103.3866370922034
 30
0.0
 11
128.4226753934857
 21
148.877732516101
 31
0.0
 70
    32
  1
30000
 71
     5
 42
-1.0
 53
90.0
  3
ME10_DIM_11
100
AcDbAlignedDimension
 13
122.3000000000001
 23
200.5866370922033
 33
0.0
 14
120.9000000000001
 24
103.3866370922034
 34
0.0
 50
90.0
100
AcDbRotatedDimension
  0
INSERT
  5
1B4
330
1F
100
AcDbEntity
  8
0
100
AcDbBlockReference
  2
*D7
 10
0.0
 20
0.0
 30
0.0
  0
ENDSEC
  0
SECTION
  2
OBJECTS
  0
DICTIONARY
  5
C
330
0
100
AcDbDictionary
281
     1
  3
ACAD_GROUP
350
D
  3
ACAD_LAYOUT
350
1A
  3
ACAD_MATERIAL
350
3B
  3
ACAD_MLEADERSTYLE
350
1B7
  3
ACAD_MLINESTYLE
350
17
  3
ACAD_PLOTSETTINGS
350
19
  3
ACAD_PLOTSTYLENAME
350
E
  3
ACAD_VISUALSTYLE
350
2A
  3
AcDbVariableDictionary
350
1B5
  0
DICTIONARY
  5
D
102
{ACAD_REACTORS
330
C
102
}
330
C
100
AcDbDictionary
281
     1
  0
DICTIONARY
  5
1A
102
{ACAD_REACTORS
330
C
102
}
330
C
100
AcDbDictionary
281
     1
  3
Layout1
350
1E
  3
Layout2
350
26
  3
Model
350
22
  0
DICTIONARY
  5
3B
102
{ACAD_REACTORS
330
C
102
}
330
C
100
AcDbDictionary
281
     1
  3
ByBlock
350
3D
  3
ByLayer
350
3C
  3
Global
350
3E
  0
DICTIONARY
  5
1B7
102
{ACAD_REACTORS
330
C
102
}
330
C
100
AcDbDictionary
281
     1
  0
DICTIONARY
  5
17
102
{ACAD_REACTORS
330
C
102
}
330
C
100
AcDbDictionary
281
     1
  3
Standard
350
18
  0
DICTIONARY
  5
19
102
{ACAD_REACTORS
330
C
102
}
330
C
100
AcDbDictionary
281
     1
  0
ACDBDICTIONARYWDFLT
  5
E
102
{ACAD_REACTORS
330
C
102
}
330
C
100
AcDbDictionary
281
     1
  3
Normal
350
F
100
AcDbDictionaryWithDefault
340
F
  0
DICTIONARY
  5
2A
102
{ACAD_REACTORS
330
C
102
}
330
C
100
AcDbDictionary
281
     1
  3
2dWireframe
350
2F
  3
3D Hidden
350
31
  3
3dWireframe
350
30
  3
Basic
350
32
  3
Brighten
350
36
  3
ColorChange
350
3A
  3
Conceptual
350
34
  3
Dim
350
35
  3
Facepattern
350
39
  3
Flat
350
2B
  3
FlatWithEdges
350
2C
  3
Gouraud
350
2D
  3
GouraudWithEdges
350
2E
  3
Linepattern
350
38
  3
Realistic
350
33
  3
Thicken
350
37
  0
DICTIONARY
  5
1B5
102
{ACAD_REACTORS
330
C
102
}
330
C
100
AcDbDictionary
281
     1
  3
DIMASSOC
350
1B8
  3
HIDETEXT
350
1B9
  0
LAYOUT
  5
1E
102
{ACAD_REACTORS
330
1A
102
}
330
1A
100
AcDbPlotSettings
  1

  2
none_device
  4

  6

 40
0.0
 41
0.0
 42
0.0
 43
0.0
 44
0.0
 45
0.0
 46
0.0
 47
0.0
 48
0.0
 49
0.0
140
0.0
141
0.0
142
1.0
143
1.0
 70
   688
 72
     0
 73
     0
 74
     5
  7

 75
    16
147
1.0
148
0.0
149
0.0
100
AcDbLayout
  1
Layout1
 70
     1
 71
     1
 10
0.0
 20
0.0
 11
12.0
 21
9.0
 12
0.0
 22
0.0
 32
0.0
 14
1.00000000000000E+20
 24
1.00000000000000E+20
 34
1.00000000000000E+20
 15
-1.00000000000000E+20
 25
-1.00000000000000E+20
 35
-1.00000000000000E+20
146
0.0
 13
0.0
 23
0.0
 33
0.0
 16
1.0
 26
0.0
 36
0.0
 17
0.0
 27
1.0
 37
0.0
 76
     0
330
1B
  0
LAYOUT
  5
26
102
{ACAD_REACTORS
330
1A
102
}
330
1A
100
AcDbPlotSettings
  1

  2
none_device
  4

  6

 40
0.0
 41
0.0
 42
0.0
 43
0.0
 44
0.0
 45
0.0
 46
0.0
 47
0.0
 48
0.0
 49
0.0
140
0.0
141
0.0
142
1.0
143
1.0
 70
   688
 72
     0
 73
     0
 74
     5
  7

 75
    16
147
1.0
148
0.0
149
0.0
100
AcDbLayout
  1
Layout2
 70
     1
 71
     2
 10
0.0
 20
0.0
 11
0.0
 21
0.0
 12
0.0
 22
0.0
 32
0.0
 14
0.0
 24
0.0
 34
0.0
 15
0.0
 25
0.0
 35
0.0
146
0.0
 13
0.0
 23
0.0
 33
0.0
 16
1.0
 26
0.0
 36
0.0
 17
0.0
 27
1.0
 37
0.0
 76
     0
330
23
  0
LAYOUT
  5
22
102
{ACAD_REACTORS
330
1A
102
}
330
1A
100
AcDbPlotSettings
  1

  2
none_device
  4

  6

 40
0.0
 41
0.0
 42
0.0
 43
0.0
 44
0.0
 45
0.0
 46
0.0
 47
0.0
 48
0.0
 49
0.0
140
0.0
141
0.0
142
1.0
143
1.0
 70
  1712
 72
     0
 73
     0
 74
     0
  7

 75
     0
147
1.0
148
0.0
149
0.0
100
AcDbLayout
  1
Model
 70
     1
 71
     0
 10
0.0
 20
0.0
 11
12.0
 21
9.0
 12
0.0
 22
0.0
 32
0.0
 14
0.0
 24
0.0
 34
0.0
 15
210.0
 25
297.0
 35
0.0
146
0.0
 13
0.0
 23
0.0
 33
0.0
 16
1.0
 26
0.0
 36
0.0
 17
0.0
 27
1.0
 37
0.0
 76
     0
330
1F
331
29
  0
MATERIAL
  5
3D
102
{ACAD_REACTORS
330
3B
102
}
102
{ACAD_XDICTIONARY
360
1DC
102
}
330
3B
100
AcDbMaterial
  1
ByBlock
  0
MATERIAL
  5
3C
102
{ACAD_REACTORS
330
3B
102
}
102
{ACAD_XDICTIONARY
360
1DA
102
}
330
3B
100
AcDbMaterial
  1
ByLayer
  0
MATERIAL
  5
3E
102
{ACAD_REACTORS
330
3B
102
}
102
{ACAD_XDICTIONARY
360
1DE
102
}
330
3B
100
AcDbMaterial
  1
Global
  0
MLINESTYLE
  5
18
102
{ACAD_REACTORS
330
17
102
}
330
17
100
AcDbMlineStyle
  2
Standard
 70
     0
  3

 62
   256
 51
90.0
 52
90.0
 71
     2
 49
0.5
 62
   256
  6
BYLAYER
 49
-0.5
 62
   256
  6
BYLAYER
  0
ACDBPLACEHOLDER
  5
F
102
{ACAD_REACTORS
330
E
102
}
330
E
  0
VISUALSTYLE
  5
2F
102
{ACAD_REACTORS
330
2A
102
}
102
{ACAD_XDICTIONARY
360
1C2
102
}
330
2A
100
AcDbVisualStyle
  2
2dWireframe
 70
     4
 71
     0
 72
     2
 73
     0
 90
        0
 40
-0.6
 41
-30.0
 62
     5
 63
     7
 74
     1
 91
        4
 64
     7
 65
   257
 75
     1
175
     1
 42
1.0
 92
        0
 66
   257
 43
1.0
 76
     1
 77
     6
 78
     2
 67
     7
 79
     5
170
     0
171
     0
290
     0
174
     0
 93
        1
 44
0.0
173
     0
291
     0
 45
0.0
1001
ACAD
1000
AcDbSavedByObjectVersion
1070
     0
  0
VISUALSTYLE
  5
31
102
{ACAD_REACTORS
330
2A
102
}
102
{ACAD_XDICTIONARY
360
1C6
102
}
330
2A
100
AcDbVisualStyle
  2
3D Hidden
 70
     6
 71
     1
 72
     2
 73
     2
 90
        0
 40
-0.6
 41
-30.0
 62
     5
 63
     7
 74
     2
 91
        2
 64
     7
 65
   257
 75
     2
175
     1
 42
40.0
 92
        0
 66
   257
 43
1.0
 76
     1
 77
     6
 78
     2
 67
     7
 79
     3
170
     0
171
     0
290
     0
174
     0
 93
        1
 44
0.0
173
     0
291
     0
 45
0.0
1001
ACAD
1000
AcDbSavedByObjectVersion
1070
     0
  0
VISUALSTYLE
  5
30
102
{ACAD_REACTORS
330
2A
102
}
102
{ACAD_XDICTIONARY
360
1C4
102
}
330
2A
100
AcDbVisualStyle
  2
3dWireframe
 70
     5
 71
     0
 72
     2
 73
     0
 90
        0
 40
-0.6
 41
-30.0
 62
     5
 63
     7
 74
     1
 91
        4
 64
     7
 65
   257
 75
     1
175
     1
 42
1.0
 92
        0
 66
   257
 43
1.0
 76
     1
 77
     6
 78
     2
 67
     7
 79
     5
170
     0
171
     0
290
     0
174
     0
 93
        1
 44
0.0
173
     0
291
     0
 45
0.0
1001
ACAD
1000
AcDbSavedByObjectVersion
1070
     0
  0
VISUALSTYLE
  5
32
102
{ACAD_REACTORS
330
2A
102
}
102
{ACAD_XDICTIONARY
360
1C8
102
}
330
2A
100
AcDbVisualStyle
  2
Basic
 70
     7
 71
     1
 72
     0
 73
     1
 90
        0
 40
-0.6
 41
-30.0
 62
     5
 63
     7
 74
     0
 91
        4
 64
     7
 65
   257
 75
     1
175
     1
 42
1.0
 92
        8
 66
     7
 43
1.0
 76
     1
 77
     6
 78
     2
 67
     7
 79
     5
170
     0
171
     0
290
     0
174
     0
 93
        1
 44
0.0
173
     0
291
     1
 45
0.0
1001
ACAD
1000
AcDbSavedByObjectVersion
1070
     0
  0
VISUALSTYLE
  5
36
102
{ACAD_REACTORS
330
2A
102
}
102
{ACAD_XDICTIONARY
360
1D0
102
}
330
2A
100
AcDbVisualStyle
  2
Brighten
 70
    12
 71
     2
 72
     2
 73
     0
 90
        0
 40
-0.6
 41
-30.0
 62
     5
 63
     7
 74
     1
 91
        4
 64
     7
 65
   257
 75
     1
175
     1
 42
1.0
 92
        8
 66
     7
 43
1.0
 76
     1
 77
     6
 78
     2
 67
     7
 79
     5
170
     0
171
     0
290
     0
174
     0
 93
        1
 44
50.0
173
     0
291
     1
 45
0.0
1001
ACAD
1000
AcDbSavedByObjectVersion
1070
     0
  0
VISUALSTYLE
  5
3A
102
{ACAD_REACTORS
330
2A
102
}
102
{ACAD_XDICTIONARY
360
1D8
102
}
330
2A
100
AcDbVisualStyle
  2
ColorChange
 70
    16
 71
     2
 72
     2
 73
     3
 90
        0
 40
-0.6
 41
-30.0
 62
     5
 63
     8
 74
     1
 91
        4
 64
     7
 65
   257
 75
     1
175
     1
 42
1.0
 92
        8
 66
     8
 43
1.0
 76
     1
 77
     6
 78
     2
 67
     7
 79
     5
170
     0
171
     0
290
     0
174
     0
 93
        1
 44
0.0
173
     0
291
     1
 45
0.0
1001
ACAD
1000
AcDbSavedByObjectVersion
1070
     0
  0
VISUALSTYLE
  5
34
102
{ACAD_REACTORS
330
2A
102
}
102
{ACAD_XDICTIONARY
360
1CC
102
}
330
2A
100
AcDbVisualStyle
  2
Conceptual
 70
     9
 71
     3
 72
     2
 73
     0
 90
        0
 40
-0.6
 41
-30.0
 62
     5
 63
     7
 74
     2
 91
        2
 64
     7
 65
   257
 75
     1
175
     1
 42
40.0
 92
        8
 66
     7
 43
1.0
 76
     1
 77
     6
 78
     2
 67
     7
 79
     3
170
     0
171
     0
290
     0
174
     0
 93
        1
 44
0.0
173
     0
291
     0
 45
0.0
1001
ACAD
1000
AcDbSavedByObjectVersion
1070
     0
  0
VISUALSTYLE
  5
35
102
{ACAD_REACTORS
330
2A
102
}
102
{ACAD_XDICTIONARY
360
1CE
102
}
330
2A
100
AcDbVisualStyle
  2
Dim
 70
    11
 71
     2
 72
     2
 73
     0
 90
        0
 40
-0.6
 41
-30.0
 62
     5
 63
     7
 74
     1
 91
        4
 64
     7
 65
   257
 75
     1
175
     1
 42
1.0
 92
        8
 66
     7
 43
1.0
 76
     1
 77
     6
 78
     2
 67
     7
 79
     5
170
     0
171
     0
290
     0
174
     0
 93
        1
 44
-50.0
173
     0
291
     1
 45
0.0
1001
ACAD
1000
AcDbSavedByObjectVersion
1070
     0
  0
VISUALSTYLE
  5
39
102
{ACAD_REACTORS
330
2A
102
}
102
{ACAD_XDICTIONARY
360
1D6
102
}
330
2A
100
AcDbVisualStyle
  2
Facepattern
 70
    15
 71
     2
 72
     2
 73
     0
 90
        0
 40
-0.6
 41
-30.0
 62
     5
 63
     7
 74
     1
 91
        4
 64
     7
 65
   257
 75
     1
175
     1
 42
1.0
 92
        8
 66
     7
 43
1.0
 76
     1
 77
     6
 78
     2
 67
     7
 79
     5
170
     0
171
     0
290
     0
174
     0
 93
        1
 44
0.0
173
     0
291
     1
 45
0.0
1001
ACAD
1000
AcDbSavedByObjectVersion
1070
     0
  0
VISUALSTYLE
  5
2B
102
{ACAD_REACTORS
330
2A
102
}
102
{ACAD_XDICTIONARY
360
1BA
102
}
330
2A
100
AcDbVisualStyle
  2
Flat
 70
     0
 71
     2
 72
     1
 73
     1
 90
        2
 40
-0.6
 41
30.0
 62
     5
 63
     7
 74
     0
 91
        4
 64
     7
 65
   257
 75
     1
175
     1
 42
1.0
 92
        8
 66
     7
 43
1.0
 76
     1
 77
     6
 78
     2
 67
     7
 79
     5
170
     0
171
     0
290
     0
174
     0
 93
       13
 44
0.0
173
     0
291
     1
 45
0.0
1001
ACAD
1000
AcDbSavedByObjectVersion
1070
     0
  0
VISUALSTYLE
  5
2C
102
{ACAD_REACTORS
330
2A
102
}
102
{ACAD_XDICTIONARY
360
1BC
102
}
330
2A
100
AcDbVisualStyle
  2
FlatWithEdges
 70
     1
 71
     2
 72
     1
 73
     1
 90
        2
 40
-0.6
 41
30.0
 62
     5
 63
     7
 74
     1
 91
        4
 64
     7
 65
   257
 75
     1
175
     1
 42
1.0
 92
        0
 66
   257
 43
1.0
 76
     1
 77
     6
 78
     2
 67
     7
 79
     5
170
     0
171
     0
290
     0
174
     0
 93
       13
 44
0.0
173
     0
291
     1
 45
0.0
1001
ACAD
1000
AcDbSavedByObjectVersion
1070
     0
  0
VISUALSTYLE
  5
2D
102
{ACAD_REACTORS
330
2A
102
}
102
{ACAD_XDICTIONARY
360
1BE
102
}
330
2A
100
AcDbVisualStyle
  2
Gouraud
 70
     2
 71
     2
 72
     2
 73
     1
 90
        2
 40
-0.6
 41
30.0
 62
     5
 63
     7
 74
     0
 91
        4
 64
     7
 65
   257
 75
     1
175
     1
 42
1.0
 92
        0
 66
     7
 43
1.0
 76
     1
 77
     6
 78
     2
 67
     7
 79
     5
170
     0
171
     0
290
     0
174
     0
 93
       13
 44
0.0
173
     0
291
     1
 45
0.0
1001
ACAD
1000
AcDbSavedByObjectVersion
1070
     0
  0
VISUALSTYLE
  5
2E
102
{ACAD_REACTORS
330
2A
102
}
102
{ACAD_XDICTIONARY
360
1C0
102
}
330
2A
100
AcDbVisualStyle
  2
GouraudWithEdges
 70
     3
 71
     2
 72
     2
 73
     1
 90
        2
 40
-0.6
 41
30.0
 62
     5
 63
     7
 74
     1
 91
        4
 64
     7
 65
   257
 75
     1
175
     1
 42
1.0
 92
        0
 66
   257
 43
1.0
 76
     1
 77
     6
 78
     2
 67
     7
 79
     5
170
     0
171
     0
290
     0
174
     0
 93
       13
 44
0.0
173
     0
291
     1
 45
0.0
1001
ACAD
1000
AcDbSavedByObjectVersion
1070
     0
  0
VISUALSTYLE
  5
38
102
{ACAD_REACTORS
330
2A
102
}
102
{ACAD_XDICTIONARY
360
1D4
102
}
330
2A
100
AcDbVisualStyle
  2
Linepattern
 70
    14
 71
     2
 72
     2
 73
     0
 90
        0
 40
-0.6
 41
-30.0
 62
     5
 63
     7
 74
     1
 91
        4
 64
     7
 65
   257
 75
     7
175
     7
 42
1.0
 92
        8
 66
     7
 43
1.0
 76
     1
 77
     6
 78
     2
 67
     7
 79
     5
170
     0
171
     0
290
     0
174
     0
 93
        1
 44
0.0
173
     0
291
     1
 45
0.0
1001
ACAD
1000
AcDbSavedByObjectVersion
1070
     0
  0
VISUALSTYLE
  5
33
102
{ACAD_REACTORS
330
2A
102
}
102
{ACAD_XDICTIONARY
360
1CA
102
}
330
2A
100
AcDbVisualStyle
  2
Realistic
 70
     8
 71
     2
 72
     2
 73
     0
 90
        0
 40
-0.6
 41
-30.0
 62
     5
 63
     7
 74
     1
 91
        0
 64
     7
 65
   257
 75
     1
175
     1
 42
1.0
 92
        8
 66
     8
 43
1.0
 76
     1
 77
     6
 78
     2
 67
     7
 79
     5
170
     0
171
     0
290
     0
174
     0
 93
       13
 44
0.0
173
     0
291
     0
 45
0.0
1001
ACAD
1000
AcDbSavedByObjectVersion
1070
     0
  0
VISUALSTYLE
  5
37
102
{ACAD_REACTORS
330
2A
102
}
102
{ACAD_XDICTIONARY
360
1D2
102
}
330
2A
100
AcDbVisualStyle
  2
Thicken
 70
    13
 71
     2
 72
     2
 73
     0
 90
        0
 40
-0.6
 41
-30.0
 62
     5
 63
     7
 74
     1
 91
        4
 64
     7
 65
   257
 75
     1
175
     1
 42
1.0
 92
       12
 66
     7
 43
1.0
 76
     1
 77
     6
 78
     2
 67
     7
 79
     5
170
     0
171
     0
290
     0
174
     0
 93
        1
 44
0.0
173
     0
291
     1
 45
0.0
1001
ACAD
1000
AcDbSavedByObjectVersion
1070
     0
  0
DICTIONARYVAR
  5
1B8
102
{ACAD_REACTORS
330
1B5
102
}
330
1B5
100
DictionaryVariables
280
     0
  1
2
  0
DICTIONARYVAR
  5
1B9
102
{ACAD_REACTORS
330
1B5
102
}
330
1B5
100
DictionaryVariables
280
     0
  1
1
  0
DICTIONARY
  5
1DC
330
3D
100
AcDbDictionary
280
     1
281
     1
  3
ACAD_XREC_ROUNDTRIP
360
1DD
  0
DICTIONARY
  5
1DA
330
3C
100
AcDbDictionary
280
     1
281
     1
  3
ACAD_XREC_ROUNDTRIP
360
1DB
  0
DICTIONARY
  5
1DE
330
3E
100
AcDbDictionary
280
     1
281
     1
  3
ACAD_XREC_ROUNDTRIP
360
1DF
  0
DICTIONARY
  5
1C2
330
2F
100
AcDbDictionary
280
     1
281
     1
  3
ACAD_XREC_ROUNDTRIP
360
1C3
  0
DICTIONARY
  5
1C6
330
31
100
AcDbDictionary
280
     1
281
     1
  3
ACAD_XREC_ROUNDTRIP
360
1C7
  0
DICTIONARY
  5
1C4
330
30
100
AcDbDictionary
280
     1
281
     1
  3
ACAD_XREC_ROUNDTRIP
360
1C5
  0
DICTIONARY
  5
1C8
330
32
100
AcDbDictionary
280
     1
281
     1
  3
ACAD_XREC_ROUNDTRIP
360
1C9
  0
DICTIONARY
  5
1D0
330
36
100
AcDbDictionary
280
     1
281
     1
  3
ACAD_XREC_ROUNDTRIP
360
1D1
  0
DICTIONARY
  5
1D8
330
3A
100
AcDbDictionary
280
     1
281
     1
  3
ACAD_XREC_ROUNDTRIP
360
1D9
  0
DICTIONARY
  5
1CC
330
34
100
AcDbDictionary
280
     1
281
     1
  3
ACAD_XREC_ROUNDTRIP
360
1CD
  0
DICTIONARY
  5
1CE
330
35
100
AcDbDictionary
280
     1
281
     1
  3
ACAD_XREC_ROUNDTRIP
360
1CF
  0
DICTIONARY
  5
1D6
330
39
100
AcDbDictionary
280
     1
281
     1
  3
ACAD_XREC_ROUNDTRIP
360
1D7
  0
DICTIONARY
  5
1BA
330
2B
100
AcDbDictionary
280
     1
281
     1
  3
ACAD_XREC_ROUNDTRIP
360
1BB
  0
DICTIONARY
  5
1BC
330
2C
100
AcDbDictionary
280
     1
281
     1
  3
ACAD_XREC_ROUNDTRIP
360
1BD
  0
DICTIONARY
  5
1BE
330
2D
100
AcDbDictionary
280
     1
281
     1
  3
ACAD_XREC_ROUNDTRIP
360
1BF
  0
DICTIONARY
  5
1C0
330
2E
100
AcDbDictionary
280
     1
281
     1
  3
ACAD_XREC_ROUNDTRIP
360
1C1
  0
DICTIONARY
  5
1D4
330
38
100
AcDbDictionary
280
     1
281
     1
  3
ACAD_XREC_ROUNDTRIP
360
1D5
  0
DICTIONARY
  5
1CA
330
33
100
AcDbDictionary
280
     1
281
     1
  3
ACAD_XREC_ROUNDTRIP
360
1CB
  0
DICTIONARY
  5
1D2
330
37
100
AcDbDictionary
280
     1
281
     1
  3
ACAD_XREC_ROUNDTRIP
360
1D3
  0
XRECORD
  5
1DD
102
{ACAD_REACTORS
330
1DC
102
}
330
1DC
100
AcDbXrecord
280
     1
102
MATERIAL
148
0.0
149
0.0
149
0.0
 93
        0
 94
      127
282
     0
 72
     1
 77
     1
171
     1
175
     1
179
     1
273
     0
  0
XRECORD
  5
1DB
102
{ACAD_REACTORS
330
1DA
102
}
330
1DA
100
AcDbXrecord
280
     1
102
MATERIAL
148
0.0
149
0.0
149
0.0
 93
        0
 94
      127
282
     0
 72
     1
 77
     1
171
     1
175
     1
179
     1
273
     0
  0
XRECORD
  5
1DF
102
{ACAD_REACTORS
330
1DE
102
}
330
1DE
100
AcDbXrecord
280
     1
102
MATERIAL
148
0.0
149
0.0
149
0.0
 93
        0
 94
      127
282
     0
 72
     1
 77
     1
171
     1
175
     1
179
     1
273
     0
  0
XRECORD
  5
1C3
102
{ACAD_REACTORS
330
1C2
102
}
330
1C2
100
AcDbXrecord
280
     1
102
RTVSPropertyOp0
 70
     1
102
RTVSPropertyOp1
 70
     1
102
RTVSPropertyOp2
 70
     1
102
RTVSPropertyOp3
 70
     1
102
RTVSPropertyOp4
 70
     1
102
RTVSPropertyOp5
 70
     1
102
RTVSPropertyOp6
 70
     1
102
RTVSPropertyOp7
 70
     1
102
RTVSPropertyOp8
 70
     1
102
RTVSPropertyOp9
 70
     1
102
RTVSPropertyOp10
 70
     1
102
RTVSPropertyOp11
 70
     1
102
RTVSPropertyOp12
 70
     1
102
RTVSPropertyOp13
 70
     1
102
RTVSPropertyOp14
 70
     1
102
RTVSPropertyOp15
 70
     1
102
RTVSPropertyOp16
 70
     1
102
RTVSPropertyOp17
 70
     1
102
RTVSPropertyOp18
 70
     1
102
RTVSPropertyOp19
 70
     1
102
RTVSPropertyOp20
 70
     1
102
RTVSPropertyOp21
 70
     1
102
RTVSPropertyOp22
 70
     1
102
RTVSPropertyOp23
 70
     1
102
RTVSPropertyOp24
 70
     1
102
RTVSPropertyOp25
 70
     1
102
RTVSPropertyOp26
 70
     1
102
RTVSPropertyOp27
 70
     1
102
RTVSPropertyOp28
 70
     1
102
RTVSPropertyOp29
 70
     1
102
RTVSPropertyOp30
 70
     1
102
RTVSPropertyOp31
 70
     1
102
RTVSPropertyOp32
 70
     1
  0
XRECORD
  5
1C7
102
{ACAD_REACTORS
330
1C6
102
}
330
1C6
100
AcDbXrecord
280
     1
102
RTVSPropertyOp0
 70
     1
102
RTVSPropertyOp1
 70
     1
102
RTVSPropertyOp2
 70
     1
102
RTVSPropertyOp3
 70
     1
102
RTVSPropertyOp4
 70
     1
102
RTVSPropertyOp5
 70
     1
102
RTVSPropertyOp6
 70
     1
102
RTVSPropertyOp7
 70
     1
102
RTVSPropertyOp8
 70
     1
102
RTVSPropertyOp9
 70
     1
102
RTVSPropertyOp10
 70
     1
102
RTVSPropertyOp11
 70
     1
102
RTVSPropertyOp12
 70
     1
102
RTVSPropertyOp13
 70
     1
102
RTVSPropertyOp14
 70
     1
102
RTVSPropertyOp15
 70
     1
102
RTVSPropertyOp16
 70
     1
102
RTVSPropertyOp17
 70
     1
102
RTVSPropertyOp18
 70
     1
102
RTVSPropertyOp19
 70
     1
102
RTVSPropertyOp20
 70
     1
102
RTVSPropertyOp21
 70
     1
102
RTVSPropertyOp22
 70
     1
102
RTVSPropertyOp23
 70
     1
102
RTVSPropertyOp24
 70
     1
102
RTVSPropertyOp25
 70
     1
102
RTVSPropertyOp26
 70
     1
102
RTVSPropertyOp27
 70
     1
102
RTVSPropertyOp28
 70
     1
102
RTVSPropertyOp29
 70
     1
102
RTVSPropertyOp30
 70
     1
102
RTVSPropertyOp31
 70
     1
102
RTVSPropertyOp32
 70
     1
  0
XRECORD
  5
1C5
102
{ACAD_REACTORS
330
1C4
102
}
330
1C4
100
AcDbXrecord
280
     1
102
RTVSPropertyOp0
 70
     1
102
RTVSPropertyOp1
 70
     1
102
RTVSPropertyOp2
 70
     1
102
RTVSPropertyOp3
 70
     1
102
RTVSPropertyOp4
 70
     1
102
RTVSPropertyOp5
 70
     1
102
RTVSPropertyOp6
 70
     1
102
RTVSPropertyOp7
 70
     1
102
RTVSPropertyOp8
 70
     1
102
RTVSPropertyOp9
 70
     1
102
RTVSPropertyOp10
 70
     1
102
RTVSPropertyOp11
 70
     1
102
RTVSPropertyOp12
 70
     1
102
RTVSPropertyOp13
 70
     1
102
RTVSPropertyOp14
 70
     1
102
RTVSPropertyOp15
 70
     1
102
RTVSPropertyOp16
 70
     1
102
RTVSPropertyOp17
 70
     1
102
RTVSPropertyOp18
 70
     1
102
RTVSPropertyOp19
 70
     1
102
RTVSPropertyOp20
 70
     1
102
RTVSPropertyOp21
 70
     1
102
RTVSPropertyOp22
 70
     1
102
RTVSPropertyOp23
 70
     1
102
RTVSPropertyOp24
 70
     1
102
RTVSPropertyOp25
 70
     1
102
RTVSPropertyOp26
 70
     1
102
RTVSPropertyOp27
 70
     1
102
RTVSPropertyOp28
 70
     1
102
RTVSPropertyOp29
 70
     1
102
RTVSPropertyOp30
 70
     1
102
RTVSPropertyOp31
 70
     1
102
RTVSPropertyOp32
 70
     1
  0
XRECORD
  5
1C9
102
{ACAD_REACTORS
330
1C8
102
}
330
1C8
100
AcDbXrecord
280
     1
102
RTVSPropertyOp0
 70
     1
102
RTVSPropertyOp1
 70
     1
102
RTVSPropertyOp2
 70
     1
102
RTVSPropertyOp3
 70
     1
102
RTVSPropertyOp4
 70
     1
102
RTVSPropertyOp5
 70
     1
102
RTVSPropertyOp6
 70
     1
102
RTVSPropertyOp7
 70
     1
102
RTVSPropertyOp8
 70
     1
102
RTVSPropertyOp9
 70
     1
102
RTVSPropertyOp10
 70
     1
102
RTVSPropertyOp11
 70
     1
102
RTVSPropertyOp12
 70
     1
102
RTVSPropertyOp13
 70
     1
102
RTVSPropertyOp14
 70
     1
102
RTVSPropertyOp15
 70
     1
102
RTVSPropertyOp16
 70
     1
102
RTVSPropertyOp17
 70
     1
102
RTVSPropertyOp18
 70
     1
102
RTVSPropertyOp19
 70
     1
102
RTVSPropertyOp20
 70
     1
102
RTVSPropertyOp21
 70
     1
102
RTVSPropertyOp22
 70
     1
102
RTVSPropertyOp23
 70
     1
102
RTVSPropertyOp24
 70
     1
102
RTVSPropertyOp25
 70
     1
102
RTVSPropertyOp26
 70
     1
102
RTVSPropertyOp27
 70
     1
102
RTVSPropertyOp28
 70
     1
102
RTVSPropertyOp29
 70
     1
102
RTVSPropertyOp30
 70
     1
102
RTVSPropertyOp31
 70
     1
102
RTVSPropertyOp32
 70
     1
  0
XRECORD
  5
1D1
102
{ACAD_REACTORS
330
1D0
102
}
330
1D0
100
AcDbXrecord
280
     1
102
RTVSPropertyOp0
 70
     1
102
RTVSPropertyOp1
 70
     1
102
RTVSPropertyOp2
 70
     1
102
RTVSPropertyOp3
 70
     1
102
RTVSPropertyOp4
 70
     1
102
RTVSPropertyOp5
 70
     1
102
RTVSPropertyOp6
 70
     1
102
RTVSPropertyOp7
 70
     1
102
RTVSPropertyOp8
 70
     1
102
RTVSPropertyOp9
 70
     1
102
RTVSPropertyOp10
 70
     1
102
RTVSPropertyOp11
 70
     1
102
RTVSPropertyOp12
 70
     1
102
RTVSPropertyOp13
 70
     1
102
RTVSPropertyOp14
 70
     1
102
RTVSPropertyOp15
 70
     1
102
RTVSPropertyOp16
 70
     1
102
RTVSPropertyOp17
 70
     1
102
RTVSPropertyOp18
 70
     1
102
RTVSPropertyOp19
 70
     1
102
RTVSPropertyOp20
 70
     1
102
RTVSPropertyOp21
 70
     1
102
RTVSPropertyOp22
 70
     1
102
RTVSPropertyOp23
 70
     1
102
RTVSPropertyOp24
 70
     1
102
RTVSPropertyOp25
 70
     1
102
RTVSPropertyOp26
 70
     1
102
RTVSPropertyOp27
 70
     1
102
RTVSPropertyOp28
 70
     1
102
RTVSPropertyOp29
 70
     1
102
RTVSPropertyOp30
 70
     1
102
RTVSPropertyOp31
 70
     1
102
RTVSPropertyOp32
 70
     1
  0
XRECORD
  5
1D9
102
{ACAD_REACTORS
330
1D8
102
}
330
1D8
100
AcDbXrecord
280
     1
102
RTVSPropertyOp0
 70
     1
102
RTVSPropertyOp1
 70
     1
102
RTVSPropertyOp2
 70
     1
102
RTVSPropertyOp3
 70
     1
102
RTVSPropertyOp4
 70
     1
102
RTVSPropertyOp5
 70
     1
102
RTVSPropertyOp6
 70
     1
102
RTVSPropertyOp7
 70
     1
102
RTVSPropertyOp8
 70
     1
102
RTVSPropertyOp9
 70
     1
102
RTVSPropertyOp10
 70
     1
102
RTVSPropertyOp11
 70
     1
102
RTVSPropertyOp12
 70
     1
102
RTVSPropertyOp13
 70
     1
102
RTVSPropertyOp14
 70
     1
102
RTVSPropertyOp15
 70
     1
102
RTVSPropertyOp16
 70
     1
102
RTVSPropertyOp17
 70
     1
102
RTVSPropertyOp18
 70
     1
102
RTVSPropertyOp19
 70
     1
102
RTVSPropertyOp20
 70
     1
102
RTVSPropertyOp21
 70
     1
102
RTVSPropertyOp22
 70
     1
102
RTVSPropertyOp23
 70
     1
102
RTVSPropertyOp24
 70
     1
102
RTVSPropertyOp25
 70
     1
102
RTVSPropertyOp26
 70
     1
102
RTVSPropertyOp27
 70
     1
102
RTVSPropertyOp28
 70
     1
102
RTVSPropertyOp29
 70
     1
102
RTVSPropertyOp30
 70
     1
102
RTVSPropertyOp31
 70
     1
102
RTVSPropertyOp32
 70
     1
  0
XRECORD
  5
1CD
102
{ACAD_REACTORS
330
1CC
102
}
330
1CC
100
AcDbXrecord
280
     1
102
RTVSPropertyOp0
 70
     1
102
RTVSPropertyOp1
 70
     1
102
RTVSPropertyOp2
 70
     1
102
RTVSPropertyOp3
 70
     1
102
RTVSPropertyOp4
 70
     1
102
RTVSPropertyOp5
 70
     1
102
RTVSPropertyOp6
 70
     1
102
RTVSPropertyOp7
 70
     1
102
RTVSPropertyOp8
 70
     1
102
RTVSPropertyOp9
 70
     1
102
RTVSPropertyOp10
 70
     1
102
RTVSPropertyOp11
 70
     1
102
RTVSPropertyOp12
 70
     1
102
RTVSPropertyOp13
 70
     1
102
RTVSPropertyOp14
 70
     1
102
RTVSPropertyOp15
 70
     1
102
RTVSPropertyOp16
 70
     1
102
RTVSPropertyOp17
 70
     1
102
RTVSPropertyOp18
 70
     1
102
RTVSPropertyOp19
 70
     1
102
RTVSPropertyOp20
 70
     1
102
RTVSPropertyOp21
 70
     1
102
RTVSPropertyOp22
 70
     1
102
RTVSPropertyOp23
 70
     1
102
RTVSPropertyOp24
 70
     1
102
RTVSPropertyOp25
 70
     1
102
RTVSPropertyOp26
 70
     1
102
RTVSPropertyOp27
 70
     1
102
RTVSPropertyOp28
 70
     1
102
RTVSPropertyOp29
 70
     1
102
RTVSPropertyOp30
 70
     1
102
RTVSPropertyOp31
 70
     1
102
RTVSPropertyOp32
 70
     1
  0
XRECORD
  5
1CF
102
{ACAD_REACTORS
330
1CE
102
}
330
1CE
100
AcDbXrecord
280
     1
102
RTVSPropertyOp0
 70
     1
102
RTVSPropertyOp1
 70
     1
102
RTVSPropertyOp2
 70
     1
102
RTVSPropertyOp3
 70
     1
102
RTVSPropertyOp4
 70
     1
102
RTVSPropertyOp5
 70
     1
102
RTVSPropertyOp6
 70
     1
102
RTVSPropertyOp7
 70
     1
102
RTVSPropertyOp8
 70
     1
102
RTVSPropertyOp9
 70
     1
102
RTVSPropertyOp10
 70
     1
102
RTVSPropertyOp11
 70
     1
102
RTVSPropertyOp12
 70
     1
102
RTVSPropertyOp13
 70
     1
102
RTVSPropertyOp14
 70
     1
102
RTVSPropertyOp15
 70
     1
102
RTVSPropertyOp16
 70
     1
102
RTVSPropertyOp17
 70
     1
102
RTVSPropertyOp18
 70
     1
102
RTVSPropertyOp19
 70
     1
102
RTVSPropertyOp20
 70
     1
102
RTVSPropertyOp21
 70
     1
102
RTVSPropertyOp22
 70
     1
102
RTVSPropertyOp23
 70
     1
102
RTVSPropertyOp24
 70
     1
102
RTVSPropertyOp25
 70
     1
102
RTVSPropertyOp26
 70
     1
102
RTVSPropertyOp27
 70
     1
102
RTVSPropertyOp28
 70
     1
102
RTVSPropertyOp29
 70
     1
102
RTVSPropertyOp30
 70
     1
102
RTVSPropertyOp31
 70
     1
102
RTVSPropertyOp32
 70
     1
  0
XRECORD
  5
1D7
102
{ACAD_REACTORS
330
1D6
102
}
330
1D6
100
AcDbXrecord
280
     1
102
RTVSPropertyOp0
 70
     1
102
RTVSPropertyOp1
 70
     1
102
RTVSPropertyOp2
 70
     1
102
RTVSPropertyOp3
 70
     1
102
RTVSPropertyOp4
 70
     1
102
RTVSPropertyOp5
 70
     1
102
RTVSPropertyOp6
 70
     1
102
RTVSPropertyOp7
 70
     1
102
RTVSPropertyOp8
 70
     1
102
RTVSPropertyOp9
 70
     1
102
RTVSPropertyOp10
 70
     1
102
RTVSPropertyOp11
 70
     1
102
RTVSPropertyOp12
 70
     1
102
RTVSPropertyOp13
 70
     1
102
RTVSPropertyOp14
 70
     1
102
RTVSPropertyOp15
 70
     1
102
RTVSPropertyOp16
 70
     1
102
RTVSPropertyOp17
 70
     1
102
RTVSPropertyOp18
 70
     1
102
RTVSPropertyOp19
 70
     1
102
RTVSPropertyOp20
 70
     1
102
RTVSPropertyOp21
 70
     1
102
RTVSPropertyOp22
 70
     1
102
RTVSPropertyOp23
 70
     1
102
RTVSPropertyOp24
 70
     1
102
RTVSPropertyOp25
 70
     1
102
RTVSPropertyOp26
 70
     1
102
RTVSPropertyOp27
 70
     1
102
RTVSPropertyOp28
 70
     1
102
RTVSPropertyOp29
 70
     1
102
RTVSPropertyOp30
 70
     1
102
RTVSPropertyOp31
 70
     1
102
RTVSPropertyOp32
 70
     1
  0
XRECORD
  5
1BB
102
{ACAD_REACTORS
330
1BA
102
}
330
1BA
100
AcDbXrecord
280
     1
102
RTVSPropertyOp0
 70
     1
102
RTVSPropertyOp1
 70
     1
102
RTVSPropertyOp2
 70
     1
102
RTVSPropertyOp3
 70
     1
102
RTVSPropertyOp4
 70
     1
102
RTVSPropertyOp5
 70
     1
102
RTVSPropertyOp6
 70
     1
102
RTVSPropertyOp7
 70
     1
102
RTVSPropertyOp8
 70
     1
102
RTVSPropertyOp9
 70
     1
102
RTVSPropertyOp10
 70
     1
102
RTVSPropertyOp11
 70
     1
102
RTVSPropertyOp12
 70
     1
102
RTVSPropertyOp13
 70
     1
102
RTVSPropertyOp14
 70
     1
102
RTVSPropertyOp15
 70
     1
102
RTVSPropertyOp16
 70
     1
102
RTVSPropertyOp17
 70
     1
102
RTVSPropertyOp18
 70
     1
102
RTVSPropertyOp19
 70
     1
102
RTVSPropertyOp20
 70
     1
102
RTVSPropertyOp21
 70
     1
102
RTVSPropertyOp22
 70
     1
102
RTVSPropertyOp23
 70
     1
102
RTVSPropertyOp24
 70
     1
102
RTVSPropertyOp25
 70
     1
102
RTVSPropertyOp26
 70
     1
102
RTVSPropertyOp27
 70
     1
102
RTVSPropertyOp28
 70
     1
102
RTVSPropertyOp29
 70
     1
102
RTVSPropertyOp30
 70
     1
102
RTVSPropertyOp31
 70
     1
102
RTVSPropertyOp32
 70
     1
  0
XRECORD
  5
1BD
102
{ACAD_REACTORS
330
1BC
102
}
330
1BC
100
AcDbXrecord
280
     1
102
RTVSPropertyOp0
 70
     1
102
RTVSPropertyOp1
 70
     1
102
RTVSPropertyOp2
 70
     1
102
RTVSPropertyOp3
 70
     1
102
RTVSPropertyOp4
 70
     1
102
RTVSPropertyOp5
 70
     1
102
RTVSPropertyOp6
 70
     1
102
RTVSPropertyOp7
 70
     1
102
RTVSPropertyOp8
 70
     1
102
RTVSPropertyOp9
 70
     1
102
RTVSPropertyOp10
 70
     1
102
RTVSPropertyOp11
 70
     1
102
RTVSPropertyOp12
 70
     1
102
RTVSPropertyOp13
 70
     1
102
RTVSPropertyOp14
 70
     1
102
RTVSPropertyOp15
 70
     1
102
RTVSPropertyOp16
 70
     1
102
RTVSPropertyOp17
 70
     1
102
RTVSPropertyOp18
 70
     1
102
RTVSPropertyOp19
 70
     1
102
RTVSPropertyOp20
 70
     1
102
RTVSPropertyOp21
 70
     1
102
RTVSPropertyOp22
 70
     1
102
RTVSPropertyOp23
 70
     1
102
RTVSPropertyOp24
 70
     1
102
RTVSPropertyOp25
 70
     1
102
RTVSPropertyOp26
 70
     1
102
RTVSPropertyOp27
 70
     1
102
RTVSPropertyOp28
 70
     1
102
RTVSPropertyOp29
 70
     1
102
RTVSPropertyOp30
 70
     1
102
RTVSPropertyOp31
 70
     1
102
RTVSPropertyOp32
 70
     1
  0
XRECORD
  5
1BF
102
{ACAD_REACTORS
330
1BE
102
}
330
1BE
100
AcDbXrecord
280
     1
102
RTVSPropertyOp0
 70
     1
102
RTVSPropertyOp1
 70
     1
102
RTVSPropertyOp2
 70
     1
102
RTVSPropertyOp3
 70
     1
102
RTVSPropertyOp4
 70
     1
102
RTVSPropertyOp5
 70
     1
102
RTVSPropertyOp6
 70
     1
102
RTVSPropertyOp7
 70
     1
102
RTVSPropertyOp8
 70
     1
102
RTVSPropertyOp9
 70
     1
102
RTVSPropertyOp10
 70
     1
102
RTVSPropertyOp11
 70
     1
102
RTVSPropertyOp12
 70
     1
102
RTVSPropertyOp13
 70
     1
102
RTVSPropertyOp14
 70
     1
102
RTVSPropertyOp15
 70
     1
102
RTVSPropertyOp16
 70
     1
102
RTVSPropertyOp17
 70
     1
102
RTVSPropertyOp18
 70
     1
102
RTVSPropertyOp19
 70
     1
102
RTVSPropertyOp20
 70
     1
102
RTVSPropertyOp21
 70
     1
102
RTVSPropertyOp22
 70
     1
102
RTVSPropertyOp23
 70
     1
102
RTVSPropertyOp24
 70
     1
102
RTVSPropertyOp25
 70
     1
102
RTVSPropertyOp26
 70
     1
102
RTVSPropertyOp27
 70
     1
102
RTVSPropertyOp28
 70
     1
102
RTVSPropertyOp29
 70
     1
102
RTVSPropertyOp30
 70
     1
102
RTVSPropertyOp31
 70
     1
102
RTVSPropertyOp32
 70
     1
  0
XRECORD
  5
1C1
102
{ACAD_REACTORS
330
1C0
102
}
330
1C0
100
AcDbXrecord
280
     1
102
RTVSPropertyOp0
 70
     1
102
RTVSPropertyOp1
 70
     1
102
RTVSPropertyOp2
 70
     1
102
RTVSPropertyOp3
 70
     1
102
RTVSPropertyOp4
 70
     1
102
RTVSPropertyOp5
 70
     1
102
RTVSPropertyOp6
 70
     1
102
RTVSPropertyOp7
 70
     1
102
RTVSPropertyOp8
 70
     1
102
RTVSPropertyOp9
 70
     1
102
RTVSPropertyOp10
 70
     1
102
RTVSPropertyOp11
 70
     1
102
RTVSPropertyOp12
 70
     1
102
RTVSPropertyOp13
 70
     1
102
RTVSPropertyOp14
 70
     1
102
RTVSPropertyOp15
 70
     1
102
RTVSPropertyOp16
 70
     1
102
RTVSPropertyOp17
 70
     1
102
RTVSPropertyOp18
 70
     1
102
RTVSPropertyOp19
 70
     1
102
RTVSPropertyOp20
 70
     1
102
RTVSPropertyOp21
 70
     1
102
RTVSPropertyOp22
 70
     1
102
RTVSPropertyOp23
 70
     1
102
RTVSPropertyOp24
 70
     1
102
RTVSPropertyOp25
 70
     1
102
RTVSPropertyOp26
 70
     1
102
RTVSPropertyOp27
 70
     1
102
RTVSPropertyOp28
 70
     1
102
RTVSPropertyOp29
 70
     1
102
RTVSPropertyOp30
 70
     1
102
RTVSPropertyOp31
 70
     1
102
RTVSPropertyOp32
 70
     1
  0
XRECORD
  5
1D5
102
{ACAD_REACTORS
330
1D4
102
}
330
1D4
100
AcDbXrecord
280
     1
102
RTVSPropertyOp0
 70
     1
102
RTVSPropertyOp1
 70
     1
102
RTVSPropertyOp2
 70
     1
102
RTVSPropertyOp3
 70
     1
102
RTVSPropertyOp4
 70
     1
102
RTVSPropertyOp5
 70
     1
102
RTVSPropertyOp6
 70
     1
102
RTVSPropertyOp7
 70
     1
102
RTVSPropertyOp8
 70
     1
102
RTVSPropertyOp9
 70
     1
102
RTVSPropertyOp10
 70
     1
102
RTVSPropertyOp11
 70
     1
102
RTVSPropertyOp12
 70
     1
102
RTVSPropertyOp13
 70
     1
102
RTVSPropertyOp14
 70
     1
102
RTVSPropertyOp15
 70
     1
102
RTVSPropertyOp16
 70
     1
102
RTVSPropertyOp17
 70
     1
102
RTVSPropertyOp18
 70
     1
102
RTVSPropertyOp19
 70
     1
102
RTVSPropertyOp20
 70
     1
102
RTVSPropertyOp21
 70
     1
102
RTVSPropertyOp22
 70
     1
102
RTVSPropertyOp23
 70
     1
102
RTVSPropertyOp24
 70
     1
102
RTVSPropertyOp25
 70
     1
102
RTVSPropertyOp26
 70
     1
102
RTVSPropertyOp27
 70
     1
102
RTVSPropertyOp28
 70
     1
102
RTVSPropertyOp29
 70
     1
102
RTVSPropertyOp30
 70
     1
102
RTVSPropertyOp31
 70
     1
102
RTVSPropertyOp32
 70
     1
  0
XRECORD
  5
1CB
102
{ACAD_REACTORS
330
1CA
102
}
330
1CA
100
AcDbXrecord
280
     1
102
RTVSPropertyOp0
 70
     1
102
RTVSPropertyOp1
 70
     1
102
RTVSPropertyOp2
 70
     1
102
RTVSPropertyOp3
 70
     1
102
RTVSPropertyOp4
 70
     1
102
RTVSPropertyOp5
 70
     1
102
RTVSPropertyOp6
 70
     1
102
RTVSPropertyOp7
 70
     1
102
RTVSPropertyOp8
 70
     1
102
RTVSPropertyOp9
 70
     1
102
RTVSPropertyOp10
 70
     1
102
RTVSPropertyOp11
 70
     1
102
RTVSPropertyOp12
 70
     1
102
RTVSPropertyOp13
 70
     1
102
RTVSPropertyOp14
 70
     1
102
RTVSPropertyOp15
 70
     1
102
RTVSPropertyOp16
 70
     1
102
RTVSPropertyOp17
 70
     1
102
RTVSPropertyOp18
 70
     1
102
RTVSPropertyOp19
 70
     1
102
RTVSPropertyOp20
 70
     1
102
RTVSPropertyOp21
 70
     1
102
RTVSPropertyOp22
 70
     1
102
RTVSPropertyOp23
 70
     1
102
RTVSPropertyOp24
 70
     1
102
RTVSPropertyOp25
 70
     1
102
RTVSPropertyOp26
 70
     1
102
RTVSPropertyOp27
 70
     1
102
RTVSPropertyOp28
 70
     1
102
RTVSPropertyOp29
 70
     1
102
RTVSPropertyOp30
 70
     1
102
RTVSPropertyOp31
 70
     1
102
RTVSPropertyOp32
 70
     1
  0
XRECORD
  5
1D3
102
{ACAD_REACTORS
330
1D2
102
}
330
1D2
100
AcDbXrecord
280
     1
102
RTVSPropertyOp0
 70
     1
102
RTVSPropertyOp1
 70
     1
102
RTVSPropertyOp2
 70
     1
102
RTVSPropertyOp3
 70
     1
102
RTVSPropertyOp4
 70
     1
102
RTVSPropertyOp5
 70
     1
102
RTVSPropertyOp6
 70
     1
102
RTVSPropertyOp7
 70
     1
102
RTVSPropertyOp8
 70
     1
102
RTVSPropertyOp9
 70
     1
102
RTVSPropertyOp10
 70
     1
102
RTVSPropertyOp11
 70
     1
102
RTVSPropertyOp12
 70
     1
102
RTVSPropertyOp13
 70
     1
102
RTVSPropertyOp14
 70
     1
102
RTVSPropertyOp15
 70
     1
102
RTVSPropertyOp16
 70
     1
102
RTVSPropertyOp17
 70
     1
102
RTVSPropertyOp18
 70
     1
102
RTVSPropertyOp19
 70
     1
102
RTVSPropertyOp20
 70
     1
102
RTVSPropertyOp21
 70
     1
102
RTVSPropertyOp22
 70
     1
102
RTVSPropertyOp23
 70
     1
102
RTVSPropertyOp24
 70
     1
102
RTVSPropertyOp25
 70
     1
102
RTVSPropertyOp26
 70
     1
102
RTVSPropertyOp27
 70
     1
102
RTVSPropertyOp28
 70
     1
102
RTVSPropertyOp29
 70
     1
102
RTVSPropertyOp30
 70
     1
102
RTVSPropertyOp31
 70
     1
102
RTVSPropertyOp32
 70
     1
  0
ENDSEC
  0
EOF
