  0
SECTION
  2
HEADER
  9
$ACADVER
  1
AC1015
  9
$ACADMAINTVER
 70
     6
  9
$DWGCODEPAGE
  3
ANSI_932
  9
$INSBASE
 10
0.0
 20
0.0
 30
0.0
  9
$EXTMIN
 10
0.0
 20
0.0
 30
0.0
  9
$EXTMAX
 10
210.0000000000001
 20
297.0
 30
0.0
  9
$LIMMIN
 10
0.0
 20
0.0
  9
$LIMMAX
 10
12.0
 20
9.0
  9
$ORTHOMODE
 70
     0
  9
$REGENMODE
 70
     1
  9
$FILLMODE
 70
     1
  9
$QTEXTMODE
 70
     0
  9
$MIRRTEXT
 70
     1
  9
$LTSCALE
 40
1.0
  9
$ATTMODE
 70
     1
  9
$TEXTSIZE
 40
0.2
  9
$TRACEWID
 40
0.05
  9
$TEXTSTYLE
  7
Standard
  9
$CLAYER
  8
0
  9
$CELTYPE
  6
ByLayer
  9
$CECOLOR
 62
   256
  9
$CELTSCALE
 40
1.0
  9
$DISPSILH
 70
     0
  9
$DIMSCALE
 40
1.0
  9
$DIMASZ
 40
0.18
  9
$DIMEXO
 40
0.0625
  9
$DIMDLI
 40
0.38
  9
$DIMRND
 40
0.0
  9
$DIMDLE
 40
0.0
  9
$DIMEXE
 40
0.18
  9
$DIMTP
 40
0.0
  9
$DIMTM
 40
0.0
  9
$DIMTXT
 40
0.18
  9
$DIMCEN
 40
0.09
  9
$DIMTSZ
 40
0.0
  9
$DIMTOL
 70
     0
  9
$DIMLIM
 70
     0
  9
$DIMTIH
 70
     1
  9
$DIMTOH
 70
     1
  9
$DIMSE1
 70
     0
  9
$DIMSE2
 70
     0
  9
$DIMTAD
 70
     0
  9
$DIMZIN
 70
     0
  9
$DIMBLK
  1

  9
$DIMASO
 70
     1
  9
$DIMSHO
 70
     1
  9
$DIMPOST
  1

  9
$DIMAPOST
  1

  9
$DIMALT
 70
     0
  9
$DIMALTD
 70
     2
  9
$DIMALTF
 40
25.4
  9
$DIMLFAC
 40
1.0
  9
$DIMTOFL
 70
     0
  9
$DIMTVP
 40
0.0
  9
$DIMTIX
 70
     0
  9
$DIMSOXD
 70
     0
  9
$DIMSAH
 70
     0
  9
$DIMBLK1
  1

  9
$DIMBLK2
  1

  9
$DIMSTYLE
  2
Standard
  9
$DIMCLRD
 70
     0
  9
$DIMCLRE
 70
     0
  9
$DIMCLRT
 70
     0
  9
$DIMTFAC
 40
1.0
  9
$DIMGAP
 40
0.09
  9
$DIMJUST
 70
     0
  9
$DIMSD1
 70
     0
  9
$DIMSD2
 70
     0
  9
$DIMTOLJ
 70
     1
  9
$DIMTZIN
 70
     0
  9
$DIMALTZ
 70
     0
  9
$DIMALTTZ
 70
     0
  9
$DIMUPT
 70
     0
  9
$DIMDEC
 70
     4
  9
$DIMTDEC
 70
     4
  9
$DIMALTU
 70
     2
  9
$DIMALTTD
 70
     2
  9
$DIMTXSTY
  7
Standard
  9
$DIMAUNIT
 70
     0
  9
$DIMADEC
 70
     0
  9
$DIMALTRND
 40
0.0
  9
$DIMAZIN
 70
     0
  9
$DIMDSEP
 70
    46
  9
$DIMATFIT
 70
     3
  9
$DIMFRAC
 70
     0
  9
$DIMLDRBLK
  1

  9
$DIMLUNIT
 70
     2
  9
$DIMLWD
 70
    -2
  9
$DIMLWE
 70
    -2
  9
$DIMTMOVE
 70
     0
  9
$LUNITS
 70
     2
  9
$LUPREC
 70
     4
  9
$SKETCHINC
 40
0.1
  9
$FILLETRAD
 40
0.5
  9
$AUNITS
 70
     0
  9
$AUPREC
 70
     0
  9
$MENU
  1
.
  9
$ELEVATION
 40
0.0
  9
$PELEVATION
 40
0.0
  9
$THICKNESS
 40
0.0
  9
$LIMCHECK
 70
     0
  9
$CHAMFERA
 40
0.5
  9
$CHAMFERB
 40
0.5
  9
$CHAMFERC
 40
1.0
  9
$CHAMFERD
 40
0.0
  9
$SKPOLY
 70
     0
  9
$TDCREATE
 40
2460264.595616123
  9
$TDUCREATE
 40
2460264.220616123
  9
$TDUPDATE
 40
2460264.59561757
  9
$TDUUPDATE
 40
2460264.22061757
  9
$TDINDWG
 40
0.0000000116
  9
$TDUSRTIMER
 40
0.0000000116
  9
$USRTIMER
 70
     1
  9
$ANGBASE
 50
0.0
  9
$ANGDIR
 70
     0
  9
$PDMODE
 70
     0
  9
$PDSIZE
 40
0.0
  9
$PLINEWID
 40
0.0
  9
$SPLFRAME
 70
     0
  9
$SPLINETYPE
 70
     6
  9
$SPLINESEGS
 70
     8
  9
$HANDSEED
  5
18E
  9
$SURFTAB1
 70
     6
  9
$SURFTAB2
 70
     6
  9
$SURFTYPE
 70
     6
  9
$SURFU
 70
     6
  9
$SURFV
 70
     6
  9
$UCSBASE
  2

  9
$UCSNAME
  2

  9
$UCSORG
 10
0.0
 20
0.0
 30
0.0
  9
$UCSXDIR
 10
1.0
 20
0.0
 30
0.0
  9
$UCSYDIR
 10
0.0
 20
1.0
 30
0.0
  9
$UCSORTHOREF
  2

  9
$UCSORTHOVIEW
 70
     0
  9
$UCSORGTOP
 10
0.0
 20
0.0
 30
0.0
  9
$UCSORGBOTTOM
 10
0.0
 20
0.0
 30
0.0
  9
$UCSORGLEFT
 10
0.0
 20
0.0
 30
0.0
  9
$UCSORGRIGHT
 10
0.0
 20
0.0
 30
0.0
  9
$UCSORGFRONT
 10
0.0
 20
0.0
 30
0.0
  9
$UCSORGBACK
 10
0.0
 20
0.0
 30
0.0
  9
$PUCSBASE
  2

  9
$PUCSNAME
  2

  9
$PUCSORG
 10
0.0
 20
0.0
 30
0.0
  9
$PUCSXDIR
 10
1.0
 20
0.0
 30
0.0
  9
$PUCSYDIR
 10
0.0
 20
1.0
 30
0.0
  9
$PUCSORTHOREF
  2

  9
$PUCSORTHOVIEW
 70
     0
  9
$PUCSORGTOP
 10
0.0
 20
0.0
 30
0.0
  9
$PUCSORGBOTTOM
 10
0.0
 20
0.0
 30
0.0
  9
$PUCSORGLEFT
 10
0.0
 20
0.0
 30
0.0
  9
$PUCSORGRIGHT
 10
0.0
 20
0.0
 30
0.0
  9
$PUCSORGFRONT
 10
0.0
 20
0.0
 30
0.0
  9
$PUCSORGBACK
 10
0.0
 20
0.0
 30
0.0
  9
$USERI1
 70
     0
  9
$USERI2
 70
     0
  9
$USERI3
 70
     0
  9
$USERI4
 70
     0
  9
$USERI5
 70
     0
  9
$USERR1
 40
18.1
  9
$USERR2
 40
0.0
  9
$USERR3
 40
0.0
  9
$USERR4
 40
0.0
  9
$USERR5
 40
0.0
  9
$WORLDVIEW
 70
     1
  9
$SHADEDGE
 70
     3
  9
$SHADEDIF
 70
    70
  9
$TILEMODE
 70
     1
  9
$MAXACTVP
 70
    64
  9
$PINSBASE
 10
0.0
 20
0.0
 30
0.0
  9
$PLIMCHECK
 70
     0
  9
$PEXTMIN
 10
1.00000000000000E+20
 20
1.00000000000000E+20
 30
1.00000000000000E+20
  9
$PEXTMAX
 10
-1.00000000000000E+20
 20
-1.00000000000000E+20
 30
-1.00000000000000E+20
  9
$PLIMMIN
 10
0.0
 20
0.0
  9
$PLIMMAX
 10
12.0
 20
9.0
  9
$UNITMODE
 70
     0
  9
$VISRETAIN
 70
     1
  9
$PLINEGEN
 70
     0
  9
$PSLTSCALE
 70
     1
  9
$TREEDEPTH
 70
  3020
  9
$CMLSTYLE
  2
Standard
  9
$CMLJUST
 70
     0
  9
$CMLSCALE
 40
1.0
  9
$PROXYGRAPHICS
 70
     1
  9
$MEASUREMENT
 70
     1
  9
$CELWEIGHT
370
    -1
  9
$ENDCAPS
280
     0
  9
$JOINSTYLE
280
     0
  9
$LWDISPLAY
290
     0
  9
$INSUNITS
 70
     4
  9
$HYPERLINKBASE
  1

  9
$STYLESHEET
  1

  9
$XEDIT
290
     1
  9
$CEPSNTYPE
380
     0
  9
$PSTYLEMODE
290
     1
  9
$FINGERPRINTGUID
  2
{F33B8C76-7C4B-4A46-8199-D4D1EBAD51F5}
  9
$VERSIONGUID
  2
{FAEB1C32-E019-11D5-929B-00C0DF256EC4}
  9
$EXTNAMES
290
     1
  9
$PSVPSCALE
 40
0.0
  9
$OLESTARTUP
290
     0
  0
ENDSEC
  0
SECTION
  2
CLASSES
  0
CLASS
  1
ACDBDICTIONARYWDFLT
  2
AcDbDictionaryWithDefault
  3
ObjectDBX Classes
 90
        0
280
     0
281
     0
  0
CLASS
  1
VISUALSTYLE
  2
AcDbVisualStyle
  3
ObjectDBX Classes
 90
     4095
280
     0
281
     0
  0
CLASS
  1
MATERIAL
  2
AcDbMaterial
  3
ObjectDBX Classes
 90
     1153
280
     0
281
     0
  0
CLASS
  1
DICTIONARYVAR
  2
AcDbDictionaryVar
  3
ObjectDBX Classes
 90
        0
280
     0
281
     0
  0
CLASS
  1
ACDBPLACEHOLDER
  2
AcDbPlaceHolder
  3
ObjectDBX Classes
 90
        0
280
     0
281
     0
  0
CLASS
  1
LAYOUT
  2
AcDbLayout
  3
ObjectDBX Classes
 90
        0
280
     0
281
     0
  0
ENDSEC
  0
SECTION
  2
TABLES
  0
TABLE
  2
VPORT
  5
8
330
0
100
AcDbSymbolTable
 70
     1
  0
VPORT
  5
29
330
8
100
AcDbSymbolTableRecord
100
AcDbViewportTableRecord
  2
*Active
 70
     0
 10
0.0
 20
0.0
 11
1.0
 21
1.0
 12
105.0000000000001
 22
148.5
 13
0.0
 23
0.0
 14
0.5
 24
0.5
 15
0.5
 25
0.5
 16
0.0
 26
0.0
 36
1.0
 17
0.0
 27
0.0
 37
0.0
 40
326.7
 41
1.60267857142857
 42
50.0
 43
0.0
 44
0.0
 50
0.0
 51
0.0
 71
     0
 72
   100
 73
     1
 74
     3
 75
     0
 76
     0
 77
     0
 78
     0
281
     0
 65
     1
110
0.0
120
0.0
130
0.0
111
1.0
121
0.0
131
0.0
112
0.0
122
1.0
132
0.0
 79
     0
146
0.0
  0
ENDTAB
  0
TABLE
  2
LTYPE
  5
5
330
0
100
AcDbSymbolTable
 70
     8
  0
LTYPE
  5
14
330
5
100
AcDbSymbolTableRecord
100
AcDbLinetypeTableRecord
  2
ByBlock
 70
     0
  3

 72
    65
 73
     0
 40
0.0
  0
LTYPE
  5
15
330
5
100
AcDbSymbolTableRecord
100
AcDbLinetypeTableRecord
  2
ByLayer
 70
     0
  3

 72
    65
 73
     0
 40
0.0
  0
LTYPE
  5
16
330
5
100
AcDbSymbolTableRecord
100
AcDbLinetypeTableRecord
  2
Continuous
 70
     0
  3
Solid line
 72
    65
 73
     0
 40
0.0
  0
LTYPE
  5
3F
330
5
100
AcDbSymbolTableRecord
100
AcDbLinetypeTableRecord
  2
DASHED
 70
     0
  3
Dashed
 72
    65
 73
     2
 40
15.0
 49
7.0
 74
     0
 49
-8.0
 74
     0
  0
LTYPE
  5
40
330
5
100
AcDbSymbolTableRecord
100
AcDbLinetypeTableRecord
  2
DOTTED
 70
     0
  3
Dotted
 72
    65
 73
     2
 40
1.0
 49
0.0
 74
     0
 49
-1.0
 74
     0
  0
LTYPE
  5
41
330
5
100
AcDbSymbolTableRecord
100
AcDbLinetypeTableRecord
  2
DOT_CENTER
 70
     0
  3
Dot_Center
 72
    65
 73
     4
 40
14.0
 49
12.0
 74
     0
 49
-1.0
 74
     0
 49
0.0
 74
     0
 49
-1.0
 74
     0
  0
LTYPE
  5
42
330
5
100
AcDbSymbolTableRecord
100
AcDbLinetypeTableRecord
  2
LONG_DASHED
 70
     0
  3
Long_Dashed
 72
    65
 73
     2
 40
15.0
 49
10.0
 74
     0
 49
-5.0
 74
     0
  0
LTYPE
  5
43
330
5
100
AcDbSymbolTableRecord
100
AcDbLinetypeTableRecord
  2
DASH_CENTER
 70
     0
  3
Dash_Center
 72
    65
 73
     4
 40
14.0
 49
11.0
 74
     0
 49
-1.0
 74
     0
 49
1.0
 74
     0
 49
-1.0
 74
     0
  0
LTYPE
  5
44
330
5
100
AcDbSymbolTableRecord
100
AcDbLinetypeTableRecord
  2
PHANTOM
 70
     0
  3
Phantom
 72
    65
 73
     6
 40
13.0
 49
10.0
 74
     0
 49
-1.0
 74
     0
 49
0.0
 74
     0
 49
-1.0
 74
     0
 49
0.0
 74
     0
 49
-1.0
 74
     0
  0
LTYPE
  5
45
330
5
100
AcDbSymbolTableRecord
100
AcDbLinetypeTableRecord
  2
CENTER_DASH_DASH
 70
     0
  3
Center_Dash_Dash
 72
    65
 73
     6
 40
14.0
 49
9.0
 74
     0
 49
-1.0
 74
     0
 49
1.0
 74
     0
 49
-1.0
 74
     0
 49
1.0
 74
     0
 49
-1.0
 74
     0
  0
ENDTAB
  0
TABLE
  2
LAYER
  5
2
330
0
100
AcDbSymbolTable
 70
     3
  0
LAYER
  5
10
330
2
100
AcDbSymbolTableRecord
100
AcDbLayerTableRecord
  2
0
 70
     0
 62
     7
  6
Continuous
370
    -3
390
F
  0
LAYER
  5
46
330
2
100
AcDbSymbolTableRecord
100
AcDbLayerTableRecord
  2
1
 70
     0
 62
     7
  6
Continuous
370
    -3
390
F
  0
LAYER
  5
47
330
2
100
AcDbSymbolTableRecord
100
AcDbLayerTableRecord
  2
_U_30EC_U_30A4_U_30E4_U_30FC_1
 70
     0
 62
     7
  6
Continuous
370
    -3
390
F
  0
ENDTAB
  0
TABLE
  2
STYLE
  5
3
330
0
100
AcDbSymbolTable
 70
     3
  0
STYLE
  5
11
330
3
100
AcDbSymbolTableRecord
100
AcDbTextStyleTableRecord
  2
Standard
 70
     0
 40
0.0
 41
1.0
 50
0.0
 71
     0
 42
0.2
  3
txt
  4

  0
STYLE
  5
B6
330
3
100
AcDbSymbolTableRecord
100
AcDbTextStyleTableRecord
  2
CONVERTER_11
 70
     0
 40
0.0
 41
0.89
 50
0.0
 71
     0
 42
0.2
  3
MS Mincho.ttf
  4

1001
ACAD
1000
MS Mincho
1071
    32785
  0
STYLE
  5
115
330
3
100
AcDbSymbolTableRecord
100
AcDbTextStyleTableRecord
  2
CONVERTER_12
 70
     0
 40
0.0
 41
0.9
 50
0.0
 71
     0
 42
0.2
  3
txt.shx
  4

  0
ENDTAB
  0
TABLE
  2
VIEW
  5
6
330
0
100
AcDbSymbolTable
 70
     0
  0
ENDTAB
  0
TABLE
  2
UCS
  5
7
330
0
100
AcDbSymbolTable
 70
     0
  0
ENDTAB
  0
TABLE
  2
APPID
  5
9
330
0
100
AcDbSymbolTable
 70
     1
  0
APPID
  5
12
330
9
100
AcDbSymbolTableRecord
100
AcDbRegAppTableRecord
  2
ACAD
 70
     0
  0
ENDTAB
  0
TABLE
  2
DIMSTYLE
  5
A
330
0
100
AcDbSymbolTable
 70
     6
100
AcDbDimStyleTable
  0
DIMSTYLE
105
27
330
A
100
AcDbSymbolTableRecord
100
AcDbDimStyleTableRecord
  2
Standard
 70
     0
178
     0
340
11
  0
DIMSTYLE
105
12D
102
{ACAD_REACTORS
330
12E
102
}
330
A
100
AcDbSymbolTableRecord
100
AcDbDimStyleTableRecord
  2
ME10_DIM_10
 70
     0
 41
3.5
 42
0.0
 44
1.0
 73
     0
 74
     0
 77
     1
 78
     8
140
3.5
147
1.0
172
     1
173
     1
174
     1
175
     1
176
     2
177
     2
271
     2
178
     7
271
     2
340
115
  0
DIMSTYLE
105
138
102
{ACAD_REACTORS
330
139
102
}
330
A
100
AcDbSymbolTableRecord
100
AcDbDimStyleTableRecord
  2
ME10_DIM_11
 70
     0
 41
3.5
 42
0.0
 44
1.0
 73
     0
 74
     0
 77
     1
 78
     8
140
3.5
147
1.0
172
     1
173
     1
174
     1
175
     1
176
     2
177
     2
271
     2
178
     7
271
     2
340
115
  0
DIMSTYLE
105
143
102
{ACAD_REACTORS
330
144
102
}
330
A
100
AcDbSymbolTableRecord
100
AcDbDimStyleTableRecord
  2
ME10_DIM_12
 70
     0
 41
3.5
 42
0.0
 44
1.0
 73
     0
 74
     0
 77
     1
 78
     8
140
3.5
147
1.0
172
     1
173
     1
174
     1
175
     1
176
     2
177
     2
271
     2
178
     7
271
     2
340
115
  0
DIMSTYLE
105
14E
102
{ACAD_REACTORS
330
14F
102
}
330
A
100
AcDbSymbolTableRecord
100
AcDbDimStyleTableRecord
  2
ME10_DIM_13
 70
     0
 41
3.5
 42
0.0
 44
1.0
 73
     0
 74
     0
 77
     1
 78
     8
140
3.5
147
1.0
172
     1
173
     1
174
     1
175
     1
176
     2
177
     2
271
     2
178
     7
271
     2
340
115
  0
DIMSTYLE
105
159
102
{ACAD_REACTORS
330
15A
102
}
330
A
100
AcDbSymbolTableRecord
100
AcDbDimStyleTableRecord
  2
ME10_DIM_14
 70
     0
 41
3.5
 42
0.0
 44
1.0
 73
     0
 74
     0
 77
     1
 78
     8
140
3.5
147
1.0
172
     1
173
     1
174
     1
175
     1
176
     2
177
     2
271
     2
178
     7
271
     2
340
115
  0
ENDTAB
  0
TABLE
  2
BLOCK_RECORD
  5
1
330
0
100
AcDbSymbolTable
 70
    10
  0
BLOCK_RECORD
  5
1F
330
1
100
AcDbSymbolTableRecord
100
AcDbBlockTableRecord
  2
*Model_Space
340
22
  0
BLOCK_RECORD
  5
1B
330
1
100
AcDbSymbolTableRecord
100
AcDbBlockTableRecord
  2
*Paper_Space
340
1E
  0
BLOCK_RECORD
  5
23
330
1
100
AcDbSymbolTableRecord
100
AcDbBlockTableRecord
  2
*Paper_Space0
340
26
  0
BLOCK_RECORD
  5
48
330
1
100
AcDbSymbolTableRecord
100
AcDbBlockTableRecord
  2
開示A4
340
0
102
{BLKREFS
331
4C
102
}
  0
BLOCK_RECORD
  5
4B
330
1
100
AcDbSymbolTableRecord
100
AcDbBlockTableRecord
  2
開示A4枠
340
0
102
{BLKREFS
331
52
102
}
  0
BLOCK_RECORD
  5
4F
330
1
100
AcDbSymbolTableRecord
100
AcDbBlockTableRecord
  2
T206-13-0-M11
340
0
102
{BLKREFS
331
53
102
}
  0
BLOCK_RECORD
  5
124
330
1
100
AcDbSymbolTableRecord
100
AcDbBlockTableRecord
  2
*D4
340
0
  0
BLOCK_RECORD
  5
12F
330
1
100
AcDbSymbolTableRecord
100
AcDbBlockTableRecord
  2
*D5
340
0
  0
BLOCK_RECORD
  5
13A
330
1
100
AcDbSymbolTableRecord
100
AcDbBlockTableRecord
  2
*D6
340
0
  0
BLOCK_RECORD
  5
145
330
1
100
AcDbSymbolTableRecord
100
AcDbBlockTableRecord
  2
*D7
340
0
  0
BLOCK_RECORD
  5
150
330
1
100
AcDbSymbolTableRecord
100
AcDbBlockTableRecord
  2
*D8
340
0
  0
BLOCK_RECORD
  5
15B
330
1
100
AcDbSymbolTableRecord
100
AcDbBlockTableRecord
  2
*D9
340
0
102
{BLKREFS
331
162
102
}
  0
ENDTAB
  0
ENDSEC
  0
SECTION
  2
BLOCKS
  0
BLOCK
  5
20
330
1F
100
AcDbEntity
  8
0
100
AcDbBlockBegin
  2
*Model_Space
 70
     0
 10
0.0
 20
0.0
 30
0.0
  3
*Model_Space
  1

  0
ENDBLK
  5
21
330
1F
100
AcDbEntity
  8
0
100
AcDbBlockEnd
  0
BLOCK
  5
1C
330
1B
100
AcDbEntity
 67
     1
  8
0
100
AcDbBlockBegin
  2
*Paper_Space
 70
     0
 10
0.0
 20
0.0
 30
0.0
  3
*Paper_Space
  1

  0
ENDBLK
  5
1D
330
1B
100
AcDbEntity
 67
     1
  8
0
100
AcDbBlockEnd
  0
BLOCK
  5
24
330
23
100
AcDbEntity
  8
0
100
AcDbBlockBegin
  2
*Paper_Space0
 70
     0
 10
0.0
 20
0.0
 30
0.0
  3
*Paper_Space0
  1

  0
ENDBLK
  5
25
330
23
100
AcDbEntity
  8
0
100
AcDbBlockEnd
  0
BLOCK
  5
49
330
48
100
AcDbEntity
  8
0
100
AcDbBlockBegin
  2
開示A4
 70
     0
 10
0.0
 20
0.0
 30
0.0
  3
開示A4
  1

  0
POINT
  5
54
330
48
100
AcDbEntity
  8
1
 62
     4
100
AcDbPoint
 10
34.0
 20
34.0
 30
0.0
  0
POINT
  5
55
330
48
100
AcDbEntity
  8
1
 62
     4
100
AcDbPoint
 10
57.00000000000001
 20
12.25
 30
0.0
  0
POINT
  5
56
330
48
100
AcDbEntity
  8
1
 62
     4
100
AcDbPoint
 10
57.00000000000001
 20
20.75
 30
0.0
  0
POINT
  5
57
330
48
100
AcDbEntity
  8
1
 62
     4
100
AcDbPoint
 10
57.00000000000001
 20
24.75
 30
0.0
  0
POINT
  5
58
330
48
100
AcDbEntity
  8
1
 62
     4
100
AcDbPoint
 10
57.00000000000001
 20
16.25
 30
0.0
  0
POINT
  5
59
330
48
100
AcDbEntity
  8
1
 62
     4
100
AcDbPoint
 10
157.5000000000001
 20
19.0
 30
0.0
  0
POINT
  5
5A
330
48
100
AcDbEntity
  8
1
 62
     4
100
AcDbPoint
 10
47.50000000000001
 20
282.0000000000003
 30
0.0
  0
POINT
  5
5B
330
48
100
AcDbEntity
  8
1
 62
     4
100
AcDbPoint
 10
57.00000000000001
 20
22.75
 30
0.0
  0
POINT
  5
5C
330
48
100
AcDbEntity
  8
1
 62
     4
100
AcDbPoint
 10
57.00000000000001
 20
14.25
 30
0.0
  0
POINT
  5
5D
330
48
100
AcDbEntity
  8
1
 62
     4
100
AcDbPoint
 10
157.5000000000001
 20
12.5
 30
0.0
  0
POINT
  5
5E
330
48
100
AcDbEntity
  8
1
 62
     4
100
AcDbPoint
 10
163.2500000000001
 20
12.5
 30
0.0
  0
POINT
  5
5F
330
48
100
AcDbEntity
  8
1
 62
     4
100
AcDbPoint
 10
151.7500000000001
 20
12.5
 30
0.0
  0
POINT
  5
60
330
48
100
AcDbEntity
  8
1
 62
     4
100
AcDbPoint
 10
134.75
 20
12.5
 30
0.0
  0
POINT
  5
61
330
48
100
AcDbEntity
  8
1
 62
     4
100
AcDbPoint
 10
146.25
 20
12.5
 30
0.0
  0
POINT
  5
62
330
48
100
AcDbEntity
  8
1
 62
     4
100
AcDbPoint
 10
140.5
 20
12.5
 30
0.0
  0
POINT
  5
63
330
48
100
AcDbEntity
  8
1
 62
     4
100
AcDbPoint
 10
140.5
 20
19.0
 30
0.0
  0
POINT
  5
64
330
48
100
AcDbEntity
  8
1
 62
     4
100
AcDbPoint
 10
117.75
 20
12.5
 30
0.0
  0
POINT
  5
65
330
48
100
AcDbEntity
  8
1
 62
     4
100
AcDbPoint
 10
129.25
 20
12.5
 30
0.0
  0
POINT
  5
66
330
48
100
AcDbEntity
  8
1
 62
     4
100
AcDbPoint
 10
123.5
 20
12.5
 30
0.0
  0
POINT
  5
67
330
48
100
AcDbEntity
  8
1
 62
     4
100
AcDbPoint
 10
123.5
 20
19.0
 30
0.0
  0
POINT
  5
68
330
48
100
AcDbEntity
  8
1
 62
     4
100
AcDbPoint
 10
100.75
 20
12.5
 30
0.0
  0
POINT
  5
69
330
48
100
AcDbEntity
  8
1
 62
     4
100
AcDbPoint
 10
112.25
 20
12.5
 30
0.0
  0
POINT
  5
6A
330
48
100
AcDbEntity
  8
1
 62
     4
100
AcDbPoint
 10
106.5
 20
12.5
 30
0.0
  0
POINT
  5
6B
330
48
100
AcDbEntity
  8
1
 62
     4
100
AcDbPoint
 10
106.5
 20
19.0
 30
0.0
  0
POINT
  5
6C
330
48
100
AcDbEntity
  8
1
 62
     4
100
AcDbPoint
 10
85.25000000000003
 20
17.0
 30
0.0
  0
POINT
  5
6D
330
48
100
AcDbEntity
  8
1
 62
     4
100
AcDbPoint
 10
93.75000000000003
 20
17.0
 30
0.0
  0
POINT
  5
6E
330
48
100
AcDbEntity
  8
1
 62
     4
100
AcDbPoint
 10
183.0000000000001
 20
15.0
 30
0.0
  0
LINE
  5
6F
330
48
100
AcDbEntity
  8
1
  6
Continuous
 62
     2
100
AcDbLine
 10
81.00000000000003
 20
27.0
 30
0.0
 11
81.00000000000003
 21
10.0
 31
0.0
  0
LINE
  5
70
330
48
100
AcDbEntity
  8
1
  6
DOT_CENTER
 62
     2
100
AcDbLine
 10
187.0000000000001
 20
26.5
 30
0.0
 11
187.0000000000001
 21
20.5
 31
0.0
  0
LINE
  5
71
330
48
100
AcDbEntity
  8
1
  6
DOT_CENTER
 62
     2
100
AcDbLine
 10
184.0000000000001
 20
23.5
 30
0.0
 11
197.0000000000001
 21
23.5
 31
0.0
  0
LINE
  5
72
330
48
100
AcDbEntity
  8
1
  6
Continuous
 62
     7
100
AcDbLine
 10
196.0000000000001
 20
21.5
 30
0.0
 11
191.0000000000001
 21
22.29999999999998
 31
0.0
  0
LINE
  5
73
330
48
100
AcDbEntity
  8
1
  6
Continuous
 62
     7
100
AcDbLine
 10
196.0000000000001
 20
25.5
 30
0.0
 11
196.0000000000001
 21
21.5
 31
0.0
  0
LINE
  5
74
330
48
100
AcDbEntity
  8
1
  6
Continuous
 62
     7
100
AcDbLine
 10
191.0000000000001
 20
24.69999999999999
 30
0.0
 11
196.0000000000001
 21
25.5
 31
0.0
  0
LINE
  5
75
330
48
100
AcDbEntity
  8
1
  6
Continuous
 62
     7
100
AcDbLine
 10
191.0000000000001
 20
24.69999999999999
 30
0.0
 11
191.0000000000001
 21
22.29999999999998
 31
0.0
  0
LINE
  5
76
330
48
100
AcDbEntity
  8
1
  6
Continuous
 62
     2
100
AcDbLine
 10
33.0
 20
27.0
 30
0.0
 11
33.0
 21
10.0
 31
0.0
  0
LINE
  5
77
330
48
100
AcDbEntity
  8
1
  6
Continuous
 62
     2
100
AcDbLine
 10
25.0
 20
18.5
 30
0.0
 11
81.00000000000003
 21
18.5
 31
0.0
  0
LINE
  5
78
330
48
100
AcDbEntity
  8
1
  6
Continuous
 62
     7
100
AcDbLine
 10
200.0000000000001
 20
287.0000000000003
 30
0.0
 11
105.0
 21
287.0000000000003
 31
0.0
  0
LINE
  5
79
330
48
100
AcDbEntity
  8
1
  6
Continuous
 62
     7
100
AcDbLine
 10
200.0000000000001
 20
10.0
 30
0.0
 11
200.0000000000001
 21
148.5
 31
0.0
  0
LINE
  5
7A
330
48
100
AcDbEntity
  8
1
  6
Continuous
 62
     7
100
AcDbLine
 10
25.0
 20
10.0
 30
0.0
 11
105.0
 21
10.0
 31
0.0
  0
LINE
  5
7B
330
48
100
AcDbEntity
  8
1
  6
PHANTOM
 62
     4
100
AcDbLine
 10
0.0
 20
297.0
 30
0.0
 11
0.0
 21
0.0
 31
0.0
  0
LINE
  5
7C
330
48
100
AcDbEntity
  8
1
  6
PHANTOM
 62
     4
100
AcDbLine
 10
210.0000000000001
 20
297.0
 30
0.0
 11
0.0
 21
297.0
 31
0.0
  0
LINE
  5
7D
330
48
100
AcDbEntity
  8
1
  6
PHANTOM
 62
     4
100
AcDbLine
 10
210.0000000000001
 20
0.0
 30
0.0
 11
210.0000000000001
 21
297.0
 31
0.0
  0
LINE
  5
7E
330
48
100
AcDbEntity
  8
1
  6
PHANTOM
 62
     4
100
AcDbLine
 10
0.0
 20
0.0
 30
0.0
 11
210.0000000000001
 21
0.0
 31
0.0
  0
LINE
  5
7F
330
48
100
AcDbEntity
  8
1
  6
Continuous
 62
     7
100
AcDbLine
 10
25.0
 20
41.0
 30
0.0
 11
200.0000000000001
 21
41.0
 31
0.0
  0
LINE
  5
80
330
48
100
AcDbEntity
  8
1
  6
Continuous
 62
     7
100
AcDbLine
 10
200.0000000000001
 20
27.0
 30
0.0
 11
25.0
 21
27.0
 31
0.0
  0
LINE
  5
81
330
48
100
AcDbEntity
  8
1
  6
Continuous
 62
     2
100
AcDbLine
 10
33.0
 20
41.0
 30
0.0
 11
33.0
 21
27.0
 31
0.0
  0
LINE
  5
82
330
48
100
AcDbEntity
  8
1
  6
Continuous
 62
     2
100
AcDbLine
 10
55.00000000000001
 20
287.0000000000003
 30
0.0
 11
55.00000000000001
 21
277.0000000000003
 31
0.0
  0
LINE
  5
83
330
48
100
AcDbEntity
  8
1
  6
Continuous
 62
     2
100
AcDbLine
 10
40.00000000000001
 20
287.0000000000003
 30
0.0
 11
40.00000000000001
 21
277.0000000000003
 31
0.0
  0
LINE
  5
84
330
48
100
AcDbEntity
  8
1
  6
Continuous
 62
     7
100
AcDbLine
 10
25.0
 20
10.0
 30
0.0
 11
25.0
 21
148.5
 31
0.0
  0
LINE
  5
85
330
48
100
AcDbEntity
  8
1
  6
Continuous
 62
     2
100
AcDbLine
 10
55.00000000000001
 20
277.0000000000003
 30
0.0
 11
25.0
 21
277.0000000000003
 31
0.0
  0
LINE
  5
86
330
48
100
AcDbEntity
  8
1
  6
Continuous
 62
     2
100
AcDbLine
 10
166.0000000000001
 20
27.0
 30
0.0
 11
166.0000000000001
 21
10.0
 31
0.0
  0
LINE
  5
87
330
48
100
AcDbEntity
  8
1
  6
Continuous
 62
     2
100
AcDbLine
 10
132.0
 20
27.0
 30
0.0
 11
132.0
 21
10.0
 31
0.0
  0
LINE
  5
88
330
48
100
AcDbEntity
  8
1
  6
Continuous
 62
     2
100
AcDbLine
 10
149.0
 20
27.0
 30
0.0
 11
149.0
 21
10.0
 31
0.0
  0
LINE
  5
89
330
48
100
AcDbEntity
  8
1
  6
Continuous
 62
     2
100
AcDbLine
 10
115.0
 20
27.0
 30
0.0
 11
115.0
 21
10.0
 31
0.0
  0
LINE
  5
8A
330
48
100
AcDbEntity
  8
1
  6
Continuous
 62
     2
100
AcDbLine
 10
98.00000000000003
 20
27.0
 30
0.0
 11
98.00000000000003
 21
10.0
 31
0.0
  0
LINE
  5
8B
330
48
100
AcDbEntity
  8
1
  6
Continuous
 62
     2
100
AcDbLine
 10
166.0000000000001
 20
20.0
 30
0.0
 11
200.0000000000001
 21
20.0
 31
0.0
  0
LINE
  5
8C
330
48
100
AcDbEntity
  8
1
  6
Continuous
 62
     2
100
AcDbLine
 10
105.0
 20
287.0000000000003
 30
0.0
 11
105.0
 21
292.0000000000003
 31
0.0
  0
LINE
  5
8D
330
48
100
AcDbEntity
  8
1
  6
Continuous
 62
     7
100
AcDbLine
 10
105.0
 20
287.0000000000003
 30
0.0
 11
25.0
 21
287.0000000000003
 31
0.0
  0
LINE
  5
8E
330
48
100
AcDbEntity
  8
1
  6
Continuous
 62
     2
100
AcDbLine
 10
25.0
 20
148.5
 30
0.0
 11
20.0
 21
148.5
 31
0.0
  0
LINE
  5
8F
330
48
100
AcDbEntity
  8
1
  6
Continuous
 62
     7
100
AcDbLine
 10
25.0
 20
148.5
 30
0.0
 11
25.0
 21
287.0000000000003
 31
0.0
  0
LINE
  5
90
330
48
100
AcDbEntity
  8
1
  6
Continuous
 62
     2
100
AcDbLine
 10
200.0000000000001
 20
148.5
 30
0.0
 11
205.0000000000001
 21
148.5
 31
0.0
  0
LINE
  5
91
330
48
100
AcDbEntity
  8
1
  6
Continuous
 62
     7
100
AcDbLine
 10
200.0000000000001
 20
148.5
 30
0.0
 11
200.0000000000001
 21
287.0000000000003
 31
0.0
  0
LINE
  5
92
330
48
100
AcDbEntity
  8
1
  6
Continuous
 62
     2
100
AcDbLine
 10
105.0
 20
10.0
 30
0.0
 11
105.0
 21
5.0
 31
0.0
  0
LINE
  5
93
330
48
100
AcDbEntity
  8
1
  6
Continuous
 62
     7
100
AcDbLine
 10
105.0
 20
10.0
 30
0.0
 11
200.0000000000001
 21
10.0
 31
0.0
  0
CIRCLE
  5
98
330
48
100
AcDbEntity
  8
1
  6
DOT_CENTER
 62
     7
100
AcDbCircle
 10
89.50000000000003
 20
18.0
 30
0.0
 40
0.1000000000000369
  0
CIRCLE
  5
99
330
48
100
AcDbEntity
  8
1
  6
DOT_CENTER
 62
     7
100
AcDbCircle
 10
89.50000000000003
 20
16.0
 30
0.0
 40
0.1000000000000369
  0
CIRCLE
  5
9A
330
48
100
AcDbEntity
  8
1
  6
Continuous
 62
     7
100
AcDbCircle
 10
187.0000000000001
 20
23.5
 30
0.0
 40
2.0
  0
CIRCLE
  5
9B
330
48
100
AcDbEntity
  8
1
  6
Continuous
 62
     7
100
AcDbCircle
 10
187.0000000000001
 20
23.5
 30
0.0
 40
1.199999999999989
  0
CIRCLE
  5
9C
330
48
100
AcDbEntity
  8
1
  6
Continuous
 62
     7
100
AcDbCircle
 10
154.5000000000001
 20
12.5
 30
0.0
 40
0.2999999999998977
  0
CIRCLE
  5
9D
330
48
100
AcDbEntity
  8
1
  6
Continuous
 62
     7
100
AcDbCircle
 10
160.5000000000001
 20
12.5
 30
0.0
 40
0.2999999999998977
  0
CIRCLE
  5
9E
330
48
100
AcDbEntity
  8
1
  6
Continuous
 62
     7
100
AcDbCircle
 10
143.5
 20
12.5
 30
0.0
 40
0.3000000000000114
  0
CIRCLE
  5
9F
330
48
100
AcDbEntity
  8
1
  6
Continuous
 62
     7
100
AcDbCircle
 10
137.5
 20
12.5
 30
0.0
 40
0.3000000000000114
  0
CIRCLE
  5
A0
330
48
100
AcDbEntity
  8
1
  6
Continuous
 62
     7
100
AcDbCircle
 10
126.5
 20
12.5
 30
0.0
 40
0.2999999999999972
  0
CIRCLE
  5
A1
330
48
100
AcDbEntity
  8
1
  6
Continuous
 62
     7
100
AcDbCircle
 10
120.5
 20
12.5
 30
0.0
 40
0.2999999999999972
  0
CIRCLE
  5
A2
330
48
100
AcDbEntity
  8
1
  6
Continuous
 62
     7
100
AcDbCircle
 10
109.5
 20
12.5
 30
0.0
 40
0.2999999999999972
  0
CIRCLE
  5
A3
330
48
100
AcDbEntity
  8
1
  6
Continuous
 62
     7
100
AcDbCircle
 10
103.5
 20
12.5
 30
0.0
 40
0.2999999999999972
  0
SPLINE
  5
A4
102
{ACAD_REACTORS
330
C2
102
}
330
48
100
AcDbEntity
  8
_U_30EC_U_30A4_U_30E4_U_30FC_1
  6
Continuous
 62
     2
100
AcDbSpline
210
0.0
220
0.0
230
1.0
 70
    11
 71
     3
 72
    99
 73
    95
 74
    93
 42
0.000000001
 43
0.0000000001
 44
0.00000001
 40
0.0
 40
0.0
 40
0.0
 40
0.0
 40
0.0796417172271638
 40
0.162176854235555
 40
0.2486489160957059
 40
0.3404969668524003
 40
0.4381912511164079
 40
0.5434463660244395
 40
0.6518115192846445
 40
0.7530190937886222
 40
0.8492196919723815
 40
0.9419290312996971
 40
1.034249663569905
 40
1.129078600620048
 40
1.226697027573143
 40
1.327220425421583
 40
1.470572134937939
 40
1.595489863371149
 40
1.719934125348311
 40
1.850576620127366
 40
1.989059629987218
 40
2.134139054226855
 40
2.28069800720715
 40
2.424529739039394
 40
2.565929576985769
 40
2.708239260773438
 40
2.861717887443536
 40
3.045168540347257
 40
3.183798301138497
 40
3.314813961455374
 40
3.442083470447225
 40
3.56991270837286
 40
3.702177512509318
 40
3.842307559659447
 40
3.99287222324584
 40
4.156750662218228
 40
4.310981861107534
 40
4.445859909322568
 40
4.572393936131522
 40
4.70165671978189
 40
4.768279086008384
 40
4.835960697898314
 40
4.912788918729255
 40
5.006285208481455
 40
5.026909478751532
 40
5.047533749021096
 40
5.101808031471116
 40
5.162325165538395
 40
5.226919745995754
 40
5.294231806596651
 40
5.364544852554755
 40
5.438319055467759
 40
5.517877651324119
 40
5.607647714861487
 40
5.700449642544333
 40
5.788251142364082
 40
5.872714706039662
 40
5.955167292575116
 40
6.03719239519027
 40
6.12066918146897
 40
6.206848616686192
 40
6.296680855416645
 40
6.442558392872491
 40
6.568190371608083
 40
6.692904567360251
 40
6.82422044655698
 40
6.96312185032929
 40
7.107843738851084
 40
7.253431663907141
 40
7.395187468036515
 40
7.533140753237658
 40
7.67055045717513
 40
7.816236511769152
 40
7.987691657359085
 40
8.142277421969151
 40
8.293662615414888
 40
8.442962460879176
 40
8.591598316185209
 40
8.743678992361682
 40
8.903725323699087
 40
9.076307008890375
 40
9.265578604680401
 40
9.459203795360633
 40
9.61761981027333
 40
9.753609671361762
 40
9.874873300003989
 40
9.954520184977653
 40
10.02416413719229
 40
10.0976976440543
 40
10.1890995592496
 40
10.20974586420127
 40
10.23039218263375
 40
10.30057101881262
 40
10.37632012987546
 40
10.37632012987546
 40
10.37632012987546
 40
10.37632012987546
 10
170.1465954835852
 20
14.1379566321599
 30
0.0
 10
170.163221785122
 20
14.11720608845311
 30
0.0
 10
170.1970784206578
 20
14.07495111711901
 30
0.0
 10
170.2599822541036
 20
14.02029811392072
 30
0.0
 10
170.3332500940394
 20
13.97299025121053
 30
0.0
 10
170.4175969238637
 20
13.93527231437938
 30
0.0
 10
170.513224061546
 20
13.91040619731952
 30
0.0
 10
170.6171853775346
 20
13.90309559345934
 30
0.0
 10
170.7224020220406
 20
13.91142322794056
 30
0.0
 10
170.8206626371334
 20
13.94149179651522
 30
0.0
 10
170.9058986427549
 20
13.98848822971878
 30
0.0
 10
170.9779220206103
 20
14.04952991250858
 30
0.0
 10
171.0350917709096
 20
14.12412969578582
 30
0.0
 10
171.0767868747439
 20
14.21002464660175
 30
0.0
 10
171.1026952846293
 20
14.3048585043221
 30
0.0
 10
171.1118037332654
 20
14.41854979038369
 30
0.0
 10
171.0986864796487
 20
14.5433258777078
 30
0.0
 10
171.0325330334414
 20
14.66014719171893
 30
0.0
 10
170.9369370919569
 20
14.74512539577377
 30
0.0
 10
170.8249681022369
 20
14.81416684459165
 30
0.0
 10
170.699365958327
 20
14.87204142045894
 30
0.0
 10
170.5656691620856
 20
14.92373723284338
 30
0.0
 10
170.4313122818831
 20
14.97899092397184
 30
0.0
 10
170.3051983986877
 20
15.04939770641645
 30
0.0
 10
170.1926579987535
 20
15.13785540731245
 30
0.0
 10
170.0969963064459
 20
15.24981067868478
 30
0.0
 10
170.0334157151825
 20
15.39949910101377
 30
0.0
 10
170.0200706505016
 20
15.55932794385139
 30
0.0
 10
170.0320510987448
 20
15.71048405306843
 30
0.0
 10
170.0712298928841
 20
15.83809244591538
 30
0.0
 10
170.135498775091
 20
15.95080874030844
 30
0.0
 10
170.2238204999741
 20
16.04648609268686
 30
0.0
 10
170.3338091207627
 20
16.12354214985748
 30
0.0
 10
170.4632284401265
 20
16.18151396936284
 30
0.0
 10
170.6111838967793
 20
16.21739177588818
 30
0.0
 10
170.7682069455487
 20
16.22746719050561
 30
0.0
 10
170.9174940466431
 20
16.21863637762588
 30
0.0
 10
171.059625361417
 20
16.1907489934036
 30
0.0
 10
171.1595922609625
 20
16.13413314701137
 30
0.0
 10
171.3125074736185
 20
16.08674602105508
 30
0.0
 10
171.2455131717168
 20
16.00197553001186
 30
0.0
 10
171.2296479120268
 20
15.93438901873486
 30
0.0
 10
171.1978750531297
 20
15.8692609279319
 30
0.0
 10
171.2150202209571
 20
15.76723453256955
 30
0.0
 10
171.1666427208232
 20
15.77493211681903
 30
0.0
 10
171.1315789440766
 20
15.76806771724809
 30
0.0
 10
171.1296697985719
 20
15.83263831158196
 30
0.0
 10
171.0985692931991
 20
15.87825639621398
 30
0.0
 10
171.0664551628455
 20
15.93561036628451
 30
0.0
 10
171.0208038475169
 20
15.98540462692558
 30
0.0
 10
170.9658508218386
 20
16.02994813718989
 30
0.0
 10
170.9010841173009
 20
16.06763988836552
 30
0.0
 10
170.8232377310597
 20
16.09283375791349
 30
0.0
 10
170.7355160553352
 20
16.09931230998107
 30
0.0
 10
170.6452903277806
 20
16.09235709285609
 30
0.0
 10
170.5594594694065
 20
16.06909190460909
 30
0.0
 10
170.4828343638596
 20
16.03131644107548
 30
0.0
 10
170.4165265636202
 20
15.98051641089563
 30
0.0
 10
170.3622560536964
 20
15.91731143407214
 30
0.0
 10
170.3224925345458
 20
15.84276455710369
 30
0.0
 10
170.2976775510588
 20
15.75917313997762
 30
0.0
 10
170.2892124262871
 20
15.65192948382284
 30
0.0
 10
170.3019697987104
 20
15.5296545726756
 30
0.0
 10
170.3681548409273
 20
15.41149724291206
 30
0.0
 10
170.4640977399833
 20
15.32606325709533
 30
0.0
 10
170.5757914963181
 20
15.25583362306707
 30
0.0
 10
170.7010863668704
 20
15.19659162305311
 30
0.0
 10
170.8349823941448
 20
15.14616708086129
 30
0.0
 10
170.968993033315
 20
15.09322516984383
 30
0.0
 10
171.0950885316915
 20
15.0275017062517
 30
0.0
 10
171.2076216638418
 20
14.9448035253732
 30
0.0
 10
171.3031370284233
 20
14.83996006310071
 30
0.0
 10
171.3672706486963
 20
14.69937117251569
 30
0.0
 10
171.381110372528
 20
14.54065409451592
 30
0.0
 10
171.3673954712231
 20
14.38153155217876
 30
0.0
 10
171.3244739153984
 20
14.23483828819213
 30
0.0
 10
171.2545906329065
 20
14.10119796587142
 30
0.0
 10
171.1574592213829
 20
13.98532387699294
 30
0.0
 10
171.0347806023657
 20
13.89089981770091
 30
0.0
 10
170.8874408413168
 20
13.82179270651979
 30
0.0
 10
170.7177132497125
 20
13.77953210858854
 30
0.0
 10
170.5317404979597
 20
13.76781736230405
 30
0.0
 10
170.3528955926183
 20
13.77809486683436
 30
0.0
 10
170.1881733753744
 20
13.81966573769153
 30
0.0
 10
170.0834410841057
 20
13.88797642883944
 30
0.0
 10
169.9350960790365
 20
13.93675219032107
 30
0.0
 10
169.9980378194729
 20
14.02976591290841
 30
0.0
 10
170.0072274430059
 20
14.10296536248278
 30
0.0
 10
170.0303711301232
 20
14.16936294501344
 30
0.0
 10
170.0034588335317
 20
14.26974809527583
 30
0.0
 10
170.0521338956339
 20
14.26234033517378
 30
0.0
 10
170.0916530580698
 20
14.26894063620896
 30
0.0
 10
170.0996204944702
 20
14.19078703218929
 30
0.0
 10
170.1305436967924
 20
14.15600927375853
 30
0.0
 10
170.1465954835852
 20
14.1379566321599
 30
0.0
 11
170.1465954835852
 21
14.1379566321599
 31
0.0
 11
170.1982038075864
 21
14.07729869814738
 31
0.0
 11
170.2601105501336
 21
14.0227129516332
 31
0.0
 11
170.3327764009803
 21
13.97583980928385
 31
0.0
 11
170.4166468655844
 21
13.9383990627654
 31
0.0
 11
170.511221073241
 21
13.91390636311878
 31
0.0
 11
170.6161603327166
 21
13.90575829888471
 31
0.0
 11
170.7240739497552
 21
13.91564048638223
 31
0.0
 11
170.8208419941617
 21
13.9452870488748
 31
0.0
 11
170.9050776083319
 21
13.99175118948818
 31
0.0
 11
170.9756144207686
 21
14.05191413218151
 31
0.0
 11
171.031944210998
 21
14.12505819466319
 31
0.0
 11
171.0736690016003
 21
14.2102143404752
 31
0.0
 11
171.0994680808033
 21
14.30436190989614
 31
0.0
 11
171.1080824729447
 21
14.40451552098219
 31
0.0
 11
171.0878517703357
 21
14.546432508794
 31
0.0
 11
171.0272522666731
 21
14.65566684036389
 31
0.0
 11
170.9364971286286
 21
14.74081306430097
 31
0.0
 11
170.826010188474
 21
14.81052746532521
 31
0.0
 11
170.7008523531254
 21
14.86979854169924
 31
0.0
 11
170.5662951950998
 21
14.9240425347412
 31
0.0
 11
170.4316884277007
 21
14.98201274306006
 31
0.0
 11
170.3065802017258
 21
15.05297399304229
 31
0.0
 11
170.196027609828
 21
15.14113315968692
 31
0.0
 11
170.1053381235266
 21
15.25080295132619
 31
0.0
 11
170.0447055469484
 21
15.39179720476311
 31
0.0
 11
170.0245079172553
 21
15.57413260402311
 31
0.0
 11
170.0374030471347
 21
15.71216131926639
 31
0.0
 11
170.0761016659391
 21
15.83733128451289
 31
0.0
 11
170.1393141731506
 21
15.94779262129084
 31
0.0
 11
170.2257499954545
 21
16.04196885390618
 31
0.0
 11
170.3336492808963
 21
16.1184654077065
 31
0.0
 11
170.4613526283328
 21
16.1761567010949
 31
0.0
 11
170.6075393259923
 21
16.21220066809972
 31
0.0
 11
170.770976856545
 21
16.22421385386059
 31
0.0
 11
170.924891843129
 21
16.21434269066863
 31
0.0
 11
171.0564887242608
 21
16.18477329831501
 31
0.0
 11
171.172563634494
 21
16.13439993895253
 31
0.0
 11
171.2800792741122
 21
16.06264163167879
 31
0.0
 11
171.2516994050444
 21
16.00236624106887
 31
0.0
 11
171.2284855254283
 21
15.9387901733765
 31
0.0
 11
171.2078381040801
 21
15.86478841992269
 31
0.0
 11
171.1871840681487
 21
15.77360197897329
 31
0.0
 11
171.1665597978415
 21
15.77360197897329
 31
0.0
 11
171.1459355275343
 21
15.77360197897329
 31
0.0
 11
171.1256706495791
 21
15.82395108486346
 31
0.0
 11
171.0994658759422
 21
15.87850045116929
 31
0.0
 11
171.0650468924451
 21
15.93316116296114
 31
0.0
 11
171.0203554612937
 21
15.98349593725411
 31
0.0
 11
170.9657333359511
 21
16.02777175321526
 31
0.0
 11
170.9016722004327
 21
16.06436142334499
 31
0.0
 11
170.8259682961141
 21
16.08882545979724
 31
0.0
 11
170.7365722046449
 21
16.09701100667019
 31
0.0
 11
170.6440937174207
 21
16.089269739311
 31
0.0
 11
170.5594072091645
 21
16.06609003445558
 31
0.0
 11
170.483702448884
 21
16.02863495634006
 31
0.0
 11
170.4183754766517
 21
15.97832774281099
 31
0.0
 11
170.3650487887664
 21
15.91600293379878
 31
0.0
 11
170.3254809233901
 21
15.84249947895609
 31
0.0
 11
170.3009523754712
 21
15.75988443557392
 31
0.0
 11
170.2927954104109
 21
15.6704232984435
 31
0.0
 11
170.3130095765618
 21
15.52595308146569
 31
0.0
 11
170.373625616682
 21
15.41591177072939
 31
0.0
 11
170.4643479320759
 21
15.3303367013063
 31
0.0
 11
170.5748676948813
 21
15.25941954854619
 31
0.0
 11
170.700008993772
 21
15.1991430555058
 31
0.0
 11
170.8345826882554
 21
15.1459044791302
 31
0.0
 11
170.9691729191968
 21
15.09039489581073
 31
0.0
 11
171.0942976816297
 21
15.02377281249409
 31
0.0
 11
171.2048009079771
 21
14.94118863716745
 31
0.0
 11
171.2955397598289
 21
14.8380000347627
 31
0.0
 11
171.356155799949
 21
14.70552315979583
 31
0.0
 11
171.3763699660999
 21
14.53526378483841
 31
0.0
 11
171.3621839747999
 21
14.38133030397411
 31
0.0
 11
171.3196087009193
 21
14.23605531269101
 31
0.0
 11
171.2499752884265
 21
14.10398854189068
 31
0.0
 11
171.1544992078713
 21
13.9900721877525
 31
0.0
 11
171.0341060772624
 21
13.8971527259702
 31
0.0
 11
170.8896160201846
 21
13.82832357668178
 31
0.0
 11
170.7223519532714
 21
13.78581275203967
 31
0.0
 11
170.5336103348227
 21
13.7716586461404
 31
0.0
 11
170.3405031726388
 21
13.78581275203967
 31
0.0
 11
170.1878975900912
 21
13.82832357668178
 31
0.0
 11
170.0661897942203
 21
13.88899033013892
 31
0.0
 11
169.9660261826363
 21
13.95734322942741
 31
0.0
 11
169.9922320587039
 21
14.03255545163076
 31
0.0
 11
170.0090121537618
 21
14.10014767383609
 31
0.0
 11
170.0206196447852
 21
14.17275926235959
 31
0.0
 11
170.0313606254139
 21
14.26352788212859
 31
0.0
 11
170.0520069443316
 21
14.26352788212859
 31
0.0
 11
170.0726532632493
 21
14.26352788212859
 31
0.0
 11
170.104891639163
 21
14.20119204881082
 31
0.0
 11
170.1465954835852
 21
14.1379566321599
 31
0.0
  0
SPLINE
  5
A5
102
{ACAD_REACTORS
330
C3
102
}
330
48
100
AcDbEntity
  8
_U_30EC_U_30A4_U_30E4_U_30FC_1
  6
Continuous
 62
     2
100
AcDbSpline
210
0.0
220
0.0
230
1.0
 70
    11
 71
     3
 72
    57
 73
    53
 74
    51
 42
0.000000001
 43
0.0000000001
 44
0.00000001
 40
0.0
 40
0.0
 40
0.0
 40
0.0
 40
0.0471632082809207
 40
0.0914861054632112
 40
0.1357762519702064
 40
0.182652700160979
 40
0.2295203288571699
 40
0.2737751972220721
 40
0.3181310461542165
 40
0.3652607198398428
 40
0.4571007286314173
 40
0.5671851029164658
 40
0.6894623283867982
 40
0.818175827254574
 40
0.951008722927345
 40
1.085852229674062
 40
1.218126164475293
 40
1.343545131142381
 40
1.454537202956797
 40
1.56718760753072
 40
1.68071096664231
 40
1.794226869736703
 40
1.900009184247531
 40
2.004085860447868
 40
2.108162674451755
 40
2.214000150155299
 40
2.496038577352129
 40
2.762350745479283
 40
2.997275353279431
 40
3.18511008213773
 40
3.246407890063898
 40
3.312607550212571
 40
3.378877742711558
 40
3.440140399651438
 40
4.100501696006451
 40
4.754913085563442
 40
5.411331693423876
 40
6.077890432568658
 40
6.110575292670937
 40
6.143260152775717
 40
6.367989363395092
 40
6.610525374951461
 40
6.86338913646725
 40
7.119380025547533
 40
7.376036605091042
 40
7.631164770966255
 40
7.87672242545636
 40
8.104953735855897
 40
8.312916685924243
 40
8.497730294941194
 40
8.651018984313792
 40
8.764738853624497
 40
8.764738853624497
 40
8.764738853624497
 40
8.764738853624497
 10
174.7922649500513
 20
13.81626739612929
 30
0.0
 10
174.7766616726931
 20
13.81826231079079
 30
0.0
 10
174.7463947960302
 20
13.82213201360299
 30
0.0
 10
174.7010994202253
 20
13.82341984967263
 30
0.0
 10
174.6559553129349
 20
13.82308683554047
 30
0.0
 10
174.60990171234
 20
13.82314658674219
 30
0.0
 10
174.5640496172097
 20
13.82325813649997
 30
0.0
 10
174.5183711648165
 20
13.82277833456585
 30
0.0
 10
174.4750811541608
 20
13.82461109618721
 30
0.0
 10
174.4039947951514
 20
13.80049556814657
 30
0.0
 10
174.4057477261442
 20
13.92184693977251
 30
0.0
 10
174.3586196370571
 20
14.00726239751237
 30
0.0
 10
174.3191478251762
 20
14.12486929345134
 30
0.0
 10
174.2706635532645
 20
14.24232752540436
 30
0.0
 10
174.2201017402523
 20
14.36405935761512
 30
0.0
 10
174.1718634610478
 20
14.49075967862466
 30
0.0
 10
174.1135232947594
 20
14.59933687784953
 30
0.0
 10
174.0980892667262
 20
14.75620657134411
 30
0.0
 10
173.9566586330636
 20
14.72373446548327
 30
0.0
 10
173.8508397414905
 20
14.73512888682175
 30
0.0
 10
173.7358569725222
 20
14.73392591514614
 30
0.0
 10
173.6253142252142
 20
14.73506945347406
 30
0.0
 10
173.5176583522783
 20
14.73418350037526
 30
0.0
 10
173.4121322529243
 20
14.73416602390515
 30
0.0
 10
173.3109192682013
 20
14.72714032472419
 30
0.0
 10
173.1266804827753
 20
14.75135859859868
 30
0.0
 10
173.1157393685412
 20
14.44741691121883
 30
0.0
 10
173.0087691634749
 20
14.22353177253398
 30
0.0
 10
172.9098148604347
 20
14.03895314292498
 30
0.0
 10
172.9225090524008
 20
13.79530204804211
 30
0.0
 10
172.8050091716397
 20
13.82508046753196
 30
0.0
 10
172.7422055868311
 20
13.82258089509597
 30
0.0
 10
172.67858720934
 20
13.82344075102805
 30
0.0
 10
172.3946014194075
 20
13.78098039941954
 30
0.0
 10
173.0251638499382
 20
14.50081952444777
 30
0.0
 10
173.1087645289071
 20
15.01276539435727
 30
0.0
 10
173.492925278934
 20
15.5335374355004
 30
0.0
 10
173.4777208288563
 20
16.23519626253207
 30
0.0
 10
173.7239265722697
 20
16.22345633081254
 30
0.0
 10
173.8256346157561
 20
16.2322500445277
 30
0.0
 10
173.8249752035819
 20
15.9805965073035
 30
0.0
 10
173.9428317155828
 20
15.79818020733957
 30
0.0
 10
174.0315515260485
 20
15.55563740662866
 30
0.0
 10
174.132229248526
 20
15.32340030530133
 30
0.0
 10
174.2311142712243
 20
15.0867464456691
 30
0.0
 10
174.3299676990671
 20
14.85461739170098
 30
0.0
 10
174.4256166390926
 20
14.63122222788786
 30
0.0
 10
174.5159904573271
 20
14.42272549049315
 30
0.0
 10
174.5989944568189
 20
14.23308448529319
 30
0.0
 10
174.6726088582799
 20
14.066631060681
 30
0.0
 10
174.7342815895546
 20
13.929176996261
 30
0.0
 10
174.7749458885604
 20
13.84999239430035
 30
0.0
 10
174.7922649500513
 20
13.81626739612929
 30
0.0
 11
174.7922649500513
 21
13.81626739612929
 31
0.0
 11
174.7453878317448
 21
13.82145433189185
 31
0.0
 11
174.7010975896125
 21
13.82315538223858
 31
0.0
 11
174.6568074431729
 21
13.82315538223858
 31
0.0
 11
174.609930994716
 21
13.82315538223858
 31
0.0
 11
174.5630633657034
 21
13.82315538223858
 31
0.0
 11
174.5188084970408
 21
13.82315538223858
 31
0.0
 11
174.4744852776855
 21
13.82145433189185
 31
0.0
 11
174.4276419021443
 21
13.81626739612929
 31
0.0
 11
174.3992532136326
 21
13.90360966173246
 31
0.0
 11
174.3622721815899
 21
14.0072965627482
 31
0.0
 11
174.3188386236701
 21
14.12159987001127
 31
0.0
 11
174.2711055866936
 21
14.24113531268969
 31
0.0
 11
174.2208160133237
 21
14.36408057307564
 31
0.0
 11
174.1696467003932
 21
14.48883822929449
 31
0.0
 11
174.1197531801326
 21
14.61134141502772
 31
0.0
 11
174.0733119111841
 21
14.72784517367919
 31
0.0
 11
173.9623611907589
 21
14.73087465284508
 31
0.0
 11
173.849730922509
 21
14.73300454867788
 31
0.0
 11
173.736215206945
 21
14.73432195319139
 31
0.0
 11
173.6227000476801
 21
14.73473315978851
 31
0.0
 11
173.5169185312816
 21
14.73432195319139
 31
0.0
 11
173.4128501919225
 21
14.73300454867788
 31
0.0
 11
173.3087951724045
 21
14.73087465284508
 31
0.0
 11
173.2030010615596
 21
14.72784517367919
 31
0.0
 11
173.0980914750139
 21
14.46604437513351
 31
0.0
 11
173.0034868690331
 21
14.21710232658461
 31
0.0
 11
172.9252231210298
 21
13.99559756969556
 31
0.0
 11
172.8693431224555
 21
13.81626739612929
 31
0.0
 11
172.8082651639442
 21
13.82145433189185
 31
0.0
 11
172.7420873618131
 21
13.82315538223858
 31
0.0
 11
172.6758390041282
 21
13.82145433189185
 31
0.0
 11
172.6147963233938
 21
13.81626739612929
 31
0.0
 11
172.8899684951931
 21
14.41656508695141
 31
0.0
 11
173.158294573417
 21
15.01343642360769
 31
0.0
 11
173.4240277350405
 21
15.61366245644378
 31
0.0
 11
173.6914740737033
 21
16.22421385386059
 31
0.0
 11
173.7241589339806
 21
16.22421385386059
 31
0.0
 11
173.7568437942579
 21
16.22421385386059
 31
0.0
 11
173.8428300681058
 21
16.01658539037085
 31
0.0
 11
173.9357285813609
 21
15.79254614563519
 31
0.0
 11
174.0328714521464
 21
15.55908663180469
 31
0.0
 11
174.1317936458032
 21
15.32298128464149
 31
0.0
 11
174.2315341249927
 21
15.08649780379784
 31
0.0
 11
174.3313071129354
 21
14.85168781253711
 31
0.0
 11
174.4280608257449
 21
14.62599492196849
 31
0.0
 11
174.5188084970408
 21
14.41658052097918
 31
0.0
 11
174.6022150834546
 21
14.22607611130459
 31
0.0
 11
174.6770293263377
 21
14.05708232662471
 31
0.0
 11
174.7410729186603
 21
13.91781337700668
 31
0.0
 11
174.7922649500513
 21
13.81626739612929
 31
0.0
  0
SPLINE
  5
A6
102
{ACAD_REACTORS
330
C3
102
}
330
48
100
AcDbEntity
  8
_U_30EC_U_30A4_U_30E4_U_30FC_1
  6
Continuous
 62
     2
100
AcDbSpline
210
0.0
220
0.0
230
1.0
 70
    11
 71
     3
 72
    25
 73
    21
 74
    19
 42
0.000000001
 43
0.0000000001
 44
0.00000001
 40
0.0
 40
0.0
 40
0.0
 40
0.0
 40
0.0911479969065388
 40
0.18581178962058
 40
0.2804128399735343
 40
0.3715889190715648
 40
0.4679080494219562
 40
0.5642683809229233
 40
0.6605683222645561
 40
0.7569653015810255
 40
0.8561348172522787
 40
1.092615965104308
 40
1.374867658141906
 40
1.611348812011641
 40
1.710518328425294
 40
1.809403163726616
 40
2.045205463294132
 40
2.326646917622205
 40
2.56244921719068
 40
2.661334043834003
 40
2.661334043834003
 40
2.661334043834003
 40
2.661334043834003
 10
173.2683700567199
 20
14.88614538197291
 30
0.0
 10
173.2987525917922
 20
14.88598079714554
 30
0.0
 10
173.3606895889112
 20
14.88564528689923
 30
0.0
 10
173.454135696033
 20
14.88269055452001
 30
0.0
 10
173.5475095236359
 20
14.87977752877152
 30
0.0
 10
173.6417760753477
 20
14.87894201643415
 30
0.0
 10
173.7354964790967
 20
14.87996644658046
 30
0.0
 10
173.8352040303205
 20
14.87916977470972
 30
0.0
 10
173.9188949546313
 20
14.8892141023522
 30
0.0
 10
174.0637996315045
 20
14.86234617674165
 30
0.0
 10
173.9396132444801
 20
15.0366553028005
 30
0.0
 10
173.8965867286282
 20
15.19651711006092
 30
0.0
 10
173.7808922142209
 20
15.45518458550218
 30
0.0
 10
173.7017565431257
 20
15.59231052861861
 30
0.0
 10
173.6431576621816
 20
15.80937033134081
 30
0.0
 10
173.5864803939438
 20
15.59266134213431
 30
0.0
 10
173.5052809900477
 20
15.45327012438238
 30
0.0
 10
173.4063701281488
 20
15.20406969370195
 30
0.0
 10
173.325362509426
 20
15.01925830226073
 30
0.0
 10
173.2813683325838
 20
14.91650446856115
 30
0.0
 10
173.2683700567199
 20
14.88614538197291
 30
0.0
 11
173.2683700567199
 21
14.88614538197291
 31
0.0
 11
173.3595137737821
 21
14.8852612326676
 31
0.0
 11
173.4541428297582
 21
14.882696979196
 31
0.0
 11
173.5487082179706
 21
14.88009965280778
 31
0.0
 11
173.6398803250197
 21
14.87924857641909
 31
0.0
 11
173.7361985777707
 21
14.8796597830162
 31
0.0
 11
173.8325499034376
 21
14.88097718752971
 31
0.0
 11
173.9288262638287
 21
14.88310818579312
 31
0.0
 11
174.0251753846343
 21
14.88614538197291
 31
0.0
 11
173.9854633323141
 21
14.97701642195019
 31
0.0
 11
173.8907653613968
 21
15.19370890189603
 31
0.0
 11
173.7777387509471
 21
15.45234186183137
 31
0.0
 11
173.6830407800297
 21
15.66903434177721
 31
0.0
 11
173.6433287277095
 21
15.75990538175449
 31
0.0
 11
173.6043330259266
 21
15.66903434177721
 31
0.0
 11
173.5113432755212
 21
15.45234186183137
 31
0.0
 11
173.4003555089082
 21
15.19370890189603
 31
0.0
 11
173.3073657585028
 21
14.97701642195019
 31
0.0
 11
173.2683700567199
 21
14.88614538197291
 31
0.0
  0
SPLINE
  5
A7
102
{ACAD_REACTORS
330
C4
102
}
330
48
100
AcDbEntity
  8
_U_30EC_U_30A4_U_30E4_U_30FC_1
  6
Continuous
 62
     2
100
AcDbSpline
210
0.0
220
0.0
230
1.0
 70
    11
 71
     3
 72
    95
 73
    91
 74
    89
 42
0.000000001
 43
0.0000000001
 44
0.00000001
 40
0.0
 40
0.0
 40
0.0
 40
0.0
 40
0.6550406656912363
 40
1.308087289031995
 40
1.420803739835846
 40
1.566130759770856
 40
1.757067341888566
 40
2.006513545026487
 40
2.087328263121602
 40
2.185328872295698
 40
2.294612454748462
 40
2.408936380534884
 40
2.526802767798633
 40
2.646360524615679
 40
2.762535723971647
 40
2.870057342870219
 40
2.96688344843172
 40
3.050803243518399
 40
3.115818222436676
 40
3.15603005715029
 40
3.213914225080133
 40
3.276689026450589
 40
3.342960320981337
 40
3.404230667150527
 40
3.453822809493313
 40
3.532499827188304
 40
3.634775188507092
 40
3.754909333008089
 40
3.8897367616606
 40
4.035769602175104
 40
4.187256681197552
 40
4.338733685675846
 40
4.488478734676052
 40
4.634708317831506
 40
4.771493189921217
 40
4.89268657156113
 40
5.199775528944361
 40
5.460353566929537
 40
5.667603142345442
 40
5.814722905404405
 40
5.828990806219703
 40
5.8554883363044
 40
5.869756237118732
 40
6.18979650776276
 40
6.531890469872975
 40
6.883053637016879
 40
7.230512024911445
 40
7.566966656764464
 40
7.88520355970735
 40
8.17288743971919
 40
8.418011594062714
 40
8.443926721190635
 40
8.510760470613127
 40
8.60214539379564
 40
8.701714041647085
 40
8.793098965075322
 40
8.859932715057896
 40
8.885847842603546
 40
9.242301256612723
 40
9.589275455016645
 40
9.921808543164104
 40
10.23479624298463
 40
10.29968150889182
 40
10.35323493887773
 40
10.40154625355149
 40
10.46482922477822
 40
10.55973900668402
 40
10.69239545985621
 40
10.84920353475672
 40
11.0162632859478
 40
11.1867202436744
 40
11.35372582577209
 40
11.50257442292428
 40
11.61866495023291
 40
11.71329869152877
 40
11.82511050573905
 40
11.94464880845715
 40
12.06929242642505
 40
12.19707290435175
 40
12.32562632860528
 40
12.45034565331281
 40
12.56646595170327
 40
12.67099007414635
 40
12.76077625936783
 40
12.82703233506693
 40
12.87429132785993
 40
12.89831990323332
 40
12.92234847860021
 40
13.53984767410319
 40
14.18294284359355
 40
14.18294284359355
 40
14.18294284359355
 40
14.18294284359355
 10
177.3067935648022
 20
14.70898038201719
 30
0.0
 10
177.1752019758551
 20
14.82265058603227
 30
0.0
 10
176.9124193802728
 20
15.04964496316153
 30
0.0
 10
176.3997393441024
 20
15.89214462956285
 30
0.0
 10
176.4106654595362
 20
15.53423377577021
 30
0.0
 10
176.4041226527993
 20
15.39267392272132
 30
0.0
 10
176.4028026631773
 20
15.19421305299282
 30
0.0
 10
176.4018117602538
 20
15.02150296045983
 30
0.0
 10
176.4024101751975
 20
14.87865373257582
 30
0.0
 10
176.4038994301882
 20
14.78265005413357
 30
0.0
 10
176.4055683588472
 20
14.67545503263141
 30
0.0
 10
176.407193495462
 20
14.56164211517581
 30
0.0
 10
176.4092429501685
 20
14.44441572604588
 30
0.0
 10
176.4123165501929
 20
14.3265641123297
 30
0.0
 10
176.4156339697043
 20
14.21228087320621
 30
0.0
 10
176.419360534028
 20
14.10521401867277
 30
0.0
 10
176.4217338161425
 20
14.01007408766921
 30
0.0
 10
176.4278718888359
 20
13.92558557205694
 30
0.0
 10
176.4239784495948
 20
13.86923087298141
 30
0.0
 10
176.4455230443077
 20
13.79825022472359
 30
0.0
 10
176.3680940058618
 20
13.82902677604485
 30
0.0
 10
176.3116353240191
 20
13.82011242517607
 30
0.0
 10
176.2540495896808
 20
13.82896218398275
 30
0.0
 10
176.1690163478473
 20
13.79738225225948
 30
0.0
 10
176.2009714146383
 20
13.88095155992188
 30
0.0
 10
176.1990705282539
 20
13.94882608968307
 30
0.0
 10
176.2107960047301
 20
14.05233256764416
 30
0.0
 10
176.2164241052999
 20
14.17002125616694
 30
0.0
 10
176.2237902178942
 20
14.30388609164421
 30
0.0
 10
176.232075970161
 20
14.4476415287263
 30
0.0
 10
176.2398851897426
 20
14.59714022843441
 30
0.0
 10
176.2457571222657
 20
14.74792549402076
 30
0.0
 10
176.2503667817969
 20
14.89699943878435
 30
0.0
 10
176.2542632117542
 20
15.04122913163021
 30
0.0
 10
176.2570715126564
 20
15.17583905213016
 30
0.0
 10
176.2576698755022
 20
15.36469614347353
 30
0.0
 10
176.2616023867151
 20
15.5897549431315
 30
0.0
 10
176.2442175378498
 20
15.86367091125705
 30
0.0
 10
176.2850417342584
 20
16.02787112098592
 30
0.0
 10
176.1995153256002
 20
16.22749661465095
 30
0.0
 10
176.2660558907688
 20
16.22385458403975
 30
0.0
 10
176.283872427323
 20
16.22413447160852
 30
0.0
 10
176.4056801797502
 20
16.22632927398606
 30
0.0
 10
176.5080770335462
 20
15.94675118721511
 30
0.0
 10
176.7580021509357
 20
15.74563008536004
 30
0.0
 10
176.9870035331111
 20
15.47792614987911
 30
0.0
 10
177.224515121311
 20
15.22646413862384
 30
0.0
 10
177.4486090740771
 20
14.98969974061351
 30
0.0
 10
177.6750716283011
 20
14.73218692583085
 30
0.0
 10
177.8325687886515
 20
14.61649335056926
 30
0.0
 10
178.0472129612675
 20
14.27997152538794
 30
0.0
 10
178.0422645974619
 20
14.40464754091604
 30
0.0
 10
178.0433931602547
 20
14.46327691935737
 30
0.0
 10
178.0428877841518
 20
14.55043662371978
 30
0.0
 10
178.0430475158114
 20
14.64416143182873
 30
0.0
 10
178.0430054891319
 20
14.73018971297036
 30
0.0
 10
178.0430202040374
 20
14.79153891945497
 30
0.0
 10
178.0429706255983
 20
14.94135231520993
 30
0.0
 10
178.0458811522811
 20
15.17989612510103
 30
0.0
 10
178.0259521041163
 20
15.54486509868698
 30
0.0
 10
178.0750433936248
 20
15.80799631993412
 30
0.0
 10
177.9177951509179
 20
16.21928904947755
 30
0.0
 10
178.0762112872422
 20
16.16398282551749
 30
0.0
 10
178.1311680478629
 20
16.16199686500178
 30
0.0
 10
178.182788776674
 20
16.16264778248254
 30
0.0
 10
178.2713198965365
 20
16.20369527738248
 30
0.0
 10
178.2204898303169
 20
16.05696326622984
 30
0.0
 10
178.2313389930285
 20
15.95019971954432
 30
0.0
 10
178.2166036994847
 20
15.7908570541411
 30
0.0
 10
178.2099976446204
 20
15.62853061652874
 30
0.0
 10
178.2014961399915
 20
15.45992521892395
 30
0.0
 10
178.1943227202199
 20
15.29814814703541
 30
0.0
 10
178.188906321539
 20
15.15422331457931
 30
0.0
 10
178.1871713967648
 20
15.03437493466923
 30
0.0
 10
178.1875440672319
 20
14.92686101590514
 30
0.0
 10
178.1873656126263
 20
14.81820024645586
 30
0.0
 10
178.187701086314
 20
14.69953570165531
 30
0.0
 10
178.1890040622184
 20
14.57555163512741
 30
0.0
 10
178.1908887351574
 20
14.44858294171105
 30
0.0
 10
178.1925004454852
 20
14.32153861551031
 30
0.0
 10
178.194140313743
 20
14.19854884492176
 30
0.0
 10
178.1962570745752
 20
14.08300931383758
 30
0.0
 10
178.1963848422364
 20
13.98090903955836
 30
0.0
 10
178.2006514396554
 20
13.89009848838156
 30
0.0
 10
178.1908440085289
 20
13.83213621208786
 30
0.0
 10
178.2118474771689
 20
13.76517130132028
 30
0.0
 10
178.1725639739897
 20
13.77291153966687
 30
0.0
 10
177.9595307117743
 20
13.7575525414519
 30
0.0
 10
177.7636297943188
 20
14.31403058094468
 30
0.0
 10
177.4611197631545
 20
14.57556035348506
 30
0.0
 10
177.3067935648022
 20
14.70898038201719
 30
0.0
 11
177.3067935648022
 21
14.70898038201719
 31
0.0
 11
176.8595529338511
 21
15.18757635411978
 31
0.0
 11
176.4124049070644
 21
15.6635264928897
 31
0.0
 11
176.4089664262494
 21
15.55086249986234
 31
0.0
 11
176.4055610183501
 21
15.40557538184311
 31
0.0
 11
176.4029636920275
 21
15.21465645827964
 31
0.0
 11
176.4021126156603
 21
14.96521170139761
 31
0.0
 11
176.4025239230289
 21
14.88439802954282
 31
0.0
 11
176.4038420329817
 21
14.78640628477561
 31
0.0
 11
176.4055192267718
 21
14.67713557299736
 31
0.0
 11
176.4072367127519
 21
14.56282454872039
 31
0.0
 11
176.4094007838772
 21
14.44497802965265
 31
0.0
 11
176.4124049070644
 21
14.32545802100199
 31
0.0
 11
176.4158359733138
 21
14.20933349846156
 31
0.0
 11
176.4192928929999
 21
14.1018674655023
 31
0.0
 11
176.4227085253089
 21
14.00510162351264
 31
0.0
 11
176.4261896983794
 21
13.92125406276969
 31
0.0
 11
176.4296006184313
 21
13.8563286200776
 31
0.0
 11
176.4330776843148
 21
13.81626739612929
 31
0.0
 11
176.3754263821572
 21
13.82145433189185
 31
0.0
 11
176.3126746318309
 21
13.82315538223858
 31
0.0
 11
176.2464251717157
 21
13.82145433189185
 31
0.0
 11
176.1853747739676
 21
13.81626739612929
 31
0.0
 11
176.1926772737813
 21
13.8653189412559
 31
0.0
 11
176.2008793569054
 21
13.94356725720849
 31
0.0
 11
176.2090098822349
 21
14.04551893253027
 31
0.0
 11
176.2163406441397
 21
14.16542920159751
 31
0.0
 11
176.2236358280422
 21
14.3000591234389
 31
0.0
 11
176.2318444255596
 21
14.44586107652739
 31
0.0
 11
176.2395504149465
 21
14.59715203135073
 31
0.0
 11
176.2455763002093
 21
14.74850913200729
 31
0.0
 11
176.2503046247416
 21
14.89817951391435
 31
0.0
 11
176.254192897212
 21
15.0443573958222
 31
0.0
 11
176.2567527408965
 21
15.18111831592696
 31
0.0
 11
176.2576324804574
 21
15.30230850686888
 31
0.0
 11
176.257192610677
 21
15.60939715262541
 31
0.0
 11
176.2559126888347
 21
15.86997204839361
 31
0.0
 11
176.2528658717893
 21
16.07719922716124
 31
0.0
 11
176.2473049112763
 21
16.22421385386059
 31
0.0
 11
176.2615728121469
 21
16.22421385386059
 31
0.0
 11
176.2880703423352
 21
16.22421385386059
 31
0.0
 11
176.3023382432058
 21
16.22421385386059
 31
0.0
 11
176.5194743650277
 21
15.98910179662769
 31
0.0
 11
176.751274412308
 21
15.7375128123156
 31
0.0
 11
176.9894816018839
 21
15.47949555543573
 31
0.0
 11
177.2260074557522
 21
15.22497079855489
 31
0.0
 11
177.4555698717705
 21
14.97899759549139
 31
0.0
 11
177.6731797360104
 21
14.74678934034111
 31
0.0
 11
177.8713724913708
 21
14.53826680567101
 31
0.0
 11
178.0430143099087
 21
14.36326697932589
 31
0.0
 11
178.0430143099087
 21
14.38918210687043
 31
0.0
 11
178.0430143099087
 21
14.45601585685372
 31
0.0
 11
178.0430143099087
 21
14.54740078030025
 31
0.0
 11
178.0430143099087
 21
14.64696942823455
 31
0.0
 11
178.0430143099087
 21
14.73835435168108
 31
0.0
 11
178.0430143099087
 21
14.80518810166437
 31
0.0
 11
178.0430143099087
 21
14.83110322920891
 31
0.0
 11
178.0417233637609
 21
15.18755430550865
 31
0.0
 11
178.0378461155959
 21
15.5345068401441
 31
0.0
 11
178.0296197790002
 21
15.86693815950552
 31
0.0
 11
178.0154535467228
 21
16.17960510387181
 31
0.0
 11
178.0790351249619
 21
16.16666367158335
 31
0.0
 11
178.1324170159612
 21
16.16238072887609
 31
0.0
 11
178.1805381084833
 21
16.16666367158335
 31
0.0
 11
178.2424836798197
 21
16.17960510387181
 31
0.0
 11
178.2351216487575
 21
16.08498128445102
 31
0.0
 11
178.2269790968819
 21
15.95257496503959
 31
0.0
 11
178.2183705364004
 21
15.79600336785654
 31
0.0
 11
178.2097547223215
 21
15.62916593734269
 31
0.0
 11
178.2016187850289
 21
15.45890325509362
 31
0.0
 11
178.1942501393836
 21
15.292060312427
 31
0.0
 11
178.1891406931522
 21
15.14329943572807
 31
0.0
 11
178.1874503478904
 21
15.027221215271
 31
0.0
 11
178.1874503478904
 21
14.93258747397516
 31
0.0
 11
178.1874503478904
 21
14.82077565976709
 31
0.0
 11
178.1878461204497
 21
14.70123801222749
 31
0.0
 11
178.1890819450708
 21
14.5766005209392
 31
0.0
 11
178.1908392193317
 21
14.44883212687392
 31
0.0
 11
178.1925303477609
 21
14.32028982655879
 31
0.0
 11
178.1942876220215
 21
14.19558288214552
 31
0.0
 11
178.1959787504505
 21
14.07947489606349
 31
0.0
 11
178.1972884379172
 21
13.97495896727016
 31
0.0
 11
178.1976985420735
 21
13.88517371555651
 31
0.0
 11
178.1976985420735
 21
13.81891763918416
 31
0.0
 11
178.1976985420735
 21
13.7716586461404
 31
0.0
 11
178.1736699662976
 21
13.7716586461404
 31
0.0
 11
178.1496413905217
 21
13.7716586461404
 31
0.0
 11
177.7410729200423
 21
14.2346673526219
 31
0.0
 11
177.3067935648022
 21
14.70898038201719
 31
0.0
  0
SPLINE
  5
A8
102
{ACAD_REACTORS
330
C5
102
}
330
48
100
AcDbEntity
  8
_U_30EC_U_30A4_U_30E4_U_30FC_1
  6
Continuous
 62
     2
100
AcDbSpline
210
0.0
220
0.0
230
1.0
 70
    11
 71
     3
 72
   110
 73
   106
 74
   104
 42
0.000000001
 43
0.0000000001
 44
0.00000001
 40
0.0
 40
0.0
 40
0.0
 40
0.0
 40
0.2203406257277749
 40
0.4407808782838447
 40
0.5952494494615439
 40
0.7488431659393456
 40
0.9023581831309997
 40
1.056801968670441
 40
1.21073644909997
 40
1.363041386539904
 40
1.51531572968322
 40
1.6693772391482
 40
1.721611652756731
 40
1.773199502943151
 40
1.824933793210202
 40
1.877110426488193
 40
1.982682281207046
 40
2.078781667087856
 40
2.172809640822576
 40
2.271937807379229
 40
2.37834993337962
 40
2.494131557736807
 40
2.626681683943914
 40
2.783145050796284
 40
2.890701232941122
 40
2.993130312455067
 40
3.099869730692015
 40
3.220237816691508
 40
3.352695482737769
 40
3.481732806390089
 40
3.593499473690573
 40
3.674323013332115
 40
3.817951711953037
 40
3.946167120793978
 40
4.061405053453748
 40
4.166480796003305
 40
4.262478775059425
 40
4.350736673551411
 40
4.433071991254238
 40
4.511216293814782
 40
4.564262454118101
 40
4.618474415571647
 40
4.67012848875428
 40
4.722296879126505
 40
4.81954094531438
 40
4.931194984128234
 40
5.049996040257876
 40
5.168643755415421
 40
5.283970811762633
 40
5.392260784910345
 40
5.486512254876477
 40
5.559178233949847
 40
5.591425852853498
 40
5.626215969637872
 40
5.667155838674439
 40
5.717449290214275
 40
5.73840236094489
 40
5.784499116553859
 40
5.830595872164834
 40
5.851548942897693
 40
5.873019280661805
 40
5.924217778408347
 40
5.985325662817723
 40
6.036524160567734
 40
6.057994498334263
 40
6.236847789607507
 40
6.381409928945708
 40
6.493190424178709
 40
6.57406753423047
 40
6.691018086205507
 40
6.814881554220482
 40
6.944307823240349
 40
7.071266716065971
 40
7.193488604461817
 40
7.30904277312813
 40
7.414007203170698
 40
7.505140441886511
 40
7.531150360599665
 40
7.559221645322258
 40
7.587202218920904
 40
7.612569159499119
 40
7.662550809480969
 40
7.7028788757641
 40
7.857328205230913
 40
8.01079956808853
 40
8.165256399657508
 40
8.322232698713933
 40
8.479564855016534
 40
8.635216230290737
 40
8.790882550925712
 40
8.948305154947306
 40
9.16827183903296
 40
9.387358980987244
 40
9.608047961033465
 40
9.832914234792657
 40
9.858338694962992
 40
9.925366817230007
 40
10.0201307142276
 40
10.12876249858999
 40
10.2373942829525
 40
10.33215817995193
 40
10.39918630222396
 40
10.42461076239785
 40
10.64992019336947
 40
10.87188524531189
 40
10.87188524531189
 40
10.87188524531189
 40
10.87188524531189
 10
179.9057788376619
 20
15.73923260398189
 30
0.0
 10
179.9092864933542
 20
15.80616462073803
 30
0.0
 10
179.9163033987663
 20
15.94005891915859
 30
0.0
 10
179.8198027599072
 20
16.22548554971473
 30
0.0
 10
180.0510134726109
 20
16.16284386190283
 30
0.0
 10
180.1919290057156
 20
16.17001554055984
 30
0.0
 10
180.3490417757588
 20
16.16235883078245
 30
0.0
 10
180.5025913427287
 20
16.16252752283042
 30
0.0
 10
180.6545104935082
 20
16.16182040535433
 30
0.0
 10
180.8142214813231
 20
16.17210158351632
 30
0.0
 10
180.9408972601119
 20
16.15496511080751
 30
0.0
 10
181.1370821122082
 20
16.22727260107148
 30
0.0
 10
181.1034395279078
 20
16.12640699080116
 30
0.0
 10
181.1052011317183
 20
16.07619253947666
 30
0.0
 10
181.1027342073458
 20
16.0271233558646
 30
0.0
 10
181.1347076966012
 20
15.9406349084699
 30
0.0
 10
181.0010399903256
 20
15.98997438608339
 30
0.0
 10
180.9172208688057
 20
15.98430634314172
 30
0.0
 10
180.8173861139323
 20
15.99465516706299
 30
0.0
 10
180.7186576720146
 20
16.00086450411087
 30
0.0
 10
180.612153277111
 20
16.00697763816776
 30
0.0
 10
180.4910511698059
 20
16.01588883484578
 30
0.0
 10
180.3703381502454
 20
16.00521605912384
 30
0.0
 10
180.1812553843438
 20
16.06468503080362
 30
0.0
 10
180.2129028505311
 20
15.90558320077536
 30
0.0
 10
180.1995563316834
 20
15.80839128339902
 30
0.0
 10
180.197495842645
 20
15.69634065110099
 30
0.0
 10
180.195818804467
 20
15.5769968562935
 30
0.0
 10
180.1973336794233
 20
15.45032592155108
 30
0.0
 10
180.195658247867
 20
15.32301588016114
 30
0.0
 10
180.2058844271658
 20
15.2245156640446
 30
0.0
 10
180.1779006596583
 20
15.08388702625626
 30
0.0
 10
180.3508029999305
 20
15.13989551134093
 30
0.0
 10
180.4645020202772
 20
15.12719951478503
 30
0.0
 10
180.5840151672239
 20
15.1344837705125
 30
0.0
 10
180.6888491425072
 20
15.13878017056762
 30
0.0
 10
180.7843084898612
 20
15.14330568258972
 30
0.0
 10
180.8763823507033
 20
15.15149201146204
 30
0.0
 10
180.947655178244
 20
15.14643850638109
 30
0.0
 10
181.0544931705685
 20
15.18536425031669
 30
0.0
 10
181.0226603598037
 20
15.10517122005877
 30
0.0
 10
181.0266164503929
 20
15.05562936846032
 30
0.0
 10
181.0234502392014
 20
15.0055747803982
 30
0.0
 10
181.0550791490583
 20
14.92128847612015
 30
0.0
 10
180.9210133677693
 20
14.97425365495164
 30
0.0
 10
180.82923227932
 20
14.96540080890436
 30
0.0
 10
180.7079729189603
 20
14.97570049965157
 30
0.0
 10
180.5914113119772
 20
14.977489117675
 30
0.0
 10
180.4783375745879
 20
14.97787017109695
 30
0.0
 10
180.3679246308472
 20
14.98415449472183
 30
0.0
 10
180.2898124067841
 20
14.97189133255362
 30
0.0
 10
180.1913625833645
 20
15.00453887616126
 30
0.0
 10
180.2012355173561
 20
14.94769748054209
 30
0.0
 10
180.1973923244402
 20
14.91392130557987
 30
0.0
 10
180.1966789884268
 20
14.87119604709412
 30
0.0
 10
180.1963369642975
 20
14.83401607262152
 30
0.0
 10
180.1963834255345
 20
14.79487237370769
 30
0.0
 10
180.1963649429927
 20
14.75716849497684
 30
0.0
 10
180.1963703431806
 20
14.71944955232401
 30
0.0
 10
180.19636972142
 20
14.68994324745147
 30
0.0
 10
180.1963698151546
 20
14.658735776993
 30
0.0
 10
180.196370428792
 20
14.61414424908083
 30
0.0
 10
180.1963671499337
 20
14.5596395650885
 30
0.0
 10
180.196375962348
 20
14.51505540201446
 30
0.0
 10
180.1963359653419
 20
14.4311780858574
 30
0.0
 10
180.1976024270254
 20
14.31737520677676
 30
0.0
 10
180.1950274117842
 20
14.16830395933708
 30
0.0
 10
180.206500938172
 20
14.06597203813906
 30
0.0
 10
180.1823506222264
 20
13.93338903885841
 30
0.0
 10
180.3332993946476
 20
13.97895732272026
 30
0.0
 10
180.4428436671556
 20
13.96427012162355
 30
0.0
 10
180.5733970473921
 20
13.96920435125065
 30
0.0
 10
180.6990312209514
 20
13.97257705323355
 30
0.0
 10
180.8188730625601
 20
13.97711497498771
 30
0.0
 10
180.9391362611427
 20
13.99048536182004
 30
0.0
 10
181.0222761663516
 20
13.98068712782595
 30
0.0
 10
181.1456080421075
 20
14.04126214623321
 30
0.0
 10
181.1244269203957
 20
13.98532460134019
 30
0.0
 10
181.1235950270118
 20
13.95939249372345
 30
0.0
 10
181.1218963707559
 20
13.93197256190937
 30
0.0
 10
181.121797488883
 20
13.89738195206385
 30
0.0
 10
181.120365930133
 20
13.86050408220768
 30
0.0
 10
181.1532804192191
 20
13.76846841021809
 30
0.0
 10
180.9551306988108
 20
13.84132015974831
 30
0.0
 10
180.8300548294892
 20
13.818257265086
 30
0.0
 10
180.6673071295156
 20
13.82454021985782
 30
0.0
 10
180.5129366450002
 20
13.82260943909922
 30
0.0
 10
180.3566670436944
 20
13.82393762599264
 30
0.0
 10
180.1970544465282
 20
13.82059872487857
 30
0.0
 10
180.0540326342237
 20
13.83265795728241
 30
0.0
 10
179.8197144881628
 20
13.7695200197692
 30
0.0
 10
179.9173810751197
 20
14.05620527466317
 30
0.0
 10
179.900686878006
 20
14.24988308142658
 30
0.0
 10
179.9146296709685
 20
14.47848242880292
 30
0.0
 10
179.9142987846633
 20
14.63384593955045
 30
0.0
 10
179.9143078119264
 20
14.73966336444122
 30
0.0
 10
179.9143055876317
 20
14.80205784124211
 30
0.0
 10
179.914306555189
 20
14.89220425248324
 30
0.0
 10
179.9143065473262
 20
14.99621167157436
 30
0.0
 10
179.9143053861103
 20
15.10022131375294
 30
0.0
 10
179.9143090971503
 20
15.19036243688767
 30
0.0
 10
179.9143011051051
 20
15.25276803097215
 30
0.0
 10
179.914333427502
 20
15.3586883596112
 30
0.0
 10
179.9131440788319
 20
15.5162671654474
 30
0.0
 10
179.9082216489257
 20
15.66528219822065
 30
0.0
 10
179.9057788376619
 20
15.73923260398189
 30
0.0
 11
179.9057788376619
 21
15.73923260398189
 31
0.0
 11
179.8966918223741
 21
15.95938578101017
 31
0.0
 11
179.8868249573133
 21
16.17960510387181
 31
0.0
 11
180.04115751414
 21
16.17312391463727
 31
0.0
 11
180.1946500189046
 21
16.1675489233192
 31
0.0
 11
180.3481160653367
 21
16.16367167505631
 31
0.0
 11
180.5025544554939
 21
16.16238072887609
 31
0.0
 11
180.6564835227473
 21
16.1636716750563
 31
0.0
 11
180.8087391004601
 21
16.1675489233192
 31
0.0
 11
180.9609113551074
 21
16.17312391463727
 31
0.0
 11
181.1148364762484
 21
16.17960510387181
 31
0.0
 11
181.1070811703124
 21
16.12794961777357
 31
0.0
 11
181.1044991623591
 21
16.07642642334199
 31
0.0
 11
181.1070811703124
 21
16.02475660564655
 31
0.0
 11
181.1148364762484
 21
15.97315954836779
 31
0.0
 11
181.0094874054411
 21
15.98001446156059
 31
0.0
 11
180.913637570006
 21
15.9869355205866
 31
0.0
 11
180.8198593171903
 21
15.993783819196
 31
0.0
 11
180.7209679915881
 21
16.0006321178054
 31
0.0
 11
180.6147532199924
 21
16.00710999974822
 31
0.0
 11
180.4991060528038
 21
16.01268829835789
 31
0.0
 11
180.3666126447258
 21
16.01656554662086
 31
0.0
 11
180.2101546018424
 21
16.01785649280109
 31
0.0
 11
180.2062663293721
 21
15.91037061609186
 31
0.0
 11
180.20153800484
 21
15.80805072896459
 31
0.0
 11
180.1976607566749
 21
15.70138175329685
 31
0.0
 11
180.1963698105272
 21
15.58102059013248
 31
0.0
 11
180.1967799146836
 21
15.44856355891566
 31
0.0
 11
180.1980896021502
 21
15.31953288186449
 31
0.0
 11
180.199407457705
 21
15.20777398432307
 31
0.0
 11
180.1998191153661
 21
15.1269514930238
 31
0.0
 11
180.3434452935875
 21
15.12780256941249
 31
0.0
 11
180.4716343930758
 21
15.13039989580079
 31
0.0
 11
180.5868078221796
 21
15.13425509545253
 31
0.0
 11
180.691775631222
 21
15.13901649302079
 31
0.0
 11
180.7876346289422
 21
15.14418027774174
 31
0.0
 11
180.8757413374194
 21
15.14934406246269
 31
0.0
 11
180.9578881438497
 21
15.15491243919737
 31
0.0
 11
181.0357692335571
 21
15.1613208680152
 31
0.0
 11
181.0280180445186
 21
15.10884407115332
 31
0.0
 11
181.0254328449317
 21
15.0546937847086
 31
0.0
 11
181.0280180445186
 21
15.00310444444366
 31
0.0
 11
181.0357692335571
 21
14.95151510417878
 31
0.0
 11
180.9389813454014
 21
14.96092324653759
 31
0.0
 11
180.8275950722015
 21
14.9686512847301
 31
0.0
 11
180.7089261429373
 21
14.97425273438146
 31
0.0
 11
180.5903167449213
 21
14.9772678819501
 31
0.0
 11
180.4750025117521
 21
14.97898767361639
 31
0.0
 11
180.3667261950701
 21
14.98070746528259
 31
0.0
 11
180.2724839317709
 21
14.98202486979617
 31
0.0
 11
180.1998191153661
 21
14.9824360763933
 31
0.0
 11
180.199407457705
 21
14.95019108508193
 31
0.0
 11
180.1980896021502
 21
14.91542593752121
 31
0.0
 11
180.1967799146836
 21
14.87450702260086
 31
0.0
 11
180.1963698105272
 21
14.8242152430995
 31
0.0
 11
180.1963698105272
 21
14.8032621723582
 31
0.0
 11
180.1963698105272
 21
14.75716541672734
 31
0.0
 11
180.1963698105272
 21
14.71106866109649
 31
0.0
 11
180.1963698105272
 21
14.69011559035519
 31
0.0
 11
180.1963698105272
 21
14.66864525258278
 31
0.0
 11
180.1963698105272
 21
14.61744675481782
 31
0.0
 11
180.1963698105272
 21
14.55633887038866
 31
0.0
 11
180.1963698105272
 21
14.5051403726237
 31
0.0
 11
180.1963698105272
 21
14.48367003485129
 31
0.0
 11
180.1967799146836
 21
14.30481721371547
 31
0.0
 11
180.1980896021502
 21
14.16026100715439
 31
0.0
 11
180.2002868589709
 21
14.04850210961289
 31
0.0
 11
180.2032586986986
 21
13.9676796183137
 31
0.0
 11
180.3202092517448
 21
13.9676796183137
 31
0.0
 11
180.4440727208747
 21
13.9676796183137
 31
0.0
 11
180.5734925526422
 21
13.96897056449391
 31
0.0
 11
180.7003922282244
 21
13.97284781275678
 31
0.0
 11
180.8224658067973
 21
13.97886708358863
 31
0.0
 11
180.9377587499464
 21
13.98663260442001
 31
0.0
 11
181.0421754573518
 21
13.997341614834
 31
0.0
 11
181.1320599255449
 21
14.01237656274691
 31
0.0
 11
181.1264254031192
 21
13.98698427976714
 31
0.0
 11
181.1234433285424
 21
13.959071840538
 31
0.0
 11
181.1221339881201
 21
13.93112191867001
 31
0.0
 11
181.1217235369196
 21
13.90575829888471
 31
0.0
 11
181.1243087365065
 21
13.85584355063327
 31
0.0
 11
181.1320599255449
 21
13.81626739612929
 31
0.0
 11
180.9776977178345
 21
13.82145433189185
 31
0.0
 11
180.8242357818766
 21
13.82315538223858
 31
0.0
 11
180.6697789496484
 21
13.82315538223858
 31
0.0
 11
180.5128026496768
 21
13.82315538223858
 31
0.0
 11
180.3554704921537
 21
13.82315538223858
 31
0.0
 11
180.1998191153661
 21
13.82315538223858
 31
0.0
 11
180.0441620874242
 21
13.82145433189185
 31
0.0
 11
179.8868249573133
 21
13.81626739612929
 31
0.0
 11
179.896691822374
 21
14.03601267385208
 31
0.0
 11
179.9057788376619
 21
14.2549112849085
 31
0.0
 11
179.9121721518401
 21
14.47550763901999
 31
0.0
 11
179.914306345501
 21
14.70036378479711
 31
0.0
 11
179.914306345501
 21
14.7257882449687
 31
0.0
 11
179.914306345501
 21
14.79281636723928
 31
0.0
 11
179.914306345501
 21
14.88758026424251
 31
0.0
 11
179.914306345501
 21
14.99621204861205
 31
0.0
 11
179.914306345501
 21
15.1048438329816
 31
0.0
 11
179.914306345501
 21
15.19960772998483
 31
0.0
 11
179.914306345501
 21
15.2666358522554
 31
0.0
 11
179.914306345501
 21
15.292060312427
 31
0.0
 11
179.9121721518401
 21
15.51735963528736
 31
0.0
 11
179.9057788376619
 21
15.73923260398189
 31
0.0
  0
SPLINE
  5
A9
102
{ACAD_REACTORS
330
C6
102
}
330
48
100
AcDbEntity
  8
_U_30EC_U_30A4_U_30E4_U_30FC_1
  6
Continuous
 62
     2
100
AcDbSpline
210
0.0
220
0.0
230
1.0
 70
    11
 71
     3
 72
    47
 73
    43
 74
    41
 42
0.000000001
 43
0.0000000001
 44
0.00000001
 40
0.0
 40
0.0
 40
0.0
 40
0.0
 40
0.2207912809957396
 40
0.4459404186303508
 40
0.4902387190458645
 40
0.532747389272249
 40
0.5742260451225205
 40
0.615543263056106
 40
0.6568164066315403
 40
0.6982511618780853
 40
0.7407663929316846
 40
0.7851366743174671
 40
1.010288833836297
 40
1.231080507002163
 40
1.451765243652323
 40
1.676638205891628
 40
1.720461045359599
 40
1.830018144043457
 40
1.972442372353085
 40
2.114866600677448
 40
2.224423699395071
 40
2.268246538883309
 40
2.493628801207193
 40
2.71560283028658
 40
2.93421133070634
 40
3.149502369855303
 40
3.231387784850862
 40
3.318231873853896
 40
3.405143198197941
 40
3.48697030172029
 40
3.702258172493701
 40
3.920866283533939
 40
4.142839325931716
 40
4.36822190386523
 40
4.41204474335971
 40
4.521601842095718
 40
4.664026070452195
 40
4.806450298808899
 40
4.916007397546588
 40
4.95983023704291
 40
5.184703515846962
 40
5.405387250767268
 40
5.405387250767268
 40
5.405387250767268
 40
5.405387250767268
 10
182.6507427258645
 20
15.73406440953869
 30
0.0
 10
182.6568139420002
 20
15.79758482501206
 30
0.0
 10
182.6690762107243
 20
15.92587938689621
 30
0.0
 10
182.5604706879413
 20
16.20166220174083
 30
0.0
 10
182.6761985896604
 20
16.17188133432051
 30
0.0
 10
182.7171842509015
 20
16.16765556262814
 30
0.0
 10
182.7591205797519
 20
16.16310446389607
 30
0.0
 10
182.800419662571
 20
16.16201982929487
 30
0.0
 10
182.8417032115556
 20
16.16310338195228
 30
0.0
 10
182.8836148270647
 20
16.16766112711336
 30
0.0
 10
182.924598354902
 20
16.17187430209729
 30
0.0
 10
183.0404922843488
 20
16.2017761131754
 30
0.0
 10
182.9295652727456
 20
15.92339806609886
 30
0.0
 10
182.9574856365268
 20
15.74283140824952
 30
0.0
 10
182.940426734697
 20
15.50961042346472
 30
0.0
 10
182.9414637282104
 20
15.34906622543149
 30
0.0
 10
182.9414099399405
 20
15.22284817558723
 30
0.0
 10
182.9414277372481
 20
15.12428963336244
 30
0.0
 10
182.9414188581081
 20
14.99280702442966
 30
0.0
 10
182.9414263928035
 20
14.86132844968653
 30
0.0
 10
182.9414129405129
 20
14.76276222694094
 30
0.0
 10
182.9414531717493
 20
14.63639735624153
 30
0.0
 10
182.9406746403817
 20
14.47482068822871
 30
0.0
 10
182.9565958319268
 20
14.24361821892914
 30
0.0
 10
182.9333468885408
 20
14.05874351972002
 30
0.0
 10
183.0360183444366
 20
13.7893560277006
 30
0.0
 10
182.8820238362836
 20
13.82660112685817
 30
0.0
 10
182.8004129802833
 20
13.82137994680528
 30
0.0
 10
182.7188192292583
 20
13.82660620378351
 30
0.0
 10
182.5648513666844
 20
13.78937069885392
 30
0.0
 10
182.6674183421917
 20
14.0587512986288
 30
0.0
 10
182.6442045316087
 20
14.24361585325414
 30
0.0
 10
182.6600444655139
 20
14.47482218565639
 30
0.0
 10
182.6593296313427
 20
14.63639712308506
 30
0.0
 10
182.6593664569907
 20
14.76276231210524
 30
0.0
 10
182.659354900027
 20
14.86132756635985
 30
0.0
 10
182.6593575019214
 20
14.99281127417223
 30
0.0
 10
182.6593648531778
 20
15.12427548031201
 30
0.0
 10
182.6593442541351
 20
15.22287786275328
 30
0.0
 10
182.6594082192027
 20
15.34896149354429
 30
0.0
 10
182.658173394759
 20
15.51210091383772
 30
0.0
 10
182.6532040396745
 20
15.66054183777549
 30
0.0
 10
182.6507427258645
 20
15.73406440953869
 30
0.0
 11
182.6507427258645
 21
15.73406440953869
 31
0.0
 11
182.6417328200379
 21
15.95467178795576
 31
0.0
 11
182.6318769706147
 21
16.17960510387181
 31
0.0
 11
182.6756985840801
 21
16.17312391463727
 31
0.0
 11
182.7178400934216
 21
16.1675489233192
 31
0.0
 11
182.7591371409791
 21
16.16367167505631
 31
0.0
 11
182.8004341885366
 21
16.16238072887609
 31
0.0
 11
182.8416871388731
 21
16.1636716750563
 31
0.0
 11
182.8829400892098
 21
16.1675489233192
 31
0.0
 11
182.9250882131343
 21
16.17312391463727
 31
0.0
 11
182.9689825870145
 21
16.17960510387181
 31
0.0
 11
182.9590577693891
 21
15.95467178795576
 31
0.0
 11
182.9500384208311
 21
15.73406440953869
 31
0.0
 11
182.9435638463436
 21
15.51347467001058
 31
0.0
 11
182.9414218238287
 21
15.28861190965009
 31
0.0
 11
182.9414218238287
 21
15.24478907015487
 31
0.0
 11
182.9414218238287
 21
15.13523197141684
 31
0.0
 11
182.9414218238287
 21
14.9928077430574
 31
0.0
 11
182.9414218238287
 21
14.85038351469796
 31
0.0
 11
182.9414218238287
 21
14.74082641595992
 31
0.0
 11
182.9414218238287
 21
14.69700357646471
 31
0.0
 11
182.9435638463436
 21
14.47163149318765
 31
0.0
 11
182.9500384208311
 21
14.2497519099098
 31
0.0
 11
182.9590577693892
 21
14.03132954885328
 31
0.0
 11
182.9689825870145
 21
13.81626739612929
 31
0.0
 11
182.8872616168771
 21
13.82145433189185
 31
0.0
 11
182.8004341885366
 21
13.82315538223858
 31
0.0
 11
182.7135395119339
 21
13.82145433189185
 31
0.0
 11
182.6318769706147
 21
13.81626739612929
 31
0.0
 11
182.6417328200379
 21
14.03132954885328
 31
0.0
 11
182.6507427258645
 21
14.2497519099098
 31
0.0
 11
182.6571833838798
 21
14.47163149318765
 31
0.0
 11
182.6593583588023
 21
14.69700357646471
 31
0.0
 11
182.6593583588023
 21
14.74082641595992
 31
0.0
 11
182.6593583588023
 21
14.85038351469796
 31
0.0
 11
182.6593583588023
 21
14.9928077430574
 31
0.0
 11
182.6593583588023
 21
15.13523197141684
 31
0.0
 11
182.6593583588023
 21
15.24478907015488
 31
0.0
 11
182.6593583588023
 21
15.28861190965009
 31
0.0
 11
182.6571833838798
 21
15.51347467001058
 31
0.0
 11
182.6507427258645
 21
15.73406440953869
 31
0.0
  0
SPLINE
  5
AA
102
{ACAD_REACTORS
330
C7
102
}
330
48
100
AcDbEntity
  8
_U_30EC_U_30A4_U_30E4_U_30FC_1
  6
Continuous
 62
     2
100
AcDbSpline
210
0.0
220
0.0
230
1.0
 70
    11
 71
     3
 72
   118
 73
   114
 74
   112
 42
0.000000001
 43
0.0000000001
 44
0.00000001
 40
0.0
 40
0.0
 40
0.0
 40
0.0
 40
0.1054708162973672
 40
0.2466098270052172
 40
0.3965912874591553
 40
0.5285525069754191
 40
0.6156245055642781
 40
0.6431434105797882
 40
0.7036850037986501
 40
0.7642265984504812
 40
0.7917455052355088
 40
0.9287404319990358
 40
1.106572819088112
 40
1.287544879681078
 40
1.317578308030595
 40
1.399928030857231
 40
1.522968204800007
 40
1.675072986590629
 40
1.844616533180708
 40
2.01997300163877
 40
2.189516548880083
 40
2.341621331585421
 40
2.464661506320556
 40
2.547011229647121
 40
2.577044658168085
 40
2.603797890893127
 40
2.662655002908815
 40
2.721512114949598
 40
2.748265347702749
 40
2.774215307344826
 40
2.845959313407161
 40
2.954338556588366
 40
3.09019422758555
 40
3.244367517100526
 40
3.407699615844291
 40
3.571031714539447
 40
3.725205003920133
 40
3.861060674729642
 40
3.969439917716341
 40
4.041183923629016
 40
4.067133883213011
 40
4.31188674601224
 40
4.547897258335634
 40
4.76474708304408
 40
4.952749679951854
 40
5.04577297419602
 40
5.137862019645111
 40
5.330543169793168
 40
5.553448265244165
 40
5.795083855888346
 40
6.043293412177393
 40
6.28576169554131
 40
6.313902908752822
 40
6.384255941793412
 40
6.475714884767
 40
6.567173827759091
 40
6.637526860839897
 40
6.665668074074261
 40
6.69201892032824
 40
6.749990782071325
 40
6.807962643790707
 40
6.834313490018187
 40
6.856393084245465
 40
6.913335195650089
 40
6.991194817302781
 40
7.076026942284071
 40
7.15388656372559
 40
7.210828674845144
 40
7.232908268931507
 40
7.25819933492403
 40
7.324875781592685
 40
7.419142481925349
 40
7.5272043088423
 40
7.635266135230887
 40
7.72953283416888
 40
7.796209279293206
 40
7.821500344595155
 40
7.844652988851226
 40
7.899863140541977
 40
7.965759128054115
 40
8.020969279771371
 40
8.044121924046838
 40
8.069356610160916
 40
8.109134395441709
 40
8.132238100191424
 40
8.19314786778679
 40
8.279261678876969
 40
8.377977512674187
 40
8.476693347146979
 40
8.562807160412035
 40
8.623716930826824
 40
8.646820636853779
 40
8.671988793774592
 40
8.734909185828503
 40
8.816705695189217
 40
8.898502204815788
 40
8.961422597378249
 40
8.986590754551361
 40
9.012941600733523
 40
9.070913462380622
 40
9.12888532408213
 40
9.155236170325457
 40
9.1804043279295
 40
9.243324721948573
 40
9.325121234212366
 40
9.40691774663802
 40
9.469838141978476
 40
9.49500628827125
 40
9.517811184379386
 40
9.572192090487375
 40
9.637098333281589
 40
9.691479239515777
 40
9.714284125643811
 40
9.714284125643811
 40
9.714284125643811
 40
9.714284125643811
 10
185.2874469028653
 20
15.26889163187718
 30
0.0
 10
185.3090990569038
 20
15.2411186924281
 30
0.0
 10
185.3597257109474
 20
15.17618054561238
 30
0.0
 10
185.4349383202592
 20
15.06891060312897
 30
0.0
 10
185.5248482274346
 20
14.95377438266626
 30
0.0
 10
185.5709169676674
 20
14.85357045748314
 30
0.0
 10
185.6655825294655
 20
14.78434006814943
 30
0.0
 10
185.6204439320414
 20
14.73771639678271
 30
0.0
 10
185.5947047785791
 20
14.69660308866039
 30
0.0
 10
185.5645196708012
 20
14.6606597172794
 30
0.0
 10
185.5193684730564
 20
14.58579782596094
 30
0.0
 10
185.4710504458562
 20
14.80782524253607
 30
0.0
 10
185.3968539713073
 20
14.84510677337709
 30
0.0
 10
185.2836047324605
 20
15.11610202130596
 30
0.0
 10
185.288513357817
 20
15.00095328446226
 30
0.0
 10
185.2868486556306
 20
14.92836675781624
 30
0.0
 10
185.2876830076713
 20
14.80625588483983
 30
0.0
 10
185.2873609540264
 20
14.65913800810457
 30
0.0
 10
185.2875076912456
 20
14.49307063956554
 30
0.0
 10
185.2872950092722
 20
14.32187554608599
 30
0.0
 10
185.2879497252034
 20
14.15552828635495
 30
0.0
 10
185.2859192461139
 20
14.00935173055691
 30
0.0
 10
185.291346039993
 20
13.88471047474607
 30
0.0
 10
185.2804930868708
 20
13.81718656540624
 30
0.0
 10
185.2956739155555
 20
13.7554906141702
 30
0.0
 10
185.2457895108134
 20
13.76727503896998
 30
0.0
 10
185.2017150342523
 20
13.75943822779967
 30
0.0
 10
185.1582371630201
 20
13.76760441372699
 30
0.0
 10
185.1092346786489
 20
13.75538056738466
 30
0.0
 10
185.1218731234825
 20
13.8096066724931
 30
0.0
 10
185.113018296845
 20
13.86936918907555
 30
0.0
 10
185.1175058770314
 20
13.97922029044369
 30
0.0
 10
185.1157960135992
 20
14.11029975405677
 30
0.0
 10
185.1163550915987
 20
14.26198011444327
 30
0.0
 10
185.1161928768694
 20
14.42211074929953
 30
0.0
 10
185.1162269924676
 20
14.58236865674568
 30
0.0
 10
185.1162514960127
 20
14.73370247520441
 30
0.0
 10
185.1161453543226
 20
14.86582156338604
 30
0.0
 10
185.1164299141931
 20
14.97294802533196
 30
0.0
 10
185.1158675547569
 20
15.03808619579478
 30
0.0
 10
185.1180765083688
 20
15.1661895785868
 30
0.0
 10
185.0319435998603
 20
14.79097610391575
 30
0.0
 10
184.95551408185
 20
14.63918193123395
 30
0.0
 10
184.8660040767833
 20
14.47766206446306
 30
0.0
 10
184.7640413217328
 20
14.20471848820169
 30
0.0
 10
184.7187976491039
 20
14.36717346596512
 30
0.0
 10
184.610235594167
 20
14.45605432058115
 30
0.0
 10
184.7995791751753
 20
14.60549794961409
 30
0.0
 10
184.8565340545701
 20
14.79749136974926
 30
0.0
 10
184.9717520993352
 20
15.02899622906754
 30
0.0
 10
184.9940151630133
 20
15.21797259759062
 30
0.0
 10
185.1771905152139
 20
15.49454089325923
 30
0.0
 10
185.0538033597553
 20
15.48698978832088
 30
0.0
 10
184.9925684166834
 20
15.48856772366112
 30
0.0
 10
184.9081999617065
 20
15.48882592573667
 30
0.0
 10
184.8204235085965
 20
15.48544845751199
 30
0.0
 10
184.7656768696123
 20
15.49394814982014
 30
0.0
 10
184.7104703026024
 20
15.48048561049782
 30
0.0
 10
184.7222823035536
 20
15.52931442126758
 30
0.0
 10
184.7142496151793
 20
15.57269004896704
 30
0.0
 10
184.7228186104679
 20
15.6150943830957
 30
0.0
 10
184.7102943409157
 20
15.66267796552116
 30
0.0
 10
184.7555101538735
 20
15.65267212995107
 30
0.0
 10
184.8014815562723
 20
15.6589410517406
 30
0.0
 10
184.877722204771
 20
15.6559356140587
 30
0.0
 10
184.9561296131994
 20
15.65770448278539
 30
0.0
 10
185.0323992648933
 20
15.65464793981658
 30
0.0
 10
185.0783009459475
 20
15.66103971376175
 30
0.0
 10
185.12317339654
 20
15.65093822978893
 30
0.0
 10
185.1105552275635
 20
15.70157201581897
 30
0.0
 10
185.1191936582707
 20
15.75501261882068
 30
0.0
 10
185.1152361595444
 20
15.84863255131679
 30
0.0
 10
185.1162325068335
 20
15.95112606688924
 30
0.0
 10
185.1171927413074
 20
16.05353270248164
 30
0.0
 10
185.1133211458007
 20
16.14735929609324
 30
0.0
 10
185.1217789814365
 20
16.20036542840354
 30
0.0
 10
185.1093075932836
 20
16.25211435651191
 30
0.0
 10
185.1542106389851
 20
16.2385074722676
 30
0.0
 10
185.1955083836773
 20
16.24100480320587
 30
0.0
 10
185.259534428105
 20
16.23648060574489
 30
0.0
 10
185.2986111148787
 20
16.22781003043308
 30
0.0
 10
185.3476543498742
 20
16.23515102070687
 30
0.0
 10
185.3225080030591
 20
16.19602896051756
 30
0.0
 10
185.2815901333723
 20
16.2056384245581
 30
0.0
 10
185.2910109616604
 20
16.15540148169779
 30
0.0
 10
185.2855647318746
 20
16.1038594563949
 30
0.0
 10
185.2881699601803
 20
16.0195970758452
 30
0.0
 10
185.2870102202154
 20
15.92559135583408
 30
0.0
 10
185.2883591064231
 20
15.83196865395524
 30
0.0
 10
185.284997010151
 20
15.74679517552222
 30
0.0
 10
185.2920959917768
 20
15.69716856072042
 30
0.0
 10
185.2812569154546
 20
15.64993694969987
 30
0.0
 10
185.3304010225245
 20
15.6620167493685
 30
0.0
 10
185.3794877630147
 20
15.65447393363009
 30
0.0
 10
185.4573714280641
 20
15.65686070361431
 30
0.0
 10
185.5350365172896
 20
15.65899381905412
 30
0.0
 10
185.5845393931355
 20
15.65193391922453
 30
0.0
 10
185.6344594750639
 20
15.66360151936212
 30
0.0
 10
185.6223198516881
 20
15.6154023537139
 30
0.0
 10
185.6305838229143
 20
15.57249219801231
 30
0.0
 10
185.6223198650784
 20
15.5295820185138
 30
0.0
 10
185.6344594549853
 20
15.48138288754858
 30
0.0
 10
185.5845395158746
 20
15.49305034471504
 30
0.0
 10
185.5350350651202
 20
15.4859920243504
 30
0.0
 10
185.4573784382973
 20
15.48811665228597
 30
0.0
 10
185.379464386576
 20
15.49053389365754
 30
0.0
 10
185.3304500352716
 20
15.48291848194479
 30
0.0
 10
185.2813246108943
 20
15.49507952557586
 30
0.0
 10
185.2915559988571
 20
15.45073013424152
 30
0.0
 10
185.2856677678053
 20
15.40925436202907
 30
0.0
 10
185.2878788305568
 20
15.349153943153
 30
0.0
 10
185.2874109346146
 20
15.30225782762887
 30
0.0
 10
185.2874386992913
 20
15.27650146418195
 30
0.0
 10
185.2874469028653
 20
15.26889163187718
 30
0.0
 11
185.2874469028653
 21
15.26889163187718
 31
0.0
 11
185.3516977534485
 21
15.18524999634256
 31
0.0
 11
185.43482588355
 21
15.07118889748221
 31
0.0
 11
185.5216831568896
 21
14.94891767195723
 31
0.0
 11
185.5971214371872
 21
14.84064565642875
 31
0.0
 11
185.6459925881627
 21
14.76858218755788
 31
0.0
 11
185.6296821285094
 21
14.74641782124398
 31
0.0
 11
185.5937991172721
 21
14.69765621535339
 31
0.0
 11
185.5579161060347
 21
14.6488946094628
 31
0.0
 11
185.5416056463814
 21
14.6267302431489
 31
0.0
 11
185.4763067109446
 21
14.74716139023815
 31
0.0
 11
185.3848434243234
 21
14.89966983670208
 31
0.0
 11
185.2874469028653
 21
15.05219788193139
 31
0.0
 11
185.2874469028653
 21
15.0221644532825
 31
0.0
 11
185.2874469028653
 21
14.9398147295678
 31
0.0
 11
185.2874469028653
 21
14.81677455413525
 31
0.0
 11
185.2874469028653
 21
14.6646697703328
 31
0.0
 11
185.2874469028653
 21
14.49512622150842
 31
0.0
 11
185.2874469028653
 21
14.31976975101006
 31
0.0
 11
185.2874469028653
 21
14.15022620218568
 31
0.0
 11
185.2874469028653
 21
13.99812141838323
 31
0.0
 11
185.2874469028653
 21
13.87508124295068
 31
0.0
 11
185.2874469028653
 21
13.79273151923598
 31
0.0
 11
185.2874469028653
 21
13.76269809058709
 31
0.0
 11
185.2606936700409
 21
13.76269809058709
 31
0.0
 11
185.2018365578272
 21
13.76269809058709
 31
0.0
 11
185.1429794456135
 21
13.76269809058709
 31
0.0
 11
185.1162262127891
 21
13.76269809058709
 31
0.0
 11
185.1162262127891
 21
13.78864805031247
 31
0.0
 11
185.1162262127891
 21
13.86039205661205
 31
0.0
 11
185.1162262127891
 21
13.968771300171
 31
0.0
 11
185.1162262127891
 21
14.10462697167446
 31
0.0
 11
185.1162262127891
 21
14.25880026180761
 31
0.0
 11
185.1162262127891
 21
14.42213236125559
 31
0.0
 11
185.1162262127891
 21
14.58546446070357
 31
0.0
 11
185.1162262127891
 21
14.73963775083672
 31
0.0
 11
185.1162262127891
 21
14.87549342234018
 31
0.0
 11
185.1162262127891
 21
14.98387266589913
 31
0.0
 11
185.1162262127891
 21
15.05561667219871
 31
0.0
 11
185.1162262127891
 21
15.08156663192409
 31
0.0
 11
185.0379865861722
 21
14.84965603302373
 31
0.0
 11
184.9497110789304
 21
14.63077616328677
 31
0.0
 11
184.8544106930046
 21
14.43598991333545
 31
0.0
 11
184.7550964303357
 21
14.276360173792
 31
0.0
 11
184.7109198342406
 21
14.358224461966
 31
0.0
 11
184.658805738348
 21
14.43414885430809
 31
0.0
 11
184.7627302590299
 21
14.59640087926756
 31
0.0
 11
184.8629319864735
 21
14.7955146542178
 31
0.0
 11
184.9550446607902
 21
15.01890447916196
 31
0.0
 11
185.0347020220912
 21
15.25398465410317
 31
0.0
 11
185.0975378104881
 21
15.48816947904459
 31
0.0
 11
185.0693965972143
 21
15.48816947904459
 31
0.0
 11
184.9990435640298
 21
15.48816947904459
 31
0.0
 11
184.9075846208899
 21
15.48816947904459
 31
0.0
 11
184.81612567775
 21
15.48816947904459
 31
0.0
 11
184.7457726445654
 21
15.48816947904459
 31
0.0
 11
184.7176314312916
 21
15.48816947904459
 31
0.0
 11
184.7176314312916
 21
15.51452032539217
 31
0.0
 11
184.7176314312916
 21
15.57249218735685
 31
0.0
 11
184.7176314312916
 21
15.63046404932152
 31
0.0
 11
184.7176314312916
 21
15.6568148956691
 31
0.0
 11
184.739711025602
 21
15.6568148956691
 31
0.0
 11
184.7966531372444
 21
15.6568148956691
 31
0.0
 11
184.8745127592862
 21
15.6568148956691
 31
0.0
 11
184.9593448847945
 21
15.6568148956691
 31
0.0
 11
185.0372045068362
 21
15.6568148956691
 31
0.0
 11
185.0941466184787
 21
15.6568148956691
 31
0.0
 11
185.1162262127891
 21
15.6568148956691
 31
0.0
 11
185.1162262127891
 21
15.68210596174351
 31
0.0
 11
185.1162262127891
 21
15.74878240866696
 31
0.0
 11
185.1162262127891
 21
15.84304910948976
 31
0.0
 11
185.1162262127891
 21
15.95111093726224
 31
0.0
 11
185.1162262127891
 21
16.05917276503473
 31
0.0
 11
185.1162262127891
 21
16.15343946585753
 31
0.0
 11
185.1162262127891
 21
16.22011591278098
 31
0.0
 11
185.1162262127891
 21
16.24540697885539
 31
0.0
 11
185.1393181988666
 21
16.24373213107803
 31
0.0
 11
185.1943837041285
 21
16.23973826330123
 31
0.0
 11
185.2601070491184
 21
16.23497138885797
 31
0.0
 11
185.3151725543802
 21
16.23097752108117
 31
0.0
 11
185.3382645404578
 21
16.22930267330381
 31
0.0
 11
185.3249012644362
 21
16.20789677921191
 31
0.0
 11
185.2874469028653
 21
16.1945011455347
 31
0.0
 11
185.2874469028653
 21
16.17139743948579
 31
0.0
 11
185.2874469028653
 21
16.1104876689932
 31
0.0
 11
185.2874469028653
 21
16.02437385553816
 31
0.0
 11
185.2874469028653
 21
15.9256580206019
 31
0.0
 11
185.2874469028653
 21
15.82694218566564
 31
0.0
 11
185.2874469028653
 21
15.7408283722106
 31
0.0
 11
185.2874469028653
 21
15.67991860171801
 31
0.0
 11
185.2874469028653
 21
15.6568148956691
 31
0.0
 11
185.3126150604809
 21
15.6568148956691
 31
0.0
 11
185.3755354545199
 21
15.6568148956691
 31
0.0
 11
185.4573319667706
 21
15.6568148956691
 31
0.0
 11
185.5391284790212
 21
15.6568148956691
 31
0.0
 11
185.6020488730602
 21
15.6568148956691
 31
0.0
 11
185.6272170306758
 21
15.6568148956691
 31
0.0
 11
185.6272170306758
 21
15.63046404932152
 31
0.0
 11
185.6272170306758
 21
15.57249218735685
 31
0.0
 11
185.6272170306758
 21
15.51452032539217
 31
0.0
 11
185.6272170306758
 21
15.48816947904459
 31
0.0
 11
185.6020488730602
 21
15.48816947904459
 31
0.0
 11
185.5391284790212
 21
15.48816947904459
 31
0.0
 11
185.4573319667705
 21
15.48816947904459
 31
0.0
 11
185.3755354545199
 21
15.48816947904459
 31
0.0
 11
185.3126150604809
 21
15.48816947904459
 31
0.0
 11
185.2874469028653
 21
15.48816947904459
 31
0.0
 11
185.2874469028653
 21
15.46536458293918
 31
0.0
 11
185.2874469028653
 21
15.41098367684166
 31
0.0
 11
185.2874469028653
 21
15.34607743408011
 31
0.0
 11
185.2874469028653
 21
15.29169652798259
 31
0.0
 11
185.2874469028653
 21
15.26889163187718
 31
0.0
  0
SPLINE
  5
AB
102
{ACAD_REACTORS
330
C8
102
}
330
48
100
AcDbEntity
  8
_U_30EC_U_30A4_U_30E4_U_30FC_1
  6
Continuous
 62
     2
100
AcDbSpline
210
0.0
220
0.0
230
1.0
 70
    11
 71
     3
 72
    91
 73
    87
 74
    85
 42
0.000000001
 43
0.0000000001
 44
0.00000001
 40
0.0
 40
0.0
 40
0.0
 40
0.0
 40
0.0345987051695718
 40
0.1258134969461369
 40
0.2547723404888987
 40
0.4026032099154125
 40
0.5504340793416704
 40
0.679392922883608
 40
0.7706077146571035
 40
0.8052064287780925
 40
1.124852390615282
 40
1.427402236308885
 40
1.706356627453537
 40
1.955541417875223
 40
2.169485938566378
 40
2.34435078666484
 40
2.480568411561975
 40
2.59044055742897
 40
2.649189927151124
 40
2.749320643306351
 40
2.912632739880053
 40
3.147745656000255
 40
3.244827496385135
 40
3.338490056946735
 40
3.583815413207144
 40
3.761423943238489
 40
3.886956104362645
 40
3.985855451886782
 40
4.09176625533761
 40
4.25018647381183
 40
4.422734315084491
 40
4.628285684838592
 40
4.872093227758424
 40
5.15254965214553
 40
5.464967135837505
 40
5.80320147785243
 40
6.16036298881393
 40
6.193449448276014
 40
6.284170385501668
 40
6.41971813876451
 40
6.587285046385788
 40
6.774063446723674
 40
6.967245678113657
 40
7.154024078817671
 40
7.321590987026029
 40
7.457138740890387
 40
7.547859678556123
 40
7.580946138182683
 40
7.608533084714737
 40
7.669224367077715
 40
7.729915649429937
 40
7.757502595949989
 40
7.790278062553472
 40
7.880146277430941
 40
8.014419963180377
 40
8.180411842397877
 40
8.365434637679346
 40
8.556801071622619
 40
8.741823866830703
 40
8.90781574591627
 40
9.042089431507367
 40
9.131957646249493
 40
9.16473311279707
 40
9.415425063139963
 40
9.667986180958412
 40
9.69416980746255
 40
9.75660768604748
 40
9.831130315322287
 40
9.893568193899695
 40
9.919751820398512
 40
9.950967964690355
 40
9.996421631210477
 40
10.22087981037431
 40
10.44341866197517
 40
10.47847970788829
 40
10.5709133743873
 40
10.70159545461204
 40
10.85140174170335
 40
11.00120802880452
 40
11.13189010907358
 40
11.22432377582986
 40
11.25938480938932
 40
11.2869717559612
 40
11.34766303835895
 40
11.40835432042045
 40
11.4359412589208
 40
11.4359412589208
 40
11.4359412589208
 40
11.4359412589208
 10
190.0818114333289
 20
15.55242795125079
 30
0.0
 10
190.0702785844941
 20
15.55242790287917
 30
0.0
 10
190.0283409444998
 20
15.55242773704166
 30
0.0
 10
189.9434129719026
 20
15.55243125800911
 30
0.0
 10
189.8207688553128
 20
15.5524092643588
 30
0.0
 10
189.6791206916993
 20
15.55250801177056
 30
0.0
 10
189.537975369849
 20
15.55214686232423
 30
0.0
 10
189.4141351317905
 20
15.55321883609091
 30
0.0
 10
189.3317217825382
 20
15.5509224909127
 30
0.0
 10
189.1727791229692
 20
15.56048569373422
 30
0.0
 10
189.3503402353376
 20
15.19785394311372
 30
0.0
 10
189.3379739205454
 20
14.95243127723116
 30
0.0
 10
189.4064519473865
 20
14.66862501324836
 30
0.0
 10
189.469302432097
 20
14.43250999939035
 30
0.0
 10
189.5452253431729
 20
14.23326740396128
 30
0.0
 10
189.6303189577017
 20
14.07745347451372
 30
0.0
 10
189.7244607592935
 20
13.9765785778139
 30
0.0
 10
189.8282648207729
 20
13.92465852638962
 30
0.0
 10
189.9125872030773
 20
13.97606484379615
 30
0.0
 10
189.9351322179453
 20
14.09144544037513
 30
0.0
 10
189.974573097537
 20
14.21885149702379
 30
0.0
 10
189.9202919734942
 20
14.53622328086752
 30
0.0
 10
190.0451218072473
 20
14.38982180140906
 30
0.0
 10
190.2019291513602
 20
14.35795300331167
 30
0.0
 10
190.0947720007056
 20
14.12421357767629
 30
0.0
 10
190.0808711209867
 20
13.95972776583656
 30
0.0
 10
190.0234709467226
 20
13.83130869122486
 30
0.0
 10
189.9335020145008
 20
13.76018802352828
 30
0.0
 10
189.8095274657878
 20
13.74432324142256
 30
0.0
 10
189.663427319686
 20
13.77993797554173
 30
0.0
 10
189.5243894320285
 20
13.90000570500278
 30
0.0
 10
189.4102003962144
 20
14.07435682550319
 30
0.0
 10
189.3146141301485
 20
14.29946603111238
 30
0.0
 10
189.2318652572626
 20
14.5638824600644
 30
0.0
 10
189.1807179256411
 20
14.88187933098542
 30
0.0
 10
189.0770189207339
 20
15.15543728488912
 30
0.0
 10
189.2042841208522
 20
15.5600581861287
 30
0.0
 10
189.0357890623019
 20
15.5511236784968
 30
0.0
 10
188.9511995787077
 20
15.55315961418365
 30
0.0
 10
188.8189876387628
 20
15.55213937388408
 30
0.0
 10
188.6560505094104
 20
15.55253230318431
 30
0.0
 10
188.4733759170534
 20
15.5523569631337
 30
0.0
 10
188.2847057373383
 20
15.5526010530747
 30
0.0
 10
188.101446902019
 20
15.55185657906238
 30
0.0
 10
187.9404746832718
 20
15.55416360522428
 30
0.0
 10
187.8029808335277
 20
15.54799804883664
 30
0.0
 10
187.7289590372312
 20
15.56032838458213
 30
0.0
 10
187.6613215186857
 20
15.54329323723558
 30
0.0
 10
187.673237371927
 20
15.5952443844753
 30
0.0
 10
187.6655677285694
 20
15.64071424966531
 30
0.0
 10
187.6732592225117
 20
15.68614453703708
 30
0.0
 10
187.6613141797762
 20
15.73802395984573
 30
0.0
 10
187.7283588305868
 20
15.72119143490266
 30
0.0
 10
187.8017375665677
 20
15.73335409092673
 30
0.0
 10
187.9379128305272
 20
15.7272723107496
 30
0.0
 10
188.0973811801513
 20
15.7295483431506
 30
0.0
 10
188.2789173085837
 20
15.72881233998964
 30
0.0
 10
188.4658034862179
 20
15.72905954196136
 30
0.0
 10
188.6468012316836
 20
15.72886400799256
 30
0.0
 10
188.8080802578879
 20
15.72932234714841
 30
0.0
 10
188.9393882124887
 20
15.72812673751208
 30
0.0
 10
189.0225051322597
 20
15.73051347319745
 30
0.0
 10
189.1556236547814
 20
15.72230605725465
 30
0.0
 10
189.064589350266
 20
15.97752868952655
 30
0.0
 10
188.9789633074418
 20
16.24164358328243
 30
0.0
 10
189.0990589003456
 20
16.22904442969164
 30
0.0
 10
189.1514264948544
 20
16.22694235763074
 30
0.0
 10
189.2214497569715
 20
16.22535399889655
 30
0.0
 10
189.2671922337817
 20
16.21602567538113
 30
0.0
 10
189.3220812646933
 20
16.22545966915426
 30
0.0
 10
189.2963574785681
 20
16.17733028655172
 30
0.0
 10
189.1825397571453
 20
16.18266829744155
 30
0.0
 10
189.3159346621135
 20
15.95449174576778
 30
0.0
 10
189.1943658735472
 20
15.72156856595925
 30
0.0
 10
189.3223188769412
 20
15.73087258884441
 30
0.0
 10
189.4049048406461
 20
15.72801001754682
 30
0.0
 10
189.5307214850824
 20
15.72923437412305
 30
0.0
 10
189.6741469838057
 20
15.72932431888966
 30
0.0
 10
189.8157420951728
 20
15.72746163183855
 30
0.0
 10
189.9459127249967
 20
15.73333075937165
 30
0.0
 10
190.0193452286191
 20
15.72070340823206
 30
0.0
 10
190.0891112922096
 20
15.73877563110414
 30
0.0
 10
190.0775772605396
 20
15.68612850546328
 30
0.0
 10
190.0833184346682
 20
15.64221317686549
 30
0.0
 10
190.081661577091
 20
15.5908998267655
 30
0.0
 10
190.081775756167
 20
15.56158792021636
 30
0.0
 10
190.0818114333289
 20
15.55242795125079
 30
0.0
 11
190.0818114333289
 21
15.55242795125079
 31
0.0
 11
190.0472127192051
 21
15.55242795125079
 31
0.0
 11
189.9559979274241
 21
15.55242795125079
 31
0.0
 11
189.8270390838717
 21
15.55242795125079
 31
0.0
 11
189.6792082144335
 21
15.55242795125079
 31
0.0
 11
189.5313773449954
 21
15.55242795125079
 31
0.0
 11
189.402418501443
 21
15.55242795125079
 31
0.0
 11
189.311203709662
 21
15.55242795125079
 31
0.0
 11
189.2766049955382
 21
15.55242795125079
 31
0.0
 11
189.3083140497693
 21
15.23435864930123
 31
0.0
 11
189.3527866656866
 21
14.93509522788082
 31
0.0
 11
189.409238911832
 21
14.66191269512577
 31
0.0
 11
189.4768868567479
 21
14.42208605917227
 31
0.0
 11
189.5549465689762
 21
14.22289032815653
 31
0.0
 11
189.6426341170592
 21
14.07160051021475
 31
0.0
 11
189.7391655695389
 21
13.97549161348314
 31
0.0
 11
189.8437569949575
 21
13.94183864609789
 31
0.0
 11
189.8943077302786
 21
13.97177376978832
 31
0.0
 11
189.9310588991552
 21
14.06491619815045
 31
0.0
 11
189.9562640977528
 21
14.22627151712052
 31
0.0
 11
189.9721769222368
 21
14.4608453126348
 31
0.0
 11
190.0494082682583
 21
14.40202182306618
 31
0.0
 11
190.1327184184385
 21
14.35921885432688
 31
0.0
 11
190.1066365811217
 21
14.1152838866101
 31
0.0
 11
190.0673317805105
 21
13.94207902887563
 31
0.0
 11
190.0105702596765
 21
13.83011272445919
 31
0.0
 11
189.9321182616911
 21
13.76989341669647
 31
0.0
 11
189.8277420296257
 21
13.75192954892319
 31
0.0
 11
189.6738595065098
 21
13.78957440012363
 31
0.0
 11
189.5388902376748
 21
13.89707348877404
 31
0.0
 11
189.4221739916163
 21
14.06627361744808
 31
0.0
 11
189.32305053683
 21
14.28902158871941
 31
0.0
 11
189.2408596418113
 21
14.5571642051617
 31
0.0
 11
189.1749410750559
 21
14.86254826934858
 31
0.0
 11
189.1246346050594
 21
15.19702058385373
 31
0.0
 11
189.0892800003172
 21
15.55242795125079
 31
0.0
 11
189.0561935405844
 21
15.55242795125079
 31
0.0
 11
188.9654726026075
 21
15.55242795125079
 31
0.0
 11
188.8299248482186
 21
15.55242795125079
 31
0.0
 11
188.6623579392495
 21
15.55242795125079
 31
0.0
 11
188.4755795375324
 21
15.55242795125079
 31
0.0
 11
188.2823973048993
 21
15.55242795125079
 31
0.0
 11
188.0956189031822
 21
15.55242795125079
 31
0.0
 11
187.9280519942132
 21
15.55242795125079
 31
0.0
 11
187.7925042398242
 21
15.55242795125079
 31
0.0
 11
187.7017833018473
 21
15.55242795125079
 31
0.0
 11
187.6686968421146
 21
15.55242795125079
 31
0.0
 11
187.6686968421146
 21
15.58001489785848
 31
0.0
 11
187.6686968421146
 21
15.64070618039539
 31
0.0
 11
187.6686968421146
 21
15.70139746293231
 31
0.0
 11
187.6686968421146
 21
15.72898440954
 31
0.0
 11
187.7014723087632
 21
15.72898440954
 31
0.0
 11
187.7913405237674
 21
15.72898440954
 31
0.0
 11
187.9256142097149
 21
15.72898440954
 31
0.0
 11
188.0916060891932
 21
15.72898440954
 31
0.0
 11
188.2766288847902
 21
15.72898440954
 31
0.0
 11
188.4679953190932
 21
15.72898440954
 31
0.0
 11
188.6530181146902
 21
15.72898440954
 31
0.0
 11
188.8190099941685
 21
15.72898440954
 31
0.0
 11
188.953283680116
 21
15.72898440954
 31
0.0
 11
189.0431518951202
 21
15.72898440954
 31
0.0
 11
189.0759273617688
 21
15.72898440954
 31
0.0
 11
189.0659183950104
 21
15.97947647544958
 31
0.0
 11
189.0599112510664
 21
16.23196614552529
 31
0.0
 11
189.086057587066
 21
16.2305692160812
 31
0.0
 11
189.148406542142
 21
16.22723807663759
 31
0.0
 11
189.22282303691
 21
16.22326220052749
 31
0.0
 11
189.2851719919859
 21
16.21993106108388
 31
0.0
 11
189.3113183279855
 21
16.21853413163979
 31
0.0
 11
189.298293111304
 21
16.19016528616078
 31
0.0
 11
189.2551649266405
 21
16.17581274276159
 31
0.0
 11
189.2574991961821
 21
15.95136670115108
 31
0.0
 11
189.2658452735903
 21
15.72898440954
 31
0.0
 11
189.3009063195165
 21
15.72898440954
 31
0.0
 11
189.3933399860495
 21
15.72898440954
 31
0.0
 11
189.5240220663201
 21
15.72898440954
 31
0.0
 11
189.6738283534596
 21
15.72898440954
 31
0.0
 11
189.8236346405991
 21
15.72898440954
 31
0.0
 11
189.9543167208697
 21
15.72898440954
 31
0.0
 11
190.0467503874027
 21
15.72898440954
 31
0.0
 11
190.0818114333289
 21
15.72898440954
 31
0.0
 11
190.0818114333289
 21
15.70139746293231
 31
0.0
 11
190.0818114333289
 21
15.64070618039539
 31
0.0
 11
190.0818114333289
 21
15.58001489785848
 31
0.0
 11
190.0818114333289
 21
15.55242795125079
 31
0.0
  0
SPLINE
  5
AC
102
{ACAD_REACTORS
330
C9
102
}
330
48
100
AcDbEntity
  8
_U_30EC_U_30A4_U_30E4_U_30FC_1
  6
Continuous
 62
     2
100
AcDbSpline
210
0.0
220
0.0
230
1.0
 70
    11
 71
     3
 72
    75
 73
    71
 74
    69
 42
0.000000001
 43
0.0000000001
 44
0.00000001
 40
0.0
 40
0.0
 40
0.0
 40
0.0
 40
0.0342546099129638
 40
0.1245622414432222
 40
0.2522385480897234
 40
0.3985991922940218
 40
0.5449598364980217
 40
0.6726361431438088
 40
0.7629437746736107
 40
0.7971983935297084
 40
1.101723623449613
 40
1.408591244036566
 40
1.433332471690267
 40
1.487763172450052
 40
1.542193873081874
 40
1.566935100592417
 40
1.923523931821679
 40
2.271755704953511
 40
2.590579755100755
 40
2.858943305581039
 40
2.889120339309005
 40
2.91830585519092
 40
2.941366645531033
 40
2.996357760972902
 40
3.061992318140421
 40
3.116983433626585
 40
3.140044223997263
 40
3.411273122936166
 40
3.732441619740775
 40
3.761068217532471
 40
3.837787499630026
 40
3.948858699125659
 40
4.080541049104025
 40
4.219093782625399
 40
4.350776132721941
 40
4.461847332405266
 40
4.538566614677992
 40
4.567193212544237
 40
4.594907573998495
 40
4.666381453557034
 40
4.764111044010616
 40
4.870592538125419
 40
4.968322128641813
 40
5.039796008286527
 40
5.067510369783958
 40
5.094263603185172
 40
5.153120716667808
 40
5.211977830150254
 40
5.238731063551259
 40
5.272290535138526
 40
5.36338052944433
 40
5.497618415781036
 40
5.66062156345325
 40
5.838007341748951
 40
6.015393119910331
 40
6.178396267037928
 40
6.312634151841908
 40
6.403724143058898
 40
6.437283612671993
 40
6.464036846260607
 40
6.522893960004224
 40
6.581751071483491
 40
6.608504301590437
 40
6.637253941280584
 40
6.711397748902464
 40
6.812778057283077
 40
6.923237199248853
 40
7.024617507623497
 40
7.098761315207207
 40
7.127510946007157
 40
7.127510946007157
 40
7.127510946007157
 40
7.127510946007157
 10
188.4418622390564
 20
14.95849128473259
 30
0.0
 10
188.4418622819707
 20
14.94707313408715
 30
0.0
 10
188.4418624481129
 20
14.90555257842624
 30
0.0
 10
188.4418593081787
 20
14.82146922003768
 30
0.0
 10
188.4418788279801
 20
14.70004497322326
 30
0.0
 10
188.4417912187737
 20
14.55980494047447
 30
0.0
 10
188.442111623523
 20
14.42006556794577
 30
0.0
 10
188.4411605909741
 20
14.29745038894931
 30
0.0
 10
188.4431978595967
 20
14.21587074438045
 30
0.0
 10
188.4349433178746
 20
14.06271267077701
 30
0.0
 10
188.74307979409
 20
14.2256023605471
 30
0.0
 10
189.0350645173739
 20
14.39482938688003
 30
0.0
 10
189.0408354448707
 20
14.2597323578191
 30
0.0
 10
189.0455471719892
 20
14.21617221160445
 30
0.0
 10
189.0482535411919
 20
14.17211249350546
 30
0.0
 10
189.0672545672956
 20
14.02272590363136
 30
0.0
 10
188.6583942247304
 20
14.08681172241259
 30
0.0
 10
188.3793710348831
 20
13.97296341411018
 30
0.0
 10
188.1018081587168
 20
13.8736409581113
 30
0.0
 10
187.8099837184398
 20
13.9163068759637
 30
0.0
 10
187.7869144678659
 20
13.81321679744538
 30
0.0
 10
187.7537474383334
 20
13.78691091244477
 30
0.0
 10
187.7480653962739
 20
13.83455309036308
 30
0.0
 10
187.7284214559045
 20
13.87180336115072
 30
0.0
 10
187.7095089485624
 20
13.93007387847563
 30
0.0
 10
187.6942849867708
 20
13.97385201007803
 30
0.0
 10
187.6477246372936
 20
14.08759421046302
 30
0.0
 10
187.9890897312451
 20
14.05576301120055
 30
0.0
 10
188.2679649367385
 20
14.0216143510648
 30
0.0
 10
188.2617753034907
 20
14.16913976479653
 30
0.0
 10
188.2630935452773
 20
14.24013150908832
 30
0.0
 10
188.2624831689948
 20
14.34719767958661
 30
0.0
 10
188.2625871570725
 20
14.47398529785996
 30
0.0
 10
188.2629987964055
 20
14.60849243496047
 30
0.0
 10
188.2613907841969
 20
14.73395549951181
 30
0.0
 10
188.2659902567925
 20
14.84505246719113
 30
0.0
 10
188.2564186502211
 20
14.90761886800684
 30
0.0
 10
188.2704001783691
 20
14.96595388294996
 30
0.0
 10
188.2147384386705
 20
14.95289710582233
 30
0.0
 10
188.1575655197822
 20
14.96136307749494
 30
0.0
 10
188.0616048925647
 20
14.95729976080631
 30
0.0
 10
187.9633767522822
 20
14.95970889852469
 30
0.0
 10
187.8672582457561
 20
14.95551600613383
 30
0.0
 10
187.8104648525812
 20
14.96429346441157
 30
0.0
 10
187.7550356873385
 20
14.95094936850117
 30
0.0
 10
187.7670679427918
 20
15.00036910959252
 30
0.0
 10
187.7592003173937
 20
15.0439398803039
 30
0.0
 10
187.766629556383
 20
15.0883046911852
 30
0.0
 10
187.7551930564144
 20
15.13902297763987
 30
0.0
 10
187.8232102370134
 20
15.12162460757738
 30
0.0
 10
187.8968496879747
 20
15.13417450237184
 30
0.0
 10
188.0325064058211
 20
15.12799677011092
 30
0.0
 10
188.1884909024526
 20
15.13029203093079
 30
0.0
 10
188.3615926358144
 20
15.12940968262525
 30
0.0
 10
188.5346942964182
 20
15.13029207142403
 30
0.0
 10
188.6906789811218
 20
15.12799662955545
 30
0.0
 10
188.8263351889798
 20
15.13417486262426
 30
0.0
 10
188.8999756705653
 20
15.1216239421833
 30
0.0
 10
188.9679914174725
 20
15.13902373012137
 30
0.0
 10
188.9565590885923
 20
15.0883013041455
 30
0.0
 10
188.9639539458297
 20
15.04397060811103
 30
0.0
 10
188.9562039912271
 20
15.00028307550191
 30
0.0
 10
188.9681203741878
 20
14.95063590098472
 30
0.0
 10
188.9108170223617
 20
14.9646141133842
 30
0.0
 10
188.8520145789773
 20
14.95539755673249
 30
0.0
 10
188.75252936332
 20
14.95952268164925
 30
0.0
 10
188.649428009835
 20
14.95822760025882
 30
0.0
 10
188.5537846354574
 20
14.95854077077636
 30
0.0
 10
188.4857467971617
 20
14.95848776697139
 30
0.0
 10
188.4514462213443
 20
14.95849051871651
 30
0.0
 10
188.4418622390564
 20
14.95849128473259
 30
0.0
 11
188.4418622390564
 21
14.95849128473259
 31
0.0
 11
188.4418622390564
 21
14.9242366658718
 31
0.0
 11
188.4418622390564
 21
14.83392903432971
 31
0.0
 11
188.4418622390564
 21
14.70625272766677
 31
0.0
 11
188.4418622390564
 21
14.55989208344339
 31
0.0
 11
188.4418622390564
 21
14.41353143922001
 31
0.0
 11
188.4418622390564
 21
14.28585513255706
 31
0.0
 11
188.4418622390564
 21
14.19554750101498
 31
0.0
 11
188.4418622390564
 21
14.16129288215419
 31
0.0
 11
188.7391932644568
 21
14.22709475713765
 31
0.0
 11
189.0384623627245
 21
14.29496038212071
 31
0.0
 11
189.0405487124976
 21
14.27030727882827
 31
0.0
 11
189.0451386819987
 21
14.2160704515849
 31
0.0
 11
189.0497286514996
 21
14.16183362434153
 31
0.0
 11
189.0518150012728
 21
14.13718052104909
 31
0.0
 11
188.705639688924
 21
14.05163370140897
 31
0.0
 11
188.3669653138838
 21
13.97060877629899
 31
0.0
 11
188.0563731516688
 21
13.89862764024926
 31
0.0
 11
187.7944444777955
 21
13.84021218778989
 31
0.0
 11
187.7817515029293
 21
13.81283442738013
 31
0.0
 11
187.7569794787514
 21
13.79740260446741
 31
0.0
 11
187.7491867589502
 21
13.81910683390641
 31
0.0
 11
187.7306041194242
 21
13.87086307333788
 31
0.0
 11
187.7084248399901
 21
13.93263664943351
 31
0.0
 11
187.6898422004641
 21
13.98439288886498
 31
0.0
 11
187.6820494806629
 21
14.00609711830398
 31
0.0
 11
187.9482776335932
 21
14.05794001759667
 31
0.0
 11
188.2626334936289
 21
14.12373968771911
 31
0.0
 11
188.2626334936289
 21
14.15236628569625
 31
0.0
 11
188.2626334936289
 21
14.22908556827499
 31
0.0
 11
188.2626334936289
 21
14.34015676842631
 31
0.0
 11
188.2626334936289
 21
14.47183911912116
 31
0.0
 11
188.2626334936289
 21
14.61039185333054
 31
0.0
 11
188.2626334936289
 21
14.74207420402539
 31
0.0
 11
188.2626334936289
 21
14.8531454041767
 31
0.0
 11
188.2626334936289
 21
14.92986468675545
 31
0.0
 11
188.2626334936289
 21
14.95849128473259
 31
0.0
 11
188.2349191321108
 21
14.95849128473259
 31
0.0
 11
188.1634452524063
 21
14.95849128473259
 31
0.0
 11
188.0657156617901
 21
14.95849128473259
 31
0.0
 11
187.9592341675364
 21
14.95849128473259
 31
0.0
 11
187.8615045769201
 21
14.95849128473259
 31
0.0
 11
187.7900306972156
 21
14.95849128473259
 31
0.0
 11
187.7623163356976
 21
14.95849128473259
 31
0.0
 11
187.7623163356976
 21
14.98524451823284
 31
0.0
 11
187.7623163356976
 21
15.04410163193339
 31
0.0
 11
187.7623163356976
 21
15.10295874563394
 31
0.0
 11
187.7623163356976
 21
15.12971197913419
 31
0.0
 11
187.7958758072876
 21
15.12971197913419
 31
0.0
 11
187.8869658016031
 21
15.12971197913419
 31
0.0
 11
188.021203687963
 21
15.12971197913419
 31
0.0
 11
188.1842068356856
 21
15.12971197913419
 31
0.0
 11
188.3615926140897
 21
15.12971197913419
 31
0.0
 11
188.5389783924938
 21
15.12971197913419
 31
0.0
 11
188.7019815402165
 21
15.12971197913419
 31
0.0
 11
188.8362194265763
 21
15.12971197913419
 31
0.0
 11
188.9273094208919
 21
15.12971197913419
 31
0.0
 11
188.9608688924819
 21
15.12971197913419
 31
0.0
 11
188.9608688924819
 21
15.10295874563394
 31
0.0
 11
188.9608688924819
 21
15.04410163193339
 31
0.0
 11
188.9608688924819
 21
14.98524451823284
 31
0.0
 11
188.9608688924819
 21
14.95849128473259
 31
0.0
 11
188.9321192527878
 21
14.95849128473259
 31
0.0
 11
188.8579754451555
 21
14.95849128473259
 31
0.0
 11
188.7565951367605
 21
14.95849128473259
 31
0.0
 11
188.6461359947778
 21
14.95849128473259
 31
0.0
 11
188.5447556863828
 21
14.95849128473259
 31
0.0
 11
188.4706118787505
 21
14.95849128473259
 31
0.0
 11
188.4418622390564
 21
14.95849128473259
 31
0.0
  0
SPLINE
  5
AD
102
{ACAD_REACTORS
330
CA
102
}
330
48
100
AcDbEntity
  8
_U_30EC_U_30A4_U_30E4_U_30FC_1
  6
Continuous
 62
     2
100
AcDbSpline
210
0.0
220
0.0
230
1.0
 70
    11
 71
     3
 72
    15
 73
    11
 74
     9
 42
0.000000001
 43
0.0000000001
 44
0.00000001
 40
0.0
 40
0.0
 40
0.0
 40
0.0
 40
0.2785535985096075
 40
0.5215624748199178
 40
0.6076917376041058
 40
0.6938210001741829
 40
0.9405019146455529
 40
1.221691403489167
 40
1.300471877081121
 40
1.379252341684946
 40
1.379252341684946
 40
1.379252341684946
 40
1.379252341684946
 10
189.5681493631
 20
16.22930267330381
 30
0.0
 10
189.6296017794178
 20
16.17691646592716
 30
0.0
 10
189.7446649974114
 20
16.07882876798221
 30
0.0
 10
190.0397348497245
 20
15.92889785897215
 30
0.0
 10
189.9025147631857
 20
15.84343227515012
 30
0.0
 10
189.8041227843778
 20
15.71085785201557
 30
0.0
 10
189.713003359065
 20
16.01616985781417
 30
0.0
 10
189.3636839480655
 20
16.07967869465371
 30
0.0
 10
189.511925837657
 20
16.17896509880876
 30
0.0
 10
189.5494081874237
 20
16.21252348402382
 30
0.0
 10
189.5681493631
 20
16.22930267330381
 30
0.0
 11
189.5681493631
 21
16.22930267330381
 31
0.0
 11
189.7919222440596
 21
16.06341774278973
 31
0.0
 11
189.9695046306384
 21
15.89753281227559
 31
0.0
 11
189.9066308127979
 21
15.83866743034589
 31
0.0
 11
189.8437569949575
 21
15.7798020484162
 31
0.0
 11
189.6688535117725
 21
15.95375677059489
 31
0.0
 11
189.447825685614
 21
16.12757920110698
 31
0.0
 11
189.507987524357
 21
16.17844093720539
 31
0.0
 11
189.5681493631
 21
16.22930267330381
 31
0.0
  0
SPLINE
  5
AE
102
{ACAD_REACTORS
330
CB
102
}
330
48
100
AcDbEntity
  8
_U_30EC_U_30A4_U_30E4_U_30FC_1
  6
Continuous
 62
     2
100
AcDbSpline
210
0.0
220
0.0
230
1.0
 70
    11
 71
     3
 72
    35
 73
    31
 74
    29
 42
0.000000001
 43
0.0000000001
 44
0.00000001
 40
0.0
 40
0.0
 40
0.0
 40
0.0
 40
0.0335231036620479
 40
0.0713218571711819
 40
0.4278866681487211
 40
0.8116865841963902
 40
1.198190238000035
 40
1.561379546812667
 40
1.65998317462201
 40
1.759315573807224
 40
2.132719617231086
 40
2.525233363588822
 40
2.910815397779729
 40
3.265244364303288
 40
3.592606723581918
 40
3.96438615460385
 40
4.359942131737688
 40
4.758154118639236
 40
4.843846538699817
 40
4.936650065543112
 40
5.256616602537165
 40
5.581707404415853
 40
5.899719158307989
 40
6.198363494280589
 40
6.466301046615645
 40
6.493895311536967
 40
6.559697020196704
 40
6.63823454344228
 40
6.704036252154006
 40
6.731630508422784
 40
6.731630508422784
 40
6.731630508422784
 40
6.731630508422784
 10
191.9736010568669
 20
16.23463843719131
 30
0.0
 10
191.9676006097789
 20
16.22480690542321
 30
0.0
 10
191.9548344099157
 20
16.20388988579797
 30
0.0
 10
191.7949362006553
 20
16.17127126532694
 30
0.0
 10
192.2322025842337
 20
15.882066803367
 30
0.0
 10
192.4345394828262
 20
15.68041138358439
 30
0.0
 10
192.6819564267973
 20
15.43749387603277
 30
0.0
 10
193.1831513624605
 20
15.36047662757784
 30
0.0
 10
193.012556219897
 20
15.21876939174652
 30
0.0
 10
192.9383299463201
 20
15.01710366209105
 30
0.0
 10
192.6131432248188
 20
15.36956287174718
 30
0.0
 10
192.3277741670664
 20
15.53175212559561
 30
0.0
 10
192.0337604077658
 20
15.73687130053041
 30
0.0
 10
191.8084452691134
 20
16.21827488595444
 30
0.0
 10
191.5993085055522
 20
15.7534304660922
 30
0.0
 10
191.3207873674835
 20
15.54350952252913
 30
0.0
 10
191.0371383177209
 20
15.37424456359985
 30
0.0
 10
190.7078639527832
 20
15.00142360907945
 30
0.0
 10
190.6277012318224
 20
15.19708014459001
 30
0.0
 10
190.4759724909746
 20
15.32491104190608
 30
0.0
 10
190.9083395826795
 20
15.40454031765936
 30
0.0
 10
191.0962565329766
 20
15.60026634915482
 30
0.0
 10
191.3468477420503
 20
15.81632996916757
 30
0.0
 10
191.5714350470162
 20
15.98190992300064
 30
0.0
 10
191.6259775409713
 20
16.26133964636829
 30
0.0
 10
191.7494661029012
 20
16.2473795040808
 30
0.0
 10
191.806027334452
 20
16.24521268867647
 30
0.0
 10
191.8761870984945
 20
16.24046859881359
 30
0.0
 10
191.9333414022105
 20
16.23709429350539
 30
0.0
 10
191.9644190320839
 20
16.23519854711116
 30
0.0
 10
191.9736010568669
 20
16.23463843719131
 30
0.0
 11
191.9736010568669
 21
16.23463843719131
 31
0.0
 11
191.9525319069884
 21
16.20856374969784
 31
0.0
 11
191.9174464559425
 21
16.1945011455347
 31
0.0
 11
192.1512374769095
 21
15.9252796113138
 31
0.0
 11
192.4414585957566
 21
15.6741340796926
 31
0.0
 11
192.7612797483684
 21
15.45710987618786
 31
0.0
 11
193.0838708706289
 21
15.29025232631639
 31
0.0
 11
193.0213299868077
 21
15.21402035584929
 31
0.0
 11
192.9688035818975
 21
15.12971197913419
 31
0.0
 11
192.6436279095814
 21
15.31326404831575
 31
0.0
 11
192.3237227768436
 21
15.54070139743425
 31
0.0
 11
192.0354200158608
 21
15.79673855123306
 31
0.0
 11
191.8050514588095
 21
16.06609003445558
 31
0.0
 11
191.5995531719517
 21
15.81126348721035
 31
0.0
 11
191.3288301341536
 21
15.55645182277757
 31
0.0
 11
191.0119538423247
 21
15.31969466354859
 31
0.0
 11
190.6679957933741
 21
15.11903163191471
 31
0.0
 11
190.6218855341338
 21
15.19126067703554
 31
0.0
 11
190.5636970460349
 21
15.26355586798971
 31
0.0
 11
190.8433040489015
 21
15.41911456961749
 31
0.0
 11
191.1093004621154
 21
15.60601009790409
 31
0.0
 11
191.3499997459747
 21
15.81384496285212
 31
0.0
 11
191.5537153607775
 21
16.03222167446419
 31
0.0
 11
191.7087607668219
 21
16.25074274274289
 31
0.0
 11
191.7363041569866
 21
16.24906789496553
 31
0.0
 11
191.8019845489177
 21
16.24507402718874
 31
0.0
 11
191.8803772747711
 21
16.24030715274547
 31
0.0
 11
191.9460576667022
 21
16.23631328496867
 31
0.0
 11
191.9736010568669
 21
16.23463843719131
 31
0.0
  0
SPLINE
  5
AF
102
{ACAD_REACTORS
330
CC
102
}
330
48
100
AcDbEntity
  8
_U_30EC_U_30A4_U_30E4_U_30FC_1
  6
Continuous
 62
     2
100
AcDbSpline
210
0.0
220
0.0
230
1.0
 70
    11
 71
     3
 72
    91
 73
    87
 74
    85
 42
0.000000001
 43
0.0000000001
 44
0.00000001
 40
0.0
 40
0.0
 40
0.0
 40
0.0
 40
0.0267532254356666
 40
0.085610338646396
 40
0.1444674521996372
 40
0.171220685661823
 40
0.2039416005642252
 40
0.29556019716522
 40
0.4362601844616918
 40
0.616225284450725
 40
0.8256392189704698
 40
1.054685709844439
 40
1.29354847889356
 40
1.532411247938303
 40
1.761457738799568
 40
1.970871673298565
 40
2.150836773256789
 40
2.29153676049565
 40
2.383155356836729
 40
2.415876284101377
 40
2.442629517488016
 40
2.501486630949137
 40
2.560343744424276
 40
2.587096977826543
 40
2.617068194440971
 40
2.69924733675614
 40
2.822032643466424
 40
2.973822353257982
 40
3.143014704823424
 40
3.318007936880004
 40
3.487200288186837
 40
3.638989997548374
 40
3.761775303794873
 40
3.843954445753208
 40
3.873925662229904
 40
3.8908127735006
 40
3.907699884771768
 40
3.937960767857387
 40
3.980983618142341
 40
4.1990859152285
 40
4.43944433923731
 40
4.677588241260953
 40
5.050698317837867
 40
5.44821245476331
 40
5.855291218044835
 40
6.138575438885524
 40
6.417434507584398
 40
6.444551104394082
 40
6.504207617363409
 40
6.563864130314811
 40
6.590980727104405
 40
6.848609460381779
 40
7.109611990668721
 40
7.352910904446375
 40
7.55783022070574
 40
7.58751892591364
 40
7.652834077376075
 40
7.718149228846049
 40
7.747837934062336
 40
7.854880190301358
 40
7.976511257403891
 40
8.369487896592721
 40
8.757514959224071
 40
9.126072419331534
 40
9.460639380392596
 40
9.746695593036337
 40
9.777569943119103
 40
9.807050320932184
 40
9.830377336129313
 40
9.88600329543638
 40
9.952395569430283
 40
10.00802152870663
 40
10.03134854388255
 40
10.21356951009628
 40
10.42203479292908
 40
10.66154556731106
 40
10.91693789564348
 40
11.15832906556606
 40
11.18982674596664
 40
11.27286608520448
 40
11.39026653033395
 40
11.52484752840932
 40
11.65942852648491
 40
11.77682897161533
 40
11.85986831085732
 40
11.89136598230477
 40
11.89136598230477
 40
11.89136598230477
 40
11.89136598230477
 10
190.7027885008196
 20
14.70699600701769
 30
0.0
 10
190.7028237765288
 20
14.71587847311982
 30
0.0
 10
190.7029366710796
 20
14.74430237047342
 30
0.0
 10
190.7012984568489
 20
14.79409639169798
 30
0.0
 10
190.7069750292911
 20
14.83657564478149
 30
0.0
 10
190.6956928731706
 20
14.88730154856841
 30
0.0
 10
190.7632296979032
 20
14.87012900740103
 30
0.0
 10
190.8388029210701
 20
14.8829022716599
 30
0.0
 10
190.9828357056001
 20
14.87629729457376
 30
0.0
 10
191.1569419185427
 20
14.8788846220646
 30
0.0
 10
191.3639599611003
 20
14.87800591955547
 30
0.0
 10
191.5894688172378
 20
14.87828207920021
 30
0.0
 10
191.8251162293406
 20
14.87818339658656
 30
0.0
 10
192.0607640531349
 20
14.87828184412761
 30
0.0
 10
192.2862717580626
 20
14.87800678190783
 30
0.0
 10
192.4932934632805
 20
14.87888186270729
 30
0.0
 10
192.667388891529
 20
14.8763052267844
 30
0.0
 10
192.8114492071986
 20
14.88288290449208
 30
0.0
 10
192.8869691915293
 20
14.87016243405598
 30
0.0
 10
192.9545776037031
 20
14.88726400191681
 30
0.0
 10
192.9430840140676
 20
14.83674785802935
 30
0.0
 10
192.9505104581734
 20
14.79253252226497
 30
0.0
 10
192.9428838927986
 20
14.74867966503606
 30
0.0
 10
192.9546489459426
 20
14.69878374479325
 30
0.0
 10
192.8930788491983
 20
14.71393227712509
 30
0.0
 10
192.8256791738673
 20
14.70310665350671
 30
0.0
 10
192.7013004056222
 20
14.70852031626233
 30
0.0
 10
192.5554428236572
 20
14.70649205390782
 30
0.0
 10
192.3893576440086
 20
14.70715777578383
 30
0.0
 10
192.2188412621725
 20
14.70689643521239
 30
0.0
 10
192.0519790855389
 20
14.7072155339109
 30
0.0
 10
191.9087346827105
 20
14.70635302590759
 30
0.0
 10
191.7773313869833
 20
14.70863300482984
 30
0.0
 10
191.7239859134657
 20
14.70407704374201
 30
0.0
 10
191.6485188456912
 20
14.70999914992872
 30
0.0
 10
191.6769075779232
 20
14.70094169343353
 30
0.0
 10
191.7033652409542
 20
14.69725912268934
 30
0.0
 10
191.6633522907702
 20
14.66654271968278
 30
0.0
 10
191.5713663691869
 20
14.67667591174624
 30
0.0
 10
191.5439396207069
 20
14.43032502247786
 30
0.0
 10
191.4478793967235
 20
14.27499558764373
 30
0.0
 10
191.1917277964473
 20
13.94525417931569
 30
0.0
 10
191.7627537732763
 20
14.0843002221045
 30
0.0
 10
192.0173656320517
 20
14.08291779973363
 30
0.0
 10
192.6279647048618
 20
13.99790569242086
 30
0.0
 10
192.3340698578083
 20
14.296854175582
 30
0.0
 10
192.0133304286517
 20
14.44330856901776
 30
0.0
 10
192.1313543360434
 20
14.50025540818286
 30
0.0
 10
192.1724716466261
 20
14.52420099873349
 30
0.0
 10
192.2156812394411
 20
14.54599758811228
 30
0.0
 10
192.3174574094454
 20
14.60928721253905
 30
0.0
 10
192.4328867625247
 20
14.35147151408778
 30
0.0
 10
192.6329591642278
 20
14.21616041113681
 30
0.0
 10
192.7269077387228
 20
14.03792795138877
 30
0.0
 10
192.9558829746394
 20
13.87997821027058
 30
0.0
 10
192.8596031846709
 20
13.82915972576298
 30
0.0
 10
192.816795976378
 20
13.79881292523051
 30
0.0
 10
192.771824352878
 20
13.77466130281456
 30
0.0
 10
192.7121720925215
 20
13.72552146747558
 30
0.0
 10
192.6789731061325
 20
13.85997475673605
 30
0.0
 10
192.5582013350797
 20
14.01594265286582
 30
0.0
 10
192.1970976005979
 20
13.88569928059553
 30
0.0
 10
191.8385061955541
 20
13.90224694409482
 30
0.0
 10
191.457092045008
 20
13.89331229351864
 30
0.0
 10
191.1703455282891
 20
13.82882671672404
 30
0.0
 10
190.8592055599714
 20
13.94230668192827
 30
0.0
 10
190.8268737818788
 20
13.83122259927766
 30
0.0
 10
190.7896178253317
 20
13.81196313850018
 30
0.0
 10
190.7865737632754
 20
13.85874784087299
 30
0.0
 10
190.7679892860607
 20
13.89806853919138
 30
0.0
 10
190.7512436616778
 20
13.95765983478234
 30
0.0
 10
190.7383730915753
 20
14.00201969871284
 30
0.0
 10
190.7042327806429
 20
14.09106331120201
 30
0.0
 10
190.9482714457753
 20
14.02181042943769
 30
0.0
 10
191.1441394486672
 20
14.00030369057742
 30
0.0
 10
191.2395426381277
 20
14.28226484478462
 30
0.0
 10
191.2945135769597
 20
14.44363045421121
 30
0.0
 10
191.5159619357157
 20
14.71391177589735
 30
0.0
 10
191.3849239381217
 20
14.70548446853731
 30
0.0
 10
191.3110026555855
 20
14.70779008496967
 30
0.0
 10
191.1977459876244
 20
14.70671378321655
 30
0.0
 10
191.0694251807485
 20
14.70707639076507
 30
0.0
 10
190.9404252030415
 20
14.70697724466082
 30
0.0
 10
190.8287840946292
 20
14.7069993271257
 30
0.0
 10
190.7514663970025
 20
14.70699579189666
 30
0.0
 10
190.713287653201
 20
14.70699595845078
 30
0.0
 10
190.7027885008196
 20
14.70699600701769
 30
0.0
 11
190.7027885008196
 21
14.70699600701769
 31
0.0
 11
190.7027885008196
 21
14.73374924051794
 31
0.0
 11
190.7027885008196
 21
14.79260635421849
 31
0.0
 11
190.7027885008196
 21
14.85146346791904
 31
0.0
 11
190.7027885008196
 21
14.87821670141929
 31
0.0
 11
190.7355094280989
 21
14.87821670141929
 31
0.0
 11
190.8271280244809
 21
14.87821670141929
 31
0.0
 11
190.9678280117819
 21
14.87821670141929
 31
0.0
 11
191.147793111818
 21
14.87821670141929
 31
0.0
 11
191.3572070464054
 21
14.87821670141929
 31
0.0
 11
191.5862535373604
 21
14.87821670141929
 31
0.0
 11
191.8251163064993
 21
14.87821670141929
 31
0.0
 11
192.0639790756381
 21
14.87821670141929
 31
0.0
 11
192.2930255665931
 21
14.87821670141929
 31
0.0
 11
192.5024395011806
 21
14.87821670141929
 31
0.0
 11
192.6824046012168
 21
14.87821670141929
 31
0.0
 11
192.8231045885177
 21
14.87821670141929
 31
0.0
 11
192.9147231848997
 21
14.87821670141929
 31
0.0
 11
192.947444112179
 21
14.87821670141929
 31
0.0
 11
192.947444112179
 21
14.85146346791904
 31
0.0
 11
192.947444112179
 21
14.79260635421849
 31
0.0
 11
192.947444112179
 21
14.73374924051794
 31
0.0
 11
192.947444112179
 21
14.70699600701769
 31
0.0
 11
192.9174728954758
 21
14.70699600701769
 31
0.0
 11
192.8352937529027
 21
14.70699600701769
 31
0.0
 11
192.712508445764
 21
14.70699600701769
 31
0.0
 11
192.5607187353642
 21
14.70699600701769
 31
0.0
 11
192.3915263830078
 21
14.70699600701769
 31
0.0
 11
192.2165331499991
 21
14.70699600701769
 31
0.0
 11
192.0473407976427
 21
14.70699600701769
 31
0.0
 11
191.8955510872428
 21
14.70699600701769
 31
0.0
 11
191.7727657801042
 21
14.70699600701769
 31
0.0
 11
191.690586637531
 21
14.70699600701769
 31
0.0
 11
191.6606154208279
 21
14.70699600701769
 31
0.0
 11
191.6766359412525
 21
14.70165583340794
 31
0.0
 11
191.6926564616771
 21
14.69631565979819
 31
0.0
 11
191.670615568142
 21
14.67558114591445
 31
0.0
 11
191.6284861855364
 21
14.66685871536109
 31
0.0
 11
191.5365235541378
 21
14.46909247312656
 31
0.0
 11
191.4279078521764
 21
14.25467511978507
 31
0.0
 11
191.3127500824807
 21
14.0462255905162
 31
0.0
 11
191.685736667502
 21
14.05582441253028
 31
0.0
 11
192.0830700036151
 21
14.06781232404994
 31
0.0
 11
192.4899342191146
 21
14.08102711828531
 31
0.0
 11
192.2983119496979
 21
14.28966761302477
 31
0.0
 11
192.0966752013698
 21
14.4822942015183
 31
0.0
 11
192.1204947794749
 21
14.49525327269563
 31
0.0
 11
192.1728978513062
 21
14.52376322928575
 31
0.0
 11
192.2253009231375
 21
14.55227318587587
 31
0.0
 11
192.2491205012426
 21
14.5652322570532
 31
0.0
 11
192.4387101558627
 21
14.39079508370266
 31
0.0
 11
192.6200310940436
 21
14.20305846374089
 31
0.0
 11
192.7777729231148
 21
14.01782380992436
 31
0.0
 11
192.8966252504059
 21
13.85089253500951
 31
0.0
 11
192.8715408217924
 21
13.8350120228607
 31
0.0
 11
192.8163550788427
 21
13.8000748961333
 31
0.0
 11
192.7611693358929
 21
13.76513776940591
 31
0.0
 11
192.7360849072794
 21
13.74925725725709
 31
0.0
 11
192.6775518151613
 21
13.83887824681807
 31
0.0
 11
192.6050015078458
 21
13.93650288221031
 31
0.0
 11
192.2125412924095
 21
13.91636286943758
 31
0.0
 11
191.824947406956
 21
13.89803302999772
 31
0.0
 11
191.4567378976213
 21
13.88202178722394
 31
0.0
 11
191.1224308105412
 21
13.86883756444946
 31
0.0
 11
190.8365441918518
 21
13.85898878500748
 31
0.0
 11
190.821186232174
 21
13.83220523466694
 31
0.0
 11
190.7937434290546
 21
13.82143559057249
 31
0.0
 11
190.7867927192319
 21
13.84370299445581
 31
0.0
 11
190.7702179496548
 21
13.89680218833141
 31
0.0
 11
190.7504351601596
 21
13.96017864553778
 31
0.0
 11
190.7338603905825
 21
14.01327783941338
 31
0.0
 11
190.7269096807598
 21
14.0355452432967
 31
0.0
 11
190.9091199859153
 21
14.03751638912951
 31
0.0
 11
191.1174975848588
 21
14.04356211829469
 31
0.0
 11
191.2303203127216
 21
14.25483550301553
 31
0.0
 11
191.3407936722036
 21
14.4850981315588
 31
0.0
 11
191.4358254265628
 21
14.70699600701769
 31
0.0
 11
191.4043277461597
 21
14.70699600701769
 31
0.0
 11
191.3212884069154
 21
14.70699600701769
 31
0.0
 11
191.2038879617768
 21
14.70699600701769
 31
0.0
 11
191.0693069636912
 21
14.70699600701769
 31
0.0
 11
190.9347259656055
 21
14.70699600701769
 31
0.0
 11
190.817325520467
 21
14.70699600701769
 31
0.0
 11
190.7342861812226
 21
14.70699600701769
 31
0.0
 11
190.7027885008196
 21
14.70699600701769
 31
0.0
  0
SPLINE
  5
B0
102
{ACAD_REACTORS
330
CD
102
}
330
48
100
AcDbEntity
  8
_U_30EC_U_30A4_U_30E4_U_30FC_1
  6
Continuous
 62
     2
100
AcDbSpline
210
0.0
220
0.0
230
1.0
 70
    11
 71
     3
 72
   131
 73
   127
 74
   125
 42
0.000000001
 43
0.0000000001
 44
0.00000001
 40
0.0
 40
0.0
 40
0.0
 40
0.0
 40
0.0195577029826114
 40
0.0426490537460358
 40
0.2863607575855894
 40
0.5344948436188799
 40
0.7842238845573033
 40
0.8737315789467138
 40
0.9803832810312846
 40
1.092842274517032
 40
1.199761146656798
 40
1.289788768186517
 40
1.351573580786212
 40
1.370727117561436
 40
1.41640093601782
 40
1.470914848355918
 40
1.516588666791684
 40
1.535742203552759
 40
1.634216592293142
 40
1.760283341175008
 40
1.897966686682105
 40
2.031216387368934
 40
2.04968975113793
 40
2.101115601646868
 40
2.179502577739989
 40
2.278859318314109
 40
2.39319446225877
 40
2.51651664838389
 40
2.642834515406023
 40
2.766156701983532
 40
2.88049184675465
 40
2.979848588358696
 40
3.058235565443877
 40
3.109661416669033
 40
3.12813478070421
 40
3.146783742386527
 40
3.19125434331536
 40
3.244332157315962
 40
3.288802758225837
 40
3.307451719895108
 40
3.32771785384472
 40
3.383747753580084
 40
3.468388665924478
 40
3.574487837698789
 40
3.694892515728898
 40
3.822449946852041
 40
3.950007377920436
 40
4.07041205580053
 40
4.17651122736809
 40
4.261152139501538
 40
4.317182039076734
 40
4.337448172964654
 40
4.620011002696245
 40
4.885096638397622
 40
4.945373043518411
 40
5.014107710488746
 40
5.070481727652198
 40
5.319246955636709
 40
5.584812164506221
 40
5.859000912057113
 40
6.133746937542252
 40
6.401732212969053
 40
6.420736683995644
 40
6.472845717451294
 40
6.550702743894222
 40
6.646951193874431
 40
6.754234497930755
 40
6.865196086587533
 40
6.972479390357991
 40
7.068727839772153
 40
7.146584865451162
 40
7.198693898189392
 40
7.217698368905532
 40
7.234950401631014
 40
7.276089864270064
 40
7.325191803516182
 40
7.366331266090578
 40
7.383583298769931
 40
7.402779163492337
 40
7.45338644325474
 40
7.52493466644577
 40
7.606953361406109
 40
7.688972056429289
 40
7.76052027978454
 40
7.81112755973481
 40
7.830323424546432
 40
7.847844055300058
 40
7.894799345667092
 40
7.962779392744769
 40
8.043374293560802
 40
8.128174145149696
 40
8.208769044817487
 40
8.27674909037718
 40
8.323704379669731
 40
8.341225010056462
 40
8.35849761480061
 40
8.401679126686787
 40
8.457815092185845
 40
8.51395105772825
 40
8.557132569708148
 40
8.574405174505191
 40
8.602340668616552
 40
8.643455660540122
 40
8.66322527196679
 40
8.715345156564423
 40
8.789031889628747
 40
8.87350204552046
 40
8.957972194324071
 40
9.031658925567951
 40
9.083778811234628
 40
9.103548423003089
 40
9.119550083123654
 40
9.160817522379928
 40
9.217244429110321
 40
9.278724491644835
 40
9.33515139829562
 40
9.376418837357944
 40
9.392420497300732
 40
9.401196302734915
 40
9.417494229384321
 40
9.426270027749585
 40
9.440875075477614
 40
9.475702496998787
 40
9.517270709865942
 40
9.552098131994104
 40
9.566703169884308
 40
9.566703169884308
 40
9.566703169884308
 40
9.566703169884308
 10
194.6170254148479
 20
15.67015871511029
 30
0.0
 10
194.6134345093371
 20
15.66453690702161
 30
0.0
 10
194.6056039123625
 20
15.65227754419118
 30
0.0
 10
194.5129968974547
 20
15.61601916040954
 30
0.0
 10
194.4887622233248
 20
15.40148444212723
 30
0.0
 10
194.3858709845939
 20
15.22197284509705
 30
0.0
 10
194.1220492364306
 20
15.03615573798147
 30
0.0
 10
194.284547156918
 20
14.95959336566081
 30
0.0
 10
194.3607225760839
 20
14.89856693195445
 30
0.0
 10
194.4492171072758
 20
14.83515804544761
 30
0.0
 10
194.538993023311
 20
14.77525634219561
 30
0.0
 10
194.5883817636046
 20
14.72102154849208
 30
0.0
 10
194.6745708157382
 20
14.69286240541828
 30
0.0
 10
194.6411260674229
 20
14.65713309652807
 30
0.0
 10
194.6214671166311
 20
14.62550387991902
 30
0.0
 10
194.5919888217883
 20
14.58475872796066
 30
0.0
 10
194.5688989446032
 20
14.55504663489641
 30
0.0
 10
194.5380205968357
 20
14.50211422668492
 30
0.0
 10
194.4729193365741
 20
14.62740334938899
 30
0.0
 10
194.3796000122415
 20
14.68213900233934
 30
0.0
 10
194.2950636285138
 20
14.73916423939342
 30
0.0
 10
194.1722498125742
 20
14.89675287427525
 30
0.0
 10
194.1764450847301
 20
14.82035806766838
 30
0.0
 10
194.1751478652677
 20
14.77361280161297
 30
0.0
 10
194.1758126448077
 20
14.69584785812603
 30
0.0
 10
194.1755549986956
 20
14.59902068324423
 30
0.0
 10
194.1756431239922
 20
14.4865027907881
 30
0.0
 10
194.1756077302281
 20
14.36524085945699
 30
0.0
 10
194.1756511758278
 20
14.2408689785896
 30
0.0
 10
194.1755199942405
 20
14.11967683631335
 30
0.0
 10
194.1759477562046
 20
14.00691148919741
 30
0.0
 10
194.174667820231
 20
13.91082913768742
 30
0.0
 10
194.1779759851043
 20
13.83113826468697
 30
0.0
 10
194.1715197740086
 20
13.78815175788782
 30
0.0
 10
194.1806208705555
 20
13.74955432372039
 30
0.0
 10
194.1447910339935
 20
13.75810887724068
 30
0.0
 10
194.1115223815252
 20
13.75342519985444
 30
0.0
 10
194.0604562576042
 20
13.75351298759782
 30
0.0
 10
194.0269723972814
 20
13.75794430283818
 30
0.0
 10
193.9907585408754
 20
13.74960793842506
 30
0.0
 10
194.0009782568667
 20
13.79145277179281
 30
0.0
 10
193.9936487887773
 20
13.83778560820171
 30
0.0
 10
193.9973633136103
 20
13.92374831106012
 30
0.0
 10
193.9959480554897
 20
14.02605142704847
 30
0.0
 10
193.9964105554639
 20
14.1445322393151
 30
0.0
 10
193.9962773686231
 20
14.26957683153355
 30
0.0
 10
193.9963015910045
 20
14.39475828107048
 30
0.0
 10
193.9963354925553
 20
14.51286645379058
 30
0.0
 10
193.9962060293133
 20
14.61628748709516
 30
0.0
 10
193.9965507549081
 20
14.69932036153667
 30
0.0
 10
193.9958698278691
 20
14.75143368521244
 30
0.0
 10
193.9994586600623
 20
14.87912907821362
 30
0.0
 10
193.7826171386438
 20
14.58048716819616
 30
0.0
 10
193.602135492195
 20
14.35263981511504
 30
0.0
 10
193.5490322295613
 20
14.49373443289816
 30
0.0
 10
193.5200429133148
 20
14.54325767560944
 30
0.0
 10
193.4196648062821
 20
14.64641779790106
 30
0.0
 10
193.7405127723261
 20
14.72695035023781
 30
0.0
 10
193.868989700543
 20
14.91066283036434
 30
0.0
 10
194.090645432536
 20
15.11931995771759
 30
0.0
 10
194.1770224894069
 20
15.29339211228347
 30
0.0
 10
194.4549394229074
 20
15.56967051342517
 30
0.0
 10
194.3346247839284
 20
15.56534559551116
 30
0.0
 10
194.2863197351348
 20
15.56614856202556
 30
0.0
 10
194.2102377454905
 20
15.56574582146587
 30
0.0
 10
194.116701000975
 20
15.56590275611612
 30
0.0
 10
194.0117594788557
 20
15.56582502576227
 30
0.0
 10
193.9033887738717
 20
15.56595464378557
 30
0.0
 10
193.7981454235897
 20
15.56554393490694
 30
0.0
 10
193.7056237819412
 20
15.56682073671594
 30
0.0
 10
193.6268130800707
 20
15.56340766534853
 30
0.0
 10
193.5839674565379
 20
15.57023350036323
 30
0.0
 10
193.5449499586515
 20
15.56065064201126
 30
0.0
 10
193.5526365271863
 20
15.59420779565546
 30
0.0
 10
193.5485464404312
 20
15.62523550322237
 30
0.0
 10
193.5485531368815
 20
15.67236529270905
 30
0.0
 10
193.5526239724911
 20
15.70340941646784
 30
0.0
 10
193.5449495574583
 20
15.73701861635909
 30
0.0
 10
193.5834819405495
 20
15.72748410420877
 30
0.0
 10
193.624122801448
 20
15.73397435498076
 30
0.0
 10
193.6951471850463
 20
15.7310015065026
 30
0.0
 10
193.7729318149634
 20
15.73174761399163
 30
0.0
 10
193.8507292246474
 20
15.73247814044531
 30
0.0
 10
193.9217232089908
 20
15.72954235514166
 30
0.0
 10
193.9624279791821
 20
15.73595468772958
 30
0.0
 10
194.000985348991
 20
15.7265052417601
 30
0.0
 10
193.9927342754929
 20
15.76264692158789
 30
0.0
 10
193.9982346669358
 20
15.80129837613232
 30
0.0
 10
193.9955754206164
 20
15.86913528561842
 30
0.0
 10
193.9965815471533
 20
15.94591641538742
 30
0.0
 10
193.996017801832
 20
16.02849393582758
 30
0.0
 10
193.9970714526593
 20
16.10517329229878
 30
0.0
 10
193.994267586313
 20
16.17331990776698
 30
0.0
 10
194.0000702721306
 20
16.21132399809345
 30
0.0
 10
193.9915654551159
 20
16.24758448077644
 30
0.0
 10
194.0255610233125
 20
16.2375572377185
 30
0.0
 10
194.0594575683099
 20
16.24073266813705
 30
0.0
 10
194.1126669060348
 20
16.23508965640608
 30
0.0
 10
194.1660768574483
 20
16.23434774436425
 30
0.0
 10
194.199591464949
 20
16.2281922348298
 30
0.0
 10
194.2388086183039
 20
16.23346029773593
 30
0.0
 10
194.2120263698492
 20
16.19253380793486
 30
0.0
 10
194.1708111001724
 20
16.2037120453811
 30
0.0
 10
194.1782641540873
 20
16.15867056192122
 30
0.0
 10
194.1742227952185
 20
16.11412278028143
 30
0.0
 10
194.176171404964
 20
16.04223572621703
 30
0.0
 10
194.1752364849758
 20
15.96168630588772
 30
0.0
 10
194.176510719003
 20
15.88173995404998
 30
0.0
 10
194.1732043793864
 20
15.80841837083187
 30
0.0
 10
194.1802106179961
 20
15.76688643002573
 30
0.0
 10
194.1701440380126
 20
15.72752418568118
 30
0.0
 10
194.2029814803921
 20
15.73468063430987
 30
0.0
 10
194.236457729648
 20
15.73027243137949
 30
0.0
 10
194.2915053476019
 20
15.73217943347904
 30
0.0
 10
194.3489502595315
 20
15.73185366407294
 30
0.0
 10
194.402302624831
 20
15.73106308733088
 30
0.0
 10
194.4398540896639
 20
15.73313959118078
 30
0.0
 10
194.4623172523238
 20
15.73022338167116
 30
0.0
 10
194.4751678073731
 20
15.73572552644057
 30
0.0
 10
194.485825568589
 20
15.73801118197792
 30
0.0
 10
194.4986635650143
 20
15.74494972588047
 30
0.0
 10
194.5145991033071
 20
15.7285304631367
 30
0.0
 10
194.5410623920891
 20
15.71709122319446
 30
0.0
 10
194.5726805253757
 20
15.6964468783519
 30
0.0
 10
194.5987255892151
 20
15.68116869628295
 30
0.0
 10
194.6128517723973
 20
15.67266976323185
 30
0.0
 10
194.6170254148479
 20
15.67015871511029
 30
0.0
 11
194.6170254148479
 21
15.67015871511029
 31
0.0
 11
194.6049990002243
 21
15.6547357116419
 31
0.0
 11
194.5848961795566
 21
15.64337406233921
 31
0.0
 11
194.4778986355814
 21
15.4244062023116
 31
0.0
 11
194.3477039934325
 21
15.21317201512161
 31
0.0
 11
194.1996540366071
 21
15.01206059027479
 31
0.0
 11
194.2734958253735
 21
14.9614738493538
 31
0.0
 11
194.36056643118
 21
14.89988411653741
 31
0.0
 11
194.4518003750405
 21
14.83413160594427
 31
0.0
 11
194.5381321779688
 21
14.77105653169305
 31
0.0
 11
194.6104963609787
 21
14.7174991079024
 31
0.0
 11
194.6598274450843
 21
14.68029954869098
 31
0.0
 11
194.6486940702213
 21
14.66471410869488
 31
0.0
 11
194.6221452532403
 21
14.62754882870419
 31
0.0
 11
194.5904579555534
 21
14.5831902687153
 31
0.0
 11
194.5639091385724
 21
14.54602498872461
 31
0.0
 11
194.5527757637094
 21
14.53043954872851
 31
0.0
 11
194.4807013362948
 21
14.59754008690615
 31
0.0
 11
194.3852856985381
 21
14.67993354174668
 31
0.0
 11
194.279326415217
 21
14.76785017366917
 31
0.0
 11
194.175621051109
 21
14.85152024309269
 31
0.0
 11
194.175621051109
 21
14.83304687900865
 31
0.0
 11
194.175621051109
 21
14.78162102763957
 31
0.0
 11
194.175621051109
 21
14.70323405031
 31
0.0
 11
194.175621051109
 21
14.60387730834449
 31
0.0
 11
194.175621051109
 21
14.48954216306761
 31
0.0
 11
194.175621051109
 21
14.36621997580389
 31
0.0
 11
194.175621051109
 21
14.23990210787789
 31
0.0
 11
194.175621051109
 21
14.11657992061417
 31
0.0
 11
194.175621051109
 21
14.00224477533729
 31
0.0
 11
194.175621051109
 21
13.90288803337178
 31
0.0
 11
194.175621051109
 21
13.82450105604221
 31
0.0
 11
194.175621051109
 21
13.77307520467313
 31
0.0
 11
194.175621051109
 21
13.75460184058909
 31
0.0
 11
194.1569720893626
 21
13.75460184058909
 31
0.0
 11
194.112501488275
 21
13.75460184058909
 31
0.0
 11
194.0594236740737
 21
13.75460184058909
 31
0.0
 11
194.014953072986
 21
13.75460184058909
 31
0.0
 11
193.9963041112396
 21
13.75460184058909
 31
0.0
 11
193.9963041112396
 21
13.77486797460216
 31
0.0
 11
193.9963041112396
 21
13.83089787452064
 31
0.0
 11
193.9963041112396
 21
13.91553878716345
 31
0.0
 11
193.9963041112396
 21
14.02163795934951
 31
0.0
 11
193.9963041112396
 21
14.14204263789774
 31
0.0
 11
193.9963041112396
 21
14.26960006962705
 31
0.0
 11
193.9963041112396
 21
14.39715750135635
 31
0.0
 11
193.9963041112396
 21
14.51756217990458
 31
0.0
 11
193.9963041112396
 21
14.62366135209064
 31
0.0
 11
193.9963041112396
 21
14.70830226473345
 31
0.0
 11
193.9963041112396
 21
14.76433216465193
 31
0.0
 11
193.9963041112396
 21
14.784598298665
 31
0.0
 11
193.7883272849482
 21
14.59331998274057
 31
0.0
 11
193.5763486358425
 21
14.43414885430809
 31
0.0
 11
193.5495629014483
 21
14.48814671952094
 31
0.0
 11
193.5138765415025
 21
14.54689140572026
 31
0.0
 11
193.4799697494124
 21
14.59192871537979
 31
0.0
 11
193.6830287742319
 21
14.73563387201054
 31
0.0
 11
193.881853195826
 21
14.91168423529988
 31
0.0
 11
194.0677041444179
 21
15.1132751452495
 31
0.0
 11
194.2318427502303
 21
15.3336019418611
 31
0.0
 11
194.3655301434864
 21
15.56585996513638
 31
0.0
 11
194.3465256724482
 21
15.56585996513638
 31
0.0
 11
194.2944166389562
 21
15.56585996513638
 31
0.0
 11
194.2165596124447
 21
15.56585996513638
 31
0.0
 11
194.1203111623478
 21
15.56585996513638
 31
0.0
 11
194.0130278580997
 21
15.56585996513638
 31
0.0
 11
193.9020662691345
 21
15.56585996513638
 31
0.0
 11
193.7947829648864
 21
15.56585996513638
 31
0.0
 11
193.6985345147895
 21
15.56585996513638
 31
0.0
 11
193.620677488278
 21
15.56585996513638
 31
0.0
 11
193.568568454786
 21
15.56585996513638
 31
0.0
 11
193.5495639837478
 21
15.56585996513638
 31
0.0
 11
193.5495639837478
 21
15.58311199790985
 31
0.0
 11
193.5495639837478
 21
15.62425146067735
 31
0.0
 11
193.5495639837478
 21
15.67335340010954
 31
0.0
 11
193.5495639837478
 21
15.71449286287704
 31
0.0
 11
193.5495639837478
 21
15.73174489565051
 31
0.0
 11
193.568759848601
 21
15.73174489565051
 31
0.0
 11
193.6193671286684
 21
15.73174489565051
 31
0.0
 11
193.690915352212
 21
15.73174489565051
 31
0.0
 11
193.7729340474937
 21
15.73174489565051
 31
0.0
 11
193.8549527427754
 21
15.73174489565051
 31
0.0
 11
193.926500966319
 21
15.73174489565051
 31
0.0
 11
193.9771082463865
 21
15.73174489565051
 31
0.0
 11
193.9963041112396
 21
15.73174489565051
 31
0.0
 11
193.9963041112396
 21
15.74926552655224
 31
0.0
 11
193.9963041112396
 21
15.79622081736887
 31
0.0
 11
193.9963041112396
 21
15.86420086526757
 31
0.0
 11
193.9963041112396
 21
15.94479576741551
 31
0.0
 11
193.9963041112396
 21
16.02959562097987
 31
0.0
 11
193.9963041112396
 21
16.11019052312782
 31
0.0
 11
193.9963041112396
 21
16.17817057102652
 31
0.0
 11
193.9963041112396
 21
16.22512586184315
 31
0.0
 11
193.9963041112396
 21
16.24264649274488
 31
0.0
 11
194.0135484112112
 21
16.24165806167517
 31
0.0
 11
194.0566591611401
 21
16.2391869840009
 31
0.0
 11
194.1127031360478
 21
16.23597458302434
 31
0.0
 11
194.1687471109554
 21
16.23276218204779
 31
0.0
 11
194.2118578608843
 21
16.23029110437352
 31
0.0
 11
194.2291021608559
 21
16.22930267330381
 31
0.0
 11
194.2143774674851
 21
16.20556293372638
 31
0.0
 11
194.175621051109
 21
16.1918376733131
 31
0.0
 11
194.175621051109
 21
16.17206806177291
 31
0.0
 11
194.175621051109
 21
16.11994817680332
 31
0.0
 11
194.175621051109
 21
16.04626144288079
 31
0.0
 11
194.175621051109
 21
15.96179128448181
 31
0.0
 11
194.175621051109
 21
15.87732112608281
 31
0.0
 11
194.175621051109
 21
15.80363439216029
 31
0.0
 11
194.175621051109
 21
15.7515145071907
 31
0.0
 11
194.175621051109
 21
15.73174489565051
 31
0.0
 11
194.1916227112936
 21
15.73174489565051
 31
0.0
 11
194.232890150717
 21
15.73174489565051
 31
0.0
 11
194.2893170576837
 21
15.73174489565051
 31
0.0
 11
194.3507971204982
 21
15.73174489565051
 31
0.0
 11
194.4072240274649
 21
15.73174489565051
 31
0.0
 11
194.4484914668883
 21
15.73174489565051
 31
0.0
 11
194.4644931270729
 21
15.73174489565051
 31
0.0
 11
194.4728206422925
 21
15.73451387455924
 31
0.0
 11
194.4882860277004
 21
15.73965626396117
 31
0.0
 11
194.49661354292
 21
15.7424252428699
 31
0.0
 11
194.5091363776005
 21
15.7349095239829
 31
0.0
 11
194.5389985218386
 21
15.71698742509852
 31
0.0
 11
194.5746404359293
 21
15.69559653288167
 31
0.0
 11
194.6045025801674
 21
15.67767443399729
 31
0.0
 11
194.6170254148479
 21
15.67015871511029
 31
0.0
  0
SPLINE
  5
B1
102
{ACAD_REACTORS
330
CE
102
}
330
48
100
AcDbEntity
  8
_U_30EC_U_30A4_U_30E4_U_30FC_1
  6
Continuous
 62
     2
100
AcDbSpline
210
0.0
220
0.0
230
1.0
 70
    11
 71
     3
 72
   124
 73
   120
 74
   118
 42
0.000000001
 43
0.0000000001
 44
0.00000001
 40
0.0
 40
0.0
 40
0.0
 40
0.0
 40
0.0278187229624226
 40
0.1011590162383985
 40
0.2048470170590239
 40
0.3237088716558961
 40
0.4425707262522
 40
0.5462587270699263
 40
0.6195990203312082
 40
0.647417752257866
 40
0.6750060736115242
 40
0.7357003855242759
 40
0.7963946998054474
 40
0.8239830245571766
 40
0.8540933811103144
 40
0.9373396629409256
 40
1.063094687343263
 40
1.220731268638102
 40
1.399622220914776
 40
1.589140358637761
 40
1.778658496423927
 40
1.957549448940594
 40
2.115186030873244
 40
2.24094105691452
 40
2.324187341760617
 40
2.354297700109467
 40
2.381886024671975
 40
2.44258033871056
 40
2.503274652750583
 40
2.530862977314691
 40
2.560983949278644
 40
2.640393784453019
 40
2.752662861759242
 40
2.88136156011823
 40
3.010060258455334
 40
3.122329335705509
 40
3.201739170818095
 40
3.231860142753484
 40
3.26429802403054
 40
3.352343701778408
 40
3.482095226868931
 40
3.639650650173189
 40
3.811108022565644
 40
3.982565394928149
 40
4.140120818152728
 40
4.269872343141437
 40
4.357918020802498
 40
4.390355902044125
 40
4.423256253992695
 40
4.508104530073244
 40
4.624121560637012
 40
4.750528176031769
 40
4.866545206602244
 40
4.95139348269223
 40
4.984293834645631
 40
5.011450833242542
 40
5.071196230152322
 40
5.130941627057392
 40
5.158098625649054
 40
5.190998977601745
 40
5.27584725368957
 40
5.391864284257061
 40
5.518270899648607
 40
5.634287930209646
 40
5.71913620628832
 40
5.752036558236235
 40
5.782130946283263
 40
5.862783906229439
 40
5.979550131775313
 40
6.117984316640723
 40
6.263641154588274
 40
6.402075339414487
 40
6.51884156490829
 40
6.599494524815875
 40
6.629588912849113
 40
6.65440302822669
 40
6.713575149488457
 40
6.784199939329803
 40
6.843372060493905
 40
6.868186175803123
 40
6.896246243202242
 40
6.939586233758617
 40
6.967846564565245
 40
7.043584251090183
 40
7.153234334452036
 40
7.283231855734784
 40
7.420011856035814
 40
7.550009376580161
 40
7.659659458835562
 40
7.735397144417552
 40
7.763657474851724
 40
7.796409728011381
 40
7.880876065096627
 40
7.996370852466012
 40
8.12220844641885
 40
8.237703224799473
 40
8.322169562011139
 40
8.354921815206152
 40
8.38207881330793
 40
8.44182420920723
 40
8.501569605240372
 40
8.528726603485948
 40
8.561478856695997
 40
8.645945193878019
 40
8.76143998086553
 40
8.887277580764644
 40
9.002772362001137
 40
9.087238696661329
 40
9.119990949235811
 40
9.15242883061351
 40
9.240474508638725
 40
9.370226034149674
 40
9.527781457984556
 40
9.699238830981542
 40
9.87069620397873
 40
10.02825162781415
 40
10.15800315332577
 40
10.24604883135131
 40
10.27848670378534
 40
10.27848670378534
 40
10.27848670378534
 40
10.27848670378534
 10
195.3821827564384
 20
14.01410517385759
 30
0.0
 10
195.3914554737524
 20
14.01410498511276
 30
0.0
 10
195.4251744536861
 20
14.01410430876716
 30
0.0
 10
195.4934706812466
 20
14.01411807243307
 30
0.0
 10
195.592014171158
 20
14.01403224219546
 30
0.0
 10
195.7062066464812
 20
14.01441755612253
 30
0.0
 10
195.8185894417072
 20
14.01300835897547
 30
0.0
 10
195.9214376600117
 20
14.01719117422244
 30
0.0
 10
195.980683987485
 20
14.00823089251985
 30
0.0
 10
196.0371265937033
 20
14.02164434526062
 30
0.0
 10
196.0246255586955
 20
13.97087198613362
 30
0.0
 10
196.0329549635705
 20
13.92589320939069
 30
0.0
 10
196.0248170841119
 20
13.8805675299049
 30
0.0
 10
196.0370529214458
 20
13.82931932408467
 30
0.0
 10
195.9747773490334
 20
13.84447955365278
 30
0.0
 10
195.9060513026869
 20
13.83359750710745
 30
0.0
 10
195.7782756749592
 20
13.83911304747974
 30
0.0
 10
195.6262984511643
 20
13.837008512537
 30
0.0
 10
195.4502695972523
 20
13.83771002588476
 30
0.0
 10
195.2644431934287
 20
13.83745237531293
 30
0.0
 10
195.0786167437175
 20
13.83771005144606
 30
0.0
 10
194.9025880142169
 20
13.83700841847733
 30
0.0
 10
194.7506104154194
 20
13.83911332229991
 30
0.0
 10
194.6228357664555
 20
13.83359680767642
 30
0.0
 10
194.554107783658
 20
13.84448077125944
 30
0.0
 10
194.4918349042883
 20
13.82931786684211
 30
0.0
 10
194.5040616290017
 20
13.88057510805173
 30
0.0
 10
194.4960004462597
 20
13.92582473272427
 30
0.0
 10
194.5040675809892
 20
13.97106357955325
 30
0.0
 10
194.4918238487084
 20
14.0223417690996
 30
0.0
 10
194.5525017120698
 20
14.00749577363136
 30
0.0
 10
194.6162810745737
 20
14.01756448170737
 30
0.0
 10
194.7277314353503
 20
14.01294644212002
 30
0.0
 10
194.8497533443823
 20
14.0141332890547
 30
0.0
 10
194.9719538137824
 20
14.01515863900637
 30
0.0
 10
195.0829794287393
 20
14.01092475623403
 30
0.0
 10
195.1476517413959
 20
14.02018584521741
 30
0.0
 10
195.2091162810502
 20
14.00604423049683
 30
0.0
 10
195.1930065601338
 20
14.07235527884519
 30
0.0
 10
195.2042980327359
 20
14.14447790121977
 30
0.0
 10
195.1987400822561
 20
14.27513760888288
 30
0.0
 10
195.2008035061692
 20
14.42607323708242
 30
0.0
 10
195.2000167127295
 20
14.59335873107887
 30
0.0
 10
195.2007845215628
 20
14.76061110332304
 30
0.0
 10
195.1988038785629
 20
14.91163289269915
 30
0.0
 10
195.2041306156621
 20
15.04206069552996
 30
0.0
 10
195.1933101388426
 20
15.114654426059
 30
0.0
 10
195.2090326429876
 20
15.18150469436799
 30
0.0
 10
195.143270813249
 20
15.16580512490825
 30
0.0
 10
195.0756367830764
 20
15.17609243083996
 30
0.0
 10
194.961588529381
 20
15.17113786847122
 30
0.0
 10
194.8451242674903
 20
15.17414128030476
 30
0.0
 10
194.7306554121477
 20
15.16880303143389
 30
0.0
 10
194.6640324657812
 20
15.18001268074826
 30
0.0
 10
194.5990769715185
 20
15.16349132665012
 30
0.0
 10
194.6107989758708
 20
15.21473720477059
 30
0.0
 10
194.6032830189122
 20
15.25950333784091
 30
0.0
 10
194.6107989878835
 20
15.3042694489796
 30
0.0
 10
194.5990769505347
 20
15.3555153612974
 30
0.0
 10
194.66403263392
 20
15.33899381766814
 30
0.0
 10
194.7306533339821
 20
15.35020571373942
 30
0.0
 10
194.8451352858064
 20
15.34485436710663
 30
0.0
 10
194.9615454436963
 20
15.34791188771116
 30
0.0
 10
195.0757660174642
 20
15.34278499010707
 30
0.0
 10
195.1430150439227
 20
15.35345733355597
 30
0.0
 10
195.2083325941439
 20
15.33742082669075
 30
0.0
 10
195.1941391448553
 20
15.39949685750052
 30
0.0
 10
195.2036059462996
 20
15.46586761628762
 30
0.0
 10
195.1990269004085
 20
15.58239972741966
 30
0.0
 10
195.2007696555949
 20
15.71426685022376
 30
0.0
 10
195.1997551495392
 20
15.85615960150274
 30
0.0
 10
195.2017191344373
 20
15.98769050702581
 30
0.0
 10
195.1964668553852
 20
16.10524577283005
 30
0.0
 10
195.2073408763474
 20
16.16947789001586
 30
0.0
 10
195.1919536641854
 20
16.2310880254505
 30
0.0
 10
195.2407591537801
 20
16.21702407382113
 30
0.0
 10
195.2853995564727
 20
16.21954742075317
 30
0.0
 10
195.3538643946742
 20
16.21512797401711
 30
0.0
 10
195.3959106169104
 20
16.20613025544038
 30
0.0
 10
195.4487544758776
 20
16.21411714866511
 30
0.0
 10
195.4207035002014
 20
16.17113917611674
 30
0.0
 10
195.3749142248595
 20
16.18259552043832
 30
0.0
 10
195.3869539073265
 20
16.12173520005134
 30
0.0
 10
195.3796086070642
 20
16.0576929946877
 30
0.0
 10
195.3831195826162
 20
15.94909368863908
 30
0.0
 10
195.3819806760175
 20
15.82494319144751
 30
0.0
 10
195.3819174780263
 20
15.69189719829876
 30
0.0
 10
195.3832872966869
 20
15.56797381249554
 30
0.0
 10
195.3791638801314
 20
15.45868337849337
 30
0.0
 10
195.3877763103564
 20
15.39608580094168
 30
0.0
 10
195.3746757454403
 20
15.33740133296365
 30
0.0
 10
195.4393884328199
 20
15.353621138109
 30
0.0
 10
195.5060405953156
 20
15.34270260383311
 30
0.0
 10
195.6198779541103
 20
15.34793740173754
 30
0.0
 10
195.7357259122096
 20
15.34485547516912
 30
0.0
 10
195.8496924263281
 20
15.35018259812512
 30
0.0
 10
195.9160341018099
 20
15.33904208166541
 30
0.0
 10
195.980718852548
 20
15.35546979593177
 30
0.0
 10
195.9689820772722
 20
15.3042592521005
 30
0.0
 10
195.9765168063041
 20
15.25950334121001
 30
0.0
 10
195.9689820992257
 20
15.21474739010027
 30
0.0
 10
195.9807188140736
 20
15.16353690871041
 30
0.0
 10
195.9160344075252
 20
15.1799642779422
 30
0.0
 10
195.8496886430825
 20
15.16882784447271
 30
0.0
 10
195.7357459487012
 20
15.17413115893121
 30
0.0
 10
195.6197995623056
 20
15.17114764593545
 30
0.0
 10
195.5062756882123
 20
15.17606892268394
 30
0.0
 10
195.4389231318805
 20
15.16585087513521
 30
0.0
 10
195.3734285122496
 20
15.18145996138817
 30
0.0
 10
195.3891713619219
 20
15.11463851827412
 30
0.0
 10
195.3783275998215
 20
15.04207057815879
 30
0.0
 10
195.3836581629792
 20
14.91162247614417
 30
0.0
 10
195.3817136151857
 20
14.76064558185227
 30
0.0
 10
195.3823133683214
 20
14.5932224393416
 30
0.0
 10
195.3821506559605
 20
14.42656176118373
 30
0.0
 10
195.3821895488136
 20
14.27360142921638
 30
0.0
 10
195.38218164131
 20
14.14849178985707
 30
0.0
 10
195.3821828382746
 20
14.06507890991422
 30
0.0
 10
195.3821827716209
 20
14.02491778281978
 30
0.0
 10
195.3821827564384
 20
14.01410517385759
 30
0.0
 11
195.3821827564384
 21
14.01410517385759
 31
0.0
 11
195.4100014883675
 21
14.01410517385759
 31
0.0
 11
195.4833417816353
 21
14.01410517385759
 31
0.0
 11
195.5870297824623
 21
14.01410517385759
 31
0.0
 11
195.7058916370687
 21
14.01410517385759
 31
0.0
 11
195.8247534916752
 21
14.01410517385759
 31
0.0
 11
195.9284414925021
 21
14.01410517385759
 31
0.0
 11
196.0017817857699
 21
14.01410517385759
 31
0.0
 11
196.0296005176991
 21
14.01410517385759
 31
0.0
 11
196.0296005176991
 21
13.98651684921171
 31
0.0
 11
196.0296005176991
 21
13.92582253499079
 31
0.0
 11
196.0296005176991
 21
13.86512822076986
 31
0.0
 11
196.0296005176991
 21
13.83753989612399
 31
0.0
 11
195.9994901593494
 21
13.83753989612399
 31
0.0
 11
195.9162438745005
 21
13.83753989612399
 31
0.0
 11
195.7904888484522
 21
13.83753989612399
 31
0.0
 11
195.6328522665042
 21
13.83753989612399
 31
0.0
 11
195.4539613139565
 21
13.83753989612399
 31
0.0
 11
195.2644431761089
 21
13.83753989612399
 31
0.0
 11
195.0749250382613
 21
13.83753989612399
 31
0.0
 11
194.8960340857136
 21
13.83753989612399
 31
0.0
 11
194.7383975037656
 21
13.83753989612399
 31
0.0
 11
194.6126424777173
 21
13.83753989612399
 31
0.0
 11
194.5293961928683
 21
13.83753989612399
 31
0.0
 11
194.4992858345187
 21
13.83753989612399
 31
0.0
 11
194.4992858345187
 21
13.86512822076987
 31
0.0
 11
194.4992858345187
 21
13.92582253499079
 31
0.0
 11
194.4992858345187
 21
13.98651684921171
 31
0.0
 11
194.4992858345187
 21
14.01410517385759
 31
0.0
 11
194.5294068064947
 21
14.01410517385759
 31
0.0
 11
194.608816641704
 21
14.01410517385759
 31
0.0
 11
194.721085719069
 21
14.01410517385759
 31
0.0
 11
194.8497844175118
 21
14.01410517385759
 31
0.0
 11
194.9784831159546
 21
14.01410517385759
 31
0.0
 11
195.0907521933196
 21
14.01410517385759
 31
0.0
 11
195.1701620285289
 21
14.01410517385759
 31
0.0
 11
195.2002830005049
 21
14.01410517385759
 31
0.0
 11
195.2002830005049
 21
14.04654305523837
 31
0.0
 11
195.2002830005049
 21
14.13458873327192
 31
0.0
 11
195.2002830005049
 21
14.26434025879504
 31
0.0
 11
195.2002830005049
 21
14.42189568264455
 31
0.0
 11
195.2002830005049
 21
14.59335305565725
 31
0.0
 11
195.2002830005049
 21
14.76481042866995
 31
0.0
 11
195.2002830005049
 21
14.92236585251946
 31
0.0
 11
195.2002830005049
 21
15.05211737804258
 31
0.0
 11
195.2002830005049
 21
15.14016305607613
 31
0.0
 11
195.2002830005049
 21
15.17260093745691
 31
0.0
 11
195.1673826485529
 21
15.17260093745691
 31
0.0
 11
195.0825343724663
 21
15.17260093745691
 31
0.0
 11
194.9665173418989
 21
15.17260093745691
 31
0.0
 11
194.8401107265045
 21
15.17260093745691
 31
0.0
 11
194.724093695937
 21
15.17260093745691
 31
0.0
 11
194.6392454198503
 21
15.17260093745691
 31
0.0
 11
194.6063450678984
 21
15.17260093745691
 31
0.0
 11
194.6063450678984
 21
15.19975793614803
 31
0.0
 11
194.6063450678984
 21
15.2595033332685
 31
0.0
 11
194.6063450678984
 21
15.31924873038897
 31
0.0
 11
194.6063450678984
 21
15.34640572908009
 31
0.0
 11
194.6392454198504
 21
15.34640572908009
 31
0.0
 11
194.724093695937
 21
15.34640572908009
 31
0.0
 11
194.8401107265045
 21
15.34640572908009
 31
0.0
 11
194.9665173418989
 21
15.34640572908009
 31
0.0
 11
195.0825343724663
 21
15.34640572908009
 31
0.0
 11
195.1673826485529
 21
15.34640572908009
 31
0.0
 11
195.2002830005049
 21
15.34640572908009
 31
0.0
 11
195.2002830005049
 21
15.37650011731369
 31
0.0
 11
195.2002830005049
 21
15.45715307777973
 31
0.0
 11
195.2002830005049
 21
15.57391930412609
 31
0.0
 11
195.2002830005049
 21
15.71235349000064
 31
0.0
 11
195.2002830005049
 21
15.85801032905125
 31
0.0
 11
195.2002830005049
 21
15.9964445149258
 31
0.0
 11
195.2002830005049
 21
16.11321074127216
 31
0.0
 11
195.2002830005049
 21
16.1938637017382
 31
0.0
 11
195.2002830005049
 21
16.2239580899718
 31
0.0
 11
195.2250405288619
 21
16.22228324219444
 31
0.0
 11
195.284077711867
 21
16.21828937441768
 31
0.0
 11
195.3545414464215
 21
16.21352249997443
 31
0.0
 11
195.4135786294266
 21
16.20952863219766
 31
0.0
 11
195.4383361577836
 21
16.20785378442031
 31
0.0
 11
195.4233067224031
 21
16.18415814206509
 31
0.0
 11
195.3821827564384
 21
16.17047697887401
 31
0.0
 11
195.3821827564384
 21
16.1422166479483
 31
0.0
 11
195.3821827564384
 21
16.06647896106737
 31
0.0
 11
195.3821827564384
 21
15.95682887707559
 31
0.0
 11
195.3821827564384
 21
15.82683135481729
 31
0.0
 11
195.3821827564384
 21
15.69005135313681
 31
0.0
 11
195.3821827564384
 21
15.56005383087852
 31
0.0
 11
195.3821827564384
 21
15.45040374688673
 31
0.0
 11
195.3821827564384
 21
15.37466606000581
 31
0.0
 11
195.3821827564384
 21
15.34640572908009
 31
0.0
 11
195.4149350096116
 21
15.34640572908009
 31
0.0
 11
195.4994013467423
 21
15.34640572908009
 31
0.0
 11
195.6148961342477
 21
15.34640572908009
 31
0.0
 11
195.7407337385445
 21
15.34640572908009
 31
0.0
 11
195.8562285260499
 21
15.34640572908009
 31
0.0
 11
195.9406948631806
 21
15.34640572908009
 31
0.0
 11
195.9734471163538
 21
15.34640572908009
 31
0.0
 11
195.9734471163538
 21
15.31924873038897
 31
0.0
 11
195.9734471163538
 21
15.2595033332685
 31
0.0
 11
195.9734471163538
 21
15.19975793614803
 31
0.0
 11
195.9734471163538
 21
15.17260093745691
 31
0.0
 11
195.9406948631806
 21
15.17260093745691
 31
0.0
 11
195.8562285260499
 21
15.17260093745691
 31
0.0
 11
195.7407337385445
 21
15.17260093745691
 31
0.0
 11
195.6148961342477
 21
15.17260093745691
 31
0.0
 11
195.4994013467423
 21
15.17260093745691
 31
0.0
 11
195.4149350096116
 21
15.17260093745691
 31
0.0
 11
195.3821827564384
 21
15.17260093745691
 31
0.0
 11
195.3821827564384
 21
15.14016305607613
 31
0.0
 11
195.3821827564384
 21
15.05211737804258
 31
0.0
 11
195.3821827564384
 21
14.92236585251946
 31
0.0
 11
195.3821827564384
 21
14.76481042866995
 31
0.0
 11
195.3821827564384
 21
14.59335305565725
 31
0.0
 11
195.3821827564384
 21
14.42189568264455
 31
0.0
 11
195.3821827564384
 21
14.26434025879504
 31
0.0
 11
195.3821827564384
 21
14.13458873327192
 31
0.0
 11
195.3821827564384
 21
14.04654305523837
 31
0.0
 11
195.3821827564384
 21
14.01410517385759
 31
0.0
  0
SPLINE
  5
B2
102
{ACAD_REACTORS
330
CF
102
}
330
48
100
AcDbEntity
  8
_U_30EC_U_30A4_U_30E4_U_30FC_1
  6
Continuous
 62
     2
100
AcDbSpline
210
0.0
220
0.0
230
1.0
 70
     8
 71
     3
 72
    62
 73
    58
 74
    56
 42
0.000000001
 43
0.0000000001
 44
0.00000001
 40
0.0
 40
0.0
 40
0.0
 40
0.0
 40
0.0598250028308485
 40
0.2024846486897047
 40
0.3727558389220178
 40
0.5154154847934933
 40
0.5752404975784202
 40
0.9332326775486169
 40
1.290451762839327
 40
1.602077253145672
 40
1.699931634111934
 40
1.799359756424876
 40
2.270120149656947
 40
2.804661928461381
 40
2.882342287383093
 40
3.076543185718949
 40
3.329004354835416
 40
3.581465524568249
 40
3.775666424543534
 40
3.853346784558156
 40
3.899120679594902
 40
3.984129341791899
 40
4.029903236817248
 40
4.105797496059408
 40
4.295533144152381
 40
4.54218948661164
 40
4.788845828875607
 40
4.978581476410003
 40
5.054475735244251
 40
5.621734664339304
 40
6.130867242037334
 40
6.225249780948567
 40
6.318913039727198
 40
6.663579954558752
 40
7.047498900224595
 40
7.435230791575545
 40
7.498943906667957
 40
7.650875181209894
 40
7.832212509001376
 40
7.984143783696762
 40
8.04785689890289
 40
8.0915546327324
 40
8.172707566964068
 40
8.216405300767795
 40
8.28902178216065
 40
8.462184160756996
 40
8.668861838005105
 40
8.84202421526364
 40
8.914640695474835
 40
8.989881580861027
 40
9.155411528826903
 40
9.320941477743656
 40
9.396182352486894
 40
9.454709011143441
 40
9.583467660170376
 40
9.712226309012655
 40
9.770752957989108
 40
9.770752957989108
 40
9.770752957989108
 40
9.770752957989108
 10
187.1521871691833
 20
14.93980288195951
 30
0.0
 10
187.1322348171623
 20
14.93980875568673
 30
0.0
 10
187.0647037716465
 20
14.93982863806158
 30
0.0
 10
186.9410612161788
 20
14.93949362520327
 30
0.0
 10
186.7863180150057
 20
14.94107673750513
 30
0.0
 10
186.6697349482481
 20
14.93686078860497
 30
0.0
 10
186.455094263424
 20
14.95215205331627
 30
0.0
 10
186.851894840723
 20
14.59198721286196
 30
0.0
 10
186.8945656069267
 20
14.37510503397165
 30
0.0
 10
187.3189162146611
 20
14.19325062511453
 30
0.0
 10
187.1439821496074
 20
14.08985196568069
 30
0.0
 10
187.0194523925084
 20
13.87831523212724
 30
0.0
 10
186.7666277235943
 20
14.3480608100156
 30
0.0
 10
186.4797602893627
 20
14.9951151698452
 30
0.0
 10
186.490633592666
 20
14.68782672154693
 30
0.0
 10
186.488289277796
 20
14.52288616971777
 30
0.0
 10
186.4861096126411
 20
14.28879670711691
 30
0.0
 10
186.4980774396346
 20
14.04498072421781
 30
0.0
 10
186.4687984740631
 20
13.89855796860981
 30
0.0
 10
186.511452262547
 20
13.75113490174536
 30
0.0
 10
186.4239814005639
 20
13.76685797306216
 30
0.0
 10
186.3768527606744
 20
13.76694303543452
 30
0.0
 10
186.2898973207713
 20
13.75109425482906
 30
0.0
 10
186.3313474021722
 20
13.8952777142276
 30
0.0
 10
186.3029875004286
 20
14.03855052698454
 30
0.0
 10
186.31459737753
 20
14.27674947365265
 30
0.0
 10
186.3124175648272
 20
14.50517235240348
 30
0.0
 10
186.3103111127993
 20
14.66705729375998
 30
0.0
 10
186.3208035438324
 20
14.98153709333758
 30
0.0
 10
186.0128963252894
 20
14.29229470872436
 30
0.0
 10
185.7055258267455
 20
13.81476750243043
 30
0.0
 10
185.5851367066275
 20
14.03741112637427
 30
0.0
 10
185.4074607910723
 20
14.15011034955565
 30
0.0
 10
185.8853326362894
 20
14.3254814346546
 30
0.0
 10
185.9353959057208
 20
14.56091929252031
 30
0.0
 10
186.3583799621716
 20
14.95322989344607
 30
0.0
 10
186.1276754273541
 20
14.93655307029067
 30
0.0
 10
186.0049685859341
 20
14.94269518948771
 30
0.0
 10
185.8325483095662
 20
14.93312822699575
 30
0.0
 10
185.721322469445
 20
14.95448818489667
 30
0.0
 10
185.6025779627448
 20
14.92136265357421
 30
0.0
 10
185.6183169706686
 20
15.00203900606886
 30
0.0
 10
185.6178550933763
 20
15.04645414290856
 30
0.0
 10
185.6027881889931
 20
15.12967081778534
 30
0.0
 10
185.7372380935444
 20
15.09062651983887
 30
0.0
 10
185.8619755545747
 20
15.11739729328424
 30
0.0
 10
186.062875523728
 20
15.10063949044055
 30
0.0
 10
186.1921540949353
 20
15.12204225913006
 30
0.0
 10
186.3328419928295
 20
15.08868778853423
 30
0.0
 10
186.2980927452615
 20
15.22651875785069
 30
0.0
 10
186.3222185666713
 20
15.34963257349479
 30
0.0
 10
186.2967086182391
 20
15.47024055670331
 30
0.0
 10
186.3333251146685
 20
15.60539865141489
 30
0.0
 10
186.2211417027769
 20
15.58094545781885
 30
0.0
 10
186.1280356457137
 20
15.59307749842017
 30
0.0
 10
186.0191547579819
 20
15.58957630069986
 30
0.0
 10
185.9569697640964
 20
15.58981755951597
 30
0.0
 10
185.9375369557246
 20
15.58989295124138
 30
0.0
 11
187.1521871691833
 21
14.93980288195951
 31
0.0
 11
187.0923621563982
 21
14.93980288195951
 31
0.0
 11
186.949702510526
 21
14.93980288195951
 31
0.0
 11
186.7794313202914
 21
14.93980288195951
 31
0.0
 11
186.6367716744192
 21
14.93980288195951
 31
0.0
 11
186.5769466616341
 21
14.93980288195951
 31
0.0
 11
186.7679960754843
 21
14.63705127966891
 31
0.0
 11
186.994127278563
 21
14.36051890576685
 31
0.0
 11
187.2244526173371
 21
14.1506125349346
 31
0.0
 11
187.1521596330704
 21
14.08466403668715
 31
0.0
 11
187.0879364402643
 21
14.00876059052558
 31
0.0
 11
186.7732818215558
 21
14.35891458349365
 31
0.0
 11
186.4886640249976
 21
14.811382951436
 31
0.0
 11
186.4886640249976
 21
14.73370259137312
 31
0.0
 11
186.4886640249976
 21
14.53950169121591
 31
0.0
 11
186.4886640249976
 21
14.28704052101154
 31
0.0
 11
186.4886640249976
 21
14.03457935080718
 31
0.0
 11
186.4886640249976
 21
13.84037845064997
 31
0.0
 11
186.4886640249976
 21
13.76269809058709
 31
0.0
 11
186.4428901295605
 21
13.76269809058709
 31
0.0
 11
186.3578814666058
 21
13.76269809058709
 31
0.0
 11
186.3121075711687
 21
13.76269809058709
 31
0.0
 11
186.3121075711687
 21
13.83859234982738
 31
0.0
 11
186.3121075711687
 21
14.0283279979281
 31
0.0
 11
186.3121075711687
 21
14.27498434045904
 31
0.0
 11
186.3121075711687
 21
14.52164068298998
 31
0.0
 11
186.3121075711687
 21
14.7113763310907
 31
0.0
 11
186.3121075711687
 21
14.78727059033099
 31
0.0
 11
185.9987626399267
 21
14.31440946197691
 31
0.0
 11
185.6352328662148
 21
13.9579517710938
 31
0.0
 11
185.5773927461628
 21
14.03253450545023
 31
0.0
 11
185.5094852305342
 21
14.0970432293924
 31
0.0
 11
185.7750721898319
 21
14.31672219795887
 31
0.0
 11
186.0233764972061
 21
14.60953395971696
 31
0.0
 11
186.226498280526
 21
14.93980288195951
 31
0.0
 11
186.1627851652721
 21
14.93980288195951
 31
0.0
 11
186.0108538904359
 21
14.93980288195951
 31
0.0
 11
185.8295165624056
 21
14.93980288195951
 31
0.0
 11
185.6775852875694
 21
14.93980288195951
 31
0.0
 11
185.6138721723155
 21
14.93980288195951
 31
0.0
 11
185.6138721723155
 21
14.9835006160021
 31
0.0
 11
185.6138721723155
 21
15.06465355065261
 31
0.0
 11
185.6138721723155
 21
15.1083512846952
 31
0.0
 11
185.6864886537962
 21
15.1083512846952
 31
0.0
 11
185.8596510327118
 21
15.1083512846952
 31
0.0
 11
186.0663287107724
 21
15.1083512846952
 31
0.0
 11
186.239491089688
 21
15.1083512846952
 31
0.0
 11
186.3121075711687
 21
15.1083512846952
 31
0.0
 11
186.3121075711687
 21
15.18359217009304
 31
0.0
 11
186.3121075711687
 21
15.34912211796829
 31
0.0
 11
186.3121075711687
 21
15.51465206584354
 31
0.0
 11
186.3121075711687
 21
15.58989295124138
 31
0.0
 11
186.2535809125055
 21
15.58989295124138
 31
0.0
 11
186.1248222634467
 21
15.58989295124138
 31
0.0
 11
185.9960636143877
 21
15.58989295124138
 31
0.0
 11
185.9375369557246
 21
15.58989295124138
 31
0.0
  0
SPLINE
  5
B3
102
{ACAD_REACTORS
330
CF
102
}
330
48
100
AcDbEntity
  8
_U_30EC_U_30A4_U_30E4_U_30FC_1
  6
Continuous
 62
     2
100
AcDbSpline
210
0.0
220
0.0
230
1.0
 70
     8
 71
     3
 72
    70
 73
    66
 74
    64
 42
0.000000001
 43
0.0000000001
 44
0.00000001
 40
0.0
 40
0.0
 40
0.0
 40
0.0
 40
0.0241731073021472
 40
0.0846058988987013
 40
0.1631685280353284
 40
0.2417311571789756
 40
0.3021639488292751
 40
0.3263370654895541
 40
0.3533118254248934
 40
0.4228783438922271
 40
0.5179999095313775
 40
0.6216398239466635
 40
0.7167613891500416
 40
0.7863279069650716
 40
0.8133026791762724
 40
0.8372943998772564
 40
0.8945054261373762
 40
0.9627895541963539
 40
1.020000580349165
 40
1.043992300975263
 40
1.071934345523008
 40
1.113121768773022
 40
1.145225199332347
 40
1.225483775412892
 40
1.329819923771611
 40
1.434156071994508
 40
1.514414647795939
 40
1.546518078208548
 40
1.578974764260322
 40
1.662678849314317
 40
1.777131373668537
 40
1.901833377474928
 40
2.016285900500718
 40
2.099989982528085
 40
2.132446666570444
 40
2.158782354486168
 40
2.216720867907956
 40
2.274659381334381
 40
2.300995069256313
 40
2.333451754066286
 40
2.417155836543966
 40
2.531608358985406
 40
2.656310362283901
 40
2.770762886389033
 40
2.854466971340198
 40
2.886923657364005
 40
2.913597976833433
 40
2.982389642875223
 40
3.076451716947072
 40
3.178937260458666
 40
3.272999334740053
 40
3.341791001059264
 40
3.36846532066357
 40
3.396976080738791
 40
3.472140811846027
 40
3.578408190308716
 40
3.700226892456153
 40
3.82204559463437
 40
3.928312973256477
 40
4.003477705314874
 40
4.03198845686694
 40
4.058324144797742
 40
4.116262658236908
 40
4.174201171400715
 40
4.200536849608651
 40
4.200536849608651
 40
4.200536849608651
 40
4.200536849608651
 10
185.9857704961609
 20
15.75844135397699
 30
0.0
 10
185.9938259544679
 20
15.7584435981168
 30
0.0
 10
186.0220200663241
 20
15.75845146032791
 30
0.0
 10
186.0765534803672
 20
15.75830754828365
 30
0.0
 10
186.1482891808604
 20
15.75909120499892
 30
0.0
 10
186.2236240137062
 20
15.75627570463805
 30
0.0
 10
186.2713052366438
 20
15.76298403400951
 30
0.0
 10
186.3195071245616
 20
15.75197563692427
 30
0.0
 10
186.3062571799873
 20
15.80546402997028
 30
0.0
 10
186.3151093964538
 20
15.86049583543087
 30
0.0
 10
186.3108698036285
 20
15.95419908726106
 30
0.0
 10
186.313348348128
 20
16.04959482218531
 30
0.0
 10
186.309093870606
 20
16.14356821983388
 30
0.0
 10
186.3179818665846
 20
16.19795062438013
 30
0.0
 10
186.3046977409945
 20
16.25233997691464
 30
0.0
 10
186.3514119277109
 20
16.2384221633536
 30
0.0
 10
186.3943254545737
 20
16.24103877374046
 30
0.0
 10
186.4605443456684
 20
16.23648422450755
 30
0.0
 10
186.5013342271799
 20
16.22778162134162
 30
0.0
 10
186.5525145690818
 20
16.23531799890194
 30
0.0
 10
186.52537204872
 20
16.19349970223283
 30
0.0
 10
186.4803096055707
 20
16.20284992072594
 30
0.0
 10
186.4942065045051
 20
16.13841207371835
 30
0.0
 10
186.4858414431653
 20
16.07378219627395
 30
0.0
 10
186.4903632178398
 20
15.97529141193883
 30
0.0
 10
186.4854741311167
 20
15.87595932842565
 30
0.0
 10
186.4950258992081
 20
15.81293115552963
 30
0.0
 10
186.47997614552
 20
15.74964011499783
 30
0.0
 10
186.5449159457208
 20
15.76515072944262
 30
0.0
 10
186.6116246399497
 20
15.75499387697806
 30
0.0
 10
186.7241435470827
 20
15.75988800099362
 30
0.0
 10
186.8390235448954
 20
15.75691204732777
 30
0.0
 10
186.9519871999747
 20
15.76221664184985
 30
0.0
 10
187.0176267597678
 20
15.75107306472083
 30
0.0
 10
187.0816276691053
 20
15.76744532319851
 30
0.0
 10
187.0703142889189
 20
15.71761689905269
 30
0.0
 10
187.0775339871509
 20
15.67416715212117
 30
0.0
 10
187.070314261127
 20
15.63071745587438
 30
0.0
 10
187.0816277175994
 20
15.5808889519687
 30
0.0
 10
187.0176263598972
 20
15.59726166091356
 30
0.0
 10
186.9519921240459
 20
15.58611271661583
 30
0.0
 10
186.838997431733
 20
15.59144857206848
 30
0.0
 10
186.7242456548644
 20
15.58834345663815
 30
0.0
 10
186.611318368686
 20
15.59364894682582
 30
0.0
 10
186.5455220903585
 20
15.58257300019587
 30
0.0
 10
186.4816097975358
 20
15.59887597847612
 30
0.0
 10
186.4936015165126
 20
15.54423524395737
 30
0.0
 10
186.4862104613005
 20
15.48854295047837
 30
0.0
 10
186.4892684841983
 20
15.39649689140568
 30
0.0
 10
186.4893422785683
 20
15.301791098731
 30
0.0
 10
186.4860313578359
 20
15.20952782902266
 30
0.0
 10
186.4939505989904
 20
15.15435768736141
 30
0.0
 10
186.4815076611617
 20
15.10058169100139
 30
0.0
 10
186.5389116551632
 20
15.11453768862784
 30
0.0
 10
186.5994708140382
 20
15.10511457884229
 30
0.0
 10
186.7048680855081
 20
15.10942885928707
 30
0.0
 10
186.8204294070622
 20
15.10835504612034
 30
0.0
 10
186.9359688877797
 20
15.10725965900997
 30
0.0
 10
187.0414181130841
 20
15.11162525770635
 30
0.0
 10
187.1018680471803
 20
15.10209426030674
 30
0.0
 10
187.1592837739111
 20
15.11617289606382
 30
0.0
 10
187.1477773876708
 20
15.06707153265684
 30
0.0
 10
187.153756678175
 20
15.02564658018651
 30
0.0
 10
187.1520311050801
 20
14.97651677966697
 30
0.0
 10
187.1521500122971
 20
14.94854428447609
 30
0.0
 10
187.1521871691833
 20
14.93980288195951
 30
0.0
 11
185.9857704961609
 21
15.75844135397699
 31
0.0
 11
186.0099436128282
 21
15.75844135397699
 31
0.0
 11
186.0703764044962
 21
15.75844135397699
 31
0.0
 11
186.1489390336648
 21
15.75844135397699
 31
0.0
 11
186.2275016628334
 21
15.75844135397699
 31
0.0
 11
186.2879344545015
 21
15.75844135397699
 31
0.0
 11
186.3121075711687
 21
15.75844135397699
 31
0.0
 11
186.3121075711687
 21
15.78541612620057
 31
0.0
 11
186.3121075711687
 21
15.85498264404034
 31
0.0
 11
186.3121075711687
 21
15.95010420924983
 31
0.0
 11
186.3121075711687
 21
16.05374412358255
 31
0.0
 11
186.3121075711687
 21
16.14886568879203
 31
0.0
 11
186.3121075711687
 21
16.2184322066318
 31
0.0
 11
186.3121075711687
 21
16.24540697885539
 31
0.0
 11
186.3360407604892
 21
16.24373213107803
 31
0.0
 11
186.3931122119458
 21
16.23973826330123
 31
0.0
 11
186.461229750781
 21
16.23497138885796
 31
0.0
 11
186.5183012022376
 21
16.23097752108117
 31
0.0
 11
186.5422343915581
 21
16.22930267330381
 31
0.0
 11
186.5274972731229
 21
16.20556293372638
 31
0.0
 11
186.4886640249976
 21
16.1918376733131
 31
0.0
 11
186.4886640249976
 21
16.15973424225117
 31
0.0
 11
186.4886640249976
 21
16.07947566459633
 31
0.0
 11
186.4886640249976
 21
15.97513951364504
 31
0.0
 11
186.4886640249976
 21
15.87080336269376
 31
0.0
 11
186.4886640249976
 21
15.79054478503892
 31
0.0
 11
186.4886640249976
 21
15.75844135397699
 31
0.0
 11
186.5211207110824
 21
15.75844135397699
 31
0.0
 11
186.6048247962486
 21
15.75844135397699
 31
0.0
 11
186.7192773208634
 21
15.75844135397699
 31
0.0
 11
186.8439793252946
 21
15.75844135397699
 31
0.0
 11
186.9584318499095
 21
15.75844135397699
 31
0.0
 11
187.0421359350756
 21
15.75844135397699
 31
0.0
 11
187.0745926211604
 21
15.75844135397699
 31
0.0
 11
187.0745926211604
 21
15.73210566604955
 31
0.0
 11
187.0745926211604
 21
15.67416715260918
 31
0.0
 11
187.0745926211604
 21
15.61622863916882
 31
0.0
 11
187.0745926211604
 21
15.58989295124138
 31
0.0
 11
187.0421359350756
 21
15.58989295124138
 31
0.0
 11
186.9584318499095
 21
15.58989295124138
 31
0.0
 11
186.8439793252946
 21
15.58989295124138
 31
0.0
 11
186.7192773208634
 21
15.58989295124138
 31
0.0
 11
186.6048247962485
 21
15.58989295124138
 31
0.0
 11
186.5211207110824
 21
15.58989295124138
 31
0.0
 11
186.4886640249976
 21
15.58989295124138
 31
0.0
 11
186.4886640249976
 21
15.56321863152016
 31
0.0
 11
186.4886640249976
 21
15.49442696487071
 31
0.0
 11
186.4886640249976
 21
15.40036489006431
 31
0.0
 11
186.4886640249976
 21
15.29787934587227
 31
0.0
 11
186.4886640249976
 21
15.20381727106587
 31
0.0
 11
186.4886640249976
 21
15.13502560441641
 31
0.0
 11
186.4886640249976
 21
15.1083512846952
 31
0.0
 11
186.5171747850993
 21
15.1083512846952
 31
0.0
 11
186.5923395162766
 21
15.1083512846952
 31
0.0
 11
186.6986068948376
 21
15.1083512846952
 31
0.0
 11
186.8204255970904
 21
15.1083512846952
 31
0.0
 11
186.9422442993433
 21
15.1083512846952
 31
0.0
 11
187.0485116779043
 21
15.1083512846952
 31
0.0
 11
187.1236764090816
 21
15.1083512846952
 31
0.0
 11
187.1521871691833
 21
15.1083512846952
 31
0.0
 11
187.1521871691833
 21
15.08201559676775
 31
0.0
 11
187.1521871691833
 21
15.02407708332736
 31
0.0
 11
187.1521871691833
 21
14.96613856988696
 31
0.0
 11
187.1521871691833
 21
14.93980288195951
 31
0.0
  0
SPLINE
  5
B4
102
{ACAD_REACTORS
330
CF
102
}
330
48
100
AcDbEntity
  8
_U_30EC_U_30A4_U_30E4_U_30FC_1
  6
Continuous
 62
     2
100
AcDbSpline
210
0.0
220
0.0
230
1.0
 70
     8
 71
     3
 72
    24
 73
    20
 74
    18
 42
0.000000001
 43
0.0000000001
 44
0.00000001
 40
0.0
 40
0.0
 40
0.0
 40
0.0
 40
0.2211075008753725
 40
0.4273218586245853
 40
0.508017467923953
 40
0.5914835907870797
 40
0.8143265690193073
 40
1.05465130268663
 40
1.29545269402323
 40
1.518109231328865
 40
1.540864321905506
 40
1.595126460622764
 40
1.659890947896102
 40
1.714153085187484
 40
1.736908174961783
 40
1.764951100735507
 40
1.801562291221148
 40
1.95391442454388
 40
2.126104167379991
 40
2.126104167379991
 40
2.126104167379991
 40
2.126104167379991
 10
185.9375369556889
 20
15.5898929511302
 30
0.0
 10
185.9112579081812
 20
15.53097628234378
 30
0.0
 10
185.8604698894426
 20
15.41711139679259
 30
0.0
 10
185.8131784839111
 20
15.14441958233108
 30
0.0
 10
185.7043482802618
 20
15.24445482575461
 30
0.0
 10
185.5514800279637
 20
15.27118593367322
 30
0.0
 10
185.7686155181199
 20
15.48518135017632
 30
0.0
 10
185.783848367438
 20
15.70332117782483
 30
0.0
 10
185.8906889492001
 20
15.88451579066426
 30
0.0
 10
185.8305380947078
 20
16.16913226311394
 30
0.0
 10
185.9334317395402
 20
16.14114089222449
 30
0.0
 10
185.977993346815
 20
16.13243251602298
 30
0.0
 10
186.0380842395397
 20
16.12139654183355
 30
0.0
 10
186.0756619587438
 20
16.10767523055562
 30
0.0
 10
186.1252466928607
 20
16.10756076160226
 30
0.0
 10
186.0930158919325
 20
16.07306592398622
 30
0.0
 10
186.0171802221882
 20
16.08404104537974
 30
0.0
 10
186.0429447159693
 20
15.89858969582445
 30
0.0
 10
186.005589676385
 20
15.80702313549583
 30
0.0
 10
185.9857704961609
 20
15.75844135397699
 30
0.0
 11
185.9375369556889
 21
15.5898929511302
 31
0.0
 11
185.8616471328552
 21
15.38221708318563
 31
0.0
 11
185.7717402238433
 21
15.19663392356191
 31
0.0
 11
185.701149392311
 21
15.23573272563553
 31
0.0
 11
185.6245525192651
 21
15.26889163187718
 31
0.0
 11
185.7214026947455
 21
15.46958801203534
 31
0.0
 11
185.7994641467471
 21
15.69688163177021
 31
0.0
 11
185.858971692972
 21
15.9302143660869
 31
0.0
 11
185.9001601511226
 21
16.14902808999051
 31
0.0
 11
185.9224183822215
 21
16.14429889221392
 31
0.0
 11
185.975495702534
 21
16.13302157443898
 31
0.0
 11
186.0388460525845
 21
16.11956154999793
 31
0.0
 11
186.0919233728971
 21
16.10828423222299
 31
0.0
 11
186.1141816039959
 21
16.1035550344464
 31
0.0
 11
186.0964097157461
 21
16.0818625084101
 31
0.0
 11
186.0606122998071
 21
16.0741862844537
 31
0.0
 11
186.028195330148
 21
15.9253228817131
 31
0.0
 11
185.9857704961609
 21
15.75844135397699
 31
0.0
  0
LWPOLYLINE
  5
B5
102
{ACAD_REACTORS
330
D0
102
}
330
48
100
AcDbEntity
  8
_U_30EC_U_30A4_U_30E4_U_30FC_1
  6
Continuous
 62
     2
100
AcDbPolyline
 90
        5
 70
     1
 43
0.0
 10
191.1602971697032
 20
15.39722336795629
 10
192.4578138032673
 20
15.39722336795629
 10
192.4578138032673
 20
15.2287543402206
 10
191.1602971697032
 20
15.2287543402206
 10
191.1602971697032
 20
15.39722336795629
  0
MTEXT
  5
B7
330
48
100
AcDbEntity
  8
1
 62
   250
100
AcDbMText
 10
25.0
 20
5.0
 30
0.0
 40
3.5
 41
0.0
 71
     4
 72
     1
  1
備考欄の文字列 原点位置=4
  7
CONVERTER_11
 73
     1
 44
0.54545454545455
  0
MTEXT
  5
B8
330
48
100
AcDbEntity
  8
1
 62
     2
100
AcDbMText
 10
89.50000000000003
 20
24.0
 30
0.0
 40
3.5
 41
0.0
 71
     5
 72
     1
  1
尺度
  7
CONVERTER_11
 73
     1
 44
0.54545454545455
  0
MTEXT
  5
B9
330
48
100
AcDbEntity
  8
1
 62
     2
100
AcDbMText
 10
135.5
 20
25.0
 30
0.0
 40
3.0
 41
0.0
 71
     5
 72
     1
  1
製図
  7
CONVERTER_11
 73
     1
 44
0.59090909090909
  0
MTEXT
  5
BA
330
48
100
AcDbEntity
  8
1
 62
     2
100
AcDbMText
 10
152.5000000000001
 20
25.0
 30
0.0
 40
3.0
 41
0.0
 71
     5
 72
     1
  1
設計
  7
CONVERTER_11
 73
     1
 44
0.59090909090909
  0
MTEXT
  5
BB
330
48
100
AcDbEntity
  8
1
 62
     2
100
AcDbMText
 10
118.5
 20
25.0
 30
0.0
 40
3.0
 41
0.0
 71
     5
 72
     1
  1
検図
  7
CONVERTER_11
 73
     1
 44
0.59090909090909
  0
MTEXT
  5
BC
330
48
100
AcDbEntity
  8
1
 62
     2
100
AcDbMText
 10
175.0000000000001
 20
23.5
 30
0.0
 40
3.5
 41
0.0
 71
     5
 72
     1
  1
第三角法
  7
CONVERTER_11
 73
     1
 44
0.54545454545455
  0
MTEXT
  5
BD
330
48
100
AcDbEntity
  8
1
 62
     2
100
AcDbMText
 10
101.5
 20
25.0
 30
0.0
 40
3.0
 41
0.0
 71
     5
 72
     1
  1
承認
  7
CONVERTER_11
 73
     1
 44
0.59090909090909
  0
MTEXT
  5
BE
330
48
100
AcDbEntity
  8
1
 62
     2
100
AcDbMText
 10
29.0
 20
14.25
 30
0.0
 40
3.5
 41
0.0
 71
     5
 72
     1
  1
品番
  7
CONVERTER_11
 73
     1
 44
0.72727272727273
  0
MTEXT
  5
BF
330
48
100
AcDbEntity
  8
1
 62
     2
100
AcDbMText
 10
29.0
 20
22.75
 30
0.0
 40
3.5
 41
0.0
 71
     5
 72
     1
  1
品名
  7
CONVERTER_11
 73
     1
 44
0.72727272727273
  0
MTEXT
  5
C0
330
48
100
AcDbEntity
  8
1
 62
     2
100
AcDbMText
 10
29.0
 20
34.0
 30
0.0
 40
3.5
 41
0.0
 71
     5
 72
     1
  1
備考
  7
CONVERTER_11
 73
     1
 44
0.45454545454545
  0
MTEXT
  5
C1
330
48
100
AcDbEntity
  8
1
 62
     2
100
AcDbMText
 10
32.5
 20
282.0000000000003
 30
0.0
 40
5.0
 41
0.0
 71
     5
 72
     1
  1
図番
  7
CONVERTER_11
 73
     1
 44
0.45454545454545
  0
HATCH
  5
C2
330
48
100
AcDbEntity
  8
1
  6
Continuous
 62
     2
100
AcDbHatch
 10
0.0
 20
0.0
 30
0.0
210
0.0
220
0.0
230
1.0
  2
CUSTOM0
 70
     0
 71
     1
 91
        1
 92
        1
 93
        1
 72
     4
 94
        3
 73
     0
 74
     0
 95
       99
 96
       95
 40
0.0
 40
0.0
 40
0.0
 40
0.0
 40
0.0796417172271638
 40
0.162176854235555
 40
0.2486489160957059
 40
0.3404969668524003
 40
0.4381912511164079
 40
0.5434463660244395
 40
0.6518115192846445
 40
0.7530190937886222
 40
0.8492196919723815
 40
0.9419290312996971
 40
1.034249663569905
 40
1.129078600620048
 40
1.226697027573143
 40
1.327220425421583
 40
1.470572134937939
 40
1.595489863371149
 40
1.719934125348311
 40
1.850576620127366
 40
1.989059629987218
 40
2.134139054226855
 40
2.28069800720715
 40
2.424529739039394
 40
2.565929576985769
 40
2.708239260773438
 40
2.861717887443536
 40
3.045168540347257
 40
3.183798301138497
 40
3.314813961455374
 40
3.442083470447225
 40
3.56991270837286
 40
3.702177512509318
 40
3.842307559659447
 40
3.99287222324584
 40
4.156750662218228
 40
4.310981861107534
 40
4.445859909322568
 40
4.572393936131522
 40
4.70165671978189
 40
4.768279086008384
 40
4.835960697898314
 40
4.912788918729255
 40
5.006285208481455
 40
5.026909478751532
 40
5.047533749021096
 40
5.101808031471116
 40
5.162325165538395
 40
5.226919745995754
 40
5.294231806596651
 40
5.364544852554755
 40
5.438319055467759
 40
5.517877651324119
 40
5.607647714861487
 40
5.700449642544333
 40
5.788251142364082
 40
5.872714706039662
 40
5.955167292575116
 40
6.03719239519027
 40
6.12066918146897
 40
6.206848616686192
 40
6.296680855416645
 40
6.442558392872491
 40
6.568190371608083
 40
6.692904567360251
 40
6.82422044655698
 40
6.96312185032929
 40
7.107843738851084
 40
7.253431663907141
 40
7.395187468036515
 40
7.533140753237658
 40
7.67055045717513
 40
7.816236511769152
 40
7.987691657359085
 40
8.142277421969151
 40
8.293662615414888
 40
8.442962460879176
 40
8.591598316185209
 40
8.743678992361682
 40
8.903725323699087
 40
9.076307008890375
 40
9.265578604680401
 40
9.459203795360633
 40
9.61761981027333
 40
9.753609671361762
 40
9.874873300003989
 40
9.954520184977653
 40
10.02416413719229
 40
10.0976976440543
 40
10.1890995592496
 40
10.20974586420127
 40
10.23039218263375
 40
10.30057101881262
 40
10.37632012987546
 40
10.37632012987546
 40
10.37632012987546
 40
10.37632012987546
 10
170.1465954835852
 20
14.1379566321599
 10
170.163221785122
 20
14.11720608845311
 10
170.1970784206578
 20
14.07495111711901
 10
170.2599822541036
 20
14.02029811392072
 10
170.3332500940394
 20
13.97299025121053
 10
170.4175969238637
 20
13.93527231437938
 10
170.513224061546
 20
13.91040619731952
 10
170.6171853775346
 20
13.90309559345934
 10
170.7224020220406
 20
13.91142322794056
 10
170.8206626371334
 20
13.94149179651522
 10
170.9058986427549
 20
13.98848822971878
 10
170.9779220206103
 20
14.04952991250858
 10
171.0350917709096
 20
14.12412969578582
 10
171.0767868747439
 20
14.21002464660175
 10
171.1026952846293
 20
14.3048585043221
 10
171.1118037332654
 20
14.41854979038369
 10
171.0986864796487
 20
14.5433258777078
 10
171.0325330334414
 20
14.66014719171893
 10
170.9369370919569
 20
14.74512539577377
 10
170.8249681022369
 20
14.81416684459165
 10
170.699365958327
 20
14.87204142045894
 10
170.5656691620856
 20
14.92373723284338
 10
170.4313122818831
 20
14.97899092397184
 10
170.3051983986877
 20
15.04939770641645
 10
170.1926579987535
 20
15.13785540731245
 10
170.0969963064459
 20
15.24981067868478
 10
170.0334157151825
 20
15.39949910101377
 10
170.0200706505016
 20
15.55932794385139
 10
170.0320510987448
 20
15.71048405306843
 10
170.0712298928841
 20
15.83809244591538
 10
170.135498775091
 20
15.95080874030844
 10
170.2238204999741
 20
16.04648609268686
 10
170.3338091207627
 20
16.12354214985748
 10
170.4632284401265
 20
16.18151396936284
 10
170.6111838967793
 20
16.21739177588818
 10
170.7682069455487
 20
16.22746719050561
 10
170.9174940466431
 20
16.21863637762588
 10
171.059625361417
 20
16.1907489934036
 10
171.1595922609625
 20
16.13413314701137
 10
171.3125074736185
 20
16.08674602105508
 10
171.2455131717168
 20
16.00197553001186
 10
171.2296479120268
 20
15.93438901873486
 10
171.1978750531297
 20
15.8692609279319
 10
171.2150202209571
 20
15.76723453256955
 10
171.1666427208232
 20
15.77493211681903
 10
171.1315789440766
 20
15.76806771724809
 10
171.1296697985719
 20
15.83263831158196
 10
171.0985692931991
 20
15.87825639621398
 10
171.0664551628455
 20
15.93561036628451
 10
171.0208038475169
 20
15.98540462692558
 10
170.9658508218386
 20
16.02994813718989
 10
170.9010841173009
 20
16.06763988836552
 10
170.8232377310597
 20
16.09283375791349
 10
170.7355160553352
 20
16.09931230998107
 10
170.6452903277806
 20
16.09235709285609
 10
170.5594594694065
 20
16.06909190460909
 10
170.4828343638596
 20
16.03131644107548
 10
170.4165265636202
 20
15.98051641089563
 10
170.3622560536964
 20
15.91731143407214
 10
170.3224925345458
 20
15.84276455710369
 10
170.2976775510588
 20
15.75917313997762
 10
170.2892124262871
 20
15.65192948382284
 10
170.3019697987104
 20
15.5296545726756
 10
170.3681548409273
 20
15.41149724291206
 10
170.4640977399833
 20
15.32606325709533
 10
170.5757914963181
 20
15.25583362306707
 10
170.7010863668704
 20
15.19659162305311
 10
170.8349823941448
 20
15.14616708086129
 10
170.968993033315
 20
15.09322516984383
 10
171.0950885316915
 20
15.0275017062517
 10
171.2076216638418
 20
14.9448035253732
 10
171.3031370284233
 20
14.83996006310071
 10
171.3672706486963
 20
14.69937117251569
 10
171.381110372528
 20
14.54065409451592
 10
171.3673954712231
 20
14.38153155217876
 10
171.3244739153984
 20
14.23483828819213
 10
171.2545906329065
 20
14.10119796587142
 10
171.1574592213829
 20
13.98532387699294
 10
171.0347806023657
 20
13.89089981770091
 10
170.8874408413168
 20
13.82179270651979
 10
170.7177132497125
 20
13.77953210858854
 10
170.5317404979597
 20
13.76781736230405
 10
170.3528955926183
 20
13.77809486683436
 10
170.1881733753744
 20
13.81966573769153
 10
170.0834410841057
 20
13.88797642883944
 10
169.9350960790365
 20
13.93675219032107
 10
169.9980378194729
 20
14.02976591290841
 10
170.0072274430059
 20
14.10296536248278
 10
170.0303711301232
 20
14.16936294501344
 10
170.0034588335317
 20
14.26974809527583
 10
170.0521338956339
 20
14.26234033517378
 10
170.0916530580698
 20
14.26894063620896
 10
170.0996204944702
 20
14.19078703218929
 10
170.1305436967924
 20
14.15600927375853
 10
170.1465954835852
 20
14.1379566321599
 97
        1
330
A4
 75
     1
 76
     2
 52
45.0
 41
0.1
 77
     0
 78
     1
 53
45.0
 43
0.0
 44
0.0
 45
-0.282842712474619
 46
0.0
 79
     0
 98
        1
 10
0.0
 20
0.0
  0
HATCH
  5
C3
330
48
100
AcDbEntity
  8
1
  6
Continuous
 62
     2
100
AcDbHatch
 10
0.0
 20
0.0
 30
0.0
210
0.0
220
0.0
230
1.0
  2
CUSTOM1
 70
     0
 71
     1
 91
        2
 92
        1
 93
        1
 72
     4
 94
        3
 73
     0
 74
     0
 95
       57
 96
       53
 40
0.0
 40
0.0
 40
0.0
 40
0.0
 40
0.0471632082809207
 40
0.0914861054632112
 40
0.1357762519702064
 40
0.182652700160979
 40
0.2295203288571699
 40
0.2737751972220721
 40
0.3181310461542165
 40
0.3652607198398428
 40
0.4571007286314173
 40
0.5671851029164658
 40
0.6894623283867982
 40
0.818175827254574
 40
0.951008722927345
 40
1.085852229674062
 40
1.218126164475293
 40
1.343545131142381
 40
1.454537202956797
 40
1.56718760753072
 40
1.68071096664231
 40
1.794226869736703
 40
1.900009184247531
 40
2.004085860447868
 40
2.108162674451755
 40
2.214000150155299
 40
2.496038577352129
 40
2.762350745479283
 40
2.997275353279431
 40
3.18511008213773
 40
3.246407890063898
 40
3.312607550212571
 40
3.378877742711558
 40
3.440140399651438
 40
4.100501696006451
 40
4.754913085563442
 40
5.411331693423876
 40
6.077890432568658
 40
6.110575292670937
 40
6.143260152775717
 40
6.367989363395092
 40
6.610525374951461
 40
6.86338913646725
 40
7.119380025547533
 40
7.376036605091042
 40
7.631164770966255
 40
7.87672242545636
 40
8.104953735855897
 40
8.312916685924243
 40
8.497730294941194
 40
8.651018984313792
 40
8.764738853624497
 40
8.764738853624497
 40
8.764738853624497
 40
8.764738853624497
 10
174.7922649500513
 20
13.81626739612929
 10
174.7766616726931
 20
13.81826231079079
 10
174.7463947960302
 20
13.82213201360299
 10
174.7010994202253
 20
13.82341984967263
 10
174.6559553129349
 20
13.82308683554047
 10
174.60990171234
 20
13.82314658674219
 10
174.5640496172097
 20
13.82325813649997
 10
174.5183711648165
 20
13.82277833456585
 10
174.4750811541608
 20
13.82461109618721
 10
174.4039947951514
 20
13.80049556814657
 10
174.4057477261442
 20
13.92184693977251
 10
174.3586196370571
 20
14.00726239751237
 10
174.3191478251762
 20
14.12486929345134
 10
174.2706635532645
 20
14.24232752540436
 10
174.2201017402523
 20
14.36405935761512
 10
174.1718634610478
 20
14.49075967862466
 10
174.1135232947594
 20
14.59933687784953
 10
174.0980892667262
 20
14.75620657134411
 10
173.9566586330636
 20
14.72373446548327
 10
173.8508397414905
 20
14.73512888682175
 10
173.7358569725222
 20
14.73392591514614
 10
173.6253142252142
 20
14.73506945347406
 10
173.5176583522783
 20
14.73418350037526
 10
173.4121322529243
 20
14.73416602390515
 10
173.3109192682013
 20
14.72714032472419
 10
173.1266804827753
 20
14.75135859859868
 10
173.1157393685412
 20
14.44741691121883
 10
173.0087691634749
 20
14.22353177253398
 10
172.9098148604347
 20
14.03895314292498
 10
172.9225090524008
 20
13.79530204804211
 10
172.8050091716397
 20
13.82508046753196
 10
172.7422055868311
 20
13.82258089509597
 10
172.67858720934
 20
13.82344075102805
 10
172.3946014194075
 20
13.78098039941954
 10
173.0251638499382
 20
14.50081952444777
 10
173.1087645289071
 20
15.01276539435727
 10
173.492925278934
 20
15.5335374355004
 10
173.4777208288563
 20
16.23519626253207
 10
173.7239265722697
 20
16.22345633081254
 10
173.8256346157561
 20
16.2322500445277
 10
173.8249752035819
 20
15.9805965073035
 10
173.9428317155828
 20
15.79818020733957
 10
174.0315515260485
 20
15.55563740662866
 10
174.132229248526
 20
15.32340030530133
 10
174.2311142712243
 20
15.0867464456691
 10
174.3299676990671
 20
14.85461739170098
 10
174.4256166390926
 20
14.63122222788786
 10
174.5159904573271
 20
14.42272549049315
 10
174.5989944568189
 20
14.23308448529319
 10
174.6726088582799
 20
14.066631060681
 10
174.7342815895546
 20
13.929176996261
 10
174.7749458885604
 20
13.84999239430035
 10
174.7922649500513
 20
13.81626739612929
 97
        1
330
A5
 92
       16
 93
        1
 72
     4
 94
        3
 73
     0
 74
     0
 95
       25
 96
       21
 40
0.0
 40
0.0
 40
0.0
 40
0.0
 40
0.0911479969065388
 40
0.18581178962058
 40
0.2804128399735343
 40
0.3715889190715648
 40
0.4679080494219562
 40
0.5642683809229233
 40
0.6605683222645561
 40
0.7569653015810255
 40
0.8561348172522787
 40
1.092615965104308
 40
1.374867658141906
 40
1.611348812011641
 40
1.710518328425294
 40
1.809403163726616
 40
2.045205463294132
 40
2.326646917622205
 40
2.56244921719068
 40
2.661334043834003
 40
2.661334043834003
 40
2.661334043834003
 40
2.661334043834003
 10
173.2683700567199
 20
14.88614538197291
 10
173.2987525917922
 20
14.88598079714554
 10
173.3606895889112
 20
14.88564528689923
 10
173.454135696033
 20
14.88269055452001
 10
173.5475095236359
 20
14.87977752877152
 10
173.6417760753477
 20
14.87894201643415
 10
173.7354964790967
 20
14.87996644658046
 10
173.8352040303205
 20
14.87916977470972
 10
173.9188949546313
 20
14.8892141023522
 10
174.0637996315045
 20
14.86234617674165
 10
173.9396132444801
 20
15.0366553028005
 10
173.8965867286282
 20
15.19651711006092
 10
173.7808922142209
 20
15.45518458550218
 10
173.7017565431257
 20
15.59231052861861
 10
173.6431576621816
 20
15.80937033134081
 10
173.5864803939438
 20
15.59266134213431
 10
173.5052809900477
 20
15.45327012438238
 10
173.4063701281488
 20
15.20406969370195
 10
173.325362509426
 20
15.01925830226073
 10
173.2813683325838
 20
14.91650446856115
 10
173.2683700567199
 20
14.88614538197291
 97
        1
330
A6
 75
     1
 76
     2
 52
45.0
 41
0.1
 77
     0
 78
     1
 53
45.0
 43
0.0
 44
0.0
 45
-0.282842712474619
 46
0.0
 79
     0
 98
        1
 10
0.0
 20
0.0
  0
HATCH
  5
C4
330
48
100
AcDbEntity
  8
1
  6
Continuous
 62
     2
100
AcDbHatch
 10
0.0
 20
0.0
 30
0.0
210
0.0
220
0.0
230
1.0
  2
CUSTOM2
 70
     0
 71
     1
 91
        1
 92
        1
 93
        1
 72
     4
 94
        3
 73
     0
 74
     0
 95
       95
 96
       91
 40
0.0
 40
0.0
 40
0.0
 40
0.0
 40
0.6550406656912363
 40
1.308087289031995
 40
1.420803739835846
 40
1.566130759770856
 40
1.757067341888566
 40
2.006513545026487
 40
2.087328263121602
 40
2.185328872295698
 40
2.294612454748462
 40
2.408936380534884
 40
2.526802767798633
 40
2.646360524615679
 40
2.762535723971647
 40
2.870057342870219
 40
2.96688344843172
 40
3.050803243518399
 40
3.115818222436676
 40
3.15603005715029
 40
3.213914225080133
 40
3.276689026450589
 40
3.342960320981337
 40
3.404230667150527
 40
3.453822809493313
 40
3.532499827188304
 40
3.634775188507092
 40
3.754909333008089
 40
3.8897367616606
 40
4.035769602175104
 40
4.187256681197552
 40
4.338733685675846
 40
4.488478734676052
 40
4.634708317831506
 40
4.771493189921217
 40
4.89268657156113
 40
5.199775528944361
 40
5.460353566929537
 40
5.667603142345442
 40
5.814722905404405
 40
5.828990806219703
 40
5.8554883363044
 40
5.869756237118732
 40
6.18979650776276
 40
6.531890469872975
 40
6.883053637016879
 40
7.230512024911445
 40
7.566966656764464
 40
7.88520355970735
 40
8.17288743971919
 40
8.418011594062714
 40
8.443926721190635
 40
8.510760470613127
 40
8.60214539379564
 40
8.701714041647085
 40
8.793098965075322
 40
8.859932715057896
 40
8.885847842603546
 40
9.242301256612723
 40
9.589275455016645
 40
9.921808543164104
 40
10.23479624298463
 40
10.29968150889182
 40
10.35323493887773
 40
10.40154625355149
 40
10.46482922477822
 40
10.55973900668402
 40
10.69239545985621
 40
10.84920353475672
 40
11.0162632859478
 40
11.1867202436744
 40
11.35372582577209
 40
11.50257442292428
 40
11.61866495023291
 40
11.71329869152877
 40
11.82511050573905
 40
11.94464880845715
 40
12.06929242642505
 40
12.19707290435175
 40
12.32562632860528
 40
12.45034565331281
 40
12.56646595170327
 40
12.67099007414635
 40
12.76077625936783
 40
12.82703233506693
 40
12.87429132785993
 40
12.89831990323332
 40
12.92234847860021
 40
13.53984767410319
 40
14.18294284359355
 40
14.18294284359355
 40
14.18294284359355
 40
14.18294284359355
 10
177.3067935648022
 20
14.70898038201719
 10
177.1752019758551
 20
14.82265058603227
 10
176.9124193802728
 20
15.04964496316153
 10
176.3997393441024
 20
15.89214462956285
 10
176.4106654595362
 20
15.53423377577021
 10
176.4041226527993
 20
15.39267392272132
 10
176.4028026631773
 20
15.19421305299282
 10
176.4018117602538
 20
15.02150296045983
 10
176.4024101751975
 20
14.87865373257582
 10
176.4038994301882
 20
14.78265005413357
 10
176.4055683588472
 20
14.67545503263141
 10
176.407193495462
 20
14.56164211517581
 10
176.4092429501685
 20
14.44441572604588
 10
176.4123165501929
 20
14.3265641123297
 10
176.4156339697043
 20
14.21228087320621
 10
176.419360534028
 20
14.10521401867277
 10
176.4217338161425
 20
14.01007408766921
 10
176.4278718888359
 20
13.92558557205694
 10
176.4239784495948
 20
13.86923087298141
 10
176.4455230443077
 20
13.79825022472359
 10
176.3680940058618
 20
13.82902677604485
 10
176.3116353240191
 20
13.82011242517607
 10
176.2540495896808
 20
13.82896218398275
 10
176.1690163478473
 20
13.79738225225948
 10
176.2009714146383
 20
13.88095155992188
 10
176.1990705282539
 20
13.94882608968307
 10
176.2107960047301
 20
14.05233256764416
 10
176.2164241052999
 20
14.17002125616694
 10
176.2237902178942
 20
14.30388609164421
 10
176.232075970161
 20
14.4476415287263
 10
176.2398851897426
 20
14.59714022843441
 10
176.2457571222657
 20
14.74792549402076
 10
176.2503667817969
 20
14.89699943878435
 10
176.2542632117542
 20
15.04122913163021
 10
176.2570715126564
 20
15.17583905213016
 10
176.2576698755022
 20
15.36469614347353
 10
176.2616023867151
 20
15.5897549431315
 10
176.2442175378498
 20
15.86367091125705
 10
176.2850417342584
 20
16.02787112098592
 10
176.1995153256002
 20
16.22749661465095
 10
176.2660558907688
 20
16.22385458403975
 10
176.283872427323
 20
16.22413447160852
 10
176.4056801797502
 20
16.22632927398606
 10
176.5080770335462
 20
15.94675118721511
 10
176.7580021509357
 20
15.74563008536004
 10
176.9870035331111
 20
15.47792614987911
 10
177.224515121311
 20
15.22646413862384
 10
177.4486090740771
 20
14.98969974061351
 10
177.6750716283011
 20
14.73218692583085
 10
177.8325687886515
 20
14.61649335056926
 10
178.0472129612675
 20
14.27997152538794
 10
178.0422645974619
 20
14.40464754091604
 10
178.0433931602547
 20
14.46327691935737
 10
178.0428877841518
 20
14.55043662371978
 10
178.0430475158114
 20
14.64416143182873
 10
178.0430054891319
 20
14.73018971297036
 10
178.0430202040374
 20
14.79153891945497
 10
178.0429706255983
 20
14.94135231520993
 10
178.0458811522811
 20
15.17989612510103
 10
178.0259521041163
 20
15.54486509868698
 10
178.0750433936248
 20
15.80799631993412
 10
177.9177951509179
 20
16.21928904947755
 10
178.0762112872422
 20
16.16398282551749
 10
178.1311680478629
 20
16.16199686500178
 10
178.182788776674
 20
16.16264778248254
 10
178.2713198965365
 20
16.20369527738248
 10
178.2204898303169
 20
16.05696326622984
 10
178.2313389930285
 20
15.95019971954432
 10
178.2166036994847
 20
15.7908570541411
 10
178.2099976446204
 20
15.62853061652874
 10
178.2014961399915
 20
15.45992521892395
 10
178.1943227202199
 20
15.29814814703541
 10
178.188906321539
 20
15.15422331457931
 10
178.1871713967648
 20
15.03437493466923
 10
178.1875440672319
 20
14.92686101590514
 10
178.1873656126263
 20
14.81820024645586
 10
178.187701086314
 20
14.69953570165531
 10
178.1890040622184
 20
14.57555163512741
 10
178.1908887351574
 20
14.44858294171105
 10
178.1925004454852
 20
14.32153861551031
 10
178.194140313743
 20
14.19854884492176
 10
178.1962570745752
 20
14.08300931383758
 10
178.1963848422364
 20
13.98090903955836
 10
178.2006514396554
 20
13.89009848838156
 10
178.1908440085289
 20
13.83213621208786
 10
178.2118474771689
 20
13.76517130132028
 10
178.1725639739897
 20
13.77291153966687
 10
177.9595307117743
 20
13.7575525414519
 10
177.7636297943188
 20
14.31403058094468
 10
177.4611197631545
 20
14.57556035348506
 10
177.3067935648022
 20
14.70898038201719
 97
        1
330
A7
 75
     1
 76
     2
 52
45.0
 41
0.1
 77
     0
 78
     1
 53
45.0
 43
0.0
 44
0.0
 45
-0.282842712474619
 46
0.0
 79
     0
 98
        1
 10
0.0
 20
0.0
  0
HATCH
  5
C5
330
48
100
AcDbEntity
  8
1
  6
Continuous
 62
     2
100
AcDbHatch
 10
0.0
 20
0.0
 30
0.0
210
0.0
220
0.0
230
1.0
  2
CUSTOM3
 70
     0
 71
     1
 91
        1
 92
        1
 93
        1
 72
     4
 94
        3
 73
     0
 74
     0
 95
      110
 96
      106
 40
0.0
 40
0.0
 40
0.0
 40
0.0
 40
0.2203406257277749
 40
0.4407808782838447
 40
0.5952494494615439
 40
0.7488431659393456
 40
0.9023581831309997
 40
1.056801968670441
 40
1.21073644909997
 40
1.363041386539904
 40
1.51531572968322
 40
1.6693772391482
 40
1.721611652756731
 40
1.773199502943151
 40
1.824933793210202
 40
1.877110426488193
 40
1.982682281207046
 40
2.078781667087856
 40
2.172809640822576
 40
2.271937807379229
 40
2.37834993337962
 40
2.494131557736807
 40
2.626681683943914
 40
2.783145050796284
 40
2.890701232941122
 40
2.993130312455067
 40
3.099869730692015
 40
3.220237816691508
 40
3.352695482737769
 40
3.481732806390089
 40
3.593499473690573
 40
3.674323013332115
 40
3.817951711953037
 40
3.946167120793978
 40
4.061405053453748
 40
4.166480796003305
 40
4.262478775059425
 40
4.350736673551411
 40
4.433071991254238
 40
4.511216293814782
 40
4.564262454118101
 40
4.618474415571647
 40
4.67012848875428
 40
4.722296879126505
 40
4.81954094531438
 40
4.931194984128234
 40
5.049996040257876
 40
5.168643755415421
 40
5.283970811762633
 40
5.392260784910345
 40
5.486512254876477
 40
5.559178233949847
 40
5.591425852853498
 40
5.626215969637872
 40
5.667155838674439
 40
5.717449290214275
 40
5.73840236094489
 40
5.784499116553859
 40
5.830595872164834
 40
5.851548942897693
 40
5.873019280661805
 40
5.924217778408347
 40
5.985325662817723
 40
6.036524160567734
 40
6.057994498334263
 40
6.236847789607507
 40
6.381409928945708
 40
6.493190424178709
 40
6.57406753423047
 40
6.691018086205507
 40
6.814881554220482
 40
6.944307823240349
 40
7.071266716065971
 40
7.193488604461817
 40
7.30904277312813
 40
7.414007203170698
 40
7.505140441886511
 40
7.531150360599665
 40
7.559221645322258
 40
7.587202218920904
 40
7.612569159499119
 40
7.662550809480969
 40
7.7028788757641
 40
7.857328205230913
 40
8.01079956808853
 40
8.165256399657508
 40
8.322232698713933
 40
8.479564855016534
 40
8.635216230290737
 40
8.790882550925712
 40
8.948305154947306
 40
9.16827183903296
 40
9.387358980987244
 40
9.608047961033465
 40
9.832914234792657
 40
9.858338694962992
 40
9.925366817230007
 40
10.0201307142276
 40
10.12876249858999
 40
10.2373942829525
 40
10.33215817995193
 40
10.39918630222396
 40
10.42461076239785
 40
10.64992019336947
 40
10.87188524531189
 40
10.87188524531189
 40
10.87188524531189
 40
10.87188524531189
 10
179.9057788376619
 20
15.73923260398189
 10
179.9092864933542
 20
15.80616462073803
 10
179.9163033987663
 20
15.94005891915859
 10
179.8198027599072
 20
16.22548554971473
 10
180.0510134726109
 20
16.16284386190283
 10
180.1919290057156
 20
16.17001554055984
 10
180.3490417757588
 20
16.16235883078245
 10
180.5025913427287
 20
16.16252752283042
 10
180.6545104935082
 20
16.16182040535433
 10
180.8142214813231
 20
16.17210158351632
 10
180.9408972601119
 20
16.15496511080751
 10
181.1370821122082
 20
16.22727260107148
 10
181.1034395279078
 20
16.12640699080116
 10
181.1052011317183
 20
16.07619253947666
 10
181.1027342073458
 20
16.0271233558646
 10
181.1347076966012
 20
15.9406349084699
 10
181.0010399903256
 20
15.98997438608339
 10
180.9172208688057
 20
15.98430634314172
 10
180.8173861139323
 20
15.99465516706299
 10
180.7186576720146
 20
16.00086450411087
 10
180.612153277111
 20
16.00697763816776
 10
180.4910511698059
 20
16.01588883484578
 10
180.3703381502454
 20
16.00521605912384
 10
180.1812553843438
 20
16.06468503080362
 10
180.2129028505311
 20
15.90558320077536
 10
180.1995563316834
 20
15.80839128339902
 10
180.197495842645
 20
15.69634065110099
 10
180.195818804467
 20
15.5769968562935
 10
180.1973336794233
 20
15.45032592155108
 10
180.195658247867
 20
15.32301588016114
 10
180.2058844271658
 20
15.2245156640446
 10
180.1779006596583
 20
15.08388702625626
 10
180.3508029999305
 20
15.13989551134093
 10
180.4645020202772
 20
15.12719951478503
 10
180.5840151672239
 20
15.1344837705125
 10
180.6888491425072
 20
15.13878017056762
 10
180.7843084898612
 20
15.14330568258972
 10
180.8763823507033
 20
15.15149201146204
 10
180.947655178244
 20
15.14643850638109
 10
181.0544931705685
 20
15.18536425031669
 10
181.0226603598037
 20
15.10517122005877
 10
181.0266164503929
 20
15.05562936846032
 10
181.0234502392014
 20
15.0055747803982
 10
181.0550791490583
 20
14.92128847612015
 10
180.9210133677693
 20
14.97425365495164
 10
180.82923227932
 20
14.96540080890436
 10
180.7079729189603
 20
14.97570049965157
 10
180.5914113119772
 20
14.977489117675
 10
180.4783375745879
 20
14.97787017109695
 10
180.3679246308472
 20
14.98415449472183
 10
180.2898124067841
 20
14.97189133255362
 10
180.1913625833645
 20
15.00453887616126
 10
180.2012355173561
 20
14.94769748054209
 10
180.1973923244402
 20
14.91392130557987
 10
180.1966789884268
 20
14.87119604709412
 10
180.1963369642975
 20
14.83401607262152
 10
180.1963834255345
 20
14.79487237370769
 10
180.1963649429927
 20
14.75716849497684
 10
180.1963703431806
 20
14.71944955232401
 10
180.19636972142
 20
14.68994324745147
 10
180.1963698151546
 20
14.658735776993
 10
180.196370428792
 20
14.61414424908083
 10
180.1963671499337
 20
14.5596395650885
 10
180.196375962348
 20
14.51505540201446
 10
180.1963359653419
 20
14.4311780858574
 10
180.1976024270254
 20
14.31737520677676
 10
180.1950274117842
 20
14.16830395933708
 10
180.206500938172
 20
14.06597203813906
 10
180.1823506222264
 20
13.93338903885841
 10
180.3332993946476
 20
13.97895732272026
 10
180.4428436671556
 20
13.96427012162355
 10
180.5733970473921
 20
13.96920435125065
 10
180.6990312209514
 20
13.97257705323355
 10
180.8188730625601
 20
13.97711497498771
 10
180.9391362611427
 20
13.99048536182004
 10
181.0222761663516
 20
13.98068712782595
 10
181.1456080421075
 20
14.04126214623321
 10
181.1244269203957
 20
13.98532460134019
 10
181.1235950270118
 20
13.95939249372345
 10
181.1218963707559
 20
13.93197256190937
 10
181.121797488883
 20
13.89738195206385
 10
181.120365930133
 20
13.86050408220768
 10
181.1532804192191
 20
13.76846841021809
 10
180.9551306988108
 20
13.84132015974831
 10
180.8300548294892
 20
13.818257265086
 10
180.6673071295156
 20
13.82454021985782
 10
180.5129366450002
 20
13.82260943909922
 10
180.3566670436944
 20
13.82393762599264
 10
180.1970544465282
 20
13.82059872487857
 10
180.0540326342237
 20
13.83265795728241
 10
179.8197144881628
 20
13.7695200197692
 10
179.9173810751197
 20
14.05620527466317
 10
179.900686878006
 20
14.24988308142658
 10
179.9146296709685
 20
14.47848242880292
 10
179.9142987846633
 20
14.63384593955045
 10
179.9143078119264
 20
14.73966336444122
 10
179.9143055876317
 20
14.80205784124211
 10
179.914306555189
 20
14.89220425248324
 10
179.9143065473262
 20
14.99621167157436
 10
179.9143053861103
 20
15.10022131375294
 10
179.9143090971503
 20
15.19036243688767
 10
179.9143011051051
 20
15.25276803097215
 10
179.914333427502
 20
15.3586883596112
 10
179.9131440788319
 20
15.5162671654474
 10
179.9082216489257
 20
15.66528219822065
 10
179.9057788376619
 20
15.73923260398189
 97
        1
330
A8
 75
     1
 76
     2
 52
45.0
 41
0.1
 77
     0
 78
     1
 53
45.0
 43
0.0
 44
0.0
 45
-0.282842712474619
 46
0.0
 79
     0
 98
        1
 10
0.0
 20
0.0
  0
HATCH
  5
C6
330
48
100
AcDbEntity
  8
1
  6
Continuous
 62
     2
100
AcDbHatch
 10
0.0
 20
0.0
 30
0.0
210
0.0
220
0.0
230
1.0
  2
CUSTOM4
 70
     0
 71
     1
 91
        1
 92
        1
 93
        1
 72
     4
 94
        3
 73
     0
 74
     0
 95
       47
 96
       43
 40
0.0
 40
0.0
 40
0.0
 40
0.0
 40
0.2207912809957396
 40
0.4459404186303508
 40
0.4902387190458645
 40
0.532747389272249
 40
0.5742260451225205
 40
0.615543263056106
 40
0.6568164066315403
 40
0.6982511618780853
 40
0.7407663929316846
 40
0.7851366743174671
 40
1.010288833836297
 40
1.231080507002163
 40
1.451765243652323
 40
1.676638205891628
 40
1.720461045359599
 40
1.830018144043457
 40
1.972442372353085
 40
2.114866600677448
 40
2.224423699395071
 40
2.268246538883309
 40
2.493628801207193
 40
2.71560283028658
 40
2.93421133070634
 40
3.149502369855303
 40
3.231387784850862
 40
3.318231873853896
 40
3.405143198197941
 40
3.48697030172029
 40
3.702258172493701
 40
3.920866283533939
 40
4.142839325931716
 40
4.36822190386523
 40
4.41204474335971
 40
4.521601842095718
 40
4.664026070452195
 40
4.806450298808899
 40
4.916007397546588
 40
4.95983023704291
 40
5.184703515846962
 40
5.405387250767268
 40
5.405387250767268
 40
5.405387250767268
 40
5.405387250767268
 10
182.6507427258645
 20
15.73406440953869
 10
182.6568139420002
 20
15.79758482501206
 10
182.6690762107243
 20
15.92587938689621
 10
182.5604706879413
 20
16.20166220174083
 10
182.6761985896604
 20
16.17188133432051
 10
182.7171842509015
 20
16.16765556262814
 10
182.7591205797519
 20
16.16310446389607
 10
182.800419662571
 20
16.16201982929487
 10
182.8417032115556
 20
16.16310338195228
 10
182.8836148270647
 20
16.16766112711336
 10
182.924598354902
 20
16.17187430209729
 10
183.0404922843488
 20
16.2017761131754
 10
182.9295652727456
 20
15.92339806609886
 10
182.9574856365268
 20
15.74283140824952
 10
182.940426734697
 20
15.50961042346472
 10
182.9414637282104
 20
15.34906622543149
 10
182.9414099399405
 20
15.22284817558723
 10
182.9414277372481
 20
15.12428963336244
 10
182.9414188581081
 20
14.99280702442966
 10
182.9414263928035
 20
14.86132844968653
 10
182.9414129405129
 20
14.76276222694094
 10
182.9414531717493
 20
14.63639735624153
 10
182.9406746403817
 20
14.47482068822871
 10
182.9565958319268
 20
14.24361821892914
 10
182.9333468885408
 20
14.05874351972002
 10
183.0360183444366
 20
13.7893560277006
 10
182.8820238362836
 20
13.82660112685817
 10
182.8004129802833
 20
13.82137994680528
 10
182.7188192292583
 20
13.82660620378351
 10
182.5648513666844
 20
13.78937069885392
 10
182.6674183421917
 20
14.0587512986288
 10
182.6442045316087
 20
14.24361585325414
 10
182.6600444655139
 20
14.47482218565639
 10
182.6593296313427
 20
14.63639712308506
 10
182.6593664569907
 20
14.76276231210524
 10
182.659354900027
 20
14.86132756635985
 10
182.6593575019214
 20
14.99281127417223
 10
182.6593648531778
 20
15.12427548031201
 10
182.6593442541351
 20
15.22287786275328
 10
182.6594082192027
 20
15.34896149354429
 10
182.658173394759
 20
15.51210091383772
 10
182.6532040396745
 20
15.66054183777549
 10
182.6507427258645
 20
15.73406440953869
 97
        1
330
A9
 75
     1
 76
     2
 52
45.0
 41
0.1
 77
     0
 78
     1
 53
45.0
 43
0.0
 44
0.0
 45
-0.282842712474619
 46
0.0
 79
     0
 98
        1
 10
0.0
 20
0.0
  0
HATCH
  5
C7
330
48
100
AcDbEntity
  8
1
  6
Continuous
 62
     2
100
AcDbHatch
 10
0.0
 20
0.0
 30
0.0
210
0.0
220
0.0
230
1.0
  2
CUSTOM5
 70
     0
 71
     1
 91
        1
 92
        1
 93
        1
 72
     4
 94
        3
 73
     0
 74
     0
 95
      118
 96
      114
 40
0.0
 40
0.0
 40
0.0
 40
0.0
 40
0.1054708162973672
 40
0.2466098270052172
 40
0.3965912874591553
 40
0.5285525069754191
 40
0.6156245055642781
 40
0.6431434105797882
 40
0.7036850037986501
 40
0.7642265984504812
 40
0.7917455052355088
 40
0.9287404319990358
 40
1.106572819088112
 40
1.287544879681078
 40
1.317578308030595
 40
1.399928030857231
 40
1.522968204800007
 40
1.675072986590629
 40
1.844616533180708
 40
2.01997300163877
 40
2.189516548880083
 40
2.341621331585421
 40
2.464661506320556
 40
2.547011229647121
 40
2.577044658168085
 40
2.603797890893127
 40
2.662655002908815
 40
2.721512114949598
 40
2.748265347702749
 40
2.774215307344826
 40
2.845959313407161
 40
2.954338556588366
 40
3.09019422758555
 40
3.244367517100526
 40
3.407699615844291
 40
3.571031714539447
 40
3.725205003920133
 40
3.861060674729642
 40
3.969439917716341
 40
4.041183923629016
 40
4.067133883213011
 40
4.31188674601224
 40
4.547897258335634
 40
4.76474708304408
 40
4.952749679951854
 40
5.04577297419602
 40
5.137862019645111
 40
5.330543169793168
 40
5.553448265244165
 40
5.795083855888346
 40
6.043293412177393
 40
6.28576169554131
 40
6.313902908752822
 40
6.384255941793412
 40
6.475714884767
 40
6.567173827759091
 40
6.637526860839897
 40
6.665668074074261
 40
6.69201892032824
 40
6.749990782071325
 40
6.807962643790707
 40
6.834313490018187
 40
6.856393084245465
 40
6.913335195650089
 40
6.991194817302781
 40
7.076026942284071
 40
7.15388656372559
 40
7.210828674845144
 40
7.232908268931507
 40
7.25819933492403
 40
7.324875781592685
 40
7.419142481925349
 40
7.5272043088423
 40
7.635266135230887
 40
7.72953283416888
 40
7.796209279293206
 40
7.821500344595155
 40
7.844652988851226
 40
7.899863140541977
 40
7.965759128054115
 40
8.020969279771371
 40
8.044121924046838
 40
8.069356610160916
 40
8.109134395441709
 40
8.132238100191424
 40
8.19314786778679
 40
8.279261678876969
 40
8.377977512674187
 40
8.476693347146979
 40
8.562807160412035
 40
8.623716930826824
 40
8.646820636853779
 40
8.671988793774592
 40
8.734909185828503
 40
8.816705695189217
 40
8.898502204815788
 40
8.961422597378249
 40
8.986590754551361
 40
9.012941600733523
 40
9.070913462380622
 40
9.12888532408213
 40
9.155236170325457
 40
9.1804043279295
 40
9.243324721948573
 40
9.325121234212366
 40
9.40691774663802
 40
9.469838141978476
 40
9.49500628827125
 40
9.517811184379386
 40
9.572192090487375
 40
9.637098333281589
 40
9.691479239515777
 40
9.714284125643811
 40
9.714284125643811
 40
9.714284125643811
 40
9.714284125643811
 10
185.2874469028653
 20
15.26889163187718
 10
185.3090990569038
 20
15.2411186924281
 10
185.3597257109474
 20
15.17618054561238
 10
185.4349383202592
 20
15.06891060312897
 10
185.5248482274346
 20
14.95377438266626
 10
185.5709169676674
 20
14.85357045748314
 10
185.6655825294655
 20
14.78434006814943
 10
185.6204439320414
 20
14.73771639678271
 10
185.5947047785791
 20
14.69660308866039
 10
185.5645196708012
 20
14.6606597172794
 10
185.5193684730564
 20
14.58579782596094
 10
185.4710504458562
 20
14.80782524253607
 10
185.3968539713073
 20
14.84510677337709
 10
185.2836047324605
 20
15.11610202130596
 10
185.288513357817
 20
15.00095328446226
 10
185.2868486556306
 20
14.92836675781624
 10
185.2876830076713
 20
14.80625588483983
 10
185.2873609540264
 20
14.65913800810457
 10
185.2875076912456
 20
14.49307063956554
 10
185.2872950092722
 20
14.32187554608599
 10
185.2879497252034
 20
14.15552828635495
 10
185.2859192461139
 20
14.00935173055691
 10
185.291346039993
 20
13.88471047474607
 10
185.2804930868708
 20
13.81718656540624
 10
185.2956739155555
 20
13.7554906141702
 10
185.2457895108134
 20
13.76727503896998
 10
185.2017150342523
 20
13.75943822779967
 10
185.1582371630201
 20
13.76760441372699
 10
185.1092346786489
 20
13.75538056738466
 10
185.1218731234825
 20
13.8096066724931
 10
185.113018296845
 20
13.86936918907555
 10
185.1175058770314
 20
13.97922029044369
 10
185.1157960135992
 20
14.11029975405677
 10
185.1163550915987
 20
14.26198011444327
 10
185.1161928768694
 20
14.42211074929953
 10
185.1162269924676
 20
14.58236865674568
 10
185.1162514960127
 20
14.73370247520441
 10
185.1161453543226
 20
14.86582156338604
 10
185.1164299141931
 20
14.97294802533196
 10
185.1158675547569
 20
15.03808619579478
 10
185.1180765083688
 20
15.1661895785868
 10
185.0319435998603
 20
14.79097610391575
 10
184.95551408185
 20
14.63918193123395
 10
184.8660040767833
 20
14.47766206446306
 10
184.7640413217328
 20
14.20471848820169
 10
184.7187976491039
 20
14.36717346596512
 10
184.610235594167
 20
14.45605432058115
 10
184.7995791751753
 20
14.60549794961409
 10
184.8565340545701
 20
14.79749136974926
 10
184.9717520993352
 20
15.02899622906754
 10
184.9940151630133
 20
15.21797259759062
 10
185.1771905152139
 20
15.49454089325923
 10
185.0538033597553
 20
15.48698978832088
 10
184.9925684166834
 20
15.48856772366112
 10
184.9081999617065
 20
15.48882592573667
 10
184.8204235085965
 20
15.48544845751199
 10
184.7656768696123
 20
15.49394814982014
 10
184.7104703026024
 20
15.48048561049782
 10
184.7222823035536
 20
15.52931442126758
 10
184.7142496151793
 20
15.57269004896704
 10
184.7228186104679
 20
15.6150943830957
 10
184.7102943409157
 20
15.66267796552116
 10
184.7555101538735
 20
15.65267212995107
 10
184.8014815562723
 20
15.6589410517406
 10
184.877722204771
 20
15.6559356140587
 10
184.9561296131994
 20
15.65770448278539
 10
185.0323992648933
 20
15.65464793981658
 10
185.0783009459475
 20
15.66103971376175
 10
185.12317339654
 20
15.65093822978893
 10
185.1105552275635
 20
15.70157201581897
 10
185.1191936582707
 20
15.75501261882068
 10
185.1152361595444
 20
15.84863255131679
 10
185.1162325068335
 20
15.95112606688924
 10
185.1171927413074
 20
16.05353270248164
 10
185.1133211458007
 20
16.14735929609324
 10
185.1217789814365
 20
16.20036542840354
 10
185.1093075932836
 20
16.25211435651191
 10
185.1542106389851
 20
16.2385074722676
 10
185.1955083836773
 20
16.24100480320587
 10
185.259534428105
 20
16.23648060574489
 10
185.2986111148787
 20
16.22781003043308
 10
185.3476543498742
 20
16.23515102070687
 10
185.3225080030591
 20
16.19602896051756
 10
185.2815901333723
 20
16.2056384245581
 10
185.2910109616604
 20
16.15540148169779
 10
185.2855647318746
 20
16.1038594563949
 10
185.2881699601803
 20
16.0195970758452
 10
185.2870102202154
 20
15.92559135583408
 10
185.2883591064231
 20
15.83196865395524
 10
185.284997010151
 20
15.74679517552222
 10
185.2920959917768
 20
15.69716856072042
 10
185.2812569154546
 20
15.64993694969987
 10
185.3304010225245
 20
15.6620167493685
 10
185.3794877630147
 20
15.65447393363009
 10
185.4573714280641
 20
15.65686070361431
 10
185.5350365172896
 20
15.65899381905412
 10
185.5845393931355
 20
15.65193391922453
 10
185.6344594750639
 20
15.66360151936212
 10
185.6223198516881
 20
15.6154023537139
 10
185.6305838229143
 20
15.57249219801231
 10
185.6223198650784
 20
15.5295820185138
 10
185.6344594549853
 20
15.48138288754858
 10
185.5845395158746
 20
15.49305034471504
 10
185.5350350651202
 20
15.4859920243504
 10
185.4573784382973
 20
15.48811665228597
 10
185.379464386576
 20
15.49053389365754
 10
185.3304500352716
 20
15.48291848194479
 10
185.2813246108943
 20
15.49507952557586
 10
185.2915559988571
 20
15.45073013424152
 10
185.2856677678053
 20
15.40925436202907
 10
185.2878788305568
 20
15.349153943153
 10
185.2874109346146
 20
15.30225782762887
 10
185.2874386992913
 20
15.27650146418195
 10
185.2874469028653
 20
15.26889163187718
 97
        1
330
AA
 75
     1
 76
     2
 52
45.0
 41
0.1
 77
     0
 78
     1
 53
45.0
 43
0.0
 44
0.0
 45
-0.282842712474619
 46
0.0
 79
     0
 98
        1
 10
0.0
 20
0.0
  0
HATCH
  5
C8
330
48
100
AcDbEntity
  8
1
  6
Continuous
 62
     2
100
AcDbHatch
 10
0.0
 20
0.0
 30
0.0
210
0.0
220
0.0
230
1.0
  2
CUSTOM6
 70
     0
 71
     1
 91
        1
 92
        1
 93
        1
 72
     4
 94
        3
 73
     0
 74
     0
 95
       91
 96
       87
 40
0.0
 40
0.0
 40
0.0
 40
0.0
 40
0.0345987051695718
 40
0.1258134969461369
 40
0.2547723404888987
 40
0.4026032099154125
 40
0.5504340793416704
 40
0.679392922883608
 40
0.7706077146571035
 40
0.8052064287780925
 40
1.124852390615282
 40
1.427402236308885
 40
1.706356627453537
 40
1.955541417875223
 40
2.169485938566378
 40
2.34435078666484
 40
2.480568411561975
 40
2.59044055742897
 40
2.649189927151124
 40
2.749320643306351
 40
2.912632739880053
 40
3.147745656000255
 40
3.244827496385135
 40
3.338490056946735
 40
3.583815413207144
 40
3.761423943238489
 40
3.886956104362645
 40
3.985855451886782
 40
4.09176625533761
 40
4.25018647381183
 40
4.422734315084491
 40
4.628285684838592
 40
4.872093227758424
 40
5.15254965214553
 40
5.464967135837505
 40
5.80320147785243
 40
6.16036298881393
 40
6.193449448276014
 40
6.284170385501668
 40
6.41971813876451
 40
6.587285046385788
 40
6.774063446723674
 40
6.967245678113657
 40
7.154024078817671
 40
7.321590987026029
 40
7.457138740890387
 40
7.547859678556123
 40
7.580946138182683
 40
7.608533084714737
 40
7.669224367077715
 40
7.729915649429937
 40
7.757502595949989
 40
7.790278062553472
 40
7.880146277430941
 40
8.014419963180377
 40
8.180411842397877
 40
8.365434637679346
 40
8.556801071622619
 40
8.741823866830703
 40
8.90781574591627
 40
9.042089431507367
 40
9.131957646249493
 40
9.16473311279707
 40
9.415425063139963
 40
9.667986180958412
 40
9.69416980746255
 40
9.75660768604748
 40
9.831130315322287
 40
9.893568193899695
 40
9.919751820398512
 40
9.950967964690355
 40
9.996421631210477
 40
10.22087981037431
 40
10.44341866197517
 40
10.47847970788829
 40
10.5709133743873
 40
10.70159545461204
 40
10.85140174170335
 40
11.00120802880452
 40
11.13189010907358
 40
11.22432377582986
 40
11.25938480938932
 40
11.2869717559612
 40
11.34766303835895
 40
11.40835432042045
 40
11.4359412589208
 40
11.4359412589208
 40
11.4359412589208
 40
11.4359412589208
 10
190.0818114333289
 20
15.55242795125079
 10
190.0702785844941
 20
15.55242790287917
 10
190.0283409444998
 20
15.55242773704166
 10
189.9434129719026
 20
15.55243125800911
 10
189.8207688553128
 20
15.5524092643588
 10
189.6791206916993
 20
15.55250801177056
 10
189.537975369849
 20
15.55214686232423
 10
189.4141351317905
 20
15.55321883609091
 10
189.3317217825382
 20
15.5509224909127
 10
189.1727791229692
 20
15.56048569373422
 10
189.3503402353376
 20
15.19785394311372
 10
189.3379739205454
 20
14.95243127723116
 10
189.4064519473865
 20
14.66862501324836
 10
189.469302432097
 20
14.43250999939035
 10
189.5452253431729
 20
14.23326740396128
 10
189.6303189577017
 20
14.07745347451372
 10
189.7244607592935
 20
13.9765785778139
 10
189.8282648207729
 20
13.92465852638962
 10
189.9125872030773
 20
13.97606484379615
 10
189.9351322179453
 20
14.09144544037513
 10
189.974573097537
 20
14.21885149702379
 10
189.9202919734942
 20
14.53622328086752
 10
190.0451218072473
 20
14.38982180140906
 10
190.2019291513602
 20
14.35795300331167
 10
190.0947720007056
 20
14.12421357767629
 10
190.0808711209867
 20
13.95972776583656
 10
190.0234709467226
 20
13.83130869122486
 10
189.9335020145008
 20
13.76018802352828
 10
189.8095274657878
 20
13.74432324142256
 10
189.663427319686
 20
13.77993797554173
 10
189.5243894320285
 20
13.90000570500278
 10
189.4102003962144
 20
14.07435682550319
 10
189.3146141301485
 20
14.29946603111238
 10
189.2318652572626
 20
14.5638824600644
 10
189.1807179256411
 20
14.88187933098542
 10
189.0770189207339
 20
15.15543728488912
 10
189.2042841208522
 20
15.5600581861287
 10
189.0357890623019
 20
15.5511236784968
 10
188.9511995787077
 20
15.55315961418365
 10
188.8189876387628
 20
15.55213937388408
 10
188.6560505094104
 20
15.55253230318431
 10
188.4733759170534
 20
15.5523569631337
 10
188.2847057373383
 20
15.5526010530747
 10
188.101446902019
 20
15.55185657906238
 10
187.9404746832718
 20
15.55416360522428
 10
187.8029808335277
 20
15.54799804883664
 10
187.7289590372312
 20
15.56032838458213
 10
187.6613215186857
 20
15.54329323723558
 10
187.673237371927
 20
15.5952443844753
 10
187.6655677285694
 20
15.64071424966531
 10
187.6732592225117
 20
15.68614453703708
 10
187.6613141797762
 20
15.73802395984573
 10
187.7283588305868
 20
15.72119143490266
 10
187.8017375665677
 20
15.73335409092673
 10
187.9379128305272
 20
15.7272723107496
 10
188.0973811801513
 20
15.7295483431506
 10
188.2789173085837
 20
15.72881233998964
 10
188.4658034862179
 20
15.72905954196136
 10
188.6468012316836
 20
15.72886400799256
 10
188.8080802578879
 20
15.72932234714841
 10
188.9393882124887
 20
15.72812673751208
 10
189.0225051322597
 20
15.73051347319745
 10
189.1556236547814
 20
15.72230605725465
 10
189.064589350266
 20
15.97752868952655
 10
188.9789633074418
 20
16.24164358328243
 10
189.0990589003456
 20
16.22904442969164
 10
189.1514264948544
 20
16.22694235763074
 10
189.2214497569715
 20
16.22535399889655
 10
189.2671922337817
 20
16.21602567538113
 10
189.3220812646933
 20
16.22545966915426
 10
189.2963574785681
 20
16.17733028655172
 10
189.1825397571453
 20
16.18266829744155
 10
189.3159346621135
 20
15.95449174576778
 10
189.1943658735472
 20
15.72156856595925
 10
189.3223188769412
 20
15.73087258884441
 10
189.4049048406461
 20
15.72801001754682
 10
189.5307214850824
 20
15.72923437412305
 10
189.6741469838057
 20
15.72932431888966
 10
189.8157420951728
 20
15.72746163183855
 10
189.9459127249967
 20
15.73333075937165
 10
190.0193452286191
 20
15.72070340823206
 10
190.0891112922096
 20
15.73877563110414
 10
190.0775772605396
 20
15.68612850546328
 10
190.0833184346682
 20
15.64221317686549
 10
190.081661577091
 20
15.5908998267655
 10
190.081775756167
 20
15.56158792021636
 10
190.0818114333289
 20
15.55242795125079
 97
        1
330
AB
 75
     1
 76
     2
 52
45.0
 41
0.1
 77
     0
 78
     1
 53
45.0
 43
0.0
 44
0.0
 45
-0.282842712474619
 46
0.0
 79
     0
 98
        1
 10
0.0
 20
0.0
  0
HATCH
  5
C9
330
48
100
AcDbEntity
  8
1
  6
Continuous
 62
     2
100
AcDbHatch
 10
0.0
 20
0.0
 30
0.0
210
0.0
220
0.0
230
1.0
  2
CUSTOM7
 70
     0
 71
     1
 91
        1
 92
        1
 93
        1
 72
     4
 94
        3
 73
     0
 74
     0
 95
       75
 96
       71
 40
0.0
 40
0.0
 40
0.0
 40
0.0
 40
0.0342546099129638
 40
0.1245622414432222
 40
0.2522385480897234
 40
0.3985991922940218
 40
0.5449598364980217
 40
0.6726361431438088
 40
0.7629437746736107
 40
0.7971983935297084
 40
1.101723623449613
 40
1.408591244036566
 40
1.433332471690267
 40
1.487763172450052
 40
1.542193873081874
 40
1.566935100592417
 40
1.923523931821679
 40
2.271755704953511
 40
2.590579755100755
 40
2.858943305581039
 40
2.889120339309005
 40
2.91830585519092
 40
2.941366645531033
 40
2.996357760972902
 40
3.061992318140421
 40
3.116983433626585
 40
3.140044223997263
 40
3.411273122936166
 40
3.732441619740775
 40
3.761068217532471
 40
3.837787499630026
 40
3.948858699125659
 40
4.080541049104025
 40
4.219093782625399
 40
4.350776132721941
 40
4.461847332405266
 40
4.538566614677992
 40
4.567193212544237
 40
4.594907573998495
 40
4.666381453557034
 40
4.764111044010616
 40
4.870592538125419
 40
4.968322128641813
 40
5.039796008286527
 40
5.067510369783958
 40
5.094263603185172
 40
5.153120716667808
 40
5.211977830150254
 40
5.238731063551259
 40
5.272290535138526
 40
5.36338052944433
 40
5.497618415781036
 40
5.66062156345325
 40
5.838007341748951
 40
6.015393119910331
 40
6.178396267037928
 40
6.312634151841908
 40
6.403724143058898
 40
6.437283612671993
 40
6.464036846260607
 40
6.522893960004224
 40
6.581751071483491
 40
6.608504301590437
 40
6.637253941280584
 40
6.711397748902464
 40
6.812778057283077
 40
6.923237199248853
 40
7.024617507623497
 40
7.098761315207207
 40
7.127510946007157
 40
7.127510946007157
 40
7.127510946007157
 40
7.127510946007157
 10
188.4418622390564
 20
14.95849128473259
 10
188.4418622819707
 20
14.94707313408715
 10
188.4418624481129
 20
14.90555257842624
 10
188.4418593081787
 20
14.82146922003768
 10
188.4418788279801
 20
14.70004497322326
 10
188.4417912187737
 20
14.55980494047447
 10
188.442111623523
 20
14.42006556794577
 10
188.4411605909741
 20
14.29745038894931
 10
188.4431978595967
 20
14.21587074438045
 10
188.4349433178746
 20
14.06271267077701
 10
188.74307979409
 20
14.2256023605471
 10
189.0350645173739
 20
14.39482938688003
 10
189.0408354448707
 20
14.2597323578191
 10
189.0455471719892
 20
14.21617221160445
 10
189.0482535411919
 20
14.17211249350546
 10
189.0672545672956
 20
14.02272590363136
 10
188.6583942247304
 20
14.08681172241259
 10
188.3793710348831
 20
13.97296341411018
 10
188.1018081587168
 20
13.8736409581113
 10
187.8099837184398
 20
13.9163068759637
 10
187.7869144678659
 20
13.81321679744538
 10
187.7537474383334
 20
13.78691091244477
 10
187.7480653962739
 20
13.83455309036308
 10
187.7284214559045
 20
13.87180336115072
 10
187.7095089485624
 20
13.93007387847563
 10
187.6942849867708
 20
13.97385201007803
 10
187.6477246372936
 20
14.08759421046302
 10
187.9890897312451
 20
14.05576301120055
 10
188.2679649367385
 20
14.0216143510648
 10
188.2617753034907
 20
14.16913976479653
 10
188.2630935452773
 20
14.24013150908832
 10
188.2624831689948
 20
14.34719767958661
 10
188.2625871570725
 20
14.47398529785996
 10
188.2629987964055
 20
14.60849243496047
 10
188.2613907841969
 20
14.73395549951181
 10
188.2659902567925
 20
14.84505246719113
 10
188.2564186502211
 20
14.90761886800684
 10
188.2704001783691
 20
14.96595388294996
 10
188.2147384386705
 20
14.95289710582233
 10
188.1575655197822
 20
14.96136307749494
 10
188.0616048925647
 20
14.95729976080631
 10
187.9633767522822
 20
14.95970889852469
 10
187.8672582457561
 20
14.95551600613383
 10
187.8104648525812
 20
14.96429346441157
 10
187.7550356873385
 20
14.95094936850117
 10
187.7670679427918
 20
15.00036910959252
 10
187.7592003173937
 20
15.0439398803039
 10
187.766629556383
 20
15.0883046911852
 10
187.7551930564144
 20
15.13902297763987
 10
187.8232102370134
 20
15.12162460757738
 10
187.8968496879747
 20
15.13417450237184
 10
188.0325064058211
 20
15.12799677011092
 10
188.1884909024526
 20
15.13029203093079
 10
188.3615926358144
 20
15.12940968262525
 10
188.5346942964182
 20
15.13029207142403
 10
188.6906789811218
 20
15.12799662955545
 10
188.8263351889798
 20
15.13417486262426
 10
188.8999756705653
 20
15.1216239421833
 10
188.9679914174725
 20
15.13902373012137
 10
188.9565590885923
 20
15.0883013041455
 10
188.9639539458297
 20
15.04397060811103
 10
188.9562039912271
 20
15.00028307550191
 10
188.9681203741878
 20
14.95063590098472
 10
188.9108170223617
 20
14.9646141133842
 10
188.8520145789773
 20
14.95539755673249
 10
188.75252936332
 20
14.95952268164925
 10
188.649428009835
 20
14.95822760025882
 10
188.5537846354574
 20
14.95854077077636
 10
188.4857467971617
 20
14.95848776697139
 10
188.4514462213443
 20
14.95849051871651
 10
188.4418622390564
 20
14.95849128473259
 97
        1
330
AC
 75
     1
 76
     2
 52
45.0
 41
0.1
 77
     0
 78
     1
 53
45.0
 43
0.0
 44
0.0
 45
-0.282842712474619
 46
0.0
 79
     0
 98
        1
 10
0.0
 20
0.0
  0
HATCH
  5
CA
330
48
100
AcDbEntity
  8
1
  6
Continuous
 62
     2
100
AcDbHatch
 10
0.0
 20
0.0
 30
0.0
210
0.0
220
0.0
230
1.0
  2
CUSTOM8
 70
     0
 71
     1
 91
        1
 92
        1
 93
        1
 72
     4
 94
        3
 73
     0
 74
     0
 95
       15
 96
       11
 40
0.0
 40
0.0
 40
0.0
 40
0.0
 40
0.2785535985096075
 40
0.5215624748199178
 40
0.6076917376041058
 40
0.6938210001741829
 40
0.9405019146455529
 40
1.221691403489167
 40
1.300471877081121
 40
1.379252341684946
 40
1.379252341684946
 40
1.379252341684946
 40
1.379252341684946
 10
189.5681493631
 20
16.22930267330381
 10
189.6296017794178
 20
16.17691646592716
 10
189.7446649974114
 20
16.07882876798221
 10
190.0397348497245
 20
15.92889785897215
 10
189.9025147631857
 20
15.84343227515012
 10
189.8041227843778
 20
15.71085785201557
 10
189.713003359065
 20
16.01616985781417
 10
189.3636839480655
 20
16.07967869465371
 10
189.511925837657
 20
16.17896509880876
 10
189.5494081874237
 20
16.21252348402382
 10
189.5681493631
 20
16.22930267330381
 97
        1
330
AD
 75
     1
 76
     2
 52
45.0
 41
0.1
 77
     0
 78
     1
 53
45.0
 43
0.0
 44
0.0
 45
-0.282842712474619
 46
0.0
 79
     0
 98
        1
 10
0.0
 20
0.0
  0
HATCH
  5
CB
330
48
100
AcDbEntity
  8
1
  6
Continuous
 62
     2
100
AcDbHatch
 10
0.0
 20
0.0
 30
0.0
210
0.0
220
0.0
230
1.0
  2
CUSTOM9
 70
     0
 71
     1
 91
        1
 92
        1
 93
        1
 72
     4
 94
        3
 73
     0
 74
     0
 95
       35
 96
       31
 40
0.0
 40
0.0
 40
0.0
 40
0.0
 40
0.0335231036620479
 40
0.0713218571711819
 40
0.4278866681487211
 40
0.8116865841963902
 40
1.198190238000035
 40
1.561379546812667
 40
1.65998317462201
 40
1.759315573807224
 40
2.132719617231086
 40
2.525233363588822
 40
2.910815397779729
 40
3.265244364303288
 40
3.592606723581918
 40
3.96438615460385
 40
4.359942131737688
 40
4.758154118639236
 40
4.843846538699817
 40
4.936650065543112
 40
5.256616602537165
 40
5.581707404415853
 40
5.899719158307989
 40
6.198363494280589
 40
6.466301046615645
 40
6.493895311536967
 40
6.559697020196704
 40
6.63823454344228
 40
6.704036252154006
 40
6.731630508422784
 40
6.731630508422784
 40
6.731630508422784
 40
6.731630508422784
 10
191.9736010568669
 20
16.23463843719131
 10
191.9676006097789
 20
16.22480690542321
 10
191.9548344099157
 20
16.20388988579797
 10
191.7949362006553
 20
16.17127126532694
 10
192.2322025842337
 20
15.882066803367
 10
192.4345394828262
 20
15.68041138358439
 10
192.6819564267973
 20
15.43749387603277
 10
193.1831513624605
 20
15.36047662757784
 10
193.012556219897
 20
15.21876939174652
 10
192.9383299463201
 20
15.01710366209105
 10
192.6131432248188
 20
15.36956287174718
 10
192.3277741670664
 20
15.53175212559561
 10
192.0337604077658
 20
15.73687130053041
 10
191.8084452691134
 20
16.21827488595444
 10
191.5993085055522
 20
15.7534304660922
 10
191.3207873674835
 20
15.54350952252913
 10
191.0371383177209
 20
15.37424456359985
 10
190.7078639527832
 20
15.00142360907945
 10
190.6277012318224
 20
15.19708014459001
 10
190.4759724909746
 20
15.32491104190608
 10
190.9083395826795
 20
15.40454031765936
 10
191.0962565329766
 20
15.60026634915482
 10
191.3468477420503
 20
15.81632996916757
 10
191.5714350470162
 20
15.98190992300064
 10
191.6259775409713
 20
16.26133964636829
 10
191.7494661029012
 20
16.2473795040808
 10
191.806027334452
 20
16.24521268867647
 10
191.8761870984945
 20
16.24046859881359
 10
191.9333414022105
 20
16.23709429350539
 10
191.9644190320839
 20
16.23519854711116
 10
191.9736010568669
 20
16.23463843719131
 97
        1
330
AE
 75
     1
 76
     2
 52
45.0
 41
0.1
 77
     0
 78
     1
 53
45.0
 43
0.0
 44
0.0
 45
-0.282842712474619
 46
0.0
 79
     0
 98
        1
 10
0.0
 20
0.0
  0
HATCH
  5
CC
330
48
100
AcDbEntity
  8
1
  6
Continuous
 62
     2
100
AcDbHatch
 10
0.0
 20
0.0
 30
0.0
210
0.0
220
0.0
230
1.0
  2
CUSTOM10
 70
     0
 71
     1
 91
        1
 92
        1
 93
        1
 72
     4
 94
        3
 73
     0
 74
     0
 95
       91
 96
       87
 40
0.0
 40
0.0
 40
0.0
 40
0.0
 40
0.0267532254356666
 40
0.085610338646396
 40
0.1444674521996372
 40
0.171220685661823
 40
0.2039416005642252
 40
0.29556019716522
 40
0.4362601844616918
 40
0.616225284450725
 40
0.8256392189704698
 40
1.054685709844439
 40
1.29354847889356
 40
1.532411247938303
 40
1.761457738799568
 40
1.970871673298565
 40
2.150836773256789
 40
2.29153676049565
 40
2.383155356836729
 40
2.415876284101377
 40
2.442629517488016
 40
2.501486630949137
 40
2.560343744424276
 40
2.587096977826543
 40
2.617068194440971
 40
2.69924733675614
 40
2.822032643466424
 40
2.973822353257982
 40
3.143014704823424
 40
3.318007936880004
 40
3.487200288186837
 40
3.638989997548374
 40
3.761775303794873
 40
3.843954445753208
 40
3.873925662229904
 40
3.8908127735006
 40
3.907699884771768
 40
3.937960767857387
 40
3.980983618142341
 40
4.1990859152285
 40
4.43944433923731
 40
4.677588241260953
 40
5.050698317837867
 40
5.44821245476331
 40
5.855291218044835
 40
6.138575438885524
 40
6.417434507584398
 40
6.444551104394082
 40
6.504207617363409
 40
6.563864130314811
 40
6.590980727104405
 40
6.848609460381779
 40
7.109611990668721
 40
7.352910904446375
 40
7.55783022070574
 40
7.58751892591364
 40
7.652834077376075
 40
7.718149228846049
 40
7.747837934062336
 40
7.854880190301358
 40
7.976511257403891
 40
8.369487896592721
 40
8.757514959224071
 40
9.126072419331534
 40
9.460639380392596
 40
9.746695593036337
 40
9.777569943119103
 40
9.807050320932184
 40
9.830377336129313
 40
9.88600329543638
 40
9.952395569430283
 40
10.00802152870663
 40
10.03134854388255
 40
10.21356951009628
 40
10.42203479292908
 40
10.66154556731106
 40
10.91693789564348
 40
11.15832906556606
 40
11.18982674596664
 40
11.27286608520448
 40
11.39026653033395
 40
11.52484752840932
 40
11.65942852648491
 40
11.77682897161533
 40
11.85986831085732
 40
11.89136598230477
 40
11.89136598230477
 40
11.89136598230477
 40
11.89136598230477
 10
190.7027885008196
 20
14.70699600701769
 10
190.7028237765288
 20
14.71587847311982
 10
190.7029366710796
 20
14.74430237047342
 10
190.7012984568489
 20
14.79409639169798
 10
190.7069750292911
 20
14.83657564478149
 10
190.6956928731706
 20
14.88730154856841
 10
190.7632296979032
 20
14.87012900740103
 10
190.8388029210701
 20
14.8829022716599
 10
190.9828357056001
 20
14.87629729457376
 10
191.1569419185427
 20
14.8788846220646
 10
191.3639599611003
 20
14.87800591955547
 10
191.5894688172378
 20
14.87828207920021
 10
191.8251162293406
 20
14.87818339658656
 10
192.0607640531349
 20
14.87828184412761
 10
192.2862717580626
 20
14.87800678190783
 10
192.4932934632805
 20
14.87888186270729
 10
192.667388891529
 20
14.8763052267844
 10
192.8114492071986
 20
14.88288290449208
 10
192.8869691915293
 20
14.87016243405598
 10
192.9545776037031
 20
14.88726400191681
 10
192.9430840140676
 20
14.83674785802935
 10
192.9505104581734
 20
14.79253252226497
 10
192.9428838927986
 20
14.74867966503606
 10
192.9546489459426
 20
14.69878374479325
 10
192.8930788491983
 20
14.71393227712509
 10
192.8256791738673
 20
14.70310665350671
 10
192.7013004056222
 20
14.70852031626233
 10
192.5554428236572
 20
14.70649205390782
 10
192.3893576440086
 20
14.70715777578383
 10
192.2188412621725
 20
14.70689643521239
 10
192.0519790855389
 20
14.7072155339109
 10
191.9087346827105
 20
14.70635302590759
 10
191.7773313869833
 20
14.70863300482984
 10
191.7239859134657
 20
14.70407704374201
 10
191.6485188456912
 20
14.70999914992872
 10
191.6769075779232
 20
14.70094169343353
 10
191.7033652409542
 20
14.69725912268934
 10
191.6633522907702
 20
14.66654271968278
 10
191.5713663691869
 20
14.67667591174624
 10
191.5439396207069
 20
14.43032502247786
 10
191.4478793967235
 20
14.27499558764373
 10
191.1917277964473
 20
13.94525417931569
 10
191.7627537732763
 20
14.0843002221045
 10
192.0173656320517
 20
14.08291779973363
 10
192.6279647048618
 20
13.99790569242086
 10
192.3340698578083
 20
14.296854175582
 10
192.0133304286517
 20
14.44330856901776
 10
192.1313543360434
 20
14.50025540818286
 10
192.1724716466261
 20
14.52420099873349
 10
192.2156812394411
 20
14.54599758811228
 10
192.3174574094454
 20
14.60928721253905
 10
192.4328867625247
 20
14.35147151408778
 10
192.6329591642278
 20
14.21616041113681
 10
192.7269077387228
 20
14.03792795138877
 10
192.9558829746394
 20
13.87997821027058
 10
192.8596031846709
 20
13.82915972576298
 10
192.816795976378
 20
13.79881292523051
 10
192.771824352878
 20
13.77466130281456
 10
192.7121720925215
 20
13.72552146747558
 10
192.6789731061325
 20
13.85997475673605
 10
192.5582013350797
 20
14.01594265286582
 10
192.1970976005979
 20
13.88569928059553
 10
191.8385061955541
 20
13.90224694409482
 10
191.457092045008
 20
13.89331229351864
 10
191.1703455282891
 20
13.82882671672404
 10
190.8592055599714
 20
13.94230668192827
 10
190.8268737818788
 20
13.83122259927766
 10
190.7896178253317
 20
13.81196313850018
 10
190.7865737632754
 20
13.85874784087299
 10
190.7679892860607
 20
13.89806853919138
 10
190.7512436616778
 20
13.95765983478234
 10
190.7383730915753
 20
14.00201969871284
 10
190.7042327806429
 20
14.09106331120201
 10
190.9482714457753
 20
14.02181042943769
 10
191.1441394486672
 20
14.00030369057742
 10
191.2395426381277
 20
14.28226484478462
 10
191.2945135769597
 20
14.44363045421121
 10
191.5159619357157
 20
14.71391177589735
 10
191.3849239381217
 20
14.70548446853731
 10
191.3110026555855
 20
14.70779008496967
 10
191.1977459876244
 20
14.70671378321655
 10
191.0694251807485
 20
14.70707639076507
 10
190.9404252030415
 20
14.70697724466082
 10
190.8287840946292
 20
14.7069993271257
 10
190.7514663970025
 20
14.70699579189666
 10
190.713287653201
 20
14.70699595845078
 10
190.7027885008196
 20
14.70699600701769
 97
        1
330
AF
 75
     1
 76
     2
 52
45.0
 41
0.1
 77
     0
 78
     1
 53
45.0
 43
0.0
 44
0.0
 45
-0.282842712474619
 46
0.0
 79
     0
 98
        1
 10
0.0
 20
0.0
  0
HATCH
  5
CD
330
48
100
AcDbEntity
  8
1
  6
Continuous
 62
     2
100
AcDbHatch
 10
0.0
 20
0.0
 30
0.0
210
0.0
220
0.0
230
1.0
  2
CUSTOM11
 70
     0
 71
     1
 91
        1
 92
        1
 93
        1
 72
     4
 94
        3
 73
     0
 74
     0
 95
      131
 96
      127
 40
0.0
 40
0.0
 40
0.0
 40
0.0
 40
0.0195577029826114
 40
0.0426490537460358
 40
0.2863607575855894
 40
0.5344948436188799
 40
0.7842238845573033
 40
0.8737315789467138
 40
0.9803832810312846
 40
1.092842274517032
 40
1.199761146656798
 40
1.289788768186517
 40
1.351573580786212
 40
1.370727117561436
 40
1.41640093601782
 40
1.470914848355918
 40
1.516588666791684
 40
1.535742203552759
 40
1.634216592293142
 40
1.760283341175008
 40
1.897966686682105
 40
2.031216387368934
 40
2.04968975113793
 40
2.101115601646868
 40
2.179502577739989
 40
2.278859318314109
 40
2.39319446225877
 40
2.51651664838389
 40
2.642834515406023
 40
2.766156701983532
 40
2.88049184675465
 40
2.979848588358696
 40
3.058235565443877
 40
3.109661416669033
 40
3.12813478070421
 40
3.146783742386527
 40
3.19125434331536
 40
3.244332157315962
 40
3.288802758225837
 40
3.307451719895108
 40
3.32771785384472
 40
3.383747753580084
 40
3.468388665924478
 40
3.574487837698789
 40
3.694892515728898
 40
3.822449946852041
 40
3.950007377920436
 40
4.07041205580053
 40
4.17651122736809
 40
4.261152139501538
 40
4.317182039076734
 40
4.337448172964654
 40
4.620011002696245
 40
4.885096638397622
 40
4.945373043518411
 40
5.014107710488746
 40
5.070481727652198
 40
5.319246955636709
 40
5.584812164506221
 40
5.859000912057113
 40
6.133746937542252
 40
6.401732212969053
 40
6.420736683995644
 40
6.472845717451294
 40
6.550702743894222
 40
6.646951193874431
 40
6.754234497930755
 40
6.865196086587533
 40
6.972479390357991
 40
7.068727839772153
 40
7.146584865451162
 40
7.198693898189392
 40
7.217698368905532
 40
7.234950401631014
 40
7.276089864270064
 40
7.325191803516182
 40
7.366331266090578
 40
7.383583298769931
 40
7.402779163492337
 40
7.45338644325474
 40
7.52493466644577
 40
7.606953361406109
 40
7.688972056429289
 40
7.76052027978454
 40
7.81112755973481
 40
7.830323424546432
 40
7.847844055300058
 40
7.894799345667092
 40
7.962779392744769
 40
8.043374293560802
 40
8.128174145149696
 40
8.208769044817487
 40
8.27674909037718
 40
8.323704379669731
 40
8.341225010056462
 40
8.35849761480061
 40
8.401679126686787
 40
8.457815092185845
 40
8.51395105772825
 40
8.557132569708148
 40
8.574405174505191
 40
8.602340668616552
 40
8.643455660540122
 40
8.66322527196679
 40
8.715345156564423
 40
8.789031889628747
 40
8.87350204552046
 40
8.957972194324071
 40
9.031658925567951
 40
9.083778811234628
 40
9.103548423003089
 40
9.119550083123654
 40
9.160817522379928
 40
9.217244429110321
 40
9.278724491644835
 40
9.33515139829562
 40
9.376418837357944
 40
9.392420497300732
 40
9.401196302734915
 40
9.417494229384321
 40
9.426270027749585
 40
9.440875075477614
 40
9.475702496998787
 40
9.517270709865942
 40
9.552098131994104
 40
9.566703169884308
 40
9.566703169884308
 40
9.566703169884308
 40
9.566703169884308
 10
194.6170254148479
 20
15.67015871511029
 10
194.6134345093371
 20
15.66453690702161
 10
194.6056039123625
 20
15.65227754419118
 10
194.5129968974547
 20
15.61601916040954
 10
194.4887622233248
 20
15.40148444212723
 10
194.3858709845939
 20
15.22197284509705
 10
194.1220492364306
 20
15.03615573798147
 10
194.284547156918
 20
14.95959336566081
 10
194.3607225760839
 20
14.89856693195445
 10
194.4492171072758
 20
14.83515804544761
 10
194.538993023311
 20
14.77525634219561
 10
194.5883817636046
 20
14.72102154849208
 10
194.6745708157382
 20
14.69286240541828
 10
194.6411260674229
 20
14.65713309652807
 10
194.6214671166311
 20
14.62550387991902
 10
194.5919888217883
 20
14.58475872796066
 10
194.5688989446032
 20
14.55504663489641
 10
194.5380205968357
 20
14.50211422668492
 10
194.4729193365741
 20
14.62740334938899
 10
194.3796000122415
 20
14.68213900233934
 10
194.2950636285138
 20
14.73916423939342
 10
194.1722498125742
 20
14.89675287427525
 10
194.1764450847301
 20
14.82035806766838
 10
194.1751478652677
 20
14.77361280161297
 10
194.1758126448077
 20
14.69584785812603
 10
194.1755549986956
 20
14.59902068324423
 10
194.1756431239922
 20
14.4865027907881
 10
194.1756077302281
 20
14.36524085945699
 10
194.1756511758278
 20
14.2408689785896
 10
194.1755199942405
 20
14.11967683631335
 10
194.1759477562046
 20
14.00691148919741
 10
194.174667820231
 20
13.91082913768742
 10
194.1779759851043
 20
13.83113826468697
 10
194.1715197740086
 20
13.78815175788782
 10
194.1806208705555
 20
13.74955432372039
 10
194.1447910339935
 20
13.75810887724068
 10
194.1115223815252
 20
13.75342519985444
 10
194.0604562576042
 20
13.75351298759782
 10
194.0269723972814
 20
13.75794430283818
 10
193.9907585408754
 20
13.74960793842506
 10
194.0009782568667
 20
13.79145277179281
 10
193.9936487887773
 20
13.83778560820171
 10
193.9973633136103
 20
13.92374831106012
 10
193.9959480554897
 20
14.02605142704847
 10
193.9964105554639
 20
14.1445322393151
 10
193.9962773686231
 20
14.26957683153355
 10
193.9963015910045
 20
14.39475828107048
 10
193.9963354925553
 20
14.51286645379058
 10
193.9962060293133
 20
14.61628748709516
 10
193.9965507549081
 20
14.69932036153667
 10
193.9958698278691
 20
14.75143368521244
 10
193.9994586600623
 20
14.87912907821362
 10
193.7826171386438
 20
14.58048716819616
 10
193.602135492195
 20
14.35263981511504
 10
193.5490322295613
 20
14.49373443289816
 10
193.5200429133148
 20
14.54325767560944
 10
193.4196648062821
 20
14.64641779790106
 10
193.7405127723261
 20
14.72695035023781
 10
193.868989700543
 20
14.91066283036434
 10
194.090645432536
 20
15.11931995771759
 10
194.1770224894069
 20
15.29339211228347
 10
194.4549394229074
 20
15.56967051342517
 10
194.3346247839284
 20
15.56534559551116
 10
194.2863197351348
 20
15.56614856202556
 10
194.2102377454905
 20
15.56574582146587
 10
194.116701000975
 20
15.56590275611612
 10
194.0117594788557
 20
15.56582502576227
 10
193.9033887738717
 20
15.56595464378557
 10
193.7981454235897
 20
15.56554393490694
 10
193.7056237819412
 20
15.56682073671594
 10
193.6268130800707
 20
15.56340766534853
 10
193.5839674565379
 20
15.57023350036323
 10
193.5449499586515
 20
15.56065064201126
 10
193.5526365271863
 20
15.59420779565546
 10
193.5485464404312
 20
15.62523550322237
 10
193.5485531368815
 20
15.67236529270905
 10
193.5526239724911
 20
15.70340941646784
 10
193.5449495574583
 20
15.73701861635909
 10
193.5834819405495
 20
15.72748410420877
 10
193.624122801448
 20
15.73397435498076
 10
193.6951471850463
 20
15.7310015065026
 10
193.7729318149634
 20
15.73174761399163
 10
193.8507292246474
 20
15.73247814044531
 10
193.9217232089908
 20
15.72954235514166
 10
193.9624279791821
 20
15.73595468772958
 10
194.000985348991
 20
15.7265052417601
 10
193.9927342754929
 20
15.76264692158789
 10
193.9982346669358
 20
15.80129837613232
 10
193.9955754206164
 20
15.86913528561842
 10
193.9965815471533
 20
15.94591641538742
 10
193.996017801832
 20
16.02849393582758
 10
193.9970714526593
 20
16.10517329229878
 10
193.994267586313
 20
16.17331990776698
 10
194.0000702721306
 20
16.21132399809345
 10
193.9915654551159
 20
16.24758448077644
 10
194.0255610233125
 20
16.2375572377185
 10
194.0594575683099
 20
16.24073266813705
 10
194.1126669060348
 20
16.23508965640608
 10
194.1660768574483
 20
16.23434774436425
 10
194.199591464949
 20
16.2281922348298
 10
194.2388086183039
 20
16.23346029773593
 10
194.2120263698492
 20
16.19253380793486
 10
194.1708111001724
 20
16.2037120453811
 10
194.1782641540873
 20
16.15867056192122
 10
194.1742227952185
 20
16.11412278028143
 10
194.176171404964
 20
16.04223572621703
 10
194.1752364849758
 20
15.96168630588772
 10
194.176510719003
 20
15.88173995404998
 10
194.1732043793864
 20
15.80841837083187
 10
194.1802106179961
 20
15.76688643002573
 10
194.1701440380126
 20
15.72752418568118
 10
194.2029814803921
 20
15.73468063430987
 10
194.236457729648
 20
15.73027243137949
 10
194.2915053476019
 20
15.73217943347904
 10
194.3489502595315
 20
15.73185366407294
 10
194.402302624831
 20
15.73106308733088
 10
194.4398540896639
 20
15.73313959118078
 10
194.4623172523238
 20
15.73022338167116
 10
194.4751678073731
 20
15.73572552644057
 10
194.485825568589
 20
15.73801118197792
 10
194.4986635650143
 20
15.74494972588047
 10
194.5145991033071
 20
15.7285304631367
 10
194.5410623920891
 20
15.71709122319446
 10
194.5726805253757
 20
15.6964468783519
 10
194.5987255892151
 20
15.68116869628295
 10
194.6128517723973
 20
15.67266976323185
 10
194.6170254148479
 20
15.67015871511029
 97
        1
330
B0
 75
     1
 76
     2
 52
45.0
 41
0.1
 77
     0
 78
     1
 53
45.0
 43
0.0
 44
0.0
 45
-0.282842712474619
 46
0.0
 79
     0
 98
        1
 10
0.0
 20
0.0
  0
HATCH
  5
CE
330
48
100
AcDbEntity
  8
1
  6
Continuous
 62
     2
100
AcDbHatch
 10
0.0
 20
0.0
 30
0.0
210
0.0
220
0.0
230
1.0
  2
CUSTOM12
 70
     0
 71
     1
 91
        1
 92
        1
 93
        1
 72
     4
 94
        3
 73
     0
 74
     0
 95
      124
 96
      120
 40
0.0
 40
0.0
 40
0.0
 40
0.0
 40
0.0278187229624226
 40
0.1011590162383985
 40
0.2048470170590239
 40
0.3237088716558961
 40
0.4425707262522
 40
0.5462587270699263
 40
0.6195990203312082
 40
0.647417752257866
 40
0.6750060736115242
 40
0.7357003855242759
 40
0.7963946998054474
 40
0.8239830245571766
 40
0.8540933811103144
 40
0.9373396629409256
 40
1.063094687343263
 40
1.220731268638102
 40
1.399622220914776
 40
1.589140358637761
 40
1.778658496423927
 40
1.957549448940594
 40
2.115186030873244
 40
2.24094105691452
 40
2.324187341760617
 40
2.354297700109467
 40
2.381886024671975
 40
2.44258033871056
 40
2.503274652750583
 40
2.530862977314691
 40
2.560983949278644
 40
2.640393784453019
 40
2.752662861759242
 40
2.88136156011823
 40
3.010060258455334
 40
3.122329335705509
 40
3.201739170818095
 40
3.231860142753484
 40
3.26429802403054
 40
3.352343701778408
 40
3.482095226868931
 40
3.639650650173189
 40
3.811108022565644
 40
3.982565394928149
 40
4.140120818152728
 40
4.269872343141437
 40
4.357918020802498
 40
4.390355902044125
 40
4.423256253992695
 40
4.508104530073244
 40
4.624121560637012
 40
4.750528176031769
 40
4.866545206602244
 40
4.95139348269223
 40
4.984293834645631
 40
5.011450833242542
 40
5.071196230152322
 40
5.130941627057392
 40
5.158098625649054
 40
5.190998977601745
 40
5.27584725368957
 40
5.391864284257061
 40
5.518270899648607
 40
5.634287930209646
 40
5.71913620628832
 40
5.752036558236235
 40
5.782130946283263
 40
5.862783906229439
 40
5.979550131775313
 40
6.117984316640723
 40
6.263641154588274
 40
6.402075339414487
 40
6.51884156490829
 40
6.599494524815875
 40
6.629588912849113
 40
6.65440302822669
 40
6.713575149488457
 40
6.784199939329803
 40
6.843372060493905
 40
6.868186175803123
 40
6.896246243202242
 40
6.939586233758617
 40
6.967846564565245
 40
7.043584251090183
 40
7.153234334452036
 40
7.283231855734784
 40
7.420011856035814
 40
7.550009376580161
 40
7.659659458835562
 40
7.735397144417552
 40
7.763657474851724
 40
7.796409728011381
 40
7.880876065096627
 40
7.996370852466012
 40
8.12220844641885
 40
8.237703224799473
 40
8.322169562011139
 40
8.354921815206152
 40
8.38207881330793
 40
8.44182420920723
 40
8.501569605240372
 40
8.528726603485948
 40
8.561478856695997
 40
8.645945193878019
 40
8.76143998086553
 40
8.887277580764644
 40
9.002772362001137
 40
9.087238696661329
 40
9.119990949235811
 40
9.15242883061351
 40
9.240474508638725
 40
9.370226034149674
 40
9.527781457984556
 40
9.699238830981542
 40
9.87069620397873
 40
10.02825162781415
 40
10.15800315332577
 40
10.24604883135131
 40
10.27848670378534
 40
10.27848670378534
 40
10.27848670378534
 40
10.27848670378534
 10
195.3821827564384
 20
14.01410517385759
 10
195.3914554737524
 20
14.01410498511276
 10
195.4251744536861
 20
14.01410430876716
 10
195.4934706812466
 20
14.01411807243307
 10
195.592014171158
 20
14.01403224219546
 10
195.7062066464812
 20
14.01441755612253
 10
195.8185894417072
 20
14.01300835897547
 10
195.9214376600117
 20
14.01719117422244
 10
195.980683987485
 20
14.00823089251985
 10
196.0371265937033
 20
14.02164434526062
 10
196.0246255586955
 20
13.97087198613362
 10
196.0329549635705
 20
13.92589320939069
 10
196.0248170841119
 20
13.8805675299049
 10
196.0370529214458
 20
13.82931932408467
 10
195.9747773490334
 20
13.84447955365278
 10
195.9060513026869
 20
13.83359750710745
 10
195.7782756749592
 20
13.83911304747974
 10
195.6262984511643
 20
13.837008512537
 10
195.4502695972523
 20
13.83771002588476
 10
195.2644431934287
 20
13.83745237531293
 10
195.0786167437175
 20
13.83771005144606
 10
194.9025880142169
 20
13.83700841847733
 10
194.7506104154194
 20
13.83911332229991
 10
194.6228357664555
 20
13.83359680767642
 10
194.554107783658
 20
13.84448077125944
 10
194.4918349042883
 20
13.82931786684211
 10
194.5040616290017
 20
13.88057510805173
 10
194.4960004462597
 20
13.92582473272427
 10
194.5040675809892
 20
13.97106357955325
 10
194.4918238487084
 20
14.0223417690996
 10
194.5525017120698
 20
14.00749577363136
 10
194.6162810745737
 20
14.01756448170737
 10
194.7277314353503
 20
14.01294644212002
 10
194.8497533443823
 20
14.0141332890547
 10
194.9719538137824
 20
14.01515863900637
 10
195.0829794287393
 20
14.01092475623403
 10
195.1476517413959
 20
14.02018584521741
 10
195.2091162810502
 20
14.00604423049683
 10
195.1930065601338
 20
14.07235527884519
 10
195.2042980327359
 20
14.14447790121977
 10
195.1987400822561
 20
14.27513760888288
 10
195.2008035061692
 20
14.42607323708242
 10
195.2000167127295
 20
14.59335873107887
 10
195.2007845215628
 20
14.76061110332304
 10
195.1988038785629
 20
14.91163289269915
 10
195.2041306156621
 20
15.04206069552996
 10
195.1933101388426
 20
15.114654426059
 10
195.2090326429876
 20
15.18150469436799
 10
195.143270813249
 20
15.16580512490825
 10
195.0756367830764
 20
15.17609243083996
 10
194.961588529381
 20
15.17113786847122
 10
194.8451242674903
 20
15.17414128030476
 10
194.7306554121477
 20
15.16880303143389
 10
194.6640324657812
 20
15.18001268074826
 10
194.5990769715185
 20
15.16349132665012
 10
194.6107989758708
 20
15.21473720477059
 10
194.6032830189122
 20
15.25950333784091
 10
194.6107989878835
 20
15.3042694489796
 10
194.5990769505347
 20
15.3555153612974
 10
194.66403263392
 20
15.33899381766814
 10
194.7306533339821
 20
15.35020571373942
 10
194.8451352858064
 20
15.34485436710663
 10
194.9615454436963
 20
15.34791188771116
 10
195.0757660174642
 20
15.34278499010707
 10
195.1430150439227
 20
15.35345733355597
 10
195.2083325941439
 20
15.33742082669075
 10
195.1941391448553
 20
15.39949685750052
 10
195.2036059462996
 20
15.46586761628762
 10
195.1990269004085
 20
15.58239972741966
 10
195.2007696555949
 20
15.71426685022376
 10
195.1997551495392
 20
15.85615960150274
 10
195.2017191344373
 20
15.98769050702581
 10
195.1964668553852
 20
16.10524577283005
 10
195.2073408763474
 20
16.16947789001586
 10
195.1919536641854
 20
16.2310880254505
 10
195.2407591537801
 20
16.21702407382113
 10
195.2853995564727
 20
16.21954742075317
 10
195.3538643946742
 20
16.21512797401711
 10
195.3959106169104
 20
16.20613025544038
 10
195.4487544758776
 20
16.21411714866511
 10
195.4207035002014
 20
16.17113917611674
 10
195.3749142248595
 20
16.18259552043832
 10
195.3869539073265
 20
16.12173520005134
 10
195.3796086070642
 20
16.0576929946877
 10
195.3831195826162
 20
15.94909368863908
 10
195.3819806760175
 20
15.82494319144751
 10
195.3819174780263
 20
15.69189719829876
 10
195.3832872966869
 20
15.56797381249554
 10
195.3791638801314
 20
15.45868337849337
 10
195.3877763103564
 20
15.39608580094168
 10
195.3746757454403
 20
15.33740133296365
 10
195.4393884328199
 20
15.353621138109
 10
195.5060405953156
 20
15.34270260383311
 10
195.6198779541103
 20
15.34793740173754
 10
195.7357259122096
 20
15.34485547516912
 10
195.8496924263281
 20
15.35018259812512
 10
195.9160341018099
 20
15.33904208166541
 10
195.980718852548
 20
15.35546979593177
 10
195.9689820772722
 20
15.3042592521005
 10
195.9765168063041
 20
15.25950334121001
 10
195.9689820992257
 20
15.21474739010027
 10
195.9807188140736
 20
15.16353690871041
 10
195.9160344075252
 20
15.1799642779422
 10
195.8496886430825
 20
15.16882784447271
 10
195.7357459487012
 20
15.17413115893121
 10
195.6197995623056
 20
15.17114764593545
 10
195.5062756882123
 20
15.17606892268394
 10
195.4389231318805
 20
15.16585087513521
 10
195.3734285122496
 20
15.18145996138817
 10
195.3891713619219
 20
15.11463851827412
 10
195.3783275998215
 20
15.04207057815879
 10
195.3836581629792
 20
14.91162247614417
 10
195.3817136151857
 20
14.76064558185227
 10
195.3823133683214
 20
14.5932224393416
 10
195.3821506559605
 20
14.42656176118373
 10
195.3821895488136
 20
14.27360142921638
 10
195.38218164131
 20
14.14849178985707
 10
195.3821828382746
 20
14.06507890991422
 10
195.3821827716209
 20
14.02491778281978
 10
195.3821827564384
 20
14.01410517385759
 97
        1
330
B1
 75
     1
 76
     2
 52
45.0
 41
0.1
 77
     0
 78
     1
 53
45.0
 43
0.0
 44
0.0
 45
-0.282842712474619
 46
0.0
 79
     0
 98
        1
 10
0.0
 20
0.0
  0
HATCH
  5
CF
330
48
100
AcDbEntity
  8
1
  6
Continuous
 62
     2
100
AcDbHatch
 10
0.0
 20
0.0
 30
0.0
210
0.0
220
0.0
230
1.0
  2
CUSTOM13
 70
     0
 71
     1
 91
        1
 92
        1
 93
        3
 72
     4
 94
        3
 73
     0
 74
     0
 95
       24
 96
       20
 40
0.0
 40
0.0
 40
0.0
 40
0.0
 40
0.2211075008753725
 40
0.4273218586245853
 40
0.508017467923953
 40
0.5914835907870797
 40
0.8143265690193073
 40
1.05465130268663
 40
1.29545269402323
 40
1.518109231328865
 40
1.540864321905506
 40
1.595126460622764
 40
1.659890947896102
 40
1.714153085187484
 40
1.736908174961783
 40
1.764951100735507
 40
1.801562291221148
 40
1.95391442454388
 40
2.126104167379991
 40
2.126104167379991
 40
2.126104167379991
 40
2.126104167379991
 10
185.9375369556889
 20
15.5898929511302
 10
185.9112579081812
 20
15.53097628234378
 10
185.8604698894426
 20
15.41711139679259
 10
185.8131784839111
 20
15.14441958233108
 10
185.7043482802618
 20
15.24445482575461
 10
185.5514800279637
 20
15.27118593367322
 10
185.7686155181199
 20
15.48518135017632
 10
185.783848367438
 20
15.70332117782483
 10
185.8906889492001
 20
15.88451579066426
 10
185.8305380947078
 20
16.16913226311394
 10
185.9334317395402
 20
16.14114089222449
 10
185.977993346815
 20
16.13243251602298
 10
186.0380842395397
 20
16.12139654183355
 10
186.0756619587438
 20
16.10767523055562
 10
186.1252466928607
 20
16.10756076160226
 10
186.0930158919325
 20
16.07306592398622
 10
186.0171802221882
 20
16.08404104537974
 10
186.0429447159693
 20
15.89858969582445
 10
186.005589676385
 20
15.80702313549583
 10
185.9857704961609
 20
15.75844135397699
 72
     4
 94
        3
 73
     0
 74
     0
 95
       70
 96
       66
 40
0.0
 40
0.0
 40
0.0
 40
0.0
 40
0.0241731073021472
 40
0.0846058988987013
 40
0.1631685280353284
 40
0.2417311571789756
 40
0.3021639488292751
 40
0.3263370654895541
 40
0.3533118254248934
 40
0.4228783438922271
 40
0.5179999095313775
 40
0.6216398239466635
 40
0.7167613891500416
 40
0.7863279069650716
 40
0.8133026791762724
 40
0.8372943998772564
 40
0.8945054261373762
 40
0.9627895541963539
 40
1.020000580349165
 40
1.043992300975263
 40
1.071934345523008
 40
1.113121768773022
 40
1.145225199332347
 40
1.225483775412892
 40
1.329819923771611
 40
1.434156071994508
 40
1.514414647795939
 40
1.546518078208548
 40
1.578974764260322
 40
1.662678849314317
 40
1.777131373668537
 40
1.901833377474928
 40
2.016285900500718
 40
2.099989982528085
 40
2.132446666570444
 40
2.158782354486168
 40
2.216720867907956
 40
2.274659381334381
 40
2.300995069256313
 40
2.333451754066286
 40
2.417155836543966
 40
2.531608358985406
 40
2.656310362283901
 40
2.770762886389033
 40
2.854466971340198
 40
2.886923657364005
 40
2.913597976833433
 40
2.982389642875223
 40
3.076451716947072
 40
3.178937260458666
 40
3.272999334740053
 40
3.341791001059264
 40
3.36846532066357
 40
3.396976080738791
 40
3.472140811846027
 40
3.578408190308716
 40
3.700226892456153
 40
3.82204559463437
 40
3.928312973256477
 40
4.003477705314874
 40
4.03198845686694
 40
4.058324144797742
 40
4.116262658236908
 40
4.174201171400715
 40
4.200536849608651
 40
4.200536849608651
 40
4.200536849608651
 40
4.200536849608651
 10
185.9857704961609
 20
15.75844135397699
 10
185.9938259544679
 20
15.7584435981168
 10
186.0220200663241
 20
15.75845146032791
 10
186.0765534803672
 20
15.75830754828365
 10
186.1482891808604
 20
15.75909120499892
 10
186.2236240137062
 20
15.75627570463805
 10
186.2713052366438
 20
15.76298403400951
 10
186.3195071245616
 20
15.75197563692427
 10
186.3062571799873
 20
15.80546402997028
 10
186.3151093964538
 20
15.86049583543087
 10
186.3108698036285
 20
15.95419908726106
 10
186.313348348128
 20
16.04959482218531
 10
186.309093870606
 20
16.14356821983388
 10
186.3179818665846
 20
16.19795062438013
 10
186.3046977409945
 20
16.25233997691464
 10
186.3514119277109
 20
16.2384221633536
 10
186.3943254545737
 20
16.24103877374046
 10
186.4605443456684
 20
16.23648422450755
 10
186.5013342271799
 20
16.22778162134162
 10
186.5525145690818
 20
16.23531799890194
 10
186.52537204872
 20
16.19349970223283
 10
186.4803096055707
 20
16.20284992072594
 10
186.4942065045051
 20
16.13841207371835
 10
186.4858414431653
 20
16.07378219627395
 10
186.4903632178398
 20
15.97529141193883
 10
186.4854741311167
 20
15.87595932842565
 10
186.4950258992081
 20
15.81293115552963
 10
186.47997614552
 20
15.74964011499783
 10
186.5449159457208
 20
15.76515072944262
 10
186.6116246399497
 20
15.75499387697806
 10
186.7241435470827
 20
15.75988800099362
 10
186.8390235448954
 20
15.75691204732777
 10
186.9519871999747
 20
15.76221664184985
 10
187.0176267597678
 20
15.75107306472083
 10
187.0816276691053
 20
15.76744532319851
 10
187.0703142889189
 20
15.71761689905269
 10
187.0775339871509
 20
15.67416715212117
 10
187.070314261127
 20
15.63071745587438
 10
187.0816277175994
 20
15.5808889519687
 10
187.0176263598972
 20
15.59726166091356
 10
186.9519921240459
 20
15.58611271661583
 10
186.838997431733
 20
15.59144857206848
 10
186.7242456548644
 20
15.58834345663815
 10
186.611318368686
 20
15.59364894682582
 10
186.5455220903585
 20
15.58257300019587
 10
186.4816097975358
 20
15.59887597847612
 10
186.4936015165126
 20
15.54423524395737
 10
186.4862104613005
 20
15.48854295047837
 10
186.4892684841983
 20
15.39649689140568
 10
186.4893422785683
 20
15.301791098731
 10
186.4860313578359
 20
15.20952782902266
 10
186.4939505989904
 20
15.15435768736141
 10
186.4815076611617
 20
15.10058169100139
 10
186.5389116551632
 20
15.11453768862784
 10
186.5994708140382
 20
15.10511457884229
 10
186.7048680855081
 20
15.10942885928707
 10
186.8204294070622
 20
15.10835504612034
 10
186.9359688877797
 20
15.10725965900997
 10
187.0414181130841
 20
15.11162525770635
 10
187.1018680471803
 20
15.10209426030674
 10
187.1592837739111
 20
15.11617289606382
 10
187.1477773876708
 20
15.06707153265684
 10
187.153756678175
 20
15.02564658018651
 10
187.1520311050801
 20
14.97651677966697
 10
187.1521500122971
 20
14.94854428447609
 10
187.1521871691833
 20
14.93980288195951
 72
     4
 94
        3
 73
     0
 74
     0
 95
       62
 96
       58
 40
0.0
 40
0.0
 40
0.0
 40
0.0
 40
0.0598250028308485
 40
0.2024846486897047
 40
0.3727558389220178
 40
0.5154154847934933
 40
0.5752404975784202
 40
0.9332326775486169
 40
1.290451762839327
 40
1.602077253145672
 40
1.699931634111934
 40
1.799359756424876
 40
2.270120149656947
 40
2.804661928461381
 40
2.882342287383093
 40
3.076543185718949
 40
3.329004354835416
 40
3.581465524568249
 40
3.775666424543534
 40
3.853346784558156
 40
3.899120679594902
 40
3.984129341791899
 40
4.029903236817248
 40
4.105797496059408
 40
4.295533144152381
 40
4.54218948661164
 40
4.788845828875607
 40
4.978581476410003
 40
5.054475735244251
 40
5.621734664339304
 40
6.130867242037334
 40
6.225249780948567
 40
6.318913039727198
 40
6.663579954558752
 40
7.047498900224595
 40
7.435230791575545
 40
7.498943906667957
 40
7.650875181209894
 40
7.832212509001376
 40
7.984143783696762
 40
8.04785689890289
 40
8.0915546327324
 40
8.172707566964068
 40
8.216405300767795
 40
8.28902178216065
 40
8.462184160756996
 40
8.668861838005105
 40
8.84202421526364
 40
8.914640695474835
 40
8.989881580861027
 40
9.155411528826903
 40
9.320941477743656
 40
9.396182352486894
 40
9.454709011143441
 40
9.583467660170376
 40
9.712226309012655
 40
9.770752957989108
 40
9.770752957989108
 40
9.770752957989108
 40
9.770752957989108
 10
187.1521871691833
 20
14.93980288195951
 10
187.1322348171623
 20
14.93980875568673
 10
187.0647037716465
 20
14.93982863806158
 10
186.9410612161788
 20
14.93949362520327
 10
186.7863180150057
 20
14.94107673750513
 10
186.6697349482481
 20
14.93686078860497
 10
186.455094263424
 20
14.95215205331627
 10
186.851894840723
 20
14.59198721286196
 10
186.8945656069267
 20
14.37510503397165
 10
187.3189162146611
 20
14.19325062511453
 10
187.1439821496074
 20
14.08985196568069
 10
187.0194523925084
 20
13.87831523212724
 10
186.7666277235943
 20
14.3480608100156
 10
186.4797602893627
 20
14.9951151698452
 10
186.490633592666
 20
14.68782672154693
 10
186.488289277796
 20
14.52288616971777
 10
186.4861096126411
 20
14.28879670711691
 10
186.4980774396346
 20
14.04498072421781
 10
186.4687984740631
 20
13.89855796860981
 10
186.511452262547
 20
13.75113490174536
 10
186.4239814005639
 20
13.76685797306216
 10
186.3768527606744
 20
13.76694303543452
 10
186.2898973207713
 20
13.75109425482906
 10
186.3313474021722
 20
13.8952777142276
 10
186.3029875004286
 20
14.03855052698454
 10
186.31459737753
 20
14.27674947365265
 10
186.3124175648272
 20
14.50517235240348
 10
186.3103111127993
 20
14.66705729375998
 10
186.3208035438324
 20
14.98153709333758
 10
186.0128963252894
 20
14.29229470872436
 10
185.7055258267455
 20
13.81476750243043
 10
185.5851367066275
 20
14.03741112637427
 10
185.4074607910723
 20
14.15011034955565
 10
185.8853326362894
 20
14.3254814346546
 10
185.9353959057208
 20
14.56091929252031
 10
186.3583799621716
 20
14.95322989344607
 10
186.1276754273541
 20
14.93655307029067
 10
186.0049685859341
 20
14.94269518948771
 10
185.8325483095662
 20
14.93312822699575
 10
185.721322469445
 20
14.95448818489667
 10
185.6025779627448
 20
14.92136265357421
 10
185.6183169706686
 20
15.00203900606886
 10
185.6178550933763
 20
15.04645414290856
 10
185.6027881889931
 20
15.12967081778534
 10
185.7372380935444
 20
15.09062651983887
 10
185.8619755545747
 20
15.11739729328424
 10
186.062875523728
 20
15.10063949044055
 10
186.1921540949353
 20
15.12204225913006
 10
186.3328419928295
 20
15.08868778853423
 10
186.2980927452615
 20
15.22651875785069
 10
186.3222185666713
 20
15.34963257349479
 10
186.2967086182391
 20
15.47024055670331
 10
186.3333251146685
 20
15.60539865141489
 10
186.2211417027769
 20
15.58094545781885
 10
186.1280356457137
 20
15.59307749842017
 10
186.0191547579819
 20
15.58957630069986
 10
185.9569697640964
 20
15.58981755951597
 10
185.9375369557246
 20
15.58989295124138
 97
        3
330
B3
330
B4
330
B2
 75
     1
 76
     2
 52
45.0
 41
0.1
 77
     0
 78
     1
 53
45.0
 43
0.0
 44
0.0
 45
-0.282842712474619
 46
0.0
 79
     0
 98
        1
 10
0.0
 20
0.0
  0
HATCH
  5
D0
330
48
100
AcDbEntity
  8
1
  6
Continuous
 62
     2
100
AcDbHatch
 10
0.0
 20
0.0
 30
0.0
210
0.0
220
0.0
230
1.0
  2
CUSTOM14
 70
     0
 71
     1
 91
        1
 92
        1
 93
        4
 72
     1
 10
192.4578138032673
 20
15.2287543402206
 11
191.1602971697032
 21
15.2287543402206
 72
     1
 10
191.1602971697032
 20
15.2287543402206
 11
191.1602971697032
 21
15.39722336795629
 72
     1
 10
191.1602971697032
 20
15.39722336795629
 11
192.4578138032673
 21
15.39722336795629
 72
     1
 10
192.4578138032673
 20
15.39722336795629
 11
192.4578138032673
 21
15.2287543402206
 97
        1
330
B5
 75
     1
 76
     2
 52
45.0
 41
0.1
 77
     0
 78
     1
 53
45.0
 43
0.0
 44
0.0
 45
-0.282842712474619
 46
0.0
 79
     0
 98
        1
 10
0.0
 20
0.0
  0
ENDBLK
  5
4A
330
48
100
AcDbEntity
  8
0
100
AcDbBlockEnd
  0
BLOCK
  5
4D
330
4B
100
AcDbEntity
  8
0
100
AcDbBlockBegin
  2
開示A4枠
 70
     0
 10
0.0
 20
0.0
 30
0.0
  3
開示A4枠
  1

  0
INSERT
  5
4C
330
4B
100
AcDbEntity
  8
1
100
AcDbBlockReference
  2
開示A4
 10
0.0
 20
0.0
 30
0.0
  0
ENDBLK
  5
4E
330
4B
100
AcDbEntity
  8
0
100
AcDbBlockEnd
  0
BLOCK
  5
50
330
4F
100
AcDbEntity
  8
0
100
AcDbBlockBegin
  2
T206-13-0-M11
 70
     0
 10
102.1030468465573
 20
108.807752637108
 30
0.0
  3
T206-13-0-M11
  1

  0
LINE
  5
D1
330
4F
100
AcDbEntity
  8
1
  6
Continuous
 62
     7
100
AcDbLine
 10
120.2895803260306
 20
121.7455748106169
 30
0.0
 11
120.2895803260306
 21
125.8699304635991
 31
0.0
  0
LINE
  5
D2
330
4F
100
AcDbEntity
  8
1
  6
Continuous
 62
     2
100
AcDbLine
 10
123.5274024995395
 20
108.807752637108
 30
0.0
 11
123.5274024995395
 21
118.307752637108
 31
0.0
  0
LINE
  5
D3
330
4F
100
AcDbEntity
  8
1
  6
Continuous
 62
     2
100
AcDbLine
 10
104.9274024995395
 20
138.807752637108
 30
0.0
 11
104.9274024995395
 21
129.307752637108
 31
0.0
  0
LINE
  5
D4
330
4F
100
AcDbEntity
  8
1
  6
Continuous
 62
     7
100
AcDbLine
 10
103.8274024995395
 20
137.707752637108
 30
0.0
 11
104.9274024995395
 21
138.807752637108
 31
0.0
  0
LINE
  5
D5
330
4F
100
AcDbEntity
  8
1
  6
Continuous
 62
     7
100
AcDbLine
 10
103.8274024995395
 20
137.707752637108
 30
0.0
 11
103.8274024995395
 21
131.2130085254337
 31
0.0
  0
LINE
  5
D6
330
4F
100
AcDbEntity
  8
1
  6
Continuous
 62
     7
100
AcDbLine
 10
104.9274024995395
 20
129.307752637108
 30
0.0
 11
103.8274024995395
 21
131.2130085254337
 31
0.0
  0
LINE
  5
D7
330
4F
100
AcDbEntity
  8
1
  6
Continuous
 62
     7
100
AcDbLine
 10
103.8274024995395
 20
137.707752637108
 30
0.0
 11
124.6274024995395
 21
137.707752637108
 31
0.0
  0
LINE
  5
D8
330
4F
100
AcDbEntity
  8
1
  6
Continuous
 62
     7
100
AcDbLine
 10
104.9274024995395
 20
138.807752637108
 30
0.0
 11
114.2274024995395
 21
138.807752637108
 31
0.0
  0
LINE
  5
D9
330
4F
100
AcDbEntity
  8
1
  6
Continuous
 62
     7
100
AcDbLine
 10
103.8274024995395
 20
131.2130085254337
 30
0.0
 11
124.6274024995395
 21
131.2130085254337
 31
0.0
  0
LINE
  5
DA
330
4F
100
AcDbEntity
  8
1
  6
Continuous
 62
     7
100
AcDbLine
 10
124.7274024995395
 20
126.807752637108
 30
0.0
 11
105.2274024995395
 21
126.807752637108
 31
0.0
  0
LINE
  5
DB
330
4F
100
AcDbEntity
  8
1
  6
Continuous
 62
     7
100
AcDbLine
 10
124.7274024995395
 20
120.807752637108
 30
0.0
 11
103.7274024995395
 21
120.807752637108
 31
0.0
  0
LINE
  5
DC
330
4F
100
AcDbEntity
  8
1
  6
Continuous
 62
     7
100
AcDbLine
 10
103.7274024995395
 20
126.807752637108
 30
0.0
 11
102.1030468465573
 21
125.8699304635991
 31
0.0
  0
LINE
  5
DD
330
4F
100
AcDbEntity
  8
1
  6
Continuous
 62
     7
100
AcDbLine
 10
103.7274024995395
 20
120.807752637108
 30
0.0
 11
102.1030468465573
 21
121.7455748106169
 31
0.0
  0
LINE
  5
DE
330
4F
100
AcDbEntity
  8
1
  6
Continuous
 62
     7
100
AcDbLine
 10
102.1030468465573
 20
125.8699304635991
 30
0.0
 11
102.1030468465573
 21
121.7455748106169
 31
0.0
  0
LINE
  5
DF
330
4F
100
AcDbEntity
  8
1
  6
Continuous
 62
     7
100
AcDbLine
 10
108.1652246730484
 20
125.8699304635991
 30
0.0
 11
108.1652246730484
 21
121.7455748106169
 31
0.0
  0
LINE
  5
E0
330
4F
100
AcDbEntity
  8
1
  6
Continuous
 62
     7
100
AcDbLine
 10
105.2274024995395
 20
129.307752637108
 30
0.0
 11
105.2274024995395
 21
126.807752637108
 31
0.0
  0
LINE
  5
E1
330
4F
100
AcDbEntity
  8
1
  6
Continuous
 62
     7
100
AcDbLine
 10
105.2274024995395
 20
126.807752637108
 30
0.0
 11
103.7274024995395
 21
126.807752637108
 31
0.0
  0
LINE
  5
E2
330
4F
100
AcDbEntity
  8
1
  6
Continuous
 62
     7
100
AcDbLine
 10
123.5274024995395
 20
129.307752637108
 30
0.0
 11
104.9274024995395
 21
129.307752637108
 31
0.0
  0
LINE
  5
E3
330
4F
100
AcDbEntity
  8
1
  6
Continuous
 62
     7
100
AcDbLine
 10
105.2274024995395
 20
120.807752637108
 30
0.0
 11
105.2274024995395
 21
118.307752637108
 31
0.0
  0
LINE
  5
E4
330
4F
100
AcDbEntity
  8
1
  6
Continuous
 62
     7
100
AcDbLine
 10
104.9274024995395
 20
108.807752637108
 30
0.0
 11
103.8274024995395
 21
109.907752637108
 31
0.0
  0
LINE
  5
E5
330
4F
100
AcDbEntity
  8
1
  6
Continuous
 62
     7
100
AcDbLine
 10
124.6274024995395
 20
109.907752637108
 30
0.0
 11
103.8274024995395
 21
109.907752637108
 31
0.0
  0
LINE
  5
E6
330
4F
100
AcDbEntity
  8
1
  6
Continuous
 62
     2
100
AcDbLine
 10
104.9274024995395
 20
118.307752637108
 30
0.0
 11
104.9274024995395
 21
108.807752637108
 31
0.0
  0
LINE
  5
E7
330
4F
100
AcDbEntity
  8
1
  6
Continuous
 62
     7
100
AcDbLine
 10
103.8274024995395
 20
116.4024967487823
 30
0.0
 11
103.8274024995395
 21
109.907752637108
 31
0.0
  0
LINE
  5
E8
330
4F
100
AcDbEntity
  8
1
  6
Continuous
 62
     7
100
AcDbLine
 10
104.9274024995395
 20
118.307752637108
 30
0.0
 11
123.5274024995395
 21
118.307752637108
 31
0.0
  0
LINE
  5
E9
330
4F
100
AcDbEntity
  8
1
  6
Continuous
 62
     7
100
AcDbLine
 10
103.8274024995395
 20
116.4024967487823
 30
0.0
 11
104.9274024995395
 21
118.307752637108
 31
0.0
  0
LINE
  5
EA
330
4F
100
AcDbEntity
  8
1
  6
Continuous
 62
     7
100
AcDbLine
 10
124.6274024995395
 20
116.4024967487823
 30
0.0
 11
103.8274024995395
 21
116.4024967487823
 31
0.0
  0
LINE
  5
EB
330
4F
100
AcDbEntity
  8
1
  6
Continuous
 62
     7
100
AcDbLine
 10
123.5274024995395
 20
108.807752637108
 30
0.0
 11
121.2274024995395
 21
108.807752637108
 31
0.0
  0
LINE
  5
EC
330
4F
100
AcDbEntity
  8
1
  6
Continuous
 62
     7
100
AcDbLine
 10
114.2274024995395
 20
108.807752637108
 30
0.0
 11
104.9274024995395
 21
108.807752637108
 31
0.0
  0
LINE
  5
ED
330
4F
100
AcDbEntity
  8
1
  6
Continuous
 62
     7
100
AcDbLine
 10
121.2274024995395
 20
108.807752637108
 30
0.0
 11
114.2274024995395
 21
108.807752637108
 31
0.0
  0
LINE
  5
EE
330
4F
100
AcDbEntity
  8
1
  6
Continuous
 62
     7
100
AcDbLine
 10
124.6274024995395
 20
131.2130085254337
 30
0.0
 11
124.6274024995395
 21
137.707752637108
 31
0.0
  0
LINE
  5
EF
330
4F
100
AcDbEntity
  8
1
  6
Continuous
 62
     2
100
AcDbLine
 10
123.5274024995395
 20
129.307752637108
 30
0.0
 11
123.5274024995395
 21
138.807752637108
 31
0.0
  0
LINE
  5
F0
330
4F
100
AcDbEntity
  8
1
  6
Continuous
 62
     7
100
AcDbLine
 10
126.3517581525216
 20
125.8699304635991
 30
0.0
 11
124.7274024995395
 21
126.807752637108
 31
0.0
  0
LINE
  5
F1
330
4F
100
AcDbEntity
  8
1
  6
Continuous
 62
     7
100
AcDbLine
 10
124.6274024995395
 20
131.2130085254337
 30
0.0
 11
123.5274024995395
 21
129.307752637108
 31
0.0
  0
LINE
  5
F2
330
4F
100
AcDbEntity
  8
1
  6
Continuous
 62
     7
100
AcDbLine
 10
123.2274024995395
 20
126.807752637108
 30
0.0
 11
123.2274024995395
 21
129.307752637108
 31
0.0
  0
LINE
  5
F3
330
4F
100
AcDbEntity
  8
1
  6
Continuous
 62
     7
100
AcDbLine
 10
124.6274024995395
 20
109.907752637108
 30
0.0
 11
123.5274024995395
 21
108.807752637108
 31
0.0
  0
LINE
  5
F4
330
4F
100
AcDbEntity
  8
1
  6
Continuous
 62
     7
100
AcDbLine
 10
124.6274024995395
 20
109.907752637108
 30
0.0
 11
124.6274024995395
 21
116.4024967487823
 31
0.0
  0
LINE
  5
F5
330
4F
100
AcDbEntity
  8
1
  6
Continuous
 62
     7
100
AcDbLine
 10
126.3517581525216
 20
121.7455748106169
 30
0.0
 11
124.7274024995395
 21
120.807752637108
 31
0.0
  0
LINE
  5
F6
330
4F
100
AcDbEntity
  8
1
  6
Continuous
 62
     7
100
AcDbLine
 10
126.3517581525216
 20
121.7455748106169
 30
0.0
 11
126.3517581525216
 21
125.8699304635991
 31
0.0
  0
LINE
  5
F7
330
4F
100
AcDbEntity
  8
1
  6
Continuous
 62
     7
100
AcDbLine
 10
123.5274024995395
 20
118.307752637108
 30
0.0
 11
124.6274024995395
 21
116.4024967487823
 31
0.0
  0
LINE
  5
F8
330
4F
100
AcDbEntity
  8
1
  6
Continuous
 62
     7
100
AcDbLine
 10
123.2274024995395
 20
118.307752637108
 30
0.0
 11
123.2274024995395
 21
120.807752637108
 31
0.0
  0
LINE
  5
F9
330
4F
100
AcDbEntity
  8
1
  6
Continuous
 62
     7
100
AcDbLine
 10
114.2274024995395
 20
138.807752637108
 30
0.0
 11
123.5274024995395
 21
138.807752637108
 31
0.0
  0
LINE
  5
FA
330
4F
100
AcDbEntity
  8
1
  6
Continuous
 62
     7
100
AcDbLine
 10
123.5274024995395
 20
138.807752637108
 30
0.0
 11
124.6274024995395
 21
137.707752637108
 31
0.0
  0
LINE
  5
FB
330
4F
100
AcDbEntity
  8
1
  6
Continuous
 62
     7
100
AcDbLine
 10
102.1030468465573
 20
178.807752637108
 30
0.0
 11
108.1652246730484
 21
168.307752637108
 31
0.0
  0
LINE
  5
FC
330
4F
100
AcDbEntity
  8
1
  6
Continuous
 62
     7
100
AcDbLine
 10
108.1652246730484
 20
168.307752637108
 30
0.0
 11
120.2895803260306
 21
168.307752637108
 31
0.0
  0
LINE
  5
FD
330
4F
100
AcDbEntity
  8
1
  6
Continuous
 62
     7
100
AcDbLine
 10
120.2895803260306
 20
168.307752637108
 30
0.0
 11
126.3517581525216
 21
178.807752637108
 31
0.0
  0
LINE
  5
FE
330
4F
100
AcDbEntity
  8
1
  6
Continuous
 62
     7
100
AcDbLine
 10
126.3517581525216
 20
178.807752637108
 30
0.0
 11
120.2895803260306
 21
189.307752637108
 31
0.0
  0
LINE
  5
FF
330
4F
100
AcDbEntity
  8
1
  6
Continuous
 62
     7
100
AcDbLine
 10
120.2895803260306
 20
189.307752637108
 30
0.0
 11
108.1652246730484
 21
189.307752637108
 31
0.0
  0
LINE
  5
100
330
4F
100
AcDbEntity
  8
1
  6
Continuous
 62
     7
100
AcDbLine
 10
108.1652246730484
 20
189.307752637108
 30
0.0
 11
102.1030468465573
 21
178.807752637108
 31
0.0
  0
ARC
  5
101
330
4F
100
AcDbEntity
  8
1
  6
Continuous
 62
     7
100
AcDbCircle
 10
123.3206692392761
 20
121.4405248654194
 30
0.0
 40
5.367227771688605
100
AcDbArc
 50
55.61575253195844
 51
124.3842474680415
  0
ARC
  5
102
330
4F
100
AcDbEntity
  8
1
  6
Continuous
 62
     7
100
AcDbCircle
 10
123.3206692392761
 20
126.1749804087966
 30
0.0
 40
5.367227771688605
100
AcDbArc
 50
235.6157525319585
 51
304.3842474680415
  0
ARC
  5
103
330
4F
100
AcDbEntity
  8
1
  6
Continuous
 62
     7
100
AcDbCircle
 10
114.2274024995395
 20
140.869930463599
 30
0.0
 40
20.06217782649099
100
AcDbArc
 50
270.0
 51
287.5879537739939
  0
ARC
  5
104
330
4F
100
AcDbEntity
  8
1
  6
Continuous
 62
     7
100
AcDbCircle
 10
114.2274024995395
 20
106.745574810617
 30
0.0
 40
20.06217782649104
100
AcDbArc
 50
72.41204622600608
 51
90.0
  0
ARC
  5
105
330
4F
100
AcDbEntity
  8
1
  6
Continuous
 62
     7
100
AcDbCircle
 10
105.1341357598029
 20
121.4405248654194
 30
0.0
 40
5.367227771688605
100
AcDbArc
 50
55.61575253195844
 51
124.3842474680424
  0
ARC
  5
106
330
4F
100
AcDbEntity
  8
1
  6
Continuous
 62
     7
100
AcDbCircle
 10
105.1341357598029
 20
126.1749804087966
 30
0.0
 40
5.367227771688661
100
AcDbArc
 50
235.6157525319576
 51
304.3842474680415
  0
ARC
  5
107
330
4F
100
AcDbEntity
  8
1
  6
Continuous
 62
     7
100
AcDbCircle
 10
114.2274024995395
 20
106.745574810617
 30
0.0
 40
20.06217782649099
100
AcDbArc
 50
90.0
 51
107.5879537739939
  0
ARC
  5
108
330
4F
100
AcDbEntity
  8
1
  6
Continuous
 62
     7
100
AcDbCircle
 10
114.2274024995395
 20
140.869930463599
 30
0.0
 40
20.06217782649103
100
AcDbArc
 50
252.4120462260061
 51
270.0
  0
CIRCLE
  5
109
330
4F
100
AcDbEntity
  8
1
  6
Continuous
 62
     7
100
AcDbCircle
 10
114.2274024995395
 20
178.807752637108
 30
0.0
 40
7.0
  0
CIRCLE
  5
10A
330
4F
100
AcDbEntity
  8
1
  6
Continuous
 62
     2
100
AcDbCircle
 10
114.2274024995395
 20
178.807752637108
 30
0.0
 40
9.300000000000011
  0
CIRCLE
  5
10B
330
4F
100
AcDbEntity
  8
1
  6
Continuous
 62
     7
100
AcDbCircle
 10
114.2274024995395
 20
178.807752637108
 30
0.0
 40
10.5
  0
ENDBLK
  5
51
330
4F
100
AcDbEntity
  8
0
100
AcDbBlockEnd
  0
BLOCK
  5
12B
330
124
100
AcDbEntity
  8
0
100
AcDbBlockBegin
  2
*D4
 70
     1
 10
0.0
 20
0.0
 30
0.0
  3
*D4
  1

  0
LINE
  5
125
330
124
100
AcDbEntity
  8
1
  6
Continuous
 62
     2
100
AcDbLine
 10
102.1030468465573
 20
200.307752637108
 30
0.0
 11
126.3517581525216
 21
200.307752637108
 31
0.0
  0
LINE
  5
126
330
124
100
AcDbEntity
  8
1
  6
Continuous
 62
     2
100
AcDbLine
 10
126.3517581525216
 20
178.807752637108
 30
0.0
 11
126.3517581525216
 21
201.307752637108
 31
0.0
  0
LINE
  5
127
330
124
100
AcDbEntity
  8
1
  6
Continuous
 62
     2
100
AcDbLine
 10
102.1030468465573
 20
178.807752637108
 30
0.0
 11
102.1030468465573
 21
201.307752637108
 31
0.0
  0
SOLID
  5
128
330
124
100
AcDbEntity
  8
1
 62
     2
100
AcDbTrace
 10
105.6030468465573
 20
200.7685363786639
 30
0.0
 11
105.6030468465573
 21
199.8469688955521
 31
0.0
 12
102.1030468465573
 22
200.307752637108
 32
0.0
 13
102.1030468465573
 23
200.307752637108
 33
0.0
  0
SOLID
  5
129
330
124
100
AcDbEntity
  8
1
 62
     2
100
AcDbTrace
 10
122.8517581525216
 20
199.8469688955521
 30
0.0
 11
122.8517581525216
 21
200.7685363786639
 31
0.0
 12
126.3517581525216
 22
200.307752637108
 32
0.0
 13
126.3517581525216
 23
200.307752637108
 33
0.0
  0
MTEXT
  5
12A
330
124
100
AcDbEntity
  8
1
 62
     7
100
AcDbMText
 10
111.816212272713
 20
201.307752637108
 30
0.0
 40
3.5
 41
0.0
 71
     7
 72
     1
  1
24
  7
CONVERTER_12
 11
0.9999999999970619
 21
2.424068405545306E-6
 31
0.0
 73
     1
 44
0.60024009603842
  0
ENDBLK
  5
12C
330
124
100
AcDbEntity
  8
0
100
AcDbBlockEnd
  0
BLOCK
  5
136
330
12F
100
AcDbEntity
  8
0
100
AcDbBlockBegin
  2
*D5
 70
     1
 10
0.0
 20
0.0
 30
0.0
  3
*D5
  1

  0
LINE
  5
130
330
12F
100
AcDbEntity
  8
1
  6
Continuous
 62
     2
100
AcDbLine
 10
91.43721613130197
 20
120.807752637108
 30
0.0
 11
91.43721613130197
 21
108.807752637108
 31
0.0
  0
LINE
  5
131
330
12F
100
AcDbEntity
  8
1
  6
Continuous
 62
     2
100
AcDbLine
 10
104.9274024995395
 20
108.807752637108
 30
0.0
 11
90.43721613130197
 21
108.807752637108
 31
0.0
  0
LINE
  5
132
330
12F
100
AcDbEntity
  8
1
  6
Continuous
 62
     2
100
AcDbLine
 10
103.7274024995395
 20
120.807752637108
 30
0.0
 11
90.43721613130197
 21
120.807752637108
 31
0.0
  0
SOLID
  5
133
330
12F
100
AcDbEntity
  8
1
 62
     2
100
AcDbTrace
 10
91.89799987285785
 20
117.307752637108
 30
0.0
 11
90.97643238974608
 21
117.307752637108
 31
0.0
 12
91.43721613130197
 22
120.807752637108
 32
0.0
 13
91.43721613130197
 23
120.807752637108
 33
0.0
  0
SOLID
  5
134
330
12F
100
AcDbEntity
  8
1
 62
     2
100
AcDbTrace
 10
90.97643238974608
 20
112.307752637108
 30
0.0
 11
91.89799987285785
 21
112.307752637108
 31
0.0
 12
91.43721613130197
 22
108.807752637108
 32
0.0
 13
91.43721613130197
 23
108.807752637108
 33
0.0
  0
MTEXT
  5
135
330
12F
100
AcDbEntity
  8
1
 62
     7
100
AcDbMText
 10
90.43721613130197
 20
113.390133674814
 30
0.0
 40
3.5
 41
0.0
 71
     7
 72
     1
  1
12
  7
CONVERTER_12
 11
0.0
 21
1.0
 31
0.0
 73
     1
 44
0.60024009603842
  0
ENDBLK
  5
137
330
12F
100
AcDbEntity
  8
0
100
AcDbBlockEnd
  0
BLOCK
  5
141
330
13A
100
AcDbEntity
  8
0
100
AcDbBlockBegin
  2
*D6
 70
     1
 10
0.0
 20
0.0
 30
0.0
  3
*D6
  1

  0
LINE
  5
13B
330
13A
100
AcDbEntity
  8
1
  6
Continuous
 62
     2
100
AcDbLine
 10
91.43721613130197
 20
138.807752637108
 30
0.0
 11
91.43721613130197
 21
126.807752637108
 31
0.0
  0
LINE
  5
13C
330
13A
100
AcDbEntity
  8
1
  6
Continuous
 62
     2
100
AcDbLine
 10
103.7274024995395
 20
126.807752637108
 30
0.0
 11
90.43721613130197
 21
126.807752637108
 31
0.0
  0
LINE
  5
13D
330
13A
100
AcDbEntity
  8
1
  6
Continuous
 62
     2
100
AcDbLine
 10
104.9274024995395
 20
138.807752637108
 30
0.0
 11
90.43721613130197
 21
138.807752637108
 31
0.0
  0
SOLID
  5
13E
330
13A
100
AcDbEntity
  8
1
 62
     2
100
AcDbTrace
 10
91.89799987285785
 20
135.307752637108
 30
0.0
 11
90.97643238974608
 21
135.307752637108
 31
0.0
 12
91.43721613130197
 22
138.807752637108
 32
0.0
 13
91.43721613130197
 23
138.807752637108
 33
0.0
  0
SOLID
  5
13F
330
13A
100
AcDbEntity
  8
1
 62
     2
100
AcDbTrace
 10
90.97643238974608
 20
130.307752637108
 30
0.0
 11
91.89799987285785
 21
130.307752637108
 31
0.0
 12
91.43721613130197
 22
126.807752637108
 32
0.0
 13
91.43721613130197
 23
126.807752637108
 33
0.0
  0
MTEXT
  5
140
330
13A
100
AcDbEntity
  8
1
 62
     7
100
AcDbMText
 10
90.43721613130197
 20
130.3445170261638
 30
0.0
 40
3.5
 41
0.0
 71
     7
 72
     1
  1
12
  7
CONVERTER_12
 11
0.0
 21
1.0
 31
0.0
 73
     1
 44
0.60024009603842
  0
ENDBLK
  5
142
330
13A
100
AcDbEntity
  8
0
100
AcDbBlockEnd
  0
BLOCK
  5
14C
330
145
100
AcDbEntity
  8
0
100
AcDbBlockBegin
  2
*D7
 70
     1
 10
0.0
 20
0.0
 30
0.0
  3
*D7
  1

  0
LINE
  5
146
330
145
100
AcDbEntity
  8
1
  6
Continuous
 62
     2
100
AcDbLine
 10
84.11711925523117
 20
138.807752637108
 30
0.0
 11
84.11711925523117
 21
108.807752637108
 31
0.0
  0
LINE
  5
147
330
145
100
AcDbEntity
  8
1
  6
Continuous
 62
     2
100
AcDbLine
 10
104.9274024995395
 20
108.807752637108
 30
0.0
 11
83.11711925523117
 21
108.807752637108
 31
0.0
  0
LINE
  5
148
330
145
100
AcDbEntity
  8
1
  6
Continuous
 62
     2
100
AcDbLine
 10
104.9274024995395
 20
138.807752637108
 30
0.0
 11
83.11711925523117
 21
138.807752637108
 31
0.0
  0
SOLID
  5
149
330
145
100
AcDbEntity
  8
1
 62
     2
100
AcDbTrace
 10
84.57790299678706
 20
135.307752637108
 30
0.0
 11
83.65633551367529
 21
135.307752637108
 31
0.0
 12
84.11711925523117
 22
138.807752637108
 32
0.0
 13
84.11711925523117
 23
138.807752637108
 33
0.0
  0
SOLID
  5
14A
330
145
100
AcDbEntity
  8
1
 62
     2
100
AcDbTrace
 10
83.65633551367529
 20
112.307752637108
 30
0.0
 11
84.57790299678706
 21
112.307752637108
 31
0.0
 12
84.11711925523117
 22
108.807752637108
 32
0.0
 13
84.11711925523117
 23
108.807752637108
 33
0.0
  0
MTEXT
  5
14B
330
145
100
AcDbEntity
  8
1
 62
     7
100
AcDbMText
 10
83.11711925523117
 20
121.563622482203
 30
0.0
 40
3.5
 41
0.0
 71
     7
 72
     1
  1
30
  7
CONVERTER_12
 11
0.0
 21
1.0
 31
0.0
 73
     1
 44
0.60024009603842
  0
ENDBLK
  5
14D
330
145
100
AcDbEntity
  8
0
100
AcDbBlockEnd
  0
BLOCK
  5
157
330
150
100
AcDbEntity
  8
0
100
AcDbBlockBegin
  2
*D8
 70
     1
 10
0.0
 20
0.0
 30
0.0
  3
*D8
  1

  0
LINE
  5
151
330
150
100
AcDbEntity
  8
1
  6
Continuous
 62
     2
100
AcDbLine
 10
138.884473939487
 20
189.307752637108
 30
0.0
 11
138.884473939487
 21
168.307752637108
 31
0.0
  0
LINE
  5
152
330
150
100
AcDbEntity
  8
1
  6
Continuous
 62
     2
100
AcDbLine
 10
120.2895803260306
 20
168.307752637108
 30
0.0
 11
139.884473939487
 21
168.307752637108
 31
0.0
  0
LINE
  5
153
330
150
100
AcDbEntity
  8
1
  6
Continuous
 62
     2
100
AcDbLine
 10
120.2895803260306
 20
189.307752637108
 30
0.0
 11
139.884473939487
 21
189.307752637108
 31
0.0
  0
SOLID
  5
154
330
150
100
AcDbEntity
  8
1
 62
     2
100
AcDbTrace
 10
139.3452576810429
 20
185.807752637108
 30
0.0
 11
138.4236901979311
 21
185.807752637108
 31
0.0
 12
138.884473939487
 22
189.307752637108
 32
0.0
 13
138.884473939487
 23
189.307752637108
 33
0.0
  0
SOLID
  5
155
330
150
100
AcDbEntity
  8
1
 62
     2
100
AcDbTrace
 10
138.4236901979311
 20
171.807752637108
 30
0.0
 11
139.3452576810429
 21
171.807752637108
 31
0.0
 12
138.884473939487
 22
168.307752637108
 32
0.0
 13
138.884473939487
 23
168.307752637108
 33
0.0
  0
MTEXT
  5
156
330
150
100
AcDbEntity
  8
1
 62
     7
100
AcDbMText
 10
137.884473939487
 20
175.7785865825063
 30
0.0
 40
3.5
 41
0.0
 71
     7
 72
     1
  1
21
  7
CONVERTER_12
 11
0.0
 21
1.0
 31
0.0
 73
     1
 44
0.60024009603842
  0
ENDBLK
  5
158
330
150
100
AcDbEntity
  8
0
100
AcDbBlockEnd
  0
BLOCK
  5
160
330
15B
100
AcDbEntity
  8
0
100
AcDbBlockBegin
  2
*D9
 70
     1
 10
0.0
 20
0.0
 30
0.0
  3
*D9
  1

  0
LINE
  5
15C
330
15B
100
AcDbEntity
  8
0
  6
Continuous
 62
     2
100
AcDbLine
 10
124.3716352996317
 20
185.6748510707649
 30
0.0
 11
96.00681889728031
 21
166.4734003424474
 31
0.0
  0
SOLID
  5
15D
330
15B
100
AcDbEntity
  8
0
 62
     2
100
AcDbTrace
 10
105.7906517165946
 20
172.5400929556191
 30
0.0
 11
105.2740399108977
 21
173.3032435751849
 31
0.0
 12
108.4306980423439
 22
174.883696389304
 32
0.0
 13
108.4306980423439
 23
174.883696389304
 33
0.0
  0
SOLID
  5
15E
330
15B
100
AcDbEntity
  8
0
 62
     2
100
AcDbTrace
 10
122.6641532824844
 20
185.0754123185968
 30
0.0
 11
123.1807650881812
 21
184.312261699031
 31
0.0
 12
120.024106956735
 22
182.7318088849119
 32
0.0
 13
120.024106956735
 23
182.7318088849119
 33
0.0
  0
MTEXT
  5
15F
330
15B
100
AcDbEntity
  8
0
 62
     7
100
AcDbMText
 10
96.54761328017547
 20
168.0470716662724
 30
0.0
 40
3.5
 41
0.0
 71
     7
 72
     1
  1
\C7;{\Fgdt;n}\C7;14
  7
CONVERTER_12
 11
0.8281006367422223
 21
0.560579463971992
 31
0.0
 73
     1
 44
0.60024009603842
  0
ENDBLK
  5
161
330
15B
100
AcDbEntity
  8
0
100
AcDbBlockEnd
  0
ENDSEC
  0
SECTION
  2
ENTITIES
  0
INSERT
  5
52
330
1F
100
AcDbEntity
  8
0
100
AcDbBlockReference
  2
開示A4枠
 10
0.0
 20
0.0
 30
0.0
  0
INSERT
  5
53
330
1F
100
AcDbEntity
  8
1
100
AcDbBlockReference
  2
T206-13-0-M11
 10
102.1030468465573
 20
108.807752637108
 30
0.0
  0
LINE
  5
10C
330
1F
100
AcDbEntity
  8
1
  6
DASH_CENTER
 62
     2
100
AcDbLine
 10
121.2274024995395
 20
178.807752637108
 30
0.0
 11
123.5274024995395
 21
178.807752637108
 31
0.0
  0
LINE
  5
10D
330
1F
100
AcDbEntity
  8
1
  6
DASH_CENTER
 62
     2
100
AcDbLine
 10
123.5274024995395
 20
178.807752637108
 30
0.0
 11
129.4352985256805
 21
178.807752637108
 31
0.0
  0
LINE
  5
10E
330
1F
100
AcDbEntity
  8
1
  6
DASH_CENTER
 62
     2
100
AcDbLine
 10
114.2274024995395
 20
142.140578841893
 30
0.0
 11
114.2274024995395
 21
105.140578841893
 31
0.0
  0
LINE
  5
10F
330
1F
100
AcDbEntity
  8
1
  6
DASH_CENTER
 62
     2
100
AcDbLine
 10
99.43529852568048
 20
178.807752637108
 30
0.0
 11
121.2274024995395
 21
178.807752637108
 31
0.0
  0
LINE
  5
110
330
1F
100
AcDbEntity
  8
1
  6
DASH_CENTER
 62
     2
100
AcDbLine
 10
114.2274024995395
 20
192.2830543649113
 30
0.0
 11
114.2274024995395
 21
165.2830543649113
 31
0.0
  0
SOLID
  5
111
330
1F
100
AcDbEntity
  8
1
 62
     2
100
AcDbTrace
 10
102.4764529253777
 20
109.4004605236375
 30
0.0
 11
101.6783520737013
 21
109.8612442651934
 31
0.0
 12
103.8274024995395
 22
112.661941307661
 32
0.0
 13
103.8274024995395
 23
112.661941307661
 33
0.0
  0
LEADER
  5
112
330
1F
100
AcDbEntity
  8
1
  6
Continuous
 62
     2
100
AcDbLeader
  3
Standard
 71
     0
 76
     3
 10
103.8274024995395
 20
112.661941307661
 30
0.0
 10
95.15684331457805
 20
97.64409226927481
 30
0.0
 10
80.61288902465827
 20
97.64409226927481
 30
0.0
  0
SOLID
  5
113
330
1F
100
AcDbEntity
  8
1
 62
     2
100
AcDbTrace
 10
125.9783520737012
 20
137.7218613652944
 30
0.0
 11
126.7764529253777
 21
137.2610776237385
 31
0.0
 12
124.6274024995395
 22
134.4603805812709
 32
0.0
 13
124.6274024995395
 23
134.4603805812709
 33
0.0
  0
LEADER
  5
114
330
1F
100
AcDbEntity
  8
1
  6
Continuous
 62
     2
100
AcDbLeader
  3
Standard
 71
     0
 76
     3
 10
124.6274024995395
 20
134.4603805812709
 30
0.0
 10
130.0241102721926
 20
143.807752637108
 30
0.0
 10
143.9129952371968
 20
143.807752637108
 30
0.0
  0
MTEXT
  5
116
330
1F
100
AcDbEntity
  8
1
 62
     7
100
AcDbMText
 10
157.5
 20
12.5
 30
0.0
 40
2.5
 41
0.0
 71
     5
 72
     1
  1
10
  7
CONVERTER_12
 73
     1
 44
0.7202881152461
  0
MTEXT
  5
117
330
1F
100
AcDbEntity
  8
1
 62
     7
100
AcDbMText
 10
151.75
 20
12.5
 30
0.0
 40
2.5
 41
0.0
 71
     5
 72
     1
  1
03
  7
CONVERTER_12
 73
     1
 44
0.7202881152461
  0
MTEXT
  5
118
330
1F
100
AcDbEntity
  8
1
 62
     7
100
AcDbMText
 10
140.5
 20
12.5
 30
0.0
 40
2.5
 41
0.0
 71
     5
 72
     1
  1
10
  7
CONVERTER_12
 73
     1
 44
0.7202881152461
  0
MTEXT
  5
119
330
1F
100
AcDbEntity
  8
1
 62
     7
100
AcDbMText
 10
134.75
 20
12.5
 30
0.0
 40
2.5
 41
0.0
 71
     5
 72
     1
  1
03
  7
CONVERTER_12
 73
     1
 44
0.7202881152461
  0
MTEXT
  5
11A
330
1F
100
AcDbEntity
  8
1
 62
     7
100
AcDbMText
 10
123.5
 20
12.5
 30
0.0
 40
2.5
 41
0.0
 71
     5
 72
     1
  1
10
  7
CONVERTER_12
 73
     1
 44
0.7202881152461
  0
MTEXT
  5
11B
330
1F
100
AcDbEntity
  8
1
 62
     7
100
AcDbMText
 10
117.75
 20
12.5
 30
0.0
 40
2.5
 41
0.0
 71
     5
 72
     1
  1
03
  7
CONVERTER_12
 73
     1
 44
0.7202881152461
  0
MTEXT
  5
11C
330
1F
100
AcDbEntity
  8
1
 62
     7
100
AcDbMText
 10
100.75
 20
12.5
 30
0.0
 40
2.5
 41
0.0
 71
     5
 72
     1
  1
03
  7
CONVERTER_12
 73
     1
 44
0.7202881152461
  0
MTEXT
  5
11D
330
1F
100
AcDbEntity
  8
1
 62
     7
100
AcDbMText
 10
106.5
 20
12.5
 30
0.0
 40
2.5
 41
0.0
 71
     5
 72
     1
  1
10
  7
CONVERTER_12
 73
     1
 44
0.7202881152461
  0
MTEXT
  5
11E
330
1F
100
AcDbEntity
  8
1
 62
     7
100
AcDbMText
 10
86.97968721530506
 20
100.7095828263537
 30
0.0
 40
3.0
 41
0.0
 71
     5
 72
     1
  1
G1/2
  7
CONVERTER_12
 73
     1
 44
1.32052821128451
  0
MTEXT
  5
11F
330
1F
100
AcDbEntity
  8
1
 62
     7
100
AcDbMText
 10
137.4796872153051
 20
146.7095828263537
 30
0.0
 40
3.0
 41
0.0
 71
     5
 72
     1
  1
G1/2
  7
CONVERTER_12
 73
     1
 44
1.32052821128451
  0
MTEXT
  5
120
330
1F
100
AcDbEntity
  8
1
 62
     7
100
AcDbMText
 10
93.75000000000003
 20
17.0
 30
0.0
 40
3.5
 41
0.0
 71
     5
 72
     1
  1
1
  7
CONVERTER_12
 73
     1
 44
0.7202881152461
  0
MTEXT
  5
121
330
1F
100
AcDbEntity
  8
1
 62
     7
100
AcDbMText
 10
57.00000000000001
 20
14.25
 30
0.0
 40
3.5
 41
0.0
 71
     5
 72
     1
  1
T206-13
  7
CONVERTER_12
 73
     1
 44
0.7202881152461
  0
MTEXT
  5
122
330
1F
100
AcDbEntity
  8
1
 62
     7
100
AcDbMText
 10
57.00000000000001
 20
22.75
 30
0.0
 40
3.5
 41
0.0
 71
     5
 72
     1
  1
平行ニップル
  7
CONVERTER_11
 73
     1
 44
0.54545454545455
  0
MTEXT
  5
123
330
1F
100
AcDbEntity
  8
1
 62
     7
100
AcDbMText
 10
85.25000000000003
 20
17.0
 30
0.0
 40
3.5
 41
0.0
 71
     5
 72
     1
  1
1
  7
CONVERTER_12
 73
     1
 44
0.7202881152461
  0
DIMENSION
  5
12E
330
1F
100
AcDbEntity
  8
1
100
AcDbDimension
  2
*D4
 10
102.1030468465573
 20
200.307752637108
 30
0.0
 11
114.441212272713
 21
203.057752637108
 31
0.0
 70
    32
  1
24
 71
     5
 42
-1.0
 53
0.00013888888889
  3
ME10_DIM_10
100
AcDbAlignedDimension
 13
126.3517581525216
 23
178.807752637108
 33
0.0
 14
102.1030468465573
 24
178.807752637108
 34
0.0
100
AcDbRotatedDimension
  0
DIMENSION
  5
139
330
1F
100
AcDbEntity
  8
1
100
AcDbDimension
  2
*D5
 10
91.43721613130197
 20
120.807752637108
 30
0.0
 11
88.68721613130197
 21
115.490133674814
 31
0.0
 70
    32
  1
<>
 71
     5
 42
-1.0
 53
90.0
  3
ME10_DIM_11
100
AcDbAlignedDimension
 13
104.9274024995395
 23
108.807752637108
 33
0.0
 14
103.7274024995395
 24
120.807752637108
 34
0.0
 50
90.0
100
AcDbRotatedDimension
  0
DIMENSION
  5
144
330
1F
100
AcDbEntity
  8
1
100
AcDbDimension
  2
*D6
 10
91.43721613130197
 20
138.807752637108
 30
0.0
 11
88.68721613130197
 21
132.4445170261638
 31
0.0
 70
    32
  1
<>
 71
     5
 42
-1.0
 53
90.0
  3
ME10_DIM_12
100
AcDbAlignedDimension
 13
103.7274024995395
 23
126.807752637108
 33
0.0
 14
104.9274024995395
 24
138.807752637108
 34
0.0
 50
90.0
100
AcDbRotatedDimension
  0
DIMENSION
  5
14F
330
1F
100
AcDbEntity
  8
1
100
AcDbDimension
  2
*D7
 10
84.11711925523117
 20
138.807752637108
 30
0.0
 11
81.36711925523117
 21
124.188622482203
 31
0.0
 70
    33
  1
<>
 71
     5
 42
-1.0
 53
90.0
  3
ME10_DIM_13
100
AcDbAlignedDimension
 13
104.9274024995395
 23
108.807752637108
 33
0.0
 14
104.9274024995395
 24
138.807752637108
 34
0.0
  0
DIMENSION
  5
15A
330
1F
100
AcDbEntity
  8
1
100
AcDbDimension
  2
*D8
 10
138.884473939487
 20
189.307752637108
 30
0.0
 11
136.134473939487
 21
177.8785865825063
 31
0.0
 70
    33
  1
<>
 71
     5
 42
-1.0
 53
90.0
  3
ME10_DIM_14
100
AcDbAlignedDimension
 13
120.2895803260306
 23
168.307752637108
 33
0.0
 14
120.2895803260306
 24
189.307752637108
 34
0.0
  0
INSERT
  5
162
330
1F
100
AcDbEntity
  8
0
100
AcDbBlockReference
  2
*D9
 10
0.0
 20
0.0
 30
0.0
  0
ENDSEC
  0
SECTION
  2
OBJECTS
  0
DICTIONARY
  5
C
330
0
100
AcDbDictionary
281
     1
  3
ACAD_GROUP
350
D
  3
ACAD_LAYOUT
350
1A
  3
ACAD_MATERIAL
350
3B
  3
ACAD_MLEADERSTYLE
350
165
  3
ACAD_MLINESTYLE
350
17
  3
ACAD_PLOTSETTINGS
350
19
  3
ACAD_PLOTSTYLENAME
350
E
  3
ACAD_VISUALSTYLE
350
2A
  3
AcDbVariableDictionary
350
163
  0
DICTIONARY
  5
D
102
{ACAD_REACTORS
330
C
102
}
330
C
100
AcDbDictionary
281
     1
  0
DICTIONARY
  5
1A
102
{ACAD_REACTORS
330
C
102
}
330
C
100
AcDbDictionary
281
     1
  3
Layout1
350
1E
  3
Layout2
350
26
  3
Model
350
22
  0
DICTIONARY
  5
3B
102
{ACAD_REACTORS
330
C
102
}
330
C
100
AcDbDictionary
281
     1
  3
ByBlock
350
3D
  3
ByLayer
350
3C
  3
Global
350
3E
  0
DICTIONARY
  5
165
102
{ACAD_REACTORS
330
C
102
}
330
C
100
AcDbDictionary
281
     1
  0
DICTIONARY
  5
17
102
{ACAD_REACTORS
330
C
102
}
330
C
100
AcDbDictionary
281
     1
  3
Standard
350
18
  0
DICTIONARY
  5
19
102
{ACAD_REACTORS
330
C
102
}
330
C
100
AcDbDictionary
281
     1
  0
ACDBDICTIONARYWDFLT
  5
E
102
{ACAD_REACTORS
330
C
102
}
330
C
100
AcDbDictionary
281
     1
  3
Normal
350
F
100
AcDbDictionaryWithDefault
340
F
  0
DICTIONARY
  5
2A
102
{ACAD_REACTORS
330
C
102
}
330
C
100
AcDbDictionary
281
     1
  3
2dWireframe
350
2F
  3
3D Hidden
350
31
  3
3dWireframe
350
30
  3
Basic
350
32
  3
Brighten
350
36
  3
ColorChange
350
3A
  3
Conceptual
350
34
  3
Dim
350
35
  3
Facepattern
350
39
  3
Flat
350
2B
  3
FlatWithEdges
350
2C
  3
Gouraud
350
2D
  3
GouraudWithEdges
350
2E
  3
Linepattern
350
38
  3
Realistic
350
33
  3
Thicken
350
37
  0
DICTIONARY
  5
163
102
{ACAD_REACTORS
330
C
102
}
330
C
100
AcDbDictionary
281
     1
  3
DIMASSOC
350
166
  3
HIDETEXT
350
167
  0
LAYOUT
  5
1E
102
{ACAD_REACTORS
330
1A
102
}
330
1A
100
AcDbPlotSettings
  1

  2
none_device
  4

  6

 40
0.0
 41
0.0
 42
0.0
 43
0.0
 44
0.0
 45
0.0
 46
0.0
 47
0.0
 48
0.0
 49
0.0
140
0.0
141
0.0
142
1.0
143
1.0
 70
   688
 72
     0
 73
     0
 74
     5
  7

 75
    16
147
1.0
148
0.0
149
0.0
100
AcDbLayout
  1
Layout1
 70
     1
 71
     1
 10
0.0
 20
0.0
 11
12.0
 21
9.0
 12
0.0
 22
0.0
 32
0.0
 14
1.00000000000000E+20
 24
1.00000000000000E+20
 34
1.00000000000000E+20
 15
-1.00000000000000E+20
 25
-1.00000000000000E+20
 35
-1.00000000000000E+20
146
0.0
 13
0.0
 23
0.0
 33
0.0
 16
1.0
 26
0.0
 36
0.0
 17
0.0
 27
1.0
 37
0.0
 76
     0
330
1B
  0
LAYOUT
  5
26
102
{ACAD_REACTORS
330
1A
102
}
330
1A
100
AcDbPlotSettings
  1

  2
none_device
  4

  6

 40
0.0
 41
0.0
 42
0.0
 43
0.0
 44
0.0
 45
0.0
 46
0.0
 47
0.0
 48
0.0
 49
0.0
140
0.0
141
0.0
142
1.0
143
1.0
 70
   688
 72
     0
 73
     0
 74
     5
  7

 75
    16
147
1.0
148
0.0
149
0.0
100
AcDbLayout
  1
Layout2
 70
     1
 71
     2
 10
0.0
 20
0.0
 11
0.0
 21
0.0
 12
0.0
 22
0.0
 32
0.0
 14
0.0
 24
0.0
 34
0.0
 15
0.0
 25
0.0
 35
0.0
146
0.0
 13
0.0
 23
0.0
 33
0.0
 16
1.0
 26
0.0
 36
0.0
 17
0.0
 27
1.0
 37
0.0
 76
     0
330
23
  0
LAYOUT
  5
22
102
{ACAD_REACTORS
330
1A
102
}
330
1A
100
AcDbPlotSettings
  1

  2
none_device
  4

  6

 40
0.0
 41
0.0
 42
0.0
 43
0.0
 44
0.0
 45
0.0
 46
0.0
 47
0.0
 48
0.0
 49
0.0
140
0.0
141
0.0
142
1.0
143
1.0
 70
  1712
 72
     0
 73
     0
 74
     0
  7

 75
     0
147
1.0
148
0.0
149
0.0
100
AcDbLayout
  1
Model
 70
     1
 71
     0
 10
0.0
 20
0.0
 11
12.0
 21
9.0
 12
0.0
 22
0.0
 32
0.0
 14
0.0
 24
0.0
 34
0.0
 15
210.0000000000001
 25
297.0
 35
0.0
146
0.0
 13
0.0
 23
0.0
 33
0.0
 16
1.0
 26
0.0
 36
0.0
 17
0.0
 27
1.0
 37
0.0
 76
     0
330
1F
331
29
  0
MATERIAL
  5
3D
102
{ACAD_REACTORS
330
3B
102
}
102
{ACAD_XDICTIONARY
360
18A
102
}
330
3B
100
AcDbMaterial
  1
ByBlock
  0
MATERIAL
  5
3C
102
{ACAD_REACTORS
330
3B
102
}
102
{ACAD_XDICTIONARY
360
188
102
}
330
3B
100
AcDbMaterial
  1
ByLayer
  0
MATERIAL
  5
3E
102
{ACAD_REACTORS
330
3B
102
}
102
{ACAD_XDICTIONARY
360
18C
102
}
330
3B
100
AcDbMaterial
  1
Global
  0
MLINESTYLE
  5
18
102
{ACAD_REACTORS
330
17
102
}
330
17
100
AcDbMlineStyle
  2
Standard
 70
     0
  3

 62
   256
 51
90.0
 52
90.0
 71
     2
 49
0.5
 62
   256
  6
BYLAYER
 49
-0.5
 62
   256
  6
BYLAYER
  0
ACDBPLACEHOLDER
  5
F
102
{ACAD_REACTORS
330
E
102
}
330
E
  0
VISUALSTYLE
  5
2F
102
{ACAD_REACTORS
330
2A
102
}
102
{ACAD_XDICTIONARY
360
170
102
}
330
2A
100
AcDbVisualStyle
  2
2dWireframe
 70
     4
 71
     0
 72
     2
 73
     0
 90
        0
 40
-0.6
 41
-30.0
 62
     5
 63
     7
 74
     1
 91
        4
 64
     7
 65
   257
 75
     1
175
     1
 42
1.0
 92
        0
 66
   257
 43
1.0
 76
     1
 77
     6
 78
     2
 67
     7
 79
     5
170
     0
171
     0
290
     0
174
     0
 93
        1
 44
0.0
173
     0
291
     0
 45
0.0
1001
ACAD
1000
AcDbSavedByObjectVersion
1070
     0
  0
VISUALSTYLE
  5
31
102
{ACAD_REACTORS
330
2A
102
}
102
{ACAD_XDICTIONARY
360
174
102
}
330
2A
100
AcDbVisualStyle
  2
3D Hidden
 70
     6
 71
     1
 72
     2
 73
     2
 90
        0
 40
-0.6
 41
-30.0
 62
     5
 63
     7
 74
     2
 91
        2
 64
     7
 65
   257
 75
     2
175
     1
 42
40.0
 92
        0
 66
   257
 43
1.0
 76
     1
 77
     6
 78
     2
 67
     7
 79
     3
170
     0
171
     0
290
     0
174
     0
 93
        1
 44
0.0
173
     0
291
     0
 45
0.0
1001
ACAD
1000
AcDbSavedByObjectVersion
1070
     0
  0
VISUALSTYLE
  5
30
102
{ACAD_REACTORS
330
2A
102
}
102
{ACAD_XDICTIONARY
360
172
102
}
330
2A
100
AcDbVisualStyle
  2
3dWireframe
 70
     5
 71
     0
 72
     2
 73
     0
 90
        0
 40
-0.6
 41
-30.0
 62
     5
 63
     7
 74
     1
 91
        4
 64
     7
 65
   257
 75
     1
175
     1
 42
1.0
 92
        0
 66
   257
 43
1.0
 76
     1
 77
     6
 78
     2
 67
     7
 79
     5
170
     0
171
     0
290
     0
174
     0
 93
        1
 44
0.0
173
     0
291
     0
 45
0.0
1001
ACAD
1000
AcDbSavedByObjectVersion
1070
     0
  0
VISUALSTYLE
  5
32
102
{ACAD_REACTORS
330
2A
102
}
102
{ACAD_XDICTIONARY
360
176
102
}
330
2A
100
AcDbVisualStyle
  2
Basic
 70
     7
 71
     1
 72
     0
 73
     1
 90
        0
 40
-0.6
 41
-30.0
 62
     5
 63
     7
 74
     0
 91
        4
 64
     7
 65
   257
 75
     1
175
     1
 42
1.0
 92
        8
 66
     7
 43
1.0
 76
     1
 77
     6
 78
     2
 67
     7
 79
     5
170
     0
171
     0
290
     0
174
     0
 93
        1
 44
0.0
173
     0
291
     1
 45
0.0
1001
ACAD
1000
AcDbSavedByObjectVersion
1070
     0
  0
VISUALSTYLE
  5
36
102
{ACAD_REACTORS
330
2A
102
}
102
{ACAD_XDICTIONARY
360
17E
102
}
330
2A
100
AcDbVisualStyle
  2
Brighten
 70
    12
 71
     2
 72
     2
 73
     0
 90
        0
 40
-0.6
 41
-30.0
 62
     5
 63
     7
 74
     1
 91
        4
 64
     7
 65
   257
 75
     1
175
     1
 42
1.0
 92
        8
 66
     7
 43
1.0
 76
     1
 77
     6
 78
     2
 67
     7
 79
     5
170
     0
171
     0
290
     0
174
     0
 93
        1
 44
50.0
173
     0
291
     1
 45
0.0
1001
ACAD
1000
AcDbSavedByObjectVersion
1070
     0
  0
VISUALSTYLE
  5
3A
102
{ACAD_REACTORS
330
2A
102
}
102
{ACAD_XDICTIONARY
360
186
102
}
330
2A
100
AcDbVisualStyle
  2
ColorChange
 70
    16
 71
     2
 72
     2
 73
     3
 90
        0
 40
-0.6
 41
-30.0
 62
     5
 63
     8
 74
     1
 91
        4
 64
     7
 65
   257
 75
     1
175
     1
 42
1.0
 92
        8
 66
     8
 43
1.0
 76
     1
 77
     6
 78
     2
 67
     7
 79
     5
170
     0
171
     0
290
     0
174
     0
 93
        1
 44
0.0
173
     0
291
     1
 45
0.0
1001
ACAD
1000
AcDbSavedByObjectVersion
1070
     0
  0
VISUALSTYLE
  5
34
102
{ACAD_REACTORS
330
2A
102
}
102
{ACAD_XDICTIONARY
360
17A
102
}
330
2A
100
AcDbVisualStyle
  2
Conceptual
 70
     9
 71
     3
 72
     2
 73
     0
 90
        0
 40
-0.6
 41
-30.0
 62
     5
 63
     7
 74
     2
 91
        2
 64
     7
 65
   257
 75
     1
175
     1
 42
40.0
 92
        8
 66
     7
 43
1.0
 76
     1
 77
     6
 78
     2
 67
     7
 79
     3
170
     0
171
     0
290
     0
174
     0
 93
        1
 44
0.0
173
     0
291
     0
 45
0.0
1001
ACAD
1000
AcDbSavedByObjectVersion
1070
     0
  0
VISUALSTYLE
  5
35
102
{ACAD_REACTORS
330
2A
102
}
102
{ACAD_XDICTIONARY
360
17C
102
}
330
2A
100
AcDbVisualStyle
  2
Dim
 70
    11
 71
     2
 72
     2
 73
     0
 90
        0
 40
-0.6
 41
-30.0
 62
     5
 63
     7
 74
     1
 91
        4
 64
     7
 65
   257
 75
     1
175
     1
 42
1.0
 92
        8
 66
     7
 43
1.0
 76
     1
 77
     6
 78
     2
 67
     7
 79
     5
170
     0
171
     0
290
     0
174
     0
 93
        1
 44
-50.0
173
     0
291
     1
 45
0.0
1001
ACAD
1000
AcDbSavedByObjectVersion
1070
     0
  0
VISUALSTYLE
  5
39
102
{ACAD_REACTORS
330
2A
102
}
102
{ACAD_XDICTIONARY
360
184
102
}
330
2A
100
AcDbVisualStyle
  2
Facepattern
 70
    15
 71
     2
 72
     2
 73
     0
 90
        0
 40
-0.6
 41
-30.0
 62
     5
 63
     7
 74
     1
 91
        4
 64
     7
 65
   257
 75
     1
175
     1
 42
1.0
 92
        8
 66
     7
 43
1.0
 76
     1
 77
     6
 78
     2
 67
     7
 79
     5
170
     0
171
     0
290
     0
174
     0
 93
        1
 44
0.0
173
     0
291
     1
 45
0.0
1001
ACAD
1000
AcDbSavedByObjectVersion
1070
     0
  0
VISUALSTYLE
  5
2B
102
{ACAD_REACTORS
330
2A
102
}
102
{ACAD_XDICTIONARY
360
168
102
}
330
2A
100
AcDbVisualStyle
  2
Flat
 70
     0
 71
     2
 72
     1
 73
     1
 90
        2
 40
-0.6
 41
30.0
 62
     5
 63
     7
 74
     0
 91
        4
 64
     7
 65
   257
 75
     1
175
     1
 42
1.0
 92
        8
 66
     7
 43
1.0
 76
     1
 77
     6
 78
     2
 67
     7
 79
     5
170
     0
171
     0
290
     0
174
     0
 93
       13
 44
0.0
173
     0
291
     1
 45
0.0
1001
ACAD
1000
AcDbSavedByObjectVersion
1070
     0
  0
VISUALSTYLE
  5
2C
102
{ACAD_REACTORS
330
2A
102
}
102
{ACAD_XDICTIONARY
360
16A
102
}
330
2A
100
AcDbVisualStyle
  2
FlatWithEdges
 70
     1
 71
     2
 72
     1
 73
     1
 90
        2
 40
-0.6
 41
30.0
 62
     5
 63
     7
 74
     1
 91
        4
 64
     7
 65
   257
 75
     1
175
     1
 42
1.0
 92
        0
 66
   257
 43
1.0
 76
     1
 77
     6
 78
     2
 67
     7
 79
     5
170
     0
171
     0
290
     0
174
     0
 93
       13
 44
0.0
173
     0
291
     1
 45
0.0
1001
ACAD
1000
AcDbSavedByObjectVersion
1070
     0
  0
VISUALSTYLE
  5
2D
102
{ACAD_REACTORS
330
2A
102
}
102
{ACAD_XDICTIONARY
360
16C
102
}
330
2A
100
AcDbVisualStyle
  2
Gouraud
 70
     2
 71
     2
 72
     2
 73
     1
 90
        2
 40
-0.6
 41
30.0
 62
     5
 63
     7
 74
     0
 91
        4
 64
     7
 65
   257
 75
     1
175
     1
 42
1.0
 92
        0
 66
     7
 43
1.0
 76
     1
 77
     6
 78
     2
 67
     7
 79
     5
170
     0
171
     0
290
     0
174
     0
 93
       13
 44
0.0
173
     0
291
     1
 45
0.0
1001
ACAD
1000
AcDbSavedByObjectVersion
1070
     0
  0
VISUALSTYLE
  5
2E
102
{ACAD_REACTORS
330
2A
102
}
102
{ACAD_XDICTIONARY
360
16E
102
}
330
2A
100
AcDbVisualStyle
  2
GouraudWithEdges
 70
     3
 71
     2
 72
     2
 73
     1
 90
        2
 40
-0.6
 41
30.0
 62
     5
 63
     7
 74
     1
 91
        4
 64
     7
 65
   257
 75
     1
175
     1
 42
1.0
 92
        0
 66
   257
 43
1.0
 76
     1
 77
     6
 78
     2
 67
     7
 79
     5
170
     0
171
     0
290
     0
174
     0
 93
       13
 44
0.0
173
     0
291
     1
 45
0.0
1001
ACAD
1000
AcDbSavedByObjectVersion
1070
     0
  0
VISUALSTYLE
  5
38
102
{ACAD_REACTORS
330
2A
102
}
102
{ACAD_XDICTIONARY
360
182
102
}
330
2A
100
AcDbVisualStyle
  2
Linepattern
 70
    14
 71
     2
 72
     2
 73
     0
 90
        0
 40
-0.6
 41
-30.0
 62
     5
 63
     7
 74
     1
 91
        4
 64
     7
 65
   257
 75
     7
175
     7
 42
1.0
 92
        8
 66
     7
 43
1.0
 76
     1
 77
     6
 78
     2
 67
     7
 79
     5
170
     0
171
     0
290
     0
174
     0
 93
        1
 44
0.0
173
     0
291
     1
 45
0.0
1001
ACAD
1000
AcDbSavedByObjectVersion
1070
     0
  0
VISUALSTYLE
  5
33
102
{ACAD_REACTORS
330
2A
102
}
102
{ACAD_XDICTIONARY
360
178
102
}
330
2A
100
AcDbVisualStyle
  2
Realistic
 70
     8
 71
     2
 72
     2
 73
     0
 90
        0
 40
-0.6
 41
-30.0
 62
     5
 63
     7
 74
     1
 91
        0
 64
     7
 65
   257
 75
     1
175
     1
 42
1.0
 92
        8
 66
     8
 43
1.0
 76
     1
 77
     6
 78
     2
 67
     7
 79
     5
170
     0
171
     0
290
     0
174
     0
 93
       13
 44
0.0
173
     0
291
     0
 45
0.0
1001
ACAD
1000
AcDbSavedByObjectVersion
1070
     0
  0
VISUALSTYLE
  5
37
102
{ACAD_REACTORS
330
2A
102
}
102
{ACAD_XDICTIONARY
360
180
102
}
330
2A
100
AcDbVisualStyle
  2
Thicken
 70
    13
 71
     2
 72
     2
 73
     0
 90
        0
 40
-0.6
 41
-30.0
 62
     5
 63
     7
 74
     1
 91
        4
 64
     7
 65
   257
 75
     1
175
     1
 42
1.0
 92
       12
 66
     7
 43
1.0
 76
     1
 77
     6
 78
     2
 67
     7
 79
     5
170
     0
171
     0
290
     0
174
     0
 93
        1
 44
0.0
173
     0
291
     1
 45
0.0
1001
ACAD
1000
AcDbSavedByObjectVersion
1070
     0
  0
DICTIONARYVAR
  5
166
102
{ACAD_REACTORS
330
163
102
}
330
163
100
DictionaryVariables
280
     0
  1
2
  0
DICTIONARYVAR
  5
167
102
{ACAD_REACTORS
330
163
102
}
330
163
100
DictionaryVariables
280
     0
  1
1
  0
DICTIONARY
  5
18A
330
3D
100
AcDbDictionary
280
     1
281
     1
  3
ACAD_XREC_ROUNDTRIP
360
18B
  0
DICTIONARY
  5
188
330
3C
100
AcDbDictionary
280
     1
281
     1
  3
ACAD_XREC_ROUNDTRIP
360
189
  0
DICTIONARY
  5
18C
330
3E
100
AcDbDictionary
280
     1
281
     1
  3
ACAD_XREC_ROUNDTRIP
360
18D
  0
DICTIONARY
  5
170
330
2F
100
AcDbDictionary
280
     1
281
     1
  3
ACAD_XREC_ROUNDTRIP
360
171
  0
DICTIONARY
  5
174
330
31
100
AcDbDictionary
280
     1
281
     1
  3
ACAD_XREC_ROUNDTRIP
360
175
  0
DICTIONARY
  5
172
330
30
100
AcDbDictionary
280
     1
281
     1
  3
ACAD_XREC_ROUNDTRIP
360
173
  0
DICTIONARY
  5
176
330
32
100
AcDbDictionary
280
     1
281
     1
  3
ACAD_XREC_ROUNDTRIP
360
177
  0
DICTIONARY
  5
17E
330
36
100
AcDbDictionary
280
     1
281
     1
  3
ACAD_XREC_ROUNDTRIP
360
17F
  0
DICTIONARY
  5
186
330
3A
100
AcDbDictionary
280
     1
281
     1
  3
ACAD_XREC_ROUNDTRIP
360
187
  0
DICTIONARY
  5
17A
330
34
100
AcDbDictionary
280
     1
281
     1
  3
ACAD_XREC_ROUNDTRIP
360
17B
  0
DICTIONARY
  5
17C
330
35
100
AcDbDictionary
280
     1
281
     1
  3
ACAD_XREC_ROUNDTRIP
360
17D
  0
DICTIONARY
  5
184
330
39
100
AcDbDictionary
280
     1
281
     1
  3
ACAD_XREC_ROUNDTRIP
360
185
  0
DICTIONARY
  5
168
330
2B
100
AcDbDictionary
280
     1
281
     1
  3
ACAD_XREC_ROUNDTRIP
360
169
  0
DICTIONARY
  5
16A
330
2C
100
AcDbDictionary
280
     1
281
     1
  3
ACAD_XREC_ROUNDTRIP
360
16B
  0
DICTIONARY
  5
16C
330
2D
100
AcDbDictionary
280
     1
281
     1
  3
ACAD_XREC_ROUNDTRIP
360
16D
  0
DICTIONARY
  5
16E
330
2E
100
AcDbDictionary
280
     1
281
     1
  3
ACAD_XREC_ROUNDTRIP
360
16F
  0
DICTIONARY
  5
182
330
38
100
AcDbDictionary
280
     1
281
     1
  3
ACAD_XREC_ROUNDTRIP
360
183
  0
DICTIONARY
  5
178
330
33
100
AcDbDictionary
280
     1
281
     1
  3
ACAD_XREC_ROUNDTRIP
360
179
  0
DICTIONARY
  5
180
330
37
100
AcDbDictionary
280
     1
281
     1
  3
ACAD_XREC_ROUNDTRIP
360
181
  0
XRECORD
  5
18B
102
{ACAD_REACTORS
330
18A
102
}
330
18A
100
AcDbXrecord
280
     1
102
MATERIAL
148
0.0
149
0.0
149
0.0
 93
        0
 94
      127
282
     0
 72
     1
 77
     1
171
     1
175
     1
179
     1
273
     0
  0
XRECORD
  5
189
102
{ACAD_REACTORS
330
188
102
}
330
188
100
AcDbXrecord
280
     1
102
MATERIAL
148
0.0
149
0.0
149
0.0
 93
        0
 94
      127
282
     0
 72
     1
 77
     1
171
     1
175
     1
179
     1
273
     0
  0
XRECORD
  5
18D
102
{ACAD_REACTORS
330
18C
102
}
330
18C
100
AcDbXrecord
280
     1
102
MATERIAL
148
0.0
149
0.0
149
0.0
 93
        0
 94
      127
282
     0
 72
     1
 77
     1
171
     1
175
     1
179
     1
273
     0
  0
XRECORD
  5
171
102
{ACAD_REACTORS
330
170
102
}
330
170
100
AcDbXrecord
280
     1
102
RTVSPropertyOp0
 70
     1
102
RTVSPropertyOp1
 70
     1
102
RTVSPropertyOp2
 70
     1
102
RTVSPropertyOp3
 70
     1
102
RTVSPropertyOp4
 70
     1
102
RTVSPropertyOp5
 70
     1
102
RTVSPropertyOp6
 70
     1
102
RTVSPropertyOp7
 70
     1
102
RTVSPropertyOp8
 70
     1
102
RTVSPropertyOp9
 70
     1
102
RTVSPropertyOp10
 70
     1
102
RTVSPropertyOp11
 70
     1
102
RTVSPropertyOp12
 70
     1
102
RTVSPropertyOp13
 70
     1
102
RTVSPropertyOp14
 70
     1
102
RTVSPropertyOp15
 70
     1
102
RTVSPropertyOp16
 70
     1
102
RTVSPropertyOp17
 70
     1
102
RTVSPropertyOp18
 70
     1
102
RTVSPropertyOp19
 70
     1
102
RTVSPropertyOp20
 70
     1
102
RTVSPropertyOp21
 70
     1
102
RTVSPropertyOp22
 70
     1
102
RTVSPropertyOp23
 70
     1
102
RTVSPropertyOp24
 70
     1
102
RTVSPropertyOp25
 70
     1
102
RTVSPropertyOp26
 70
     1
102
RTVSPropertyOp27
 70
     1
102
RTVSPropertyOp28
 70
     1
102
RTVSPropertyOp29
 70
     1
102
RTVSPropertyOp30
 70
     1
102
RTVSPropertyOp31
 70
     1
102
RTVSPropertyOp32
 70
     1
  0
XRECORD
  5
175
102
{ACAD_REACTORS
330
174
102
}
330
174
100
AcDbXrecord
280
     1
102
RTVSPropertyOp0
 70
     1
102
RTVSPropertyOp1
 70
     1
102
RTVSPropertyOp2
 70
     1
102
RTVSPropertyOp3
 70
     1
102
RTVSPropertyOp4
 70
     1
102
RTVSPropertyOp5
 70
     1
102
RTVSPropertyOp6
 70
     1
102
RTVSPropertyOp7
 70
     1
102
RTVSPropertyOp8
 70
     1
102
RTVSPropertyOp9
 70
     1
102
RTVSPropertyOp10
 70
     1
102
RTVSPropertyOp11
 70
     1
102
RTVSPropertyOp12
 70
     1
102
RTVSPropertyOp13
 70
     1
102
RTVSPropertyOp14
 70
     1
102
RTVSPropertyOp15
 70
     1
102
RTVSPropertyOp16
 70
     1
102
RTVSPropertyOp17
 70
     1
102
RTVSPropertyOp18
 70
     1
102
RTVSPropertyOp19
 70
     1
102
RTVSPropertyOp20
 70
     1
102
RTVSPropertyOp21
 70
     1
102
RTVSPropertyOp22
 70
     1
102
RTVSPropertyOp23
 70
     1
102
RTVSPropertyOp24
 70
     1
102
RTVSPropertyOp25
 70
     1
102
RTVSPropertyOp26
 70
     1
102
RTVSPropertyOp27
 70
     1
102
RTVSPropertyOp28
 70
     1
102
RTVSPropertyOp29
 70
     1
102
RTVSPropertyOp30
 70
     1
102
RTVSPropertyOp31
 70
     1
102
RTVSPropertyOp32
 70
     1
  0
XRECORD
  5
173
102
{ACAD_REACTORS
330
172
102
}
330
172
100
AcDbXrecord
280
     1
102
RTVSPropertyOp0
 70
     1
102
RTVSPropertyOp1
 70
     1
102
RTVSPropertyOp2
 70
     1
102
RTVSPropertyOp3
 70
     1
102
RTVSPropertyOp4
 70
     1
102
RTVSPropertyOp5
 70
     1
102
RTVSPropertyOp6
 70
     1
102
RTVSPropertyOp7
 70
     1
102
RTVSPropertyOp8
 70
     1
102
RTVSPropertyOp9
 70
     1
102
RTVSPropertyOp10
 70
     1
102
RTVSPropertyOp11
 70
     1
102
RTVSPropertyOp12
 70
     1
102
RTVSPropertyOp13
 70
     1
102
RTVSPropertyOp14
 70
     1
102
RTVSPropertyOp15
 70
     1
102
RTVSPropertyOp16
 70
     1
102
RTVSPropertyOp17
 70
     1
102
RTVSPropertyOp18
 70
     1
102
RTVSPropertyOp19
 70
     1
102
RTVSPropertyOp20
 70
     1
102
RTVSPropertyOp21
 70
     1
102
RTVSPropertyOp22
 70
     1
102
RTVSPropertyOp23
 70
     1
102
RTVSPropertyOp24
 70
     1
102
RTVSPropertyOp25
 70
     1
102
RTVSPropertyOp26
 70
     1
102
RTVSPropertyOp27
 70
     1
102
RTVSPropertyOp28
 70
     1
102
RTVSPropertyOp29
 70
     1
102
RTVSPropertyOp30
 70
     1
102
RTVSPropertyOp31
 70
     1
102
RTVSPropertyOp32
 70
     1
  0
XRECORD
  5
177
102
{ACAD_REACTORS
330
176
102
}
330
176
100
AcDbXrecord
280
     1
102
RTVSPropertyOp0
 70
     1
102
RTVSPropertyOp1
 70
     1
102
RTVSPropertyOp2
 70
     1
102
RTVSPropertyOp3
 70
     1
102
RTVSPropertyOp4
 70
     1
102
RTVSPropertyOp5
 70
     1
102
RTVSPropertyOp6
 70
     1
102
RTVSPropertyOp7
 70
     1
102
RTVSPropertyOp8
 70
     1
102
RTVSPropertyOp9
 70
     1
102
RTVSPropertyOp10
 70
     1
102
RTVSPropertyOp11
 70
     1
102
RTVSPropertyOp12
 70
     1
102
RTVSPropertyOp13
 70
     1
102
RTVSPropertyOp14
 70
     1
102
RTVSPropertyOp15
 70
     1
102
RTVSPropertyOp16
 70
     1
102
RTVSPropertyOp17
 70
     1
102
RTVSPropertyOp18
 70
     1
102
RTVSPropertyOp19
 70
     1
102
RTVSPropertyOp20
 70
     1
102
RTVSPropertyOp21
 70
     1
102
RTVSPropertyOp22
 70
     1
102
RTVSPropertyOp23
 70
     1
102
RTVSPropertyOp24
 70
     1
102
RTVSPropertyOp25
 70
     1
102
RTVSPropertyOp26
 70
     1
102
RTVSPropertyOp27
 70
     1
102
RTVSPropertyOp28
 70
     1
102
RTVSPropertyOp29
 70
     1
102
RTVSPropertyOp30
 70
     1
102
RTVSPropertyOp31
 70
     1
102
RTVSPropertyOp32
 70
     1
  0
XRECORD
  5
17F
102
{ACAD_REACTORS
330
17E
102
}
330
17E
100
AcDbXrecord
280
     1
102
RTVSPropertyOp0
 70
     1
102
RTVSPropertyOp1
 70
     1
102
RTVSPropertyOp2
 70
     1
102
RTVSPropertyOp3
 70
     1
102
RTVSPropertyOp4
 70
     1
102
RTVSPropertyOp5
 70
     1
102
RTVSPropertyOp6
 70
     1
102
RTVSPropertyOp7
 70
     1
102
RTVSPropertyOp8
 70
     1
102
RTVSPropertyOp9
 70
     1
102
RTVSPropertyOp10
 70
     1
102
RTVSPropertyOp11
 70
     1
102
RTVSPropertyOp12
 70
     1
102
RTVSPropertyOp13
 70
     1
102
RTVSPropertyOp14
 70
     1
102
RTVSPropertyOp15
 70
     1
102
RTVSPropertyOp16
 70
     1
102
RTVSPropertyOp17
 70
     1
102
RTVSPropertyOp18
 70
     1
102
RTVSPropertyOp19
 70
     1
102
RTVSPropertyOp20
 70
     1
102
RTVSPropertyOp21
 70
     1
102
RTVSPropertyOp22
 70
     1
102
RTVSPropertyOp23
 70
     1
102
RTVSPropertyOp24
 70
     1
102
RTVSPropertyOp25
 70
     1
102
RTVSPropertyOp26
 70
     1
102
RTVSPropertyOp27
 70
     1
102
RTVSPropertyOp28
 70
     1
102
RTVSPropertyOp29
 70
     1
102
RTVSPropertyOp30
 70
     1
102
RTVSPropertyOp31
 70
     1
102
RTVSPropertyOp32
 70
     1
  0
XRECORD
  5
187
102
{ACAD_REACTORS
330
186
102
}
330
186
100
AcDbXrecord
280
     1
102
RTVSPropertyOp0
 70
     1
102
RTVSPropertyOp1
 70
     1
102
RTVSPropertyOp2
 70
     1
102
RTVSPropertyOp3
 70
     1
102
RTVSPropertyOp4
 70
     1
102
RTVSPropertyOp5
 70
     1
102
RTVSPropertyOp6
 70
     1
102
RTVSPropertyOp7
 70
     1
102
RTVSPropertyOp8
 70
     1
102
RTVSPropertyOp9
 70
     1
102
RTVSPropertyOp10
 70
     1
102
RTVSPropertyOp11
 70
     1
102
RTVSPropertyOp12
 70
     1
102
RTVSPropertyOp13
 70
     1
102
RTVSPropertyOp14
 70
     1
102
RTVSPropertyOp15
 70
     1
102
RTVSPropertyOp16
 70
     1
102
RTVSPropertyOp17
 70
     1
102
RTVSPropertyOp18
 70
     1
102
RTVSPropertyOp19
 70
     1
102
RTVSPropertyOp20
 70
     1
102
RTVSPropertyOp21
 70
     1
102
RTVSPropertyOp22
 70
     1
102
RTVSPropertyOp23
 70
     1
102
RTVSPropertyOp24
 70
     1
102
RTVSPropertyOp25
 70
     1
102
RTVSPropertyOp26
 70
     1
102
RTVSPropertyOp27
 70
     1
102
RTVSPropertyOp28
 70
     1
102
RTVSPropertyOp29
 70
     1
102
RTVSPropertyOp30
 70
     1
102
RTVSPropertyOp31
 70
     1
102
RTVSPropertyOp32
 70
     1
  0
XRECORD
  5
17B
102
{ACAD_REACTORS
330
17A
102
}
330
17A
100
AcDbXrecord
280
     1
102
RTVSPropertyOp0
 70
     1
102
RTVSPropertyOp1
 70
     1
102
RTVSPropertyOp2
 70
     1
102
RTVSPropertyOp3
 70
     1
102
RTVSPropertyOp4
 70
     1
102
RTVSPropertyOp5
 70
     1
102
RTVSPropertyOp6
 70
     1
102
RTVSPropertyOp7
 70
     1
102
RTVSPropertyOp8
 70
     1
102
RTVSPropertyOp9
 70
     1
102
RTVSPropertyOp10
 70
     1
102
RTVSPropertyOp11
 70
     1
102
RTVSPropertyOp12
 70
     1
102
RTVSPropertyOp13
 70
     1
102
RTVSPropertyOp14
 70
     1
102
RTVSPropertyOp15
 70
     1
102
RTVSPropertyOp16
 70
     1
102
RTVSPropertyOp17
 70
     1
102
RTVSPropertyOp18
 70
     1
102
RTVSPropertyOp19
 70
     1
102
RTVSPropertyOp20
 70
     1
102
RTVSPropertyOp21
 70
     1
102
RTVSPropertyOp22
 70
     1
102
RTVSPropertyOp23
 70
     1
102
RTVSPropertyOp24
 70
     1
102
RTVSPropertyOp25
 70
     1
102
RTVSPropertyOp26
 70
     1
102
RTVSPropertyOp27
 70
     1
102
RTVSPropertyOp28
 70
     1
102
RTVSPropertyOp29
 70
     1
102
RTVSPropertyOp30
 70
     1
102
RTVSPropertyOp31
 70
     1
102
RTVSPropertyOp32
 70
     1
  0
XRECORD
  5
17D
102
{ACAD_REACTORS
330
17C
102
}
330
17C
100
AcDbXrecord
280
     1
102
RTVSPropertyOp0
 70
     1
102
RTVSPropertyOp1
 70
     1
102
RTVSPropertyOp2
 70
     1
102
RTVSPropertyOp3
 70
     1
102
RTVSPropertyOp4
 70
     1
102
RTVSPropertyOp5
 70
     1
102
RTVSPropertyOp6
 70
     1
102
RTVSPropertyOp7
 70
     1
102
RTVSPropertyOp8
 70
     1
102
RTVSPropertyOp9
 70
     1
102
RTVSPropertyOp10
 70
     1
102
RTVSPropertyOp11
 70
     1
102
RTVSPropertyOp12
 70
     1
102
RTVSPropertyOp13
 70
     1
102
RTVSPropertyOp14
 70
     1
102
RTVSPropertyOp15
 70
     1
102
RTVSPropertyOp16
 70
     1
102
RTVSPropertyOp17
 70
     1
102
RTVSPropertyOp18
 70
     1
102
RTVSPropertyOp19
 70
     1
102
RTVSPropertyOp20
 70
     1
102
RTVSPropertyOp21
 70
     1
102
RTVSPropertyOp22
 70
     1
102
RTVSPropertyOp23
 70
     1
102
RTVSPropertyOp24
 70
     1
102
RTVSPropertyOp25
 70
     1
102
RTVSPropertyOp26
 70
     1
102
RTVSPropertyOp27
 70
     1
102
RTVSPropertyOp28
 70
     1
102
RTVSPropertyOp29
 70
     1
102
RTVSPropertyOp30
 70
     1
102
RTVSPropertyOp31
 70
     1
102
RTVSPropertyOp32
 70
     1
  0
XRECORD
  5
185
102
{ACAD_REACTORS
330
184
102
}
330
184
100
AcDbXrecord
280
     1
102
RTVSPropertyOp0
 70
     1
102
RTVSPropertyOp1
 70
     1
102
RTVSPropertyOp2
 70
     1
102
RTVSPropertyOp3
 70
     1
102
RTVSPropertyOp4
 70
     1
102
RTVSPropertyOp5
 70
     1
102
RTVSPropertyOp6
 70
     1
102
RTVSPropertyOp7
 70
     1
102
RTVSPropertyOp8
 70
     1
102
RTVSPropertyOp9
 70
     1
102
RTVSPropertyOp10
 70
     1
102
RTVSPropertyOp11
 70
     1
102
RTVSPropertyOp12
 70
     1
102
RTVSPropertyOp13
 70
     1
102
RTVSPropertyOp14
 70
     1
102
RTVSPropertyOp15
 70
     1
102
RTVSPropertyOp16
 70
     1
102
RTVSPropertyOp17
 70
     1
102
RTVSPropertyOp18
 70
     1
102
RTVSPropertyOp19
 70
     1
102
RTVSPropertyOp20
 70
     1
102
RTVSPropertyOp21
 70
     1
102
RTVSPropertyOp22
 70
     1
102
RTVSPropertyOp23
 70
     1
102
RTVSPropertyOp24
 70
     1
102
RTVSPropertyOp25
 70
     1
102
RTVSPropertyOp26
 70
     1
102
RTVSPropertyOp27
 70
     1
102
RTVSPropertyOp28
 70
     1
102
RTVSPropertyOp29
 70
     1
102
RTVSPropertyOp30
 70
     1
102
RTVSPropertyOp31
 70
     1
102
RTVSPropertyOp32
 70
     1
  0
XRECORD
  5
169
102
{ACAD_REACTORS
330
168
102
}
330
168
100
AcDbXrecord
280
     1
102
RTVSPropertyOp0
 70
     1
102
RTVSPropertyOp1
 70
     1
102
RTVSPropertyOp2
 70
     1
102
RTVSPropertyOp3
 70
     1
102
RTVSPropertyOp4
 70
     1
102
RTVSPropertyOp5
 70
     1
102
RTVSPropertyOp6
 70
     1
102
RTVSPropertyOp7
 70
     1
102
RTVSPropertyOp8
 70
     1
102
RTVSPropertyOp9
 70
     1
102
RTVSPropertyOp10
 70
     1
102
RTVSPropertyOp11
 70
     1
102
RTVSPropertyOp12
 70
     1
102
RTVSPropertyOp13
 70
     1
102
RTVSPropertyOp14
 70
     1
102
RTVSPropertyOp15
 70
     1
102
RTVSPropertyOp16
 70
     1
102
RTVSPropertyOp17
 70
     1
102
RTVSPropertyOp18
 70
     1
102
RTVSPropertyOp19
 70
     1
102
RTVSPropertyOp20
 70
     1
102
RTVSPropertyOp21
 70
     1
102
RTVSPropertyOp22
 70
     1
102
RTVSPropertyOp23
 70
     1
102
RTVSPropertyOp24
 70
     1
102
RTVSPropertyOp25
 70
     1
102
RTVSPropertyOp26
 70
     1
102
RTVSPropertyOp27
 70
     1
102
RTVSPropertyOp28
 70
     1
102
RTVSPropertyOp29
 70
     1
102
RTVSPropertyOp30
 70
     1
102
RTVSPropertyOp31
 70
     1
102
RTVSPropertyOp32
 70
     1
  0
XRECORD
  5
16B
102
{ACAD_REACTORS
330
16A
102
}
330
16A
100
AcDbXrecord
280
     1
102
RTVSPropertyOp0
 70
     1
102
RTVSPropertyOp1
 70
     1
102
RTVSPropertyOp2
 70
     1
102
RTVSPropertyOp3
 70
     1
102
RTVSPropertyOp4
 70
     1
102
RTVSPropertyOp5
 70
     1
102
RTVSPropertyOp6
 70
     1
102
RTVSPropertyOp7
 70
     1
102
RTVSPropertyOp8
 70
     1
102
RTVSPropertyOp9
 70
     1
102
RTVSPropertyOp10
 70
     1
102
RTVSPropertyOp11
 70
     1
102
RTVSPropertyOp12
 70
     1
102
RTVSPropertyOp13
 70
     1
102
RTVSPropertyOp14
 70
     1
102
RTVSPropertyOp15
 70
     1
102
RTVSPropertyOp16
 70
     1
102
RTVSPropertyOp17
 70
     1
102
RTVSPropertyOp18
 70
     1
102
RTVSPropertyOp19
 70
     1
102
RTVSPropertyOp20
 70
     1
102
RTVSPropertyOp21
 70
     1
102
RTVSPropertyOp22
 70
     1
102
RTVSPropertyOp23
 70
     1
102
RTVSPropertyOp24
 70
     1
102
RTVSPropertyOp25
 70
     1
102
RTVSPropertyOp26
 70
     1
102
RTVSPropertyOp27
 70
     1
102
RTVSPropertyOp28
 70
     1
102
RTVSPropertyOp29
 70
     1
102
RTVSPropertyOp30
 70
     1
102
RTVSPropertyOp31
 70
     1
102
RTVSPropertyOp32
 70
     1
  0
XRECORD
  5
16D
102
{ACAD_REACTORS
330
16C
102
}
330
16C
100
AcDbXrecord
280
     1
102
RTVSPropertyOp0
 70
     1
102
RTVSPropertyOp1
 70
     1
102
RTVSPropertyOp2
 70
     1
102
RTVSPropertyOp3
 70
     1
102
RTVSPropertyOp4
 70
     1
102
RTVSPropertyOp5
 70
     1
102
RTVSPropertyOp6
 70
     1
102
RTVSPropertyOp7
 70
     1
102
RTVSPropertyOp8
 70
     1
102
RTVSPropertyOp9
 70
     1
102
RTVSPropertyOp10
 70
     1
102
RTVSPropertyOp11
 70
     1
102
RTVSPropertyOp12
 70
     1
102
RTVSPropertyOp13
 70
     1
102
RTVSPropertyOp14
 70
     1
102
RTVSPropertyOp15
 70
     1
102
RTVSPropertyOp16
 70
     1
102
RTVSPropertyOp17
 70
     1
102
RTVSPropertyOp18
 70
     1
102
RTVSPropertyOp19
 70
     1
102
RTVSPropertyOp20
 70
     1
102
RTVSPropertyOp21
 70
     1
102
RTVSPropertyOp22
 70
     1
102
RTVSPropertyOp23
 70
     1
102
RTVSPropertyOp24
 70
     1
102
RTVSPropertyOp25
 70
     1
102
RTVSPropertyOp26
 70
     1
102
RTVSPropertyOp27
 70
     1
102
RTVSPropertyOp28
 70
     1
102
RTVSPropertyOp29
 70
     1
102
RTVSPropertyOp30
 70
     1
102
RTVSPropertyOp31
 70
     1
102
RTVSPropertyOp32
 70
     1
  0
XRECORD
  5
16F
102
{ACAD_REACTORS
330
16E
102
}
330
16E
100
AcDbXrecord
280
     1
102
RTVSPropertyOp0
 70
     1
102
RTVSPropertyOp1
 70
     1
102
RTVSPropertyOp2
 70
     1
102
RTVSPropertyOp3
 70
     1
102
RTVSPropertyOp4
 70
     1
102
RTVSPropertyOp5
 70
     1
102
RTVSPropertyOp6
 70
     1
102
RTVSPropertyOp7
 70
     1
102
RTVSPropertyOp8
 70
     1
102
RTVSPropertyOp9
 70
     1
102
RTVSPropertyOp10
 70
     1
102
RTVSPropertyOp11
 70
     1
102
RTVSPropertyOp12
 70
     1
102
RTVSPropertyOp13
 70
     1
102
RTVSPropertyOp14
 70
     1
102
RTVSPropertyOp15
 70
     1
102
RTVSPropertyOp16
 70
     1
102
RTVSPropertyOp17
 70
     1
102
RTVSPropertyOp18
 70
     1
102
RTVSPropertyOp19
 70
     1
102
RTVSPropertyOp20
 70
     1
102
RTVSPropertyOp21
 70
     1
102
RTVSPropertyOp22
 70
     1
102
RTVSPropertyOp23
 70
     1
102
RTVSPropertyOp24
 70
     1
102
RTVSPropertyOp25
 70
     1
102
RTVSPropertyOp26
 70
     1
102
RTVSPropertyOp27
 70
     1
102
RTVSPropertyOp28
 70
     1
102
RTVSPropertyOp29
 70
     1
102
RTVSPropertyOp30
 70
     1
102
RTVSPropertyOp31
 70
     1
102
RTVSPropertyOp32
 70
     1
  0
XRECORD
  5
183
102
{ACAD_REACTORS
330
182
102
}
330
182
100
AcDbXrecord
280
     1
102
RTVSPropertyOp0
 70
     1
102
RTVSPropertyOp1
 70
     1
102
RTVSPropertyOp2
 70
     1
102
RTVSPropertyOp3
 70
     1
102
RTVSPropertyOp4
 70
     1
102
RTVSPropertyOp5
 70
     1
102
RTVSPropertyOp6
 70
     1
102
RTVSPropertyOp7
 70
     1
102
RTVSPropertyOp8
 70
     1
102
RTVSPropertyOp9
 70
     1
102
RTVSPropertyOp10
 70
     1
102
RTVSPropertyOp11
 70
     1
102
RTVSPropertyOp12
 70
     1
102
RTVSPropertyOp13
 70
     1
102
RTVSPropertyOp14
 70
     1
102
RTVSPropertyOp15
 70
     1
102
RTVSPropertyOp16
 70
     1
102
RTVSPropertyOp17
 70
     1
102
RTVSPropertyOp18
 70
     1
102
RTVSPropertyOp19
 70
     1
102
RTVSPropertyOp20
 70
     1
102
RTVSPropertyOp21
 70
     1
102
RTVSPropertyOp22
 70
     1
102
RTVSPropertyOp23
 70
     1
102
RTVSPropertyOp24
 70
     1
102
RTVSPropertyOp25
 70
     1
102
RTVSPropertyOp26
 70
     1
102
RTVSPropertyOp27
 70
     1
102
RTVSPropertyOp28
 70
     1
102
RTVSPropertyOp29
 70
     1
102
RTVSPropertyOp30
 70
     1
102
RTVSPropertyOp31
 70
     1
102
RTVSPropertyOp32
 70
     1
  0
XRECORD
  5
179
102
{ACAD_REACTORS
330
178
102
}
330
178
100
AcDbXrecord
280
     1
102
RTVSPropertyOp0
 70
     1
102
RTVSPropertyOp1
 70
     1
102
RTVSPropertyOp2
 70
     1
102
RTVSPropertyOp3
 70
     1
102
RTVSPropertyOp4
 70
     1
102
RTVSPropertyOp5
 70
     1
102
RTVSPropertyOp6
 70
     1
102
RTVSPropertyOp7
 70
     1
102
RTVSPropertyOp8
 70
     1
102
RTVSPropertyOp9
 70
     1
102
RTVSPropertyOp10
 70
     1
102
RTVSPropertyOp11
 70
     1
102
RTVSPropertyOp12
 70
     1
102
RTVSPropertyOp13
 70
     1
102
RTVSPropertyOp14
 70
     1
102
RTVSPropertyOp15
 70
     1
102
RTVSPropertyOp16
 70
     1
102
RTVSPropertyOp17
 70
     1
102
RTVSPropertyOp18
 70
     1
102
RTVSPropertyOp19
 70
     1
102
RTVSPropertyOp20
 70
     1
102
RTVSPropertyOp21
 70
     1
102
RTVSPropertyOp22
 70
     1
102
RTVSPropertyOp23
 70
     1
102
RTVSPropertyOp24
 70
     1
102
RTVSPropertyOp25
 70
     1
102
RTVSPropertyOp26
 70
     1
102
RTVSPropertyOp27
 70
     1
102
RTVSPropertyOp28
 70
     1
102
RTVSPropertyOp29
 70
     1
102
RTVSPropertyOp30
 70
     1
102
RTVSPropertyOp31
 70
     1
102
RTVSPropertyOp32
 70
     1
  0
XRECORD
  5
181
102
{ACAD_REACTORS
330
180
102
}
330
180
100
AcDbXrecord
280
     1
102
RTVSPropertyOp0
 70
     1
102
RTVSPropertyOp1
 70
     1
102
RTVSPropertyOp2
 70
     1
102
RTVSPropertyOp3
 70
     1
102
RTVSPropertyOp4
 70
     1
102
RTVSPropertyOp5
 70
     1
102
RTVSPropertyOp6
 70
     1
102
RTVSPropertyOp7
 70
     1
102
RTVSPropertyOp8
 70
     1
102
RTVSPropertyOp9
 70
     1
102
RTVSPropertyOp10
 70
     1
102
RTVSPropertyOp11
 70
     1
102
RTVSPropertyOp12
 70
     1
102
RTVSPropertyOp13
 70
     1
102
RTVSPropertyOp14
 70
     1
102
RTVSPropertyOp15
 70
     1
102
RTVSPropertyOp16
 70
     1
102
RTVSPropertyOp17
 70
     1
102
RTVSPropertyOp18
 70
     1
102
RTVSPropertyOp19
 70
     1
102
RTVSPropertyOp20
 70
     1
102
RTVSPropertyOp21
 70
     1
102
RTVSPropertyOp22
 70
     1
102
RTVSPropertyOp23
 70
     1
102
RTVSPropertyOp24
 70
     1
102
RTVSPropertyOp25
 70
     1
102
RTVSPropertyOp26
 70
     1
102
RTVSPropertyOp27
 70
     1
102
RTVSPropertyOp28
 70
     1
102
RTVSPropertyOp29
 70
     1
102
RTVSPropertyOp30
 70
     1
102
RTVSPropertyOp31
 70
     1
102
RTVSPropertyOp32
 70
     1
  0
ENDSEC
  0
EOF
