  0
SECTION
  2
HEADER
  9
$ACADVER
  1
AC1015
  9
$ACADMAINTVER
 70
     6
  9
$DWGCODEPAGE
  3
ANSI_932
  9
$INSBASE
 10
0.0
 20
0.0
 30
0.0
  9
$EXTMIN
 10
0.0
 20
0.0
 30
0.0
  9
$EXTMAX
 10
210.0
 20
297.0
 30
0.0
  9
$LIMMIN
 10
0.0
 20
0.0
  9
$LIMMAX
 10
12.0
 20
9.0
  9
$ORTHOMODE
 70
     0
  9
$REGENMODE
 70
     1
  9
$FILLMODE
 70
     1
  9
$QTEXTMODE
 70
     0
  9
$MIRRTEXT
 70
     1
  9
$LTSCALE
 40
1.0
  9
$ATTMODE
 70
     1
  9
$TEXTSIZE
 40
0.2
  9
$TRACEWID
 40
0.05
  9
$TEXTSTYLE
  7
Standard
  9
$CLAYER
  8
0
  9
$CELTYPE
  6
ByLayer
  9
$CECOLOR
 62
   256
  9
$CELTSCALE
 40
1.0
  9
$DISPSILH
 70
     0
  9
$DIMSCALE
 40
1.0
  9
$DIMASZ
 40
0.18
  9
$DIMEXO
 40
0.0625
  9
$DIMDLI
 40
0.38
  9
$DIMRND
 40
0.0
  9
$DIMDLE
 40
0.0
  9
$DIMEXE
 40
0.18
  9
$DIMTP
 40
0.0
  9
$DIMTM
 40
0.0
  9
$DIMTXT
 40
0.18
  9
$DIMCEN
 40
0.09
  9
$DIMTSZ
 40
0.0
  9
$DIMTOL
 70
     0
  9
$DIMLIM
 70
     0
  9
$DIMTIH
 70
     1
  9
$DIMTOH
 70
     1
  9
$DIMSE1
 70
     0
  9
$DIMSE2
 70
     0
  9
$DIMTAD
 70
     0
  9
$DIMZIN
 70
     0
  9
$DIMBLK
  1

  9
$DIMASO
 70
     1
  9
$DIMSHO
 70
     1
  9
$DIMPOST
  1

  9
$DIMAPOST
  1

  9
$DIMALT
 70
     0
  9
$DIMALTD
 70
     2
  9
$DIMALTF
 40
25.4
  9
$DIMLFAC
 40
1.0
  9
$DIMTOFL
 70
     0
  9
$DIMTVP
 40
0.0
  9
$DIMTIX
 70
     0
  9
$DIMSOXD
 70
     0
  9
$DIMSAH
 70
     0
  9
$DIMBLK1
  1

  9
$DIMBLK2
  1

  9
$DIMSTYLE
  2
Standard
  9
$DIMCLRD
 70
     0
  9
$DIMCLRE
 70
     0
  9
$DIMCLRT
 70
     0
  9
$DIMTFAC
 40
1.0
  9
$DIMGAP
 40
0.09
  9
$DIMJUST
 70
     0
  9
$DIMSD1
 70
     0
  9
$DIMSD2
 70
     0
  9
$DIMTOLJ
 70
     1
  9
$DIMTZIN
 70
     0
  9
$DIMALTZ
 70
     0
  9
$DIMALTTZ
 70
     0
  9
$DIMUPT
 70
     0
  9
$DIMDEC
 70
     4
  9
$DIMTDEC
 70
     4
  9
$DIMALTU
 70
     2
  9
$DIMALTTD
 70
     2
  9
$DIMTXSTY
  7
Standard
  9
$DIMAUNIT
 70
     0
  9
$DIMADEC
 70
     0
  9
$DIMALTRND
 40
0.0
  9
$DIMAZIN
 70
     0
  9
$DIMDSEP
 70
    46
  9
$DIMATFIT
 70
     3
  9
$DIMFRAC
 70
     0
  9
$DIMLDRBLK
  1

  9
$DIMLUNIT
 70
     2
  9
$DIMLWD
 70
    -2
  9
$DIMLWE
 70
    -2
  9
$DIMTMOVE
 70
     0
  9
$LUNITS
 70
     2
  9
$LUPREC
 70
     4
  9
$SKETCHINC
 40
0.1
  9
$FILLETRAD
 40
0.5
  9
$AUNITS
 70
     0
  9
$AUPREC
 70
     0
  9
$MENU
  1
.
  9
$ELEVATION
 40
0.0
  9
$PELEVATION
 40
0.0
  9
$THICKNESS
 40
0.0
  9
$LIMCHECK
 70
     0
  9
$CHAMFERA
 40
0.5
  9
$CHAMFERB
 40
0.5
  9
$CHAMFERC
 40
1.0
  9
$CHAMFERD
 40
0.0
  9
$SKPOLY
 70
     0
  9
$TDCREATE
 40
2460362.581157106
  9
$TDUCREATE
 40
2460362.206157106
  9
$TDUPDATE
 40
2460362.581158368
  9
$TDUUPDATE
 40
2460362.206158368
  9
$TDINDWG
 40
0.0000000116
  9
$TDUSRTIMER
 40
0.0000000116
  9
$USRTIMER
 70
     1
  9
$ANGBASE
 50
0.0
  9
$ANGDIR
 70
     0
  9
$PDMODE
 70
     0
  9
$PDSIZE
 40
0.0
  9
$PLINEWID
 40
0.0
  9
$SPLFRAME
 70
     0
  9
$SPLINETYPE
 70
     6
  9
$SPLINESEGS
 70
     8
  9
$HANDSEED
  5
1B1
  9
$SURFTAB1
 70
     6
  9
$SURFTAB2
 70
     6
  9
$SURFTYPE
 70
     6
  9
$SURFU
 70
     6
  9
$SURFV
 70
     6
  9
$UCSBASE
  2

  9
$UCSNAME
  2

  9
$UCSORG
 10
0.0
 20
0.0
 30
0.0
  9
$UCSXDIR
 10
1.0
 20
0.0
 30
0.0
  9
$UCSYDIR
 10
0.0
 20
1.0
 30
0.0
  9
$UCSORTHOREF
  2

  9
$UCSORTHOVIEW
 70
     0
  9
$UCSORGTOP
 10
0.0
 20
0.0
 30
0.0
  9
$UCSORGBOTTOM
 10
0.0
 20
0.0
 30
0.0
  9
$UCSORGLEFT
 10
0.0
 20
0.0
 30
0.0
  9
$UCSORGRIGHT
 10
0.0
 20
0.0
 30
0.0
  9
$UCSORGFRONT
 10
0.0
 20
0.0
 30
0.0
  9
$UCSORGBACK
 10
0.0
 20
0.0
 30
0.0
  9
$PUCSBASE
  2

  9
$PUCSNAME
  2

  9
$PUCSORG
 10
0.0
 20
0.0
 30
0.0
  9
$PUCSXDIR
 10
1.0
 20
0.0
 30
0.0
  9
$PUCSYDIR
 10
0.0
 20
1.0
 30
0.0
  9
$PUCSORTHOREF
  2

  9
$PUCSORTHOVIEW
 70
     0
  9
$PUCSORGTOP
 10
0.0
 20
0.0
 30
0.0
  9
$PUCSORGBOTTOM
 10
0.0
 20
0.0
 30
0.0
  9
$PUCSORGLEFT
 10
0.0
 20
0.0
 30
0.0
  9
$PUCSORGRIGHT
 10
0.0
 20
0.0
 30
0.0
  9
$PUCSORGFRONT
 10
0.0
 20
0.0
 30
0.0
  9
$PUCSORGBACK
 10
0.0
 20
0.0
 30
0.0
  9
$USERI1
 70
     0
  9
$USERI2
 70
     0
  9
$USERI3
 70
     0
  9
$USERI4
 70
     0
  9
$USERI5
 70
     0
  9
$USERR1
 40
18.1
  9
$USERR2
 40
0.0
  9
$USERR3
 40
0.0
  9
$USERR4
 40
0.0
  9
$USERR5
 40
0.0
  9
$WORLDVIEW
 70
     1
  9
$SHADEDGE
 70
     3
  9
$SHADEDIF
 70
    70
  9
$TILEMODE
 70
     1
  9
$MAXACTVP
 70
    64
  9
$PINSBASE
 10
0.0
 20
0.0
 30
0.0
  9
$PLIMCHECK
 70
     0
  9
$PEXTMIN
 10
1.00000000000000E+20
 20
1.00000000000000E+20
 30
1.00000000000000E+20
  9
$PEXTMAX
 10
-1.00000000000000E+20
 20
-1.00000000000000E+20
 30
-1.00000000000000E+20
  9
$PLIMMIN
 10
0.0
 20
0.0
  9
$PLIMMAX
 10
12.0
 20
9.0
  9
$UNITMODE
 70
     0
  9
$VISRETAIN
 70
     1
  9
$PLINEGEN
 70
     0
  9
$PSLTSCALE
 70
     1
  9
$TREEDEPTH
 70
  3020
  9
$CMLSTYLE
  2
Standard
  9
$CMLJUST
 70
     0
  9
$CMLSCALE
 40
1.0
  9
$PROXYGRAPHICS
 70
     1
  9
$MEASUREMENT
 70
     1
  9
$CELWEIGHT
370
    -1
  9
$ENDCAPS
280
     0
  9
$JOINSTYLE
280
     0
  9
$LWDISPLAY
290
     0
  9
$INSUNITS
 70
     4
  9
$HYPERLINKBASE
  1

  9
$STYLESHEET
  1

  9
$XEDIT
290
     1
  9
$CEPSNTYPE
380
     0
  9
$PSTYLEMODE
290
     1
  9
$FINGERPRINTGUID
  2
{53E4EDEF-FD5D-425E-A2AC-2F7CCA02F221}
  9
$VERSIONGUID
  2
{FAEB1C32-E019-11D5-929B-00C0DF256EC4}
  9
$EXTNAMES
290
     1
  9
$PSVPSCALE
 40
0.0
  9
$OLESTARTUP
290
     0
  0
ENDSEC
  0
SECTION
  2
CLASSES
  0
CLASS
  1
ACDBDICTIONARYWDFLT
  2
AcDbDictionaryWithDefault
  3
ObjectDBX Classes
 90
        0
280
     0
281
     0
  0
CLASS
  1
VISUALSTYLE
  2
AcDbVisualStyle
  3
ObjectDBX Classes
 90
     4095
280
     0
281
     0
  0
CLASS
  1
MATERIAL
  2
AcDbMaterial
  3
ObjectDBX Classes
 90
     1153
280
     0
281
     0
  0
CLASS
  1
DICTIONARYVAR
  2
AcDbDictionaryVar
  3
ObjectDBX Classes
 90
        0
280
     0
281
     0
  0
CLASS
  1
ACDBPLACEHOLDER
  2
AcDbPlaceHolder
  3
ObjectDBX Classes
 90
        0
280
     0
281
     0
  0
CLASS
  1
LAYOUT
  2
AcDbLayout
  3
ObjectDBX Classes
 90
        0
280
     0
281
     0
  0
ENDSEC
  0
SECTION
  2
TABLES
  0
TABLE
  2
VPORT
  5
8
330
0
100
AcDbSymbolTable
 70
     1
  0
VPORT
  5
29
330
8
100
AcDbSymbolTableRecord
100
AcDbViewportTableRecord
  2
*Active
 70
     0
 10
0.0
 20
0.0
 11
1.0
 21
1.0
 12
105.0
 22
148.5
 13
0.0
 23
0.0
 14
0.5
 24
0.5
 15
0.5
 25
0.5
 16
0.0
 26
0.0
 36
1.0
 17
0.0
 27
0.0
 37
0.0
 40
326.7
 41
1.60267857142857
 42
50.0
 43
0.0
 44
0.0
 50
0.0
 51
0.0
 71
     0
 72
   100
 73
     1
 74
     3
 75
     0
 76
     0
 77
     0
 78
     0
281
     0
 65
     1
110
0.0
120
0.0
130
0.0
111
1.0
121
0.0
131
0.0
112
0.0
122
1.0
132
0.0
 79
     0
146
0.0
  0
ENDTAB
  0
TABLE
  2
LTYPE
  5
5
330
0
100
AcDbSymbolTable
 70
     8
  0
LTYPE
  5
14
330
5
100
AcDbSymbolTableRecord
100
AcDbLinetypeTableRecord
  2
ByBlock
 70
     0
  3

 72
    65
 73
     0
 40
0.0
  0
LTYPE
  5
15
330
5
100
AcDbSymbolTableRecord
100
AcDbLinetypeTableRecord
  2
ByLayer
 70
     0
  3

 72
    65
 73
     0
 40
0.0
  0
LTYPE
  5
16
330
5
100
AcDbSymbolTableRecord
100
AcDbLinetypeTableRecord
  2
Continuous
 70
     0
  3
Solid line
 72
    65
 73
     0
 40
0.0
  0
LTYPE
  5
3F
330
5
100
AcDbSymbolTableRecord
100
AcDbLinetypeTableRecord
  2
DASHED
 70
     0
  3
Dashed
 72
    65
 73
     2
 40
15.0
 49
7.0
 74
     0
 49
-8.0
 74
     0
  0
LTYPE
  5
40
330
5
100
AcDbSymbolTableRecord
100
AcDbLinetypeTableRecord
  2
DOTTED
 70
     0
  3
Dotted
 72
    65
 73
     2
 40
1.0
 49
0.0
 74
     0
 49
-1.0
 74
     0
  0
LTYPE
  5
41
330
5
100
AcDbSymbolTableRecord
100
AcDbLinetypeTableRecord
  2
DOT_CENTER
 70
     0
  3
Dot_Center
 72
    65
 73
     4
 40
14.0
 49
12.0
 74
     0
 49
-1.0
 74
     0
 49
0.0
 74
     0
 49
-1.0
 74
     0
  0
LTYPE
  5
42
330
5
100
AcDbSymbolTableRecord
100
AcDbLinetypeTableRecord
  2
LONG_DASHED
 70
     0
  3
Long_Dashed
 72
    65
 73
     2
 40
15.0
 49
10.0
 74
     0
 49
-5.0
 74
     0
  0
LTYPE
  5
43
330
5
100
AcDbSymbolTableRecord
100
AcDbLinetypeTableRecord
  2
DASH_CENTER
 70
     0
  3
Dash_Center
 72
    65
 73
     4
 40
14.0
 49
11.0
 74
     0
 49
-1.0
 74
     0
 49
1.0
 74
     0
 49
-1.0
 74
     0
  0
LTYPE
  5
44
330
5
100
AcDbSymbolTableRecord
100
AcDbLinetypeTableRecord
  2
PHANTOM
 70
     0
  3
Phantom
 72
    65
 73
     6
 40
13.0
 49
10.0
 74
     0
 49
-1.0
 74
     0
 49
0.0
 74
     0
 49
-1.0
 74
     0
 49
0.0
 74
     0
 49
-1.0
 74
     0
  0
LTYPE
  5
45
330
5
100
AcDbSymbolTableRecord
100
AcDbLinetypeTableRecord
  2
CENTER_DASH_DASH
 70
     0
  3
Center_Dash_Dash
 72
    65
 73
     6
 40
14.0
 49
9.0
 74
     0
 49
-1.0
 74
     0
 49
1.0
 74
     0
 49
-1.0
 74
     0
 49
1.0
 74
     0
 49
-1.0
 74
     0
  0
ENDTAB
  0
TABLE
  2
LAYER
  5
2
330
0
100
AcDbSymbolTable
 70
     3
  0
LAYER
  5
10
330
2
100
AcDbSymbolTableRecord
100
AcDbLayerTableRecord
  2
0
 70
     0
 62
     7
  6
Continuous
370
    -3
390
F
  0
LAYER
  5
46
330
2
100
AcDbSymbolTableRecord
100
AcDbLayerTableRecord
  2
1
 70
     0
 62
     7
  6
Continuous
370
    -3
390
F
  0
LAYER
  5
47
330
2
100
AcDbSymbolTableRecord
100
AcDbLayerTableRecord
  2
_U_30EC_U_30A4_U_30E4_U_30FC_1
 70
     0
 62
     7
  6
Continuous
370
    -3
390
F
  0
ENDTAB
  0
TABLE
  2
STYLE
  5
3
330
0
100
AcDbSymbolTable
 70
     3
  0
STYLE
  5
11
330
3
100
AcDbSymbolTableRecord
100
AcDbTextStyleTableRecord
  2
Standard
 70
     0
 40
0.0
 41
1.0
 50
0.0
 71
     0
 42
0.2
  3
txt
  4

  0
STYLE
  5
BA
330
3
100
AcDbSymbolTableRecord
100
AcDbTextStyleTableRecord
  2
CONVERTER_11
 70
     0
 40
0.0
 41
0.89
 50
0.0
 71
     0
 42
0.2
  3
MS Mincho.ttf
  4

1001
ACAD
1000
MS Mincho
1071
    32785
  0
STYLE
  5
148
330
3
100
AcDbSymbolTableRecord
100
AcDbTextStyleTableRecord
  2
CONVERTER_12
 70
     0
 40
0.0
 41
0.9
 50
0.0
 71
     0
 42
0.2
  3
txt.shx
  4

  0
ENDTAB
  0
TABLE
  2
VIEW
  5
6
330
0
100
AcDbSymbolTable
 70
     0
  0
ENDTAB
  0
TABLE
  2
UCS
  5
7
330
0
100
AcDbSymbolTable
 70
     0
  0
ENDTAB
  0
TABLE
  2
APPID
  5
9
330
0
100
AcDbSymbolTable
 70
     1
  0
APPID
  5
12
330
9
100
AcDbSymbolTableRecord
100
AcDbRegAppTableRecord
  2
ACAD
 70
     0
  0
ENDTAB
  0
TABLE
  2
DIMSTYLE
  5
A
330
0
100
AcDbSymbolTable
 70
     5
100
AcDbDimStyleTable
  0
DIMSTYLE
105
27
330
A
100
AcDbSymbolTableRecord
100
AcDbDimStyleTableRecord
  2
Standard
 70
     0
178
     0
340
11
  0
DIMSTYLE
105
163
102
{ACAD_REACTORS
330
164
102
}
330
A
100
AcDbSymbolTableRecord
100
AcDbDimStyleTableRecord
  2
ME10_DIM_10
 70
     0
 41
3.5
 42
0.0
 44
1.0
 73
     0
 74
     0
 77
     1
 78
     8
140
3.5
147
1.0
172
     1
173
     1
174
     1
175
     1
176
     2
177
     2
271
     2
178
     7
271
     2
340
148
  0
DIMSTYLE
105
16E
102
{ACAD_REACTORS
330
16F
102
}
330
A
100
AcDbSymbolTableRecord
100
AcDbDimStyleTableRecord
  2
ME10_DIM_11
 70
     0
 41
3.5
 42
0.0
 44
1.0
 73
     0
 74
     0
 77
     1
 78
     8
140
3.5
147
1.0
172
     1
173
     1
174
     1
175
     1
176
     2
177
     2
271
     2
178
     7
271
     2
340
148
  0
DIMSTYLE
105
179
102
{ACAD_REACTORS
330
17A
102
}
330
A
100
AcDbSymbolTableRecord
100
AcDbDimStyleTableRecord
  2
ME10_DIM_12
 70
     0
 41
3.5
 42
0.0
 44
1.0
 73
     0
 74
     0
 77
     1
 78
     8
140
3.5
147
1.0
172
     1
173
     1
174
     1
175
     1
176
     2
177
     2
271
     2
178
     7
271
     2
340
148
  0
DIMSTYLE
105
184
102
{ACAD_REACTORS
330
185
102
}
330
A
100
AcDbSymbolTableRecord
100
AcDbDimStyleTableRecord
  2
ME10_DIM_13
 70
     0
  3
{\Fgdt;n}<>
 41
3.5
 42
0.0
 44
1.0
 73
     0
 74
     0
 77
     1
 78
     8
140
3.5
147
1.0
172
     1
173
     1
174
     1
175
     1
176
     2
177
     2
271
     2
178
     7
271
     2
340
148
  0
ENDTAB
  0
TABLE
  2
BLOCK_RECORD
  5
1
330
0
100
AcDbSymbolTable
 70
     9
  0
BLOCK_RECORD
  5
1F
330
1
100
AcDbSymbolTableRecord
100
AcDbBlockTableRecord
  2
*Model_Space
340
22
  0
BLOCK_RECORD
  5
1B
330
1
100
AcDbSymbolTableRecord
100
AcDbBlockTableRecord
  2
*Paper_Space
340
1E
  0
BLOCK_RECORD
  5
23
330
1
100
AcDbSymbolTableRecord
100
AcDbBlockTableRecord
  2
*Paper_Space0
340
26
  0
BLOCK_RECORD
  5
48
330
1
100
AcDbSymbolTableRecord
100
AcDbBlockTableRecord
  2
開示A4
340
0
102
{BLKREFS
331
4C
102
}
  0
BLOCK_RECORD
  5
4B
330
1
100
AcDbSymbolTableRecord
100
AcDbBlockTableRecord
  2
開示A4枠
340
0
102
{BLKREFS
331
55
102
}
  0
BLOCK_RECORD
  5
4F
330
1
100
AcDbSymbolTableRecord
100
AcDbBlockTableRecord
  2
35-84__1
340
0
102
{BLKREFS
331
56
102
}
  0
BLOCK_RECORD
  5
52
330
1
100
AcDbSymbolTableRecord
100
AcDbBlockTableRecord
  2
35-84__2
340
0
102
{BLKREFS
331
57
102
}
  0
BLOCK_RECORD
  5
158
330
1
100
AcDbSymbolTableRecord
100
AcDbBlockTableRecord
  2
*D5
340
0
  0
BLOCK_RECORD
  5
165
330
1
100
AcDbSymbolTableRecord
100
AcDbBlockTableRecord
  2
*D6
340
0
  0
BLOCK_RECORD
  5
170
330
1
100
AcDbSymbolTableRecord
100
AcDbBlockTableRecord
  2
*D7
340
0
  0
BLOCK_RECORD
  5
17B
330
1
100
AcDbSymbolTableRecord
100
AcDbBlockTableRecord
  2
*D8
340
0
  0
ENDTAB
  0
ENDSEC
  0
SECTION
  2
BLOCKS
  0
BLOCK
  5
20
330
1F
100
AcDbEntity
  8
0
100
AcDbBlockBegin
  2
*Model_Space
 70
     0
 10
0.0
 20
0.0
 30
0.0
  3
*Model_Space
  1

  0
ENDBLK
  5
21
330
1F
100
AcDbEntity
  8
0
100
AcDbBlockEnd
  0
BLOCK
  5
1C
330
1B
100
AcDbEntity
 67
     1
  8
0
100
AcDbBlockBegin
  2
*Paper_Space
 70
     0
 10
0.0
 20
0.0
 30
0.0
  3
*Paper_Space
  1

  0
ENDBLK
  5
1D
330
1B
100
AcDbEntity
 67
     1
  8
0
100
AcDbBlockEnd
  0
BLOCK
  5
24
330
23
100
AcDbEntity
  8
0
100
AcDbBlockBegin
  2
*Paper_Space0
 70
     0
 10
0.0
 20
0.0
 30
0.0
  3
*Paper_Space0
  1

  0
ENDBLK
  5
25
330
23
100
AcDbEntity
  8
0
100
AcDbBlockEnd
  0
BLOCK
  5
49
330
48
100
AcDbEntity
  8
0
100
AcDbBlockBegin
  2
開示A4
 70
     0
 10
0.0
 20
0.0
 30
0.0
  3
開示A4
  1

  0
POINT
  5
58
330
48
100
AcDbEntity
  8
1
 62
     4
100
AcDbPoint
 10
183.0
 20
15.00000000000001
 30
0.0
  0
POINT
  5
59
330
48
100
AcDbEntity
  8
1
 62
     4
100
AcDbPoint
 10
93.75
 20
17.00000000000001
 30
0.0
  0
POINT
  5
5A
330
48
100
AcDbEntity
  8
1
 62
     4
100
AcDbPoint
 10
85.25
 20
17.00000000000001
 30
0.0
  0
POINT
  5
5B
330
48
100
AcDbEntity
  8
1
 62
     4
100
AcDbPoint
 10
106.5
 20
19.00000000000001
 30
0.0
  0
POINT
  5
5C
330
48
100
AcDbEntity
  8
1
 62
     4
100
AcDbPoint
 10
106.5
 20
12.50000000000001
 30
0.0
  0
POINT
  5
5D
330
48
100
AcDbEntity
  8
1
 62
     4
100
AcDbPoint
 10
112.25
 20
12.50000000000001
 30
0.0
  0
POINT
  5
5E
330
48
100
AcDbEntity
  8
1
 62
     4
100
AcDbPoint
 10
100.75
 20
12.50000000000001
 30
0.0
  0
POINT
  5
5F
330
48
100
AcDbEntity
  8
1
 62
     4
100
AcDbPoint
 10
123.5
 20
19.00000000000001
 30
0.0
  0
POINT
  5
60
330
48
100
AcDbEntity
  8
1
 62
     4
100
AcDbPoint
 10
123.5
 20
12.50000000000001
 30
0.0
  0
POINT
  5
61
330
48
100
AcDbEntity
  8
1
 62
     4
100
AcDbPoint
 10
129.25
 20
12.50000000000001
 30
0.0
  0
POINT
  5
62
330
48
100
AcDbEntity
  8
1
 62
     4
100
AcDbPoint
 10
117.75
 20
12.50000000000001
 30
0.0
  0
POINT
  5
63
330
48
100
AcDbEntity
  8
1
 62
     4
100
AcDbPoint
 10
140.5
 20
19.00000000000001
 30
0.0
  0
POINT
  5
64
330
48
100
AcDbEntity
  8
1
 62
     4
100
AcDbPoint
 10
140.5
 20
12.50000000000001
 30
0.0
  0
POINT
  5
65
330
48
100
AcDbEntity
  8
1
 62
     4
100
AcDbPoint
 10
146.25
 20
12.50000000000001
 30
0.0
  0
POINT
  5
66
330
48
100
AcDbEntity
  8
1
 62
     4
100
AcDbPoint
 10
134.75
 20
12.50000000000001
 30
0.0
  0
POINT
  5
67
330
48
100
AcDbEntity
  8
1
 62
     4
100
AcDbPoint
 10
151.75
 20
12.50000000000001
 30
0.0
  0
POINT
  5
68
330
48
100
AcDbEntity
  8
1
 62
     4
100
AcDbPoint
 10
163.25
 20
12.50000000000001
 30
0.0
  0
POINT
  5
69
330
48
100
AcDbEntity
  8
1
 62
     4
100
AcDbPoint
 10
157.5
 20
12.50000000000001
 30
0.0
  0
POINT
  5
6A
330
48
100
AcDbEntity
  8
1
 62
     4
100
AcDbPoint
 10
57.0
 20
14.25000000000001
 30
0.0
  0
POINT
  5
6B
330
48
100
AcDbEntity
  8
1
 62
     4
100
AcDbPoint
 10
57.0
 20
22.75000000000001
 30
0.0
  0
POINT
  5
6C
330
48
100
AcDbEntity
  8
1
 62
     4
100
AcDbPoint
 10
47.5
 20
282.0000000000003
 30
0.0
  0
POINT
  5
6D
330
48
100
AcDbEntity
  8
1
 62
     4
100
AcDbPoint
 10
157.5
 20
19.00000000000001
 30
0.0
  0
POINT
  5
6E
330
48
100
AcDbEntity
  8
1
 62
     4
100
AcDbPoint
 10
57.0
 20
16.25000000000001
 30
0.0
  0
POINT
  5
6F
330
48
100
AcDbEntity
  8
1
 62
     4
100
AcDbPoint
 10
57.0
 20
24.75000000000001
 30
0.0
  0
POINT
  5
70
330
48
100
AcDbEntity
  8
1
 62
     4
100
AcDbPoint
 10
57.0
 20
20.75000000000001
 30
0.0
  0
POINT
  5
71
330
48
100
AcDbEntity
  8
1
 62
     4
100
AcDbPoint
 10
57.0
 20
12.25000000000001
 30
0.0
  0
POINT
  5
72
330
48
100
AcDbEntity
  8
1
 62
     4
100
AcDbPoint
 10
34.0
 20
34.00000000000001
 30
0.0
  0
LINE
  5
77
330
48
100
AcDbEntity
  8
1
  6
Continuous
 62
     7
100
AcDbLine
 10
105.0
 20
10.00000000000001
 30
0.0
 11
200.0
 21
10.00000000000001
 31
0.0
  0
LINE
  5
78
330
48
100
AcDbEntity
  8
1
  6
Continuous
 62
     2
100
AcDbLine
 10
105.0
 20
10.00000000000001
 30
0.0
 11
105.0
 21
5.0
 31
0.0
  0
LINE
  5
79
330
48
100
AcDbEntity
  8
1
  6
Continuous
 62
     7
100
AcDbLine
 10
200.0
 20
148.5
 30
0.0
 11
200.0
 21
287.0000000000003
 31
0.0
  0
LINE
  5
7A
330
48
100
AcDbEntity
  8
1
  6
Continuous
 62
     2
100
AcDbLine
 10
200.0
 20
148.5
 30
0.0
 11
205.0
 21
148.5
 31
0.0
  0
LINE
  5
7B
330
48
100
AcDbEntity
  8
1
  6
Continuous
 62
     7
100
AcDbLine
 10
25.0
 20
148.5
 30
0.0
 11
25.0
 21
287.0000000000003
 31
0.0
  0
LINE
  5
7C
330
48
100
AcDbEntity
  8
1
  6
Continuous
 62
     2
100
AcDbLine
 10
25.0
 20
148.5
 30
0.0
 11
20.0
 21
148.5
 31
0.0
  0
LINE
  5
7D
330
48
100
AcDbEntity
  8
1
  6
Continuous
 62
     7
100
AcDbLine
 10
105.0
 20
287.0000000000003
 30
0.0
 11
25.0
 21
287.0000000000003
 31
0.0
  0
LINE
  5
7E
330
48
100
AcDbEntity
  8
1
  6
Continuous
 62
     2
100
AcDbLine
 10
105.0
 20
287.0000000000003
 30
0.0
 11
105.0
 21
292.0000000000003
 31
0.0
  0
LINE
  5
7F
330
48
100
AcDbEntity
  8
1
  6
Continuous
 62
     2
100
AcDbLine
 10
166.0
 20
20.00000000000001
 30
0.0
 11
200.0
 21
20.00000000000001
 31
0.0
  0
LINE
  5
80
330
48
100
AcDbEntity
  8
1
  6
Continuous
 62
     2
100
AcDbLine
 10
98.0
 20
27.00000000000001
 30
0.0
 11
98.0
 21
10.00000000000001
 31
0.0
  0
LINE
  5
81
330
48
100
AcDbEntity
  8
1
  6
Continuous
 62
     2
100
AcDbLine
 10
115.0
 20
27.00000000000001
 30
0.0
 11
115.0
 21
10.00000000000001
 31
0.0
  0
LINE
  5
82
330
48
100
AcDbEntity
  8
1
  6
Continuous
 62
     2
100
AcDbLine
 10
149.0
 20
27.00000000000001
 30
0.0
 11
149.0
 21
10.00000000000001
 31
0.0
  0
LINE
  5
83
330
48
100
AcDbEntity
  8
1
  6
Continuous
 62
     2
100
AcDbLine
 10
132.0
 20
27.00000000000001
 30
0.0
 11
132.0
 21
10.00000000000001
 31
0.0
  0
LINE
  5
84
330
48
100
AcDbEntity
  8
1
  6
Continuous
 62
     2
100
AcDbLine
 10
166.0
 20
27.00000000000001
 30
0.0
 11
166.0
 21
10.00000000000001
 31
0.0
  0
LINE
  5
85
330
48
100
AcDbEntity
  8
1
  6
Continuous
 62
     2
100
AcDbLine
 10
55.0
 20
277.0000000000003
 30
0.0
 11
25.0
 21
277.0000000000003
 31
0.0
  0
LINE
  5
86
330
48
100
AcDbEntity
  8
1
  6
Continuous
 62
     7
100
AcDbLine
 10
25.0
 20
10.00000000000001
 30
0.0
 11
25.0
 21
148.5
 31
0.0
  0
LINE
  5
87
330
48
100
AcDbEntity
  8
1
  6
Continuous
 62
     2
100
AcDbLine
 10
40.0
 20
287.0000000000003
 30
0.0
 11
40.0
 21
277.0000000000003
 31
0.0
  0
LINE
  5
88
330
48
100
AcDbEntity
  8
1
  6
Continuous
 62
     2
100
AcDbLine
 10
55.0
 20
287.0000000000003
 30
0.0
 11
55.0
 21
277.0000000000003
 31
0.0
  0
LINE
  5
89
330
48
100
AcDbEntity
  8
1
  6
Continuous
 62
     2
100
AcDbLine
 10
33.0
 20
41.0
 30
0.0
 11
33.0
 21
27.00000000000001
 31
0.0
  0
LINE
  5
8A
330
48
100
AcDbEntity
  8
1
  6
Continuous
 62
     7
100
AcDbLine
 10
200.0
 20
27.00000000000001
 30
0.0
 11
25.0
 21
27.00000000000001
 31
0.0
  0
LINE
  5
8B
330
48
100
AcDbEntity
  8
1
  6
Continuous
 62
     7
100
AcDbLine
 10
25.0
 20
41.0
 30
0.0
 11
200.0
 21
41.0
 31
0.0
  0
LINE
  5
8C
330
48
100
AcDbEntity
  8
1
  6
PHANTOM
 62
     4
100
AcDbLine
 10
0.0
 20
0.0
 30
0.0
 11
210.0
 21
0.0
 31
0.0
  0
LINE
  5
8D
330
48
100
AcDbEntity
  8
1
  6
PHANTOM
 62
     4
100
AcDbLine
 10
210.0
 20
0.0
 30
0.0
 11
210.0
 21
297.0
 31
0.0
  0
LINE
  5
8E
330
48
100
AcDbEntity
  8
1
  6
PHANTOM
 62
     4
100
AcDbLine
 10
210.0
 20
297.0
 30
0.0
 11
0.0
 21
297.0
 31
0.0
  0
LINE
  5
8F
330
48
100
AcDbEntity
  8
1
  6
PHANTOM
 62
     4
100
AcDbLine
 10
0.0
 20
297.0
 30
0.0
 11
0.0
 21
0.0
 31
0.0
  0
LINE
  5
90
330
48
100
AcDbEntity
  8
1
  6
Continuous
 62
     7
100
AcDbLine
 10
25.0
 20
10.00000000000001
 30
0.0
 11
105.0
 21
10.00000000000001
 31
0.0
  0
LINE
  5
91
330
48
100
AcDbEntity
  8
1
  6
Continuous
 62
     7
100
AcDbLine
 10
200.0
 20
10.00000000000001
 30
0.0
 11
200.0
 21
148.5
 31
0.0
  0
LINE
  5
92
330
48
100
AcDbEntity
  8
1
  6
Continuous
 62
     7
100
AcDbLine
 10
200.0
 20
287.0000000000003
 30
0.0
 11
105.0
 21
287.0000000000003
 31
0.0
  0
LINE
  5
93
330
48
100
AcDbEntity
  8
1
  6
Continuous
 62
     2
100
AcDbLine
 10
25.0
 20
18.50000000000001
 30
0.0
 11
81.0
 21
18.50000000000001
 31
0.0
  0
LINE
  5
94
330
48
100
AcDbEntity
  8
1
  6
Continuous
 62
     2
100
AcDbLine
 10
33.0
 20
27.00000000000001
 30
0.0
 11
33.0
 21
10.00000000000001
 31
0.0
  0
LINE
  5
95
330
48
100
AcDbEntity
  8
1
  6
Continuous
 62
     7
100
AcDbLine
 10
191.0
 20
24.70000000000002
 30
0.0
 11
191.0
 21
22.30000000000001
 31
0.0
  0
LINE
  5
96
330
48
100
AcDbEntity
  8
1
  6
Continuous
 62
     7
100
AcDbLine
 10
191.0
 20
24.70000000000002
 30
0.0
 11
196.0
 21
25.50000000000001
 31
0.0
  0
LINE
  5
97
330
48
100
AcDbEntity
  8
1
  6
Continuous
 62
     7
100
AcDbLine
 10
196.0
 20
25.50000000000001
 30
0.0
 11
196.0
 21
21.50000000000001
 31
0.0
  0
LINE
  5
98
330
48
100
AcDbEntity
  8
1
  6
Continuous
 62
     7
100
AcDbLine
 10
196.0
 20
21.50000000000001
 30
0.0
 11
191.0
 21
22.30000000000001
 31
0.0
  0
LINE
  5
99
330
48
100
AcDbEntity
  8
1
  6
DOT_CENTER
 62
     2
100
AcDbLine
 10
184.0
 20
23.50000000000001
 30
0.0
 11
197.0
 21
23.50000000000001
 31
0.0
  0
LINE
  5
9A
330
48
100
AcDbEntity
  8
1
  6
DOT_CENTER
 62
     2
100
AcDbLine
 10
187.0
 20
26.50000000000001
 30
0.0
 11
187.0
 21
20.50000000000001
 31
0.0
  0
LINE
  5
9B
330
48
100
AcDbEntity
  8
1
  6
Continuous
 62
     2
100
AcDbLine
 10
81.0
 20
27.00000000000001
 30
0.0
 11
81.0
 21
10.00000000000001
 31
0.0
  0
CIRCLE
  5
9C
330
48
100
AcDbEntity
  8
1
  6
Continuous
 62
     7
100
AcDbCircle
 10
103.5
 20
12.50000000000001
 30
0.0
 40
0.2999999999999972
  0
CIRCLE
  5
9D
330
48
100
AcDbEntity
  8
1
  6
Continuous
 62
     7
100
AcDbCircle
 10
109.5
 20
12.50000000000001
 30
0.0
 40
0.2999999999999972
  0
CIRCLE
  5
9E
330
48
100
AcDbEntity
  8
1
  6
Continuous
 62
     7
100
AcDbCircle
 10
120.5
 20
12.50000000000001
 30
0.0
 40
0.2999999999999972
  0
CIRCLE
  5
9F
330
48
100
AcDbEntity
  8
1
  6
Continuous
 62
     7
100
AcDbCircle
 10
126.5
 20
12.50000000000001
 30
0.0
 40
0.2999999999999972
  0
CIRCLE
  5
A0
330
48
100
AcDbEntity
  8
1
  6
Continuous
 62
     7
100
AcDbCircle
 10
137.5
 20
12.50000000000001
 30
0.0
 40
0.3000000000000114
  0
CIRCLE
  5
A1
330
48
100
AcDbEntity
  8
1
  6
Continuous
 62
     7
100
AcDbCircle
 10
143.5
 20
12.50000000000001
 30
0.0
 40
0.3000000000000114
  0
CIRCLE
  5
A2
330
48
100
AcDbEntity
  8
1
  6
Continuous
 62
     7
100
AcDbCircle
 10
160.5
 20
12.50000000000001
 30
0.0
 40
0.3000000000000114
  0
CIRCLE
  5
A3
330
48
100
AcDbEntity
  8
1
  6
Continuous
 62
     7
100
AcDbCircle
 10
154.5
 20
12.50000000000001
 30
0.0
 40
0.3000000000000114
  0
CIRCLE
  5
A4
330
48
100
AcDbEntity
  8
1
  6
Continuous
 62
     7
100
AcDbCircle
 10
187.0
 20
23.50000000000001
 30
0.0
 40
1.200000000000102
  0
CIRCLE
  5
A5
330
48
100
AcDbEntity
  8
1
  6
Continuous
 62
     7
100
AcDbCircle
 10
187.0
 20
23.50000000000001
 30
0.0
 40
2.0
  0
CIRCLE
  5
A6
330
48
100
AcDbEntity
  8
1
  6
DOT_CENTER
 62
     7
100
AcDbCircle
 10
89.5
 20
16.00000000000001
 30
0.0
 40
0.1000000000000227
  0
CIRCLE
  5
A7
330
48
100
AcDbEntity
  8
1
  6
DOT_CENTER
 62
     7
100
AcDbCircle
 10
89.5
 20
18.00000000000001
 30
0.0
 40
0.1000000000000227
  0
SPLINE
  5
A8
102
{ACAD_REACTORS
330
C7
102
}
330
48
100
AcDbEntity
  8
_U_30EC_U_30A4_U_30E4_U_30FC_1
  6
Continuous
 62
     2
100
AcDbSpline
210
0.0
220
0.0
230
1.0
 70
     8
 71
     3
 72
    24
 73
    20
 74
    18
 42
0.000000001
 43
0.0000000001
 44
0.00000001
 40
0.0
 40
0.0
 40
0.0
 40
0.0
 40
0.221107500875382
 40
0.42732185862449
 40
0.5080174679238953
 40
0.5914835907869875
 40
0.8143265690192008
 40
1.054651302686498
 40
1.295452694023087
 40
1.518109231328745
 40
1.540864321905359
 40
1.595126460622615
 40
1.659890947895924
 40
1.714153085187278
 40
1.736908174961577
 40
1.76495110073525
 40
1.801562291220889
 40
1.953914424543612
 40
2.126104167379724
 40
2.126104167379724
 40
2.126104167379724
 40
2.126104167379724
 10
185.9375369556889
 20
15.58989295113011
 30
0.0
 10
185.9112579081812
 20
15.53097628234369
 30
0.0
 10
185.8604698894425
 20
15.41711139679253
 30
0.0
 10
185.8131784839112
 20
15.14441958233116
 30
0.0
 10
185.7043482802618
 20
15.24445482575455
 30
0.0
 10
185.5514800279638
 20
15.27118593367333
 30
0.0
 10
185.76861551812
 20
15.4851813501763
 30
0.0
 10
185.783848367438
 20
15.70332117782483
 30
0.0
 10
185.8906889492002
 20
15.88451579066423
 30
0.0
 10
185.8305380947075
 20
16.16913226311397
 30
0.0
 10
185.9334317395403
 20
16.14114089222448
 30
0.0
 10
185.977993346815
 20
16.13243251602299
 30
0.0
 10
186.0380842395396
 20
16.12139654183357
 30
0.0
 10
186.0756619587438
 20
16.10767523055562
 30
0.0
 10
186.1252466928606
 20
16.10756076160229
 30
0.0
 10
186.0930158919326
 20
16.07306592398621
 30
0.0
 10
186.017180222188
 20
16.0840410453798
 30
0.0
 10
186.0429447159694
 20
15.89858969582445
 30
0.0
 10
186.005589676385
 20
15.80702313549585
 30
0.0
 10
185.9857704961609
 20
15.75844135397702
 30
0.0
 11
185.9375369556889
 21
15.58989295113011
 31
0.0
 11
185.8616471328552
 21
15.38221708318555
 31
0.0
 11
185.7717402238433
 21
15.19663392356192
 31
0.0
 11
185.701149392311
 21
15.23573272563551
 31
0.0
 11
185.6245525192651
 21
15.26889163187721
 31
0.0
 11
185.7214026947455
 21
15.46958801203536
 31
0.0
 11
185.7994641467471
 21
15.6968816317702
 31
0.0
 11
185.858971692972
 21
15.93021436608688
 31
0.0
 11
185.9001601511226
 21
16.14902808999051
 31
0.0
 11
185.9224183822214
 21
16.14429889221392
 31
0.0
 11
185.975495702534
 21
16.13302157443899
 31
0.0
 11
186.0388460525844
 21
16.11956154999794
 31
0.0
 11
186.091923372897
 21
16.10828423222301
 31
0.0
 11
186.1141816039958
 21
16.10355503444642
 31
0.0
 11
186.0964097157461
 21
16.08186250841012
 31
0.0
 11
186.0606122998071
 21
16.07418628445372
 31
0.0
 11
186.028195330148
 21
15.92532288171313
 31
0.0
 11
185.9857704961609
 21
15.75844135397702
 31
0.0
  0
SPLINE
  5
A9
102
{ACAD_REACTORS
330
C7
102
}
330
48
100
AcDbEntity
  8
_U_30EC_U_30A4_U_30E4_U_30FC_1
  6
Continuous
 62
     2
100
AcDbSpline
210
0.0
220
0.0
230
1.0
 70
     8
 71
     3
 72
    70
 73
    66
 74
    64
 42
0.000000001
 43
0.0000000001
 44
0.00000001
 40
0.0
 40
0.0
 40
0.0
 40
0.0
 40
0.0241731073021472
 40
0.0846058988987013
 40
0.1631685280353284
 40
0.2417311571789756
 40
0.3021639488292751
 40
0.3263370654895541
 40
0.3533118254248881
 40
0.4228783438922058
 40
0.5179999095313349
 40
0.6216398239465978
 40
0.7167613891499546
 40
0.7863279069649703
 40
0.8133026791761641
 40
0.8372943998771474
 40
0.8945054261372659
 40
0.9627895541962417
 40
1.020000580349051
 40
1.043992300975148
 40
1.071934345522885
 40
1.113121768772899
 40
1.145225199332227
 40
1.225483775412765
 40
1.329819923771483
 40
1.434156071994381
 40
1.514414647795806
 40
1.546518078208416
 40
1.578974764260189
 40
1.662678849314184
 40
1.777131373668405
 40
1.901833377474796
 40
2.016285900500586
 40
2.099989982527953
 40
2.132446666570311
 40
2.158782354486035
 40
2.216720867907824
 40
2.274659381334245
 40
2.300995069256181
 40
2.333451754066153
 40
2.417155836543834
 40
2.531608358985273
 40
2.656310362283768
 40
2.770762886388901
 40
2.854466971340066
 40
2.886923657363873
 40
2.913597976833303
 40
2.982389642875093
 40
3.076451716946943
 40
3.178937260458541
 40
3.27299933473993
 40
3.341791001059142
 40
3.368465320663448
 40
3.396976080738698
 40
3.472140811845934
 40
3.578408190308623
 40
3.700226892456088
 40
3.822045594634333
 40
3.928312973256469
 40
4.003477705314866
 40
4.031988456866932
 40
4.058324144797737
 40
4.116262658236911
 40
4.174201171400723
 40
4.200536849608662
 40
4.200536849608662
 40
4.200536849608662
 40
4.200536849608662
 10
185.9857704961609
 20
15.75844135397702
 30
0.0
 10
185.9938259544679
 20
15.75844359811683
 30
0.0
 10
186.0220200663241
 20
15.75845146032794
 30
0.0
 10
186.0765534803672
 20
15.75830754828368
 30
0.0
 10
186.1482891808604
 20
15.75909120499895
 30
0.0
 10
186.2236240137062
 20
15.75627570463808
 30
0.0
 10
186.2713052366438
 20
15.76298403400953
 30
0.0
 10
186.3195071245616
 20
15.7519756369243
 30
0.0
 10
186.3062571799873
 20
15.8054640299703
 30
0.0
 10
186.3151093964538
 20
15.86049583543088
 30
0.0
 10
186.3108698036285
 20
15.95419908726105
 30
0.0
 10
186.313348348128
 20
16.04959482218528
 30
0.0
 10
186.3090938706059
 20
16.14356821983382
 30
0.0
 10
186.3179818665847
 20
16.19795062438008
 30
0.0
 10
186.3046977409945
 20
16.25233997691455
 30
0.0
 10
186.3514119277109
 20
16.23842216335354
 30
0.0
 10
186.3943254545736
 20
16.24103877374041
 30
0.0
 10
186.4605443456685
 20
16.23648422450753
 30
0.0
 10
186.5013342271798
 20
16.22778162134162
 30
0.0
 10
186.5525145690819
 20
16.23531799890196
 30
0.0
 10
186.52537204872
 20
16.19349970223285
 30
0.0
 10
186.4803096055706
 20
16.20284992072596
 30
0.0
 10
186.4942065045051
 20
16.13841207371836
 30
0.0
 10
186.4858414431653
 20
16.07378219627397
 30
0.0
 10
186.4903632178399
 20
15.97529141193886
 30
0.0
 10
186.4854741311167
 20
15.87595932842568
 30
0.0
 10
186.4950258992082
 20
15.81293115552966
 30
0.0
 10
186.47997614552
 20
15.74964011499786
 30
0.0
 10
186.5449159457209
 20
15.76515072944266
 30
0.0
 10
186.6116246399496
 20
15.75499387697809
 30
0.0
 10
186.7241435470828
 20
15.75988800099364
 30
0.0
 10
186.8390235448954
 20
15.7569120473278
 30
0.0
 10
186.9519871999747
 20
15.76221664184988
 30
0.0
 10
187.0176267597678
 20
15.75107306472086
 30
0.0
 10
187.0816276691053
 20
15.76744532319854
 30
0.0
 10
187.0703142889189
 20
15.71761689905272
 30
0.0
 10
187.0775339871509
 20
15.67416715212119
 30
0.0
 10
187.0703142611269
 20
15.63071745587442
 30
0.0
 10
187.0816277175994
 20
15.58088895196873
 30
0.0
 10
187.0176263598972
 20
15.59726166091359
 30
0.0
 10
186.9519921240459
 20
15.58611271661585
 30
0.0
 10
186.838997431733
 20
15.59144857206851
 30
0.0
 10
186.7242456548644
 20
15.58834345663819
 30
0.0
 10
186.611318368686
 20
15.59364894682585
 30
0.0
 10
186.5455220903584
 20
15.5825730001959
 30
0.0
 10
186.4816097975358
 20
15.59887597847615
 30
0.0
 10
186.4936015165125
 20
15.54423524395739
 30
0.0
 10
186.4862104613006
 20
15.48854295047841
 30
0.0
 10
186.4892684841983
 20
15.3964968914057
 30
0.0
 10
186.4893422785684
 20
15.30179109873103
 30
0.0
 10
186.4860313578359
 20
15.20952782902268
 30
0.0
 10
186.4939505989903
 20
15.15435768736143
 30
0.0
 10
186.4815076611617
 20
15.1005816910014
 30
0.0
 10
186.5389116551632
 20
15.11453768862786
 30
0.0
 10
186.5994708140383
 20
15.10511457884231
 30
0.0
 10
186.7048680855081
 20
15.10942885928709
 30
0.0
 10
186.8204294070623
 20
15.10835504612036
 30
0.0
 10
186.9359688877798
 20
15.10725965900999
 30
0.0
 10
187.0414181130842
 20
15.11162525770637
 30
0.0
 10
187.1018680471805
 20
15.10209426030675
 30
0.0
 10
187.1592837739111
 20
15.11617289606384
 30
0.0
 10
187.147777387671
 20
15.06707153265686
 30
0.0
 10
187.153756678175
 20
15.02564658018652
 30
0.0
 10
187.1520311050803
 20
14.97651677966697
 30
0.0
 10
187.1521500122972
 20
14.94854428447609
 30
0.0
 10
187.1521871691834
 20
14.93980288195951
 30
0.0
 11
185.9857704961609
 21
15.75844135397702
 31
0.0
 11
186.0099436128282
 21
15.75844135397702
 31
0.0
 11
186.0703764044962
 21
15.75844135397702
 31
0.0
 11
186.1489390336648
 21
15.75844135397702
 31
0.0
 11
186.2275016628334
 21
15.75844135397702
 31
0.0
 11
186.2879344545015
 21
15.75844135397702
 31
0.0
 11
186.3121075711687
 21
15.75844135397702
 31
0.0
 11
186.3121075711687
 21
15.7854161262006
 31
0.0
 11
186.3121075711687
 21
15.85498264404035
 31
0.0
 11
186.3121075711687
 21
15.95010420924982
 31
0.0
 11
186.3121075711687
 21
16.05374412358251
 31
0.0
 11
186.3121075711687
 21
16.14886568879198
 31
0.0
 11
186.3121075711687
 21
16.21843220663173
 31
0.0
 11
186.3121075711687
 21
16.24540697885531
 31
0.0
 11
186.3360407604892
 21
16.24373213107796
 31
0.0
 11
186.3931122119458
 21
16.23973826330118
 31
0.0
 11
186.461229750781
 21
16.23497138885794
 31
0.0
 11
186.5183012022376
 21
16.23097752108118
 31
0.0
 11
186.5422343915581
 21
16.22930267330382
 31
0.0
 11
186.5274972731229
 21
16.20556293372641
 31
0.0
 11
186.4886640249976
 21
16.19183767331312
 31
0.0
 11
186.4886640249976
 21
16.15973424225118
 31
0.0
 11
186.4886640249976
 21
16.07947566459636
 31
0.0
 11
186.4886640249976
 21
15.97513951364507
 31
0.0
 11
186.4886640249976
 21
15.87080336269378
 31
0.0
 11
186.4886640249976
 21
15.79054478503895
 31
0.0
 11
186.4886640249976
 21
15.75844135397702
 31
0.0
 11
186.5211207110824
 21
15.75844135397702
 31
0.0
 11
186.6048247962486
 21
15.75844135397702
 31
0.0
 11
186.7192773208634
 21
15.75844135397702
 31
0.0
 11
186.8439793252946
 21
15.75844135397702
 31
0.0
 11
186.9584318499095
 21
15.75844135397702
 31
0.0
 11
187.0421359350756
 21
15.75844135397702
 31
0.0
 11
187.0745926211604
 21
15.75844135397702
 31
0.0
 11
187.0745926211604
 21
15.73210566604958
 31
0.0
 11
187.0745926211604
 21
15.67416715260921
 31
0.0
 11
187.0745926211604
 21
15.61622863916885
 31
0.0
 11
187.0745926211604
 21
15.58989295124141
 31
0.0
 11
187.0421359350756
 21
15.58989295124141
 31
0.0
 11
186.9584318499095
 21
15.58989295124141
 31
0.0
 11
186.8439793252946
 21
15.58989295124141
 31
0.0
 11
186.7192773208634
 21
15.58989295124141
 31
0.0
 11
186.6048247962485
 21
15.58989295124141
 31
0.0
 11
186.5211207110824
 21
15.58989295124141
 31
0.0
 11
186.4886640249976
 21
15.58989295124141
 31
0.0
 11
186.4886640249976
 21
15.56321863152019
 31
0.0
 11
186.4886640249976
 21
15.49442696487074
 31
0.0
 11
186.4886640249976
 21
15.40036489006434
 31
0.0
 11
186.4886640249976
 21
15.29787934587229
 31
0.0
 11
186.4886640249976
 21
15.20381727106589
 31
0.0
 11
186.4886640249976
 21
15.13502560441643
 31
0.0
 11
186.4886640249976
 21
15.10835128469522
 31
0.0
 11
186.5171747850993
 21
15.10835128469522
 31
0.0
 11
186.5923395162767
 21
15.10835128469522
 31
0.0
 11
186.6986068948376
 21
15.10835128469522
 31
0.0
 11
186.8204255970905
 21
15.10835128469522
 31
0.0
 11
186.9422442993434
 21
15.10835128469522
 31
0.0
 11
187.0485116779044
 21
15.10835128469522
 31
0.0
 11
187.1236764090817
 21
15.10835128469522
 31
0.0
 11
187.1521871691834
 21
15.10835128469522
 31
0.0
 11
187.1521871691834
 21
15.08201559676776
 31
0.0
 11
187.1521871691834
 21
15.02407708332736
 31
0.0
 11
187.1521871691834
 21
14.96613856988697
 31
0.0
 11
187.1521871691834
 21
14.93980288195951
 31
0.0
  0
SPLINE
  5
AA
102
{ACAD_REACTORS
330
C7
102
}
330
48
100
AcDbEntity
  8
_U_30EC_U_30A4_U_30E4_U_30FC_1
  6
Continuous
 62
     2
100
AcDbSpline
210
0.0
220
0.0
230
1.0
 70
     8
 71
     3
 72
    62
 73
    58
 74
    56
 42
0.000000001
 43
0.0000000001
 44
0.00000001
 40
0.0
 40
0.0
 40
0.0
 40
0.0
 40
0.0598250028308769
 40
0.20248464868979
 40
0.3727558389221599
 40
0.5154154847936923
 40
0.5752404975786476
 40
0.9332326775488323
 40
1.290451762839596
 40
1.602077253146038
 40
1.699931634112253
 40
1.799359756425162
 40
2.270120149657191
 40
2.804661928461663
 40
2.882342287383378
 40
3.07654318571923
 40
3.329004354835699
 40
3.581465524568531
 40
3.775666424543817
 40
3.853346784558439
 40
3.899120679595184
 40
3.984129341792182
 40
4.029903236817531
 40
4.105797496059684
 40
4.29553314415264
 40
4.542189486611879
 40
4.788845828875822
 40
4.978581476410203
 40
5.054475735244444
 40
5.621734664339423
 40
6.130867242037452
 40
6.22524978094866
 40
6.318913039727378
 40
6.663579954558999
 40
7.04749890022488
 40
7.435230791575863
 40
7.498943906668275
 40
7.650875181210298
 40
7.832212509001836
 40
7.984143783697251
 40
8.047856898903406
 40
8.09155463273292
 40
8.172707566964599
 40
8.216405300768331
 40
8.289021782161216
 40
8.46218416075759
 40
8.66886183800567
 40
8.842024215264262
 40
8.914640695475457
 40
8.989881580861649
 40
9.15541152882753
 40
9.320941477744288
 40
9.396182352487527
 40
9.454709011144073
 40
9.583467660171008
 40
9.712226309013287
 40
9.77075295798974
 40
9.77075295798974
 40
9.77075295798974
 40
9.77075295798974
 10
187.1521871691834
 20
14.93980288195951
 30
0.0
 10
187.1322348171624
 20
14.93980875568672
 30
0.0
 10
187.0647037716466
 20
14.93982863806159
 30
0.0
 10
186.9410612161789
 20
14.93949362520326
 30
0.0
 10
186.7863180150056
 20
14.94107673750513
 30
0.0
 10
186.669734948248
 20
14.93686078860496
 30
0.0
 10
186.455094263424
 20
14.95215205331627
 30
0.0
 10
186.8518948407228
 20
14.59198721286193
 30
0.0
 10
186.8945656069267
 20
14.37510503397169
 30
0.0
 10
187.3189162146611
 20
14.19325062511437
 30
0.0
 10
187.1439821496074
 20
14.08985196568072
 30
0.0
 10
187.0194523925083
 20
13.87831523212723
 30
0.0
 10
186.7666277235944
 20
14.34806081001564
 30
0.0
 10
186.4797602893625
 20
14.99511516984522
 30
0.0
 10
186.490633592666
 20
14.68782672154695
 30
0.0
 10
186.488289277796
 20
14.52288616971779
 30
0.0
 10
186.4861096126411
 20
14.28879670711693
 30
0.0
 10
186.4980774396346
 20
14.04498072421783
 30
0.0
 10
186.4687984740631
 20
13.89855796860983
 30
0.0
 10
186.511452262547
 20
13.75113490174538
 30
0.0
 10
186.4239814005639
 20
13.76685797306218
 30
0.0
 10
186.3768527606744
 20
13.76694303543453
 30
0.0
 10
186.2898973207713
 20
13.75109425482908
 30
0.0
 10
186.3313474021722
 20
13.89527771422761
 30
0.0
 10
186.3029875004285
 20
14.03855052698454
 30
0.0
 10
186.31459737753
 20
14.27674947365263
 30
0.0
 10
186.3124175648272
 20
14.50517235240343
 30
0.0
 10
186.3103111127993
 20
14.66705729375992
 30
0.0
 10
186.3208035438323
 20
14.98153709333747
 30
0.0
 10
186.0128963252893
 20
14.2922947087243
 30
0.0
 10
185.7055258267457
 20
13.81476750243058
 30
0.0
 10
185.5851367066274
 20
14.03741112637422
 30
0.0
 10
185.4074607910721
 20
14.15011034955567
 30
0.0
 10
185.8853326362894
 20
14.32548143465459
 30
0.0
 10
185.9353959057208
 20
14.56091929252032
 30
0.0
 10
186.3583799621718
 20
14.95322989344609
 30
0.0
 10
186.1276754273541
 20
14.93655307029066
 30
0.0
 10
186.0049685859342
 20
14.94269518948772
 30
0.0
 10
185.8325483095662
 20
14.93312822699575
 30
0.0
 10
185.7213224694449
 20
14.95448818489667
 30
0.0
 10
185.6025779627448
 20
14.9213626535742
 30
0.0
 10
185.6183169706686
 20
15.00203900606886
 30
0.0
 10
185.6178550933763
 20
15.04645414290858
 30
0.0
 10
185.6027881889931
 20
15.12967081778538
 30
0.0
 10
185.7372380935443
 20
15.09062651983888
 30
0.0
 10
185.8619755545747
 20
15.11739729328426
 30
0.0
 10
186.062875523728
 20
15.10063949044057
 30
0.0
 10
186.1921540949352
 20
15.12204225913008
 30
0.0
 10
186.3328419928295
 20
15.08868778853425
 30
0.0
 10
186.2980927452614
 20
15.2265187578507
 30
0.0
 10
186.3222185666713
 20
15.34963257349482
 30
0.0
 10
186.2967086182392
 20
15.47024055670334
 30
0.0
 10
186.3333251146684
 20
15.60539865141492
 30
0.0
 10
186.2211417027769
 20
15.58094545781887
 30
0.0
 10
186.1280356457137
 20
15.59307749842019
 30
0.0
 10
186.0191547579819
 20
15.58957630069991
 30
0.0
 10
185.9569697640964
 20
15.589817559516
 30
0.0
 10
185.9375369557246
 20
15.58989295124141
 30
0.0
 11
187.1521871691834
 21
14.93980288195951
 31
0.0
 11
187.0923621563983
 21
14.93980288195951
 31
0.0
 11
186.949702510526
 21
14.93980288195951
 31
0.0
 11
186.7794313202914
 21
14.93980288195951
 31
0.0
 11
186.6367716744192
 21
14.93980288195951
 31
0.0
 11
186.576946661634
 21
14.93980288195951
 31
0.0
 11
186.7679960754842
 21
14.63705127966893
 31
0.0
 11
186.994127278563
 21
14.36051890576684
 31
0.0
 11
187.2244526173371
 21
14.15061253493451
 31
0.0
 11
187.1521596330704
 21
14.08466403668716
 31
0.0
 11
187.0879364402643
 21
14.00876059052561
 31
0.0
 11
186.7732818215558
 21
14.35891458349362
 31
0.0
 11
186.4886640249976
 21
14.81138295143602
 31
0.0
 11
186.4886640249976
 21
14.73370259137314
 31
0.0
 11
186.4886640249976
 21
14.53950169121593
 31
0.0
 11
186.4886640249976
 21
14.28704052101156
 31
0.0
 11
186.4886640249976
 21
14.0345793508072
 31
0.0
 11
186.4886640249976
 21
13.84037845064999
 31
0.0
 11
186.4886640249976
 21
13.76269809058711
 31
0.0
 11
186.4428901295605
 21
13.76269809058711
 31
0.0
 11
186.3578814666058
 21
13.76269809058711
 31
0.0
 11
186.3121075711687
 21
13.76269809058711
 31
0.0
 11
186.3121075711687
 21
13.83859234982739
 31
0.0
 11
186.3121075711687
 21
14.0283279979281
 31
0.0
 11
186.3121075711687
 21
14.27498434045902
 31
0.0
 11
186.3121075711687
 21
14.52164068298993
 31
0.0
 11
186.3121075711687
 21
14.71137633109064
 31
0.0
 11
186.3121075711687
 21
14.78727059033092
 31
0.0
 11
185.9987626399267
 21
14.31440946197693
 31
0.0
 11
185.6352328662148
 21
13.95795177109382
 31
0.0
 11
185.5773927461627
 21
14.03253450545017
 31
0.0
 11
185.5094852305341
 21
14.09704322939241
 31
0.0
 11
185.7750721898319
 21
14.31672219795888
 31
0.0
 11
186.0233764972061
 21
14.60953395971698
 31
0.0
 11
186.2264982805261
 21
14.93980288195951
 31
0.0
 11
186.1627851652722
 21
14.93980288195951
 31
0.0
 11
186.010853890436
 21
14.93980288195951
 31
0.0
 11
185.8295165624056
 21
14.93980288195951
 31
0.0
 11
185.6775852875693
 21
14.93980288195951
 31
0.0
 11
185.6138721723154
 21
14.93980288195951
 31
0.0
 11
185.6138721723154
 21
14.9835006160021
 31
0.0
 11
185.6138721723154
 21
15.06465355065263
 31
0.0
 11
185.6138721723154
 21
15.10835128469522
 31
0.0
 11
185.6864886537961
 21
15.10835128469522
 31
0.0
 11
185.8596510327118
 21
15.10835128469522
 31
0.0
 11
186.0663287107723
 21
15.10835128469522
 31
0.0
 11
186.239491089688
 21
15.10835128469522
 31
0.0
 11
186.3121075711687
 21
15.10835128469522
 31
0.0
 11
186.3121075711687
 21
15.18359217009306
 31
0.0
 11
186.3121075711687
 21
15.34912211796831
 31
0.0
 11
186.3121075711687
 21
15.51465206584357
 31
0.0
 11
186.3121075711687
 21
15.58989295124141
 31
0.0
 11
186.2535809125055
 21
15.58989295124141
 31
0.0
 11
186.1248222634467
 21
15.58989295124141
 31
0.0
 11
185.9960636143877
 21
15.58989295124141
 31
0.0
 11
185.9375369557246
 21
15.58989295124141
 31
0.0
  0
SPLINE
  5
AB
102
{ACAD_REACTORS
330
C8
102
}
330
48
100
AcDbEntity
  8
_U_30EC_U_30A4_U_30E4_U_30FC_1
  6
Continuous
 62
     2
100
AcDbSpline
210
0.0
220
0.0
230
1.0
 70
    11
 71
     3
 72
   124
 73
   120
 74
   118
 42
0.000000001
 43
0.0000000001
 44
0.00000001
 40
0.0
 40
0.0
 40
0.0
 40
0.0
 40
0.027818722962451
 40
0.1011590162384269
 40
0.2048470170590239
 40
0.3237088716559245
 40
0.4425707262522
 40
0.5462587270699547
 40
0.6195990203311798
 40
0.647417752257866
 40
0.6750060736115242
 40
0.7357003855242812
 40
0.7963946998054545
 40
0.8239830245571873
 40
0.8540933811102966
 40
0.9373396629409647
 40
1.063094687343246
 40
1.220731268638084
 40
1.399622220914758
 40
1.589140358637743
 40
1.778658496423909
 40
1.957549448940519
 40
2.115186030873169
 40
2.240941056914473
 40
2.324187341760543
 40
2.354297700109393
 40
2.381886024671901
 40
2.442580338710491
 40
2.503274652750521
 40
2.530862977314627
 40
2.56098394927858
 40
2.640393784452926
 40
2.752662861759149
 40
2.881361560118166
 40
3.010060258455213
 40
3.12232933570536
 40
3.201739170817974
 40
3.231860142753335
 40
3.264298024030389
 40
3.352343701778257
 40
3.482095226868776
 40
3.639650650173032
 40
3.811108022565484
 40
3.982565394927986
 40
4.140120818152563
 40
4.269872343141269
 40
4.357918020802329
 40
4.390355902043956
 40
4.423256253992526
 40
4.508104530073047
 40
4.624121560636815
 40
4.750528176031572
 40
4.866545206602019
 40
4.951393482691976
 40
4.984293834645377
 40
5.011450833242294
 40
5.071196230152077
 40
5.130941627057154
 40
5.15809862564882
 40
5.19099897760151
 40
5.275847253689336
 40
5.39186428425677
 40
5.518270899648315
 40
5.634287930209354
 40
5.719136206288028
 40
5.752036558235916
 40
5.782130946282941
 40
5.862783906229116
 40
5.979550131774992
 40
6.1179843166404
 40
6.263641154587948
 40
6.402075339414162
 40
6.518841564907958
 40
6.599494524815547
 40
6.629588912848784
 40
6.654403028226361
 40
6.713575149488128
 40
6.784199939329446
 40
6.843372060493549
 40
6.868186175802795
 40
6.896246243201857
 40
6.939586233758313
 40
6.967846564564941
 40
7.043584251089876
 40
7.153234334451729
 40
7.283231855734473
 40
7.4200118560355
 40
7.550009376579847
 40
7.65965945883524
 40
7.73539714441723
 40
7.7636574748514
 40
7.796409728011057
 40
7.880876065096332
 40
7.996370852465717
 40
8.122208446418613
 40
8.237703224799207
 40
8.3221695620109
 40
8.354921815205914
 40
8.382078813307697
 40
8.441824209207
 40
8.501569605240151
 40
8.52872660348573
 40
8.561478856695778
 40
8.645945193877829
 40
8.76143998086534
 40
8.887277580764483
 40
9.002772362001004
 40
9.087238696661224
 40
9.119990949235678
 40
9.152428830613376
 40
9.24047450863859
 40
9.370226034149537
 40
9.527781457984412
 40
9.6992388309814
 40
9.870696203978586
 40
10.028251627814
 40
10.15800315332562
 40
10.24604883135116
 40
10.27848670378519
 40
10.27848670378519
 40
10.27848670378519
 40
10.27848670378519
 10
195.3821827564383
 20
14.01410517385762
 30
0.0
 10
195.3914554737523
 20
14.01410498511279
 30
0.0
 10
195.4251744536861
 20
14.01410430876719
 30
0.0
 10
195.4934706812465
 20
14.01411807243309
 30
0.0
 10
195.592014171158
 20
14.0140322421955
 30
0.0
 10
195.7062066464812
 20
14.01441755612255
 30
0.0
 10
195.818589441707
 20
14.0130083589755
 30
0.0
 10
195.9214376600118
 20
14.01719117422248
 30
0.0
 10
195.9806839874849
 20
14.00823089251988
 30
0.0
 10
196.0371265937032
 20
14.02164434526066
 30
0.0
 10
196.0246255586954
 20
13.97087198613366
 30
0.0
 10
196.0329549635703
 20
13.92589320939071
 30
0.0
 10
196.0248170841119
 20
13.88056752990492
 30
0.0
 10
196.0370529214457
 20
13.8293193240847
 30
0.0
 10
195.9747773490334
 20
13.84447955365281
 30
0.0
 10
195.9060513026868
 20
13.83359750710746
 30
0.0
 10
195.7782756749592
 20
13.83911304747977
 30
0.0
 10
195.6262984511643
 20
13.83700851253702
 30
0.0
 10
195.4502695972523
 20
13.83771002588478
 30
0.0
 10
195.2644431934287
 20
13.83745237531296
 30
0.0
 10
195.0786167437175
 20
13.83771005144606
 30
0.0
 10
194.9025880142168
 20
13.83700841847735
 30
0.0
 10
194.7506104154195
 20
13.83911332229993
 30
0.0
 10
194.6228357664554
 20
13.83359680767644
 30
0.0
 10
194.5541077836581
 20
13.84448077125947
 30
0.0
 10
194.4918349042883
 20
13.82931786684213
 30
0.0
 10
194.5040616290017
 20
13.88057510805176
 30
0.0
 10
194.4960004462597
 20
13.9258247327243
 30
0.0
 10
194.5040675809892
 20
13.97106357955328
 30
0.0
 10
194.4918238487083
 20
14.02234176909963
 30
0.0
 10
194.5525017120698
 20
14.0074957736314
 30
0.0
 10
194.6162810745736
 20
14.01756448170739
 30
0.0
 10
194.7277314353502
 20
14.01294644212004
 30
0.0
 10
194.8497533443824
 20
14.01413328905473
 30
0.0
 10
194.9719538137823
 20
14.0151586390064
 30
0.0
 10
195.0829794287392
 20
14.01092475623406
 30
0.0
 10
195.1476517413959
 20
14.02018584521744
 30
0.0
 10
195.2091162810501
 20
14.00604423049687
 30
0.0
 10
195.1930065601337
 20
14.07235527884522
 30
0.0
 10
195.2042980327358
 20
14.1444779012198
 30
0.0
 10
195.1987400822561
 20
14.27513760888291
 30
0.0
 10
195.2008035061689
 20
14.42607323708244
 30
0.0
 10
195.2000167127296
 20
14.59335873107889
 30
0.0
 10
195.2007845215627
 20
14.76061110332305
 30
0.0
 10
195.1988038785628
 20
14.91163289269917
 30
0.0
 10
195.2041306156621
 20
15.04206069552997
 30
0.0
 10
195.1933101388425
 20
15.11465442605902
 30
0.0
 10
195.2090326429875
 20
15.18150469436799
 30
0.0
 10
195.143270813249
 20
15.16580512490827
 30
0.0
 10
195.0756367830763
 20
15.17609243083997
 30
0.0
 10
194.9615885293809
 20
15.17113786847124
 30
0.0
 10
194.8451242674902
 20
15.17414128030476
 30
0.0
 10
194.7306554121477
 20
15.16880303143391
 30
0.0
 10
194.6640324657812
 20
15.18001268074827
 30
0.0
 10
194.5990769715185
 20
15.16349132665013
 30
0.0
 10
194.6107989758708
 20
15.21473720477061
 30
0.0
 10
194.6032830189121
 20
15.25950333784092
 30
0.0
 10
194.6107989878835
 20
15.30426944897963
 30
0.0
 10
194.5990769505347
 20
15.35551536129743
 30
0.0
 10
194.66403263392
 20
15.33899381766817
 30
0.0
 10
194.7306533339821
 20
15.35020571373946
 30
0.0
 10
194.8451352858063
 20
15.34485436710666
 30
0.0
 10
194.9615454436962
 20
15.3479118877112
 30
0.0
 10
195.0757660174641
 20
15.3427849901071
 30
0.0
 10
195.1430150439227
 20
15.353457333556
 30
0.0
 10
195.2083325941438
 20
15.33742082669079
 30
0.0
 10
195.1941391448553
 20
15.39949685750055
 30
0.0
 10
195.2036059462994
 20
15.46586761628765
 30
0.0
 10
195.1990269004085
 20
15.58239972741969
 30
0.0
 10
195.2007696555949
 20
15.71426685022379
 30
0.0
 10
195.1997551495391
 20
15.85615960150276
 30
0.0
 10
195.2017191344373
 20
15.98769050702585
 30
0.0
 10
195.1964668553851
 20
16.10524577283006
 30
0.0
 10
195.2073408763474
 20
16.16947789001589
 30
0.0
 10
195.1919536641853
 20
16.23108802545052
 30
0.0
 10
195.24075915378
 20
16.21702407382115
 30
0.0
 10
195.2853995564726
 20
16.21954742075318
 30
0.0
 10
195.3538643946742
 20
16.21512797401713
 30
0.0
 10
195.3959106169103
 20
16.20613025544036
 30
0.0
 10
195.4487544758775
 20
16.21411714866513
 30
0.0
 10
195.4207035002014
 20
16.1711391761167
 30
0.0
 10
195.3749142248594
 20
16.18259552043837
 30
0.0
 10
195.3869539073265
 20
16.12173520005135
 30
0.0
 10
195.3796086070641
 20
16.05769299468772
 30
0.0
 10
195.3831195826162
 20
15.9490936886391
 30
0.0
 10
195.3819806760173
 20
15.82494319144753
 30
0.0
 10
195.3819174780263
 20
15.69189719829878
 30
0.0
 10
195.3832872966867
 20
15.56797381249556
 30
0.0
 10
195.3791638801313
 20
15.4586833784934
 30
0.0
 10
195.3877763103564
 20
15.39608580094172
 30
0.0
 10
195.3746757454401
 20
15.33740133296367
 30
0.0
 10
195.4393884328198
 20
15.35362113810904
 30
0.0
 10
195.5060405953156
 20
15.34270260383313
 30
0.0
 10
195.6198779541103
 20
15.34793740173758
 30
0.0
 10
195.7357259122097
 20
15.34485547516915
 30
0.0
 10
195.849692426328
 20
15.35018259812514
 30
0.0
 10
195.9160341018099
 20
15.33904208166545
 30
0.0
 10
195.980718852548
 20
15.3554697959318
 30
0.0
 10
195.9689820772722
 20
15.30425925210052
 30
0.0
 10
195.9765168063041
 20
15.25950334121003
 30
0.0
 10
195.9689820992257
 20
15.21474739010029
 30
0.0
 10
195.9807188140737
 20
15.16353690871042
 30
0.0
 10
195.9160344075252
 20
15.17996427794222
 30
0.0
 10
195.8496886430824
 20
15.16882784447271
 30
0.0
 10
195.7357459487012
 20
15.17413115893122
 30
0.0
 10
195.6197995623054
 20
15.17114764593546
 30
0.0
 10
195.5062756882122
 20
15.17606892268395
 30
0.0
 10
195.4389231318804
 20
15.16585087513521
 30
0.0
 10
195.3734285122495
 20
15.18145996138818
 30
0.0
 10
195.3891713619218
 20
15.11463851827413
 30
0.0
 10
195.3783275998211
 20
15.0420705781588
 30
0.0
 10
195.3836581629793
 20
14.91162247614419
 30
0.0
 10
195.3817136151854
 20
14.76064558185228
 30
0.0
 10
195.3823133683215
 20
14.59322243934162
 30
0.0
 10
195.3821506559605
 20
14.42656176118376
 30
0.0
 10
195.3821895488135
 20
14.2736014292164
 30
0.0
 10
195.38218164131
 20
14.1484917898571
 30
0.0
 10
195.3821828382745
 20
14.06507890991424
 30
0.0
 10
195.3821827716208
 20
14.02491778281981
 30
0.0
 10
195.3821827564383
 20
14.01410517385762
 30
0.0
 11
195.3821827564383
 21
14.01410517385762
 31
0.0
 11
195.4100014883675
 21
14.01410517385762
 31
0.0
 11
195.4833417816353
 21
14.01410517385762
 31
0.0
 11
195.5870297824622
 21
14.01410517385762
 31
0.0
 11
195.7058916370687
 21
14.01410517385762
 31
0.0
 11
195.8247534916751
 21
14.01410517385762
 31
0.0
 11
195.928441492502
 21
14.01410517385762
 31
0.0
 11
196.0017817857698
 21
14.01410517385762
 31
0.0
 11
196.029600517699
 21
14.01410517385762
 31
0.0
 11
196.029600517699
 21
13.98651684921174
 31
0.0
 11
196.029600517699
 21
13.92582253499081
 31
0.0
 11
196.029600517699
 21
13.86512822076989
 31
0.0
 11
196.029600517699
 21
13.83753989612401
 31
0.0
 11
195.9994901593494
 21
13.83753989612401
 31
0.0
 11
195.9162438745004
 21
13.83753989612401
 31
0.0
 11
195.7904888484521
 21
13.83753989612401
 31
0.0
 11
195.6328522665041
 21
13.83753989612401
 31
0.0
 11
195.4539613139564
 21
13.83753989612401
 31
0.0
 11
195.2644431761089
 21
13.83753989612401
 31
0.0
 11
195.0749250382613
 21
13.83753989612401
 31
0.0
 11
194.8960340857136
 21
13.83753989612401
 31
0.0
 11
194.7383975037656
 21
13.83753989612401
 31
0.0
 11
194.6126424777172
 21
13.83753989612401
 31
0.0
 11
194.5293961928683
 21
13.83753989612401
 31
0.0
 11
194.4992858345187
 21
13.83753989612401
 31
0.0
 11
194.4992858345187
 21
13.86512822076989
 31
0.0
 11
194.4992858345187
 21
13.92582253499081
 31
0.0
 11
194.4992858345187
 21
13.98651684921175
 31
0.0
 11
194.4992858345187
 21
14.01410517385762
 31
0.0
 11
194.5294068064947
 21
14.01410517385762
 31
0.0
 11
194.608816641704
 21
14.01410517385762
 31
0.0
 11
194.721085719069
 21
14.01410517385762
 31
0.0
 11
194.8497844175118
 21
14.01410517385762
 31
0.0
 11
194.9784831159545
 21
14.01410517385762
 31
0.0
 11
195.0907521933195
 21
14.01410517385762
 31
0.0
 11
195.1701620285289
 21
14.01410517385762
 31
0.0
 11
195.2002830005048
 21
14.01410517385762
 31
0.0
 11
195.2002830005048
 21
14.0465430552384
 31
0.0
 11
195.2002830005048
 21
14.13458873327195
 31
0.0
 11
195.2002830005048
 21
14.26434025879507
 31
0.0
 11
195.2002830005048
 21
14.42189568264457
 31
0.0
 11
195.2002830005048
 21
14.59335305565727
 31
0.0
 11
195.2002830005048
 21
14.76481042866997
 31
0.0
 11
195.2002830005048
 21
14.92236585251947
 31
0.0
 11
195.2002830005048
 21
15.05211737804259
 31
0.0
 11
195.2002830005048
 21
15.14016305607614
 31
0.0
 11
195.2002830005048
 21
15.17260093745692
 31
0.0
 11
195.1673826485529
 21
15.17260093745692
 31
0.0
 11
195.0825343724662
 21
15.17260093745692
 31
0.0
 11
194.9665173418988
 21
15.17260093745692
 31
0.0
 11
194.8401107265044
 21
15.17260093745692
 31
0.0
 11
194.724093695937
 21
15.17260093745692
 31
0.0
 11
194.6392454198503
 21
15.17260093745692
 31
0.0
 11
194.6063450678984
 21
15.17260093745692
 31
0.0
 11
194.6063450678984
 21
15.19975793614805
 31
0.0
 11
194.6063450678984
 21
15.25950333326852
 31
0.0
 11
194.6063450678984
 21
15.319248730389
 31
0.0
 11
194.6063450678984
 21
15.34640572908012
 31
0.0
 11
194.6392454198504
 21
15.34640572908012
 31
0.0
 11
194.724093695937
 21
15.34640572908012
 31
0.0
 11
194.8401107265044
 21
15.34640572908012
 31
0.0
 11
194.9665173418988
 21
15.34640572908012
 31
0.0
 11
195.0825343724662
 21
15.34640572908012
 31
0.0
 11
195.1673826485529
 21
15.34640572908012
 31
0.0
 11
195.2002830005048
 21
15.34640572908012
 31
0.0
 11
195.2002830005048
 21
15.37650011731372
 31
0.0
 11
195.2002830005048
 21
15.45715307777976
 31
0.0
 11
195.2002830005048
 21
15.57391930412612
 31
0.0
 11
195.2002830005048
 21
15.71235349000066
 31
0.0
 11
195.2002830005048
 21
15.85801032905127
 31
0.0
 11
195.2002830005048
 21
15.99644451492582
 31
0.0
 11
195.2002830005048
 21
16.11321074127218
 31
0.0
 11
195.2002830005048
 21
16.19386370173822
 31
0.0
 11
195.2002830005048
 21
16.22395808997182
 31
0.0
 11
195.2250405288618
 21
16.22228324219446
 31
0.0
 11
195.2840777118669
 21
16.21828937441769
 31
0.0
 11
195.3545414464214
 21
16.21352249997444
 31
0.0
 11
195.4135786294265
 21
16.20952863219766
 31
0.0
 11
195.4383361577835
 21
16.20785378442031
 31
0.0
 11
195.4233067224031
 21
16.1841581420651
 31
0.0
 11
195.3821827564383
 21
16.17047697887402
 31
0.0
 11
195.3821827564383
 21
16.14221664794831
 31
0.0
 11
195.3821827564383
 21
16.06647896106738
 31
0.0
 11
195.3821827564383
 21
15.9568288770756
 31
0.0
 11
195.3821827564383
 21
15.8268313548173
 31
0.0
 11
195.3821827564383
 21
15.69005135313683
 31
0.0
 11
195.3821827564383
 21
15.56005383087854
 31
0.0
 11
195.3821827564383
 21
15.45040374688676
 31
0.0
 11
195.3821827564383
 21
15.37466606000584
 31
0.0
 11
195.3821827564383
 21
15.34640572908012
 31
0.0
 11
195.4149350096115
 21
15.34640572908012
 31
0.0
 11
195.4994013467422
 21
15.34640572908012
 31
0.0
 11
195.6148961342476
 21
15.34640572908012
 31
0.0
 11
195.7407337385445
 21
15.34640572908012
 31
0.0
 11
195.8562285260498
 21
15.34640572908012
 31
0.0
 11
195.9406948631806
 21
15.34640572908012
 31
0.0
 11
195.9734471163538
 21
15.34640572908012
 31
0.0
 11
195.9734471163538
 21
15.31924873038899
 31
0.0
 11
195.9734471163538
 21
15.25950333326852
 31
0.0
 11
195.9734471163538
 21
15.19975793614804
 31
0.0
 11
195.9734471163538
 21
15.17260093745692
 31
0.0
 11
195.9406948631806
 21
15.17260093745692
 31
0.0
 11
195.8562285260498
 21
15.17260093745692
 31
0.0
 11
195.7407337385445
 21
15.17260093745692
 31
0.0
 11
195.6148961342476
 21
15.17260093745692
 31
0.0
 11
195.4994013467422
 21
15.17260093745692
 31
0.0
 11
195.4149350096114
 21
15.17260093745692
 31
0.0
 11
195.3821827564383
 21
15.17260093745692
 31
0.0
 11
195.3821827564383
 21
15.14016305607614
 31
0.0
 11
195.3821827564383
 21
15.05211737804259
 31
0.0
 11
195.3821827564383
 21
14.92236585251947
 31
0.0
 11
195.3821827564383
 21
14.76481042866997
 31
0.0
 11
195.3821827564383
 21
14.59335305565727
 31
0.0
 11
195.3821827564383
 21
14.42189568264457
 31
0.0
 11
195.3821827564383
 21
14.26434025879507
 31
0.0
 11
195.3821827564383
 21
14.13458873327195
 31
0.0
 11
195.3821827564383
 21
14.0465430552384
 31
0.0
 11
195.3821827564383
 21
14.01410517385762
 31
0.0
  0
SPLINE
  5
AC
102
{ACAD_REACTORS
330
C9
102
}
330
48
100
AcDbEntity
  8
_U_30EC_U_30A4_U_30E4_U_30FC_1
  6
Continuous
 62
     2
100
AcDbSpline
210
0.0
220
0.0
230
1.0
 70
    11
 71
     3
 72
   131
 73
   127
 74
   125
 42
0.000000001
 43
0.0000000001
 44
0.00000001
 40
0.0
 40
0.0
 40
0.0
 40
0.0
 40
0.019557702982652
 40
0.0426490537461606
 40
0.2863607575856876
 40
0.5344948436189467
 40
0.7842238845573645
 40
0.8737315789467941
 40
0.9803832810313468
 40
1.09284227451709
 40
1.199761146656848
 40
1.289788768186556
 40
1.351573580786265
 40
1.370727117561489
 40
1.416400936017899
 40
1.470914848356036
 40
1.516588666791824
 40
1.535742203552902
 40
1.634216592293254
 40
1.760283341175072
 40
1.897966686682129
 40
2.031216387368877
 40
2.049689751137871
 40
2.101115601646804
 40
2.179502577739918
 40
2.278859318314025
 40
2.393194462258677
 40
2.516516648383785
 40
2.642834515405903
 40
2.766156701983402
 40
2.880491846754509
 40
2.979848588358545
 40
3.058235565443718
 40
3.109661416668869
 40
3.128134780704045
 40
3.146783742386361
 40
3.191254343315251
 40
3.24433215731591
 40
3.288802758225842
 40
3.307451719895113
 40
3.327717853844726
 40
3.383747753580087
 40
3.468388665924483
 40
3.574487837698792
 40
3.694892515728899
 40
3.822449946852041
 40
3.950007377920436
 40
4.07041205580053
 40
4.176511227368088
 40
4.261152139501538
 40
4.317182039076732
 40
4.337448172964653
 40
4.620011002696251
 40
4.885096638397552
 40
4.945373043518372
 40
5.014107710488671
 40
5.070481727652026
 40
5.319246955636562
 40
5.584812164506045
 40
5.859000912056899
 40
6.133746937542075
 40
6.401732212968857
 40
6.420736683995448
 40
6.47284571745107
 40
6.550702743893997
 40
6.646951193874149
 40
6.754234497930502
 40
6.86519608658728
 40
6.97247939035771
 40
7.068727839771843
 40
7.146584865450852
 40
7.198693898189082
 40
7.217698368905222
 40
7.234950401630699
 40
7.276089864269745
 40
7.325191803515852
 40
7.366331266090241
 40
7.383583298769591
 40
7.402779163491968
 40
7.453386443254371
 40
7.524934666445373
 40
7.606953361405684
 40
7.688972056428807
 40
7.760520279784029
 40
7.811127559734271
 40
7.830323424545893
 40
7.847844055299523
 40
7.894799345666567
 40
7.962779392744262
 40
8.04337429356032
 40
8.128174145149234
 40
8.208769044817046
 40
8.276749090376754
 40
8.323704379669323
 40
8.341225010056053
 40
8.358497614800202
 40
8.401679126686407
 40
8.457815092185465
 40
8.51395105772787
 40
8.557132569707825
 40
8.574405174504868
 40
8.60234066861622
 40
8.64345566053971
 40
8.66322527196638
 40
8.715345156564032
 40
8.789031889628374
 40
8.87350204552011
 40
8.957972194323741
 40
9.031658925567639
 40
9.083778811234332
 40
9.103548423002797
 40
9.119550083123363
 40
9.160817522379636
 40
9.21724442911003
 40
9.278724491644516
 40
9.335151398295272
 40
9.376418837357567
 40
9.392420497300355
 40
9.401196302734547
 40
9.417494229383971
 40
9.426270027749243
 40
9.44087507547727
 40
9.47570249699844
 40
9.517270709865594
 40
9.552098131993752
 40
9.566703169883956
 40
9.566703169883956
 40
9.566703169883956
 40
9.566703169883956
 10
194.6170254148479
 20
15.67015871511032
 30
0.0
 10
194.6134345093371
 20
15.66453690702162
 30
0.0
 10
194.6056039123625
 20
15.65227754419112
 30
0.0
 10
194.5129968974545
 20
15.61601916040992
 30
0.0
 10
194.4887622233248
 20
15.4014844421271
 30
0.0
 10
194.3858709845939
 20
15.22197284509707
 30
0.0
 10
194.1220492364305
 20
15.03615573798149
 30
0.0
 10
194.2845471569179
 20
14.95959336566081
 30
0.0
 10
194.3607225760838
 20
14.89856693195442
 30
0.0
 10
194.4492171072758
 20
14.8351580454476
 30
0.0
 10
194.538993023311
 20
14.7752563421956
 30
0.0
 10
194.5883817636046
 20
14.72102154849208
 30
0.0
 10
194.6745708157381
 20
14.69286240541831
 30
0.0
 10
194.641126067423
 20
14.65713309652809
 30
0.0
 10
194.621467116631
 20
14.62550387991904
 30
0.0
 10
194.5919888217882
 20
14.58475872796068
 30
0.0
 10
194.5688989446031
 20
14.55504663489642
 30
0.0
 10
194.5380205968357
 20
14.50211422668493
 30
0.0
 10
194.472919336574
 20
14.627403349389
 30
0.0
 10
194.3796000122415
 20
14.68213900233935
 30
0.0
 10
194.295063628514
 20
14.7391642393934
 30
0.0
 10
194.1722498125741
 20
14.89675287427514
 30
0.0
 10
194.1764450847303
 20
14.82035806766831
 30
0.0
 10
194.1751478652678
 20
14.7736128016129
 30
0.0
 10
194.1758126448077
 20
14.69584785812596
 30
0.0
 10
194.1755549986958
 20
14.59902068324418
 30
0.0
 10
194.1756431239922
 20
14.48650279078806
 30
0.0
 10
194.1756077302281
 20
14.36524085945696
 30
0.0
 10
194.1756511758281
 20
14.24086897858958
 30
0.0
 10
194.1755199942406
 20
14.11967683631335
 30
0.0
 10
194.1759477562047
 20
14.00691148919742
 30
0.0
 10
194.1746678202311
 20
13.91082913768743
 30
0.0
 10
194.1779759851044
 20
13.831138264687
 30
0.0
 10
194.1715197740087
 20
13.78815175788784
 30
0.0
 10
194.1806208705557
 20
13.74955432372043
 30
0.0
 10
194.1447910339936
 20
13.75810887724071
 30
0.0
 10
194.1115223815253
 20
13.75342519985446
 30
0.0
 10
194.0604562576041
 20
13.75351298759784
 30
0.0
 10
194.0269723972813
 20
13.75794430283822
 30
0.0
 10
193.9907585408754
 20
13.74960793842509
 30
0.0
 10
194.0009782568665
 20
13.79145277179284
 30
0.0
 10
193.9936487887774
 20
13.83778560820174
 30
0.0
 10
193.9973633136102
 20
13.92374831106015
 30
0.0
 10
193.9959480554896
 20
14.0260514270485
 30
0.0
 10
193.9964105554639
 20
14.14453223931513
 30
0.0
 10
193.996277368623
 20
14.26957683153357
 30
0.0
 10
193.9963015910045
 20
14.39475828107052
 30
0.0
 10
193.9963354925551
 20
14.5128664537906
 30
0.0
 10
193.9962060293132
 20
14.61628748709519
 30
0.0
 10
193.9965507549081
 20
14.69932036153669
 30
0.0
 10
193.9958698278689
 20
14.75143368521246
 30
0.0
 10
193.9994586600624
 20
14.87912907821363
 30
0.0
 10
193.7826171386437
 20
14.58048716819613
 30
0.0
 10
193.602135492195
 20
14.35263981511515
 30
0.0
 10
193.5490322295611
 20
14.49373443289814
 30
0.0
 10
193.5200429133149
 20
14.54325767560943
 30
0.0
 10
193.419664806282
 20
14.64641779790099
 30
0.0
 10
193.740512772326
 20
14.72695035023777
 30
0.0
 10
193.868989700543
 20
14.91066283036433
 30
0.0
 10
194.0906454325359
 20
15.11931995771761
 30
0.0
 10
194.1770224894068
 20
15.29339211228342
 30
0.0
 10
194.4549394229075
 20
15.56967051342507
 30
0.0
 10
194.3346247839284
 20
15.5653455955111
 30
0.0
 10
194.2863197351349
 20
15.56614856202549
 30
0.0
 10
194.2102377454905
 20
15.5657458214658
 30
0.0
 10
194.1167010009751
 20
15.56590275611605
 30
0.0
 10
194.0117594788557
 20
15.5658250257622
 30
0.0
 10
193.9033887738718
 20
15.5659546437855
 30
0.0
 10
193.7981454235898
 20
15.56554393490687
 30
0.0
 10
193.7056237819413
 20
15.56682073671587
 30
0.0
 10
193.6268130800709
 20
15.56340766534846
 30
0.0
 10
193.583967456538
 20
15.57023350036316
 30
0.0
 10
193.5449499586516
 20
15.56065064201119
 30
0.0
 10
193.5526365271866
 20
15.59420779565539
 30
0.0
 10
193.5485464404313
 20
15.62523550322229
 30
0.0
 10
193.5485531368815
 20
15.67236529270896
 30
0.0
 10
193.5526239724912
 20
15.70340941646775
 30
0.0
 10
193.5449495574584
 20
15.73701861635897
 30
0.0
 10
193.5834819405496
 20
15.72748410420868
 30
0.0
 10
193.624122801448
 20
15.73397435498066
 30
0.0
 10
193.6951471850464
 20
15.7310015065025
 30
0.0
 10
193.7729318149634
 20
15.73174761399154
 30
0.0
 10
193.8507292246474
 20
15.73247814044521
 30
0.0
 10
193.9217232089908
 20
15.72954235514157
 30
0.0
 10
193.962427979182
 20
15.73595468772947
 30
0.0
 10
194.0009853489909
 20
15.72650524176
 30
0.0
 10
193.9927342754928
 20
15.7626469215878
 30
0.0
 10
193.9982346669358
 20
15.80129837613223
 30
0.0
 10
193.9955754206163
 20
15.86913528561836
 30
0.0
 10
193.9965815471533
 20
15.94591641538738
 30
0.0
 10
193.9960178018319
 20
16.02849393582756
 30
0.0
 10
193.9970714526593
 20
16.10517329229878
 30
0.0
 10
193.994267586313
 20
16.173319907767
 30
0.0
 10
194.0000702721303
 20
16.21132399809347
 30
0.0
 10
193.9915654551158
 20
16.24758448077647
 30
0.0
 10
194.0255610233125
 20
16.23755723771853
 30
0.0
 10
194.0594575683099
 20
16.24073266813707
 30
0.0
 10
194.1126669060346
 20
16.2350896564061
 30
0.0
 10
194.1660768574482
 20
16.23434774436426
 30
0.0
 10
194.1995914649491
 20
16.22819223482981
 30
0.0
 10
194.2388086183039
 20
16.23346029773594
 30
0.0
 10
194.2120263698492
 20
16.19253380793491
 30
0.0
 10
194.1708111001725
 20
16.2037120453811
 30
0.0
 10
194.1782641540874
 20
16.15867056192123
 30
0.0
 10
194.1742227952185
 20
16.11412278028143
 30
0.0
 10
194.1761714049641
 20
16.04223572621702
 30
0.0
 10
194.175236484976
 20
15.96168630588768
 30
0.0
 10
194.1765107190031
 20
15.88173995404992
 30
0.0
 10
194.1732043793864
 20
15.80841837083179
 30
0.0
 10
194.1802106179962
 20
15.76688643002565
 30
0.0
 10
194.1701440380126
 20
15.72752418568107
 30
0.0
 10
194.2029814803922
 20
15.73468063430977
 30
0.0
 10
194.2364577296482
 20
15.7302724313794
 30
0.0
 10
194.2915053476019
 20
15.73217943347893
 30
0.0
 10
194.3489502595316
 20
15.73185366407284
 30
0.0
 10
194.4023026248311
 20
15.73106308733078
 30
0.0
 10
194.4398540896639
 20
15.7331395911807
 30
0.0
 10
194.4623172523238
 20
15.73022338167105
 30
0.0
 10
194.4751678073731
 20
15.73572552644052
 30
0.0
 10
194.4858255685889
 20
15.73801118197788
 30
0.0
 10
194.4986635650143
 20
15.74494972588049
 30
0.0
 10
194.5145991033071
 20
15.72853046313671
 30
0.0
 10
194.5410623920892
 20
15.71709122319448
 30
0.0
 10
194.5726805253757
 20
15.69644687835192
 30
0.0
 10
194.5987255892152
 20
15.68116869628298
 30
0.0
 10
194.6128517723972
 20
15.67266976323188
 30
0.0
 10
194.6170254148479
 20
15.67015871511032
 30
0.0
 11
194.6170254148479
 21
15.67015871511032
 31
0.0
 11
194.6049990002243
 21
15.65473571164188
 31
0.0
 11
194.5848961795565
 21
15.64337406233922
 31
0.0
 11
194.4778986355813
 21
15.42440620231161
 31
0.0
 11
194.3477039934325
 21
15.21317201512162
 31
0.0
 11
194.1996540366071
 21
15.01206059027481
 31
0.0
 11
194.2734958253735
 21
14.96147384935379
 31
0.0
 11
194.36056643118
 21
14.89988411653739
 31
0.0
 11
194.4518003750404
 21
14.83413160594426
 31
0.0
 11
194.5381321779687
 21
14.77105653169304
 31
0.0
 11
194.6104963609787
 21
14.71749910790241
 31
0.0
 11
194.6598274450843
 21
14.68029954869101
 31
0.0
 11
194.6486940702213
 21
14.66471410869491
 31
0.0
 11
194.6221452532403
 21
14.62754882870421
 31
0.0
 11
194.5904579555533
 21
14.58319026871531
 31
0.0
 11
194.5639091385723
 21
14.54602498872461
 31
0.0
 11
194.5527757637093
 21
14.53043954872851
 31
0.0
 11
194.4807013362947
 21
14.59754008690616
 31
0.0
 11
194.3852856985381
 21
14.67993354174669
 31
0.0
 11
194.279326415217
 21
14.76785017366915
 31
0.0
 11
194.1756210511091
 21
14.85152024309261
 31
0.0
 11
194.1756210511091
 21
14.83304687900857
 31
0.0
 11
194.1756210511091
 21
14.7816210276395
 31
0.0
 11
194.1756210511091
 21
14.70323405030993
 31
0.0
 11
194.1756210511091
 21
14.60387730834444
 31
0.0
 11
194.1756210511091
 21
14.48954216306756
 31
0.0
 11
194.1756210511091
 21
14.36621997580385
 31
0.0
 11
194.1756210511091
 21
14.23990210787787
 31
0.0
 11
194.1756210511091
 21
14.11657992061417
 31
0.0
 11
194.1756210511091
 21
14.00224477533729
 31
0.0
 11
194.1756210511091
 21
13.9028880333718
 31
0.0
 11
194.1756210511091
 21
13.82450105604223
 31
0.0
 11
194.1756210511091
 21
13.77307520467316
 31
0.0
 11
194.1756210511091
 21
13.75460184058912
 31
0.0
 11
194.1569720893627
 21
13.75460184058912
 31
0.0
 11
194.112501488275
 21
13.75460184058912
 31
0.0
 11
194.0594236740736
 21
13.75460184058912
 31
0.0
 11
194.0149530729859
 21
13.75460184058912
 31
0.0
 11
193.9963041112395
 21
13.75460184058912
 31
0.0
 11
193.9963041112395
 21
13.77486797460219
 31
0.0
 11
193.9963041112395
 21
13.83089787452067
 31
0.0
 11
193.9963041112395
 21
13.91553878716348
 31
0.0
 11
193.9963041112395
 21
14.02163795934954
 31
0.0
 11
193.9963041112395
 21
14.14204263789776
 31
0.0
 11
193.9963041112395
 21
14.26960006962707
 31
0.0
 11
193.9963041112395
 21
14.39715750135638
 31
0.0
 11
193.9963041112395
 21
14.5175621799046
 31
0.0
 11
193.9963041112395
 21
14.62366135209066
 31
0.0
 11
193.9963041112395
 21
14.70830226473347
 31
0.0
 11
193.9963041112395
 21
14.76433216465195
 31
0.0
 11
193.9963041112395
 21
14.78459829866502
 31
0.0
 11
193.7883272849482
 21
14.59331998274055
 31
0.0
 11
193.5763486358425
 21
14.43414885430812
 31
0.0
 11
193.5495629014482
 21
14.48814671952096
 31
0.0
 11
193.5138765415024
 21
14.54689140572026
 31
0.0
 11
193.4799697494124
 21
14.59192871537971
 31
0.0
 11
193.6830287742319
 21
14.73563387201051
 31
0.0
 11
193.881853195826
 21
14.91168423529987
 31
0.0
 11
194.0677041444178
 21
15.11327514524949
 31
0.0
 11
194.2318427502303
 21
15.33360194186107
 31
0.0
 11
194.3655301434864
 21
15.56585996513631
 31
0.0
 11
194.3465256724482
 21
15.56585996513631
 31
0.0
 11
194.2944166389562
 21
15.56585996513631
 31
0.0
 11
194.2165596124447
 21
15.56585996513631
 31
0.0
 11
194.1203111623479
 21
15.56585996513631
 31
0.0
 11
194.0130278580997
 21
15.56585996513631
 31
0.0
 11
193.9020662691345
 21
15.56585996513631
 31
0.0
 11
193.7947829648865
 21
15.56585996513631
 31
0.0
 11
193.6985345147896
 21
15.56585996513631
 31
0.0
 11
193.6206774882781
 21
15.56585996513631
 31
0.0
 11
193.5685684547861
 21
15.56585996513631
 31
0.0
 11
193.5495639837479
 21
15.56585996513631
 31
0.0
 11
193.5495639837479
 21
15.58311199790977
 31
0.0
 11
193.5495639837479
 21
15.62425146067728
 31
0.0
 11
193.5495639837479
 21
15.67335340010945
 31
0.0
 11
193.5495639837479
 21
15.71449286287694
 31
0.0
 11
193.5495639837479
 21
15.73174489565041
 31
0.0
 11
193.568759848601
 21
15.73174489565041
 31
0.0
 11
193.6193671286684
 21
15.73174489565041
 31
0.0
 11
193.690915352212
 21
15.73174489565041
 31
0.0
 11
193.7729340474937
 21
15.73174489565041
 31
0.0
 11
193.8549527427754
 21
15.73174489565041
 31
0.0
 11
193.9265009663189
 21
15.73174489565041
 31
0.0
 11
193.9771082463864
 21
15.73174489565041
 31
0.0
 11
193.9963041112395
 21
15.73174489565041
 31
0.0
 11
193.9963041112395
 21
15.74926552655214
 31
0.0
 11
193.9963041112395
 21
15.79622081736878
 31
0.0
 11
193.9963041112395
 21
15.8642008652675
 31
0.0
 11
193.9963041112395
 21
15.94479576741547
 31
0.0
 11
193.9963041112395
 21
16.02959562097985
 31
0.0
 11
193.9963041112395
 21
16.11019052312782
 31
0.0
 11
193.9963041112395
 21
16.17817057102654
 31
0.0
 11
193.9963041112395
 21
16.22512586184318
 31
0.0
 11
193.9963041112395
 21
16.24264649274491
 31
0.0
 11
194.0135484112111
 21
16.2416580616752
 31
0.0
 11
194.0566591611401
 21
16.23918698400092
 31
0.0
 11
194.1127031360477
 21
16.23597458302437
 31
0.0
 11
194.1687471109553
 21
16.23276218204781
 31
0.0
 11
194.2118578608843
 21
16.23029110437353
 31
0.0
 11
194.2291021608559
 21
16.22930267330382
 31
0.0
 11
194.2143774674851
 21
16.20556293372641
 31
0.0
 11
194.1756210511091
 21
16.19183767331312
 31
0.0
 11
194.1756210511091
 21
16.17206806177293
 31
0.0
 11
194.1756210511091
 21
16.11994817680332
 31
0.0
 11
194.1756210511091
 21
16.04626144288078
 31
0.0
 11
194.1756210511091
 21
15.96179128448176
 31
0.0
 11
194.1756210511091
 21
15.87732112608275
 31
0.0
 11
194.1756210511091
 21
15.80363439216021
 31
0.0
 11
194.1756210511091
 21
15.7515145071906
 31
0.0
 11
194.1756210511091
 21
15.73174489565041
 31
0.0
 11
194.1916227112937
 21
15.73174489565041
 31
0.0
 11
194.2328901507171
 21
15.73174489565041
 31
0.0
 11
194.2893170576838
 21
15.73174489565041
 31
0.0
 11
194.3507971204982
 21
15.73174489565041
 31
0.0
 11
194.4072240274649
 21
15.73174489565041
 31
0.0
 11
194.4484914668883
 21
15.73174489565041
 31
0.0
 11
194.4644931270729
 21
15.73174489565041
 31
0.0
 11
194.4728206422925
 21
15.73451387455917
 31
0.0
 11
194.4882860277004
 21
15.73965626396115
 31
0.0
 11
194.49661354292
 21
15.74242524286991
 31
0.0
 11
194.5091363776005
 21
15.73490952398291
 31
0.0
 11
194.5389985218386
 21
15.71698742509854
 31
0.0
 11
194.5746404359293
 21
15.69559653288169
 31
0.0
 11
194.6045025801674
 21
15.67767443399732
 31
0.0
 11
194.6170254148479
 21
15.67015871511032
 31
0.0
  0
SPLINE
  5
AD
102
{ACAD_REACTORS
330
CA
102
}
330
48
100
AcDbEntity
  8
_U_30EC_U_30A4_U_30E4_U_30FC_1
  6
Continuous
 62
     2
100
AcDbSpline
210
0.0
220
0.0
230
1.0
 70
    11
 71
     3
 72
    91
 73
    87
 74
    85
 42
0.000000001
 43
0.0000000001
 44
0.00000001
 40
0.0
 40
0.0
 40
0.0
 40
0.0
 40
0.0267532254356666
 40
0.0856103386463996
 40
0.1444674521996461
 40
0.1712206856618319
 40
0.2039416005642341
 40
0.2955601971652289
 40
0.4362601844617007
 40
0.6162252844507339
 40
0.8256392189704786
 40
1.054685709844448
 40
1.293548478893568
 40
1.532411247938312
 40
1.761457738799577
 40
1.970871673298574
 40
2.150836773256798
 40
2.291536760495659
 40
2.383155356836737
 40
2.415876284101386
 40
2.442629517488027
 40
2.50148663094915
 40
2.56034374442429
 40
2.587096977826561
 40
2.617068194440988
 40
2.699247336756158
 40
2.822032643466442
 40
2.973822353258
 40
3.143014704823442
 40
3.318007936880021
 40
3.487200288186854
 40
3.638989997548392
 40
3.761775303794891
 40
3.843954445753226
 40
3.873925662229921
 40
3.890812773500632
 40
3.907699884771814
 40
3.937960767857362
 40
3.980983618142445
 40
4.1990859152286
 40
4.439444339237402
 40
4.677588241261024
 40
5.050698317837937
 40
5.44821245476335
 40
5.85529121804482
 40
6.138575438885459
 40
6.417434507584324
 40
6.444551104394008
 40
6.504207617363312
 40
6.563864130314638
 40
6.590980727104232
 40
6.848609460381661
 40
7.109611990668622
 40
7.35291090444628
 40
7.557830220705601
 40
7.587518925913524
 40
7.652834077375957
 40
7.718149228845906
 40
7.747837934062216
 40
7.854880190301206
 40
7.976511257403699
 40
8.369487896592528
 40
8.75751495922385
 40
9.126072419331283
 40
9.460639380392374
 40
9.746695593036144
 40
9.777569943118927
 40
9.807050320932037
 40
9.830377336129166
 40
9.886003295436259
 40
9.952395569430168
 40
10.00802152870653
 40
10.03134854388245
 40
10.2135695100961
 40
10.42203479292901
 40
10.6615455673109
 40
10.91693789564327
 40
11.15832906556589
 40
11.18982674596647
 40
11.27286608520431
 40
11.39026653033373
 40
11.5248475284091
 40
11.65942852648472
 40
11.77682897161507
 40
11.85986831085707
 40
11.89136598230452
 40
11.89136598230452
 40
11.89136598230452
 40
11.89136598230452
 10
190.7027885008196
 20
14.70699600701771
 30
0.0
 10
190.7028237765288
 20
14.71587847311984
 30
0.0
 10
190.7029366710796
 20
14.74430237047345
 30
0.0
 10
190.7012984568489
 20
14.79409639169801
 30
0.0
 10
190.7069750292911
 20
14.83657564478151
 30
0.0
 10
190.6956928731706
 20
14.88730154856844
 30
0.0
 10
190.7632296979032
 20
14.87012900740105
 30
0.0
 10
190.8388029210701
 20
14.88290227165994
 30
0.0
 10
190.9828357056001
 20
14.87629729457378
 30
0.0
 10
191.1569419185427
 20
14.87888462206463
 30
0.0
 10
191.3639599611003
 20
14.8780059195555
 30
0.0
 10
191.5894688172378
 20
14.87828207920024
 30
0.0
 10
191.8251162293406
 20
14.87818339658659
 30
0.0
 10
192.0607640531349
 20
14.87828184412764
 30
0.0
 10
192.2862717580626
 20
14.87800678190786
 30
0.0
 10
192.4932934632805
 20
14.87888186270731
 30
0.0
 10
192.667388891529
 20
14.87630522678444
 30
0.0
 10
192.8114492071986
 20
14.8828829044921
 30
0.0
 10
192.8869691915293
 20
14.87016243405601
 30
0.0
 10
192.9545776037031
 20
14.88726400191684
 30
0.0
 10
192.9430840140676
 20
14.83674785802938
 30
0.0
 10
192.9505104581734
 20
14.79253252226499
 30
0.0
 10
192.9428838927986
 20
14.74867966503608
 30
0.0
 10
192.9546489459426
 20
14.69878374479326
 30
0.0
 10
192.8930788491984
 20
14.71393227712512
 30
0.0
 10
192.8256791738672
 20
14.70310665350672
 30
0.0
 10
192.7013004056222
 20
14.70852031626235
 30
0.0
 10
192.5554428236572
 20
14.70649205390784
 30
0.0
 10
192.3893576440086
 20
14.70715777578386
 30
0.0
 10
192.2188412621725
 20
14.70689643521241
 30
0.0
 10
192.0519790855389
 20
14.70721553391093
 30
0.0
 10
191.9087346827105
 20
14.7063530259076
 30
0.0
 10
191.7773313869835
 20
14.70863300482988
 30
0.0
 10
191.7239859134655
 20
14.70407704374199
 30
0.0
 10
191.6485188456913
 20
14.70999914992877
 30
0.0
 10
191.6769075779231
 20
14.7009416934335
 30
0.0
 10
191.7033652409542
 20
14.69725912268927
 30
0.0
 10
191.6633522907701
 20
14.6665427196827
 30
0.0
 10
191.5713663691868
 20
14.67667591174649
 30
0.0
 10
191.5439396207069
 20
14.43032502247781
 30
0.0
 10
191.4478793967235
 20
14.27499558764377
 30
0.0
 10
191.1917277964473
 20
13.9452541793157
 30
0.0
 10
191.7627537732763
 20
14.08430022210451
 30
0.0
 10
192.0173656320516
 20
14.08291779973359
 30
0.0
 10
192.6279647048617
 20
13.99790569242087
 30
0.0
 10
192.3340698578083
 20
14.29685417558204
 30
0.0
 10
192.0133304286518
 20
14.4433085690178
 30
0.0
 10
192.1313543360433
 20
14.50025540818286
 30
0.0
 10
192.1724716466261
 20
14.52420099873348
 30
0.0
 10
192.2156812394411
 20
14.54599758811231
 30
0.0
 10
192.3174574094451
 20
14.60928721253906
 30
0.0
 10
192.4328867625248
 20
14.35147151408782
 30
0.0
 10
192.6329591642278
 20
14.21616041113682
 30
0.0
 10
192.7269077387229
 20
14.03792795138885
 30
0.0
 10
192.9558829746392
 20
13.87997821027052
 30
0.0
 10
192.8596031846708
 20
13.82915972576301
 30
0.0
 10
192.8167959763779
 20
13.79881292523053
 30
0.0
 10
192.771824352878
 20
13.77466130281456
 30
0.0
 10
192.7121720925213
 20
13.72552146747562
 30
0.0
 10
192.6789731061325
 20
13.85997475673606
 30
0.0
 10
192.5582013350797
 20
14.01594265286586
 30
0.0
 10
192.1970976005979
 20
13.88569928059554
 30
0.0
 10
191.8385061955541
 20
13.90224694409483
 30
0.0
 10
191.4570920450081
 20
13.89331229351864
 30
0.0
 10
191.170345528289
 20
13.82882671672409
 30
0.0
 10
190.8592055599714
 20
13.94230668192826
 30
0.0
 10
190.8268737818788
 20
13.83122259927769
 30
0.0
 10
190.7896178253317
 20
13.81196313850008
 30
0.0
 10
190.7865737632755
 20
13.85874784087296
 30
0.0
 10
190.7679892860606
 20
13.89806853919131
 30
0.0
 10
190.7512436616778
 20
13.95765983478233
 30
0.0
 10
190.7383730915754
 20
14.00201969871283
 30
0.0
 10
190.704232780643
 20
14.09106331120202
 30
0.0
 10
190.9482714457754
 20
14.02181042943768
 30
0.0
 10
191.1441394486672
 20
14.00030369057741
 30
0.0
 10
191.2395426381277
 20
14.28226484478461
 30
0.0
 10
191.2945135769597
 20
14.44363045421123
 30
0.0
 10
191.5159619357157
 20
14.71391177589737
 30
0.0
 10
191.3849239381215
 20
14.70548446853733
 30
0.0
 10
191.3110026555854
 20
14.70779008496969
 30
0.0
 10
191.1977459876244
 20
14.70671378321657
 30
0.0
 10
191.0694251807484
 20
14.70707639076509
 30
0.0
 10
190.9404252030415
 20
14.70697724466084
 30
0.0
 10
190.828784094629
 20
14.70699932712571
 30
0.0
 10
190.7514663970026
 20
14.70699579189669
 30
0.0
 10
190.713287653201
 20
14.7069959584508
 30
0.0
 10
190.7027885008196
 20
14.70699600701771
 30
0.0
 11
190.7027885008196
 21
14.70699600701771
 31
0.0
 11
190.7027885008196
 21
14.73374924051796
 31
0.0
 11
190.7027885008196
 21
14.79260635421851
 31
0.0
 11
190.7027885008196
 21
14.85146346791907
 31
0.0
 11
190.7027885008196
 21
14.87821670141932
 31
0.0
 11
190.7355094280989
 21
14.87821670141932
 31
0.0
 11
190.8271280244809
 21
14.87821670141932
 31
0.0
 11
190.9678280117819
 21
14.87821670141932
 31
0.0
 11
191.147793111818
 21
14.87821670141932
 31
0.0
 11
191.3572070464054
 21
14.87821670141932
 31
0.0
 11
191.5862535373604
 21
14.87821670141932
 31
0.0
 11
191.8251163064993
 21
14.87821670141932
 31
0.0
 11
192.0639790756381
 21
14.87821670141932
 31
0.0
 11
192.2930255665931
 21
14.87821670141932
 31
0.0
 11
192.5024395011806
 21
14.87821670141932
 31
0.0
 11
192.6824046012168
 21
14.87821670141932
 31
0.0
 11
192.8231045885177
 21
14.87821670141932
 31
0.0
 11
192.9147231848997
 21
14.87821670141932
 31
0.0
 11
192.947444112179
 21
14.87821670141932
 31
0.0
 11
192.947444112179
 21
14.85146346791907
 31
0.0
 11
192.947444112179
 21
14.79260635421852
 31
0.0
 11
192.947444112179
 21
14.73374924051796
 31
0.0
 11
192.947444112179
 21
14.70699600701771
 31
0.0
 11
192.9174728954758
 21
14.70699600701771
 31
0.0
 11
192.8352937529027
 21
14.70699600701771
 31
0.0
 11
192.712508445764
 21
14.70699600701771
 31
0.0
 11
192.5607187353642
 21
14.70699600701771
 31
0.0
 11
192.3915263830078
 21
14.70699600701771
 31
0.0
 11
192.2165331499991
 21
14.70699600701771
 31
0.0
 11
192.0473407976427
 21
14.70699600701771
 31
0.0
 11
191.8955510872428
 21
14.70699600701771
 31
0.0
 11
191.7727657801042
 21
14.70699600701771
 31
0.0
 11
191.690586637531
 21
14.70699600701771
 31
0.0
 11
191.6606154208279
 21
14.70699600701771
 31
0.0
 11
191.6766359412525
 21
14.70165583340791
 31
0.0
 11
191.6926564616771
 21
14.69631565979812
 31
0.0
 11
191.6706155681421
 21
14.67558114591442
 31
0.0
 11
191.6284861855363
 21
14.66685871536112
 31
0.0
 11
191.5365235541377
 21
14.46909247312658
 31
0.0
 11
191.4279078521763
 21
14.25467511978508
 31
0.0
 11
191.3127500824807
 21
14.04622559051622
 31
0.0
 11
191.685736667502
 21
14.05582441253028
 31
0.0
 11
192.0830700036151
 21
14.06781232404992
 31
0.0
 11
192.4899342191145
 21
14.08102711828532
 31
0.0
 11
192.2983119496979
 21
14.28966761302479
 31
0.0
 11
192.0966752013698
 21
14.48229420151831
 31
0.0
 11
192.1204947794749
 21
14.49525327269564
 31
0.0
 11
192.1728978513061
 21
14.52376322928576
 31
0.0
 11
192.2253009231374
 21
14.55227318587588
 31
0.0
 11
192.2491205012425
 21
14.56523225705321
 31
0.0
 11
192.4387101558627
 21
14.39079508370268
 31
0.0
 11
192.6200310940436
 21
14.20305846374091
 31
0.0
 11
192.7777729231148
 21
14.01782380992437
 31
0.0
 11
192.8966252504058
 21
13.85089253500952
 31
0.0
 11
192.8715408217923
 21
13.83501202286071
 31
0.0
 11
192.8163550788425
 21
13.80007489613331
 31
0.0
 11
192.7611693358928
 21
13.76513776940592
 31
0.0
 11
192.7360849072793
 21
13.74925725725711
 31
0.0
 11
192.6775518151612
 21
13.83887824681809
 31
0.0
 11
192.6050015078458
 21
13.93650288221032
 31
0.0
 11
192.2125412924095
 21
13.91636286943759
 31
0.0
 11
191.8249474069561
 21
13.89803302999773
 31
0.0
 11
191.4567378976213
 21
13.88202178722396
 31
0.0
 11
191.1224308105413
 21
13.86883756444948
 31
0.0
 11
190.8365441918518
 21
13.85898878500751
 31
0.0
 11
190.821186232174
 21
13.83220523466695
 31
0.0
 11
190.7937434290546
 21
13.82143559057242
 31
0.0
 11
190.786792719232
 21
13.84370299445575
 31
0.0
 11
190.7702179496548
 21
13.89680218833137
 31
0.0
 11
190.7504351601596
 21
13.96017864553776
 31
0.0
 11
190.7338603905825
 21
14.01327783941338
 31
0.0
 11
190.7269096807599
 21
14.03554524329671
 31
0.0
 11
190.9091199859153
 21
14.03751638912952
 31
0.0
 11
191.1174975848589
 21
14.04356211829472
 31
0.0
 11
191.2303203127216
 21
14.25483550301553
 31
0.0
 11
191.3407936722035
 21
14.48509813155876
 31
0.0
 11
191.4358254265627
 21
14.70699600701771
 31
0.0
 11
191.4043277461597
 21
14.70699600701771
 31
0.0
 11
191.3212884069153
 21
14.70699600701771
 31
0.0
 11
191.2038879617768
 21
14.70699600701771
 31
0.0
 11
191.0693069636912
 21
14.70699600701771
 31
0.0
 11
190.9347259656055
 21
14.70699600701771
 31
0.0
 11
190.817325520467
 21
14.70699600701771
 31
0.0
 11
190.7342861812226
 21
14.70699600701771
 31
0.0
 11
190.7027885008196
 21
14.70699600701771
 31
0.0
  0
SPLINE
  5
AE
102
{ACAD_REACTORS
330
CB
102
}
330
48
100
AcDbEntity
  8
_U_30EC_U_30A4_U_30E4_U_30FC_1
  6
Continuous
 62
     2
100
AcDbSpline
210
0.0
220
0.0
230
1.0
 70
    11
 71
     3
 72
    35
 73
    31
 74
    29
 42
0.000000001
 43
0.0000000001
 44
0.00000001
 40
0.0
 40
0.0
 40
0.0
 40
0.0
 40
0.0335231036620094
 40
0.0713218571711909
 40
0.4278866681487395
 40
0.8116865841964341
 40
1.198190238000145
 40
1.561379546812803
 40
1.659983174622181
 40
1.759315573807299
 40
2.132719617231236
 40
2.525233363588992
 40
2.910815397779877
 40
3.265244364303444
 40
3.592606723582174
 40
3.964386154604112
 40
4.359942131737934
 40
4.758154118639458
 40
4.843846538700087
 40
4.936650065543391
 40
5.256616602537477
 40
5.58170740441622
 40
5.899719158308326
 40
6.198363494280947
 40
6.466301046616012
 40
6.493895311537334
 40
6.559697020197127
 40
6.638234543442704
 40
6.704036252154458
 40
6.731630508423264
 40
6.731630508423264
 40
6.731630508423264
 40
6.731630508423264
 10
191.9736010568669
 20
16.23463843719131
 30
0.0
 10
191.9676006097789
 20
16.22480690542321
 30
0.0
 10
191.9548344099157
 20
16.20388988579795
 30
0.0
 10
191.7949362006551
 20
16.17127126532712
 30
0.0
 10
192.2322025842338
 20
15.88206680336694
 30
0.0
 10
192.4345394828261
 20
15.68041138358434
 30
0.0
 10
192.6819564267974
 20
15.43749387603276
 30
0.0
 10
193.1831513624607
 20
15.36047662757764
 30
0.0
 10
193.0125562198971
 20
15.21876939174658
 30
0.0
 10
192.9383299463202
 20
15.01710366209097
 30
0.0
 10
192.6131432248188
 20
15.36956287174725
 30
0.0
 10
192.3277741670665
 20
15.53175212559561
 30
0.0
 10
192.0337604077657
 20
15.73687130053045
 30
0.0
 10
191.8084452691135
 20
16.21827488595449
 30
0.0
 10
191.5993085055521
 20
15.75343046609219
 30
0.0
 10
191.3207873674834
 20
15.54350952252909
 30
0.0
 10
191.0371383177209
 20
15.37424456359983
 30
0.0
 10
190.7078639527831
 20
15.00142360907929
 30
0.0
 10
190.6277012318224
 20
15.19708014458998
 30
0.0
 10
190.4759724909744
 20
15.32491104190589
 30
0.0
 10
190.9083395826794
 20
15.40454031765932
 30
0.0
 10
191.0962565329766
 20
15.6002663491547
 30
0.0
 10
191.3468477420503
 20
15.81632996916755
 30
0.0
 10
191.5714350470161
 20
15.98190992300058
 30
0.0
 10
191.6259775409712
 20
16.26133964636834
 30
0.0
 10
191.7494661029011
 20
16.24737950408082
 30
0.0
 10
191.806027334452
 20
16.24521268867649
 30
0.0
 10
191.8761870984945
 20
16.2404685988136
 30
0.0
 10
191.9333414022105
 20
16.23709429350539
 30
0.0
 10
191.9644190320839
 20
16.23519854711117
 30
0.0
 10
191.9736010568669
 20
16.23463843719131
 30
0.0
 11
191.9736010568669
 21
16.23463843719131
 31
0.0
 11
191.9525319069885
 21
16.20856374969785
 31
0.0
 11
191.9174464559425
 21
16.19450114553472
 31
0.0
 11
192.1512374769095
 21
15.92527961131381
 31
0.0
 11
192.4414585957566
 21
15.67413407969256
 31
0.0
 11
192.7612797483685
 21
15.4571098761878
 31
0.0
 11
193.083870870629
 21
15.29025232631632
 31
0.0
 11
193.0213299868076
 21
15.21402035584926
 31
0.0
 11
192.9688035818976
 21
15.12971197913421
 31
0.0
 11
192.6436279095814
 21
15.31326404831577
 31
0.0
 11
192.3237227768436
 21
15.54070139743427
 31
0.0
 11
192.0354200158608
 21
15.79673855123308
 31
0.0
 11
191.8050514588095
 21
16.06609003445561
 31
0.0
 11
191.5995531719516
 21
15.81126348721032
 31
0.0
 11
191.3288301341535
 21
15.55645182277753
 31
0.0
 11
191.0119538423246
 21
15.31969466354854
 31
0.0
 11
190.6679957933741
 21
15.11903163191461
 31
0.0
 11
190.6218855341338
 21
15.1912606770355
 31
0.0
 11
190.5636970460348
 21
15.26355586798961
 31
0.0
 11
190.8433040489015
 21
15.4191145696174
 31
0.0
 11
191.1093004621154
 21
15.60601009790402
 31
0.0
 11
191.3499997459746
 21
15.81384496285207
 31
0.0
 11
191.5537153607774
 21
16.03222167446417
 31
0.0
 11
191.7087607668218
 21
16.25074274274292
 31
0.0
 11
191.7363041569865
 21
16.24906789496555
 31
0.0
 11
191.8019845489177
 21
16.24507402718875
 31
0.0
 11
191.880377274771
 21
16.24030715274548
 31
0.0
 11
191.9460576667022
 21
16.23631328496868
 31
0.0
 11
191.9736010568669
 21
16.23463843719131
 31
0.0
  0
SPLINE
  5
AF
102
{ACAD_REACTORS
330
CC
102
}
330
48
100
AcDbEntity
  8
_U_30EC_U_30A4_U_30E4_U_30FC_1
  6
Continuous
 62
     2
100
AcDbSpline
210
0.0
220
0.0
230
1.0
 70
    11
 71
     3
 72
    15
 73
    11
 74
     9
 42
0.000000001
 43
0.0000000001
 44
0.00000001
 40
0.0
 40
0.0
 40
0.0
 40
0.0
 40
0.2785535985096679
 40
0.5215624748199137
 40
0.6076917376040187
 40
0.6938210001740325
 40
0.9405019146454617
 40
1.221691403489016
 40
1.300471877080899
 40
1.379252341684629
 40
1.379252341684629
 40
1.379252341684629
 40
1.379252341684629
 10
189.5681493630999
 20
16.22930267330382
 30
0.0
 10
189.6296017794178
 20
16.17691646592716
 30
0.0
 10
189.7446649974113
 20
16.07882876798221
 30
0.0
 10
190.0397348497243
 20
15.92889785897222
 30
0.0
 10
189.9025147631858
 20
15.84343227515013
 30
0.0
 10
189.8041227843779
 20
15.71085785201556
 30
0.0
 10
189.713003359065
 20
16.01616985781416
 30
0.0
 10
189.3636839480656
 20
16.0796786946537
 30
0.0
 10
189.511925837657
 20
16.17896509880878
 30
0.0
 10
189.5494081874237
 20
16.21252348402383
 30
0.0
 10
189.5681493630999
 20
16.22930267330382
 30
0.0
 11
189.5681493630999
 21
16.22930267330382
 31
0.0
 11
189.7919222440596
 21
16.06341774278972
 31
0.0
 11
189.9695046306383
 21
15.89753281227561
 31
0.0
 11
189.9066308127979
 21
15.83866743034591
 31
0.0
 11
189.8437569949576
 21
15.77980204841622
 31
0.0
 11
189.6688535117725
 21
15.95375677059491
 31
0.0
 11
189.4478256856141
 21
16.12757920110701
 31
0.0
 11
189.507987524357
 21
16.17844093720542
 31
0.0
 11
189.5681493630999
 21
16.22930267330382
 31
0.0
  0
SPLINE
  5
B0
102
{ACAD_REACTORS
330
CD
102
}
330
48
100
AcDbEntity
  8
_U_30EC_U_30A4_U_30E4_U_30FC_1
  6
Continuous
 62
     2
100
AcDbSpline
210
0.0
220
0.0
230
1.0
 70
    11
 71
     3
 72
    75
 73
    71
 74
    69
 42
0.000000001
 43
0.0000000001
 44
0.00000001
 40
0.0
 40
0.0
 40
0.0
 40
0.0
 40
0.0342546099129691
 40
0.1245622414432364
 40
0.2522385480897554
 40
0.3985991922940733
 40
0.5449598364980892
 40
0.6726361431438923
 40
0.7629437746737049
 40
0.7971983935298079
 40
1.10172362344973
 40
1.408591244036683
 40
1.433332471690382
 40
1.487763172450162
 40
1.542193873081974
 40
1.566935100592516
 40
1.923523931821835
 40
2.271755704953613
 40
2.590579755100828
 40
2.858943305581054
 40
2.88912033930912
 40
2.918305855191122
 40
2.941366645531248
 40
2.996357760973138
 40
3.061992318140693
 40
3.116983433626868
 40
3.140044223997558
 40
3.411273122936396
 40
3.732441619741064
 40
3.761068217532762
 40
3.837787499630319
 40
3.948858699125957
 40
4.080541049104326
 40
4.219093782625704
 40
4.350776132722251
 40
4.461847332405579
 40
4.538566614678311
 40
4.567193212544556
 40
4.594907573998814
 40
4.666381453557353
 40
4.764111044010964
 40
4.870592538125766
 40
4.968322128642217
 40
5.039796008286903
 40
5.067510369784362
 40
5.094263603185574
 40
5.153120716668207
 40
5.211977830150651
 40
5.238731063551654
 40
5.272290535138893
 40
5.363380529444754
 40
5.497618415781432
 40
5.660621563453674
 40
5.838007341749375
 40
6.015393119910726
 40
6.178396267038352
 40
6.312634151842303
 40
6.403724143059293
 40
6.437283612672388
 40
6.464036846261003
 40
6.522893960004616
 40
6.581751071483879
 40
6.608504301590823
 40
6.637253941280971
 40
6.711397748902822
 40
6.812778057283435
 40
6.923237199249211
 40
7.024617507623855
 40
7.098761315207508
 40
7.127510946007458
 40
7.127510946007458
 40
7.127510946007458
 40
7.127510946007458
 10
188.4418622390564
 20
14.95849128473262
 30
0.0
 10
188.4418622819707
 20
14.94707313408718
 30
0.0
 10
188.4418624481128
 20
14.90555257842627
 30
0.0
 10
188.4418593081787
 20
14.8214692200377
 30
0.0
 10
188.44187882798
 20
14.70004497322326
 30
0.0
 10
188.4417912187737
 20
14.55980494047446
 30
0.0
 10
188.442111623523
 20
14.42006556794574
 30
0.0
 10
188.4411605909741
 20
14.29745038894926
 30
0.0
 10
188.4431978595967
 20
14.21587074438039
 30
0.0
 10
188.4349433178746
 20
14.06271267077693
 30
0.0
 10
188.74307979409
 20
14.22560236054714
 30
0.0
 10
189.0350645173738
 20
14.39482938688004
 30
0.0
 10
189.0408354448707
 20
14.25973235781911
 30
0.0
 10
189.0455471719892
 20
14.21617221160447
 30
0.0
 10
189.0482535411917
 20
14.17211249350548
 30
0.0
 10
189.067254567296
 20
14.02272590363139
 30
0.0
 10
188.6583942247302
 20
14.08681172241263
 30
0.0
 10
188.3793710348832
 20
13.97296341411016
 30
0.0
 10
188.1018081587166
 20
13.87364095811142
 30
0.0
 10
187.8099837184402
 20
13.91630687596354
 30
0.0
 10
187.7869144678658
 20
13.81321679744537
 30
0.0
 10
187.7537474383333
 20
13.78691091244464
 30
0.0
 10
187.7480653962738
 20
13.83455309036299
 30
0.0
 10
187.7284214559045
 20
13.87180336115068
 30
0.0
 10
187.7095089485623
 20
13.93007387847559
 30
0.0
 10
187.6942849867708
 20
13.97385201007805
 30
0.0
 10
187.6477246372936
 20
14.08759421046303
 30
0.0
 10
187.9890897312451
 20
14.05576301120049
 30
0.0
 10
188.2679649367387
 20
14.02161435106479
 30
0.0
 10
188.2617753034907
 20
14.16913976479653
 30
0.0
 10
188.2630935452773
 20
14.24013150908833
 30
0.0
 10
188.2624831689948
 20
14.34719767958662
 30
0.0
 10
188.2625871570725
 20
14.47398529785997
 30
0.0
 10
188.2629987964055
 20
14.60849243496049
 30
0.0
 10
188.2613907841969
 20
14.73395549951183
 30
0.0
 10
188.2659902567925
 20
14.84505246719116
 30
0.0
 10
188.256418650221
 20
14.90761886800687
 30
0.0
 10
188.2704001783691
 20
14.96595388294999
 30
0.0
 10
188.2147384386705
 20
14.95289710582236
 30
0.0
 10
188.1575655197821
 20
14.96136307749496
 30
0.0
 10
188.0616048925648
 20
14.95729976080634
 30
0.0
 10
187.963376752282
 20
14.95970889852472
 30
0.0
 10
187.8672582457561
 20
14.95551600613386
 30
0.0
 10
187.8104648525811
 20
14.96429346441161
 30
0.0
 10
187.7550356873384
 20
14.95094936850118
 30
0.0
 10
187.7670679427917
 20
15.00036910959254
 30
0.0
 10
187.7592003173937
 20
15.04393988030393
 30
0.0
 10
187.7666295563828
 20
15.08830469118522
 30
0.0
 10
187.7551930564144
 20
15.13902297763988
 30
0.0
 10
187.8232102370132
 20
15.1216246075774
 30
0.0
 10
187.8968496879747
 20
15.13417450237186
 30
0.0
 10
188.0325064058211
 20
15.12799677011094
 30
0.0
 10
188.1884909024525
 20
15.13029203093081
 30
0.0
 10
188.3615926358143
 20
15.12940968262527
 30
0.0
 10
188.5346942964181
 20
15.13029207142405
 30
0.0
 10
188.6906789811216
 20
15.12799662955547
 30
0.0
 10
188.8263351889797
 20
15.13417486262428
 30
0.0
 10
188.8999756705652
 20
15.12162394218332
 30
0.0
 10
188.9679914174724
 20
15.1390237301214
 30
0.0
 10
188.9565590885922
 20
15.08830130414552
 30
0.0
 10
188.9639539458298
 20
15.04397060811106
 30
0.0
 10
188.956203991227
 20
15.00028307550193
 30
0.0
 10
188.9681203741877
 20
14.95063590098475
 30
0.0
 10
188.9108170223616
 20
14.96461411338423
 30
0.0
 10
188.8520145789772
 20
14.95539755673252
 30
0.0
 10
188.7525293633199
 20
14.95952268164927
 30
0.0
 10
188.649428009835
 20
14.95822760025886
 30
0.0
 10
188.5537846354573
 20
14.95854077077638
 30
0.0
 10
188.4857467971617
 20
14.95848776697143
 30
0.0
 10
188.4514462213443
 20
14.95849051871654
 30
0.0
 10
188.4418622390564
 20
14.95849128473262
 30
0.0
 11
188.4418622390564
 21
14.95849128473262
 31
0.0
 11
188.4418622390564
 21
14.92423666587183
 31
0.0
 11
188.4418622390564
 21
14.83392903432973
 31
0.0
 11
188.4418622390564
 21
14.70625272766677
 31
0.0
 11
188.4418622390564
 21
14.55989208344337
 31
0.0
 11
188.4418622390564
 21
14.41353143921997
 31
0.0
 11
188.4418622390564
 21
14.28585513255701
 31
0.0
 11
188.4418622390564
 21
14.19554750101491
 31
0.0
 11
188.4418622390564
 21
14.16129288215412
 31
0.0
 11
188.7391932644568
 21
14.22709475713767
 31
0.0
 11
189.0384623627245
 21
14.29496038212072
 31
0.0
 11
189.0405487124976
 21
14.27030727882828
 31
0.0
 11
189.0451386819987
 21
14.21607045158492
 31
0.0
 11
189.0497286514996
 21
14.16183362434156
 31
0.0
 11
189.0518150012728
 21
14.13718052104912
 31
0.0
 11
188.705639688924
 21
14.05163370140899
 31
0.0
 11
188.3669653138838
 21
13.97060877629901
 31
0.0
 11
188.0563731516688
 21
13.89862764024928
 31
0.0
 11
187.7944444777956
 21
13.84021218778992
 31
0.0
 11
187.7817515029292
 21
13.8128344273801
 31
0.0
 11
187.7569794787513
 21
13.79740260446731
 31
0.0
 11
187.7491867589501
 21
13.81910683390633
 31
0.0
 11
187.7306041194242
 21
13.87086307333783
 31
0.0
 11
187.70842483999
 21
13.93263664943349
 31
0.0
 11
187.6898422004641
 21
13.984392888865
 31
0.0
 11
187.6820494806629
 21
14.00609711830401
 31
0.0
 11
187.9482776335931
 21
14.05794001759665
 31
0.0
 11
188.2626334936289
 21
14.12373968771911
 31
0.0
 11
188.2626334936289
 21
14.15236628569625
 31
0.0
 11
188.2626334936289
 21
14.229085568275
 31
0.0
 11
188.2626334936289
 21
14.34015676842632
 31
0.0
 11
188.2626334936289
 21
14.47183911912118
 31
0.0
 11
188.2626334936289
 21
14.61039185333055
 31
0.0
 11
188.2626334936289
 21
14.74207420402541
 31
0.0
 11
188.2626334936289
 21
14.85314540417673
 31
0.0
 11
188.2626334936289
 21
14.92986468675548
 31
0.0
 11
188.2626334936289
 21
14.95849128473262
 31
0.0
 11
188.2349191321108
 21
14.95849128473262
 31
0.0
 11
188.1634452524063
 21
14.95849128473262
 31
0.0
 11
188.06571566179
 21
14.95849128473262
 31
0.0
 11
187.9592341675364
 21
14.95849128473262
 31
0.0
 11
187.8615045769201
 21
14.95849128473262
 31
0.0
 11
187.7900306972156
 21
14.95849128473262
 31
0.0
 11
187.7623163356975
 21
14.95849128473262
 31
0.0
 11
187.7623163356975
 21
14.98524451823287
 31
0.0
 11
187.7623163356975
 21
15.04410163193342
 31
0.0
 11
187.7623163356975
 21
15.10295874563396
 31
0.0
 11
187.7623163356975
 21
15.12971197913421
 31
0.0
 11
187.7958758072874
 21
15.12971197913421
 31
0.0
 11
187.8869658016031
 21
15.12971197913421
 31
0.0
 11
188.0212036879629
 21
15.12971197913421
 31
0.0
 11
188.1842068356856
 21
15.12971197913421
 31
0.0
 11
188.3615926140897
 21
15.12971197913421
 31
0.0
 11
188.5389783924938
 21
15.12971197913421
 31
0.0
 11
188.7019815402164
 21
15.12971197913421
 31
0.0
 11
188.8362194265763
 21
15.12971197913421
 31
0.0
 11
188.9273094208918
 21
15.12971197913421
 31
0.0
 11
188.9608688924818
 21
15.12971197913421
 31
0.0
 11
188.9608688924818
 21
15.10295874563396
 31
0.0
 11
188.9608688924818
 21
15.04410163193342
 31
0.0
 11
188.9608688924818
 21
14.98524451823287
 31
0.0
 11
188.9608688924818
 21
14.95849128473262
 31
0.0
 11
188.9321192527877
 21
14.95849128473262
 31
0.0
 11
188.8579754451555
 21
14.95849128473262
 31
0.0
 11
188.7565951367604
 21
14.95849128473262
 31
0.0
 11
188.6461359947778
 21
14.95849128473262
 31
0.0
 11
188.5447556863827
 21
14.95849128473262
 31
0.0
 11
188.4706118787505
 21
14.95849128473262
 31
0.0
 11
188.4418622390564
 21
14.95849128473262
 31
0.0
  0
SPLINE
  5
B1
102
{ACAD_REACTORS
330
CE
102
}
330
48
100
AcDbEntity
  8
_U_30EC_U_30A4_U_30E4_U_30FC_1
  6
Continuous
 62
     2
100
AcDbSpline
210
0.0
220
0.0
230
1.0
 70
    11
 71
     3
 72
    91
 73
    87
 74
    85
 42
0.000000001
 43
0.0000000001
 44
0.00000001
 40
0.0
 40
0.0
 40
0.0
 40
0.0
 40
0.0345987051695718
 40
0.1258134969461369
 40
0.2547723404888987
 40
0.4026032099154125
 40
0.5504340793416704
 40
0.679392922883608
 40
0.7706077146571035
 40
0.8052064287780925
 40
1.124852390615279
 40
1.427402236308869
 40
1.706356627453503
 40
1.955541417875186
 40
2.169485938566321
 40
2.344350786664781
 40
2.480568411561946
 40
2.590440557428994
 40
2.649189927151097
 40
2.749320643306297
 40
2.912632739879999
 40
3.147745656000208
 40
3.244827496385022
 40
3.338490056946599
 40
3.583815413207012
 40
3.76142394323836
 40
3.886956104362516
 40
3.985855451886675
 40
4.091766255337559
 40
4.250186473811751
 40
4.42273431508439
 40
4.62828568483847
 40
4.872093227758285
 40
5.152549652145376
 40
5.464967135837341
 40
5.803201477852247
 40
6.16036298881372
 40
6.193449448275775
 40
6.284170385501429
 40
6.419718138764271
 40
6.587285046385521
 40
6.774063446723435
 40
6.96724567811339
 40
7.154024078817404
 40
7.321590987025761
 40
7.457138740890091
 40
7.547859678555827
 40
7.580946138182387
 40
7.608533084714455
 40
7.669224367077465
 40
7.729915649429715
 40
7.757502595949783
 40
7.790278062553265
 40
7.880146277430734
 40
8.014419963180169
 40
8.18041184239767
 40
8.365434637679138
 40
8.556801071622411
 40
8.741823866830496
 40
8.907815745916063
 40
9.04208943150716
 40
9.131957646249285
 40
9.164733112796862
 40
9.415425063139763
 40
9.667986180958216
 40
9.694169807462384
 40
9.756607686047342
 40
9.831130315322234
 40
9.89356819389967
 40
9.919751820398515
 40
9.950967964690362
 40
9.996421631210483
 40
10.22087981037435
 40
10.44341866197518
 40
10.4784797078883
 40
10.57091337438731
 40
10.70159545461205
 40
10.85140174170336
 40
11.00120802880453
 40
11.13189010907358
 40
11.22432377582986
 40
11.25938480938932
 40
11.28697175596122
 40
11.347663038359
 40
11.40835432042054
 40
11.4359412589209
 40
11.4359412589209
 40
11.4359412589209
 40
11.4359412589209
 10
190.0818114333289
 20
15.55242795125072
 30
0.0
 10
190.0702785844941
 20
15.5524279028791
 30
0.0
 10
190.0283409444998
 20
15.55242773704159
 30
0.0
 10
189.9434129719026
 20
15.55243125800904
 30
0.0
 10
189.8207688553128
 20
15.55240926435873
 30
0.0
 10
189.6791206916993
 20
15.55250801177049
 30
0.0
 10
189.537975369849
 20
15.55214686232416
 30
0.0
 10
189.4141351317904
 20
15.55321883609083
 30
0.0
 10
189.3317217825382
 20
15.55092249091264
 30
0.0
 10
189.1727791229691
 20
15.56048569373414
 30
0.0
 10
189.3503402353376
 20
15.19785394311366
 30
0.0
 10
189.3379739205452
 20
14.95243127723109
 30
0.0
 10
189.4064519473864
 20
14.6686250132483
 30
0.0
 10
189.469302432097
 20
14.43250999939033
 30
0.0
 10
189.5452253431728
 20
14.23326740396126
 30
0.0
 10
189.6303189577016
 20
14.07745347451372
 30
0.0
 10
189.7244607592937
 20
13.97657857781392
 30
0.0
 10
189.8282648207728
 20
13.92465852638963
 30
0.0
 10
189.9125872030774
 20
13.97606484379619
 30
0.0
 10
189.9351322179452
 20
14.09144544037516
 30
0.0
 10
189.9745730975371
 20
14.21885149702378
 30
0.0
 10
189.9202919734943
 20
14.5362232808676
 30
0.0
 10
190.0451218072473
 20
14.389821801409
 30
0.0
 10
190.2019291513603
 20
14.35795300331176
 30
0.0
 10
190.0947720007057
 20
14.12421357767629
 30
0.0
 10
190.0808711209867
 20
13.9597277658366
 30
0.0
 10
190.0234709467225
 20
13.83130869122487
 30
0.0
 10
189.9335020145008
 20
13.76018802352831
 30
0.0
 10
189.8095274657878
 20
13.74432324142259
 30
0.0
 10
189.663427319686
 20
13.77993797554176
 30
0.0
 10
189.5243894320284
 20
13.9000057050028
 30
0.0
 10
189.4102003962145
 20
14.07435682550321
 30
0.0
 10
189.3146141301485
 20
14.2994660311124
 30
0.0
 10
189.2318652572627
 20
14.56388246006441
 30
0.0
 10
189.1807179256412
 20
14.8818793309854
 30
0.0
 10
189.0770189207338
 20
15.15543728488908
 30
0.0
 10
189.2042841208522
 20
15.56005818612863
 30
0.0
 10
189.0357890623018
 20
15.55112367849673
 30
0.0
 10
188.9511995787077
 20
15.55315961418358
 30
0.0
 10
188.8189876387628
 20
15.55213937388401
 30
0.0
 10
188.6560505094104
 20
15.55253230318424
 30
0.0
 10
188.4733759170533
 20
15.55235696313364
 30
0.0
 10
188.2847057373383
 20
15.55260105307463
 30
0.0
 10
188.1014469020189
 20
15.55185657906231
 30
0.0
 10
187.9404746832719
 20
15.55416360522421
 30
0.0
 10
187.8029808335276
 20
15.54799804883657
 30
0.0
 10
187.7289590372311
 20
15.56032838458206
 30
0.0
 10
187.6613215186857
 20
15.54329323723551
 30
0.0
 10
187.673237371927
 20
15.59524438447525
 30
0.0
 10
187.6655677285694
 20
15.64071424966528
 30
0.0
 10
187.6732592225117
 20
15.68614453703707
 30
0.0
 10
187.6613141797762
 20
15.73802395984575
 30
0.0
 10
187.7283588305868
 20
15.72119143490269
 30
0.0
 10
187.8017375665678
 20
15.73335409092675
 30
0.0
 10
187.9379128305273
 20
15.72727231074963
 30
0.0
 10
188.0973811801513
 20
15.72954834315062
 30
0.0
 10
188.2789173085837
 20
15.72881233998966
 30
0.0
 10
188.4658034862179
 20
15.72905954196138
 30
0.0
 10
188.6468012316836
 20
15.72886400799257
 30
0.0
 10
188.8080802578879
 20
15.72932234714844
 30
0.0
 10
188.9393882124886
 20
15.7281267375121
 30
0.0
 10
189.0225051322597
 20
15.73051347319747
 30
0.0
 10
189.1556236547812
 20
15.72230605725466
 30
0.0
 10
189.0645893502659
 20
15.97752868952659
 30
0.0
 10
188.9789633074419
 20
16.24164358328245
 30
0.0
 10
189.0990589003455
 20
16.22904442969167
 30
0.0
 10
189.1514264948543
 20
16.22694235763076
 30
0.0
 10
189.2214497569716
 20
16.22535399889659
 30
0.0
 10
189.2671922337818
 20
16.21602567538115
 30
0.0
 10
189.3220812646934
 20
16.22545966915429
 30
0.0
 10
189.2963574785682
 20
16.17733028655174
 30
0.0
 10
189.1825397571453
 20
16.18266829744157
 30
0.0
 10
189.3159346621136
 20
15.95449174576779
 30
0.0
 10
189.1943658735472
 20
15.72156856595928
 30
0.0
 10
189.3223188769412
 20
15.73087258884442
 30
0.0
 10
189.4049048406461
 20
15.72801001754684
 30
0.0
 10
189.5307214850824
 20
15.72923437412306
 30
0.0
 10
189.6741469838057
 20
15.72932431888968
 30
0.0
 10
189.8157420951728
 20
15.72746163183857
 30
0.0
 10
189.9459127249967
 20
15.73333075937167
 30
0.0
 10
190.0193452286191
 20
15.72070340823208
 30
0.0
 10
190.0891112922096
 20
15.73877563110416
 30
0.0
 10
190.0775772605396
 20
15.68612850546328
 30
0.0
 10
190.0833184346682
 20
15.64221317686547
 30
0.0
 10
190.0816615770911
 20
15.59089982676546
 30
0.0
 10
190.081775756167
 20
15.5615879202163
 30
0.0
 10
190.0818114333289
 20
15.55242795125072
 30
0.0
 11
190.0818114333289
 21
15.55242795125072
 31
0.0
 11
190.0472127192051
 21
15.55242795125072
 31
0.0
 11
189.9559979274241
 21
15.55242795125072
 31
0.0
 11
189.8270390838717
 21
15.55242795125072
 31
0.0
 11
189.6792082144335
 21
15.55242795125072
 31
0.0
 11
189.5313773449954
 21
15.55242795125072
 31
0.0
 11
189.402418501443
 21
15.55242795125072
 31
0.0
 11
189.311203709662
 21
15.55242795125072
 31
0.0
 11
189.2766049955382
 21
15.55242795125072
 31
0.0
 11
189.3083140497693
 21
15.23435864930116
 31
0.0
 11
189.3527866656865
 21
14.93509522788076
 31
0.0
 11
189.4092389118319
 21
14.66191269512572
 31
0.0
 11
189.4768868567478
 21
14.42208605917224
 31
0.0
 11
189.5549465689762
 21
14.22289032815652
 31
0.0
 11
189.6426341170592
 21
14.07160051021476
 31
0.0
 11
189.7391655695389
 21
13.97549161348316
 31
0.0
 11
189.8437569949576
 21
13.94183864609792
 31
0.0
 11
189.8943077302786
 21
13.97177376978835
 31
0.0
 11
189.9310588991552
 21
14.06491619815047
 31
0.0
 11
189.9562640977528
 21
14.22627151712054
 31
0.0
 11
189.9721769222369
 21
14.46084531263482
 31
0.0
 11
190.0494082682583
 21
14.40202182306616
 31
0.0
 11
190.1327184184385
 21
14.35921885432691
 31
0.0
 11
190.1066365811217
 21
14.11528388661012
 31
0.0
 11
190.0673317805105
 21
13.94207902887566
 31
0.0
 11
190.0105702596765
 21
13.83011272445922
 31
0.0
 11
189.932118261691
 21
13.7698934166965
 31
0.0
 11
189.8277420296256
 21
13.75192954892322
 31
0.0
 11
189.6738595065097
 21
13.78957440012366
 31
0.0
 11
189.5388902376747
 21
13.89707348877407
 31
0.0
 11
189.4221739916163
 21
14.0662736174481
 31
0.0
 11
189.32305053683
 21
14.28902158871943
 31
0.0
 11
189.2408596418113
 21
14.5571642051617
 31
0.0
 11
189.1749410750559
 21
14.86254826934857
 31
0.0
 11
189.1246346050593
 21
15.19702058385369
 31
0.0
 11
189.0892800003171
 21
15.55242795125072
 31
0.0
 11
189.0561935405844
 21
15.55242795125072
 31
0.0
 11
188.9654726026075
 21
15.55242795125072
 31
0.0
 11
188.8299248482185
 21
15.55242795125072
 31
0.0
 11
188.6623579392495
 21
15.55242795125072
 31
0.0
 11
188.4755795375324
 21
15.55242795125072
 31
0.0
 11
188.2823973048993
 21
15.55242795125072
 31
0.0
 11
188.0956189031822
 21
15.55242795125072
 31
0.0
 11
187.9280519942131
 21
15.55242795125072
 31
0.0
 11
187.7925042398242
 21
15.55242795125072
 31
0.0
 11
187.7017833018473
 21
15.55242795125072
 31
0.0
 11
187.6686968421146
 21
15.55242795125072
 31
0.0
 11
187.6686968421146
 21
15.58001489785842
 31
0.0
 11
187.6686968421146
 21
15.64070618039537
 31
0.0
 11
187.6686968421146
 21
15.70139746293232
 31
0.0
 11
187.6686968421146
 21
15.72898440954002
 31
0.0
 11
187.7014723087632
 21
15.72898440954002
 31
0.0
 11
187.7913405237674
 21
15.72898440954002
 31
0.0
 11
187.9256142097149
 21
15.72898440954002
 31
0.0
 11
188.0916060891932
 21
15.72898440954002
 31
0.0
 11
188.2766288847902
 21
15.72898440954002
 31
0.0
 11
188.4679953190932
 21
15.72898440954002
 31
0.0
 11
188.6530181146902
 21
15.72898440954002
 31
0.0
 11
188.8190099941685
 21
15.72898440954002
 31
0.0
 11
188.953283680116
 21
15.72898440954002
 31
0.0
 11
189.0431518951202
 21
15.72898440954002
 31
0.0
 11
189.0759273617688
 21
15.72898440954002
 31
0.0
 11
189.0659183950103
 21
15.9794764754496
 31
0.0
 11
189.0599112510663
 21
16.23196614552532
 31
0.0
 11
189.0860575870659
 21
16.23056921608123
 31
0.0
 11
189.1484065421419
 21
16.22723807663762
 31
0.0
 11
189.22282303691
 21
16.22326220052751
 31
0.0
 11
189.285171991986
 21
16.2199310610839
 31
0.0
 11
189.3113183279856
 21
16.21853413163981
 31
0.0
 11
189.2982931113041
 21
16.1901652861608
 31
0.0
 11
189.2551649266406
 21
16.17581274276161
 31
0.0
 11
189.2574991961822
 21
15.95136670115107
 31
0.0
 11
189.2658452735903
 21
15.72898440954002
 31
0.0
 11
189.3009063195165
 21
15.72898440954002
 31
0.0
 11
189.3933399860495
 21
15.72898440954002
 31
0.0
 11
189.5240220663201
 21
15.72898440954002
 31
0.0
 11
189.6738283534596
 21
15.72898440954002
 31
0.0
 11
189.8236346405991
 21
15.72898440954002
 31
0.0
 11
189.9543167208697
 21
15.72898440954002
 31
0.0
 11
190.0467503874027
 21
15.72898440954002
 31
0.0
 11
190.0818114333289
 21
15.72898440954002
 31
0.0
 11
190.0818114333289
 21
15.70139746293232
 31
0.0
 11
190.0818114333289
 21
15.64070618039537
 31
0.0
 11
190.0818114333289
 21
15.58001489785842
 31
0.0
 11
190.0818114333289
 21
15.55242795125072
 31
0.0
  0
SPLINE
  5
B2
102
{ACAD_REACTORS
330
CF
102
}
330
48
100
AcDbEntity
  8
_U_30EC_U_30A4_U_30E4_U_30FC_1
  6
Continuous
 62
     2
100
AcDbSpline
210
0.0
220
0.0
230
1.0
 70
    11
 71
     3
 72
   118
 73
   114
 74
   112
 42
0.000000001
 43
0.0000000001
 44
0.00000001
 40
0.0
 40
0.0
 40
0.0
 40
0.0
 40
0.1054708162972979
 40
0.2466098270051312
 40
0.3965912874590514
 40
0.528552506975333
 40
0.6156245055641599
 40
0.6431434105796912
 40
0.7036850037985573
 40
0.7642265984503942
 40
0.7917455052354246
 40
0.9287404319989104
 40
1.10657281908793
 40
1.287544879680894
 40
1.317578308030411
 40
1.399928030857049
 40
1.522968204799825
 40
1.675072986590447
 40
1.844616533180527
 40
2.019973001638592
 40
2.189516548879904
 40
2.341621331585245
 40
2.464661506320383
 40
2.547011229646946
 40
2.577044658167912
 40
2.603797890892983
 40
2.662655002908727
 40
2.721512114949595
 40
2.748265347702775
 40
2.77421530734485
 40
2.84595931340718
 40
2.954338556588379
 40
3.090194227585553
 40
3.244367517100516
 40
3.407699615844273
 40
3.571031714539417
 40
3.725205003920093
 40
3.861060674729591
 40
3.969439917716281
 40
4.041183923628953
 40
4.067133883212946
 40
4.311886746012113
 40
4.547897258335471
 40
4.764747083043916
 40
4.952749679951722
 40
5.045772974195843
 40
5.137862019644949
 40
5.330543169793005
 40
5.553448265244001
 40
5.795083855888181
 40
6.043293412177228
 40
6.285761695541126
 40
6.31390290875261
 40
6.384255941793199
 40
6.475714884766788
 40
6.56717382775885
 40
6.637526860839628
 40
6.665668074073992
 40
6.692018920327969
 40
6.74999078207105
 40
6.807962643790429
 40
6.834313490017907
 40
6.856393084245186
 40
6.913335195649809
 40
6.991194817302473
 40
7.076026942283734
 40
7.153886563725225
 40
7.210828674844807
 40
7.232908268931142
 40
7.258199334923662
 40
7.324875781592304
 40
7.419142481924952
 40
7.527204308841887
 40
7.635266135230456
 40
7.729532834168435
 40
7.79620927929275
 40
7.821500344594693
 40
7.844652988850763
 40
7.899863140541541
 40
7.965759128053706
 40
8.02096927977099
 40
8.044121924046456
 40
8.069356610160536
 40
8.109134395441219
 40
8.132238100190934
 40
8.1931478677863
 40
8.279261678876475
 40
8.377977512673697
 40
8.476693347146487
 40
8.562807160411541
 40
8.623716930826332
 40
8.646820636853287
 40
8.6719887937741
 40
8.734909185827954
 40
8.816705695188668
 40
8.89850220481521
 40
8.961422597377643
 40
8.986590754550756
 40
9.012941600732916
 40
9.070913462380013
 40
9.128885324081516
 40
9.15523617032484
 40
9.180404327928883
 40
9.243324721947928
 40
9.325121234211665
 40
9.406917746637319
 40
9.469838141977775
 40
9.49500628827052
 40
9.517811184378656
 40
9.572192090486645
 40
9.637098333280859
 40
9.691479239515047
 40
9.714284125643081
 40
9.714284125643081
 40
9.714284125643081
 40
9.714284125643081
 10
185.2874469028654
 20
15.26889163187721
 30
0.0
 10
185.3090990569038
 20
15.24111869242813
 30
0.0
 10
185.3597257109474
 20
15.17618054561238
 30
0.0
 10
185.4349383202592
 20
15.06891060312901
 30
0.0
 10
185.5248482274346
 20
14.95377438266626
 30
0.0
 10
185.5709169676674
 20
14.85357045748322
 30
0.0
 10
185.6655825294655
 20
14.78434006814944
 30
0.0
 10
185.6204439320413
 20
14.73771639678275
 30
0.0
 10
185.594704778579
 20
14.6966030886604
 30
0.0
 10
185.5645196708011
 20
14.66065971727941
 30
0.0
 10
185.5193684730563
 20
14.58579782596096
 30
0.0
 10
185.4710504458561
 20
14.80782524253604
 30
0.0
 10
185.3968539713073
 20
14.84510677337708
 30
0.0
 10
185.2836047324608
 20
15.116102021306
 30
0.0
 10
185.288513357817
 20
15.00095328446228
 30
0.0
 10
185.2868486556307
 20
14.92836675781628
 30
0.0
 10
185.2876830076715
 20
14.80625588483986
 30
0.0
 10
185.2873609540266
 20
14.6591380081046
 30
0.0
 10
185.2875076912456
 20
14.49307063956557
 30
0.0
 10
185.2872950092724
 20
14.32187554608601
 30
0.0
 10
185.2879497252034
 20
14.15552828635498
 30
0.0
 10
185.285919246114
 20
14.00935173055692
 30
0.0
 10
185.2913460399932
 20
13.8847104747461
 30
0.0
 10
185.2804930868708
 20
13.81718656540625
 30
0.0
 10
185.2956739155556
 20
13.75549061417021
 30
0.0
 10
185.2457895108134
 20
13.76727503897001
 30
0.0
 10
185.2017150342522
 20
13.75943822779967
 30
0.0
 10
185.1582371630201
 20
13.76760441372703
 30
0.0
 10
185.1092346786488
 20
13.75538056738466
 30
0.0
 10
185.1218731234825
 20
13.80960667249312
 30
0.0
 10
185.1130182968449
 20
13.86936918907557
 30
0.0
 10
185.1175058770314
 20
13.97922029044369
 30
0.0
 10
185.1157960135992
 20
14.11029975405677
 30
0.0
 10
185.1163550915986
 20
14.26198011444326
 30
0.0
 10
185.1161928768694
 20
14.42211074929951
 30
0.0
 10
185.1162269924675
 20
14.58236865674564
 30
0.0
 10
185.1162514960127
 20
14.73370247520437
 30
0.0
 10
185.1161453543224
 20
14.86582156338598
 30
0.0
 10
185.1164299141931
 20
14.9729480253319
 30
0.0
 10
185.1158675547567
 20
15.0380861957947
 30
0.0
 10
185.118076508369
 20
15.16618957858672
 30
0.0
 10
185.0319435998602
 20
14.79097610391574
 30
0.0
 10
184.95551408185
 20
14.63918193123395
 30
0.0
 10
184.8660040767833
 20
14.47766206446305
 30
0.0
 10
184.7640413217327
 20
14.20471848820171
 30
0.0
 10
184.7187976491038
 20
14.3671734659651
 30
0.0
 10
184.6102355941671
 20
14.45605432058121
 30
0.0
 10
184.7995791751752
 20
14.6054979496141
 30
0.0
 10
184.85653405457
 20
14.79749136974929
 30
0.0
 10
184.9717520993353
 20
15.02899622906757
 30
0.0
 10
184.9940151630132
 20
15.21797259759062
 30
0.0
 10
185.177190515214
 20
15.49454089325926
 30
0.0
 10
185.0538033597552
 20
15.48698978832091
 30
0.0
 10
184.9925684166834
 20
15.48856772366116
 30
0.0
 10
184.9081999617064
 20
15.48882592573669
 30
0.0
 10
184.8204235085966
 20
15.48544845751203
 30
0.0
 10
184.7656768696122
 20
15.49394814982016
 30
0.0
 10
184.7104703026025
 20
15.48048561049785
 30
0.0
 10
184.7222823035536
 20
15.52931442126761
 30
0.0
 10
184.7142496151794
 20
15.57269004896707
 30
0.0
 10
184.7228186104679
 20
15.61509438309573
 30
0.0
 10
184.7102943409156
 20
15.66267796552118
 30
0.0
 10
184.7555101538736
 20
15.6526721299511
 30
0.0
 10
184.8014815562723
 20
15.65894105174061
 30
0.0
 10
184.877722204771
 20
15.65593561405872
 30
0.0
 10
184.9561296131993
 20
15.65770448278541
 30
0.0
 10
185.0323992648932
 20
15.6546479398166
 30
0.0
 10
185.0783009459475
 20
15.66103971376177
 30
0.0
 10
185.12317339654
 20
15.65093822978897
 30
0.0
 10
185.1105552275633
 20
15.70157201581898
 30
0.0
 10
185.1191936582707
 20
15.75501261882069
 30
0.0
 10
185.1152361595442
 20
15.84863255131679
 30
0.0
 10
185.1162325068335
 20
15.95112606688921
 30
0.0
 10
185.1171927413073
 20
16.0535327024816
 30
0.0
 10
185.1133211458005
 20
16.14735929609317
 30
0.0
 10
185.1217789814364
 20
16.20036542840349
 30
0.0
 10
185.1093075932835
 20
16.25211435651182
 30
0.0
 10
185.154210638985
 20
16.23850747226754
 30
0.0
 10
185.1955083836771
 20
16.24100480320582
 30
0.0
 10
185.259534428105
 20
16.23648060574486
 30
0.0
 10
185.2986111148786
 20
16.22781003043308
 30
0.0
 10
185.3476543498742
 20
16.23515102070689
 30
0.0
 10
185.3225080030591
 20
16.19602896051761
 30
0.0
 10
185.2815901333724
 20
16.20563842455808
 30
0.0
 10
185.2910109616605
 20
16.1554014816978
 30
0.0
 10
185.2855647318747
 20
16.10385945639493
 30
0.0
 10
185.2881699601805
 20
16.01959707584522
 30
0.0
 10
185.2870102202156
 20
15.9255913558341
 30
0.0
 10
185.2883591064233
 20
15.83196865395527
 30
0.0
 10
185.2849970101508
 20
15.74679517552223
 30
0.0
 10
185.292095991777
 20
15.69716856072045
 30
0.0
 10
185.2812569154547
 20
15.64993694969989
 30
0.0
 10
185.3304010225246
 20
15.66201674936851
 30
0.0
 10
185.3794877630147
 20
15.65447393363011
 30
0.0
 10
185.4573714280642
 20
15.65686070361433
 30
0.0
 10
185.5350365172896
 20
15.65899381905415
 30
0.0
 10
185.5845393931354
 20
15.65193391922454
 30
0.0
 10
185.6344594750639
 20
15.66360151936214
 30
0.0
 10
185.6223198516881
 20
15.61540235371392
 30
0.0
 10
185.6305838229143
 20
15.57249219801234
 30
0.0
 10
185.6223198650783
 20
15.52958201851382
 30
0.0
 10
185.6344594549854
 20
15.48138288754862
 30
0.0
 10
185.5845395158746
 20
15.49305034471507
 30
0.0
 10
185.5350350651203
 20
15.48599202435043
 30
0.0
 10
185.4573784382974
 20
15.488116652286
 30
0.0
 10
185.379464386576
 20
15.49053389365757
 30
0.0
 10
185.3304500352717
 20
15.48291848194483
 30
0.0
 10
185.2813246108944
 20
15.49507952557588
 30
0.0
 10
185.2915559988572
 20
15.45073013424155
 30
0.0
 10
185.2856677678054
 20
15.40925436202911
 30
0.0
 10
185.287878830557
 20
15.34915394315303
 30
0.0
 10
185.2874109346147
 20
15.3022578276289
 30
0.0
 10
185.2874386992914
 20
15.27650146418198
 30
0.0
 10
185.2874469028654
 20
15.26889163187721
 30
0.0
 11
185.2874469028654
 21
15.26889163187721
 31
0.0
 11
185.3516977534485
 21
15.18524999634259
 31
0.0
 11
185.4348258835499
 21
15.07118889748224
 31
0.0
 11
185.5216831568896
 21
14.94891767195726
 31
0.0
 11
185.5971214371872
 21
14.84064565642878
 31
0.0
 11
185.6459925881626
 21
14.76858218755791
 31
0.0
 11
185.6296821285093
 21
14.746417821244
 31
0.0
 11
185.5937991172719
 21
14.69765621535341
 31
0.0
 11
185.5579161060346
 21
14.64889460946282
 31
0.0
 11
185.5416056463813
 21
14.62673024314891
 31
0.0
 11
185.4763067109446
 21
14.74716139023814
 31
0.0
 11
185.3848434243235
 21
14.89966983670206
 31
0.0
 11
185.2874469028654
 21
15.05219788193142
 31
0.0
 11
185.2874469028654
 21
15.02216445328253
 31
0.0
 11
185.2874469028654
 21
14.93981472956783
 31
0.0
 11
185.2874469028654
 21
14.81677455413528
 31
0.0
 11
185.2874469028654
 21
14.66466977033283
 31
0.0
 11
185.2874469028654
 21
14.49512622150845
 31
0.0
 11
185.2874469028654
 21
14.31976975101009
 31
0.0
 11
185.2874469028654
 21
14.1502262021857
 31
0.0
 11
185.2874469028654
 21
13.99812141838325
 31
0.0
 11
185.2874469028654
 21
13.8750812429507
 31
0.0
 11
185.2874469028654
 21
13.792731519236
 31
0.0
 11
185.2874469028654
 21
13.76269809058711
 31
0.0
 11
185.260693670041
 21
13.76269809058711
 31
0.0
 11
185.2018365578272
 21
13.76269809058711
 31
0.0
 11
185.1429794456134
 21
13.76269809058711
 31
0.0
 11
185.116226212789
 21
13.76269809058711
 31
0.0
 11
185.116226212789
 21
13.78864805031249
 31
0.0
 11
185.116226212789
 21
13.86039205661207
 31
0.0
 11
185.116226212789
 21
13.968771300171
 31
0.0
 11
185.116226212789
 21
14.10462697167446
 31
0.0
 11
185.116226212789
 21
14.25880026180759
 31
0.0
 11
185.116226212789
 21
14.42213236125557
 31
0.0
 11
185.116226212789
 21
14.58546446070354
 31
0.0
 11
185.116226212789
 21
14.73963775083667
 31
0.0
 11
185.116226212789
 21
14.87549342234013
 31
0.0
 11
185.116226212789
 21
14.98387266589906
 31
0.0
 11
185.116226212789
 21
15.05561667219864
 31
0.0
 11
185.116226212789
 21
15.08156663192402
 31
0.0
 11
185.0379865861721
 21
14.84965603302371
 31
0.0
 11
184.9497110789303
 21
14.63077616328678
 31
0.0
 11
184.8544106930045
 21
14.43598991333546
 31
0.0
 11
184.7550964303356
 21
14.27636017379201
 31
0.0
 11
184.7109198342406
 21
14.35822446196597
 31
0.0
 11
184.658805738348
 21
14.43414885430812
 31
0.0
 11
184.7627302590299
 21
14.59640087926759
 31
0.0
 11
184.8629319864735
 21
14.79551465421783
 31
0.0
 11
184.9550446607902
 21
15.01890447916198
 31
0.0
 11
185.0347020220912
 21
15.2539846541032
 31
0.0
 11
185.097537810488
 21
15.48816947904462
 31
0.0
 11
185.0693965972142
 21
15.48816947904462
 31
0.0
 11
184.9990435640297
 21
15.48816947904462
 31
0.0
 11
184.9075846208898
 21
15.48816947904462
 31
0.0
 11
184.8161256777499
 21
15.48816947904462
 31
0.0
 11
184.7457726445654
 21
15.48816947904462
 31
0.0
 11
184.7176314312916
 21
15.48816947904462
 31
0.0
 11
184.7176314312916
 21
15.5145203253922
 31
0.0
 11
184.7176314312916
 21
15.57249218735687
 31
0.0
 11
184.7176314312916
 21
15.63046404932154
 31
0.0
 11
184.7176314312916
 21
15.65681489566912
 31
0.0
 11
184.739711025602
 21
15.65681489566912
 31
0.0
 11
184.7966531372444
 21
15.65681489566912
 31
0.0
 11
184.8745127592862
 21
15.65681489566912
 31
0.0
 11
184.9593448847944
 21
15.65681489566912
 31
0.0
 11
185.0372045068361
 21
15.65681489566912
 31
0.0
 11
185.0941466184786
 21
15.65681489566912
 31
0.0
 11
185.116226212789
 21
15.65681489566912
 31
0.0
 11
185.116226212789
 21
15.68210596174353
 31
0.0
 11
185.116226212789
 21
15.74878240866696
 31
0.0
 11
185.116226212789
 21
15.84304910948975
 31
0.0
 11
185.116226212789
 21
15.95111093726222
 31
0.0
 11
185.116226212789
 21
16.05917276503468
 31
0.0
 11
185.116226212789
 21
16.15343946585747
 31
0.0
 11
185.116226212789
 21
16.2201159127809
 31
0.0
 11
185.116226212789
 21
16.24540697885531
 31
0.0
 11
185.1393181988665
 21
16.24373213107796
 31
0.0
 11
185.1943837041284
 21
16.23973826330119
 31
0.0
 11
185.2601070491184
 21
16.23497138885795
 31
0.0
 11
185.3151725543802
 21
16.23097752108118
 31
0.0
 11
185.3382645404578
 21
16.22930267330382
 31
0.0
 11
185.3249012644362
 21
16.20789677921191
 31
0.0
 11
185.2874469028654
 21
16.19450114553472
 31
0.0
 11
185.2874469028654
 21
16.1713974394858
 31
0.0
 11
185.2874469028654
 21
16.11048766899322
 31
0.0
 11
185.2874469028654
 21
16.02437385553818
 31
0.0
 11
185.2874469028654
 21
15.92565802060192
 31
0.0
 11
185.2874469028654
 21
15.82694218566566
 31
0.0
 11
185.2874469028654
 21
15.74082837221062
 31
0.0
 11
185.2874469028654
 21
15.67991860171803
 31
0.0
 11
185.2874469028654
 21
15.65681489566912
 31
0.0
 11
185.312615060481
 21
15.65681489566912
 31
0.0
 11
185.3755354545199
 21
15.65681489566912
 31
0.0
 11
185.4573319667706
 21
15.65681489566912
 31
0.0
 11
185.5391284790213
 21
15.65681489566912
 31
0.0
 11
185.6020488730602
 21
15.65681489566912
 31
0.0
 11
185.6272170306758
 21
15.65681489566912
 31
0.0
 11
185.6272170306758
 21
15.63046404932154
 31
0.0
 11
185.6272170306758
 21
15.57249218735687
 31
0.0
 11
185.6272170306758
 21
15.5145203253922
 31
0.0
 11
185.6272170306758
 21
15.48816947904462
 31
0.0
 11
185.6020488730602
 21
15.48816947904462
 31
0.0
 11
185.5391284790213
 21
15.48816947904462
 31
0.0
 11
185.4573319667706
 21
15.48816947904462
 31
0.0
 11
185.37553545452
 21
15.48816947904462
 31
0.0
 11
185.312615060481
 21
15.48816947904462
 31
0.0
 11
185.2874469028654
 21
15.48816947904462
 31
0.0
 11
185.2874469028654
 21
15.46536458293921
 31
0.0
 11
185.2874469028654
 21
15.41098367684169
 31
0.0
 11
185.2874469028654
 21
15.34607743408014
 31
0.0
 11
185.2874469028654
 21
15.29169652798262
 31
0.0
 11
185.2874469028654
 21
15.26889163187721
 31
0.0
  0
SPLINE
  5
B3
102
{ACAD_REACTORS
330
D0
102
}
330
48
100
AcDbEntity
  8
_U_30EC_U_30A4_U_30E4_U_30FC_1
  6
Continuous
 62
     2
100
AcDbSpline
210
0.0
220
0.0
230
1.0
 70
    11
 71
     3
 72
    47
 73
    43
 74
    41
 42
0.000000001
 43
0.0000000001
 44
0.00000001
 40
0.0
 40
0.0
 40
0.0
 40
0.0
 40
0.2207912809957319
 40
0.4459404186303255
 40
0.4902387190459496
 40
0.5327473892722486
 40
0.5742260451226048
 40
0.6155432630561901
 40
0.6568164066316527
 40
0.6982511618780839
 40
0.7407663929317385
 40
0.7851366743175472
 40
1.010288833836357
 40
1.231080507002218
 40
1.451765243652473
 40
1.676638205891681
 40
1.720461045359661
 40
1.830018144043545
 40
1.972442372353203
 40
2.114866600677597
 40
2.224423699395242
 40
2.268246538883492
 40
2.493628801207272
 40
2.715602830286642
 40
2.934211330706418
 40
3.149502369855458
 40
3.231387784851077
 40
3.318231873854056
 40
3.405143198198072
 40
3.486970301720567
 40
3.702258172494056
 40
3.920866283534309
 40
4.142839325932071
 40
4.368221903865481
 40
4.412044743359972
 40
4.521601842096003
 40
4.66402607045251
 40
4.806450298809247
 40
4.91600739754696
 40
4.959830237043291
 40
5.184703515847246
 40
5.405387250767649
 40
5.405387250767649
 40
5.405387250767649
 40
5.405387250767649
 10
182.6507427258645
 20
15.73406440953872
 30
0.0
 10
182.6568139420002
 20
15.79758482501211
 30
0.0
 10
182.6690762107243
 20
15.92587938689627
 30
0.0
 10
182.5604706879412
 20
16.2016622017408
 30
0.0
 10
182.6761985896603
 20
16.17188133432054
 30
0.0
 10
182.7171842509015
 20
16.16765556262815
 30
0.0
 10
182.7591205797518
 20
16.1631044638961
 30
0.0
 10
182.8004196625711
 20
16.16201982929491
 30
0.0
 10
182.8417032115556
 20
16.1631033819523
 30
0.0
 10
182.8836148270648
 20
16.16766112711339
 30
0.0
 10
182.9245983549019
 20
16.17187430209729
 30
0.0
 10
183.0404922843489
 20
16.20177611317538
 30
0.0
 10
182.9295652727456
 20
15.92339806609889
 30
0.0
 10
182.9574856365267
 20
15.74283140824952
 30
0.0
 10
182.9404267346971
 20
15.50961042346473
 30
0.0
 10
182.9414637282102
 20
15.34906622543147
 30
0.0
 10
182.9414099399405
 20
15.22284817558726
 30
0.0
 10
182.9414277372481
 20
15.12428963336243
 30
0.0
 10
182.9414188581079
 20
14.99280702442962
 30
0.0
 10
182.9414263928034
 20
14.86132844968647
 30
0.0
 10
182.9414129405128
 20
14.76276222694085
 30
0.0
 10
182.9414531717492
 20
14.63639735624148
 30
0.0
 10
182.9406746403818
 20
14.47482068822868
 30
0.0
 10
182.9565958319266
 20
14.24361821892914
 30
0.0
 10
182.9333468885407
 20
14.05874351972002
 30
0.0
 10
183.0360183444366
 20
13.78935602770048
 30
0.0
 10
182.8820238362836
 20
13.82660112685814
 30
0.0
 10
182.8004129802833
 20
13.82137994680534
 30
0.0
 10
182.7188192292583
 20
13.82660620378348
 30
0.0
 10
182.5648513666843
 20
13.78937069885378
 30
0.0
 10
182.6674183421917
 20
14.0587512986288
 30
0.0
 10
182.6442045316088
 20
14.24361585325415
 30
0.0
 10
182.6600444655138
 20
14.47482218565637
 30
0.0
 10
182.6593296313427
 20
14.63639712308499
 30
0.0
 10
182.6593664569907
 20
14.76276231210516
 30
0.0
 10
182.659354900027
 20
14.86132756635979
 30
0.0
 10
182.6593575019213
 20
14.99281127417218
 30
0.0
 10
182.6593648531779
 20
15.12427548031201
 30
0.0
 10
182.6593442541351
 20
15.2228778627533
 30
0.0
 10
182.6594082192028
 20
15.34896149354429
 30
0.0
 10
182.6581733947591
 20
15.51210091383773
 30
0.0
 10
182.6532040396744
 20
15.66054183777548
 30
0.0
 10
182.6507427258645
 20
15.73406440953872
 30
0.0
 11
182.6507427258645
 21
15.73406440953872
 31
0.0
 11
182.6417328200379
 21
15.95467178795578
 31
0.0
 11
182.6318769706146
 21
16.17960510387181
 31
0.0
 11
182.6756985840801
 21
16.17312391463729
 31
0.0
 11
182.7178400934215
 21
16.16754892331922
 31
0.0
 11
182.7591371409791
 21
16.16367167505633
 31
0.0
 11
182.8004341885366
 21
16.16238072887612
 31
0.0
 11
182.8416871388731
 21
16.16367167505633
 31
0.0
 11
182.8829400892097
 21
16.16754892331922
 31
0.0
 11
182.9250882131343
 21
16.17312391463729
 31
0.0
 11
182.9689825870145
 21
16.17960510387181
 31
0.0
 11
182.9590577693891
 21
15.95467178795578
 31
0.0
 11
182.950038420831
 21
15.73406440953872
 31
0.0
 11
182.9435638463435
 21
15.51347467001051
 31
0.0
 11
182.9414218238286
 21
15.28861190965012
 31
0.0
 11
182.9414218238286
 21
15.2447890701549
 31
0.0
 11
182.9414218238286
 21
15.13523197141684
 31
0.0
 11
182.9414218238286
 21
14.99280774305736
 31
0.0
 11
182.9414218238286
 21
14.85038351469789
 31
0.0
 11
182.9414218238286
 21
14.74082641595983
 31
0.0
 11
182.9414218238286
 21
14.69700357646461
 31
0.0
 11
182.9435638463435
 21
14.47163149318765
 31
0.0
 11
182.950038420831
 21
14.24975190990982
 31
0.0
 11
182.9590577693891
 21
14.03132954885329
 31
0.0
 11
182.9689825870145
 21
13.81626739612922
 31
0.0
 11
182.887261616877
 21
13.82145433189182
 31
0.0
 11
182.8004341885366
 21
13.82315538223861
 31
0.0
 11
182.713539511934
 21
13.82145433189182
 31
0.0
 11
182.6318769706146
 21
13.81626739612922
 31
0.0
 11
182.6417328200379
 21
14.03132954885329
 31
0.0
 11
182.6507427258645
 21
14.24975190990982
 31
0.0
 11
182.6571833838798
 21
14.47163149318765
 31
0.0
 11
182.6593583588023
 21
14.69700357646461
 31
0.0
 11
182.6593583588023
 21
14.74082641595983
 31
0.0
 11
182.6593583588023
 21
14.85038351469789
 31
0.0
 11
182.6593583588023
 21
14.99280774305736
 31
0.0
 11
182.6593583588023
 21
15.13523197141684
 31
0.0
 11
182.6593583588023
 21
15.2447890701549
 31
0.0
 11
182.6593583588023
 21
15.28861190965012
 31
0.0
 11
182.6571833838798
 21
15.51347467001051
 31
0.0
 11
182.6507427258645
 21
15.73406440953872
 31
0.0
  0
SPLINE
  5
B4
102
{ACAD_REACTORS
330
D1
102
}
330
48
100
AcDbEntity
  8
_U_30EC_U_30A4_U_30E4_U_30FC_1
  6
Continuous
 62
     2
100
AcDbSpline
210
0.0
220
0.0
230
1.0
 70
    11
 71
     3
 72
   110
 73
   106
 74
   104
 42
0.000000001
 43
0.0000000001
 44
0.00000001
 40
0.0
 40
0.0
 40
0.0
 40
0.0
 40
0.2203406257277554
 40
0.4407808782838146
 40
0.5952494494615984
 40
0.7488431659393147
 40
0.9023581831309118
 40
1.05680196867041
 40
1.210736449099967
 40
1.363041386539787
 40
1.51531572968316
 40
1.669377239148168
 40
1.721611652756691
 40
1.773199502943095
 40
1.824933793210142
 40
1.877110426488123
 40
1.982682281206915
 40
2.078781667087671
 40
2.172809640822501
 40
2.271937807379157
 40
2.378349933379492
 40
2.494131557736736
 40
2.62668168394387
 40
2.783145050796298
 40
2.890701232941177
 40
2.993130312455071
 40
3.099869730692025
 40
3.220237816691516
 40
3.352695482737864
 40
3.481732806390097
 40
3.593499473690599
 40
3.674323013332143
 40
3.817951711953036
 40
3.946167120794004
 40
4.06140505345369
 40
4.166480796003331
 40
4.26247877505937
 40
4.35073667355133
 40
4.433071991254269
 40
4.511216293814812
 40
4.56426245411813
 40
4.618474415571674
 40
4.670128488754348
 40
4.722296879126527
 40
4.819540945314394
 40
4.931194984128252
 40
5.049996040257835
 40
5.168643755415325
 40
5.283970811762623
 40
5.392260784910476
 40
5.486512254876523
 40
5.559178233949865
 40
5.591425852853582
 40
5.626215969637888
 40
5.667155838674486
 40
5.717449290214282
 40
5.738402360944897
 40
5.784499116553861
 40
5.830595872164833
 40
5.851548942897689
 40
5.873019280661802
 40
5.924217778408344
 40
5.985325662817719
 40
6.036524160567732
 40
6.057994498334259
 40
6.236847789607517
 40
6.381409928945704
 40
6.493190424178725
 40
6.574067534230583
 40
6.691018086205677
 40
6.814881554220594
 40
6.944307823240632
 40
7.071266716066171
 40
7.193488604462017
 40
7.309042773128244
 40
7.414007203170926
 40
7.505140441886626
 40
7.531150360599758
 40
7.559221645322354
 40
7.587202218921009
 40
7.612569159499224
 40
7.662550809481092
 40
7.702878875764281
 40
7.857328205231096
 40
8.010799568088743
 40
8.165256399657693
 40
8.322232698713918
 40
8.47956485501669
 40
8.635216230290837
 40
8.790882550925812
 40
8.948305154947406
 40
9.16827183903314
 40
9.387358980987432
 40
9.608047961033655
 40
9.832914234792831
 40
9.858338694963168
 40
9.92536681723018
 40
10.02013071422777
 40
10.12876249859016
 40
10.23739428295268
 40
10.3321581799521
 40
10.39918630222414
 40
10.42461076239803
 40
10.64992019336961
 40
10.87188524531208
 40
10.87188524531208
 40
10.87188524531208
 40
10.87188524531208
 10
179.9057788376619
 20
15.73923260398192
 30
0.0
 10
179.9092864933542
 20
15.80616462073806
 30
0.0
 10
179.9163033987663
 20
15.9400589191586
 30
0.0
 10
179.8198027599072
 20
16.22548554971475
 30
0.0
 10
180.0510134726109
 20
16.16284386190286
 30
0.0
 10
180.1919290057157
 20
16.17001554055986
 30
0.0
 10
180.3490417757588
 20
16.16235883078248
 30
0.0
 10
180.5025913427287
 20
16.16252752283046
 30
0.0
 10
180.6545104935081
 20
16.16182040535436
 30
0.0
 10
180.8142214813231
 20
16.17210158351634
 30
0.0
 10
180.9408972601118
 20
16.15496511080751
 30
0.0
 10
181.1370821122081
 20
16.22727260107149
 30
0.0
 10
181.1034395279079
 20
16.12640699080116
 30
0.0
 10
181.1052011317183
 20
16.07619253947668
 30
0.0
 10
181.1027342073459
 20
16.02712335586464
 30
0.0
 10
181.1347076966011
 20
15.94063490846995
 30
0.0
 10
181.0010399903257
 20
15.98997438608332
 30
0.0
 10
180.9172208688057
 20
15.98430634314176
 30
0.0
 10
180.8173861139324
 20
15.99465516706292
 30
0.0
 10
180.7186576720146
 20
16.00086450411089
 30
0.0
 10
180.612153277111
 20
16.00697763816778
 30
0.0
 10
180.491051169806
 20
16.01588883484583
 30
0.0
 10
180.3703381502453
 20
16.0052160591238
 30
0.0
 10
180.1812553843436
 20
16.06468503080367
 30
0.0
 10
180.2129028505312
 20
15.90558320077538
 30
0.0
 10
180.1995563316835
 20
15.80839128339903
 30
0.0
 10
180.197495842645
 20
15.69634065110103
 30
0.0
 10
180.195818804467
 20
15.57699685629349
 30
0.0
 10
180.1973336794233
 20
15.45032592155108
 30
0.0
 10
180.1956582478669
 20
15.32301588016114
 30
0.0
 10
180.2058844271658
 20
15.22451566404462
 30
0.0
 10
180.1779006596583
 20
15.08388702625629
 30
0.0
 10
180.3508029999305
 20
15.13989551134091
 30
0.0
 10
180.4645020202772
 20
15.12719951478491
 30
0.0
 10
180.5840151672239
 20
15.13448377051251
 30
0.0
 10
180.6888491425072
 20
15.1387801705675
 30
0.0
 10
180.7843084898611
 20
15.14330568258976
 30
0.0
 10
180.8763823507032
 20
15.15149201146208
 30
0.0
 10
180.947655178244
 20
15.14643850638109
 30
0.0
 10
181.0544931705685
 20
15.18536425031669
 30
0.0
 10
181.0226603598035
 20
15.10517122005879
 30
0.0
 10
181.026616450393
 20
15.05562936846033
 30
0.0
 10
181.0234502392013
 20
15.0055747803982
 30
0.0
 10
181.0550791490584
 20
14.92128847612021
 30
0.0
 10
180.9210133677691
 20
14.97425365495152
 30
0.0
 10
180.82923227932
 20
14.96540080890444
 30
0.0
 10
180.7079729189604
 20
14.97570049965147
 30
0.0
 10
180.5914113119771
 20
14.97748911767503
 30
0.0
 10
180.478337574588
 20
14.97787017109698
 30
0.0
 10
180.3679246308471
 20
14.9841544947217
 30
0.0
 10
180.2898124067841
 20
14.97189133255367
 30
0.0
 10
180.1913625833645
 20
15.00453887616126
 30
0.0
 10
180.2012355173561
 20
14.94769748054207
 30
0.0
 10
180.1973923244402
 20
14.91392130557984
 30
0.0
 10
180.1966789884269
 20
14.87119604709413
 30
0.0
 10
180.1963369642974
 20
14.83401607262153
 30
0.0
 10
180.1963834255346
 20
14.79487237370772
 30
0.0
 10
180.1963649429927
 20
14.75716849497687
 30
0.0
 10
180.1963703431806
 20
14.71944955232403
 30
0.0
 10
180.19636972142
 20
14.68994324745151
 30
0.0
 10
180.1963698151545
 20
14.65873577699302
 30
0.0
 10
180.1963704287921
 20
14.61414424908086
 30
0.0
 10
180.1963671499337
 20
14.55963956508852
 30
0.0
 10
180.196375962348
 20
14.51505540201449
 30
0.0
 10
180.1963359653417
 20
14.43117808585741
 30
0.0
 10
180.1976024270255
 20
14.31737520677679
 30
0.0
 10
180.1950274117842
 20
14.16830395933709
 30
0.0
 10
180.206500938172
 20
14.06597203813904
 30
0.0
 10
180.1823506222264
 20
13.9333890388583
 30
0.0
 10
180.3332993946476
 20
13.97895732272016
 30
0.0
 10
180.4428436671556
 20
13.96427012162344
 30
0.0
 10
180.5733970473921
 20
13.96920435125061
 30
0.0
 10
180.6990312209514
 20
13.9725770532336
 30
0.0
 10
180.8188730625601
 20
13.97711497498773
 30
0.0
 10
180.9391362611427
 20
13.99048536182005
 30
0.0
 10
181.0222761663515
 20
13.98068712782591
 30
0.0
 10
181.1456080421074
 20
14.04126214623318
 30
0.0
 10
181.1244269203957
 20
13.98532460134019
 30
0.0
 10
181.1235950270116
 20
13.95939249372347
 30
0.0
 10
181.1218963707559
 20
13.93197256190939
 30
0.0
 10
181.1217974888829
 20
13.89738195206385
 30
0.0
 10
181.1203659301329
 20
13.86050408220766
 30
0.0
 10
181.153280419219
 20
13.76846841021802
 30
0.0
 10
180.9551306988107
 20
13.84132015974828
 30
0.0
 10
180.8300548294891
 20
13.81825726508605
 30
0.0
 10
180.6673071295156
 20
13.82454021985784
 30
0.0
 10
180.5129366450001
 20
13.82260943909925
 30
0.0
 10
180.3566670436945
 20
13.82393762599267
 30
0.0
 10
180.1970544465282
 20
13.82059872487861
 30
0.0
 10
180.0540326342237
 20
13.83265795728238
 30
0.0
 10
179.8197144881628
 20
13.76952001976911
 30
0.0
 10
179.9173810751197
 20
14.05620527466317
 30
0.0
 10
179.900686878006
 20
14.2498830814266
 30
0.0
 10
179.9146296709684
 20
14.47848242880295
 30
0.0
 10
179.9142987846632
 20
14.63384593955045
 30
0.0
 10
179.9143078119264
 20
14.73966336444123
 30
0.0
 10
179.9143055876316
 20
14.80205784124212
 30
0.0
 10
179.9143065551888
 20
14.89220425248325
 30
0.0
 10
179.9143065473261
 20
14.99621167157437
 30
0.0
 10
179.9143053861102
 20
15.10022131375296
 30
0.0
 10
179.9143090971503
 20
15.19036243688768
 30
0.0
 10
179.9143011051051
 20
15.25276803097216
 30
0.0
 10
179.9143334275018
 20
15.3586883596112
 30
0.0
 10
179.9131440788319
 20
15.5162671654474
 30
0.0
 10
179.9082216489257
 20
15.66528219822067
 30
0.0
 10
179.9057788376619
 20
15.73923260398192
 30
0.0
 11
179.9057788376619
 21
15.73923260398192
 31
0.0
 11
179.8966918223741
 21
15.95938578101018
 31
0.0
 11
179.8868249573133
 21
16.17960510387181
 31
0.0
 11
180.0411575141401
 21
16.17312391463729
 31
0.0
 11
180.1946500189046
 21
16.16754892331922
 31
0.0
 11
180.3481160653366
 21
16.16367167505633
 31
0.0
 11
180.5025544554939
 21
16.16238072887612
 31
0.0
 11
180.6564835227474
 21
16.16367167505633
 31
0.0
 11
180.80873910046
 21
16.16754892331922
 31
0.0
 11
180.9609113551074
 21
16.17312391463729
 31
0.0
 11
181.1148364762484
 21
16.17960510387181
 31
0.0
 11
181.1070811703124
 21
16.12794961777357
 31
0.0
 11
181.1044991623591
 21
16.07642642334201
 31
0.0
 11
181.1070811703124
 21
16.02475660564658
 31
0.0
 11
181.1148364762484
 21
15.97315954836782
 31
0.0
 11
181.0094874054411
 21
15.98001446156056
 31
0.0
 11
180.9136375700061
 21
15.98693552058661
 31
0.0
 11
180.8198593171903
 21
15.99378381919597
 31
0.0
 11
180.7209679915881
 21
16.00063211780541
 31
0.0
 11
180.6147532199924
 21
16.00710999974824
 31
0.0
 11
180.4991060528038
 21
16.01268829835792
 31
0.0
 11
180.3666126447258
 21
16.01656554662085
 31
0.0
 11
180.2101546018423
 21
16.01785649280112
 31
0.0
 11
180.2062663293721
 21
15.91037061609184
 31
0.0
 11
180.2015380048401
 21
15.80805072896462
 31
0.0
 11
180.1976607566749
 21
15.70138175329688
 31
0.0
 11
180.1963698105272
 21
15.58102059013251
 31
0.0
 11
180.1967799146836
 21
15.4485635589156
 31
0.0
 11
180.1980896021502
 21
15.31953288186452
 31
0.0
 11
180.199407457705
 21
15.20777398432308
 31
0.0
 11
180.1998191153661
 21
15.12695149302381
 31
0.0
 11
180.3434452935875
 21
15.12780256941246
 31
0.0
 11
180.4716343930758
 21
15.13039989580071
 31
0.0
 11
180.5868078221795
 21
15.13425509545249
 31
0.0
 11
180.691775631222
 21
15.13901649302072
 31
0.0
 11
180.7876346289421
 21
15.14418027774175
 31
0.0
 11
180.8757413374193
 21
15.14934406246272
 31
0.0
 11
180.9578881438497
 21
15.15491243919739
 31
0.0
 11
181.0357692335571
 21
15.16132086801521
 31
0.0
 11
181.0280180445186
 21
15.10884407115334
 31
0.0
 11
181.0254328449317
 21
15.05469378470862
 31
0.0
 11
181.0280180445186
 21
15.00310444444364
 31
0.0
 11
181.0357692335571
 21
14.95151510417881
 31
0.0
 11
180.9389813454014
 21
14.96092324653753
 31
0.0
 11
180.8275950722015
 21
14.96865128473012
 31
0.0
 11
180.7089261429373
 21
14.97425273438141
 31
0.0
 11
180.5903167449214
 21
14.97726788195011
 31
0.0
 11
180.4750025117521
 21
14.97898767361639
 31
0.0
 11
180.36672619507
 21
14.98070746528252
 31
0.0
 11
180.2724839317708
 21
14.98202486979618
 31
0.0
 11
180.1998191153661
 21
14.98243607639331
 31
0.0
 11
180.199407457705
 21
14.95019108508188
 31
0.0
 11
180.1980896021502
 21
14.91542593752122
 31
0.0
 11
180.1967799146836
 21
14.87450702260084
 31
0.0
 11
180.1963698105272
 21
14.82421524309952
 31
0.0
 11
180.1963698105272
 21
14.80326217235822
 31
0.0
 11
180.1963698105272
 21
14.75716541672737
 31
0.0
 11
180.1963698105272
 21
14.71106866109652
 31
0.0
 11
180.1963698105272
 21
14.69011559035522
 31
0.0
 11
180.1963698105272
 21
14.66864525258281
 31
0.0
 11
180.1963698105272
 21
14.61744675481785
 31
0.0
 11
180.1963698105272
 21
14.55633887038869
 31
0.0
 11
180.1963698105272
 21
14.50514037262372
 31
0.0
 11
180.1963698105272
 21
14.48367003485132
 31
0.0
 11
180.1967799146836
 21
14.30481721371549
 31
0.0
 11
180.1980896021502
 21
14.16026100715442
 31
0.0
 11
180.2002868589709
 21
14.0485021096129
 31
0.0
 11
180.2032586986985
 21
13.96767961831361
 31
0.0
 11
180.3202092517447
 21
13.96767961831361
 31
0.0
 11
180.4440727208746
 21
13.96767961831361
 31
0.0
 11
180.5734925526423
 21
13.96897056449387
 31
0.0
 11
180.7003922282244
 21
13.97284781275681
 31
0.0
 11
180.8224658067973
 21
13.97886708358865
 31
0.0
 11
180.9377587499463
 21
13.98663260442001
 31
0.0
 11
181.0421754573519
 21
13.99734161483401
 31
0.0
 11
181.1320599255448
 21
14.01237656274691
 31
0.0
 11
181.1264254031191
 21
13.98698427976715
 31
0.0
 11
181.1234433285423
 21
13.95907184053802
 31
0.0
 11
181.12213398812
 21
13.93112191867002
 31
0.0
 11
181.1217235369195
 21
13.90575829888472
 31
0.0
 11
181.1243087365064
 21
13.85584355063327
 31
0.0
 11
181.1320599255448
 21
13.81626739612922
 31
0.0
 11
180.9776977178344
 21
13.82145433189182
 31
0.0
 11
180.8242357818765
 21
13.82315538223861
 31
0.0
 11
180.6697789496483
 21
13.82315538223861
 31
0.0
 11
180.5128026496769
 21
13.82315538223861
 31
0.0
 11
180.3554704921536
 21
13.82315538223861
 31
0.0
 11
180.1998191153661
 21
13.82315538223861
 31
0.0
 11
180.0441620874242
 21
13.82145433189182
 31
0.0
 11
179.8868249573133
 21
13.81626739612922
 31
0.0
 11
179.896691822374
 21
14.03601267385209
 31
0.0
 11
179.9057788376619
 21
14.25491128490852
 31
0.0
 11
179.91217215184
 21
14.47550763902002
 31
0.0
 11
179.9143063455009
 21
14.70036378479712
 31
0.0
 11
179.9143063455009
 21
14.72578824496872
 31
0.0
 11
179.9143063455009
 21
14.79281636723929
 31
0.0
 11
179.9143063455009
 21
14.88758026424252
 31
0.0
 11
179.9143063455009
 21
14.99621204861206
 31
0.0
 11
179.9143063455009
 21
15.10484383298162
 31
0.0
 11
179.9143063455009
 21
15.19960772998484
 31
0.0
 11
179.9143063455009
 21
15.26663585225541
 31
0.0
 11
179.9143063455009
 21
15.29206031242701
 31
0.0
 11
179.9121721518401
 21
15.51735963528734
 31
0.0
 11
179.9057788376619
 21
15.73923260398192
 31
0.0
  0
SPLINE
  5
B5
102
{ACAD_REACTORS
330
D2
102
}
330
48
100
AcDbEntity
  8
_U_30EC_U_30A4_U_30E4_U_30FC_1
  6
Continuous
 62
     2
100
AcDbSpline
210
0.0
220
0.0
230
1.0
 70
    11
 71
     3
 72
    95
 73
    91
 74
    89
 42
0.000000001
 43
0.0000000001
 44
0.00000001
 40
0.0
 40
0.0
 40
0.0
 40
0.0
 40
0.6550406656911263
 40
1.30808728903191
 40
1.420803739835802
 40
1.566130759770793
 40
1.757067341888493
 40
2.006513545026523
 40
2.087328263121603
 40
2.185328872295634
 40
2.294612454748373
 40
2.408936380534798
 40
2.526802767798545
 40
2.646360524615586
 40
2.762535723971571
 40
2.870057342870143
 40
2.966883448431673
 40
3.050803243518303
 40
3.115818222436606
 40
3.1560300571503
 40
3.213914225080204
 40
3.276689026450605
 40
3.342960320981383
 40
3.404230667150633
 40
3.453822809493499
 40
3.532499827188508
 40
3.634775188507294
 40
3.754909333008284
 40
3.88973676166076
 40
4.035769602175307
 40
4.187256681197762
 40
4.338733685676052
 40
4.48847873467625
 40
4.634708317831709
 40
4.771493189921373
 40
4.892686571561343
 40
5.199775528944567
 40
5.46035356692973
 40
5.667603142345639
 40
5.814722905404616
 40
5.828990806219914
 40
5.855488336304611
 40
5.869756237118943
 40
6.189796507762953
 40
6.531890469873142
 40
6.883053637017146
 40
7.230512024911577
 40
7.566966656764725
 40
7.885203559707577
 40
8.172887439719348
 40
8.418011594062873
 40
8.443926721190797
 40
8.510760470613285
 40
8.602145393795796
 40
8.70171404164724
 40
8.793098965075473
 40
8.859932715058045
 40
8.885847842603695
 40
9.242301256612883
 40
9.589275455016804
 40
9.921808543164246
 40
10.23479624298476
 40
10.29968150889181
 40
10.35323493887763
 40
10.40154625355148
 40
10.46482922477831
 40
10.55973900668415
 40
10.69239545985629
 40
10.8492035347568
 40
11.01626328594787
 40
11.18672024367453
 40
11.35372582577219
 40
11.5025744229244
 40
11.618664950233
 40
11.71329869152886
 40
11.82511050573923
 40
11.94464880845726
 40
12.06929242642514
 40
12.19707290435186
 40
12.32562632860535
 40
12.45034565331289
 40
12.56646595170334
 40
12.67099007414643
 40
12.76077625936792
 40
12.82703233506705
 40
12.87429132786002
 40
12.89831990323341
 40
12.9223484786003
 40
13.53984767410331
 40
14.18294284359373
 40
14.18294284359373
 40
14.18294284359373
 40
14.18294284359373
 10
177.3067935648021
 20
14.70898038201722
 30
0.0
 10
177.175201975855
 20
14.8226505860323
 30
0.0
 10
176.9124193802728
 20
15.04964496316158
 30
0.0
 10
176.3997393441024
 20
15.8921446295629
 30
0.0
 10
176.4106654595362
 20
15.53423377577021
 30
0.0
 10
176.4041226527991
 20
15.39267392272133
 30
0.0
 10
176.4028026631772
 20
15.19421305299278
 30
0.0
 10
176.4018117602538
 20
15.02150296045978
 30
0.0
 10
176.4024101751974
 20
14.87865373257576
 30
0.0
 10
176.4038994301882
 20
14.78265005413356
 30
0.0
 10
176.4055683588473
 20
14.67545503263142
 30
0.0
 10
176.4071934954617
 20
14.56164211517583
 30
0.0
 10
176.4092429501685
 20
14.44441572604591
 30
0.0
 10
176.4123165501928
 20
14.32656411232972
 30
0.0
 10
176.4156339697043
 20
14.21228087320623
 30
0.0
 10
176.4193605340279
 20
14.10521401867277
 30
0.0
 10
176.4217338161424
 20
14.01007408766922
 30
0.0
 10
176.4278718888358
 20
13.92558557205695
 30
0.0
 10
176.4239784495946
 20
13.8692308729814
 30
0.0
 10
176.4455230443077
 20
13.7982502247235
 30
0.0
 10
176.3680940058618
 20
13.8290267760448
 30
0.0
 10
176.3116353240191
 20
13.82011242517613
 30
0.0
 10
176.2540495896807
 20
13.82896218398272
 30
0.0
 10
176.1690163478472
 20
13.79738225225939
 30
0.0
 10
176.2009714146382
 20
13.88095155992187
 30
0.0
 10
176.1990705282539
 20
13.94882608968308
 30
0.0
 10
176.21079600473
 20
14.05233256764417
 30
0.0
 10
176.2164241053
 20
14.17002125616695
 30
0.0
 10
176.2237902178941
 20
14.30388609164421
 30
0.0
 10
176.2320759701611
 20
14.44764152872631
 30
0.0
 10
176.2398851897426
 20
14.59714022843443
 30
0.0
 10
176.2457571222659
 20
14.74792549402078
 30
0.0
 10
176.2503667817969
 20
14.89699943878437
 30
0.0
 10
176.2542632117542
 20
15.04122913163022
 30
0.0
 10
176.2570715126564
 20
15.17583905213017
 30
0.0
 10
176.2576698755022
 20
15.36469614347354
 30
0.0
 10
176.261602386715
 20
15.58975494313153
 30
0.0
 10
176.2442175378497
 20
15.86367091125706
 30
0.0
 10
176.2850417342584
 20
16.02787112098595
 30
0.0
 10
176.1995153256003
 20
16.22749661465097
 30
0.0
 10
176.2660558907688
 20
16.22385458403978
 30
0.0
 10
176.283872427323
 20
16.22413447160854
 30
0.0
 10
176.4056801797504
 20
16.22632927398612
 30
0.0
 10
176.5080770335461
 20
15.94675118721514
 30
0.0
 10
176.7580021509357
 20
15.74563008536
 30
0.0
 10
176.9870035331111
 20
15.47792614987918
 30
0.0
 10
177.2245151213108
 20
15.22646413862377
 30
0.0
 10
177.4486090740772
 20
14.98969974061356
 30
0.0
 10
177.6750716283009
 20
14.73218692583073
 30
0.0
 10
177.8325687886514
 20
14.61649335056918
 30
0.0
 10
178.0472129612674
 20
14.27997152538798
 30
0.0
 10
178.0422645974618
 20
14.40464754091605
 30
0.0
 10
178.0433931602545
 20
14.46327691935739
 30
0.0
 10
178.0428877841517
 20
14.55043662371979
 30
0.0
 10
178.0430475158113
 20
14.64416143182875
 30
0.0
 10
178.0430054891318
 20
14.73018971297038
 30
0.0
 10
178.0430202040373
 20
14.79153891945498
 30
0.0
 10
178.0429706255984
 20
14.94135231520996
 30
0.0
 10
178.045881152281
 20
15.17989612510104
 30
0.0
 10
178.0259521041162
 20
15.544865098687
 30
0.0
 10
178.0750433936248
 20
15.80799631993411
 30
0.0
 10
177.9177951509181
 20
16.21928904947751
 30
0.0
 10
178.0762112872422
 20
16.16398282551753
 30
0.0
 10
178.1311680478629
 20
16.1619968650018
 30
0.0
 10
178.182788776674
 20
16.16264778248257
 30
0.0
 10
178.2713198965367
 20
16.20369527738249
 30
0.0
 10
178.2204898303169
 20
16.05696326622987
 30
0.0
 10
178.2313389930283
 20
15.95019971954432
 30
0.0
 10
178.2166036994848
 20
15.79085705414112
 30
0.0
 10
178.2099976446204
 20
15.62853061652875
 30
0.0
 10
178.2014961399914
 20
15.45992521892395
 30
0.0
 10
178.1943227202198
 20
15.2981481470354
 30
0.0
 10
178.1889063215389
 20
15.15422331457932
 30
0.0
 10
178.1871713967648
 20
15.03437493466923
 30
0.0
 10
178.1875440672318
 20
14.92686101590512
 30
0.0
 10
178.1873656126263
 20
14.81820024645583
 30
0.0
 10
178.187701086314
 20
14.69953570165529
 30
0.0
 10
178.1890040622185
 20
14.57555163512741
 30
0.0
 10
178.1908887351575
 20
14.44858294171106
 30
0.0
 10
178.192500445485
 20
14.32153861551032
 30
0.0
 10
178.194140313743
 20
14.19854884492179
 30
0.0
 10
178.1962570745752
 20
14.0830093138376
 30
0.0
 10
178.1963848422364
 20
13.98090903955838
 30
0.0
 10
178.2006514396554
 20
13.89009848838156
 30
0.0
 10
178.1908440085289
 20
13.83213621208786
 30
0.0
 10
178.2118474771689
 20
13.76517130132028
 30
0.0
 10
178.1725639739897
 20
13.77291153966688
 30
0.0
 10
177.9595307117744
 20
13.75755254145191
 30
0.0
 10
177.7636297943187
 20
14.31403058094472
 30
0.0
 10
177.4611197631544
 20
14.57556035348509
 30
0.0
 10
177.3067935648021
 20
14.70898038201722
 30
0.0
 11
177.3067935648021
 21
14.70898038201722
 31
0.0
 11
176.8595529338511
 21
15.18757635411976
 31
0.0
 11
176.4124049070644
 21
15.66352649288972
 31
0.0
 11
176.4089664262494
 21
15.55086249986232
 31
0.0
 11
176.40556101835
 21
15.40557538184311
 31
0.0
 11
176.4029636920274
 21
15.21465645827965
 31
0.0
 11
176.4021126156603
 21
14.96521170139751
 31
0.0
 11
176.4025239230289
 21
14.88439802954275
 31
0.0
 11
176.4038420329817
 21
14.78640628477561
 31
0.0
 11
176.4055192267718
 21
14.67713557299739
 31
0.0
 11
176.4072367127518
 21
14.56282454872041
 31
0.0
 11
176.4094007838772
 21
14.44497802965268
 31
0.0
 11
176.4124049070644
 21
14.32545802100202
 31
0.0
 11
176.4158359733138
 21
14.20933349846158
 31
0.0
 11
176.4192928929998
 21
14.10186746550231
 31
0.0
 11
176.4227085253088
 21
14.00510162351262
 31
0.0
 11
176.4261896983793
 21
13.92125406276972
 31
0.0
 11
176.4296006184313
 21
13.8563286200776
 31
0.0
 11
176.4330776843148
 21
13.81626739612922
 31
0.0
 11
176.3754263821571
 21
13.82145433189182
 31
0.0
 11
176.3126746318309
 21
13.82315538223861
 31
0.0
 11
176.2464251717157
 21
13.82145433189182
 31
0.0
 11
176.1853747739675
 21
13.81626739612922
 31
0.0
 11
176.1926772737812
 21
13.8653189412559
 31
0.0
 11
176.2008793569054
 21
13.94356725720851
 31
0.0
 11
176.2090098822348
 21
14.04551893253029
 31
0.0
 11
176.2163406441397
 21
14.16542920159752
 31
0.0
 11
176.2236358280421
 21
14.30005912343887
 31
0.0
 11
176.2318444255596
 21
14.44586107652741
 31
0.0
 11
176.2395504149466
 21
14.59715203135076
 31
0.0
 11
176.2455763002094
 21
14.74850913200731
 31
0.0
 11
176.2503046247416
 21
14.89817951391436
 31
0.0
 11
176.254192897212
 21
15.04435739582222
 31
0.0
 11
176.2567527408965
 21
15.18111831592694
 31
0.0
 11
176.2576324804574
 21
15.30230850686891
 31
0.0
 11
176.257192610677
 21
15.60939715262544
 31
0.0
 11
176.2559126888347
 21
15.86997204839362
 31
0.0
 11
176.2528658717893
 21
16.07719922716126
 31
0.0
 11
176.2473049112763
 21
16.22421385386062
 31
0.0
 11
176.2615728121469
 21
16.22421385386062
 31
0.0
 11
176.2880703423352
 21
16.22421385386062
 31
0.0
 11
176.3023382432058
 21
16.22421385386062
 31
0.0
 11
176.5194743650277
 21
15.98910179662772
 31
0.0
 11
176.7512744123079
 21
15.73751281231561
 31
0.0
 11
176.989481601884
 21
15.4794955554357
 31
0.0
 11
177.2260074557521
 21
15.22497079855492
 31
0.0
 11
177.4555698717705
 21
14.97899759549135
 31
0.0
 11
177.6731797360103
 21
14.74678934034101
 31
0.0
 11
177.8713724913707
 21
14.53826680567098
 31
0.0
 11
178.0430143099086
 21
14.36326697932591
 31
0.0
 11
178.0430143099086
 21
14.38918210687045
 31
0.0
 11
178.0430143099086
 21
14.45601585685374
 31
0.0
 11
178.0430143099086
 21
14.54740078030027
 31
0.0
 11
178.0430143099086
 21
14.64696942823456
 31
0.0
 11
178.0430143099086
 21
14.73835435168109
 31
0.0
 11
178.0430143099086
 21
14.80518810166438
 31
0.0
 11
178.0430143099086
 21
14.83110322920892
 31
0.0
 11
178.0417233637609
 21
15.18755430550867
 31
0.0
 11
178.0378461155958
 21
15.53450684014412
 31
0.0
 11
178.0296197790002
 21
15.86693815950552
 31
0.0
 11
178.0154535467229
 21
16.17960510387181
 31
0.0
 11
178.0790351249619
 21
16.16666367158338
 31
0.0
 11
178.1324170159611
 21
16.16238072887612
 31
0.0
 11
178.1805381084833
 21
16.16666367158338
 31
0.0
 11
178.2424836798198
 21
16.17960510387181
 31
0.0
 11
178.2351216487575
 21
16.084981284451
 31
0.0
 11
178.2269790968818
 21
15.95257496503962
 31
0.0
 11
178.2183705364005
 21
15.79600336785657
 31
0.0
 11
178.2097547223215
 21
15.62916593734272
 31
0.0
 11
178.2016187850288
 21
15.4589032550936
 31
0.0
 11
178.1942501393835
 21
15.29206031242701
 31
0.0
 11
178.1891406931522
 21
15.14329943572806
 31
0.0
 11
178.1874503478904
 21
15.02722121527101
 31
0.0
 11
178.1874503478904
 21
14.93258747397517
 31
0.0
 11
178.1874503478904
 21
14.82077565976701
 31
0.0
 11
178.1878461204497
 21
14.70123801222748
 31
0.0
 11
178.1890819450709
 21
14.57660052093921
 31
0.0
 11
178.1908392193318
 21
14.4488321268739
 31
0.0
 11
178.1925303477608
 21
14.32028982655882
 31
0.0
 11
178.1942876220215
 21
14.19558288214554
 31
0.0
 11
178.1959787504506
 21
14.07947489606352
 31
0.0
 11
178.1972884379172
 21
13.97495896727018
 31
0.0
 11
178.1976985420735
 21
13.88517371555652
 31
0.0
 11
178.1976985420735
 21
13.81891763918414
 31
0.0
 11
178.1976985420735
 21
13.77165864614041
 31
0.0
 11
178.1736699662976
 21
13.77165864614041
 31
0.0
 11
178.1496413905217
 21
13.77165864614041
 31
0.0
 11
177.7410729200423
 21
14.23466735262193
 31
0.0
 11
177.3067935648021
 21
14.70898038201722
 31
0.0
  0
SPLINE
  5
B6
102
{ACAD_REACTORS
330
D3
102
}
330
48
100
AcDbEntity
  8
_U_30EC_U_30A4_U_30E4_U_30FC_1
  6
Continuous
 62
     2
100
AcDbSpline
210
0.0
220
0.0
230
1.0
 70
    11
 71
     3
 72
    25
 73
    21
 74
    19
 42
0.000000001
 43
0.0000000001
 44
0.00000001
 40
0.0
 40
0.0
 40
0.0
 40
0.0
 40
0.0911479969065391
 40
0.1858117896204655
 40
0.2804128399734478
 40
0.3715889190714498
 40
0.4679080494218695
 40
0.5642683809229215
 40
0.6605683222644977
 40
0.7569653015810237
 40
0.8561348172522688
 40
1.092615965104281
 40
1.374867658141857
 40
1.611348812011575
 40
1.710518328425219
 40
1.809403163726533
 40
2.04520546329403
 40
2.326646917622083
 40
2.562449217190538
 40
2.661334043833854
 40
2.661334043833854
 40
2.661334043833854
 40
2.661334043833854
 10
173.2683700567199
 20
14.88614538197291
 30
0.0
 10
173.2987525917922
 20
14.88598079714552
 30
0.0
 10
173.3606895889112
 20
14.88564528689918
 30
0.0
 10
173.4541356960329
 20
14.88269055452002
 30
0.0
 10
173.5475095236358
 20
14.87977752877154
 30
0.0
 10
173.6417760753476
 20
14.87894201643418
 30
0.0
 10
173.7354964790967
 20
14.87996644658049
 30
0.0
 10
173.8352040303205
 20
14.87916977470971
 30
0.0
 10
173.9188949546312
 20
14.8892141023522
 30
0.0
 10
174.0637996315045
 20
14.86234617674163
 30
0.0
 10
173.93961324448
 20
15.03665530280047
 30
0.0
 10
173.8965867286282
 20
15.1965171100609
 30
0.0
 10
173.7808922142209
 20
15.45518458550213
 30
0.0
 10
173.7017565431257
 20
15.59231052861854
 30
0.0
 10
173.6431576621816
 20
15.80937033134073
 30
0.0
 10
173.5864803939438
 20
15.59266134213424
 30
0.0
 10
173.5052809900477
 20
15.45327012438233
 30
0.0
 10
173.4063701281488
 20
15.20406969370192
 30
0.0
 10
173.325362509426
 20
15.01925830226072
 30
0.0
 10
173.2813683325838
 20
14.91650446856115
 30
0.0
 10
173.2683700567199
 20
14.88614538197291
 30
0.0
 11
173.2683700567199
 21
14.88614538197291
 31
0.0
 11
173.3595137737821
 21
14.88526123266757
 31
0.0
 11
173.4541428297581
 21
14.88269697919601
 31
0.0
 11
173.5487082179706
 21
14.8800996528078
 31
0.0
 11
173.6398803250196
 21
14.87924857641912
 31
0.0
 11
173.7361985777706
 21
14.87965978301623
 31
0.0
 11
173.8325499034376
 21
14.88097718752971
 31
0.0
 11
173.9288262638286
 21
14.88310818579313
 31
0.0
 11
174.0251753846343
 21
14.88614538197291
 31
0.0
 11
173.9854633323141
 21
14.97701642195019
 31
0.0
 11
173.8907653613968
 21
15.193708901896
 31
0.0
 11
173.7777387509471
 21
15.45234186183132
 31
0.0
 11
173.6830407800297
 21
15.66903434177713
 31
0.0
 11
173.6433287277095
 21
15.75990538175441
 31
0.0
 11
173.6043330259266
 21
15.66903434177713
 31
0.0
 11
173.5113432755212
 21
15.45234186183132
 31
0.0
 11
173.4003555089082
 21
15.193708901896
 31
0.0
 11
173.3073657585028
 21
14.97701642195019
 31
0.0
 11
173.2683700567199
 21
14.88614538197291
 31
0.0
  0
SPLINE
  5
B7
102
{ACAD_REACTORS
330
D3
102
}
330
48
100
AcDbEntity
  8
_U_30EC_U_30A4_U_30E4_U_30FC_1
  6
Continuous
 62
     2
100
AcDbSpline
210
0.0
220
0.0
230
1.0
 70
    11
 71
     3
 72
    57
 73
    53
 74
    51
 42
0.000000001
 43
0.0000000001
 44
0.00000001
 40
0.0
 40
0.0
 40
0.0
 40
0.0
 40
0.0471632082808976
 40
0.0914861054632185
 40
0.1357762519702421
 40
0.1826527001610715
 40
0.229520328857234
 40
0.2737751972219657
 40
0.3181310461542825
 40
0.3652607198398574
 40
0.4571007286315015
 40
0.5671851029165922
 40
0.6894623283868941
 40
0.8181758272546799
 40
0.9510087229274525
 40
1.085852229674074
 40
1.218126164475344
 40
1.343545131142477
 40
1.454537202956892
 40
1.567187607530901
 40
1.680710966642492
 40
1.794226869736799
 40
1.900009184247655
 40
2.004085860447878
 40
2.108162674451822
 40
2.214000150155394
 40
2.496038577352228
 40
2.762350745479397
 40
2.997275353279539
 40
3.185110082137909
 40
3.24640789006411
 40
3.312607550212869
 40
3.378877742711772
 40
3.440140399651628
 40
4.100501696006701
 40
4.754913085563757
 40
5.411331693424149
 40
6.077890432568937
 40
6.110575292671216
 40
6.143260152775996
 40
6.367989363395392
 40
6.610525374951747
 40
6.863389136467543
 40
7.119380025547858
 40
7.376036605091368
 40
7.631164770966516
 40
7.876722425456649
 40
8.10495373585622
 40
8.312916685924558
 40
8.49773029494159
 40
8.651018984314103
 40
8.764738853624864
 40
8.764738853624864
 40
8.764738853624864
 40
8.764738853624864
 10
174.7922649500513
 20
13.81626739612922
 30
0.0
 10
174.7766616726931
 20
13.81826231079073
 30
0.0
 10
174.7463947960303
 20
13.82213201360296
 30
0.0
 10
174.7010994202252
 20
13.82341984967267
 30
0.0
 10
174.6559553129349
 20
13.82308683554049
 30
0.0
 10
174.60990171234
 20
13.82314658674223
 30
0.0
 10
174.5640496172097
 20
13.8232581365
 30
0.0
 10
174.5183711648166
 20
13.8227783345659
 30
0.0
 10
174.4750811541608
 20
13.82461109618719
 30
0.0
 10
174.4039947951514
 20
13.80049556814649
 30
0.0
 10
174.4057477261441
 20
13.92184693977253
 30
0.0
 10
174.358619637057
 20
14.00726239751233
 30
0.0
 10
174.3191478251762
 20
14.12486929345138
 30
0.0
 10
174.2706635532645
 20
14.24232752540439
 30
0.0
 10
174.2201017402522
 20
14.3640593576151
 30
0.0
 10
174.1718634610477
 20
14.49075967862462
 30
0.0
 10
174.1135232947594
 20
14.5993368778495
 30
0.0
 10
174.0980892667261
 20
14.75620657134416
 30
0.0
 10
173.9566586330636
 20
14.7237344654832
 30
0.0
 10
173.8508397414903
 20
14.73512888682181
 30
0.0
 10
173.7358569725222
 20
14.73392591514615
 30
0.0
 10
173.6253142252142
 20
14.73506945347408
 30
0.0
 10
173.5176583522783
 20
14.73418350037526
 30
0.0
 10
173.4121322529243
 20
14.7341660239052
 30
0.0
 10
173.3109192682013
 20
14.72714032472413
 30
0.0
 10
173.1266804827753
 20
14.75135859859877
 30
0.0
 10
173.1157393685412
 20
14.44741691121883
 30
0.0
 10
173.008769163475
 20
14.22353177253399
 30
0.0
 10
172.9098148604347
 20
14.03895314292497
 30
0.0
 10
172.9225090524007
 20
13.79530204804199
 30
0.0
 10
172.8050091716397
 20
13.82508046753195
 30
0.0
 10
172.742205586831
 20
13.82258089509603
 30
0.0
 10
172.67858720934
 20
13.82344075102802
 30
0.0
 10
172.3946014194075
 20
13.78098039941933
 30
0.0
 10
173.0251638499381
 20
14.50081952444788
 30
0.0
 10
173.1087645289072
 20
15.01276539435722
 30
0.0
 10
173.4929252789339
 20
15.53353743550046
 30
0.0
 10
173.4777208288565
 20
16.23519626253211
 30
0.0
 10
173.7239265722697
 20
16.22345633081257
 30
0.0
 10
173.825634615756
 20
16.23225004452772
 30
0.0
 10
173.8249752035818
 20
15.98059650730348
 30
0.0
 10
173.9428317155828
 20
15.79818020733959
 30
0.0
 10
174.0315515260485
 20
15.55563740662866
 30
0.0
 10
174.1322292485259
 20
15.32340030530124
 30
0.0
 10
174.2311142712243
 20
15.08674644566912
 30
0.0
 10
174.3299676990669
 20
14.85461739170093
 30
0.0
 10
174.4256166390925
 20
14.63122222788787
 30
0.0
 10
174.5159904573273
 20
14.42272549049321
 30
0.0
 10
174.5989944568189
 20
14.23308448529317
 30
0.0
 10
174.6726088582799
 20
14.06663106068094
 30
0.0
 10
174.7342815895546
 20
13.92917699626096
 30
0.0
 10
174.7749458885604
 20
13.8499923943003
 30
0.0
 10
174.7922649500513
 20
13.81626739612922
 30
0.0
 11
174.7922649500513
 21
13.81626739612922
 31
0.0
 11
174.7453878317448
 21
13.82145433189182
 31
0.0
 11
174.7010975896125
 21
13.82315538223861
 31
0.0
 11
174.6568074431729
 21
13.82315538223861
 31
0.0
 11
174.6099309947159
 21
13.82315538223861
 31
0.0
 11
174.5630633657034
 21
13.82315538223861
 31
0.0
 11
174.5188084970409
 21
13.82315538223861
 31
0.0
 11
174.4744852776854
 21
13.82145433189182
 31
0.0
 11
174.4276419021443
 21
13.81626739612922
 31
0.0
 11
174.3992532136325
 21
13.90360966173245
 31
0.0
 11
174.3622721815898
 21
14.00729656274821
 31
0.0
 11
174.3188386236701
 21
14.12159987001129
 31
0.0
 11
174.2711055866936
 21
14.24113531268972
 31
0.0
 11
174.2208160133237
 21
14.36408057307565
 31
0.0
 11
174.1696467003932
 21
14.48883822929442
 31
0.0
 11
174.1197531801326
 21
14.61134141502769
 31
0.0
 11
174.0733119111841
 21
14.72784517367921
 31
0.0
 11
173.9623611907589
 21
14.73087465284506
 31
0.0
 11
173.8497309225089
 21
14.73300454867791
 31
0.0
 11
173.7362152069449
 21
14.7343219531914
 31
0.0
 11
173.6227000476801
 21
14.73473315978852
 31
0.0
 11
173.5169185312816
 21
14.7343219531914
 31
0.0
 11
173.4128501919226
 21
14.73300454867791
 31
0.0
 11
173.3087951724045
 21
14.73087465284506
 31
0.0
 11
173.2030010615596
 21
14.72784517367921
 31
0.0
 11
173.0980914750139
 21
14.46604437513353
 31
0.0
 11
173.0034868690331
 21
14.21710232658461
 31
0.0
 11
172.9252231210298
 21
13.99559756969556
 31
0.0
 11
172.8693431224555
 21
13.81626739612922
 31
0.0
 11
172.8082651639442
 21
13.82145433189182
 31
0.0
 11
172.742087361813
 21
13.82315538223861
 31
0.0
 11
172.6758390041282
 21
13.82145433189182
 31
0.0
 11
172.6147963233938
 21
13.81626739612922
 31
0.0
 11
172.889968495193
 21
14.41656508695142
 31
0.0
 11
173.1582945734171
 21
15.01343642360772
 31
0.0
 11
173.4240277350405
 21
15.61366245644381
 31
0.0
 11
173.6914740737033
 21
16.22421385386062
 31
0.0
 11
173.7241589339806
 21
16.22421385386062
 31
0.0
 11
173.7568437942579
 21
16.22421385386062
 31
0.0
 11
173.8428300681057
 21
16.01658539037083
 31
0.0
 11
173.9357285813609
 21
15.79254614563521
 31
0.0
 11
174.0328714521463
 21
15.55908663180469
 31
0.0
 11
174.1317936458031
 21
15.32298128464142
 31
0.0
 11
174.2315341249927
 21
15.0864978037978
 31
0.0
 11
174.3313071129353
 21
14.85168781253711
 31
0.0
 11
174.4280608257449
 21
14.62599492196851
 31
0.0
 11
174.5188084970409
 21
14.41658052097921
 31
0.0
 11
174.6022150834546
 21
14.22607611130459
 31
0.0
 11
174.6770293263377
 21
14.05708232662461
 31
0.0
 11
174.7410729186603
 21
13.91781337700667
 31
0.0
 11
174.7922649500513
 21
13.81626739612922
 31
0.0
  0
SPLINE
  5
B8
102
{ACAD_REACTORS
330
D4
102
}
330
48
100
AcDbEntity
  8
_U_30EC_U_30A4_U_30E4_U_30FC_1
  6
Continuous
 62
     2
100
AcDbSpline
210
0.0
220
0.0
230
1.0
 70
    11
 71
     3
 72
    99
 73
    95
 74
    93
 42
0.000000001
 43
0.0000000001
 44
0.00000001
 40
0.0
 40
0.0
 40
0.0
 40
0.0
 40
0.0796417172272629
 40
0.1621768542355775
 40
0.2486489160957449
 40
0.3404969668524276
 40
0.4381912511164974
 40
0.54344636602447
 40
0.6518115192846999
 40
0.7530190937886639
 40
0.849219691972497
 40
0.9419290312998012
 40
1.034249663570018
 40
1.129078600620168
 40
1.22669702757322
 40
1.327220425421708
 40
1.470572134937989
 40
1.595489863371148
 40
1.719934125348337
 40
1.850576620127264
 40
1.989059629987286
 40
2.134139054226905
 40
2.280698007207158
 40
2.424529739039452
 40
2.56592957698581
 40
2.708239260773469
 40
2.861717887443611
 40
3.045168540347338
 40
3.183798301138586
 40
3.314813961455464
 40
3.442083470447302
 40
3.569912708373025
 40
3.702177512509373
 40
3.842307559659465
 40
3.992872223245937
 40
4.15675066221827
 40
4.310981861107491
 40
4.44585990932255
 40
4.572393936131554
 40
4.70165671978189
 40
4.768279086008429
 40
4.83596069789832
 40
4.912788918729261
 40
5.006285208481452
 40
5.0269094787515
 40
5.047533749021007
 40
5.101808031471069
 40
5.162325165538384
 40
5.226919745995619
 40
5.294231806596567
 40
5.364544852554706
 40
5.438319055467759
 40
5.517877651324065
 40
5.607647714861405
 40
5.700449642544226
 40
5.788251142363908
 40
5.872714706039608
 40
5.955167292575103
 40
6.037192395190187
 40
6.120669181468889
 40
6.206848616686202
 40
6.296680855416598
 40
6.442558392872444
 40
6.568190371608185
 40
6.692904567360217
 40
6.824220446556961
 40
6.963121850329189
 40
7.107843738850972
 40
7.253431663907094
 40
7.395187468036495
 40
7.53314075323757
 40
7.670550457175048
 40
7.816236511769058
 40
7.987691657359
 40
8.142277421969075
 40
8.293662615414888
 40
8.442962460879087
 40
8.591598316185104
 40
8.74367899236162
 40
8.903725323698993
 40
9.076307008890337
 40
9.265578604680393
 40
9.459203795360569
 40
9.617619810273352
 40
9.75360967136168
 40
9.874873300003845
 40
9.954520184977621
 40
10.02416413719228
 40
10.09769764405427
 40
10.18909955924957
 40
10.20974586420118
 40
10.23039218263364
 40
10.30057101881254
 40
10.37632012987534
 40
10.37632012987534
 40
10.37632012987534
 40
10.37632012987534
 10
170.1465954835851
 20
14.13795663215991
 30
0.0
 10
170.1632217851219
 20
14.11720608845308
 30
0.0
 10
170.1970784206577
 20
14.07495111711896
 30
0.0
 10
170.2599822541035
 20
14.02029811392074
 30
0.0
 10
170.3332500940393
 20
13.9729902512105
 30
0.0
 10
170.4175969238636
 20
13.9352723143794
 30
0.0
 10
170.513224061546
 20
13.91040619731949
 30
0.0
 10
170.6171853775346
 20
13.90309559345939
 30
0.0
 10
170.7224020220405
 20
13.91142322794049
 30
0.0
 10
170.8206626371334
 20
13.94149179651529
 30
0.0
 10
170.9058986427547
 20
13.98848822971877
 30
0.0
 10
170.9779220206103
 20
14.04952991250859
 30
0.0
 10
171.0350917709096
 20
14.12412969578583
 30
0.0
 10
171.0767868747439
 20
14.21002464660175
 30
0.0
 10
171.1026952846293
 20
14.3048585043221
 30
0.0
 10
171.1118037332652
 20
14.41854979038367
 30
0.0
 10
171.0986864796488
 20
14.54332587770778
 30
0.0
 10
171.0325330334413
 20
14.66014719171886
 30
0.0
 10
170.9369370919569
 20
14.7451253957737
 30
0.0
 10
170.8249681022369
 20
14.8141668445916
 30
0.0
 10
170.699365958327
 20
14.87204142045891
 30
0.0
 10
170.5656691620856
 20
14.92373723284342
 30
0.0
 10
170.431312281883
 20
14.97899092397181
 30
0.0
 10
170.3051983986878
 20
15.04939770641649
 30
0.0
 10
170.1926579987534
 20
15.13785540731247
 30
0.0
 10
170.0969963064458
 20
15.24981067868467
 30
0.0
 10
170.0334157151825
 20
15.39949910101379
 30
0.0
 10
170.0200706505015
 20
15.55932794385139
 30
0.0
 10
170.0320510987449
 20
15.71048405306844
 30
0.0
 10
170.0712298928841
 20
15.8380924459154
 30
0.0
 10
170.135498775091
 20
15.95080874030847
 30
0.0
 10
170.2238204999741
 20
16.04648609268681
 30
0.0
 10
170.3338091207627
 20
16.12354214985753
 30
0.0
 10
170.4632284401265
 20
16.1815139693627
 30
0.0
 10
170.6111838967793
 20
16.21739177588822
 30
0.0
 10
170.7682069455487
 20
16.22746719050563
 30
0.0
 10
170.917494046643
 20
16.21863637762593
 30
0.0
 10
171.059625361417
 20
16.19074899340343
 30
0.0
 10
171.1595922609625
 20
16.13413314701138
 30
0.0
 10
171.3125074736184
 20
16.0867460210551
 30
0.0
 10
171.2455131717168
 20
16.00197553001186
 30
0.0
 10
171.2296479120268
 20
15.93438901873487
 30
0.0
 10
171.1978750531297
 20
15.86926092793194
 30
0.0
 10
171.2150202209571
 20
15.76723453256958
 30
0.0
 10
171.1666427208232
 20
15.77493211681906
 30
0.0
 10
171.1315789440766
 20
15.76806771724813
 30
0.0
 10
171.1296697985718
 20
15.83263831158197
 30
0.0
 10
171.0985692931988
 20
15.87825639621394
 30
0.0
 10
171.0664551628457
 20
15.93561036628459
 30
0.0
 10
171.0208038475168
 20
15.98540462692557
 30
0.0
 10
170.9658508218386
 20
16.02994813718994
 30
0.0
 10
170.9010841173008
 20
16.06763988836551
 30
0.0
 10
170.8232377310597
 20
16.09283375791353
 30
0.0
 10
170.7355160553352
 20
16.09931230998111
 30
0.0
 10
170.6452903277806
 20
16.09235709285605
 30
0.0
 10
170.5594594694065
 20
16.06909190460912
 30
0.0
 10
170.4828343638596
 20
16.03131644107544
 30
0.0
 10
170.4165265636201
 20
15.98051641089573
 30
0.0
 10
170.3622560536964
 20
15.91731143407211
 30
0.0
 10
170.3224925345459
 20
15.84276455710369
 30
0.0
 10
170.2976775510588
 20
15.75917313997762
 30
0.0
 10
170.2892124262869
 20
15.65192948382282
 30
0.0
 10
170.3019697987104
 20
15.52965457267554
 30
0.0
 10
170.3681548409274
 20
15.4114972429121
 30
0.0
 10
170.4640977399833
 20
15.32606325709521
 30
0.0
 10
170.5757914963182
 20
15.25583362306718
 30
0.0
 10
170.7010863668702
 20
15.19659162305302
 30
0.0
 10
170.8349823941447
 20
15.14616708086132
 30
0.0
 10
170.9689930333149
 20
15.09322516984377
 30
0.0
 10
171.0950885316916
 20
15.02750170625179
 30
0.0
 10
171.2076216638417
 20
14.94480352537319
 30
0.0
 10
171.3031370284233
 20
14.83996006310074
 30
0.0
 10
171.3672706486963
 20
14.6993711725157
 30
0.0
 10
171.3811103725279
 20
14.54065409451594
 30
0.0
 10
171.3673954712229
 20
14.38153155217873
 30
0.0
 10
171.3244739153985
 20
14.23483828819207
 30
0.0
 10
171.2545906329066
 20
14.10119796587141
 30
0.0
 10
171.1574592213829
 20
13.98532387699297
 30
0.0
 10
171.0347806023658
 20
13.89089981770084
 30
0.0
 10
170.8874408413167
 20
13.82179270651983
 30
0.0
 10
170.7177132497125
 20
13.77953210858856
 30
0.0
 10
170.5317404979596
 20
13.76781736230405
 30
0.0
 10
170.3528955926183
 20
13.7780948668344
 30
0.0
 10
170.1881733753743
 20
13.81966573769153
 30
0.0
 10
170.0834410841057
 20
13.88797642883943
 30
0.0
 10
169.9350960790365
 20
13.93675219032101
 30
0.0
 10
169.9980378194729
 20
14.02976591290839
 30
0.0
 10
170.0072274430059
 20
14.10296536248281
 30
0.0
 10
170.0303711301232
 20
14.16936294501347
 30
0.0
 10
170.0034588335318
 20
14.26974809527582
 30
0.0
 10
170.0521338956338
 20
14.26234033517381
 30
0.0
 10
170.0916530580697
 20
14.26894063620897
 30
0.0
 10
170.0996204944701
 20
14.19078703218929
 30
0.0
 10
170.1305436967922
 20
14.15600927375853
 30
0.0
 10
170.1465954835851
 20
14.13795663215991
 30
0.0
 11
170.1465954835851
 21
14.13795663215991
 31
0.0
 11
170.1982038075864
 21
14.07729869814731
 31
0.0
 11
170.2601105501335
 21
14.02271295163321
 31
0.0
 11
170.3327764009802
 21
13.97583980928384
 31
0.0
 11
170.4166468655843
 21
13.93839906276541
 31
0.0
 11
170.511221073241
 21
13.91390636311876
 31
0.0
 11
170.6161603327165
 21
13.90575829888472
 31
0.0
 11
170.7240739497552
 21
13.9156404863822
 31
0.0
 11
170.8208419941616
 21
13.94528704887482
 31
0.0
 11
170.9050776083319
 21
13.9917511894882
 31
0.0
 11
170.9756144207686
 21
14.05191413218151
 31
0.0
 11
171.031944210998
 21
14.1250581946632
 31
0.0
 11
171.0736690016003
 21
14.21021434047522
 31
0.0
 11
171.0994680808033
 21
14.30436190989612
 31
0.0
 11
171.1080824729446
 21
14.40451552098222
 31
0.0
 11
171.0878517703357
 21
14.54643250879396
 31
0.0
 11
171.0272522666731
 21
14.65566684036381
 31
0.0
 11
170.9364971286286
 21
14.74081306430093
 31
0.0
 11
170.8260101884741
 21
14.81052746532511
 31
0.0
 11
170.7008523531254
 21
14.86979854169924
 31
0.0
 11
170.5662951950998
 21
14.92404253474122
 31
0.0
 11
170.4316884277007
 21
14.98201274306004
 31
0.0
 11
170.3065802017258
 21
15.05297399304232
 31
0.0
 11
170.196027609828
 21
15.14113315968693
 31
0.0
 11
170.1053381235265
 21
15.25080295132611
 31
0.0
 11
170.0447055469484
 21
15.39179720476312
 31
0.0
 11
170.0245079172553
 21
15.57413260402312
 31
0.0
 11
170.0374030471347
 21
15.7121613192664
 31
0.0
 11
170.0761016659391
 21
15.83733128451291
 31
0.0
 11
170.1393141731507
 21
15.94779262129083
 31
0.0
 11
170.2257499954546
 21
16.04196885390621
 31
0.0
 11
170.3336492808963
 21
16.1184654077065
 31
0.0
 11
170.4613526283328
 21
16.17615670109481
 31
0.0
 11
170.6075393259923
 21
16.21220066809973
 31
0.0
 11
170.770976856545
 21
16.22421385386062
 31
0.0
 11
170.9248918431289
 21
16.21434269066864
 31
0.0
 11
171.0564887242607
 21
16.18477329831491
 31
0.0
 11
171.172563634494
 21
16.1343999389525
 31
0.0
 11
171.2800792741122
 21
16.06264163167882
 31
0.0
 11
171.2516994050444
 21
16.00236624106885
 31
0.0
 11
171.2284855254283
 21
15.93879017337652
 31
0.0
 11
171.2078381040801
 21
15.86478841992272
 31
0.0
 11
171.1871840681487
 21
15.77360197897332
 31
0.0
 11
171.1665597978415
 21
15.77360197897332
 31
0.0
 11
171.1459355275344
 21
15.77360197897332
 31
0.0
 11
171.1256706495791
 21
15.82395108486348
 31
0.0
 11
171.0994658759421
 21
15.87850045116932
 31
0.0
 11
171.0650468924452
 21
15.93316116296113
 31
0.0
 11
171.0203554612937
 21
15.98349593725412
 31
0.0
 11
170.9657333359511
 21
16.02777175321528
 31
0.0
 11
170.9016722004326
 21
16.06436142334502
 31
0.0
 11
170.8259682961141
 21
16.08882545979727
 31
0.0
 11
170.7365722046449
 21
16.09701100667022
 31
0.0
 11
170.6440937174208
 21
16.08926973931099
 31
0.0
 11
170.5594072091646
 21
16.06609003445561
 31
0.0
 11
170.483702448884
 21
16.02863495634005
 31
0.0
 11
170.4183754766516
 21
15.97832774281102
 31
0.0
 11
170.3650487887664
 21
15.9160029337988
 31
0.0
 11
170.3254809233901
 21
15.84249947895611
 31
0.0
 11
170.3009523754711
 21
15.75988443557388
 31
0.0
 11
170.2927954104108
 21
15.67042329844351
 31
0.0
 11
170.3130095765618
 21
15.5259530814657
 31
0.0
 11
170.3736256166821
 21
15.41591177072931
 31
0.0
 11
170.4643479320758
 21
15.33033670130627
 31
0.0
 11
170.5748676948813
 21
15.25941954854622
 31
0.0
 11
170.7000089937719
 21
15.19914305550578
 31
0.0
 11
170.8345826882553
 21
15.14590447913021
 31
0.0
 11
170.9691729191968
 21
15.09039489581071
 31
0.0
 11
171.0942976816297
 21
15.02377281249412
 31
0.0
 11
171.204800907977
 21
14.94118863716748
 31
0.0
 11
171.2955397598288
 21
14.83800003476272
 31
0.0
 11
171.3561557999489
 21
14.70552315979585
 31
0.0
 11
171.3763699660998
 21
14.53526378483842
 31
0.0
 11
171.3621839747998
 21
14.38133030397411
 31
0.0
 11
171.3196087009193
 21
14.23605531269091
 31
0.0
 11
171.2499752884265
 21
14.10398854189068
 31
0.0
 11
171.1544992078713
 21
13.99007218775252
 31
0.0
 11
171.0341060772624
 21
13.89715272597015
 31
0.0
 11
170.8896160201846
 21
13.82832357668181
 31
0.0
 11
170.7223519532713
 21
13.78581275203969
 31
0.0
 11
170.5336103348226
 21
13.77165864614041
 31
0.0
 11
170.3405031726387
 21
13.78581275203969
 31
0.0
 11
170.1878975900911
 21
13.82832357668181
 31
0.0
 11
170.0661897942203
 21
13.88899033013889
 31
0.0
 11
169.9660261826363
 21
13.95734322942731
 31
0.0
 11
169.9922320587039
 21
14.03255545163077
 31
0.0
 11
170.0090121537618
 21
14.10014767383612
 31
0.0
 11
170.0206196447852
 21
14.17275926235962
 31
0.0
 11
170.0313606254139
 21
14.26352788212861
 31
0.0
 11
170.0520069443315
 21
14.26352788212861
 31
0.0
 11
170.0726532632492
 21
14.26352788212861
 31
0.0
 11
170.1048916391629
 21
14.2011920488108
 31
0.0
 11
170.1465954835851
 21
14.13795663215991
 31
0.0
  0
LWPOLYLINE
  5
B9
102
{ACAD_REACTORS
330
C6
102
}
330
48
100
AcDbEntity
  8
_U_30EC_U_30A4_U_30E4_U_30FC_1
  6
Continuous
 62
     2
100
AcDbPolyline
 90
        5
 70
     1
 43
0.0
 10
192.4578138032672
 20
15.39722336795622
 10
192.4578138032672
 20
15.22875434022062
 10
191.1602971697031
 20
15.22875434022062
 10
191.1602971697031
 20
15.39722336795622
 10
192.4578138032672
 20
15.39722336795622
  0
MTEXT
  5
BB
330
48
100
AcDbEntity
  8
1
 62
     2
100
AcDbMText
 10
32.5
 20
282.0000000000003
 30
0.0
 40
5.0
 41
0.0
 71
     5
 72
     1
  1
図番
  7
CONVERTER_11
 73
     1
 44
0.45454545454545
  0
MTEXT
  5
BC
330
48
100
AcDbEntity
  8
1
 62
     2
100
AcDbMText
 10
29.0
 20
34.00000000000001
 30
0.0
 40
3.5
 41
0.0
 71
     5
 72
     1
  1
備考
  7
CONVERTER_11
 73
     1
 44
0.45454545454545
  0
MTEXT
  5
BD
330
48
100
AcDbEntity
  8
1
 62
     2
100
AcDbMText
 10
29.0
 20
22.75000000000001
 30
0.0
 40
3.5
 41
0.0
 71
     5
 72
     1
  1
品名
  7
CONVERTER_11
 73
     1
 44
0.72727272727273
  0
MTEXT
  5
BE
330
48
100
AcDbEntity
  8
1
 62
     2
100
AcDbMText
 10
29.0
 20
14.25000000000001
 30
0.0
 40
3.5
 41
0.0
 71
     5
 72
     1
  1
品番
  7
CONVERTER_11
 73
     1
 44
0.72727272727273
  0
MTEXT
  5
BF
330
48
100
AcDbEntity
  8
1
 62
     2
100
AcDbMText
 10
101.5
 20
25.00000000000001
 30
0.0
 40
3.0
 41
0.0
 71
     5
 72
     1
  1
承認
  7
CONVERTER_11
 73
     1
 44
0.59090909090909
  0
MTEXT
  5
C0
330
48
100
AcDbEntity
  8
1
 62
     2
100
AcDbMText
 10
175.0
 20
23.50000000000001
 30
0.0
 40
3.5
 41
0.0
 71
     5
 72
     1
  1
第三角法
  7
CONVERTER_11
 73
     1
 44
0.54545454545455
  0
MTEXT
  5
C1
330
48
100
AcDbEntity
  8
1
 62
     2
100
AcDbMText
 10
118.5
 20
25.00000000000001
 30
0.0
 40
3.0
 41
0.0
 71
     5
 72
     1
  1
検図
  7
CONVERTER_11
 73
     1
 44
0.59090909090909
  0
MTEXT
  5
C2
330
48
100
AcDbEntity
  8
1
 62
     2
100
AcDbMText
 10
152.5
 20
25.00000000000001
 30
0.0
 40
3.0
 41
0.0
 71
     5
 72
     1
  1
設計
  7
CONVERTER_11
 73
     1
 44
0.59090909090909
  0
MTEXT
  5
C3
330
48
100
AcDbEntity
  8
1
 62
     2
100
AcDbMText
 10
135.5
 20
25.00000000000001
 30
0.0
 40
3.0
 41
0.0
 71
     5
 72
     1
  1
製図
  7
CONVERTER_11
 73
     1
 44
0.59090909090909
  0
MTEXT
  5
C4
330
48
100
AcDbEntity
  8
1
 62
     2
100
AcDbMText
 10
89.5
 20
24.00000000000001
 30
0.0
 40
3.5
 41
0.0
 71
     5
 72
     1
  1
尺度
  7
CONVERTER_11
 73
     1
 44
0.54545454545455
  0
MTEXT
  5
C5
330
48
100
AcDbEntity
  8
1
 62
   250
100
AcDbMText
 10
25.0
 20
5.0
 30
0.0
 40
3.5
 41
0.0
 71
     4
 72
     1
  1
備考欄の文字列 原点位置=4
  7
CONVERTER_11
 73
     1
 44
0.54545454545455
  0
HATCH
  5
C6
330
48
100
AcDbEntity
  8
1
  6
Continuous
 62
     2
100
AcDbHatch
 10
0.0
 20
0.0
 30
0.0
210
0.0
220
0.0
230
1.0
  2
CUSTOM0
 70
     0
 71
     1
 91
        1
 92
        1
 93
        4
 72
     1
 10
192.4578138032672
 20
15.39722336795622
 11
192.4578138032672
 21
15.22875434022062
 72
     1
 10
192.4578138032672
 20
15.22875434022062
 11
191.1602971697031
 21
15.22875434022062
 72
     1
 10
191.1602971697031
 20
15.22875434022062
 11
191.1602971697031
 21
15.39722336795622
 72
     1
 10
191.1602971697031
 20
15.39722336795622
 11
192.4578138032672
 21
15.39722336795622
 97
        1
330
B9
 75
     1
 76
     2
 52
45.0
 41
0.1
 77
     0
 78
     1
 53
45.0
 43
0.0
 44
0.0
 45
-0.282842712474619
 46
0.0
 79
     0
 98
        1
 10
0.0
 20
0.0
  0
HATCH
  5
C7
330
48
100
AcDbEntity
  8
1
  6
Continuous
 62
     2
100
AcDbHatch
 10
0.0
 20
0.0
 30
0.0
210
0.0
220
0.0
230
1.0
  2
CUSTOM1
 70
     0
 71
     1
 91
        1
 92
        1
 93
        3
 72
     4
 94
        3
 73
     0
 74
     0
 95
       24
 96
       20
 40
0.0
 40
0.0
 40
0.0
 40
0.0
 40
0.221107500875382
 40
0.42732185862449
 40
0.5080174679238953
 40
0.5914835907869875
 40
0.8143265690192008
 40
1.054651302686498
 40
1.295452694023087
 40
1.518109231328745
 40
1.540864321905359
 40
1.595126460622615
 40
1.659890947895924
 40
1.714153085187278
 40
1.736908174961577
 40
1.76495110073525
 40
1.801562291220889
 40
1.953914424543612
 40
2.126104167379724
 40
2.126104167379724
 40
2.126104167379724
 40
2.126104167379724
 10
185.9375369556889
 20
15.58989295113011
 10
185.9112579081812
 20
15.53097628234369
 10
185.8604698894425
 20
15.41711139679253
 10
185.8131784839112
 20
15.14441958233116
 10
185.7043482802618
 20
15.24445482575455
 10
185.5514800279638
 20
15.27118593367333
 10
185.76861551812
 20
15.4851813501763
 10
185.783848367438
 20
15.70332117782483
 10
185.8906889492002
 20
15.88451579066423
 10
185.8305380947075
 20
16.16913226311397
 10
185.9334317395403
 20
16.14114089222448
 10
185.977993346815
 20
16.13243251602299
 10
186.0380842395396
 20
16.12139654183357
 10
186.0756619587438
 20
16.10767523055562
 10
186.1252466928606
 20
16.10756076160229
 10
186.0930158919326
 20
16.07306592398621
 10
186.017180222188
 20
16.0840410453798
 10
186.0429447159694
 20
15.89858969582445
 10
186.005589676385
 20
15.80702313549585
 10
185.9857704961609
 20
15.75844135397702
 72
     4
 94
        3
 73
     0
 74
     0
 95
       70
 96
       66
 40
0.0
 40
0.0
 40
0.0
 40
0.0
 40
0.0241731073021472
 40
0.0846058988987013
 40
0.1631685280353284
 40
0.2417311571789756
 40
0.3021639488292751
 40
0.3263370654895541
 40
0.3533118254248881
 40
0.4228783438922058
 40
0.5179999095313349
 40
0.6216398239465978
 40
0.7167613891499546
 40
0.7863279069649703
 40
0.8133026791761641
 40
0.8372943998771474
 40
0.8945054261372659
 40
0.9627895541962417
 40
1.020000580349051
 40
1.043992300975148
 40
1.071934345522885
 40
1.113121768772899
 40
1.145225199332227
 40
1.225483775412765
 40
1.329819923771483
 40
1.434156071994381
 40
1.514414647795806
 40
1.546518078208416
 40
1.578974764260189
 40
1.662678849314184
 40
1.777131373668405
 40
1.901833377474796
 40
2.016285900500586
 40
2.099989982527953
 40
2.132446666570311
 40
2.158782354486035
 40
2.216720867907824
 40
2.274659381334245
 40
2.300995069256181
 40
2.333451754066153
 40
2.417155836543834
 40
2.531608358985273
 40
2.656310362283768
 40
2.770762886388901
 40
2.854466971340066
 40
2.886923657363873
 40
2.913597976833303
 40
2.982389642875093
 40
3.076451716946943
 40
3.178937260458541
 40
3.27299933473993
 40
3.341791001059142
 40
3.368465320663448
 40
3.396976080738698
 40
3.472140811845934
 40
3.578408190308623
 40
3.700226892456088
 40
3.822045594634333
 40
3.928312973256469
 40
4.003477705314866
 40
4.031988456866932
 40
4.058324144797737
 40
4.116262658236911
 40
4.174201171400723
 40
4.200536849608662
 40
4.200536849608662
 40
4.200536849608662
 40
4.200536849608662
 10
185.9857704961609
 20
15.75844135397702
 10
185.9938259544679
 20
15.75844359811683
 10
186.0220200663241
 20
15.75845146032794
 10
186.0765534803672
 20
15.75830754828368
 10
186.1482891808604
 20
15.75909120499895
 10
186.2236240137062
 20
15.75627570463808
 10
186.2713052366438
 20
15.76298403400953
 10
186.3195071245616
 20
15.7519756369243
 10
186.3062571799873
 20
15.8054640299703
 10
186.3151093964538
 20
15.86049583543088
 10
186.3108698036285
 20
15.95419908726105
 10
186.313348348128
 20
16.04959482218528
 10
186.3090938706059
 20
16.14356821983382
 10
186.3179818665847
 20
16.19795062438008
 10
186.3046977409945
 20
16.25233997691455
 10
186.3514119277109
 20
16.23842216335354
 10
186.3943254545736
 20
16.24103877374041
 10
186.4605443456685
 20
16.23648422450753
 10
186.5013342271798
 20
16.22778162134162
 10
186.5525145690819
 20
16.23531799890196
 10
186.52537204872
 20
16.19349970223285
 10
186.4803096055706
 20
16.20284992072596
 10
186.4942065045051
 20
16.13841207371836
 10
186.4858414431653
 20
16.07378219627397
 10
186.4903632178399
 20
15.97529141193886
 10
186.4854741311167
 20
15.87595932842568
 10
186.4950258992082
 20
15.81293115552966
 10
186.47997614552
 20
15.74964011499786
 10
186.5449159457209
 20
15.76515072944266
 10
186.6116246399496
 20
15.75499387697809
 10
186.7241435470828
 20
15.75988800099364
 10
186.8390235448954
 20
15.7569120473278
 10
186.9519871999747
 20
15.76221664184988
 10
187.0176267597678
 20
15.75107306472086
 10
187.0816276691053
 20
15.76744532319854
 10
187.0703142889189
 20
15.71761689905272
 10
187.0775339871509
 20
15.67416715212119
 10
187.0703142611269
 20
15.63071745587442
 10
187.0816277175994
 20
15.58088895196873
 10
187.0176263598972
 20
15.59726166091359
 10
186.9519921240459
 20
15.58611271661585
 10
186.838997431733
 20
15.59144857206851
 10
186.7242456548644
 20
15.58834345663819
 10
186.611318368686
 20
15.59364894682585
 10
186.5455220903584
 20
15.5825730001959
 10
186.4816097975358
 20
15.59887597847615
 10
186.4936015165125
 20
15.54423524395739
 10
186.4862104613006
 20
15.48854295047841
 10
186.4892684841983
 20
15.3964968914057
 10
186.4893422785684
 20
15.30179109873103
 10
186.4860313578359
 20
15.20952782902268
 10
186.4939505989903
 20
15.15435768736143
 10
186.4815076611617
 20
15.1005816910014
 10
186.5389116551632
 20
15.11453768862786
 10
186.5994708140383
 20
15.10511457884231
 10
186.7048680855081
 20
15.10942885928709
 10
186.8204294070623
 20
15.10835504612036
 10
186.9359688877798
 20
15.10725965900999
 10
187.0414181130842
 20
15.11162525770637
 10
187.1018680471805
 20
15.10209426030675
 10
187.1592837739111
 20
15.11617289606384
 10
187.147777387671
 20
15.06707153265686
 10
187.153756678175
 20
15.02564658018652
 10
187.1520311050803
 20
14.97651677966697
 10
187.1521500122972
 20
14.94854428447609
 10
187.1521871691834
 20
14.93980288195951
 72
     4
 94
        3
 73
     0
 74
     0
 95
       62
 96
       58
 40
0.0
 40
0.0
 40
0.0
 40
0.0
 40
0.0598250028308769
 40
0.20248464868979
 40
0.3727558389221599
 40
0.5154154847936923
 40
0.5752404975786476
 40
0.9332326775488323
 40
1.290451762839596
 40
1.602077253146038
 40
1.699931634112253
 40
1.799359756425162
 40
2.270120149657191
 40
2.804661928461663
 40
2.882342287383378
 40
3.07654318571923
 40
3.329004354835699
 40
3.581465524568531
 40
3.775666424543817
 40
3.853346784558439
 40
3.899120679595184
 40
3.984129341792182
 40
4.029903236817531
 40
4.105797496059684
 40
4.29553314415264
 40
4.542189486611879
 40
4.788845828875822
 40
4.978581476410203
 40
5.054475735244444
 40
5.621734664339423
 40
6.130867242037452
 40
6.22524978094866
 40
6.318913039727378
 40
6.663579954558999
 40
7.04749890022488
 40
7.435230791575863
 40
7.498943906668275
 40
7.650875181210298
 40
7.832212509001836
 40
7.984143783697251
 40
8.047856898903406
 40
8.09155463273292
 40
8.172707566964599
 40
8.216405300768331
 40
8.289021782161216
 40
8.46218416075759
 40
8.66886183800567
 40
8.842024215264262
 40
8.914640695475457
 40
8.989881580861649
 40
9.15541152882753
 40
9.320941477744288
 40
9.396182352487527
 40
9.454709011144073
 40
9.583467660171008
 40
9.712226309013287
 40
9.77075295798974
 40
9.77075295798974
 40
9.77075295798974
 40
9.77075295798974
 10
187.1521871691834
 20
14.93980288195951
 10
187.1322348171624
 20
14.93980875568672
 10
187.0647037716466
 20
14.93982863806159
 10
186.9410612161789
 20
14.93949362520326
 10
186.7863180150056
 20
14.94107673750513
 10
186.669734948248
 20
14.93686078860496
 10
186.455094263424
 20
14.95215205331627
 10
186.8518948407228
 20
14.59198721286193
 10
186.8945656069267
 20
14.37510503397169
 10
187.3189162146611
 20
14.19325062511437
 10
187.1439821496074
 20
14.08985196568072
 10
187.0194523925083
 20
13.87831523212723
 10
186.7666277235944
 20
14.34806081001564
 10
186.4797602893625
 20
14.99511516984522
 10
186.490633592666
 20
14.68782672154695
 10
186.488289277796
 20
14.52288616971779
 10
186.4861096126411
 20
14.28879670711693
 10
186.4980774396346
 20
14.04498072421783
 10
186.4687984740631
 20
13.89855796860983
 10
186.511452262547
 20
13.75113490174538
 10
186.4239814005639
 20
13.76685797306218
 10
186.3768527606744
 20
13.76694303543453
 10
186.2898973207713
 20
13.75109425482908
 10
186.3313474021722
 20
13.89527771422761
 10
186.3029875004285
 20
14.03855052698454
 10
186.31459737753
 20
14.27674947365263
 10
186.3124175648272
 20
14.50517235240343
 10
186.3103111127993
 20
14.66705729375992
 10
186.3208035438323
 20
14.98153709333747
 10
186.0128963252893
 20
14.2922947087243
 10
185.7055258267457
 20
13.81476750243058
 10
185.5851367066274
 20
14.03741112637422
 10
185.4074607910721
 20
14.15011034955567
 10
185.8853326362894
 20
14.32548143465459
 10
185.9353959057208
 20
14.56091929252032
 10
186.3583799621718
 20
14.95322989344609
 10
186.1276754273541
 20
14.93655307029066
 10
186.0049685859342
 20
14.94269518948772
 10
185.8325483095662
 20
14.93312822699575
 10
185.7213224694449
 20
14.95448818489667
 10
185.6025779627448
 20
14.9213626535742
 10
185.6183169706686
 20
15.00203900606886
 10
185.6178550933763
 20
15.04645414290858
 10
185.6027881889931
 20
15.12967081778538
 10
185.7372380935443
 20
15.09062651983888
 10
185.8619755545747
 20
15.11739729328426
 10
186.062875523728
 20
15.10063949044057
 10
186.1921540949352
 20
15.12204225913008
 10
186.3328419928295
 20
15.08868778853425
 10
186.2980927452614
 20
15.2265187578507
 10
186.3222185666713
 20
15.34963257349482
 10
186.2967086182392
 20
15.47024055670334
 10
186.3333251146684
 20
15.60539865141492
 10
186.2211417027769
 20
15.58094545781887
 10
186.1280356457137
 20
15.59307749842019
 10
186.0191547579819
 20
15.58957630069991
 10
185.9569697640964
 20
15.589817559516
 10
185.9375369557246
 20
15.58989295124141
 97
        3
330
AA
330
A8
330
A9
 75
     1
 76
     2
 52
45.0
 41
0.1
 77
     0
 78
     1
 53
45.0
 43
0.0
 44
0.0
 45
-0.282842712474619
 46
0.0
 79
     0
 98
        1
 10
0.0
 20
0.0
  0
HATCH
  5
C8
330
48
100
AcDbEntity
  8
1
  6
Continuous
 62
     2
100
AcDbHatch
 10
0.0
 20
0.0
 30
0.0
210
0.0
220
0.0
230
1.0
  2
CUSTOM2
 70
     0
 71
     1
 91
        1
 92
        1
 93
        1
 72
     4
 94
        3
 73
     0
 74
     0
 95
      124
 96
      120
 40
0.0
 40
0.0
 40
0.0
 40
0.0
 40
0.027818722962451
 40
0.1011590162384269
 40
0.2048470170590239
 40
0.3237088716559245
 40
0.4425707262522
 40
0.5462587270699547
 40
0.6195990203311798
 40
0.647417752257866
 40
0.6750060736115242
 40
0.7357003855242812
 40
0.7963946998054545
 40
0.8239830245571873
 40
0.8540933811102966
 40
0.9373396629409647
 40
1.063094687343246
 40
1.220731268638084
 40
1.399622220914758
 40
1.589140358637743
 40
1.778658496423909
 40
1.957549448940519
 40
2.115186030873169
 40
2.240941056914473
 40
2.324187341760543
 40
2.354297700109393
 40
2.381886024671901
 40
2.442580338710491
 40
2.503274652750521
 40
2.530862977314627
 40
2.56098394927858
 40
2.640393784452926
 40
2.752662861759149
 40
2.881361560118166
 40
3.010060258455213
 40
3.12232933570536
 40
3.201739170817974
 40
3.231860142753335
 40
3.264298024030389
 40
3.352343701778257
 40
3.482095226868776
 40
3.639650650173032
 40
3.811108022565484
 40
3.982565394927986
 40
4.140120818152563
 40
4.269872343141269
 40
4.357918020802329
 40
4.390355902043956
 40
4.423256253992526
 40
4.508104530073047
 40
4.624121560636815
 40
4.750528176031572
 40
4.866545206602019
 40
4.951393482691976
 40
4.984293834645377
 40
5.011450833242294
 40
5.071196230152077
 40
5.130941627057154
 40
5.15809862564882
 40
5.19099897760151
 40
5.275847253689336
 40
5.39186428425677
 40
5.518270899648315
 40
5.634287930209354
 40
5.719136206288028
 40
5.752036558235916
 40
5.782130946282941
 40
5.862783906229116
 40
5.979550131774992
 40
6.1179843166404
 40
6.263641154587948
 40
6.402075339414162
 40
6.518841564907958
 40
6.599494524815547
 40
6.629588912848784
 40
6.654403028226361
 40
6.713575149488128
 40
6.784199939329446
 40
6.843372060493549
 40
6.868186175802795
 40
6.896246243201857
 40
6.939586233758313
 40
6.967846564564941
 40
7.043584251089876
 40
7.153234334451729
 40
7.283231855734473
 40
7.4200118560355
 40
7.550009376579847
 40
7.65965945883524
 40
7.73539714441723
 40
7.7636574748514
 40
7.796409728011057
 40
7.880876065096332
 40
7.996370852465717
 40
8.122208446418613
 40
8.237703224799207
 40
8.3221695620109
 40
8.354921815205914
 40
8.382078813307697
 40
8.441824209207
 40
8.501569605240151
 40
8.52872660348573
 40
8.561478856695778
 40
8.645945193877829
 40
8.76143998086534
 40
8.887277580764483
 40
9.002772362001004
 40
9.087238696661224
 40
9.119990949235678
 40
9.152428830613376
 40
9.24047450863859
 40
9.370226034149537
 40
9.527781457984412
 40
9.6992388309814
 40
9.870696203978586
 40
10.028251627814
 40
10.15800315332562
 40
10.24604883135116
 40
10.27848670378519
 40
10.27848670378519
 40
10.27848670378519
 40
10.27848670378519
 10
195.3821827564383
 20
14.01410517385762
 10
195.3914554737523
 20
14.01410498511279
 10
195.4251744536861
 20
14.01410430876719
 10
195.4934706812465
 20
14.01411807243309
 10
195.592014171158
 20
14.0140322421955
 10
195.7062066464812
 20
14.01441755612255
 10
195.818589441707
 20
14.0130083589755
 10
195.9214376600118
 20
14.01719117422248
 10
195.9806839874849
 20
14.00823089251988
 10
196.0371265937032
 20
14.02164434526066
 10
196.0246255586954
 20
13.97087198613366
 10
196.0329549635703
 20
13.92589320939071
 10
196.0248170841119
 20
13.88056752990492
 10
196.0370529214457
 20
13.8293193240847
 10
195.9747773490334
 20
13.84447955365281
 10
195.9060513026868
 20
13.83359750710746
 10
195.7782756749592
 20
13.83911304747977
 10
195.6262984511643
 20
13.83700851253702
 10
195.4502695972523
 20
13.83771002588478
 10
195.2644431934287
 20
13.83745237531296
 10
195.0786167437175
 20
13.83771005144606
 10
194.9025880142168
 20
13.83700841847735
 10
194.7506104154195
 20
13.83911332229993
 10
194.6228357664554
 20
13.83359680767644
 10
194.5541077836581
 20
13.84448077125947
 10
194.4918349042883
 20
13.82931786684213
 10
194.5040616290017
 20
13.88057510805176
 10
194.4960004462597
 20
13.9258247327243
 10
194.5040675809892
 20
13.97106357955328
 10
194.4918238487083
 20
14.02234176909963
 10
194.5525017120698
 20
14.0074957736314
 10
194.6162810745736
 20
14.01756448170739
 10
194.7277314353502
 20
14.01294644212004
 10
194.8497533443824
 20
14.01413328905473
 10
194.9719538137823
 20
14.0151586390064
 10
195.0829794287392
 20
14.01092475623406
 10
195.1476517413959
 20
14.02018584521744
 10
195.2091162810501
 20
14.00604423049687
 10
195.1930065601337
 20
14.07235527884522
 10
195.2042980327358
 20
14.1444779012198
 10
195.1987400822561
 20
14.27513760888291
 10
195.2008035061689
 20
14.42607323708244
 10
195.2000167127296
 20
14.59335873107889
 10
195.2007845215627
 20
14.76061110332305
 10
195.1988038785628
 20
14.91163289269917
 10
195.2041306156621
 20
15.04206069552997
 10
195.1933101388425
 20
15.11465442605902
 10
195.2090326429875
 20
15.18150469436799
 10
195.143270813249
 20
15.16580512490827
 10
195.0756367830763
 20
15.17609243083997
 10
194.9615885293809
 20
15.17113786847124
 10
194.8451242674902
 20
15.17414128030476
 10
194.7306554121477
 20
15.16880303143391
 10
194.6640324657812
 20
15.18001268074827
 10
194.5990769715185
 20
15.16349132665013
 10
194.6107989758708
 20
15.21473720477061
 10
194.6032830189121
 20
15.25950333784092
 10
194.6107989878835
 20
15.30426944897963
 10
194.5990769505347
 20
15.35551536129743
 10
194.66403263392
 20
15.33899381766817
 10
194.7306533339821
 20
15.35020571373946
 10
194.8451352858063
 20
15.34485436710666
 10
194.9615454436962
 20
15.3479118877112
 10
195.0757660174641
 20
15.3427849901071
 10
195.1430150439227
 20
15.353457333556
 10
195.2083325941438
 20
15.33742082669079
 10
195.1941391448553
 20
15.39949685750055
 10
195.2036059462994
 20
15.46586761628765
 10
195.1990269004085
 20
15.58239972741969
 10
195.2007696555949
 20
15.71426685022379
 10
195.1997551495391
 20
15.85615960150276
 10
195.2017191344373
 20
15.98769050702585
 10
195.1964668553851
 20
16.10524577283006
 10
195.2073408763474
 20
16.16947789001589
 10
195.1919536641853
 20
16.23108802545052
 10
195.24075915378
 20
16.21702407382115
 10
195.2853995564726
 20
16.21954742075318
 10
195.3538643946742
 20
16.21512797401713
 10
195.3959106169103
 20
16.20613025544036
 10
195.4487544758775
 20
16.21411714866513
 10
195.4207035002014
 20
16.1711391761167
 10
195.3749142248594
 20
16.18259552043837
 10
195.3869539073265
 20
16.12173520005135
 10
195.3796086070641
 20
16.05769299468772
 10
195.3831195826162
 20
15.9490936886391
 10
195.3819806760173
 20
15.82494319144753
 10
195.3819174780263
 20
15.69189719829878
 10
195.3832872966867
 20
15.56797381249556
 10
195.3791638801313
 20
15.4586833784934
 10
195.3877763103564
 20
15.39608580094172
 10
195.3746757454401
 20
15.33740133296367
 10
195.4393884328198
 20
15.35362113810904
 10
195.5060405953156
 20
15.34270260383313
 10
195.6198779541103
 20
15.34793740173758
 10
195.7357259122097
 20
15.34485547516915
 10
195.849692426328
 20
15.35018259812514
 10
195.9160341018099
 20
15.33904208166545
 10
195.980718852548
 20
15.3554697959318
 10
195.9689820772722
 20
15.30425925210052
 10
195.9765168063041
 20
15.25950334121003
 10
195.9689820992257
 20
15.21474739010029
 10
195.9807188140737
 20
15.16353690871042
 10
195.9160344075252
 20
15.17996427794222
 10
195.8496886430824
 20
15.16882784447271
 10
195.7357459487012
 20
15.17413115893122
 10
195.6197995623054
 20
15.17114764593546
 10
195.5062756882122
 20
15.17606892268395
 10
195.4389231318804
 20
15.16585087513521
 10
195.3734285122495
 20
15.18145996138818
 10
195.3891713619218
 20
15.11463851827413
 10
195.3783275998211
 20
15.0420705781588
 10
195.3836581629793
 20
14.91162247614419
 10
195.3817136151854
 20
14.76064558185228
 10
195.3823133683215
 20
14.59322243934162
 10
195.3821506559605
 20
14.42656176118376
 10
195.3821895488135
 20
14.2736014292164
 10
195.38218164131
 20
14.1484917898571
 10
195.3821828382745
 20
14.06507890991424
 10
195.3821827716208
 20
14.02491778281981
 10
195.3821827564383
 20
14.01410517385762
 97
        1
330
AB
 75
     1
 76
     2
 52
45.0
 41
0.1
 77
     0
 78
     1
 53
45.0
 43
0.0
 44
0.0
 45
-0.282842712474619
 46
0.0
 79
     0
 98
        1
 10
0.0
 20
0.0
  0
HATCH
  5
C9
330
48
100
AcDbEntity
  8
1
  6
Continuous
 62
     2
100
AcDbHatch
 10
0.0
 20
0.0
 30
0.0
210
0.0
220
0.0
230
1.0
  2
CUSTOM3
 70
     0
 71
     1
 91
        1
 92
        1
 93
        1
 72
     4
 94
        3
 73
     0
 74
     0
 95
      131
 96
      127
 40
0.0
 40
0.0
 40
0.0
 40
0.0
 40
0.019557702982652
 40
0.0426490537461606
 40
0.2863607575856876
 40
0.5344948436189467
 40
0.7842238845573645
 40
0.8737315789467941
 40
0.9803832810313468
 40
1.09284227451709
 40
1.199761146656848
 40
1.289788768186556
 40
1.351573580786265
 40
1.370727117561489
 40
1.416400936017899
 40
1.470914848356036
 40
1.516588666791824
 40
1.535742203552902
 40
1.634216592293254
 40
1.760283341175072
 40
1.897966686682129
 40
2.031216387368877
 40
2.049689751137871
 40
2.101115601646804
 40
2.179502577739918
 40
2.278859318314025
 40
2.393194462258677
 40
2.516516648383785
 40
2.642834515405903
 40
2.766156701983402
 40
2.880491846754509
 40
2.979848588358545
 40
3.058235565443718
 40
3.109661416668869
 40
3.128134780704045
 40
3.146783742386361
 40
3.191254343315251
 40
3.24433215731591
 40
3.288802758225842
 40
3.307451719895113
 40
3.327717853844726
 40
3.383747753580087
 40
3.468388665924483
 40
3.574487837698792
 40
3.694892515728899
 40
3.822449946852041
 40
3.950007377920436
 40
4.07041205580053
 40
4.176511227368088
 40
4.261152139501538
 40
4.317182039076732
 40
4.337448172964653
 40
4.620011002696251
 40
4.885096638397552
 40
4.945373043518372
 40
5.014107710488671
 40
5.070481727652026
 40
5.319246955636562
 40
5.584812164506045
 40
5.859000912056899
 40
6.133746937542075
 40
6.401732212968857
 40
6.420736683995448
 40
6.47284571745107
 40
6.550702743893997
 40
6.646951193874149
 40
6.754234497930502
 40
6.86519608658728
 40
6.97247939035771
 40
7.068727839771843
 40
7.146584865450852
 40
7.198693898189082
 40
7.217698368905222
 40
7.234950401630699
 40
7.276089864269745
 40
7.325191803515852
 40
7.366331266090241
 40
7.383583298769591
 40
7.402779163491968
 40
7.453386443254371
 40
7.524934666445373
 40
7.606953361405684
 40
7.688972056428807
 40
7.760520279784029
 40
7.811127559734271
 40
7.830323424545893
 40
7.847844055299523
 40
7.894799345666567
 40
7.962779392744262
 40
8.04337429356032
 40
8.128174145149234
 40
8.208769044817046
 40
8.276749090376754
 40
8.323704379669323
 40
8.341225010056053
 40
8.358497614800202
 40
8.401679126686407
 40
8.457815092185465
 40
8.51395105772787
 40
8.557132569707825
 40
8.574405174504868
 40
8.60234066861622
 40
8.64345566053971
 40
8.66322527196638
 40
8.715345156564032
 40
8.789031889628374
 40
8.87350204552011
 40
8.957972194323741
 40
9.031658925567639
 40
9.083778811234332
 40
9.103548423002797
 40
9.119550083123363
 40
9.160817522379636
 40
9.21724442911003
 40
9.278724491644516
 40
9.335151398295272
 40
9.376418837357567
 40
9.392420497300355
 40
9.401196302734547
 40
9.417494229383971
 40
9.426270027749243
 40
9.44087507547727
 40
9.47570249699844
 40
9.517270709865594
 40
9.552098131993752
 40
9.566703169883956
 40
9.566703169883956
 40
9.566703169883956
 40
9.566703169883956
 10
194.6170254148479
 20
15.67015871511032
 10
194.6134345093371
 20
15.66453690702162
 10
194.6056039123625
 20
15.65227754419112
 10
194.5129968974545
 20
15.61601916040992
 10
194.4887622233248
 20
15.4014844421271
 10
194.3858709845939
 20
15.22197284509707
 10
194.1220492364305
 20
15.03615573798149
 10
194.2845471569179
 20
14.95959336566081
 10
194.3607225760838
 20
14.89856693195442
 10
194.4492171072758
 20
14.8351580454476
 10
194.538993023311
 20
14.7752563421956
 10
194.5883817636046
 20
14.72102154849208
 10
194.6745708157381
 20
14.69286240541831
 10
194.641126067423
 20
14.65713309652809
 10
194.621467116631
 20
14.62550387991904
 10
194.5919888217882
 20
14.58475872796068
 10
194.5688989446031
 20
14.55504663489642
 10
194.5380205968357
 20
14.50211422668493
 10
194.472919336574
 20
14.627403349389
 10
194.3796000122415
 20
14.68213900233935
 10
194.295063628514
 20
14.7391642393934
 10
194.1722498125741
 20
14.89675287427514
 10
194.1764450847303
 20
14.82035806766831
 10
194.1751478652678
 20
14.7736128016129
 10
194.1758126448077
 20
14.69584785812596
 10
194.1755549986958
 20
14.59902068324418
 10
194.1756431239922
 20
14.48650279078806
 10
194.1756077302281
 20
14.36524085945696
 10
194.1756511758281
 20
14.24086897858958
 10
194.1755199942406
 20
14.11967683631335
 10
194.1759477562047
 20
14.00691148919742
 10
194.1746678202311
 20
13.91082913768743
 10
194.1779759851044
 20
13.831138264687
 10
194.1715197740087
 20
13.78815175788784
 10
194.1806208705557
 20
13.74955432372043
 10
194.1447910339936
 20
13.75810887724071
 10
194.1115223815253
 20
13.75342519985446
 10
194.0604562576041
 20
13.75351298759784
 10
194.0269723972813
 20
13.75794430283822
 10
193.9907585408754
 20
13.74960793842509
 10
194.0009782568665
 20
13.79145277179284
 10
193.9936487887774
 20
13.83778560820174
 10
193.9973633136102
 20
13.92374831106015
 10
193.9959480554896
 20
14.0260514270485
 10
193.9964105554639
 20
14.14453223931513
 10
193.996277368623
 20
14.26957683153357
 10
193.9963015910045
 20
14.39475828107052
 10
193.9963354925551
 20
14.5128664537906
 10
193.9962060293132
 20
14.61628748709519
 10
193.9965507549081
 20
14.69932036153669
 10
193.9958698278689
 20
14.75143368521246
 10
193.9994586600624
 20
14.87912907821363
 10
193.7826171386437
 20
14.58048716819613
 10
193.602135492195
 20
14.35263981511515
 10
193.5490322295611
 20
14.49373443289814
 10
193.5200429133149
 20
14.54325767560943
 10
193.419664806282
 20
14.64641779790099
 10
193.740512772326
 20
14.72695035023777
 10
193.868989700543
 20
14.91066283036433
 10
194.0906454325359
 20
15.11931995771761
 10
194.1770224894068
 20
15.29339211228342
 10
194.4549394229075
 20
15.56967051342507
 10
194.3346247839284
 20
15.5653455955111
 10
194.2863197351349
 20
15.56614856202549
 10
194.2102377454905
 20
15.5657458214658
 10
194.1167010009751
 20
15.56590275611605
 10
194.0117594788557
 20
15.5658250257622
 10
193.9033887738718
 20
15.5659546437855
 10
193.7981454235898
 20
15.56554393490687
 10
193.7056237819413
 20
15.56682073671587
 10
193.6268130800709
 20
15.56340766534846
 10
193.583967456538
 20
15.57023350036316
 10
193.5449499586516
 20
15.56065064201119
 10
193.5526365271866
 20
15.59420779565539
 10
193.5485464404313
 20
15.62523550322229
 10
193.5485531368815
 20
15.67236529270896
 10
193.5526239724912
 20
15.70340941646775
 10
193.5449495574584
 20
15.73701861635897
 10
193.5834819405496
 20
15.72748410420868
 10
193.624122801448
 20
15.73397435498066
 10
193.6951471850464
 20
15.7310015065025
 10
193.7729318149634
 20
15.73174761399154
 10
193.8507292246474
 20
15.73247814044521
 10
193.9217232089908
 20
15.72954235514157
 10
193.962427979182
 20
15.73595468772947
 10
194.0009853489909
 20
15.72650524176
 10
193.9927342754928
 20
15.7626469215878
 10
193.9982346669358
 20
15.80129837613223
 10
193.9955754206163
 20
15.86913528561836
 10
193.9965815471533
 20
15.94591641538738
 10
193.9960178018319
 20
16.02849393582756
 10
193.9970714526593
 20
16.10517329229878
 10
193.994267586313
 20
16.173319907767
 10
194.0000702721303
 20
16.21132399809347
 10
193.9915654551158
 20
16.24758448077647
 10
194.0255610233125
 20
16.23755723771853
 10
194.0594575683099
 20
16.24073266813707
 10
194.1126669060346
 20
16.2350896564061
 10
194.1660768574482
 20
16.23434774436426
 10
194.1995914649491
 20
16.22819223482981
 10
194.2388086183039
 20
16.23346029773594
 10
194.2120263698492
 20
16.19253380793491
 10
194.1708111001725
 20
16.2037120453811
 10
194.1782641540874
 20
16.15867056192123
 10
194.1742227952185
 20
16.11412278028143
 10
194.1761714049641
 20
16.04223572621702
 10
194.175236484976
 20
15.96168630588768
 10
194.1765107190031
 20
15.88173995404992
 10
194.1732043793864
 20
15.80841837083179
 10
194.1802106179962
 20
15.76688643002565
 10
194.1701440380126
 20
15.72752418568107
 10
194.2029814803922
 20
15.73468063430977
 10
194.2364577296482
 20
15.7302724313794
 10
194.2915053476019
 20
15.73217943347893
 10
194.3489502595316
 20
15.73185366407284
 10
194.4023026248311
 20
15.73106308733078
 10
194.4398540896639
 20
15.7331395911807
 10
194.4623172523238
 20
15.73022338167105
 10
194.4751678073731
 20
15.73572552644052
 10
194.4858255685889
 20
15.73801118197788
 10
194.4986635650143
 20
15.74494972588049
 10
194.5145991033071
 20
15.72853046313671
 10
194.5410623920892
 20
15.71709122319448
 10
194.5726805253757
 20
15.69644687835192
 10
194.5987255892152
 20
15.68116869628298
 10
194.6128517723972
 20
15.67266976323188
 10
194.6170254148479
 20
15.67015871511032
 97
        1
330
AC
 75
     1
 76
     2
 52
45.0
 41
0.1
 77
     0
 78
     1
 53
45.0
 43
0.0
 44
0.0
 45
-0.282842712474619
 46
0.0
 79
     0
 98
        1
 10
0.0
 20
0.0
  0
HATCH
  5
CA
330
48
100
AcDbEntity
  8
1
  6
Continuous
 62
     2
100
AcDbHatch
 10
0.0
 20
0.0
 30
0.0
210
0.0
220
0.0
230
1.0
  2
CUSTOM4
 70
     0
 71
     1
 91
        1
 92
        1
 93
        1
 72
     4
 94
        3
 73
     0
 74
     0
 95
       91
 96
       87
 40
0.0
 40
0.0
 40
0.0
 40
0.0
 40
0.0267532254356666
 40
0.0856103386463996
 40
0.1444674521996461
 40
0.1712206856618319
 40
0.2039416005642341
 40
0.2955601971652289
 40
0.4362601844617007
 40
0.6162252844507339
 40
0.8256392189704786
 40
1.054685709844448
 40
1.293548478893568
 40
1.532411247938312
 40
1.761457738799577
 40
1.970871673298574
 40
2.150836773256798
 40
2.291536760495659
 40
2.383155356836737
 40
2.415876284101386
 40
2.442629517488027
 40
2.50148663094915
 40
2.56034374442429
 40
2.587096977826561
 40
2.617068194440988
 40
2.699247336756158
 40
2.822032643466442
 40
2.973822353258
 40
3.143014704823442
 40
3.318007936880021
 40
3.487200288186854
 40
3.638989997548392
 40
3.761775303794891
 40
3.843954445753226
 40
3.873925662229921
 40
3.890812773500632
 40
3.907699884771814
 40
3.937960767857362
 40
3.980983618142445
 40
4.1990859152286
 40
4.439444339237402
 40
4.677588241261024
 40
5.050698317837937
 40
5.44821245476335
 40
5.85529121804482
 40
6.138575438885459
 40
6.417434507584324
 40
6.444551104394008
 40
6.504207617363312
 40
6.563864130314638
 40
6.590980727104232
 40
6.848609460381661
 40
7.109611990668622
 40
7.35291090444628
 40
7.557830220705601
 40
7.587518925913524
 40
7.652834077375957
 40
7.718149228845906
 40
7.747837934062216
 40
7.854880190301206
 40
7.976511257403699
 40
8.369487896592528
 40
8.75751495922385
 40
9.126072419331283
 40
9.460639380392374
 40
9.746695593036144
 40
9.777569943118927
 40
9.807050320932037
 40
9.830377336129166
 40
9.886003295436259
 40
9.952395569430168
 40
10.00802152870653
 40
10.03134854388245
 40
10.2135695100961
 40
10.42203479292901
 40
10.6615455673109
 40
10.91693789564327
 40
11.15832906556589
 40
11.18982674596647
 40
11.27286608520431
 40
11.39026653033373
 40
11.5248475284091
 40
11.65942852648472
 40
11.77682897161507
 40
11.85986831085707
 40
11.89136598230452
 40
11.89136598230452
 40
11.89136598230452
 40
11.89136598230452
 10
190.7027885008196
 20
14.70699600701771
 10
190.7028237765288
 20
14.71587847311984
 10
190.7029366710796
 20
14.74430237047345
 10
190.7012984568489
 20
14.79409639169801
 10
190.7069750292911
 20
14.83657564478151
 10
190.6956928731706
 20
14.88730154856844
 10
190.7632296979032
 20
14.87012900740105
 10
190.8388029210701
 20
14.88290227165994
 10
190.9828357056001
 20
14.87629729457378
 10
191.1569419185427
 20
14.87888462206463
 10
191.3639599611003
 20
14.8780059195555
 10
191.5894688172378
 20
14.87828207920024
 10
191.8251162293406
 20
14.87818339658659
 10
192.0607640531349
 20
14.87828184412764
 10
192.2862717580626
 20
14.87800678190786
 10
192.4932934632805
 20
14.87888186270731
 10
192.667388891529
 20
14.87630522678444
 10
192.8114492071986
 20
14.8828829044921
 10
192.8869691915293
 20
14.87016243405601
 10
192.9545776037031
 20
14.88726400191684
 10
192.9430840140676
 20
14.83674785802938
 10
192.9505104581734
 20
14.79253252226499
 10
192.9428838927986
 20
14.74867966503608
 10
192.9546489459426
 20
14.69878374479326
 10
192.8930788491984
 20
14.71393227712512
 10
192.8256791738672
 20
14.70310665350672
 10
192.7013004056222
 20
14.70852031626235
 10
192.5554428236572
 20
14.70649205390784
 10
192.3893576440086
 20
14.70715777578386
 10
192.2188412621725
 20
14.70689643521241
 10
192.0519790855389
 20
14.70721553391093
 10
191.9087346827105
 20
14.7063530259076
 10
191.7773313869835
 20
14.70863300482988
 10
191.7239859134655
 20
14.70407704374199
 10
191.6485188456913
 20
14.70999914992877
 10
191.6769075779231
 20
14.7009416934335
 10
191.7033652409542
 20
14.69725912268927
 10
191.6633522907701
 20
14.6665427196827
 10
191.5713663691868
 20
14.67667591174649
 10
191.5439396207069
 20
14.43032502247781
 10
191.4478793967235
 20
14.27499558764377
 10
191.1917277964473
 20
13.9452541793157
 10
191.7627537732763
 20
14.08430022210451
 10
192.0173656320516
 20
14.08291779973359
 10
192.6279647048617
 20
13.99790569242087
 10
192.3340698578083
 20
14.29685417558204
 10
192.0133304286518
 20
14.4433085690178
 10
192.1313543360433
 20
14.50025540818286
 10
192.1724716466261
 20
14.52420099873348
 10
192.2156812394411
 20
14.54599758811231
 10
192.3174574094451
 20
14.60928721253906
 10
192.4328867625248
 20
14.35147151408782
 10
192.6329591642278
 20
14.21616041113682
 10
192.7269077387229
 20
14.03792795138885
 10
192.9558829746392
 20
13.87997821027052
 10
192.8596031846708
 20
13.82915972576301
 10
192.8167959763779
 20
13.79881292523053
 10
192.771824352878
 20
13.77466130281456
 10
192.7121720925213
 20
13.72552146747562
 10
192.6789731061325
 20
13.85997475673606
 10
192.5582013350797
 20
14.01594265286586
 10
192.1970976005979
 20
13.88569928059554
 10
191.8385061955541
 20
13.90224694409483
 10
191.4570920450081
 20
13.89331229351864
 10
191.170345528289
 20
13.82882671672409
 10
190.8592055599714
 20
13.94230668192826
 10
190.8268737818788
 20
13.83122259927769
 10
190.7896178253317
 20
13.81196313850008
 10
190.7865737632755
 20
13.85874784087296
 10
190.7679892860606
 20
13.89806853919131
 10
190.7512436616778
 20
13.95765983478233
 10
190.7383730915754
 20
14.00201969871283
 10
190.704232780643
 20
14.09106331120202
 10
190.9482714457754
 20
14.02181042943768
 10
191.1441394486672
 20
14.00030369057741
 10
191.2395426381277
 20
14.28226484478461
 10
191.2945135769597
 20
14.44363045421123
 10
191.5159619357157
 20
14.71391177589737
 10
191.3849239381215
 20
14.70548446853733
 10
191.3110026555854
 20
14.70779008496969
 10
191.1977459876244
 20
14.70671378321657
 10
191.0694251807484
 20
14.70707639076509
 10
190.9404252030415
 20
14.70697724466084
 10
190.828784094629
 20
14.70699932712571
 10
190.7514663970026
 20
14.70699579189669
 10
190.713287653201
 20
14.7069959584508
 10
190.7027885008196
 20
14.70699600701771
 97
        1
330
AD
 75
     1
 76
     2
 52
45.0
 41
0.1
 77
     0
 78
     1
 53
45.0
 43
0.0
 44
0.0
 45
-0.282842712474619
 46
0.0
 79
     0
 98
        1
 10
0.0
 20
0.0
  0
HATCH
  5
CB
330
48
100
AcDbEntity
  8
1
  6
Continuous
 62
     2
100
AcDbHatch
 10
0.0
 20
0.0
 30
0.0
210
0.0
220
0.0
230
1.0
  2
CUSTOM5
 70
     0
 71
     1
 91
        1
 92
        1
 93
        1
 72
     4
 94
        3
 73
     0
 74
     0
 95
       35
 96
       31
 40
0.0
 40
0.0
 40
0.0
 40
0.0
 40
0.0335231036620094
 40
0.0713218571711909
 40
0.4278866681487395
 40
0.8116865841964341
 40
1.198190238000145
 40
1.561379546812803
 40
1.659983174622181
 40
1.759315573807299
 40
2.132719617231236
 40
2.525233363588992
 40
2.910815397779877
 40
3.265244364303444
 40
3.592606723582174
 40
3.964386154604112
 40
4.359942131737934
 40
4.758154118639458
 40
4.843846538700087
 40
4.936650065543391
 40
5.256616602537477
 40
5.58170740441622
 40
5.899719158308326
 40
6.198363494280947
 40
6.466301046616012
 40
6.493895311537334
 40
6.559697020197127
 40
6.638234543442704
 40
6.704036252154458
 40
6.731630508423264
 40
6.731630508423264
 40
6.731630508423264
 40
6.731630508423264
 10
191.9736010568669
 20
16.23463843719131
 10
191.9676006097789
 20
16.22480690542321
 10
191.9548344099157
 20
16.20388988579795
 10
191.7949362006551
 20
16.17127126532712
 10
192.2322025842338
 20
15.88206680336694
 10
192.4345394828261
 20
15.68041138358434
 10
192.6819564267974
 20
15.43749387603276
 10
193.1831513624607
 20
15.36047662757764
 10
193.0125562198971
 20
15.21876939174658
 10
192.9383299463202
 20
15.01710366209097
 10
192.6131432248188
 20
15.36956287174725
 10
192.3277741670665
 20
15.53175212559561
 10
192.0337604077657
 20
15.73687130053045
 10
191.8084452691135
 20
16.21827488595449
 10
191.5993085055521
 20
15.75343046609219
 10
191.3207873674834
 20
15.54350952252909
 10
191.0371383177209
 20
15.37424456359983
 10
190.7078639527831
 20
15.00142360907929
 10
190.6277012318224
 20
15.19708014458998
 10
190.4759724909744
 20
15.32491104190589
 10
190.9083395826794
 20
15.40454031765932
 10
191.0962565329766
 20
15.6002663491547
 10
191.3468477420503
 20
15.81632996916755
 10
191.5714350470161
 20
15.98190992300058
 10
191.6259775409712
 20
16.26133964636834
 10
191.7494661029011
 20
16.24737950408082
 10
191.806027334452
 20
16.24521268867649
 10
191.8761870984945
 20
16.2404685988136
 10
191.9333414022105
 20
16.23709429350539
 10
191.9644190320839
 20
16.23519854711117
 10
191.9736010568669
 20
16.23463843719131
 97
        1
330
AE
 75
     1
 76
     2
 52
45.0
 41
0.1
 77
     0
 78
     1
 53
45.0
 43
0.0
 44
0.0
 45
-0.282842712474619
 46
0.0
 79
     0
 98
        1
 10
0.0
 20
0.0
  0
HATCH
  5
CC
330
48
100
AcDbEntity
  8
1
  6
Continuous
 62
     2
100
AcDbHatch
 10
0.0
 20
0.0
 30
0.0
210
0.0
220
0.0
230
1.0
  2
CUSTOM6
 70
     0
 71
     1
 91
        1
 92
        1
 93
        1
 72
     4
 94
        3
 73
     0
 74
     0
 95
       15
 96
       11
 40
0.0
 40
0.0
 40
0.0
 40
0.0
 40
0.2785535985096679
 40
0.5215624748199137
 40
0.6076917376040187
 40
0.6938210001740325
 40
0.9405019146454617
 40
1.221691403489016
 40
1.300471877080899
 40
1.379252341684629
 40
1.379252341684629
 40
1.379252341684629
 40
1.379252341684629
 10
189.5681493630999
 20
16.22930267330382
 10
189.6296017794178
 20
16.17691646592716
 10
189.7446649974113
 20
16.07882876798221
 10
190.0397348497243
 20
15.92889785897222
 10
189.9025147631858
 20
15.84343227515013
 10
189.8041227843779
 20
15.71085785201556
 10
189.713003359065
 20
16.01616985781416
 10
189.3636839480656
 20
16.0796786946537
 10
189.511925837657
 20
16.17896509880878
 10
189.5494081874237
 20
16.21252348402383
 10
189.5681493630999
 20
16.22930267330382
 97
        1
330
AF
 75
     1
 76
     2
 52
45.0
 41
0.1
 77
     0
 78
     1
 53
45.0
 43
0.0
 44
0.0
 45
-0.282842712474619
 46
0.0
 79
     0
 98
        1
 10
0.0
 20
0.0
  0
HATCH
  5
CD
330
48
100
AcDbEntity
  8
1
  6
Continuous
 62
     2
100
AcDbHatch
 10
0.0
 20
0.0
 30
0.0
210
0.0
220
0.0
230
1.0
  2
CUSTOM7
 70
     0
 71
     1
 91
        1
 92
        1
 93
        1
 72
     4
 94
        3
 73
     0
 74
     0
 95
       75
 96
       71
 40
0.0
 40
0.0
 40
0.0
 40
0.0
 40
0.0342546099129691
 40
0.1245622414432364
 40
0.2522385480897554
 40
0.3985991922940733
 40
0.5449598364980892
 40
0.6726361431438923
 40
0.7629437746737049
 40
0.7971983935298079
 40
1.10172362344973
 40
1.408591244036683
 40
1.433332471690382
 40
1.487763172450162
 40
1.542193873081974
 40
1.566935100592516
 40
1.923523931821835
 40
2.271755704953613
 40
2.590579755100828
 40
2.858943305581054
 40
2.88912033930912
 40
2.918305855191122
 40
2.941366645531248
 40
2.996357760973138
 40
3.061992318140693
 40
3.116983433626868
 40
3.140044223997558
 40
3.411273122936396
 40
3.732441619741064
 40
3.761068217532762
 40
3.837787499630319
 40
3.948858699125957
 40
4.080541049104326
 40
4.219093782625704
 40
4.350776132722251
 40
4.461847332405579
 40
4.538566614678311
 40
4.567193212544556
 40
4.594907573998814
 40
4.666381453557353
 40
4.764111044010964
 40
4.870592538125766
 40
4.968322128642217
 40
5.039796008286903
 40
5.067510369784362
 40
5.094263603185574
 40
5.153120716668207
 40
5.211977830150651
 40
5.238731063551654
 40
5.272290535138893
 40
5.363380529444754
 40
5.497618415781432
 40
5.660621563453674
 40
5.838007341749375
 40
6.015393119910726
 40
6.178396267038352
 40
6.312634151842303
 40
6.403724143059293
 40
6.437283612672388
 40
6.464036846261003
 40
6.522893960004616
 40
6.581751071483879
 40
6.608504301590823
 40
6.637253941280971
 40
6.711397748902822
 40
6.812778057283435
 40
6.923237199249211
 40
7.024617507623855
 40
7.098761315207508
 40
7.127510946007458
 40
7.127510946007458
 40
7.127510946007458
 40
7.127510946007458
 10
188.4418622390564
 20
14.95849128473262
 10
188.4418622819707
 20
14.94707313408718
 10
188.4418624481128
 20
14.90555257842627
 10
188.4418593081787
 20
14.8214692200377
 10
188.44187882798
 20
14.70004497322326
 10
188.4417912187737
 20
14.55980494047446
 10
188.442111623523
 20
14.42006556794574
 10
188.4411605909741
 20
14.29745038894926
 10
188.4431978595967
 20
14.21587074438039
 10
188.4349433178746
 20
14.06271267077693
 10
188.74307979409
 20
14.22560236054714
 10
189.0350645173738
 20
14.39482938688004
 10
189.0408354448707
 20
14.25973235781911
 10
189.0455471719892
 20
14.21617221160447
 10
189.0482535411917
 20
14.17211249350548
 10
189.067254567296
 20
14.02272590363139
 10
188.6583942247302
 20
14.08681172241263
 10
188.3793710348832
 20
13.97296341411016
 10
188.1018081587166
 20
13.87364095811142
 10
187.8099837184402
 20
13.91630687596354
 10
187.7869144678658
 20
13.81321679744537
 10
187.7537474383333
 20
13.78691091244464
 10
187.7480653962738
 20
13.83455309036299
 10
187.7284214559045
 20
13.87180336115068
 10
187.7095089485623
 20
13.93007387847559
 10
187.6942849867708
 20
13.97385201007805
 10
187.6477246372936
 20
14.08759421046303
 10
187.9890897312451
 20
14.05576301120049
 10
188.2679649367387
 20
14.02161435106479
 10
188.2617753034907
 20
14.16913976479653
 10
188.2630935452773
 20
14.24013150908833
 10
188.2624831689948
 20
14.34719767958662
 10
188.2625871570725
 20
14.47398529785997
 10
188.2629987964055
 20
14.60849243496049
 10
188.2613907841969
 20
14.73395549951183
 10
188.2659902567925
 20
14.84505246719116
 10
188.256418650221
 20
14.90761886800687
 10
188.2704001783691
 20
14.96595388294999
 10
188.2147384386705
 20
14.95289710582236
 10
188.1575655197821
 20
14.96136307749496
 10
188.0616048925648
 20
14.95729976080634
 10
187.963376752282
 20
14.95970889852472
 10
187.8672582457561
 20
14.95551600613386
 10
187.8104648525811
 20
14.96429346441161
 10
187.7550356873384
 20
14.95094936850118
 10
187.7670679427917
 20
15.00036910959254
 10
187.7592003173937
 20
15.04393988030393
 10
187.7666295563828
 20
15.08830469118522
 10
187.7551930564144
 20
15.13902297763988
 10
187.8232102370132
 20
15.1216246075774
 10
187.8968496879747
 20
15.13417450237186
 10
188.0325064058211
 20
15.12799677011094
 10
188.1884909024525
 20
15.13029203093081
 10
188.3615926358143
 20
15.12940968262527
 10
188.5346942964181
 20
15.13029207142405
 10
188.6906789811216
 20
15.12799662955547
 10
188.8263351889797
 20
15.13417486262428
 10
188.8999756705652
 20
15.12162394218332
 10
188.9679914174724
 20
15.1390237301214
 10
188.9565590885922
 20
15.08830130414552
 10
188.9639539458298
 20
15.04397060811106
 10
188.956203991227
 20
15.00028307550193
 10
188.9681203741877
 20
14.95063590098475
 10
188.9108170223616
 20
14.96461411338423
 10
188.8520145789772
 20
14.95539755673252
 10
188.7525293633199
 20
14.95952268164927
 10
188.649428009835
 20
14.95822760025886
 10
188.5537846354573
 20
14.95854077077638
 10
188.4857467971617
 20
14.95848776697143
 10
188.4514462213443
 20
14.95849051871654
 10
188.4418622390564
 20
14.95849128473262
 97
        1
330
B0
 75
     1
 76
     2
 52
45.0
 41
0.1
 77
     0
 78
     1
 53
45.0
 43
0.0
 44
0.0
 45
-0.282842712474619
 46
0.0
 79
     0
 98
        1
 10
0.0
 20
0.0
  0
HATCH
  5
CE
330
48
100
AcDbEntity
  8
1
  6
Continuous
 62
     2
100
AcDbHatch
 10
0.0
 20
0.0
 30
0.0
210
0.0
220
0.0
230
1.0
  2
CUSTOM8
 70
     0
 71
     1
 91
        1
 92
        1
 93
        1
 72
     4
 94
        3
 73
     0
 74
     0
 95
       91
 96
       87
 40
0.0
 40
0.0
 40
0.0
 40
0.0
 40
0.0345987051695718
 40
0.1258134969461369
 40
0.2547723404888987
 40
0.4026032099154125
 40
0.5504340793416704
 40
0.679392922883608
 40
0.7706077146571035
 40
0.8052064287780925
 40
1.124852390615279
 40
1.427402236308869
 40
1.706356627453503
 40
1.955541417875186
 40
2.169485938566321
 40
2.344350786664781
 40
2.480568411561946
 40
2.590440557428994
 40
2.649189927151097
 40
2.749320643306297
 40
2.912632739879999
 40
3.147745656000208
 40
3.244827496385022
 40
3.338490056946599
 40
3.583815413207012
 40
3.76142394323836
 40
3.886956104362516
 40
3.985855451886675
 40
4.091766255337559
 40
4.250186473811751
 40
4.42273431508439
 40
4.62828568483847
 40
4.872093227758285
 40
5.152549652145376
 40
5.464967135837341
 40
5.803201477852247
 40
6.16036298881372
 40
6.193449448275775
 40
6.284170385501429
 40
6.419718138764271
 40
6.587285046385521
 40
6.774063446723435
 40
6.96724567811339
 40
7.154024078817404
 40
7.321590987025761
 40
7.457138740890091
 40
7.547859678555827
 40
7.580946138182387
 40
7.608533084714455
 40
7.669224367077465
 40
7.729915649429715
 40
7.757502595949783
 40
7.790278062553265
 40
7.880146277430734
 40
8.014419963180169
 40
8.18041184239767
 40
8.365434637679138
 40
8.556801071622411
 40
8.741823866830496
 40
8.907815745916063
 40
9.04208943150716
 40
9.131957646249285
 40
9.164733112796862
 40
9.415425063139763
 40
9.667986180958216
 40
9.694169807462384
 40
9.756607686047342
 40
9.831130315322234
 40
9.89356819389967
 40
9.919751820398515
 40
9.950967964690362
 40
9.996421631210483
 40
10.22087981037435
 40
10.44341866197518
 40
10.4784797078883
 40
10.57091337438731
 40
10.70159545461205
 40
10.85140174170336
 40
11.00120802880453
 40
11.13189010907358
 40
11.22432377582986
 40
11.25938480938932
 40
11.28697175596122
 40
11.347663038359
 40
11.40835432042054
 40
11.4359412589209
 40
11.4359412589209
 40
11.4359412589209
 40
11.4359412589209
 10
190.0818114333289
 20
15.55242795125072
 10
190.0702785844941
 20
15.5524279028791
 10
190.0283409444998
 20
15.55242773704159
 10
189.9434129719026
 20
15.55243125800904
 10
189.8207688553128
 20
15.55240926435873
 10
189.6791206916993
 20
15.55250801177049
 10
189.537975369849
 20
15.55214686232416
 10
189.4141351317904
 20
15.55321883609083
 10
189.3317217825382
 20
15.55092249091264
 10
189.1727791229691
 20
15.56048569373414
 10
189.3503402353376
 20
15.19785394311366
 10
189.3379739205452
 20
14.95243127723109
 10
189.4064519473864
 20
14.6686250132483
 10
189.469302432097
 20
14.43250999939033
 10
189.5452253431728
 20
14.23326740396126
 10
189.6303189577016
 20
14.07745347451372
 10
189.7244607592937
 20
13.97657857781392
 10
189.8282648207728
 20
13.92465852638963
 10
189.9125872030774
 20
13.97606484379619
 10
189.9351322179452
 20
14.09144544037516
 10
189.9745730975371
 20
14.21885149702378
 10
189.9202919734943
 20
14.5362232808676
 10
190.0451218072473
 20
14.389821801409
 10
190.2019291513603
 20
14.35795300331176
 10
190.0947720007057
 20
14.12421357767629
 10
190.0808711209867
 20
13.9597277658366
 10
190.0234709467225
 20
13.83130869122487
 10
189.9335020145008
 20
13.76018802352831
 10
189.8095274657878
 20
13.74432324142259
 10
189.663427319686
 20
13.77993797554176
 10
189.5243894320284
 20
13.9000057050028
 10
189.4102003962145
 20
14.07435682550321
 10
189.3146141301485
 20
14.2994660311124
 10
189.2318652572627
 20
14.56388246006441
 10
189.1807179256412
 20
14.8818793309854
 10
189.0770189207338
 20
15.15543728488908
 10
189.2042841208522
 20
15.56005818612863
 10
189.0357890623018
 20
15.55112367849673
 10
188.9511995787077
 20
15.55315961418358
 10
188.8189876387628
 20
15.55213937388401
 10
188.6560505094104
 20
15.55253230318424
 10
188.4733759170533
 20
15.55235696313364
 10
188.2847057373383
 20
15.55260105307463
 10
188.1014469020189
 20
15.55185657906231
 10
187.9404746832719
 20
15.55416360522421
 10
187.8029808335276
 20
15.54799804883657
 10
187.7289590372311
 20
15.56032838458206
 10
187.6613215186857
 20
15.54329323723551
 10
187.673237371927
 20
15.59524438447525
 10
187.6655677285694
 20
15.64071424966528
 10
187.6732592225117
 20
15.68614453703707
 10
187.6613141797762
 20
15.73802395984575
 10
187.7283588305868
 20
15.72119143490269
 10
187.8017375665678
 20
15.73335409092675
 10
187.9379128305273
 20
15.72727231074963
 10
188.0973811801513
 20
15.72954834315062
 10
188.2789173085837
 20
15.72881233998966
 10
188.4658034862179
 20
15.72905954196138
 10
188.6468012316836
 20
15.72886400799257
 10
188.8080802578879
 20
15.72932234714844
 10
188.9393882124886
 20
15.7281267375121
 10
189.0225051322597
 20
15.73051347319747
 10
189.1556236547812
 20
15.72230605725466
 10
189.0645893502659
 20
15.97752868952659
 10
188.9789633074419
 20
16.24164358328245
 10
189.0990589003455
 20
16.22904442969167
 10
189.1514264948543
 20
16.22694235763076
 10
189.2214497569716
 20
16.22535399889659
 10
189.2671922337818
 20
16.21602567538115
 10
189.3220812646934
 20
16.22545966915429
 10
189.2963574785682
 20
16.17733028655174
 10
189.1825397571453
 20
16.18266829744157
 10
189.3159346621136
 20
15.95449174576779
 10
189.1943658735472
 20
15.72156856595928
 10
189.3223188769412
 20
15.73087258884442
 10
189.4049048406461
 20
15.72801001754684
 10
189.5307214850824
 20
15.72923437412306
 10
189.6741469838057
 20
15.72932431888968
 10
189.8157420951728
 20
15.72746163183857
 10
189.9459127249967
 20
15.73333075937167
 10
190.0193452286191
 20
15.72070340823208
 10
190.0891112922096
 20
15.73877563110416
 10
190.0775772605396
 20
15.68612850546328
 10
190.0833184346682
 20
15.64221317686547
 10
190.0816615770911
 20
15.59089982676546
 10
190.081775756167
 20
15.5615879202163
 10
190.0818114333289
 20
15.55242795125072
 97
        1
330
B1
 75
     1
 76
     2
 52
45.0
 41
0.1
 77
     0
 78
     1
 53
45.0
 43
0.0
 44
0.0
 45
-0.282842712474619
 46
0.0
 79
     0
 98
        1
 10
0.0
 20
0.0
  0
HATCH
  5
CF
330
48
100
AcDbEntity
  8
1
  6
Continuous
 62
     2
100
AcDbHatch
 10
0.0
 20
0.0
 30
0.0
210
0.0
220
0.0
230
1.0
  2
CUSTOM9
 70
     0
 71
     1
 91
        1
 92
        1
 93
        1
 72
     4
 94
        3
 73
     0
 74
     0
 95
      118
 96
      114
 40
0.0
 40
0.0
 40
0.0
 40
0.0
 40
0.1054708162972979
 40
0.2466098270051312
 40
0.3965912874590514
 40
0.528552506975333
 40
0.6156245055641599
 40
0.6431434105796912
 40
0.7036850037985573
 40
0.7642265984503942
 40
0.7917455052354246
 40
0.9287404319989104
 40
1.10657281908793
 40
1.287544879680894
 40
1.317578308030411
 40
1.399928030857049
 40
1.522968204799825
 40
1.675072986590447
 40
1.844616533180527
 40
2.019973001638592
 40
2.189516548879904
 40
2.341621331585245
 40
2.464661506320383
 40
2.547011229646946
 40
2.577044658167912
 40
2.603797890892983
 40
2.662655002908727
 40
2.721512114949595
 40
2.748265347702775
 40
2.77421530734485
 40
2.84595931340718
 40
2.954338556588379
 40
3.090194227585553
 40
3.244367517100516
 40
3.407699615844273
 40
3.571031714539417
 40
3.725205003920093
 40
3.861060674729591
 40
3.969439917716281
 40
4.041183923628953
 40
4.067133883212946
 40
4.311886746012113
 40
4.547897258335471
 40
4.764747083043916
 40
4.952749679951722
 40
5.045772974195843
 40
5.137862019644949
 40
5.330543169793005
 40
5.553448265244001
 40
5.795083855888181
 40
6.043293412177228
 40
6.285761695541126
 40
6.31390290875261
 40
6.384255941793199
 40
6.475714884766788
 40
6.56717382775885
 40
6.637526860839628
 40
6.665668074073992
 40
6.692018920327969
 40
6.74999078207105
 40
6.807962643790429
 40
6.834313490017907
 40
6.856393084245186
 40
6.913335195649809
 40
6.991194817302473
 40
7.076026942283734
 40
7.153886563725225
 40
7.210828674844807
 40
7.232908268931142
 40
7.258199334923662
 40
7.324875781592304
 40
7.419142481924952
 40
7.527204308841887
 40
7.635266135230456
 40
7.729532834168435
 40
7.79620927929275
 40
7.821500344594693
 40
7.844652988850763
 40
7.899863140541541
 40
7.965759128053706
 40
8.02096927977099
 40
8.044121924046456
 40
8.069356610160536
 40
8.109134395441219
 40
8.132238100190934
 40
8.1931478677863
 40
8.279261678876475
 40
8.377977512673697
 40
8.476693347146487
 40
8.562807160411541
 40
8.623716930826332
 40
8.646820636853287
 40
8.6719887937741
 40
8.734909185827954
 40
8.816705695188668
 40
8.89850220481521
 40
8.961422597377643
 40
8.986590754550756
 40
9.012941600732916
 40
9.070913462380013
 40
9.128885324081516
 40
9.15523617032484
 40
9.180404327928883
 40
9.243324721947928
 40
9.325121234211665
 40
9.406917746637319
 40
9.469838141977775
 40
9.49500628827052
 40
9.517811184378656
 40
9.572192090486645
 40
9.637098333280859
 40
9.691479239515047
 40
9.714284125643081
 40
9.714284125643081
 40
9.714284125643081
 40
9.714284125643081
 10
185.2874469028654
 20
15.26889163187721
 10
185.3090990569038
 20
15.24111869242813
 10
185.3597257109474
 20
15.17618054561238
 10
185.4349383202592
 20
15.06891060312901
 10
185.5248482274346
 20
14.95377438266626
 10
185.5709169676674
 20
14.85357045748322
 10
185.6655825294655
 20
14.78434006814944
 10
185.6204439320413
 20
14.73771639678275
 10
185.594704778579
 20
14.6966030886604
 10
185.5645196708011
 20
14.66065971727941
 10
185.5193684730563
 20
14.58579782596096
 10
185.4710504458561
 20
14.80782524253604
 10
185.3968539713073
 20
14.84510677337708
 10
185.2836047324608
 20
15.116102021306
 10
185.288513357817
 20
15.00095328446228
 10
185.2868486556307
 20
14.92836675781628
 10
185.2876830076715
 20
14.80625588483986
 10
185.2873609540266
 20
14.6591380081046
 10
185.2875076912456
 20
14.49307063956557
 10
185.2872950092724
 20
14.32187554608601
 10
185.2879497252034
 20
14.15552828635498
 10
185.285919246114
 20
14.00935173055692
 10
185.2913460399932
 20
13.8847104747461
 10
185.2804930868708
 20
13.81718656540625
 10
185.2956739155556
 20
13.75549061417021
 10
185.2457895108134
 20
13.76727503897001
 10
185.2017150342522
 20
13.75943822779967
 10
185.1582371630201
 20
13.76760441372703
 10
185.1092346786488
 20
13.75538056738466
 10
185.1218731234825
 20
13.80960667249312
 10
185.1130182968449
 20
13.86936918907557
 10
185.1175058770314
 20
13.97922029044369
 10
185.1157960135992
 20
14.11029975405677
 10
185.1163550915986
 20
14.26198011444326
 10
185.1161928768694
 20
14.42211074929951
 10
185.1162269924675
 20
14.58236865674564
 10
185.1162514960127
 20
14.73370247520437
 10
185.1161453543224
 20
14.86582156338598
 10
185.1164299141931
 20
14.9729480253319
 10
185.1158675547567
 20
15.0380861957947
 10
185.118076508369
 20
15.16618957858672
 10
185.0319435998602
 20
14.79097610391574
 10
184.95551408185
 20
14.63918193123395
 10
184.8660040767833
 20
14.47766206446305
 10
184.7640413217327
 20
14.20471848820171
 10
184.7187976491038
 20
14.3671734659651
 10
184.6102355941671
 20
14.45605432058121
 10
184.7995791751752
 20
14.6054979496141
 10
184.85653405457
 20
14.79749136974929
 10
184.9717520993353
 20
15.02899622906757
 10
184.9940151630132
 20
15.21797259759062
 10
185.177190515214
 20
15.49454089325926
 10
185.0538033597552
 20
15.48698978832091
 10
184.9925684166834
 20
15.48856772366116
 10
184.9081999617064
 20
15.48882592573669
 10
184.8204235085966
 20
15.48544845751203
 10
184.7656768696122
 20
15.49394814982016
 10
184.7104703026025
 20
15.48048561049785
 10
184.7222823035536
 20
15.52931442126761
 10
184.7142496151794
 20
15.57269004896707
 10
184.7228186104679
 20
15.61509438309573
 10
184.7102943409156
 20
15.66267796552118
 10
184.7555101538736
 20
15.6526721299511
 10
184.8014815562723
 20
15.65894105174061
 10
184.877722204771
 20
15.65593561405872
 10
184.9561296131993
 20
15.65770448278541
 10
185.0323992648932
 20
15.6546479398166
 10
185.0783009459475
 20
15.66103971376177
 10
185.12317339654
 20
15.65093822978897
 10
185.1105552275633
 20
15.70157201581898
 10
185.1191936582707
 20
15.75501261882069
 10
185.1152361595442
 20
15.84863255131679
 10
185.1162325068335
 20
15.95112606688921
 10
185.1171927413073
 20
16.0535327024816
 10
185.1133211458005
 20
16.14735929609317
 10
185.1217789814364
 20
16.20036542840349
 10
185.1093075932835
 20
16.25211435651182
 10
185.154210638985
 20
16.23850747226754
 10
185.1955083836771
 20
16.24100480320582
 10
185.259534428105
 20
16.23648060574486
 10
185.2986111148786
 20
16.22781003043308
 10
185.3476543498742
 20
16.23515102070689
 10
185.3225080030591
 20
16.19602896051761
 10
185.2815901333724
 20
16.20563842455808
 10
185.2910109616605
 20
16.1554014816978
 10
185.2855647318747
 20
16.10385945639493
 10
185.2881699601805
 20
16.01959707584522
 10
185.2870102202156
 20
15.9255913558341
 10
185.2883591064233
 20
15.83196865395527
 10
185.2849970101508
 20
15.74679517552223
 10
185.292095991777
 20
15.69716856072045
 10
185.2812569154547
 20
15.64993694969989
 10
185.3304010225246
 20
15.66201674936851
 10
185.3794877630147
 20
15.65447393363011
 10
185.4573714280642
 20
15.65686070361433
 10
185.5350365172896
 20
15.65899381905415
 10
185.5845393931354
 20
15.65193391922454
 10
185.6344594750639
 20
15.66360151936214
 10
185.6223198516881
 20
15.61540235371392
 10
185.6305838229143
 20
15.57249219801234
 10
185.6223198650783
 20
15.52958201851382
 10
185.6344594549854
 20
15.48138288754862
 10
185.5845395158746
 20
15.49305034471507
 10
185.5350350651203
 20
15.48599202435043
 10
185.4573784382974
 20
15.488116652286
 10
185.379464386576
 20
15.49053389365757
 10
185.3304500352717
 20
15.48291848194483
 10
185.2813246108944
 20
15.49507952557588
 10
185.2915559988572
 20
15.45073013424155
 10
185.2856677678054
 20
15.40925436202911
 10
185.287878830557
 20
15.34915394315303
 10
185.2874109346147
 20
15.3022578276289
 10
185.2874386992914
 20
15.27650146418198
 10
185.2874469028654
 20
15.26889163187721
 97
        1
330
B2
 75
     1
 76
     2
 52
45.0
 41
0.1
 77
     0
 78
     1
 53
45.0
 43
0.0
 44
0.0
 45
-0.282842712474619
 46
0.0
 79
     0
 98
        1
 10
0.0
 20
0.0
  0
HATCH
  5
D0
330
48
100
AcDbEntity
  8
1
  6
Continuous
 62
     2
100
AcDbHatch
 10
0.0
 20
0.0
 30
0.0
210
0.0
220
0.0
230
1.0
  2
CUSTOM10
 70
     0
 71
     1
 91
        1
 92
        1
 93
        1
 72
     4
 94
        3
 73
     0
 74
     0
 95
       47
 96
       43
 40
0.0
 40
0.0
 40
0.0
 40
0.0
 40
0.2207912809957319
 40
0.4459404186303255
 40
0.4902387190459496
 40
0.5327473892722486
 40
0.5742260451226048
 40
0.6155432630561901
 40
0.6568164066316527
 40
0.6982511618780839
 40
0.7407663929317385
 40
0.7851366743175472
 40
1.010288833836357
 40
1.231080507002218
 40
1.451765243652473
 40
1.676638205891681
 40
1.720461045359661
 40
1.830018144043545
 40
1.972442372353203
 40
2.114866600677597
 40
2.224423699395242
 40
2.268246538883492
 40
2.493628801207272
 40
2.715602830286642
 40
2.934211330706418
 40
3.149502369855458
 40
3.231387784851077
 40
3.318231873854056
 40
3.405143198198072
 40
3.486970301720567
 40
3.702258172494056
 40
3.920866283534309
 40
4.142839325932071
 40
4.368221903865481
 40
4.412044743359972
 40
4.521601842096003
 40
4.66402607045251
 40
4.806450298809247
 40
4.91600739754696
 40
4.959830237043291
 40
5.184703515847246
 40
5.405387250767649
 40
5.405387250767649
 40
5.405387250767649
 40
5.405387250767649
 10
182.6507427258645
 20
15.73406440953872
 10
182.6568139420002
 20
15.79758482501211
 10
182.6690762107243
 20
15.92587938689627
 10
182.5604706879412
 20
16.2016622017408
 10
182.6761985896603
 20
16.17188133432054
 10
182.7171842509015
 20
16.16765556262815
 10
182.7591205797518
 20
16.1631044638961
 10
182.8004196625711
 20
16.16201982929491
 10
182.8417032115556
 20
16.1631033819523
 10
182.8836148270648
 20
16.16766112711339
 10
182.9245983549019
 20
16.17187430209729
 10
183.0404922843489
 20
16.20177611317538
 10
182.9295652727456
 20
15.92339806609889
 10
182.9574856365267
 20
15.74283140824952
 10
182.9404267346971
 20
15.50961042346473
 10
182.9414637282102
 20
15.34906622543147
 10
182.9414099399405
 20
15.22284817558726
 10
182.9414277372481
 20
15.12428963336243
 10
182.9414188581079
 20
14.99280702442962
 10
182.9414263928034
 20
14.86132844968647
 10
182.9414129405128
 20
14.76276222694085
 10
182.9414531717492
 20
14.63639735624148
 10
182.9406746403818
 20
14.47482068822868
 10
182.9565958319266
 20
14.24361821892914
 10
182.9333468885407
 20
14.05874351972002
 10
183.0360183444366
 20
13.78935602770048
 10
182.8820238362836
 20
13.82660112685814
 10
182.8004129802833
 20
13.82137994680534
 10
182.7188192292583
 20
13.82660620378348
 10
182.5648513666843
 20
13.78937069885378
 10
182.6674183421917
 20
14.0587512986288
 10
182.6442045316088
 20
14.24361585325415
 10
182.6600444655138
 20
14.47482218565637
 10
182.6593296313427
 20
14.63639712308499
 10
182.6593664569907
 20
14.76276231210516
 10
182.659354900027
 20
14.86132756635979
 10
182.6593575019213
 20
14.99281127417218
 10
182.6593648531779
 20
15.12427548031201
 10
182.6593442541351
 20
15.2228778627533
 10
182.6594082192028
 20
15.34896149354429
 10
182.6581733947591
 20
15.51210091383773
 10
182.6532040396744
 20
15.66054183777548
 10
182.6507427258645
 20
15.73406440953872
 97
        1
330
B3
 75
     1
 76
     2
 52
45.0
 41
0.1
 77
     0
 78
     1
 53
45.0
 43
0.0
 44
0.0
 45
-0.282842712474619
 46
0.0
 79
     0
 98
        1
 10
0.0
 20
0.0
  0
HATCH
  5
D1
330
48
100
AcDbEntity
  8
1
  6
Continuous
 62
     2
100
AcDbHatch
 10
0.0
 20
0.0
 30
0.0
210
0.0
220
0.0
230
1.0
  2
CUSTOM11
 70
     0
 71
     1
 91
        1
 92
        1
 93
        1
 72
     4
 94
        3
 73
     0
 74
     0
 95
      110
 96
      106
 40
0.0
 40
0.0
 40
0.0
 40
0.0
 40
0.2203406257277554
 40
0.4407808782838146
 40
0.5952494494615984
 40
0.7488431659393147
 40
0.9023581831309118
 40
1.05680196867041
 40
1.210736449099967
 40
1.363041386539787
 40
1.51531572968316
 40
1.669377239148168
 40
1.721611652756691
 40
1.773199502943095
 40
1.824933793210142
 40
1.877110426488123
 40
1.982682281206915
 40
2.078781667087671
 40
2.172809640822501
 40
2.271937807379157
 40
2.378349933379492
 40
2.494131557736736
 40
2.62668168394387
 40
2.783145050796298
 40
2.890701232941177
 40
2.993130312455071
 40
3.099869730692025
 40
3.220237816691516
 40
3.352695482737864
 40
3.481732806390097
 40
3.593499473690599
 40
3.674323013332143
 40
3.817951711953036
 40
3.946167120794004
 40
4.06140505345369
 40
4.166480796003331
 40
4.26247877505937
 40
4.35073667355133
 40
4.433071991254269
 40
4.511216293814812
 40
4.56426245411813
 40
4.618474415571674
 40
4.670128488754348
 40
4.722296879126527
 40
4.819540945314394
 40
4.931194984128252
 40
5.049996040257835
 40
5.168643755415325
 40
5.283970811762623
 40
5.392260784910476
 40
5.486512254876523
 40
5.559178233949865
 40
5.591425852853582
 40
5.626215969637888
 40
5.667155838674486
 40
5.717449290214282
 40
5.738402360944897
 40
5.784499116553861
 40
5.830595872164833
 40
5.851548942897689
 40
5.873019280661802
 40
5.924217778408344
 40
5.985325662817719
 40
6.036524160567732
 40
6.057994498334259
 40
6.236847789607517
 40
6.381409928945704
 40
6.493190424178725
 40
6.574067534230583
 40
6.691018086205677
 40
6.814881554220594
 40
6.944307823240632
 40
7.071266716066171
 40
7.193488604462017
 40
7.309042773128244
 40
7.414007203170926
 40
7.505140441886626
 40
7.531150360599758
 40
7.559221645322354
 40
7.587202218921009
 40
7.612569159499224
 40
7.662550809481092
 40
7.702878875764281
 40
7.857328205231096
 40
8.010799568088743
 40
8.165256399657693
 40
8.322232698713918
 40
8.47956485501669
 40
8.635216230290837
 40
8.790882550925812
 40
8.948305154947406
 40
9.16827183903314
 40
9.387358980987432
 40
9.608047961033655
 40
9.832914234792831
 40
9.858338694963168
 40
9.92536681723018
 40
10.02013071422777
 40
10.12876249859016
 40
10.23739428295268
 40
10.3321581799521
 40
10.39918630222414
 40
10.42461076239803
 40
10.64992019336961
 40
10.87188524531208
 40
10.87188524531208
 40
10.87188524531208
 40
10.87188524531208
 10
179.9057788376619
 20
15.73923260398192
 10
179.9092864933542
 20
15.80616462073806
 10
179.9163033987663
 20
15.9400589191586
 10
179.8198027599072
 20
16.22548554971475
 10
180.0510134726109
 20
16.16284386190286
 10
180.1919290057157
 20
16.17001554055986
 10
180.3490417757588
 20
16.16235883078248
 10
180.5025913427287
 20
16.16252752283046
 10
180.6545104935081
 20
16.16182040535436
 10
180.8142214813231
 20
16.17210158351634
 10
180.9408972601118
 20
16.15496511080751
 10
181.1370821122081
 20
16.22727260107149
 10
181.1034395279079
 20
16.12640699080116
 10
181.1052011317183
 20
16.07619253947668
 10
181.1027342073459
 20
16.02712335586464
 10
181.1347076966011
 20
15.94063490846995
 10
181.0010399903257
 20
15.98997438608332
 10
180.9172208688057
 20
15.98430634314176
 10
180.8173861139324
 20
15.99465516706292
 10
180.7186576720146
 20
16.00086450411089
 10
180.612153277111
 20
16.00697763816778
 10
180.491051169806
 20
16.01588883484583
 10
180.3703381502453
 20
16.0052160591238
 10
180.1812553843436
 20
16.06468503080367
 10
180.2129028505312
 20
15.90558320077538
 10
180.1995563316835
 20
15.80839128339903
 10
180.197495842645
 20
15.69634065110103
 10
180.195818804467
 20
15.57699685629349
 10
180.1973336794233
 20
15.45032592155108
 10
180.1956582478669
 20
15.32301588016114
 10
180.2058844271658
 20
15.22451566404462
 10
180.1779006596583
 20
15.08388702625629
 10
180.3508029999305
 20
15.13989551134091
 10
180.4645020202772
 20
15.12719951478491
 10
180.5840151672239
 20
15.13448377051251
 10
180.6888491425072
 20
15.1387801705675
 10
180.7843084898611
 20
15.14330568258976
 10
180.8763823507032
 20
15.15149201146208
 10
180.947655178244
 20
15.14643850638109
 10
181.0544931705685
 20
15.18536425031669
 10
181.0226603598035
 20
15.10517122005879
 10
181.026616450393
 20
15.05562936846033
 10
181.0234502392013
 20
15.0055747803982
 10
181.0550791490584
 20
14.92128847612021
 10
180.9210133677691
 20
14.97425365495152
 10
180.82923227932
 20
14.96540080890444
 10
180.7079729189604
 20
14.97570049965147
 10
180.5914113119771
 20
14.97748911767503
 10
180.478337574588
 20
14.97787017109698
 10
180.3679246308471
 20
14.9841544947217
 10
180.2898124067841
 20
14.97189133255367
 10
180.1913625833645
 20
15.00453887616126
 10
180.2012355173561
 20
14.94769748054207
 10
180.1973923244402
 20
14.91392130557984
 10
180.1966789884269
 20
14.87119604709413
 10
180.1963369642974
 20
14.83401607262153
 10
180.1963834255346
 20
14.79487237370772
 10
180.1963649429927
 20
14.75716849497687
 10
180.1963703431806
 20
14.71944955232403
 10
180.19636972142
 20
14.68994324745151
 10
180.1963698151545
 20
14.65873577699302
 10
180.1963704287921
 20
14.61414424908086
 10
180.1963671499337
 20
14.55963956508852
 10
180.196375962348
 20
14.51505540201449
 10
180.1963359653417
 20
14.43117808585741
 10
180.1976024270255
 20
14.31737520677679
 10
180.1950274117842
 20
14.16830395933709
 10
180.206500938172
 20
14.06597203813904
 10
180.1823506222264
 20
13.9333890388583
 10
180.3332993946476
 20
13.97895732272016
 10
180.4428436671556
 20
13.96427012162344
 10
180.5733970473921
 20
13.96920435125061
 10
180.6990312209514
 20
13.9725770532336
 10
180.8188730625601
 20
13.97711497498773
 10
180.9391362611427
 20
13.99048536182005
 10
181.0222761663515
 20
13.98068712782591
 10
181.1456080421074
 20
14.04126214623318
 10
181.1244269203957
 20
13.98532460134019
 10
181.1235950270116
 20
13.95939249372347
 10
181.1218963707559
 20
13.93197256190939
 10
181.1217974888829
 20
13.89738195206385
 10
181.1203659301329
 20
13.86050408220766
 10
181.153280419219
 20
13.76846841021802
 10
180.9551306988107
 20
13.84132015974828
 10
180.8300548294891
 20
13.81825726508605
 10
180.6673071295156
 20
13.82454021985784
 10
180.5129366450001
 20
13.82260943909925
 10
180.3566670436945
 20
13.82393762599267
 10
180.1970544465282
 20
13.82059872487861
 10
180.0540326342237
 20
13.83265795728238
 10
179.8197144881628
 20
13.76952001976911
 10
179.9173810751197
 20
14.05620527466317
 10
179.900686878006
 20
14.2498830814266
 10
179.9146296709684
 20
14.47848242880295
 10
179.9142987846632
 20
14.63384593955045
 10
179.9143078119264
 20
14.73966336444123
 10
179.9143055876316
 20
14.80205784124212
 10
179.9143065551888
 20
14.89220425248325
 10
179.9143065473261
 20
14.99621167157437
 10
179.9143053861102
 20
15.10022131375296
 10
179.9143090971503
 20
15.19036243688768
 10
179.9143011051051
 20
15.25276803097216
 10
179.9143334275018
 20
15.3586883596112
 10
179.9131440788319
 20
15.5162671654474
 10
179.9082216489257
 20
15.66528219822067
 10
179.9057788376619
 20
15.73923260398192
 97
        1
330
B4
 75
     1
 76
     2
 52
45.0
 41
0.1
 77
     0
 78
     1
 53
45.0
 43
0.0
 44
0.0
 45
-0.282842712474619
 46
0.0
 79
     0
 98
        1
 10
0.0
 20
0.0
  0
HATCH
  5
D2
330
48
100
AcDbEntity
  8
1
  6
Continuous
 62
     2
100
AcDbHatch
 10
0.0
 20
0.0
 30
0.0
210
0.0
220
0.0
230
1.0
  2
CUSTOM12
 70
     0
 71
     1
 91
        1
 92
        1
 93
        1
 72
     4
 94
        3
 73
     0
 74
     0
 95
       95
 96
       91
 40
0.0
 40
0.0
 40
0.0
 40
0.0
 40
0.6550406656911263
 40
1.30808728903191
 40
1.420803739835802
 40
1.566130759770793
 40
1.757067341888493
 40
2.006513545026523
 40
2.087328263121603
 40
2.185328872295634
 40
2.294612454748373
 40
2.408936380534798
 40
2.526802767798545
 40
2.646360524615586
 40
2.762535723971571
 40
2.870057342870143
 40
2.966883448431673
 40
3.050803243518303
 40
3.115818222436606
 40
3.1560300571503
 40
3.213914225080204
 40
3.276689026450605
 40
3.342960320981383
 40
3.404230667150633
 40
3.453822809493499
 40
3.532499827188508
 40
3.634775188507294
 40
3.754909333008284
 40
3.88973676166076
 40
4.035769602175307
 40
4.187256681197762
 40
4.338733685676052
 40
4.48847873467625
 40
4.634708317831709
 40
4.771493189921373
 40
4.892686571561343
 40
5.199775528944567
 40
5.46035356692973
 40
5.667603142345639
 40
5.814722905404616
 40
5.828990806219914
 40
5.855488336304611
 40
5.869756237118943
 40
6.189796507762953
 40
6.531890469873142
 40
6.883053637017146
 40
7.230512024911577
 40
7.566966656764725
 40
7.885203559707577
 40
8.172887439719348
 40
8.418011594062873
 40
8.443926721190797
 40
8.510760470613285
 40
8.602145393795796
 40
8.70171404164724
 40
8.793098965075473
 40
8.859932715058045
 40
8.885847842603695
 40
9.242301256612883
 40
9.589275455016804
 40
9.921808543164246
 40
10.23479624298476
 40
10.29968150889181
 40
10.35323493887763
 40
10.40154625355148
 40
10.46482922477831
 40
10.55973900668415
 40
10.69239545985629
 40
10.8492035347568
 40
11.01626328594787
 40
11.18672024367453
 40
11.35372582577219
 40
11.5025744229244
 40
11.618664950233
 40
11.71329869152886
 40
11.82511050573923
 40
11.94464880845726
 40
12.06929242642514
 40
12.19707290435186
 40
12.32562632860535
 40
12.45034565331289
 40
12.56646595170334
 40
12.67099007414643
 40
12.76077625936792
 40
12.82703233506705
 40
12.87429132786002
 40
12.89831990323341
 40
12.9223484786003
 40
13.53984767410331
 40
14.18294284359373
 40
14.18294284359373
 40
14.18294284359373
 40
14.18294284359373
 10
177.3067935648021
 20
14.70898038201722
 10
177.175201975855
 20
14.8226505860323
 10
176.9124193802728
 20
15.04964496316158
 10
176.3997393441024
 20
15.8921446295629
 10
176.4106654595362
 20
15.53423377577021
 10
176.4041226527991
 20
15.39267392272133
 10
176.4028026631772
 20
15.19421305299278
 10
176.4018117602538
 20
15.02150296045978
 10
176.4024101751974
 20
14.87865373257576
 10
176.4038994301882
 20
14.78265005413356
 10
176.4055683588473
 20
14.67545503263142
 10
176.4071934954617
 20
14.56164211517583
 10
176.4092429501685
 20
14.44441572604591
 10
176.4123165501928
 20
14.32656411232972
 10
176.4156339697043
 20
14.21228087320623
 10
176.4193605340279
 20
14.10521401867277
 10
176.4217338161424
 20
14.01007408766922
 10
176.4278718888358
 20
13.92558557205695
 10
176.4239784495946
 20
13.8692308729814
 10
176.4455230443077
 20
13.7982502247235
 10
176.3680940058618
 20
13.8290267760448
 10
176.3116353240191
 20
13.82011242517613
 10
176.2540495896807
 20
13.82896218398272
 10
176.1690163478472
 20
13.79738225225939
 10
176.2009714146382
 20
13.88095155992187
 10
176.1990705282539
 20
13.94882608968308
 10
176.21079600473
 20
14.05233256764417
 10
176.2164241053
 20
14.17002125616695
 10
176.2237902178941
 20
14.30388609164421
 10
176.2320759701611
 20
14.44764152872631
 10
176.2398851897426
 20
14.59714022843443
 10
176.2457571222659
 20
14.74792549402078
 10
176.2503667817969
 20
14.89699943878437
 10
176.2542632117542
 20
15.04122913163022
 10
176.2570715126564
 20
15.17583905213017
 10
176.2576698755022
 20
15.36469614347354
 10
176.261602386715
 20
15.58975494313153
 10
176.2442175378497
 20
15.86367091125706
 10
176.2850417342584
 20
16.02787112098595
 10
176.1995153256003
 20
16.22749661465097
 10
176.2660558907688
 20
16.22385458403978
 10
176.283872427323
 20
16.22413447160854
 10
176.4056801797504
 20
16.22632927398612
 10
176.5080770335461
 20
15.94675118721514
 10
176.7580021509357
 20
15.74563008536
 10
176.9870035331111
 20
15.47792614987918
 10
177.2245151213108
 20
15.22646413862377
 10
177.4486090740772
 20
14.98969974061356
 10
177.6750716283009
 20
14.73218692583073
 10
177.8325687886514
 20
14.61649335056918
 10
178.0472129612674
 20
14.27997152538798
 10
178.0422645974618
 20
14.40464754091605
 10
178.0433931602545
 20
14.46327691935739
 10
178.0428877841517
 20
14.55043662371979
 10
178.0430475158113
 20
14.64416143182875
 10
178.0430054891318
 20
14.73018971297038
 10
178.0430202040373
 20
14.79153891945498
 10
178.0429706255984
 20
14.94135231520996
 10
178.045881152281
 20
15.17989612510104
 10
178.0259521041162
 20
15.544865098687
 10
178.0750433936248
 20
15.80799631993411
 10
177.9177951509181
 20
16.21928904947751
 10
178.0762112872422
 20
16.16398282551753
 10
178.1311680478629
 20
16.1619968650018
 10
178.182788776674
 20
16.16264778248257
 10
178.2713198965367
 20
16.20369527738249
 10
178.2204898303169
 20
16.05696326622987
 10
178.2313389930283
 20
15.95019971954432
 10
178.2166036994848
 20
15.79085705414112
 10
178.2099976446204
 20
15.62853061652875
 10
178.2014961399914
 20
15.45992521892395
 10
178.1943227202198
 20
15.2981481470354
 10
178.1889063215389
 20
15.15422331457932
 10
178.1871713967648
 20
15.03437493466923
 10
178.1875440672318
 20
14.92686101590512
 10
178.1873656126263
 20
14.81820024645583
 10
178.187701086314
 20
14.69953570165529
 10
178.1890040622185
 20
14.57555163512741
 10
178.1908887351575
 20
14.44858294171106
 10
178.192500445485
 20
14.32153861551032
 10
178.194140313743
 20
14.19854884492179
 10
178.1962570745752
 20
14.0830093138376
 10
178.1963848422364
 20
13.98090903955838
 10
178.2006514396554
 20
13.89009848838156
 10
178.1908440085289
 20
13.83213621208786
 10
178.2118474771689
 20
13.76517130132028
 10
178.1725639739897
 20
13.77291153966688
 10
177.9595307117744
 20
13.75755254145191
 10
177.7636297943187
 20
14.31403058094472
 10
177.4611197631544
 20
14.57556035348509
 10
177.3067935648021
 20
14.70898038201722
 97
        1
330
B5
 75
     1
 76
     2
 52
45.0
 41
0.1
 77
     0
 78
     1
 53
45.0
 43
0.0
 44
0.0
 45
-0.282842712474619
 46
0.0
 79
     0
 98
        1
 10
0.0
 20
0.0
  0
HATCH
  5
D3
330
48
100
AcDbEntity
  8
1
  6
Continuous
 62
     2
100
AcDbHatch
 10
0.0
 20
0.0
 30
0.0
210
0.0
220
0.0
230
1.0
  2
CUSTOM13
 70
     0
 71
     1
 91
        2
 92
        1
 93
        1
 72
     4
 94
        3
 73
     0
 74
     0
 95
       57
 96
       53
 40
0.0
 40
0.0
 40
0.0
 40
0.0
 40
0.0471632082808976
 40
0.0914861054632185
 40
0.1357762519702421
 40
0.1826527001610715
 40
0.229520328857234
 40
0.2737751972219657
 40
0.3181310461542825
 40
0.3652607198398574
 40
0.4571007286315015
 40
0.5671851029165922
 40
0.6894623283868941
 40
0.8181758272546799
 40
0.9510087229274525
 40
1.085852229674074
 40
1.218126164475344
 40
1.343545131142477
 40
1.454537202956892
 40
1.567187607530901
 40
1.680710966642492
 40
1.794226869736799
 40
1.900009184247655
 40
2.004085860447878
 40
2.108162674451822
 40
2.214000150155394
 40
2.496038577352228
 40
2.762350745479397
 40
2.997275353279539
 40
3.185110082137909
 40
3.24640789006411
 40
3.312607550212869
 40
3.378877742711772
 40
3.440140399651628
 40
4.100501696006701
 40
4.754913085563757
 40
5.411331693424149
 40
6.077890432568937
 40
6.110575292671216
 40
6.143260152775996
 40
6.367989363395392
 40
6.610525374951747
 40
6.863389136467543
 40
7.119380025547858
 40
7.376036605091368
 40
7.631164770966516
 40
7.876722425456649
 40
8.10495373585622
 40
8.312916685924558
 40
8.49773029494159
 40
8.651018984314103
 40
8.764738853624864
 40
8.764738853624864
 40
8.764738853624864
 40
8.764738853624864
 10
174.7922649500513
 20
13.81626739612922
 10
174.7766616726931
 20
13.81826231079073
 10
174.7463947960303
 20
13.82213201360296
 10
174.7010994202252
 20
13.82341984967267
 10
174.6559553129349
 20
13.82308683554049
 10
174.60990171234
 20
13.82314658674223
 10
174.5640496172097
 20
13.8232581365
 10
174.5183711648166
 20
13.8227783345659
 10
174.4750811541608
 20
13.82461109618719
 10
174.4039947951514
 20
13.80049556814649
 10
174.4057477261441
 20
13.92184693977253
 10
174.358619637057
 20
14.00726239751233
 10
174.3191478251762
 20
14.12486929345138
 10
174.2706635532645
 20
14.24232752540439
 10
174.2201017402522
 20
14.3640593576151
 10
174.1718634610477
 20
14.49075967862462
 10
174.1135232947594
 20
14.5993368778495
 10
174.0980892667261
 20
14.75620657134416
 10
173.9566586330636
 20
14.7237344654832
 10
173.8508397414903
 20
14.73512888682181
 10
173.7358569725222
 20
14.73392591514615
 10
173.6253142252142
 20
14.73506945347408
 10
173.5176583522783
 20
14.73418350037526
 10
173.4121322529243
 20
14.7341660239052
 10
173.3109192682013
 20
14.72714032472413
 10
173.1266804827753
 20
14.75135859859877
 10
173.1157393685412
 20
14.44741691121883
 10
173.008769163475
 20
14.22353177253399
 10
172.9098148604347
 20
14.03895314292497
 10
172.9225090524007
 20
13.79530204804199
 10
172.8050091716397
 20
13.82508046753195
 10
172.742205586831
 20
13.82258089509603
 10
172.67858720934
 20
13.82344075102802
 10
172.3946014194075
 20
13.78098039941933
 10
173.0251638499381
 20
14.50081952444788
 10
173.1087645289072
 20
15.01276539435722
 10
173.4929252789339
 20
15.53353743550046
 10
173.4777208288565
 20
16.23519626253211
 10
173.7239265722697
 20
16.22345633081257
 10
173.825634615756
 20
16.23225004452772
 10
173.8249752035818
 20
15.98059650730348
 10
173.9428317155828
 20
15.79818020733959
 10
174.0315515260485
 20
15.55563740662866
 10
174.1322292485259
 20
15.32340030530124
 10
174.2311142712243
 20
15.08674644566912
 10
174.3299676990669
 20
14.85461739170093
 10
174.4256166390925
 20
14.63122222788787
 10
174.5159904573273
 20
14.42272549049321
 10
174.5989944568189
 20
14.23308448529317
 10
174.6726088582799
 20
14.06663106068094
 10
174.7342815895546
 20
13.92917699626096
 10
174.7749458885604
 20
13.8499923943003
 10
174.7922649500513
 20
13.81626739612922
 97
        1
330
B7
 92
       16
 93
        1
 72
     4
 94
        3
 73
     0
 74
     0
 95
       25
 96
       21
 40
0.0
 40
0.0
 40
0.0
 40
0.0
 40
0.0911479969065391
 40
0.1858117896204655
 40
0.2804128399734478
 40
0.3715889190714498
 40
0.4679080494218695
 40
0.5642683809229215
 40
0.6605683222644977
 40
0.7569653015810237
 40
0.8561348172522688
 40
1.092615965104281
 40
1.374867658141857
 40
1.611348812011575
 40
1.710518328425219
 40
1.809403163726533
 40
2.04520546329403
 40
2.326646917622083
 40
2.562449217190538
 40
2.661334043833854
 40
2.661334043833854
 40
2.661334043833854
 40
2.661334043833854
 10
173.2683700567199
 20
14.88614538197291
 10
173.2987525917922
 20
14.88598079714552
 10
173.3606895889112
 20
14.88564528689918
 10
173.4541356960329
 20
14.88269055452002
 10
173.5475095236358
 20
14.87977752877154
 10
173.6417760753476
 20
14.87894201643418
 10
173.7354964790967
 20
14.87996644658049
 10
173.8352040303205
 20
14.87916977470971
 10
173.9188949546312
 20
14.8892141023522
 10
174.0637996315045
 20
14.86234617674163
 10
173.93961324448
 20
15.03665530280047
 10
173.8965867286282
 20
15.1965171100609
 10
173.7808922142209
 20
15.45518458550213
 10
173.7017565431257
 20
15.59231052861854
 10
173.6431576621816
 20
15.80937033134073
 10
173.5864803939438
 20
15.59266134213424
 10
173.5052809900477
 20
15.45327012438233
 10
173.4063701281488
 20
15.20406969370192
 10
173.325362509426
 20
15.01925830226072
 10
173.2813683325838
 20
14.91650446856115
 10
173.2683700567199
 20
14.88614538197291
 97
        1
330
B6
 75
     1
 76
     2
 52
45.0
 41
0.1
 77
     0
 78
     1
 53
45.0
 43
0.0
 44
0.0
 45
-0.282842712474619
 46
0.0
 79
     0
 98
        1
 10
0.0
 20
0.0
  0
HATCH
  5
D4
330
48
100
AcDbEntity
  8
1
  6
Continuous
 62
     2
100
AcDbHatch
 10
0.0
 20
0.0
 30
0.0
210
0.0
220
0.0
230
1.0
  2
CUSTOM14
 70
     0
 71
     1
 91
        1
 92
        1
 93
        1
 72
     4
 94
        3
 73
     0
 74
     0
 95
       99
 96
       95
 40
0.0
 40
0.0
 40
0.0
 40
0.0
 40
0.0796417172272629
 40
0.1621768542355775
 40
0.2486489160957449
 40
0.3404969668524276
 40
0.4381912511164974
 40
0.54344636602447
 40
0.6518115192846999
 40
0.7530190937886639
 40
0.849219691972497
 40
0.9419290312998012
 40
1.034249663570018
 40
1.129078600620168
 40
1.22669702757322
 40
1.327220425421708
 40
1.470572134937989
 40
1.595489863371148
 40
1.719934125348337
 40
1.850576620127264
 40
1.989059629987286
 40
2.134139054226905
 40
2.280698007207158
 40
2.424529739039452
 40
2.56592957698581
 40
2.708239260773469
 40
2.861717887443611
 40
3.045168540347338
 40
3.183798301138586
 40
3.314813961455464
 40
3.442083470447302
 40
3.569912708373025
 40
3.702177512509373
 40
3.842307559659465
 40
3.992872223245937
 40
4.15675066221827
 40
4.310981861107491
 40
4.44585990932255
 40
4.572393936131554
 40
4.70165671978189
 40
4.768279086008429
 40
4.83596069789832
 40
4.912788918729261
 40
5.006285208481452
 40
5.0269094787515
 40
5.047533749021007
 40
5.101808031471069
 40
5.162325165538384
 40
5.226919745995619
 40
5.294231806596567
 40
5.364544852554706
 40
5.438319055467759
 40
5.517877651324065
 40
5.607647714861405
 40
5.700449642544226
 40
5.788251142363908
 40
5.872714706039608
 40
5.955167292575103
 40
6.037192395190187
 40
6.120669181468889
 40
6.206848616686202
 40
6.296680855416598
 40
6.442558392872444
 40
6.568190371608185
 40
6.692904567360217
 40
6.824220446556961
 40
6.963121850329189
 40
7.107843738850972
 40
7.253431663907094
 40
7.395187468036495
 40
7.53314075323757
 40
7.670550457175048
 40
7.816236511769058
 40
7.987691657359
 40
8.142277421969075
 40
8.293662615414888
 40
8.442962460879087
 40
8.591598316185104
 40
8.74367899236162
 40
8.903725323698993
 40
9.076307008890337
 40
9.265578604680393
 40
9.459203795360569
 40
9.617619810273352
 40
9.75360967136168
 40
9.874873300003845
 40
9.954520184977621
 40
10.02416413719228
 40
10.09769764405427
 40
10.18909955924957
 40
10.20974586420118
 40
10.23039218263364
 40
10.30057101881254
 40
10.37632012987534
 40
10.37632012987534
 40
10.37632012987534
 40
10.37632012987534
 10
170.1465954835851
 20
14.13795663215991
 10
170.1632217851219
 20
14.11720608845308
 10
170.1970784206577
 20
14.07495111711896
 10
170.2599822541035
 20
14.02029811392074
 10
170.3332500940393
 20
13.9729902512105
 10
170.4175969238636
 20
13.9352723143794
 10
170.513224061546
 20
13.91040619731949
 10
170.6171853775346
 20
13.90309559345939
 10
170.7224020220405
 20
13.91142322794049
 10
170.8206626371334
 20
13.94149179651529
 10
170.9058986427547
 20
13.98848822971877
 10
170.9779220206103
 20
14.04952991250859
 10
171.0350917709096
 20
14.12412969578583
 10
171.0767868747439
 20
14.21002464660175
 10
171.1026952846293
 20
14.3048585043221
 10
171.1118037332652
 20
14.41854979038367
 10
171.0986864796488
 20
14.54332587770778
 10
171.0325330334413
 20
14.66014719171886
 10
170.9369370919569
 20
14.7451253957737
 10
170.8249681022369
 20
14.8141668445916
 10
170.699365958327
 20
14.87204142045891
 10
170.5656691620856
 20
14.92373723284342
 10
170.431312281883
 20
14.97899092397181
 10
170.3051983986878
 20
15.04939770641649
 10
170.1926579987534
 20
15.13785540731247
 10
170.0969963064458
 20
15.24981067868467
 10
170.0334157151825
 20
15.39949910101379
 10
170.0200706505015
 20
15.55932794385139
 10
170.0320510987449
 20
15.71048405306844
 10
170.0712298928841
 20
15.8380924459154
 10
170.135498775091
 20
15.95080874030847
 10
170.2238204999741
 20
16.04648609268681
 10
170.3338091207627
 20
16.12354214985753
 10
170.4632284401265
 20
16.1815139693627
 10
170.6111838967793
 20
16.21739177588822
 10
170.7682069455487
 20
16.22746719050563
 10
170.917494046643
 20
16.21863637762593
 10
171.059625361417
 20
16.19074899340343
 10
171.1595922609625
 20
16.13413314701138
 10
171.3125074736184
 20
16.0867460210551
 10
171.2455131717168
 20
16.00197553001186
 10
171.2296479120268
 20
15.93438901873487
 10
171.1978750531297
 20
15.86926092793194
 10
171.2150202209571
 20
15.76723453256958
 10
171.1666427208232
 20
15.77493211681906
 10
171.1315789440766
 20
15.76806771724813
 10
171.1296697985718
 20
15.83263831158197
 10
171.0985692931988
 20
15.87825639621394
 10
171.0664551628457
 20
15.93561036628459
 10
171.0208038475168
 20
15.98540462692557
 10
170.9658508218386
 20
16.02994813718994
 10
170.9010841173008
 20
16.06763988836551
 10
170.8232377310597
 20
16.09283375791353
 10
170.7355160553352
 20
16.09931230998111
 10
170.6452903277806
 20
16.09235709285605
 10
170.5594594694065
 20
16.06909190460912
 10
170.4828343638596
 20
16.03131644107544
 10
170.4165265636201
 20
15.98051641089573
 10
170.3622560536964
 20
15.91731143407211
 10
170.3224925345459
 20
15.84276455710369
 10
170.2976775510588
 20
15.75917313997762
 10
170.2892124262869
 20
15.65192948382282
 10
170.3019697987104
 20
15.52965457267554
 10
170.3681548409274
 20
15.4114972429121
 10
170.4640977399833
 20
15.32606325709521
 10
170.5757914963182
 20
15.25583362306718
 10
170.7010863668702
 20
15.19659162305302
 10
170.8349823941447
 20
15.14616708086132
 10
170.9689930333149
 20
15.09322516984377
 10
171.0950885316916
 20
15.02750170625179
 10
171.2076216638417
 20
14.94480352537319
 10
171.3031370284233
 20
14.83996006310074
 10
171.3672706486963
 20
14.6993711725157
 10
171.3811103725279
 20
14.54065409451594
 10
171.3673954712229
 20
14.38153155217873
 10
171.3244739153985
 20
14.23483828819207
 10
171.2545906329066
 20
14.10119796587141
 10
171.1574592213829
 20
13.98532387699297
 10
171.0347806023658
 20
13.89089981770084
 10
170.8874408413167
 20
13.82179270651983
 10
170.7177132497125
 20
13.77953210858856
 10
170.5317404979596
 20
13.76781736230405
 10
170.3528955926183
 20
13.7780948668344
 10
170.1881733753743
 20
13.81966573769153
 10
170.0834410841057
 20
13.88797642883943
 10
169.9350960790365
 20
13.93675219032101
 10
169.9980378194729
 20
14.02976591290839
 10
170.0072274430059
 20
14.10296536248281
 10
170.0303711301232
 20
14.16936294501347
 10
170.0034588335318
 20
14.26974809527582
 10
170.0521338956338
 20
14.26234033517381
 10
170.0916530580697
 20
14.26894063620897
 10
170.0996204944701
 20
14.19078703218929
 10
170.1305436967922
 20
14.15600927375853
 10
170.1465954835851
 20
14.13795663215991
 97
        1
330
B8
 75
     1
 76
     2
 52
45.0
 41
0.1
 77
     0
 78
     1
 53
45.0
 43
0.0
 44
0.0
 45
-0.282842712474619
 46
0.0
 79
     0
 98
        1
 10
0.0
 20
0.0
  0
ENDBLK
  5
4A
330
48
100
AcDbEntity
  8
0
100
AcDbBlockEnd
  0
BLOCK
  5
4D
330
4B
100
AcDbEntity
  8
0
100
AcDbBlockBegin
  2
開示A4枠
 70
     0
 10
0.0
 20
0.0
 30
0.0
  3
開示A4枠
  1

  0
INSERT
  5
4C
330
4B
100
AcDbEntity
  8
1
100
AcDbBlockReference
  2
開示A4
 10
0.0
 20
0.0
 30
0.0
  0
ENDBLK
  5
4E
330
4B
100
AcDbEntity
  8
0
100
AcDbBlockEnd
  0
BLOCK
  5
50
330
4F
100
AcDbEntity
  8
0
100
AcDbBlockBegin
  2
35-84__1
 70
     0
 10
164.783351893095
 20
-27.51826280623658
 30
0.0
  3
35-84__1
  1

  0
LINE
  5
D5
330
4F
100
AcDbEntity
  8
1
  6
Continuous
 62
     7
100
AcDbLine
 10
140.7105071731275
 20
107.3269814497
 30
0.0
 11
140.7105071731275
 21
105.8269814497
 31
0.0
  0
LINE
  5
D6
330
4F
100
AcDbEntity
  8
1
  6
Continuous
 62
     7
100
AcDbLine
 10
140.7105071731275
 20
107.3269814497
 30
0.0
 11
142.5714925942232
 21
107.3269814497
 31
0.0
  0
LINE
  5
D7
330
4F
100
AcDbEntity
  8
1
  6
Continuous
 62
     7
100
AcDbLine
 10
140.7105071731275
 20
116.3269814497
 30
0.0
 11
140.7105071731275
 21
107.3269814497
 31
0.0
  0
LINE
  5
D8
330
4F
100
AcDbEntity
  8
1
  6
Continuous
 62
     7
100
AcDbLine
 10
140.7105071731275
 20
116.3269814497
 30
0.0
 11
142.7105071731275
 21
116.3269814497
 31
0.0
  0
LINE
  5
D9
330
4F
100
AcDbEntity
  8
1
  6
Continuous
 62
     7
100
AcDbLine
 10
154.8495217520319
 20
116.3269814497
 30
0.0
 11
158.5714925942232
 21
116.3269814497
 31
0.0
  0
LINE
  5
DA
330
4F
100
AcDbEntity
  8
1
  6
Continuous
 62
     7
100
AcDbLine
 10
154.8495217520319
 20
107.3269814497
 30
0.0
 11
158.5714925942232
 21
107.3269814497
 31
0.0
  0
LINE
  5
DB
330
4F
100
AcDbEntity
  8
1
  6
Continuous
 62
     7
100
AcDbLine
 10
172.7105071731275
 20
107.3269814497
 30
0.0
 11
172.7105071731275
 21
105.8269814497
 31
0.0
  0
LINE
  5
DC
330
4F
100
AcDbEntity
  8
1
  6
Continuous
 62
     7
100
AcDbLine
 10
170.8495217520318
 20
107.3269814497
 30
0.0
 11
172.7105071731275
 21
107.3269814497
 31
0.0
  0
LINE
  5
DD
330
4F
100
AcDbEntity
  8
1
  6
Continuous
 62
     7
100
AcDbLine
 10
172.7105071731275
 20
116.3269814497
 30
0.0
 11
172.7105071731275
 21
107.3269814497
 31
0.0
  0
LINE
  5
DE
330
4F
100
AcDbEntity
  8
1
  6
Continuous
 62
     7
100
AcDbLine
 10
170.8495217520318
 20
116.3269814497
 30
0.0
 11
172.7105071731275
 21
116.3269814497
 31
0.0
  0
LINE
  5
DF
330
4F
100
AcDbEntity
  8
1
  6
Continuous
 62
     7
100
AcDbLine
 10
170.8495217520318
 20
107.3269814497
 30
0.0
 11
170.8495217520318
 21
116.3269814497
 31
0.0
  0
LINE
  5
E0
330
4F
100
AcDbEntity
  8
1
  6
Continuous
 62
     7
100
AcDbLine
 10
158.5714925942232
 20
116.3269814497
 30
0.0
 11
158.5714925942232
 21
107.3269814497
 31
0.0
  0
LINE
  5
E1
330
4F
100
AcDbEntity
  8
1
  6
Continuous
 62
     7
100
AcDbLine
 10
154.8495217520319
 20
107.3269814497
 30
0.0
 11
154.8495217520319
 21
116.3269814497
 31
0.0
  0
LINE
  5
E2
330
4F
100
AcDbEntity
  8
1
  6
Continuous
 62
     7
100
AcDbLine
 10
142.5714925942232
 20
116.3269814497
 30
0.0
 11
142.5714925942232
 21
107.3269814497
 31
0.0
  0
LINE
  5
E3
330
4F
100
AcDbEntity
  8
1
  6
Continuous
 62
     7
100
AcDbLine
 10
140.7105071731275
 20
117.8269814497
 30
0.0
 11
140.7105071731275
 21
116.3269814497
 31
0.0
  0
LINE
  5
E4
330
4F
100
AcDbEntity
  8
1
  6
Continuous
 62
     7
100
AcDbLine
 10
172.7105071731275
 20
117.8269814497
 30
0.0
 11
172.7105071731275
 21
116.3269814497
 31
0.0
  0
LINE
  5
E5
330
4F
100
AcDbEntity
  8
1
  6
Continuous
 62
     7
100
AcDbLine
 10
172.7105071731275
 20
105.8269814497
 30
0.0
 11
140.7105071731275
 21
105.8269814497
 31
0.0
  0
LINE
  5
E6
330
4F
100
AcDbEntity
  8
1
  6
Continuous
 62
     7
100
AcDbLine
 10
169.8105071731275
 20
125.6649814497
 30
0.0
 11
156.7105071731275
 21
125.6649814497
 31
0.0
  0
LINE
  5
E7
330
4F
100
AcDbEntity
  8
1
  6
Continuous
 62
     7
100
AcDbLine
 10
156.7105071731275
 20
119.8396244880951
 30
0.0
 11
169.8105071731275
 21
119.8396244880951
 31
0.0
  0
LINE
  5
E8
330
4F
100
AcDbEntity
  8
1
  6
Continuous
 62
     7
100
AcDbLine
 10
172.7105071731275
 20
117.8269814497
 30
0.0
 11
140.7105071731275
 21
117.8269814497
 31
0.0
  0
LINE
  5
E9
330
4F
100
AcDbEntity
  8
1
  6
Continuous
 62
     7
100
AcDbLine
 10
144.7725071731275
 20
126.8269814497
 30
0.0
 11
146.7105071731275
 21
126.8269814497
 31
0.0
  0
LINE
  5
EA
330
4F
100
AcDbEntity
  8
1
  6
Continuous
 62
     7
100
AcDbLine
 10
143.6105071731275
 20
117.8269814497
 30
0.0
 11
143.6105071731275
 21
125.6649814497
 31
0.0
  0
LINE
  5
EB
330
4F
100
AcDbEntity
  8
1
  6
Continuous
 62
     2
100
AcDbLine
 10
144.7725071731275
 20
119.8396244880951
 30
0.0
 11
143.6105071731275
 21
117.8269814497
 31
0.0
  0
LINE
  5
EC
330
4F
100
AcDbEntity
  8
1
  6
Continuous
 62
     2
100
AcDbLine
 10
144.7725071731275
 20
126.8269814497
 30
0.0
 11
144.7725071731275
 21
119.8396244880951
 31
0.0
  0
LINE
  5
ED
330
4F
100
AcDbEntity
  8
1
  6
Continuous
 62
     7
100
AcDbLine
 10
144.7725071731275
 20
126.8269814497
 30
0.0
 11
143.6105071731275
 21
125.6649814497
 31
0.0
  0
LINE
  5
EE
330
4F
100
AcDbEntity
  8
1
  6
Continuous
 62
     7
100
AcDbLine
 10
143.6105071731275
 20
119.8396244880951
 30
0.0
 11
156.7105071731275
 21
119.8396244880951
 31
0.0
  0
LINE
  5
EF
330
4F
100
AcDbEntity
  8
1
  6
Continuous
 62
     7
100
AcDbLine
 10
156.7105071731275
 20
125.6649814497
 30
0.0
 11
143.6105071731275
 21
125.6649814497
 31
0.0
  0
LINE
  5
F0
330
4F
100
AcDbEntity
  8
1
  6
Continuous
 62
     7
100
AcDbLine
 10
146.7105071731275
 20
126.8269814497
 30
0.0
 11
168.6485071731275
 21
126.8269814497
 31
0.0
  0
LINE
  5
F1
330
4F
100
AcDbEntity
  8
1
  6
Continuous
 62
     7
100
AcDbLine
 10
169.8105071731275
 20
125.6649814497
 30
0.0
 11
169.8105071731275
 21
117.8269814497
 31
0.0
  0
LINE
  5
F2
330
4F
100
AcDbEntity
  8
1
  6
Continuous
 62
     7
100
AcDbLine
 10
169.8105071731275
 20
117.8269814497
 30
0.0
 11
172.7105071731275
 21
117.8269814497
 31
0.0
  0
LINE
  5
F3
330
4F
100
AcDbEntity
  8
1
  6
Continuous
 62
     2
100
AcDbLine
 10
169.8105071731275
 20
117.8269814497
 30
0.0
 11
168.6485071731275
 21
119.8396244880951
 31
0.0
  0
LINE
  5
F4
330
4F
100
AcDbEntity
  8
1
  6
Continuous
 62
     2
100
AcDbLine
 10
168.6485071731275
 20
119.8396244880951
 30
0.0
 11
168.6485071731275
 21
126.8269814497
 31
0.0
  0
LINE
  5
F5
330
4F
100
AcDbEntity
  8
1
  6
Continuous
 62
     7
100
AcDbLine
 10
169.8105071731275
 20
125.6649814497
 30
0.0
 11
168.6485071731275
 21
126.8269814497
 31
0.0
  0
LINE
  5
F6
330
4F
100
AcDbEntity
  8
1
  6
Continuous
 62
     7
100
AcDbLine
 10
169.8105071731275
 20
125.6649814497
 30
0.0
 11
168.6485071731275
 21
125.6649814497
 31
0.0
  0
LINE
  5
F7
330
4F
100
AcDbEntity
  8
1
  6
Continuous
 62
     7
100
AcDbLine
 10
168.6485071731275
 20
119.8396244880951
 30
0.0
 11
169.8105071731275
 21
119.8396244880951
 31
0.0
  0
LINE
  5
F8
330
4F
100
AcDbEntity
  8
1
  6
Continuous
 62
     7
100
AcDbLine
 10
77.71050717312747
 20
105.8269814497
 30
0.0
 11
61.71050717312748
 21
105.8269814497
 31
0.0
  0
LINE
  5
F9
330
4F
100
AcDbEntity
  8
1
  6
Continuous
 62
     7
100
AcDbLine
 10
90.81050717312746
 20
125.6649814497
 30
0.0
 11
77.71050717312747
 21
125.6649814497
 31
0.0
  0
LINE
  5
FA
330
4F
100
AcDbEntity
  8
1
  6
Continuous
 62
     7
100
AcDbLine
 10
77.71050717312747
 20
119.8396244880951
 30
0.0
 11
90.81050717312746
 21
119.8396244880951
 31
0.0
  0
LINE
  5
FB
330
4F
100
AcDbEntity
  8
1
  6
Continuous
 62
     7
100
AcDbLine
 10
95.11127535336796
 20
107.3269814497
 30
0.0
 11
95.11127535336796
 21
116.3269814497
 31
0.0
  0
LINE
  5
FC
330
4F
100
AcDbEntity
  8
1
  6
Continuous
 62
     7
100
AcDbLine
 10
93.71050717312747
 20
117.8269814497
 30
0.0
 11
77.71050717312747
 21
117.8269814497
 31
0.0
  0
LINE
  5
FD
330
4F
100
AcDbEntity
  8
1
  6
Continuous
 62
     7
100
AcDbLine
 10
84.79923061250639
 20
107.3269814497
 30
0.0
 11
88.02255191398902
 21
107.3269814497
 31
0.0
  0
LINE
  5
FE
330
4F
100
AcDbEntity
  8
1
  6
Continuous
 62
     7
100
AcDbLine
 10
84.79923061250639
 20
107.3269814497
 30
0.0
 11
84.79923061250639
 21
116.3269814497
 31
0.0
  0
LINE
  5
FF
330
4F
100
AcDbEntity
  8
1
  6
Continuous
 62
     7
100
AcDbLine
 10
84.79923061250639
 20
116.3269814497
 30
0.0
 11
88.02255191398902
 21
116.3269814497
 31
0.0
  0
LINE
  5
100
330
4F
100
AcDbEntity
  8
1
  6
Continuous
 62
     7
100
AcDbLine
 10
88.02255191398902
 20
107.3269814497
 30
0.0
 11
88.02255191398902
 21
116.3269814497
 31
0.0
  0
LINE
  5
101
330
4F
100
AcDbEntity
  8
1
  6
Continuous
 62
     7
100
AcDbLine
 10
95.21050717312747
 20
116.3269814497
 30
0.0
 11
93.71050717312747
 21
117.8269814497
 31
0.0
  0
LINE
  5
102
330
4F
100
AcDbEntity
  8
1
  6
Continuous
 62
     7
100
AcDbLine
 10
95.21050717312747
 20
116.3269814497
 30
0.0
 11
95.21050717312747
 21
107.3269814497
 31
0.0
  0
LINE
  5
103
330
4F
100
AcDbEntity
  8
1
  6
Continuous
 62
     7
100
AcDbLine
 10
93.71050717312747
 20
105.8269814497
 30
0.0
 11
95.21050717312747
 21
107.3269814497
 31
0.0
  0
LINE
  5
104
330
4F
100
AcDbEntity
  8
1
  6
Continuous
 62
     7
100
AcDbLine
 10
60.309738992887
 20
116.3269814497
 30
0.0
 11
60.309738992887
 21
107.3269814497
 31
0.0
  0
LINE
  5
105
330
4F
100
AcDbEntity
  8
1
  6
Continuous
 62
     7
100
AcDbLine
 10
77.71050717312747
 20
117.8269814497
 30
0.0
 11
61.71050717312748
 21
117.8269814497
 31
0.0
  0
LINE
  5
106
330
4F
100
AcDbEntity
  8
1
  6
Continuous
 62
     7
100
AcDbLine
 10
65.77250717312748
 20
126.8269814497
 30
0.0
 11
67.71050717312747
 21
126.8269814497
 31
0.0
  0
LINE
  5
107
330
4F
100
AcDbEntity
  8
1
  6
Continuous
 62
     7
100
AcDbLine
 10
64.61050717312749
 20
117.8269814497
 30
0.0
 11
64.61050717312749
 21
125.6649814497
 31
0.0
  0
LINE
  5
108
330
4F
100
AcDbEntity
  8
1
  6
Continuous
 62
     2
100
AcDbLine
 10
65.77250717312748
 20
119.8396244880951
 30
0.0
 11
64.61050717312749
 21
117.8269814497
 31
0.0
  0
LINE
  5
109
330
4F
100
AcDbEntity
  8
1
  6
Continuous
 62
     2
100
AcDbLine
 10
65.77250717312748
 20
126.8269814497
 30
0.0
 11
65.77250717312748
 21
119.8396244880951
 31
0.0
  0
LINE
  5
10A
330
4F
100
AcDbEntity
  8
1
  6
Continuous
 62
     7
100
AcDbLine
 10
65.77250717312748
 20
126.8269814497
 30
0.0
 11
64.61050717312749
 21
125.6649814497
 31
0.0
  0
LINE
  5
10B
330
4F
100
AcDbEntity
  8
1
  6
Continuous
 62
     7
100
AcDbLine
 10
64.61050717312749
 20
119.8396244880951
 30
0.0
 11
77.71050717312747
 21
119.8396244880951
 31
0.0
  0
LINE
  5
10C
330
4F
100
AcDbEntity
  8
1
  6
Continuous
 62
     7
100
AcDbLine
 10
77.71050717312747
 20
125.6649814497
 30
0.0
 11
64.61050717312749
 21
125.6649814497
 31
0.0
  0
LINE
  5
10D
330
4F
100
AcDbEntity
  8
1
  6
Continuous
 62
     7
100
AcDbLine
 10
67.39846243226593
 20
107.3269814497
 30
0.0
 11
70.62178373374854
 21
107.3269814497
 31
0.0
  0
LINE
  5
10E
330
4F
100
AcDbEntity
  8
1
  6
Continuous
 62
     7
100
AcDbLine
 10
70.62178373374854
 20
116.3269814497
 30
0.0
 11
70.62178373374854
 21
107.3269814497
 31
0.0
  0
LINE
  5
10F
330
4F
100
AcDbEntity
  8
1
  6
Continuous
 62
     7
100
AcDbLine
 10
67.39846243226593
 20
116.3269814497
 30
0.0
 11
70.62178373374854
 21
116.3269814497
 31
0.0
  0
LINE
  5
110
330
4F
100
AcDbEntity
  8
1
  6
Continuous
 62
     7
100
AcDbLine
 10
67.39846243226593
 20
116.3269814497
 30
0.0
 11
67.39846243226593
 21
107.3269814497
 31
0.0
  0
LINE
  5
111
330
4F
100
AcDbEntity
  8
1
  6
Continuous
 62
     7
100
AcDbLine
 10
61.71050717312748
 20
117.8269814497
 30
0.0
 11
60.21050717312748
 21
116.3269814497
 31
0.0
  0
LINE
  5
112
330
4F
100
AcDbEntity
  8
1
  6
Continuous
 62
     7
100
AcDbLine
 10
60.21050717312748
 20
107.3269814497
 30
0.0
 11
60.21050717312748
 21
116.3269814497
 31
0.0
  0
LINE
  5
113
330
4F
100
AcDbEntity
  8
1
  6
Continuous
 62
     7
100
AcDbLine
 10
60.21050717312748
 20
107.3269814497
 30
0.0
 11
61.71050717312748
 21
105.8269814497
 31
0.0
  0
LINE
  5
114
330
4F
100
AcDbEntity
  8
1
  6
Continuous
 62
     7
100
AcDbLine
 10
60.309738992887
 20
189.6879668707957
 30
0.0
 11
67.39846243226593
 21
201.9659960286044
 31
0.0
  0
LINE
  5
115
330
4F
100
AcDbEntity
  8
1
  6
Continuous
 62
     7
100
AcDbLine
 10
70.62178373374854
 20
203.8269814497
 30
0.0
 11
84.79923061250639
 21
203.8269814497
 31
0.0
  0
LINE
  5
116
330
4F
100
AcDbEntity
  8
1
  6
Continuous
 62
     7
100
AcDbLine
 10
88.02255191398902
 20
201.9659960286044
 30
0.0
 11
95.11127535336796
 21
189.6879668707957
 31
0.0
  0
LINE
  5
117
330
4F
100
AcDbEntity
  8
1
  6
Continuous
 62
     7
100
AcDbLine
 10
95.11127535336796
 20
185.9659960286044
 30
0.0
 11
88.02255191398902
 21
173.6879668707957
 31
0.0
  0
LINE
  5
118
330
4F
100
AcDbEntity
  8
1
  6
Continuous
 62
     7
100
AcDbLine
 10
84.79923061250639
 20
171.8269814497
 30
0.0
 11
70.62178373374854
 21
171.8269814497
 31
0.0
  0
LINE
  5
119
330
4F
100
AcDbEntity
  8
1
  6
Continuous
 62
     7
100
AcDbLine
 10
67.39846243226593
 20
173.6879668707957
 30
0.0
 11
60.309738992887
 21
185.9659960286044
 31
0.0
  0
LINE
  5
11A
330
4F
100
AcDbEntity
  8
1
  6
Continuous
 62
     7
100
AcDbLine
 10
67.71050717312747
 20
126.8269814497
 30
0.0
 11
89.64850717312747
 21
126.8269814497
 31
0.0
  0
LINE
  5
11B
330
4F
100
AcDbEntity
  8
1
  6
Continuous
 62
     7
100
AcDbLine
 10
90.81050717312746
 20
125.6649814497
 30
0.0
 11
90.81050717312746
 21
117.8269814497
 31
0.0
  0
LINE
  5
11C
330
4F
100
AcDbEntity
  8
1
  6
Continuous
 62
     7
100
AcDbLine
 10
90.81050717312746
 20
117.8269814497
 30
0.0
 11
93.71050717312747
 21
117.8269814497
 31
0.0
  0
LINE
  5
11D
330
4F
100
AcDbEntity
  8
1
  6
Continuous
 62
     7
100
AcDbLine
 10
95.21050717312747
 20
116.3269814497
 30
0.0
 11
95.21050717312747
 21
107.3269814497
 31
0.0
  0
LINE
  5
11E
330
4F
100
AcDbEntity
  8
1
  6
Continuous
 62
     7
100
AcDbLine
 10
93.71050717312747
 20
105.8269814497
 30
0.0
 11
77.71050717312747
 21
105.8269814497
 31
0.0
  0
LINE
  5
11F
330
4F
100
AcDbEntity
  8
1
  6
Continuous
 62
     2
100
AcDbLine
 10
90.81050717312746
 20
117.8269814497
 30
0.0
 11
89.64850717312747
 21
119.8396244880951
 31
0.0
  0
LINE
  5
120
330
4F
100
AcDbEntity
  8
1
  6
Continuous
 62
     2
100
AcDbLine
 10
89.64850717312747
 20
119.8396244880951
 30
0.0
 11
89.64850717312747
 21
126.8269814497
 31
0.0
  0
LINE
  5
121
330
4F
100
AcDbEntity
  8
1
  6
Continuous
 62
     7
100
AcDbLine
 10
90.81050717312746
 20
125.6649814497
 30
0.0
 11
89.64850717312747
 21
126.8269814497
 31
0.0
  0
LINE
  5
122
330
4F
100
AcDbEntity
  8
1
  6
Continuous
 62
     7
100
AcDbLine
 10
90.81050717312746
 20
125.6649814497
 30
0.0
 11
89.64850717312747
 21
125.6649814497
 31
0.0
  0
LINE
  5
123
330
4F
100
AcDbEntity
  8
1
  6
Continuous
 62
     7
100
AcDbLine
 10
89.64850717312747
 20
119.8396244880951
 30
0.0
 11
90.81050717312746
 21
119.8396244880951
 31
0.0
  0
LINE
  5
124
330
4F
100
AcDbEntity
  8
1
  6
Continuous
 62
     7
100
AcDbLine
 10
95.21050717312747
 20
116.3269814497
 30
0.0
 11
93.71050717312747
 21
117.8269814497
 31
0.0
  0
LINE
  5
125
330
4F
100
AcDbEntity
  8
1
  6
Continuous
 62
     7
100
AcDbLine
 10
93.71050717312747
 20
105.8269814497
 30
0.0
 11
95.21050717312747
 21
107.3269814497
 31
0.0
  0
ARC
  5
126
330
4F
100
AcDbEntity
  8
1
  6
Continuous
 62
     7
100
AcDbCircle
 10
148.7105071731275
 20
104.5144814497
 30
0.0
 40
13.31250000000003
100
AcDbArc
 50
62.53887745350378
 51
117.4611225464958
  0
ARC
  5
127
330
4F
100
AcDbEntity
  8
1
  6
Continuous
 62
     7
100
AcDbCircle
 10
148.7105071731275
 20
119.1394814496999
 30
0.0
 40
13.31249999999989
100
AcDbArc
 50
242.538877453504
 51
297.4611225464964
  0
ARC
  5
128
330
4F
100
AcDbEntity
  8
1
  6
Continuous
 62
     7
100
AcDbCircle
 10
164.7105071731275
 20
119.1394814496999
 30
0.0
 40
13.31249999999989
100
AcDbArc
 50
242.538877453504
 51
297.461122546496
  0
ARC
  5
129
330
4F
100
AcDbEntity
  8
1
  6
Continuous
 62
     7
100
AcDbCircle
 10
164.7105071731275
 20
104.5144814497
 30
0.0
 40
13.31249999999998
100
AcDbArc
 50
62.53887745350421
 51
117.4611225464958
  0
ARC
  5
12A
330
4F
100
AcDbEntity
  8
1
  6
Continuous
 62
     7
100
AcDbCircle
 10
77.71050717312747
 20
123.3269814497
 30
0.0
 40
17.5
100
AcDbArc
 50
270.0
 51
293.8955081861615
  0
ARC
  5
12B
330
4F
100
AcDbEntity
  8
1
  6
Continuous
 62
     7
100
AcDbCircle
 10
77.71050717312747
 20
100.3269814497
 30
0.0
 40
17.5
100
AcDbArc
 50
66.10449181383848
 51
90.0
  0
ARC
  5
12C
330
4F
100
AcDbEntity
  8
1
  6
Continuous
 62
     7
100
AcDbCircle
 10
91.56691363367851
 20
112.8894814497
 30
0.0
 40
4.937499999999995
100
AcDbArc
 50
44.1231210620589
 51
135.8768789379415
  0
ARC
  5
12D
330
4F
100
AcDbEntity
  8
1
  6
Continuous
 62
     7
100
AcDbCircle
 10
91.56691363367851
 20
110.7644814497
 30
0.0
 40
4.937500000000025
100
AcDbArc
 50
224.1231210620585
 51
315.8768789379411
  0
ARC
  5
12E
330
4F
100
AcDbEntity
  8
1
  6
Continuous
 62
     7
100
AcDbCircle
 10
77.71050717312747
 20
123.3269814497
 30
0.0
 40
17.5
100
AcDbArc
 50
246.1044918138385
 51
270.0
  0
ARC
  5
12F
330
4F
100
AcDbEntity
  8
1
  6
Continuous
 62
     7
100
AcDbCircle
 10
77.71050717312747
 20
100.3269814497
 30
0.0
 40
17.5
100
AcDbArc
 50
90.0
 51
113.8955081861615
  0
ARC
  5
130
330
4F
100
AcDbEntity
  8
1
  6
Continuous
 62
     7
100
AcDbCircle
 10
63.85410071257645
 20
112.8894814497
 30
0.0
 40
4.93750000000002
100
AcDbArc
 50
44.1231210620586
 51
135.8768789379411
  0
ARC
  5
131
330
4F
100
AcDbEntity
  8
1
  6
Continuous
 62
     7
100
AcDbCircle
 10
63.85410071257645
 20
110.7644814497
 30
0.0
 40
4.937499999999995
100
AcDbArc
 50
224.1231210620589
 51
315.8768789379414
  0
ARC
  5
132
330
4F
100
AcDbEntity
  8
1
  6
Continuous
 62
     7
100
AcDbCircle
 10
77.71050717312747
 20
187.8269814497
 30
0.0
 40
17.5
100
AcDbArc
 50
113.8955081861615
 51
126.1044918138384
  0
ARC
  5
133
330
4F
100
AcDbEntity
  8
1
  6
Continuous
 62
     7
100
AcDbCircle
 10
77.71050717312747
 20
187.8269814497
 30
0.0
 40
17.50000000000003
100
AcDbArc
 50
53.8955081861616
 51
66.10449181383848
  0
ARC
  5
134
330
4F
100
AcDbEntity
  8
1
  6
Continuous
 62
     7
100
AcDbCircle
 10
77.71050717312747
 20
187.8269814497
 30
0.0
 40
17.5
100
AcDbArc
 50
0.0
 51
6.10449181383855
  0
ARC
  5
135
330
4F
100
AcDbEntity
  8
1
  6
Continuous
 62
     7
100
AcDbCircle
 10
77.71050717312747
 20
187.8269814497
 30
0.0
 40
17.5
100
AcDbArc
 50
293.8955081861615
 51
306.1044918138385
  0
ARC
  5
136
330
4F
100
AcDbEntity
  8
1
  6
Continuous
 62
     7
100
AcDbCircle
 10
77.71050717312747
 20
187.8269814497
 30
0.0
 40
17.49999999999998
100
AcDbArc
 50
233.8955081861615
 51
246.1044918138385
  0
ARC
  5
137
330
4F
100
AcDbEntity
  8
1
  6
Continuous
 62
     7
100
AcDbCircle
 10
77.71050717312747
 20
187.8269814497
 30
0.0
 40
17.49999999999999
100
AcDbArc
 50
180.0
 51
186.1044918138384
  0
ARC
  5
138
330
4F
100
AcDbEntity
  8
1
  6
Continuous
 62
     7
100
AcDbCircle
 10
77.71050717312747
 20
187.8269814497
 30
0.0
 40
17.5
100
AcDbArc
 50
173.8955081861614
 51
180.0
  0
ARC
  5
139
330
4F
100
AcDbEntity
  8
1
  6
Continuous
 62
     7
100
AcDbCircle
 10
77.71050717312747
 20
187.8269814497
 30
0.0
 40
17.50000000000001
100
AcDbArc
 50
353.8955081861616
 51
0.0
  0
CIRCLE
  5
13A
330
4F
100
AcDbEntity
  8
1
  6
Continuous
 62
     7
100
AcDbCircle
 10
77.71050717312747
 20
187.8269814497
 30
0.0
 40
16.0
  0
CIRCLE
  5
13B
330
4F
100
AcDbEntity
  8
1
  6
Continuous
 62
     7
100
AcDbCircle
 10
77.71050717312747
 20
187.8269814497
 30
0.0
 40
10.0
  0
CIRCLE
  5
13C
330
4F
100
AcDbEntity
  8
1
  6
Continuous
 62
     2
100
AcDbCircle
 10
77.71050717312747
 20
187.8269814497
 30
0.0
 40
11.938
  0
CIRCLE
  5
13D
330
4F
100
AcDbEntity
  8
1
  6
Continuous
 62
     7
100
AcDbCircle
 10
77.71050717312747
 20
187.8269814497
 30
0.0
 40
13.09999999999999
  0
ENDBLK
  5
51
330
4F
100
AcDbEntity
  8
0
100
AcDbBlockEnd
  0
BLOCK
  5
53
330
52
100
AcDbEntity
  8
0
100
AcDbBlockBegin
  2
35-84__2
 70
     0
 10
60.21050717312748
 20
105.8269814497
 30
0.0
  3
35-84__2
  1

  0
LINE
  5
13E
330
52
100
AcDbEntity
  8
1
  6
Continuous
 62
     7
100
AcDbLine
 10
63.21050717312748
 20
105.8269814497
 30
0.0
 11
61.71050717312748
 21
105.8269814497
 31
0.0
  0
LINE
  5
13F
330
52
100
AcDbEntity
  8
1
  6
Continuous
 62
     7
100
AcDbLine
 10
77.71050717312747
 20
105.8269814497
 30
0.0
 11
63.21050717312748
 21
105.8269814497
 31
0.0
  0
ENDBLK
  5
54
330
52
100
AcDbEntity
  8
0
100
AcDbBlockEnd
  0
BLOCK
  5
161
330
158
100
AcDbEntity
  8
0
100
AcDbBlockBegin
  2
*D5
 70
     1
 10
0.0
 20
0.0
 30
0.0
  3
*D5
  1

  0
LINE
  5
159
330
158
100
AcDbEntity
  8
1
  6
Continuous
 62
     2
100
AcDbLine
 10
49.20658045538858
 20
117.8269814497
 30
0.0
 11
49.20658045538858
 21
110.8269814497
 31
0.0
  0
LINE
  5
15A
330
158
100
AcDbEntity
  8
1
  6
Continuous
 62
     2
100
AcDbLine
 10
49.20658045538858
 20
126.8269814497
 30
0.0
 11
49.20658045538858
 21
117.8269814497
 31
0.0
  0
LINE
  5
15B
330
158
100
AcDbEntity
  8
1
  6
Continuous
 62
     2
100
AcDbLine
 10
49.20658045538858
 20
133.8269814497
 30
0.0
 11
49.20658045538858
 21
126.8269814497
 31
0.0
  0
LINE
  5
15C
330
158
100
AcDbEntity
  8
1
  6
Continuous
 62
     2
100
AcDbLine
 10
61.7105071731275
 20
117.8269814497
 30
0.0
 11
48.20658045538858
 21
117.8269814497
 31
0.0
  0
LINE
  5
15D
330
158
100
AcDbEntity
  8
1
  6
Continuous
 62
     2
100
AcDbLine
 10
65.77250717312748
 20
126.8269814497
 30
0.0
 11
48.20658045538858
 21
126.8269814497
 31
0.0
  0
SOLID
  5
15E
330
158
100
AcDbEntity
  8
1
 62
     2
100
AcDbTrace
 10
48.7457967138327
 20
130.3269814497
 30
0.0
 11
49.66736419694447
 21
130.3269814497
 31
0.0
 12
49.20658045538858
 22
126.8269814497
 32
0.0
 13
49.20658045538858
 23
126.8269814497
 33
0.0
  0
SOLID
  5
15F
330
158
100
AcDbEntity
  8
1
 62
     2
100
AcDbTrace
 10
49.66736419694447
 20
114.3269814497
 30
0.0
 11
48.7457967138327
 21
114.3269814497
 31
0.0
 12
49.20658045538858
 22
117.8269814497
 32
0.0
 13
49.20658045538858
 23
117.8269814497
 33
0.0
  0
MTEXT
  5
160
330
158
100
AcDbEntity
  8
1
 62
     7
100
AcDbMText
 10
48.20658045538858
 20
121.0427987132696
 30
0.0
 40
3.5
 41
0.0
 71
     7
 72
     1
  1
9
  7
CONVERTER_12
 11
0.0
 21
1.0
 31
0.0
 73
     1
 44
0.60024009603842
  0
ENDBLK
  5
162
330
158
100
AcDbEntity
  8
0
100
AcDbBlockEnd
  0
BLOCK
  5
16C
330
165
100
AcDbEntity
  8
0
100
AcDbBlockBegin
  2
*D6
 70
     1
 10
0.0
 20
0.0
 30
0.0
  3
*D6
  1

  0
LINE
  5
166
330
165
100
AcDbEntity
  8
1
  6
Continuous
 62
     2
100
AcDbLine
 10
40.88022860334668
 20
126.8269814497
 30
0.0
 11
40.88022860334668
 21
105.8269814497
 31
0.0
  0
LINE
  5
167
330
165
100
AcDbEntity
  8
1
  6
Continuous
 62
     2
100
AcDbLine
 10
61.71050717312748
 20
105.8269814497
 30
0.0
 11
39.88022860334668
 21
105.8269814497
 31
0.0
  0
LINE
  5
168
330
165
100
AcDbEntity
  8
1
  6
Continuous
 62
     2
100
AcDbLine
 10
65.77250717312748
 20
126.8269814497
 30
0.0
 11
39.88022860334668
 21
126.8269814497
 31
0.0
  0
SOLID
  5
169
330
165
100
AcDbEntity
  8
1
 62
     2
100
AcDbTrace
 10
41.34101234490257
 20
123.3269814497
 30
0.0
 11
40.41944486179079
 21
123.3269814497
 31
0.0
 12
40.88022860334668
 22
126.8269814497
 32
0.0
 13
40.88022860334668
 23
126.8269814497
 33
0.0
  0
SOLID
  5
16A
330
165
100
AcDbEntity
  8
1
 62
     2
100
AcDbTrace
 10
40.41944486179079
 20
109.3269814497
 30
0.0
 11
41.34101234490257
 21
109.3269814497
 31
0.0
 12
40.88022860334668
 22
105.8269814497
 32
0.0
 13
40.88022860334668
 23
105.8269814497
 33
0.0
  0
MTEXT
  5
16B
330
165
100
AcDbEntity
  8
1
 62
     7
100
AcDbMText
 10
39.88022860334668
 20
115.0141553378219
 30
0.0
 40
3.5
 41
0.0
 71
     7
 72
     1
  1
21
  7
CONVERTER_12
 11
0.0
 21
1.0
 31
0.0
 73
     1
 44
0.60024009603842
  0
ENDBLK
  5
16D
330
165
100
AcDbEntity
  8
0
100
AcDbBlockEnd
  0
BLOCK
  5
177
330
170
100
AcDbEntity
  8
0
100
AcDbBlockBegin
  2
*D7
 70
     1
 10
0.0
 20
0.0
 30
0.0
  3
*D7
  1

  0
LINE
  5
171
330
170
100
AcDbEntity
  8
0
  6
Continuous
 62
     2
100
AcDbLine
 10
104.2105071731275
 20
203.8269814497
 30
0.0
 11
104.2105071731275
 21
171.8269814497
 31
0.0
  0
LINE
  5
172
330
170
100
AcDbEntity
  8
0
  6
Continuous
 62
     2
100
AcDbLine
 10
84.79923061250642
 20
171.8269814497
 30
0.0
 11
105.2105071731275
 21
171.8269814497
 31
0.0
  0
LINE
  5
173
330
170
100
AcDbEntity
  8
0
  6
Continuous
 62
     2
100
AcDbLine
 10
84.79923061250642
 20
203.8269814497
 30
0.0
 11
105.2105071731275
 21
203.8269814497
 31
0.0
  0
SOLID
  5
174
330
170
100
AcDbEntity
  8
0
 62
     2
100
AcDbTrace
 10
104.6712909146834
 20
200.3269814497
 30
0.0
 11
103.7497234315716
 21
200.3269814497
 31
0.0
 12
104.2105071731275
 22
203.8269814497
 32
0.0
 13
104.2105071731275
 23
203.8269814497
 33
0.0
  0
SOLID
  5
175
330
170
100
AcDbEntity
  8
0
 62
     2
100
AcDbTrace
 10
103.7497234315716
 20
175.3269814497
 30
0.0
 11
104.6712909146834
 21
175.3269814497
 31
0.0
 12
104.2105071731275
 22
171.8269814497
 32
0.0
 13
104.2105071731275
 23
171.8269814497
 33
0.0
  0
MTEXT
  5
176
330
170
100
AcDbEntity
  8
0
 62
     7
100
AcDbMText
 10
103.2105071731275
 20
184.8173920913145
 30
0.0
 40
3.5
 41
0.0
 71
     7
 72
     1
  1
32
  7
CONVERTER_12
 11
0.0
 21
1.0
 31
0.0
 73
     1
 44
0.60024009603842
  0
ENDBLK
  5
178
330
170
100
AcDbEntity
  8
0
100
AcDbBlockEnd
  0
BLOCK
  5
182
330
17B
100
AcDbEntity
  8
0
100
AcDbBlockBegin
  2
*D8
 70
     1
 10
0.0
 20
0.0
 30
0.0
  3
*D8
  1

  0
LINE
  5
17C
330
17B
100
AcDbEntity
  8
0
  6
Continuous
 62
     2
100
AcDbLine
 10
60.21050717312748
 20
214.8269814497
 30
0.0
 11
95.21050717312747
 21
214.8269814497
 31
0.0
  0
LINE
  5
17D
330
17B
100
AcDbEntity
  8
0
  6
Continuous
 62
     2
100
AcDbLine
 10
95.21050717312747
 20
187.8269814497
 30
0.0
 11
95.21050717312747
 21
215.8269814497
 31
0.0
  0
LINE
  5
17E
330
17B
100
AcDbEntity
  8
0
  6
Continuous
 62
     2
100
AcDbLine
 10
60.21050717312748
 20
187.8269814497
 30
0.0
 11
60.21050717312748
 21
215.8269814497
 31
0.0
  0
SOLID
  5
17F
330
17B
100
AcDbEntity
  8
0
 62
     2
100
AcDbTrace
 10
63.71050717312748
 20
215.2877651912559
 30
0.0
 11
63.71050717312748
 21
214.3661977081441
 31
0.0
 12
60.21050717312748
 22
214.8269814497
 32
0.0
 13
60.21050717312748
 23
214.8269814497
 33
0.0
  0
SOLID
  5
180
330
17B
100
AcDbEntity
  8
0
 62
     2
100
AcDbTrace
 10
91.71050717312747
 20
214.3661977081441
 30
0.0
 11
91.71050717312747
 21
215.2877651912559
 31
0.0
 12
95.21050717312747
 22
214.8269814497
 32
0.0
 13
95.21050717312747
 23
214.8269814497
 33
0.0
  0
MTEXT
  5
181
330
17B
100
AcDbEntity
  8
0
 62
     7
100
AcDbMText
 10
74.16750234738201
 20
215.8269744926237
 30
0.0
 40
3.5
 41
0.0
 71
     7
 72
     1
  1
\C7;{\Fgdt;n}\C7;35
  7
CONVERTER_12
 11
0.9999999999970619
 21
2.424068405545306E-6
 31
0.0
 73
     1
 44
0.60024009603842
  0
ENDBLK
  5
183
330
17B
100
AcDbEntity
  8
0
100
AcDbBlockEnd
  0
ENDSEC
  0
SECTION
  2
ENTITIES
  0
INSERT
  5
55
330
1F
100
AcDbEntity
  8
0
100
AcDbBlockReference
  2
開示A4枠
 10
0.0
 20
0.0
 30
0.0
  0
INSERT
  5
56
330
1F
100
AcDbEntity
  8
0
100
AcDbBlockReference
  2
35-84__1
 10
164.783351893095
 20
-27.51826280623658
 30
0.0
  0
INSERT
  5
57
330
1F
100
AcDbEntity
  8
0
100
AcDbBlockReference
  2
35-84__2
 10
60.21050717312748
 20
105.8269814497
 30
0.0
  0
LINE
  5
140
330
1F
100
AcDbEntity
  8
1
  6
DASH_CENTER
 62
     2
100
AcDbLine
 10
156.7105071731275
 20
102.8269814497
 30
0.0
 11
156.7105071731275
 21
131.8269814497
 31
0.0
  0
LINE
  5
141
330
1F
100
AcDbEntity
  8
1
  6
DASH_CENTER
 62
     2
100
AcDbLine
 10
57.21050717312748
 20
187.8269814497
 30
0.0
 11
98.21050717312747
 21
187.8269814497
 31
0.0
  0
LINE
  5
142
330
1F
100
AcDbEntity
  8
1
  6
DASH_CENTER
 62
     2
100
AcDbLine
 10
77.71050717312747
 20
167.3269814497
 30
0.0
 11
77.71050717312747
 21
208.3269814497
 31
0.0
  0
LINE
  5
143
330
1F
100
AcDbEntity
  8
1
  6
DASH_CENTER
 62
     2
100
AcDbLine
 10
77.71050717312747
 20
102.8269814497
 30
0.0
 11
77.71050717312747
 21
131.8269814497
 31
0.0
  0
SOLID
  5
144
330
1F
100
AcDbEntity
  8
1
 62
     2
100
AcDbTrace
 10
93.85955759896571
 20
103.0262844072324
 30
0.0
 11
93.06145674728923
 21
102.5655006656765
 31
0.0
 12
91.71050717312747
 22
105.8269814497
 32
0.0
 13
91.71050717312747
 23
105.8269814497
 33
0.0
  0
LEADER
  5
145
330
1F
100
AcDbEntity
  8
1
  6
Continuous
 62
     2
100
AcDbLeader
  3
Standard
 71
     0
 76
     3
 10
91.71050717312747
 20
105.8269814497
 30
0.0
 10
102.7388602449713
 20
86.72531360545831
 30
0.0
 10
121.2947323210105
 20
86.72531360545831
 30
0.0
  0
SOLID
  5
146
330
1F
100
AcDbEntity
  8
1
 62
     2
100
AcDbTrace
 10
92.16145674728924
 20
126.0884622337235
 30
0.0
 11
92.9595575989657
 21
125.6276784921676
 31
0.0
 12
90.81050717312746
 22
122.8269814497
 32
0.0
 13
90.81050717312746
 23
122.8269814497
 33
0.0
  0
LEADER
  5
147
330
1F
100
AcDbEntity
  8
1
  6
Continuous
 62
     2
100
AcDbLeader
  3
Standard
 71
     0
 76
     3
 10
90.81050717312746
 20
122.8269814497
 30
0.0
 10
101.8388602449713
 20
141.9286492939418
 30
0.0
 10
116.8947323210105
 20
141.9286492939418
 30
0.0
  0
MTEXT
  5
149
330
1F
100
AcDbEntity
  8
1
 62
     7
100
AcDbMText
 10
157.5
 20
12.50000000000001
 30
0.0
 40
2.5
 41
0.0
 71
     5
 72
     1
  1
10
  7
CONVERTER_12
 73
     1
 44
0.7202881152461
  0
MTEXT
  5
14A
330
1F
100
AcDbEntity
  8
1
 62
     7
100
AcDbMText
 10
151.75
 20
12.50000000000001
 30
0.0
 40
2.5
 41
0.0
 71
     5
 72
     1
  1
03
  7
CONVERTER_12
 73
     1
 44
0.7202881152461
  0
MTEXT
  5
14B
330
1F
100
AcDbEntity
  8
1
 62
     7
100
AcDbMText
 10
140.5
 20
12.50000000000001
 30
0.0
 40
2.5
 41
0.0
 71
     5
 72
     1
  1
10
  7
CONVERTER_12
 73
     1
 44
0.7202881152461
  0
MTEXT
  5
14C
330
1F
100
AcDbEntity
  8
1
 62
     7
100
AcDbMText
 10
134.75
 20
12.50000000000001
 30
0.0
 40
2.5
 41
0.0
 71
     5
 72
     1
  1
03
  7
CONVERTER_12
 73
     1
 44
0.7202881152461
  0
MTEXT
  5
14D
330
1F
100
AcDbEntity
  8
1
 62
     7
100
AcDbMText
 10
123.5
 20
12.50000000000001
 30
0.0
 40
2.5
 41
0.0
 71
     5
 72
     1
  1
10
  7
CONVERTER_12
 73
     1
 44
0.7202881152461
  0
MTEXT
  5
14E
330
1F
100
AcDbEntity
  8
1
 62
     7
100
AcDbMText
 10
117.75
 20
12.50000000000001
 30
0.0
 40
2.5
 41
0.0
 71
     5
 72
     1
  1
03
  7
CONVERTER_12
 73
     1
 44
0.7202881152461
  0
MTEXT
  5
14F
330
1F
100
AcDbEntity
  8
1
 62
     7
100
AcDbMText
 10
100.75
 20
12.50000000000001
 30
0.0
 40
2.5
 41
0.0
 71
     5
 72
     1
  1
03
  7
CONVERTER_12
 73
     1
 44
0.7202881152461
  0
MTEXT
  5
150
330
1F
100
AcDbEntity
  8
1
 62
     7
100
AcDbMText
 10
106.5
 20
12.50000000000001
 30
0.0
 40
2.5
 41
0.0
 71
     5
 72
     1
  1
10
  7
CONVERTER_12
 73
     1
 44
0.7202881152461
  0
MTEXT
  5
151
330
1F
100
AcDbEntity
  8
1
 62
     7
100
AcDbMText
 10
111.736614395392
 20
89.41990754518031
 30
0.0
 40
3.5
 41
0.0
 71
     5
 72
     1
  1
W28山18
  7
CONVERTER_11
 73
     1
 44
1.0
  0
MTEXT
  5
152
330
1F
100
AcDbEntity
  8
1
 62
     7
100
AcDbMText
 10
109.6349576938962
 20
144.9061934532776
 30
0.0
 40
3.5
 41
0.0
 71
     5
 72
     1
  1
G3/4
  7
CONVERTER_12
 73
     1
 44
1.32052821128451
  0
MTEXT
  5
153
330
1F
100
AcDbEntity
  8
0
 62
     7
100
AcDbMText
 10
34.0
 20
34.00000000000001
 30
0.0
 40
3.5
 41
0.0
 71
     4
 72
     1
  1
2個1組
  7
CONVERTER_11
 73
     1
 44
0.63636363636364
  0
MTEXT
  5
154
330
1F
100
AcDbEntity
  8
1
 62
     7
100
AcDbMText
 10
85.25
 20
17.00000000000001
 30
0.0
 40
3.5
 41
0.0
 71
     5
 72
     1
  1
1
  7
CONVERTER_12
 73
     1
 44
0.7202881152461
  0
MTEXT
  5
155
330
1F
100
AcDbEntity
  8
1
 62
     7
100
AcDbMText
 10
57.0
 20
22.75000000000001
 30
0.0
 40
3.5
 41
0.0
 71
     5
 72
     1
  1
偏心管アダプター
  7
CONVERTER_11
 73
     1
 44
0.54545454545455
  0
MTEXT
  5
156
330
1F
100
AcDbEntity
  8
1
 62
     7
100
AcDbMText
 10
57.0
 20
14.25000000000001
 30
0.0
 40
3.5
 41
0.0
 71
     5
 72
     1
  1
T242S
  7
CONVERTER_12
 73
     1
 44
0.7202881152461
  0
MTEXT
  5
157
330
1F
100
AcDbEntity
  8
1
 62
     7
100
AcDbMText
 10
93.75
 20
17.00000000000001
 30
0.0
 40
3.5
 41
0.0
 71
     5
 72
     1
  1
1
  7
CONVERTER_12
 73
     1
 44
0.7202881152461
  0
DIMENSION
  5
164
330
1F
100
AcDbEntity
  8
1
100
AcDbDimension
  2
*D5
 10
49.20658045538858
 20
126.8269814497
 30
0.0
 11
46.45658045538858
 21
122.0927987132696
 31
0.0
 70
    32
  1
<>
 71
     5
 42
-1.0
 53
90.0
  3
ME10_DIM_10
100
AcDbAlignedDimension
 13
61.71050717312748
 23
117.8269814497
 33
0.0
 14
65.77250717312748
 24
126.8269814497
 34
0.0
 50
90.0
100
AcDbRotatedDimension
  0
DIMENSION
  5
16F
330
1F
100
AcDbEntity
  8
1
100
AcDbDimension
  2
*D6
 10
40.88022860334668
 20
126.8269814497
 30
0.0
 11
38.13022860334668
 21
117.1141553378219
 31
0.0
 70
    32
  1
<>
 71
     5
 42
-1.0
 53
90.0
  3
ME10_DIM_11
100
AcDbAlignedDimension
 13
61.71050717312748
 23
105.8269814497
 33
0.0
 14
65.77250717312748
 24
126.8269814497
 34
0.0
 50
90.0
100
AcDbRotatedDimension
  0
DIMENSION
  5
17A
330
1F
100
AcDbEntity
  8
0
100
AcDbDimension
  2
*D7
 10
104.2105071731275
 20
203.8269814497
 30
0.0
 11
101.4605071731275
 21
187.4423920913145
 31
0.0
 70
    32
  1
<>
 71
     5
 42
-1.0
 53
90.0
  3
ME10_DIM_12
100
AcDbAlignedDimension
 13
84.79923061250639
 23
171.8269814497
 33
0.0
 14
84.79923061250639
 24
203.8269814497
 34
0.0
 50
90.0
100
AcDbRotatedDimension
  0
DIMENSION
  5
185
330
1F
100
AcDbEntity
  8
0
100
AcDbDimension
  2
*D8
 10
60.21050717312748
 20
214.8269814497
 30
0.0
 11
77.56250234737358
 21
217.5769814497
 31
0.0
 70
    32
  1
<>
 71
     5
 42
-1.0
 53
0.00013888888889
  3
ME10_DIM_13
100
AcDbAlignedDimension
 13
95.21050717312747
 23
187.8269814497
 33
0.0
 14
60.21050717312748
 24
187.8269814497
 34
0.0
100
AcDbRotatedDimension
  0
ENDSEC
  0
SECTION
  2
OBJECTS
  0
DICTIONARY
  5
C
330
0
100
AcDbDictionary
281
     1
  3
ACAD_GROUP
350
D
  3
ACAD_LAYOUT
350
1A
  3
ACAD_MATERIAL
350
3B
  3
ACAD_MLEADERSTYLE
350
188
  3
ACAD_MLINESTYLE
350
17
  3
ACAD_PLOTSETTINGS
350
19
  3
ACAD_PLOTSTYLENAME
350
E
  3
ACAD_VISUALSTYLE
350
2A
  3
AcDbVariableDictionary
350
186
  0
DICTIONARY
  5
D
102
{ACAD_REACTORS
330
C
102
}
330
C
100
AcDbDictionary
281
     1
  0
DICTIONARY
  5
1A
102
{ACAD_REACTORS
330
C
102
}
330
C
100
AcDbDictionary
281
     1
  3
Layout1
350
1E
  3
Layout2
350
26
  3
Model
350
22
  0
DICTIONARY
  5
3B
102
{ACAD_REACTORS
330
C
102
}
330
C
100
AcDbDictionary
281
     1
  3
ByBlock
350
3D
  3
ByLayer
350
3C
  3
Global
350
3E
  0
DICTIONARY
  5
188
102
{ACAD_REACTORS
330
C
102
}
330
C
100
AcDbDictionary
281
     1
  0
DICTIONARY
  5
17
102
{ACAD_REACTORS
330
C
102
}
330
C
100
AcDbDictionary
281
     1
  3
Standard
350
18
  0
DICTIONARY
  5
19
102
{ACAD_REACTORS
330
C
102
}
330
C
100
AcDbDictionary
281
     1
  0
ACDBDICTIONARYWDFLT
  5
E
102
{ACAD_REACTORS
330
C
102
}
330
C
100
AcDbDictionary
281
     1
  3
Normal
350
F
100
AcDbDictionaryWithDefault
340
F
  0
DICTIONARY
  5
2A
102
{ACAD_REACTORS
330
C
102
}
330
C
100
AcDbDictionary
281
     1
  3
2dWireframe
350
2F
  3
3D Hidden
350
31
  3
3dWireframe
350
30
  3
Basic
350
32
  3
Brighten
350
36
  3
ColorChange
350
3A
  3
Conceptual
350
34
  3
Dim
350
35
  3
Facepattern
350
39
  3
Flat
350
2B
  3
FlatWithEdges
350
2C
  3
Gouraud
350
2D
  3
GouraudWithEdges
350
2E
  3
Linepattern
350
38
  3
Realistic
350
33
  3
Thicken
350
37
  0
DICTIONARY
  5
186
102
{ACAD_REACTORS
330
C
102
}
330
C
100
AcDbDictionary
281
     1
  3
DIMASSOC
350
189
  3
HIDETEXT
350
18A
  0
LAYOUT
  5
1E
102
{ACAD_REACTORS
330
1A
102
}
330
1A
100
AcDbPlotSettings
  1

  2
none_device
  4

  6

 40
0.0
 41
0.0
 42
0.0
 43
0.0
 44
0.0
 45
0.0
 46
0.0
 47
0.0
 48
0.0
 49
0.0
140
0.0
141
0.0
142
1.0
143
1.0
 70
   688
 72
     0
 73
     0
 74
     5
  7

 75
    16
147
1.0
148
0.0
149
0.0
100
AcDbLayout
  1
Layout1
 70
     1
 71
     1
 10
0.0
 20
0.0
 11
12.0
 21
9.0
 12
0.0
 22
0.0
 32
0.0
 14
1.00000000000000E+20
 24
1.00000000000000E+20
 34
1.00000000000000E+20
 15
-1.00000000000000E+20
 25
-1.00000000000000E+20
 35
-1.00000000000000E+20
146
0.0
 13
0.0
 23
0.0
 33
0.0
 16
1.0
 26
0.0
 36
0.0
 17
0.0
 27
1.0
 37
0.0
 76
     0
330
1B
  0
LAYOUT
  5
26
102
{ACAD_REACTORS
330
1A
102
}
330
1A
100
AcDbPlotSettings
  1

  2
none_device
  4

  6

 40
0.0
 41
0.0
 42
0.0
 43
0.0
 44
0.0
 45
0.0
 46
0.0
 47
0.0
 48
0.0
 49
0.0
140
0.0
141
0.0
142
1.0
143
1.0
 70
   688
 72
     0
 73
     0
 74
     5
  7

 75
    16
147
1.0
148
0.0
149
0.0
100
AcDbLayout
  1
Layout2
 70
     1
 71
     2
 10
0.0
 20
0.0
 11
0.0
 21
0.0
 12
0.0
 22
0.0
 32
0.0
 14
0.0
 24
0.0
 34
0.0
 15
0.0
 25
0.0
 35
0.0
146
0.0
 13
0.0
 23
0.0
 33
0.0
 16
1.0
 26
0.0
 36
0.0
 17
0.0
 27
1.0
 37
0.0
 76
     0
330
23
  0
LAYOUT
  5
22
102
{ACAD_REACTORS
330
1A
102
}
330
1A
100
AcDbPlotSettings
  1

  2
none_device
  4

  6

 40
0.0
 41
0.0
 42
0.0
 43
0.0
 44
0.0
 45
0.0
 46
0.0
 47
0.0
 48
0.0
 49
0.0
140
0.0
141
0.0
142
1.0
143
1.0
 70
  1712
 72
     0
 73
     0
 74
     0
  7

 75
     0
147
1.0
148
0.0
149
0.0
100
AcDbLayout
  1
Model
 70
     1
 71
     0
 10
0.0
 20
0.0
 11
12.0
 21
9.0
 12
0.0
 22
0.0
 32
0.0
 14
0.0
 24
0.0
 34
0.0
 15
210.0
 25
297.0
 35
0.0
146
0.0
 13
0.0
 23
0.0
 33
0.0
 16
1.0
 26
0.0
 36
0.0
 17
0.0
 27
1.0
 37
0.0
 76
     0
330
1F
331
29
  0
MATERIAL
  5
3D
102
{ACAD_REACTORS
330
3B
102
}
102
{ACAD_XDICTIONARY
360
1AD
102
}
330
3B
100
AcDbMaterial
  1
ByBlock
  0
MATERIAL
  5
3C
102
{ACAD_REACTORS
330
3B
102
}
102
{ACAD_XDICTIONARY
360
1AB
102
}
330
3B
100
AcDbMaterial
  1
ByLayer
  0
MATERIAL
  5
3E
102
{ACAD_REACTORS
330
3B
102
}
102
{ACAD_XDICTIONARY
360
1AF
102
}
330
3B
100
AcDbMaterial
  1
Global
  0
MLINESTYLE
  5
18
102
{ACAD_REACTORS
330
17
102
}
330
17
100
AcDbMlineStyle
  2
Standard
 70
     0
  3

 62
   256
 51
90.0
 52
90.0
 71
     2
 49
0.5
 62
   256
  6
BYLAYER
 49
-0.5
 62
   256
  6
BYLAYER
  0
ACDBPLACEHOLDER
  5
F
102
{ACAD_REACTORS
330
E
102
}
330
E
  0
VISUALSTYLE
  5
2F
102
{ACAD_REACTORS
330
2A
102
}
102
{ACAD_XDICTIONARY
360
193
102
}
330
2A
100
AcDbVisualStyle
  2
2dWireframe
 70
     4
 71
     0
 72
     2
 73
     0
 90
        0
 40
-0.6
 41
-30.0
 62
     5
 63
     7
 74
     1
 91
        4
 64
     7
 65
   257
 75
     1
175
     1
 42
1.0
 92
        0
 66
   257
 43
1.0
 76
     1
 77
     6
 78
     2
 67
     7
 79
     5
170
     0
171
     0
290
     0
174
     0
 93
        1
 44
0.0
173
     0
291
     0
 45
0.0
1001
ACAD
1000
AcDbSavedByObjectVersion
1070
     0
  0
VISUALSTYLE
  5
31
102
{ACAD_REACTORS
330
2A
102
}
102
{ACAD_XDICTIONARY
360
197
102
}
330
2A
100
AcDbVisualStyle
  2
3D Hidden
 70
     6
 71
     1
 72
     2
 73
     2
 90
        0
 40
-0.6
 41
-30.0
 62
     5
 63
     7
 74
     2
 91
        2
 64
     7
 65
   257
 75
     2
175
     1
 42
40.0
 92
        0
 66
   257
 43
1.0
 76
     1
 77
     6
 78
     2
 67
     7
 79
     3
170
     0
171
     0
290
     0
174
     0
 93
        1
 44
0.0
173
     0
291
     0
 45
0.0
1001
ACAD
1000
AcDbSavedByObjectVersion
1070
     0
  0
VISUALSTYLE
  5
30
102
{ACAD_REACTORS
330
2A
102
}
102
{ACAD_XDICTIONARY
360
195
102
}
330
2A
100
AcDbVisualStyle
  2
3dWireframe
 70
     5
 71
     0
 72
     2
 73
     0
 90
        0
 40
-0.6
 41
-30.0
 62
     5
 63
     7
 74
     1
 91
        4
 64
     7
 65
   257
 75
     1
175
     1
 42
1.0
 92
        0
 66
   257
 43
1.0
 76
     1
 77
     6
 78
     2
 67
     7
 79
     5
170
     0
171
     0
290
     0
174
     0
 93
        1
 44
0.0
173
     0
291
     0
 45
0.0
1001
ACAD
1000
AcDbSavedByObjectVersion
1070
     0
  0
VISUALSTYLE
  5
32
102
{ACAD_REACTORS
330
2A
102
}
102
{ACAD_XDICTIONARY
360
199
102
}
330
2A
100
AcDbVisualStyle
  2
Basic
 70
     7
 71
     1
 72
     0
 73
     1
 90
        0
 40
-0.6
 41
-30.0
 62
     5
 63
     7
 74
     0
 91
        4
 64
     7
 65
   257
 75
     1
175
     1
 42
1.0
 92
        8
 66
     7
 43
1.0
 76
     1
 77
     6
 78
     2
 67
     7
 79
     5
170
     0
171
     0
290
     0
174
     0
 93
        1
 44
0.0
173
     0
291
     1
 45
0.0
1001
ACAD
1000
AcDbSavedByObjectVersion
1070
     0
  0
VISUALSTYLE
  5
36
102
{ACAD_REACTORS
330
2A
102
}
102
{ACAD_XDICTIONARY
360
1A1
102
}
330
2A
100
AcDbVisualStyle
  2
Brighten
 70
    12
 71
     2
 72
     2
 73
     0
 90
        0
 40
-0.6
 41
-30.0
 62
     5
 63
     7
 74
     1
 91
        4
 64
     7
 65
   257
 75
     1
175
     1
 42
1.0
 92
        8
 66
     7
 43
1.0
 76
     1
 77
     6
 78
     2
 67
     7
 79
     5
170
     0
171
     0
290
     0
174
     0
 93
        1
 44
50.0
173
     0
291
     1
 45
0.0
1001
ACAD
1000
AcDbSavedByObjectVersion
1070
     0
  0
VISUALSTYLE
  5
3A
102
{ACAD_REACTORS
330
2A
102
}
102
{ACAD_XDICTIONARY
360
1A9
102
}
330
2A
100
AcDbVisualStyle
  2
ColorChange
 70
    16
 71
     2
 72
     2
 73
     3
 90
        0
 40
-0.6
 41
-30.0
 62
     5
 63
     8
 74
     1
 91
        4
 64
     7
 65
   257
 75
     1
175
     1
 42
1.0
 92
        8
 66
     8
 43
1.0
 76
     1
 77
     6
 78
     2
 67
     7
 79
     5
170
     0
171
     0
290
     0
174
     0
 93
        1
 44
0.0
173
     0
291
     1
 45
0.0
1001
ACAD
1000
AcDbSavedByObjectVersion
1070
     0
  0
VISUALSTYLE
  5
34
102
{ACAD_REACTORS
330
2A
102
}
102
{ACAD_XDICTIONARY
360
19D
102
}
330
2A
100
AcDbVisualStyle
  2
Conceptual
 70
     9
 71
     3
 72
     2
 73
     0
 90
        0
 40
-0.6
 41
-30.0
 62
     5
 63
     7
 74
     2
 91
        2
 64
     7
 65
   257
 75
     1
175
     1
 42
40.0
 92
        8
 66
     7
 43
1.0
 76
     1
 77
     6
 78
     2
 67
     7
 79
     3
170
     0
171
     0
290
     0
174
     0
 93
        1
 44
0.0
173
     0
291
     0
 45
0.0
1001
ACAD
1000
AcDbSavedByObjectVersion
1070
     0
  0
VISUALSTYLE
  5
35
102
{ACAD_REACTORS
330
2A
102
}
102
{ACAD_XDICTIONARY
360
19F
102
}
330
2A
100
AcDbVisualStyle
  2
Dim
 70
    11
 71
     2
 72
     2
 73
     0
 90
        0
 40
-0.6
 41
-30.0
 62
     5
 63
     7
 74
     1
 91
        4
 64
     7
 65
   257
 75
     1
175
     1
 42
1.0
 92
        8
 66
     7
 43
1.0
 76
     1
 77
     6
 78
     2
 67
     7
 79
     5
170
     0
171
     0
290
     0
174
     0
 93
        1
 44
-50.0
173
     0
291
     1
 45
0.0
1001
ACAD
1000
AcDbSavedByObjectVersion
1070
     0
  0
VISUALSTYLE
  5
39
102
{ACAD_REACTORS
330
2A
102
}
102
{ACAD_XDICTIONARY
360
1A7
102
}
330
2A
100
AcDbVisualStyle
  2
Facepattern
 70
    15
 71
     2
 72
     2
 73
     0
 90
        0
 40
-0.6
 41
-30.0
 62
     5
 63
     7
 74
     1
 91
        4
 64
     7
 65
   257
 75
     1
175
     1
 42
1.0
 92
        8
 66
     7
 43
1.0
 76
     1
 77
     6
 78
     2
 67
     7
 79
     5
170
     0
171
     0
290
     0
174
     0
 93
        1
 44
0.0
173
     0
291
     1
 45
0.0
1001
ACAD
1000
AcDbSavedByObjectVersion
1070
     0
  0
VISUALSTYLE
  5
2B
102
{ACAD_REACTORS
330
2A
102
}
102
{ACAD_XDICTIONARY
360
18B
102
}
330
2A
100
AcDbVisualStyle
  2
Flat
 70
     0
 71
     2
 72
     1
 73
     1
 90
        2
 40
-0.6
 41
30.0
 62
     5
 63
     7
 74
     0
 91
        4
 64
     7
 65
   257
 75
     1
175
     1
 42
1.0
 92
        8
 66
     7
 43
1.0
 76
     1
 77
     6
 78
     2
 67
     7
 79
     5
170
     0
171
     0
290
     0
174
     0
 93
       13
 44
0.0
173
     0
291
     1
 45
0.0
1001
ACAD
1000
AcDbSavedByObjectVersion
1070
     0
  0
VISUALSTYLE
  5
2C
102
{ACAD_REACTORS
330
2A
102
}
102
{ACAD_XDICTIONARY
360
18D
102
}
330
2A
100
AcDbVisualStyle
  2
FlatWithEdges
 70
     1
 71
     2
 72
     1
 73
     1
 90
        2
 40
-0.6
 41
30.0
 62
     5
 63
     7
 74
     1
 91
        4
 64
     7
 65
   257
 75
     1
175
     1
 42
1.0
 92
        0
 66
   257
 43
1.0
 76
     1
 77
     6
 78
     2
 67
     7
 79
     5
170
     0
171
     0
290
     0
174
     0
 93
       13
 44
0.0
173
     0
291
     1
 45
0.0
1001
ACAD
1000
AcDbSavedByObjectVersion
1070
     0
  0
VISUALSTYLE
  5
2D
102
{ACAD_REACTORS
330
2A
102
}
102
{ACAD_XDICTIONARY
360
18F
102
}
330
2A
100
AcDbVisualStyle
  2
Gouraud
 70
     2
 71
     2
 72
     2
 73
     1
 90
        2
 40
-0.6
 41
30.0
 62
     5
 63
     7
 74
     0
 91
        4
 64
     7
 65
   257
 75
     1
175
     1
 42
1.0
 92
        0
 66
     7
 43
1.0
 76
     1
 77
     6
 78
     2
 67
     7
 79
     5
170
     0
171
     0
290
     0
174
     0
 93
       13
 44
0.0
173
     0
291
     1
 45
0.0
1001
ACAD
1000
AcDbSavedByObjectVersion
1070
     0
  0
VISUALSTYLE
  5
2E
102
{ACAD_REACTORS
330
2A
102
}
102
{ACAD_XDICTIONARY
360
191
102
}
330
2A
100
AcDbVisualStyle
  2
GouraudWithEdges
 70
     3
 71
     2
 72
     2
 73
     1
 90
        2
 40
-0.6
 41
30.0
 62
     5
 63
     7
 74
     1
 91
        4
 64
     7
 65
   257
 75
     1
175
     1
 42
1.0
 92
        0
 66
   257
 43
1.0
 76
     1
 77
     6
 78
     2
 67
     7
 79
     5
170
     0
171
     0
290
     0
174
     0
 93
       13
 44
0.0
173
     0
291
     1
 45
0.0
1001
ACAD
1000
AcDbSavedByObjectVersion
1070
     0
  0
VISUALSTYLE
  5
38
102
{ACAD_REACTORS
330
2A
102
}
102
{ACAD_XDICTIONARY
360
1A5
102
}
330
2A
100
AcDbVisualStyle
  2
Linepattern
 70
    14
 71
     2
 72
     2
 73
     0
 90
        0
 40
-0.6
 41
-30.0
 62
     5
 63
     7
 74
     1
 91
        4
 64
     7
 65
   257
 75
     7
175
     7
 42
1.0
 92
        8
 66
     7
 43
1.0
 76
     1
 77
     6
 78
     2
 67
     7
 79
     5
170
     0
171
     0
290
     0
174
     0
 93
        1
 44
0.0
173
     0
291
     1
 45
0.0
1001
ACAD
1000
AcDbSavedByObjectVersion
1070
     0
  0
VISUALSTYLE
  5
33
102
{ACAD_REACTORS
330
2A
102
}
102
{ACAD_XDICTIONARY
360
19B
102
}
330
2A
100
AcDbVisualStyle
  2
Realistic
 70
     8
 71
     2
 72
     2
 73
     0
 90
        0
 40
-0.6
 41
-30.0
 62
     5
 63
     7
 74
     1
 91
        0
 64
     7
 65
   257
 75
     1
175
     1
 42
1.0
 92
        8
 66
     8
 43
1.0
 76
     1
 77
     6
 78
     2
 67
     7
 79
     5
170
     0
171
     0
290
     0
174
     0
 93
       13
 44
0.0
173
     0
291
     0
 45
0.0
1001
ACAD
1000
AcDbSavedByObjectVersion
1070
     0
  0
VISUALSTYLE
  5
37
102
{ACAD_REACTORS
330
2A
102
}
102
{ACAD_XDICTIONARY
360
1A3
102
}
330
2A
100
AcDbVisualStyle
  2
Thicken
 70
    13
 71
     2
 72
     2
 73
     0
 90
        0
 40
-0.6
 41
-30.0
 62
     5
 63
     7
 74
     1
 91
        4
 64
     7
 65
   257
 75
     1
175
     1
 42
1.0
 92
       12
 66
     7
 43
1.0
 76
     1
 77
     6
 78
     2
 67
     7
 79
     5
170
     0
171
     0
290
     0
174
     0
 93
        1
 44
0.0
173
     0
291
     1
 45
0.0
1001
ACAD
1000
AcDbSavedByObjectVersion
1070
     0
  0
DICTIONARYVAR
  5
189
102
{ACAD_REACTORS
330
186
102
}
330
186
100
DictionaryVariables
280
     0
  1
2
  0
DICTIONARYVAR
  5
18A
102
{ACAD_REACTORS
330
186
102
}
330
186
100
DictionaryVariables
280
     0
  1
1
  0
DICTIONARY
  5
1AD
330
3D
100
AcDbDictionary
280
     1
281
     1
  3
ACAD_XREC_ROUNDTRIP
360
1AE
  0
DICTIONARY
  5
1AB
330
3C
100
AcDbDictionary
280
     1
281
     1
  3
ACAD_XREC_ROUNDTRIP
360
1AC
  0
DICTIONARY
  5
1AF
330
3E
100
AcDbDictionary
280
     1
281
     1
  3
ACAD_XREC_ROUNDTRIP
360
1B0
  0
DICTIONARY
  5
193
330
2F
100
AcDbDictionary
280
     1
281
     1
  3
ACAD_XREC_ROUNDTRIP
360
194
  0
DICTIONARY
  5
197
330
31
100
AcDbDictionary
280
     1
281
     1
  3
ACAD_XREC_ROUNDTRIP
360
198
  0
DICTIONARY
  5
195
330
30
100
AcDbDictionary
280
     1
281
     1
  3
ACAD_XREC_ROUNDTRIP
360
196
  0
DICTIONARY
  5
199
330
32
100
AcDbDictionary
280
     1
281
     1
  3
ACAD_XREC_ROUNDTRIP
360
19A
  0
DICTIONARY
  5
1A1
330
36
100
AcDbDictionary
280
     1
281
     1
  3
ACAD_XREC_ROUNDTRIP
360
1A2
  0
DICTIONARY
  5
1A9
330
3A
100
AcDbDictionary
280
     1
281
     1
  3
ACAD_XREC_ROUNDTRIP
360
1AA
  0
DICTIONARY
  5
19D
330
34
100
AcDbDictionary
280
     1
281
     1
  3
ACAD_XREC_ROUNDTRIP
360
19E
  0
DICTIONARY
  5
19F
330
35
100
AcDbDictionary
280
     1
281
     1
  3
ACAD_XREC_ROUNDTRIP
360
1A0
  0
DICTIONARY
  5
1A7
330
39
100
AcDbDictionary
280
     1
281
     1
  3
ACAD_XREC_ROUNDTRIP
360
1A8
  0
DICTIONARY
  5
18B
330
2B
100
AcDbDictionary
280
     1
281
     1
  3
ACAD_XREC_ROUNDTRIP
360
18C
  0
DICTIONARY
  5
18D
330
2C
100
AcDbDictionary
280
     1
281
     1
  3
ACAD_XREC_ROUNDTRIP
360
18E
  0
DICTIONARY
  5
18F
330
2D
100
AcDbDictionary
280
     1
281
     1
  3
ACAD_XREC_ROUNDTRIP
360
190
  0
DICTIONARY
  5
191
330
2E
100
AcDbDictionary
280
     1
281
     1
  3
ACAD_XREC_ROUNDTRIP
360
192
  0
DICTIONARY
  5
1A5
330
38
100
AcDbDictionary
280
     1
281
     1
  3
ACAD_XREC_ROUNDTRIP
360
1A6
  0
DICTIONARY
  5
19B
330
33
100
AcDbDictionary
280
     1
281
     1
  3
ACAD_XREC_ROUNDTRIP
360
19C
  0
DICTIONARY
  5
1A3
330
37
100
AcDbDictionary
280
     1
281
     1
  3
ACAD_XREC_ROUNDTRIP
360
1A4
  0
XRECORD
  5
1AE
102
{ACAD_REACTORS
330
1AD
102
}
330
1AD
100
AcDbXrecord
280
     1
102
MATERIAL
148
0.0
149
0.0
149
0.0
 93
        0
 94
      127
282
     0
 72
     1
 77
     1
171
     1
175
     1
179
     1
273
     0
  0
XRECORD
  5
1AC
102
{ACAD_REACTORS
330
1AB
102
}
330
1AB
100
AcDbXrecord
280
     1
102
MATERIAL
148
0.0
149
0.0
149
0.0
 93
        0
 94
      127
282
     0
 72
     1
 77
     1
171
     1
175
     1
179
     1
273
     0
  0
XRECORD
  5
1B0
102
{ACAD_REACTORS
330
1AF
102
}
330
1AF
100
AcDbXrecord
280
     1
102
MATERIAL
148
0.0
149
0.0
149
0.0
 93
        0
 94
      127
282
     0
 72
     1
 77
     1
171
     1
175
     1
179
     1
273
     0
  0
XRECORD
  5
194
102
{ACAD_REACTORS
330
193
102
}
330
193
100
AcDbXrecord
280
     1
102
RTVSPropertyOp0
 70
     1
102
RTVSPropertyOp1
 70
     1
102
RTVSPropertyOp2
 70
     1
102
RTVSPropertyOp3
 70
     1
102
RTVSPropertyOp4
 70
     1
102
RTVSPropertyOp5
 70
     1
102
RTVSPropertyOp6
 70
     1
102
RTVSPropertyOp7
 70
     1
102
RTVSPropertyOp8
 70
     1
102
RTVSPropertyOp9
 70
     1
102
RTVSPropertyOp10
 70
     1
102
RTVSPropertyOp11
 70
     1
102
RTVSPropertyOp12
 70
     1
102
RTVSPropertyOp13
 70
     1
102
RTVSPropertyOp14
 70
     1
102
RTVSPropertyOp15
 70
     1
102
RTVSPropertyOp16
 70
     1
102
RTVSPropertyOp17
 70
     1
102
RTVSPropertyOp18
 70
     1
102
RTVSPropertyOp19
 70
     1
102
RTVSPropertyOp20
 70
     1
102
RTVSPropertyOp21
 70
     1
102
RTVSPropertyOp22
 70
     1
102
RTVSPropertyOp23
 70
     1
102
RTVSPropertyOp24
 70
     1
102
RTVSPropertyOp25
 70
     1
102
RTVSPropertyOp26
 70
     1
102
RTVSPropertyOp27
 70
     1
102
RTVSPropertyOp28
 70
     1
102
RTVSPropertyOp29
 70
     1
102
RTVSPropertyOp30
 70
     1
102
RTVSPropertyOp31
 70
     1
102
RTVSPropertyOp32
 70
     1
  0
XRECORD
  5
198
102
{ACAD_REACTORS
330
197
102
}
330
197
100
AcDbXrecord
280
     1
102
RTVSPropertyOp0
 70
     1
102
RTVSPropertyOp1
 70
     1
102
RTVSPropertyOp2
 70
     1
102
RTVSPropertyOp3
 70
     1
102
RTVSPropertyOp4
 70
     1
102
RTVSPropertyOp5
 70
     1
102
RTVSPropertyOp6
 70
     1
102
RTVSPropertyOp7
 70
     1
102
RTVSPropertyOp8
 70
     1
102
RTVSPropertyOp9
 70
     1
102
RTVSPropertyOp10
 70
     1
102
RTVSPropertyOp11
 70
     1
102
RTVSPropertyOp12
 70
     1
102
RTVSPropertyOp13
 70
     1
102
RTVSPropertyOp14
 70
     1
102
RTVSPropertyOp15
 70
     1
102
RTVSPropertyOp16
 70
     1
102
RTVSPropertyOp17
 70
     1
102
RTVSPropertyOp18
 70
     1
102
RTVSPropertyOp19
 70
     1
102
RTVSPropertyOp20
 70
     1
102
RTVSPropertyOp21
 70
     1
102
RTVSPropertyOp22
 70
     1
102
RTVSPropertyOp23
 70
     1
102
RTVSPropertyOp24
 70
     1
102
RTVSPropertyOp25
 70
     1
102
RTVSPropertyOp26
 70
     1
102
RTVSPropertyOp27
 70
     1
102
RTVSPropertyOp28
 70
     1
102
RTVSPropertyOp29
 70
     1
102
RTVSPropertyOp30
 70
     1
102
RTVSPropertyOp31
 70
     1
102
RTVSPropertyOp32
 70
     1
  0
XRECORD
  5
196
102
{ACAD_REACTORS
330
195
102
}
330
195
100
AcDbXrecord
280
     1
102
RTVSPropertyOp0
 70
     1
102
RTVSPropertyOp1
 70
     1
102
RTVSPropertyOp2
 70
     1
102
RTVSPropertyOp3
 70
     1
102
RTVSPropertyOp4
 70
     1
102
RTVSPropertyOp5
 70
     1
102
RTVSPropertyOp6
 70
     1
102
RTVSPropertyOp7
 70
     1
102
RTVSPropertyOp8
 70
     1
102
RTVSPropertyOp9
 70
     1
102
RTVSPropertyOp10
 70
     1
102
RTVSPropertyOp11
 70
     1
102
RTVSPropertyOp12
 70
     1
102
RTVSPropertyOp13
 70
     1
102
RTVSPropertyOp14
 70
     1
102
RTVSPropertyOp15
 70
     1
102
RTVSPropertyOp16
 70
     1
102
RTVSPropertyOp17
 70
     1
102
RTVSPropertyOp18
 70
     1
102
RTVSPropertyOp19
 70
     1
102
RTVSPropertyOp20
 70
     1
102
RTVSPropertyOp21
 70
     1
102
RTVSPropertyOp22
 70
     1
102
RTVSPropertyOp23
 70
     1
102
RTVSPropertyOp24
 70
     1
102
RTVSPropertyOp25
 70
     1
102
RTVSPropertyOp26
 70
     1
102
RTVSPropertyOp27
 70
     1
102
RTVSPropertyOp28
 70
     1
102
RTVSPropertyOp29
 70
     1
102
RTVSPropertyOp30
 70
     1
102
RTVSPropertyOp31
 70
     1
102
RTVSPropertyOp32
 70
     1
  0
XRECORD
  5
19A
102
{ACAD_REACTORS
330
199
102
}
330
199
100
AcDbXrecord
280
     1
102
RTVSPropertyOp0
 70
     1
102
RTVSPropertyOp1
 70
     1
102
RTVSPropertyOp2
 70
     1
102
RTVSPropertyOp3
 70
     1
102
RTVSPropertyOp4
 70
     1
102
RTVSPropertyOp5
 70
     1
102
RTVSPropertyOp6
 70
     1
102
RTVSPropertyOp7
 70
     1
102
RTVSPropertyOp8
 70
     1
102
RTVSPropertyOp9
 70
     1
102
RTVSPropertyOp10
 70
     1
102
RTVSPropertyOp11
 70
     1
102
RTVSPropertyOp12
 70
     1
102
RTVSPropertyOp13
 70
     1
102
RTVSPropertyOp14
 70
     1
102
RTVSPropertyOp15
 70
     1
102
RTVSPropertyOp16
 70
     1
102
RTVSPropertyOp17
 70
     1
102
RTVSPropertyOp18
 70
     1
102
RTVSPropertyOp19
 70
     1
102
RTVSPropertyOp20
 70
     1
102
RTVSPropertyOp21
 70
     1
102
RTVSPropertyOp22
 70
     1
102
RTVSPropertyOp23
 70
     1
102
RTVSPropertyOp24
 70
     1
102
RTVSPropertyOp25
 70
     1
102
RTVSPropertyOp26
 70
     1
102
RTVSPropertyOp27
 70
     1
102
RTVSPropertyOp28
 70
     1
102
RTVSPropertyOp29
 70
     1
102
RTVSPropertyOp30
 70
     1
102
RTVSPropertyOp31
 70
     1
102
RTVSPropertyOp32
 70
     1
  0
XRECORD
  5
1A2
102
{ACAD_REACTORS
330
1A1
102
}
330
1A1
100
AcDbXrecord
280
     1
102
RTVSPropertyOp0
 70
     1
102
RTVSPropertyOp1
 70
     1
102
RTVSPropertyOp2
 70
     1
102
RTVSPropertyOp3
 70
     1
102
RTVSPropertyOp4
 70
     1
102
RTVSPropertyOp5
 70
     1
102
RTVSPropertyOp6
 70
     1
102
RTVSPropertyOp7
 70
     1
102
RTVSPropertyOp8
 70
     1
102
RTVSPropertyOp9
 70
     1
102
RTVSPropertyOp10
 70
     1
102
RTVSPropertyOp11
 70
     1
102
RTVSPropertyOp12
 70
     1
102
RTVSPropertyOp13
 70
     1
102
RTVSPropertyOp14
 70
     1
102
RTVSPropertyOp15
 70
     1
102
RTVSPropertyOp16
 70
     1
102
RTVSPropertyOp17
 70
     1
102
RTVSPropertyOp18
 70
     1
102
RTVSPropertyOp19
 70
     1
102
RTVSPropertyOp20
 70
     1
102
RTVSPropertyOp21
 70
     1
102
RTVSPropertyOp22
 70
     1
102
RTVSPropertyOp23
 70
     1
102
RTVSPropertyOp24
 70
     1
102
RTVSPropertyOp25
 70
     1
102
RTVSPropertyOp26
 70
     1
102
RTVSPropertyOp27
 70
     1
102
RTVSPropertyOp28
 70
     1
102
RTVSPropertyOp29
 70
     1
102
RTVSPropertyOp30
 70
     1
102
RTVSPropertyOp31
 70
     1
102
RTVSPropertyOp32
 70
     1
  0
XRECORD
  5
1AA
102
{ACAD_REACTORS
330
1A9
102
}
330
1A9
100
AcDbXrecord
280
     1
102
RTVSPropertyOp0
 70
     1
102
RTVSPropertyOp1
 70
     1
102
RTVSPropertyOp2
 70
     1
102
RTVSPropertyOp3
 70
     1
102
RTVSPropertyOp4
 70
     1
102
RTVSPropertyOp5
 70
     1
102
RTVSPropertyOp6
 70
     1
102
RTVSPropertyOp7
 70
     1
102
RTVSPropertyOp8
 70
     1
102
RTVSPropertyOp9
 70
     1
102
RTVSPropertyOp10
 70
     1
102
RTVSPropertyOp11
 70
     1
102
RTVSPropertyOp12
 70
     1
102
RTVSPropertyOp13
 70
     1
102
RTVSPropertyOp14
 70
     1
102
RTVSPropertyOp15
 70
     1
102
RTVSPropertyOp16
 70
     1
102
RTVSPropertyOp17
 70
     1
102
RTVSPropertyOp18
 70
     1
102
RTVSPropertyOp19
 70
     1
102
RTVSPropertyOp20
 70
     1
102
RTVSPropertyOp21
 70
     1
102
RTVSPropertyOp22
 70
     1
102
RTVSPropertyOp23
 70
     1
102
RTVSPropertyOp24
 70
     1
102
RTVSPropertyOp25
 70
     1
102
RTVSPropertyOp26
 70
     1
102
RTVSPropertyOp27
 70
     1
102
RTVSPropertyOp28
 70
     1
102
RTVSPropertyOp29
 70
     1
102
RTVSPropertyOp30
 70
     1
102
RTVSPropertyOp31
 70
     1
102
RTVSPropertyOp32
 70
     1
  0
XRECORD
  5
19E
102
{ACAD_REACTORS
330
19D
102
}
330
19D
100
AcDbXrecord
280
     1
102
RTVSPropertyOp0
 70
     1
102
RTVSPropertyOp1
 70
     1
102
RTVSPropertyOp2
 70
     1
102
RTVSPropertyOp3
 70
     1
102
RTVSPropertyOp4
 70
     1
102
RTVSPropertyOp5
 70
     1
102
RTVSPropertyOp6
 70
     1
102
RTVSPropertyOp7
 70
     1
102
RTVSPropertyOp8
 70
     1
102
RTVSPropertyOp9
 70
     1
102
RTVSPropertyOp10
 70
     1
102
RTVSPropertyOp11
 70
     1
102
RTVSPropertyOp12
 70
     1
102
RTVSPropertyOp13
 70
     1
102
RTVSPropertyOp14
 70
     1
102
RTVSPropertyOp15
 70
     1
102
RTVSPropertyOp16
 70
     1
102
RTVSPropertyOp17
 70
     1
102
RTVSPropertyOp18
 70
     1
102
RTVSPropertyOp19
 70
     1
102
RTVSPropertyOp20
 70
     1
102
RTVSPropertyOp21
 70
     1
102
RTVSPropertyOp22
 70
     1
102
RTVSPropertyOp23
 70
     1
102
RTVSPropertyOp24
 70
     1
102
RTVSPropertyOp25
 70
     1
102
RTVSPropertyOp26
 70
     1
102
RTVSPropertyOp27
 70
     1
102
RTVSPropertyOp28
 70
     1
102
RTVSPropertyOp29
 70
     1
102
RTVSPropertyOp30
 70
     1
102
RTVSPropertyOp31
 70
     1
102
RTVSPropertyOp32
 70
     1
  0
XRECORD
  5
1A0
102
{ACAD_REACTORS
330
19F
102
}
330
19F
100
AcDbXrecord
280
     1
102
RTVSPropertyOp0
 70
     1
102
RTVSPropertyOp1
 70
     1
102
RTVSPropertyOp2
 70
     1
102
RTVSPropertyOp3
 70
     1
102
RTVSPropertyOp4
 70
     1
102
RTVSPropertyOp5
 70
     1
102
RTVSPropertyOp6
 70
     1
102
RTVSPropertyOp7
 70
     1
102
RTVSPropertyOp8
 70
     1
102
RTVSPropertyOp9
 70
     1
102
RTVSPropertyOp10
 70
     1
102
RTVSPropertyOp11
 70
     1
102
RTVSPropertyOp12
 70
     1
102
RTVSPropertyOp13
 70
     1
102
RTVSPropertyOp14
 70
     1
102
RTVSPropertyOp15
 70
     1
102
RTVSPropertyOp16
 70
     1
102
RTVSPropertyOp17
 70
     1
102
RTVSPropertyOp18
 70
     1
102
RTVSPropertyOp19
 70
     1
102
RTVSPropertyOp20
 70
     1
102
RTVSPropertyOp21
 70
     1
102
RTVSPropertyOp22
 70
     1
102
RTVSPropertyOp23
 70
     1
102
RTVSPropertyOp24
 70
     1
102
RTVSPropertyOp25
 70
     1
102
RTVSPropertyOp26
 70
     1
102
RTVSPropertyOp27
 70
     1
102
RTVSPropertyOp28
 70
     1
102
RTVSPropertyOp29
 70
     1
102
RTVSPropertyOp30
 70
     1
102
RTVSPropertyOp31
 70
     1
102
RTVSPropertyOp32
 70
     1
  0
XRECORD
  5
1A8
102
{ACAD_REACTORS
330
1A7
102
}
330
1A7
100
AcDbXrecord
280
     1
102
RTVSPropertyOp0
 70
     1
102
RTVSPropertyOp1
 70
     1
102
RTVSPropertyOp2
 70
     1
102
RTVSPropertyOp3
 70
     1
102
RTVSPropertyOp4
 70
     1
102
RTVSPropertyOp5
 70
     1
102
RTVSPropertyOp6
 70
     1
102
RTVSPropertyOp7
 70
     1
102
RTVSPropertyOp8
 70
     1
102
RTVSPropertyOp9
 70
     1
102
RTVSPropertyOp10
 70
     1
102
RTVSPropertyOp11
 70
     1
102
RTVSPropertyOp12
 70
     1
102
RTVSPropertyOp13
 70
     1
102
RTVSPropertyOp14
 70
     1
102
RTVSPropertyOp15
 70
     1
102
RTVSPropertyOp16
 70
     1
102
RTVSPropertyOp17
 70
     1
102
RTVSPropertyOp18
 70
     1
102
RTVSPropertyOp19
 70
     1
102
RTVSPropertyOp20
 70
     1
102
RTVSPropertyOp21
 70
     1
102
RTVSPropertyOp22
 70
     1
102
RTVSPropertyOp23
 70
     1
102
RTVSPropertyOp24
 70
     1
102
RTVSPropertyOp25
 70
     1
102
RTVSPropertyOp26
 70
     1
102
RTVSPropertyOp27
 70
     1
102
RTVSPropertyOp28
 70
     1
102
RTVSPropertyOp29
 70
     1
102
RTVSPropertyOp30
 70
     1
102
RTVSPropertyOp31
 70
     1
102
RTVSPropertyOp32
 70
     1
  0
XRECORD
  5
18C
102
{ACAD_REACTORS
330
18B
102
}
330
18B
100
AcDbXrecord
280
     1
102
RTVSPropertyOp0
 70
     1
102
RTVSPropertyOp1
 70
     1
102
RTVSPropertyOp2
 70
     1
102
RTVSPropertyOp3
 70
     1
102
RTVSPropertyOp4
 70
     1
102
RTVSPropertyOp5
 70
     1
102
RTVSPropertyOp6
 70
     1
102
RTVSPropertyOp7
 70
     1
102
RTVSPropertyOp8
 70
     1
102
RTVSPropertyOp9
 70
     1
102
RTVSPropertyOp10
 70
     1
102
RTVSPropertyOp11
 70
     1
102
RTVSPropertyOp12
 70
     1
102
RTVSPropertyOp13
 70
     1
102
RTVSPropertyOp14
 70
     1
102
RTVSPropertyOp15
 70
     1
102
RTVSPropertyOp16
 70
     1
102
RTVSPropertyOp17
 70
     1
102
RTVSPropertyOp18
 70
     1
102
RTVSPropertyOp19
 70
     1
102
RTVSPropertyOp20
 70
     1
102
RTVSPropertyOp21
 70
     1
102
RTVSPropertyOp22
 70
     1
102
RTVSPropertyOp23
 70
     1
102
RTVSPropertyOp24
 70
     1
102
RTVSPropertyOp25
 70
     1
102
RTVSPropertyOp26
 70
     1
102
RTVSPropertyOp27
 70
     1
102
RTVSPropertyOp28
 70
     1
102
RTVSPropertyOp29
 70
     1
102
RTVSPropertyOp30
 70
     1
102
RTVSPropertyOp31
 70
     1
102
RTVSPropertyOp32
 70
     1
  0
XRECORD
  5
18E
102
{ACAD_REACTORS
330
18D
102
}
330
18D
100
AcDbXrecord
280
     1
102
RTVSPropertyOp0
 70
     1
102
RTVSPropertyOp1
 70
     1
102
RTVSPropertyOp2
 70
     1
102
RTVSPropertyOp3
 70
     1
102
RTVSPropertyOp4
 70
     1
102
RTVSPropertyOp5
 70
     1
102
RTVSPropertyOp6
 70
     1
102
RTVSPropertyOp7
 70
     1
102
RTVSPropertyOp8
 70
     1
102
RTVSPropertyOp9
 70
     1
102
RTVSPropertyOp10
 70
     1
102
RTVSPropertyOp11
 70
     1
102
RTVSPropertyOp12
 70
     1
102
RTVSPropertyOp13
 70
     1
102
RTVSPropertyOp14
 70
     1
102
RTVSPropertyOp15
 70
     1
102
RTVSPropertyOp16
 70
     1
102
RTVSPropertyOp17
 70
     1
102
RTVSPropertyOp18
 70
     1
102
RTVSPropertyOp19
 70
     1
102
RTVSPropertyOp20
 70
     1
102
RTVSPropertyOp21
 70
     1
102
RTVSPropertyOp22
 70
     1
102
RTVSPropertyOp23
 70
     1
102
RTVSPropertyOp24
 70
     1
102
RTVSPropertyOp25
 70
     1
102
RTVSPropertyOp26
 70
     1
102
RTVSPropertyOp27
 70
     1
102
RTVSPropertyOp28
 70
     1
102
RTVSPropertyOp29
 70
     1
102
RTVSPropertyOp30
 70
     1
102
RTVSPropertyOp31
 70
     1
102
RTVSPropertyOp32
 70
     1
  0
XRECORD
  5
190
102
{ACAD_REACTORS
330
18F
102
}
330
18F
100
AcDbXrecord
280
     1
102
RTVSPropertyOp0
 70
     1
102
RTVSPropertyOp1
 70
     1
102
RTVSPropertyOp2
 70
     1
102
RTVSPropertyOp3
 70
     1
102
RTVSPropertyOp4
 70
     1
102
RTVSPropertyOp5
 70
     1
102
RTVSPropertyOp6
 70
     1
102
RTVSPropertyOp7
 70
     1
102
RTVSPropertyOp8
 70
     1
102
RTVSPropertyOp9
 70
     1
102
RTVSPropertyOp10
 70
     1
102
RTVSPropertyOp11
 70
     1
102
RTVSPropertyOp12
 70
     1
102
RTVSPropertyOp13
 70
     1
102
RTVSPropertyOp14
 70
     1
102
RTVSPropertyOp15
 70
     1
102
RTVSPropertyOp16
 70
     1
102
RTVSPropertyOp17
 70
     1
102
RTVSPropertyOp18
 70
     1
102
RTVSPropertyOp19
 70
     1
102
RTVSPropertyOp20
 70
     1
102
RTVSPropertyOp21
 70
     1
102
RTVSPropertyOp22
 70
     1
102
RTVSPropertyOp23
 70
     1
102
RTVSPropertyOp24
 70
     1
102
RTVSPropertyOp25
 70
     1
102
RTVSPropertyOp26
 70
     1
102
RTVSPropertyOp27
 70
     1
102
RTVSPropertyOp28
 70
     1
102
RTVSPropertyOp29
 70
     1
102
RTVSPropertyOp30
 70
     1
102
RTVSPropertyOp31
 70
     1
102
RTVSPropertyOp32
 70
     1
  0
XRECORD
  5
192
102
{ACAD_REACTORS
330
191
102
}
330
191
100
AcDbXrecord
280
     1
102
RTVSPropertyOp0
 70
     1
102
RTVSPropertyOp1
 70
     1
102
RTVSPropertyOp2
 70
     1
102
RTVSPropertyOp3
 70
     1
102
RTVSPropertyOp4
 70
     1
102
RTVSPropertyOp5
 70
     1
102
RTVSPropertyOp6
 70
     1
102
RTVSPropertyOp7
 70
     1
102
RTVSPropertyOp8
 70
     1
102
RTVSPropertyOp9
 70
     1
102
RTVSPropertyOp10
 70
     1
102
RTVSPropertyOp11
 70
     1
102
RTVSPropertyOp12
 70
     1
102
RTVSPropertyOp13
 70
     1
102
RTVSPropertyOp14
 70
     1
102
RTVSPropertyOp15
 70
     1
102
RTVSPropertyOp16
 70
     1
102
RTVSPropertyOp17
 70
     1
102
RTVSPropertyOp18
 70
     1
102
RTVSPropertyOp19
 70
     1
102
RTVSPropertyOp20
 70
     1
102
RTVSPropertyOp21
 70
     1
102
RTVSPropertyOp22
 70
     1
102
RTVSPropertyOp23
 70
     1
102
RTVSPropertyOp24
 70
     1
102
RTVSPropertyOp25
 70
     1
102
RTVSPropertyOp26
 70
     1
102
RTVSPropertyOp27
 70
     1
102
RTVSPropertyOp28
 70
     1
102
RTVSPropertyOp29
 70
     1
102
RTVSPropertyOp30
 70
     1
102
RTVSPropertyOp31
 70
     1
102
RTVSPropertyOp32
 70
     1
  0
XRECORD
  5
1A6
102
{ACAD_REACTORS
330
1A5
102
}
330
1A5
100
AcDbXrecord
280
     1
102
RTVSPropertyOp0
 70
     1
102
RTVSPropertyOp1
 70
     1
102
RTVSPropertyOp2
 70
     1
102
RTVSPropertyOp3
 70
     1
102
RTVSPropertyOp4
 70
     1
102
RTVSPropertyOp5
 70
     1
102
RTVSPropertyOp6
 70
     1
102
RTVSPropertyOp7
 70
     1
102
RTVSPropertyOp8
 70
     1
102
RTVSPropertyOp9
 70
     1
102
RTVSPropertyOp10
 70
     1
102
RTVSPropertyOp11
 70
     1
102
RTVSPropertyOp12
 70
     1
102
RTVSPropertyOp13
 70
     1
102
RTVSPropertyOp14
 70
     1
102
RTVSPropertyOp15
 70
     1
102
RTVSPropertyOp16
 70
     1
102
RTVSPropertyOp17
 70
     1
102
RTVSPropertyOp18
 70
     1
102
RTVSPropertyOp19
 70
     1
102
RTVSPropertyOp20
 70
     1
102
RTVSPropertyOp21
 70
     1
102
RTVSPropertyOp22
 70
     1
102
RTVSPropertyOp23
 70
     1
102
RTVSPropertyOp24
 70
     1
102
RTVSPropertyOp25
 70
     1
102
RTVSPropertyOp26
 70
     1
102
RTVSPropertyOp27
 70
     1
102
RTVSPropertyOp28
 70
     1
102
RTVSPropertyOp29
 70
     1
102
RTVSPropertyOp30
 70
     1
102
RTVSPropertyOp31
 70
     1
102
RTVSPropertyOp32
 70
     1
  0
XRECORD
  5
19C
102
{ACAD_REACTORS
330
19B
102
}
330
19B
100
AcDbXrecord
280
     1
102
RTVSPropertyOp0
 70
     1
102
RTVSPropertyOp1
 70
     1
102
RTVSPropertyOp2
 70
     1
102
RTVSPropertyOp3
 70
     1
102
RTVSPropertyOp4
 70
     1
102
RTVSPropertyOp5
 70
     1
102
RTVSPropertyOp6
 70
     1
102
RTVSPropertyOp7
 70
     1
102
RTVSPropertyOp8
 70
     1
102
RTVSPropertyOp9
 70
     1
102
RTVSPropertyOp10
 70
     1
102
RTVSPropertyOp11
 70
     1
102
RTVSPropertyOp12
 70
     1
102
RTVSPropertyOp13
 70
     1
102
RTVSPropertyOp14
 70
     1
102
RTVSPropertyOp15
 70
     1
102
RTVSPropertyOp16
 70
     1
102
RTVSPropertyOp17
 70
     1
102
RTVSPropertyOp18
 70
     1
102
RTVSPropertyOp19
 70
     1
102
RTVSPropertyOp20
 70
     1
102
RTVSPropertyOp21
 70
     1
102
RTVSPropertyOp22
 70
     1
102
RTVSPropertyOp23
 70
     1
102
RTVSPropertyOp24
 70
     1
102
RTVSPropertyOp25
 70
     1
102
RTVSPropertyOp26
 70
     1
102
RTVSPropertyOp27
 70
     1
102
RTVSPropertyOp28
 70
     1
102
RTVSPropertyOp29
 70
     1
102
RTVSPropertyOp30
 70
     1
102
RTVSPropertyOp31
 70
     1
102
RTVSPropertyOp32
 70
     1
  0
XRECORD
  5
1A4
102
{ACAD_REACTORS
330
1A3
102
}
330
1A3
100
AcDbXrecord
280
     1
102
RTVSPropertyOp0
 70
     1
102
RTVSPropertyOp1
 70
     1
102
RTVSPropertyOp2
 70
     1
102
RTVSPropertyOp3
 70
     1
102
RTVSPropertyOp4
 70
     1
102
RTVSPropertyOp5
 70
     1
102
RTVSPropertyOp6
 70
     1
102
RTVSPropertyOp7
 70
     1
102
RTVSPropertyOp8
 70
     1
102
RTVSPropertyOp9
 70
     1
102
RTVSPropertyOp10
 70
     1
102
RTVSPropertyOp11
 70
     1
102
RTVSPropertyOp12
 70
     1
102
RTVSPropertyOp13
 70
     1
102
RTVSPropertyOp14
 70
     1
102
RTVSPropertyOp15
 70
     1
102
RTVSPropertyOp16
 70
     1
102
RTVSPropertyOp17
 70
     1
102
RTVSPropertyOp18
 70
     1
102
RTVSPropertyOp19
 70
     1
102
RTVSPropertyOp20
 70
     1
102
RTVSPropertyOp21
 70
     1
102
RTVSPropertyOp22
 70
     1
102
RTVSPropertyOp23
 70
     1
102
RTVSPropertyOp24
 70
     1
102
RTVSPropertyOp25
 70
     1
102
RTVSPropertyOp26
 70
     1
102
RTVSPropertyOp27
 70
     1
102
RTVSPropertyOp28
 70
     1
102
RTVSPropertyOp29
 70
     1
102
RTVSPropertyOp30
 70
     1
102
RTVSPropertyOp31
 70
     1
102
RTVSPropertyOp32
 70
     1
  0
ENDSEC
  0
EOF
