  0
SECTION
  2
HEADER
  9
$ACADVER
  1
AC1015
  9
$ACADMAINTVER
 70
     6
  9
$DWGCODEPAGE
  3
ANSI_932
  9
$INSBASE
 10
0.0
 20
0.0
 30
0.0
  9
$EXTMIN
 10
0.0
 20
0.0
 30
0.0
  9
$EXTMAX
 10
210.0
 20
297.0
 30
0.0
  9
$LIMMIN
 10
0.0
 20
0.0
  9
$LIMMAX
 10
12.0
 20
9.0
  9
$ORTHOMODE
 70
     0
  9
$REGENMODE
 70
     1
  9
$FILLMODE
 70
     1
  9
$QTEXTMODE
 70
     0
  9
$MIRRTEXT
 70
     1
  9
$LTSCALE
 40
1.0
  9
$ATTMODE
 70
     1
  9
$TEXTSIZE
 40
0.2
  9
$TRACEWID
 40
0.05
  9
$TEXTSTYLE
  7
Standard
  9
$CLAYER
  8
0
  9
$CELTYPE
  6
ByLayer
  9
$CECOLOR
 62
   256
  9
$CELTSCALE
 40
1.0
  9
$DISPSILH
 70
     0
  9
$DIMSCALE
 40
1.0
  9
$DIMASZ
 40
0.18
  9
$DIMEXO
 40
0.0625
  9
$DIMDLI
 40
0.38
  9
$DIMRND
 40
0.0
  9
$DIMDLE
 40
0.0
  9
$DIMEXE
 40
0.18
  9
$DIMTP
 40
0.0
  9
$DIMTM
 40
0.0
  9
$DIMTXT
 40
0.18
  9
$DIMCEN
 40
0.09
  9
$DIMTSZ
 40
0.0
  9
$DIMTOL
 70
     0
  9
$DIMLIM
 70
     0
  9
$DIMTIH
 70
     1
  9
$DIMTOH
 70
     1
  9
$DIMSE1
 70
     0
  9
$DIMSE2
 70
     0
  9
$DIMTAD
 70
     0
  9
$DIMZIN
 70
     0
  9
$DIMBLK
  1

  9
$DIMASO
 70
     1
  9
$DIMSHO
 70
     1
  9
$DIMPOST
  1

  9
$DIMAPOST
  1

  9
$DIMALT
 70
     0
  9
$DIMALTD
 70
     2
  9
$DIMALTF
 40
25.4
  9
$DIMLFAC
 40
1.0
  9
$DIMTOFL
 70
     0
  9
$DIMTVP
 40
0.0
  9
$DIMTIX
 70
     0
  9
$DIMSOXD
 70
     0
  9
$DIMSAH
 70
     0
  9
$DIMBLK1
  1

  9
$DIMBLK2
  1

  9
$DIMSTYLE
  2
Standard
  9
$DIMCLRD
 70
     0
  9
$DIMCLRE
 70
     0
  9
$DIMCLRT
 70
     0
  9
$DIMTFAC
 40
1.0
  9
$DIMGAP
 40
0.09
  9
$DIMJUST
 70
     0
  9
$DIMSD1
 70
     0
  9
$DIMSD2
 70
     0
  9
$DIMTOLJ
 70
     1
  9
$DIMTZIN
 70
     0
  9
$DIMALTZ
 70
     0
  9
$DIMALTTZ
 70
     0
  9
$DIMUPT
 70
     0
  9
$DIMDEC
 70
     4
  9
$DIMTDEC
 70
     4
  9
$DIMALTU
 70
     2
  9
$DIMALTTD
 70
     2
  9
$DIMTXSTY
  7
Standard
  9
$DIMAUNIT
 70
     0
  9
$DIMADEC
 70
     0
  9
$DIMALTRND
 40
0.0
  9
$DIMAZIN
 70
     0
  9
$DIMDSEP
 70
    46
  9
$DIMATFIT
 70
     3
  9
$DIMFRAC
 70
     0
  9
$DIMLDRBLK
  1

  9
$DIMLUNIT
 70
     2
  9
$DIMLWD
 70
    -2
  9
$DIMLWE
 70
    -2
  9
$DIMTMOVE
 70
     0
  9
$LUNITS
 70
     2
  9
$LUPREC
 70
     4
  9
$SKETCHINC
 40
0.1
  9
$FILLETRAD
 40
0.5
  9
$AUNITS
 70
     0
  9
$AUPREC
 70
     0
  9
$MENU
  1
.
  9
$ELEVATION
 40
0.0
  9
$PELEVATION
 40
0.0
  9
$THICKNESS
 40
0.0
  9
$LIMCHECK
 70
     0
  9
$CHAMFERA
 40
0.5
  9
$CHAMFERB
 40
0.5
  9
$CHAMFERC
 40
1.0
  9
$CHAMFERD
 40
0.0
  9
$SKPOLY
 70
     0
  9
$TDCREATE
 40
2460362.587524711
  9
$TDUCREATE
 40
2460362.212524711
  9
$TDUPDATE
 40
2460362.587525972
  9
$TDUUPDATE
 40
2460362.212525972
  9
$TDINDWG
 40
0.0000000116
  9
$TDUSRTIMER
 40
0.0000000116
  9
$USRTIMER
 70
     1
  9
$ANGBASE
 50
0.0
  9
$ANGDIR
 70
     0
  9
$PDMODE
 70
     0
  9
$PDSIZE
 40
0.0
  9
$PLINEWID
 40
0.0
  9
$SPLFRAME
 70
     0
  9
$SPLINETYPE
 70
     6
  9
$SPLINESEGS
 70
     8
  9
$HANDSEED
  5
1D0
  9
$SURFTAB1
 70
     6
  9
$SURFTAB2
 70
     6
  9
$SURFTYPE
 70
     6
  9
$SURFU
 70
     6
  9
$SURFV
 70
     6
  9
$UCSBASE
  2

  9
$UCSNAME
  2

  9
$UCSORG
 10
0.0
 20
0.0
 30
0.0
  9
$UCSXDIR
 10
1.0
 20
0.0
 30
0.0
  9
$UCSYDIR
 10
0.0
 20
1.0
 30
0.0
  9
$UCSORTHOREF
  2

  9
$UCSORTHOVIEW
 70
     0
  9
$UCSORGTOP
 10
0.0
 20
0.0
 30
0.0
  9
$UCSORGBOTTOM
 10
0.0
 20
0.0
 30
0.0
  9
$UCSORGLEFT
 10
0.0
 20
0.0
 30
0.0
  9
$UCSORGRIGHT
 10
0.0
 20
0.0
 30
0.0
  9
$UCSORGFRONT
 10
0.0
 20
0.0
 30
0.0
  9
$UCSORGBACK
 10
0.0
 20
0.0
 30
0.0
  9
$PUCSBASE
  2

  9
$PUCSNAME
  2

  9
$PUCSORG
 10
0.0
 20
0.0
 30
0.0
  9
$PUCSXDIR
 10
1.0
 20
0.0
 30
0.0
  9
$PUCSYDIR
 10
0.0
 20
1.0
 30
0.0
  9
$PUCSORTHOREF
  2

  9
$PUCSORTHOVIEW
 70
     0
  9
$PUCSORGTOP
 10
0.0
 20
0.0
 30
0.0
  9
$PUCSORGBOTTOM
 10
0.0
 20
0.0
 30
0.0
  9
$PUCSORGLEFT
 10
0.0
 20
0.0
 30
0.0
  9
$PUCSORGRIGHT
 10
0.0
 20
0.0
 30
0.0
  9
$PUCSORGFRONT
 10
0.0
 20
0.0
 30
0.0
  9
$PUCSORGBACK
 10
0.0
 20
0.0
 30
0.0
  9
$USERI1
 70
     0
  9
$USERI2
 70
     0
  9
$USERI3
 70
     0
  9
$USERI4
 70
     0
  9
$USERI5
 70
     0
  9
$USERR1
 40
18.1
  9
$USERR2
 40
0.0
  9
$USERR3
 40
0.0
  9
$USERR4
 40
0.0
  9
$USERR5
 40
0.0
  9
$WORLDVIEW
 70
     1
  9
$SHADEDGE
 70
     3
  9
$SHADEDIF
 70
    70
  9
$TILEMODE
 70
     1
  9
$MAXACTVP
 70
    64
  9
$PINSBASE
 10
0.0
 20
0.0
 30
0.0
  9
$PLIMCHECK
 70
     0
  9
$PEXTMIN
 10
1.00000000000000E+20
 20
1.00000000000000E+20
 30
1.00000000000000E+20
  9
$PEXTMAX
 10
-1.00000000000000E+20
 20
-1.00000000000000E+20
 30
-1.00000000000000E+20
  9
$PLIMMIN
 10
0.0
 20
0.0
  9
$PLIMMAX
 10
12.0
 20
9.0
  9
$UNITMODE
 70
     0
  9
$VISRETAIN
 70
     1
  9
$PLINEGEN
 70
     0
  9
$PSLTSCALE
 70
     1
  9
$TREEDEPTH
 70
  3020
  9
$CMLSTYLE
  2
Standard
  9
$CMLJUST
 70
     0
  9
$CMLSCALE
 40
1.0
  9
$PROXYGRAPHICS
 70
     1
  9
$MEASUREMENT
 70
     1
  9
$CELWEIGHT
370
    -1
  9
$ENDCAPS
280
     0
  9
$JOINSTYLE
280
     0
  9
$LWDISPLAY
290
     0
  9
$INSUNITS
 70
     4
  9
$HYPERLINKBASE
  1

  9
$STYLESHEET
  1

  9
$XEDIT
290
     1
  9
$CEPSNTYPE
380
     0
  9
$PSTYLEMODE
290
     1
  9
$FINGERPRINTGUID
  2
{F0CA5AC1-8BE4-479B-95FA-1F95B3E07E43}
  9
$VERSIONGUID
  2
{FAEB1C32-E019-11D5-929B-00C0DF256EC4}
  9
$EXTNAMES
290
     1
  9
$PSVPSCALE
 40
0.0
  9
$OLESTARTUP
290
     0
  0
ENDSEC
  0
SECTION
  2
CLASSES
  0
CLASS
  1
ACDBDICTIONARYWDFLT
  2
AcDbDictionaryWithDefault
  3
ObjectDBX Classes
 90
        0
280
     0
281
     0
  0
CLASS
  1
VISUALSTYLE
  2
AcDbVisualStyle
  3
ObjectDBX Classes
 90
     4095
280
     0
281
     0
  0
CLASS
  1
MATERIAL
  2
AcDbMaterial
  3
ObjectDBX Classes
 90
     1153
280
     0
281
     0
  0
CLASS
  1
DICTIONARYVAR
  2
AcDbDictionaryVar
  3
ObjectDBX Classes
 90
        0
280
     0
281
     0
  0
CLASS
  1
ACDBPLACEHOLDER
  2
AcDbPlaceHolder
  3
ObjectDBX Classes
 90
        0
280
     0
281
     0
  0
CLASS
  1
LAYOUT
  2
AcDbLayout
  3
ObjectDBX Classes
 90
        0
280
     0
281
     0
  0
ENDSEC
  0
SECTION
  2
TABLES
  0
TABLE
  2
VPORT
  5
8
330
0
100
AcDbSymbolTable
 70
     1
  0
VPORT
  5
29
330
8
100
AcDbSymbolTableRecord
100
AcDbViewportTableRecord
  2
*Active
 70
     0
 10
0.0
 20
0.0
 11
1.0
 21
1.0
 12
105.0
 22
148.5
 13
0.0
 23
0.0
 14
0.5
 24
0.5
 15
0.5
 25
0.5
 16
0.0
 26
0.0
 36
1.0
 17
0.0
 27
0.0
 37
0.0
 40
326.7
 41
1.60267857142857
 42
50.0
 43
0.0
 44
0.0
 50
0.0
 51
0.0
 71
     0
 72
   100
 73
     1
 74
     3
 75
     0
 76
     0
 77
     0
 78
     0
281
     0
 65
     1
110
0.0
120
0.0
130
0.0
111
1.0
121
0.0
131
0.0
112
0.0
122
1.0
132
0.0
 79
     0
146
0.0
  0
ENDTAB
  0
TABLE
  2
LTYPE
  5
5
330
0
100
AcDbSymbolTable
 70
     8
  0
LTYPE
  5
14
330
5
100
AcDbSymbolTableRecord
100
AcDbLinetypeTableRecord
  2
ByBlock
 70
     0
  3

 72
    65
 73
     0
 40
0.0
  0
LTYPE
  5
15
330
5
100
AcDbSymbolTableRecord
100
AcDbLinetypeTableRecord
  2
ByLayer
 70
     0
  3

 72
    65
 73
     0
 40
0.0
  0
LTYPE
  5
16
330
5
100
AcDbSymbolTableRecord
100
AcDbLinetypeTableRecord
  2
Continuous
 70
     0
  3
Solid line
 72
    65
 73
     0
 40
0.0
  0
LTYPE
  5
3F
330
5
100
AcDbSymbolTableRecord
100
AcDbLinetypeTableRecord
  2
DASHED
 70
     0
  3
Dashed
 72
    65
 73
     2
 40
15.0
 49
7.0
 74
     0
 49
-8.0
 74
     0
  0
LTYPE
  5
40
330
5
100
AcDbSymbolTableRecord
100
AcDbLinetypeTableRecord
  2
DOTTED
 70
     0
  3
Dotted
 72
    65
 73
     2
 40
1.0
 49
0.0
 74
     0
 49
-1.0
 74
     0
  0
LTYPE
  5
41
330
5
100
AcDbSymbolTableRecord
100
AcDbLinetypeTableRecord
  2
DOT_CENTER
 70
     0
  3
Dot_Center
 72
    65
 73
     4
 40
14.0
 49
12.0
 74
     0
 49
-1.0
 74
     0
 49
0.0
 74
     0
 49
-1.0
 74
     0
  0
LTYPE
  5
42
330
5
100
AcDbSymbolTableRecord
100
AcDbLinetypeTableRecord
  2
LONG_DASHED
 70
     0
  3
Long_Dashed
 72
    65
 73
     2
 40
15.0
 49
10.0
 74
     0
 49
-5.0
 74
     0
  0
LTYPE
  5
43
330
5
100
AcDbSymbolTableRecord
100
AcDbLinetypeTableRecord
  2
DASH_CENTER
 70
     0
  3
Dash_Center
 72
    65
 73
     4
 40
14.0
 49
11.0
 74
     0
 49
-1.0
 74
     0
 49
1.0
 74
     0
 49
-1.0
 74
     0
  0
LTYPE
  5
44
330
5
100
AcDbSymbolTableRecord
100
AcDbLinetypeTableRecord
  2
PHANTOM
 70
     0
  3
Phantom
 72
    65
 73
     6
 40
13.0
 49
10.0
 74
     0
 49
-1.0
 74
     0
 49
0.0
 74
     0
 49
-1.0
 74
     0
 49
0.0
 74
     0
 49
-1.0
 74
     0
  0
LTYPE
  5
45
330
5
100
AcDbSymbolTableRecord
100
AcDbLinetypeTableRecord
  2
CENTER_DASH_DASH
 70
     0
  3
Center_Dash_Dash
 72
    65
 73
     6
 40
14.0
 49
9.0
 74
     0
 49
-1.0
 74
     0
 49
1.0
 74
     0
 49
-1.0
 74
     0
 49
1.0
 74
     0
 49
-1.0
 74
     0
  0
ENDTAB
  0
TABLE
  2
LAYER
  5
2
330
0
100
AcDbSymbolTable
 70
     3
  0
LAYER
  5
10
330
2
100
AcDbSymbolTableRecord
100
AcDbLayerTableRecord
  2
0
 70
     0
 62
     7
  6
Continuous
370
    -3
390
F
  0
LAYER
  5
46
330
2
100
AcDbSymbolTableRecord
100
AcDbLayerTableRecord
  2
1
 70
     0
 62
     7
  6
Continuous
370
    -3
390
F
  0
LAYER
  5
47
330
2
100
AcDbSymbolTableRecord
100
AcDbLayerTableRecord
  2
_U_30EC_U_30A4_U_30E4_U_30FC_1
 70
     0
 62
     7
  6
Continuous
370
    -3
390
F
  0
ENDTAB
  0
TABLE
  2
STYLE
  5
3
330
0
100
AcDbSymbolTable
 70
     3
  0
STYLE
  5
11
330
3
100
AcDbSymbolTableRecord
100
AcDbTextStyleTableRecord
  2
Standard
 70
     0
 40
0.0
 41
1.0
 50
0.0
 71
     0
 42
0.2
  3
txt
  4

  0
STYLE
  5
C6
330
3
100
AcDbSymbolTableRecord
100
AcDbTextStyleTableRecord
  2
CONVERTER_11
 70
     0
 40
0.0
 41
0.89
 50
0.0
 71
     0
 42
0.2
  3
MS Mincho.ttf
  4

1001
ACAD
1000
MS Mincho
1071
    32785
  0
STYLE
  5
15C
330
3
100
AcDbSymbolTableRecord
100
AcDbTextStyleTableRecord
  2
CONVERTER_12
 70
     0
 40
0.0
 41
0.9
 50
0.0
 71
     0
 42
0.2
  3
txt.shx
  4

  0
ENDTAB
  0
TABLE
  2
VIEW
  5
6
330
0
100
AcDbSymbolTable
 70
     0
  0
ENDTAB
  0
TABLE
  2
UCS
  5
7
330
0
100
AcDbSymbolTable
 70
     0
  0
ENDTAB
  0
TABLE
  2
APPID
  5
9
330
0
100
AcDbSymbolTable
 70
     1
  0
APPID
  5
12
330
9
100
AcDbSymbolTableRecord
100
AcDbRegAppTableRecord
  2
ACAD
 70
     0
  0
ENDTAB
  0
TABLE
  2
DIMSTYLE
  5
A
330
0
100
AcDbSymbolTable
 70
     6
100
AcDbDimStyleTable
  0
DIMSTYLE
105
27
330
A
100
AcDbSymbolTableRecord
100
AcDbDimStyleTableRecord
  2
Standard
 70
     0
178
     0
340
11
  0
DIMSTYLE
105
175
102
{ACAD_REACTORS
330
176
102
}
330
A
100
AcDbSymbolTableRecord
100
AcDbDimStyleTableRecord
  2
ME10_DIM_10
 70
     0
 41
3.5
 42
0.0
 44
1.0
 73
     0
 74
     0
 77
     1
 78
     8
140
3.5
147
1.0
172
     1
173
     1
174
     1
175
     1
176
     2
177
     2
271
     2
178
     7
271
     2
340
15C
  0
DIMSTYLE
105
180
102
{ACAD_REACTORS
330
181
102
}
330
A
100
AcDbSymbolTableRecord
100
AcDbDimStyleTableRecord
  2
ME10_DIM_11
 70
     0
  3
{\Fgdt;n}<>
 41
3.5
 42
0.0
 44
1.0
 73
     0
 74
     0
 77
     1
 78
     8
140
3.5
147
1.0
172
     1
173
     1
174
     1
175
     1
176
     2
177
     2
271
     2
178
     7
271
     2
340
15C
  0
DIMSTYLE
105
18D
102
{ACAD_REACTORS
330
18E
102
}
330
A
100
AcDbSymbolTableRecord
100
AcDbDimStyleTableRecord
  2
ME10_DIM_12
 70
     0
 41
3.5
 42
0.0
 44
1.0
 73
     0
 74
     0
 77
     1
 78
     8
140
3.5
147
1.0
172
     1
173
     1
174
     1
175
     1
176
     2
177
     2
271
     2
178
     7
271
     2
340
15C
  0
DIMSTYLE
105
198
102
{ACAD_REACTORS
330
199
102
}
330
A
100
AcDbSymbolTableRecord
100
AcDbDimStyleTableRecord
  2
ME10_DIM_13
 70
     0
 41
3.5
 42
0.0
 44
1.0
 73
     0
 74
     0
 77
     1
 78
     8
140
3.5
147
1.0
172
     1
173
     1
174
     1
175
     1
176
     2
177
     2
271
     2
178
     7
271
     2
340
15C
  0
DIMSTYLE
105
1A3
102
{ACAD_REACTORS
330
1A4
102
}
330
A
100
AcDbSymbolTableRecord
100
AcDbDimStyleTableRecord
  2
ME10_DIM_14
 70
     0
 41
3.5
 42
0.0
 44
1.0
 73
     0
 74
     0
 77
     1
 78
     8
140
3.5
147
1.0
172
     1
173
     1
174
     1
175
     1
176
     2
177
     2
271
     2
178
     7
271
     2
340
15C
  0
ENDTAB
  0
TABLE
  2
BLOCK_RECORD
  5
1
330
0
100
AcDbSymbolTable
 70
    13
  0
BLOCK_RECORD
  5
1F
330
1
100
AcDbSymbolTableRecord
100
AcDbBlockTableRecord
  2
*Model_Space
340
22
  0
BLOCK_RECORD
  5
1B
330
1
100
AcDbSymbolTableRecord
100
AcDbBlockTableRecord
  2
*Paper_Space
340
1E
  0
BLOCK_RECORD
  5
23
330
1
100
AcDbSymbolTableRecord
100
AcDbBlockTableRecord
  2
*Paper_Space0
340
26
  0
BLOCK_RECORD
  5
48
330
1
100
AcDbSymbolTableRecord
100
AcDbBlockTableRecord
  2
開示A4
340
0
102
{BLKREFS
331
4C
102
}
  0
BLOCK_RECORD
  5
4B
330
1
100
AcDbSymbolTableRecord
100
AcDbBlockTableRecord
  2
開示A4枠
340
0
102
{BLKREFS
331
5E
102
}
  0
BLOCK_RECORD
  5
4F
330
1
100
AcDbSymbolTableRecord
100
AcDbBlockTableRecord
  2
35-85__1
340
0
102
{BLKREFS
331
5F
102
}
  0
BLOCK_RECORD
  5
52
330
1
100
AcDbSymbolTableRecord
100
AcDbBlockTableRecord
  2
92-35__2
340
0
102
{BLKREFS
331
60
102
}
  0
BLOCK_RECORD
  5
55
330
1
100
AcDbSymbolTableRecord
100
AcDbBlockTableRecord
  2
35-85__3
340
0
102
{BLKREFS
331
61
102
}
  0
BLOCK_RECORD
  5
58
330
1
100
AcDbSymbolTableRecord
100
AcDbBlockTableRecord
  2
92-35__4
340
0
102
{BLKREFS
331
62
102
}
  0
BLOCK_RECORD
  5
5B
330
1
100
AcDbSymbolTableRecord
100
AcDbBlockTableRecord
  2
92-35__5
340
0
102
{BLKREFS
331
63
102
}
  0
BLOCK_RECORD
  5
16C
330
1
100
AcDbSymbolTableRecord
100
AcDbBlockTableRecord
  2
*D8
340
0
  0
BLOCK_RECORD
  5
177
330
1
100
AcDbSymbolTableRecord
100
AcDbBlockTableRecord
  2
*D9
340
0
  0
BLOCK_RECORD
  5
182
330
1
100
AcDbSymbolTableRecord
100
AcDbBlockTableRecord
  2
*D10
340
0
  0
BLOCK_RECORD
  5
18F
330
1
100
AcDbSymbolTableRecord
100
AcDbBlockTableRecord
  2
*D11
340
0
  0
BLOCK_RECORD
  5
19A
330
1
100
AcDbSymbolTableRecord
100
AcDbBlockTableRecord
  2
*D12
340
0
  0
ENDTAB
  0
ENDSEC
  0
SECTION
  2
BLOCKS
  0
BLOCK
  5
20
330
1F
100
AcDbEntity
  8
0
100
AcDbBlockBegin
  2
*Model_Space
 70
     0
 10
0.0
 20
0.0
 30
0.0
  3
*Model_Space
  1

  0
ENDBLK
  5
21
330
1F
100
AcDbEntity
  8
0
100
AcDbBlockEnd
  0
BLOCK
  5
1C
330
1B
100
AcDbEntity
 67
     1
  8
0
100
AcDbBlockBegin
  2
*Paper_Space
 70
     0
 10
0.0
 20
0.0
 30
0.0
  3
*Paper_Space
  1

  0
ENDBLK
  5
1D
330
1B
100
AcDbEntity
 67
     1
  8
0
100
AcDbBlockEnd
  0
BLOCK
  5
24
330
23
100
AcDbEntity
  8
0
100
AcDbBlockBegin
  2
*Paper_Space0
 70
     0
 10
0.0
 20
0.0
 30
0.0
  3
*Paper_Space0
  1

  0
ENDBLK
  5
25
330
23
100
AcDbEntity
  8
0
100
AcDbBlockEnd
  0
BLOCK
  5
49
330
48
100
AcDbEntity
  8
0
100
AcDbBlockBegin
  2
開示A4
 70
     0
 10
0.0
 20
0.0
 30
0.0
  3
開示A4
  1

  0
POINT
  5
64
330
48
100
AcDbEntity
  8
1
 62
     4
100
AcDbPoint
 10
183.0
 20
15.0
 30
0.0
  0
POINT
  5
65
330
48
100
AcDbEntity
  8
1
 62
     4
100
AcDbPoint
 10
93.74999999999997
 20
17.0
 30
0.0
  0
POINT
  5
66
330
48
100
AcDbEntity
  8
1
 62
     4
100
AcDbPoint
 10
85.25
 20
17.0
 30
0.0
  0
POINT
  5
67
330
48
100
AcDbEntity
  8
1
 62
     4
100
AcDbPoint
 10
106.5
 20
19.0
 30
0.0
  0
POINT
  5
68
330
48
100
AcDbEntity
  8
1
 62
     4
100
AcDbPoint
 10
106.5
 20
12.5
 30
0.0
  0
POINT
  5
69
330
48
100
AcDbEntity
  8
1
 62
     4
100
AcDbPoint
 10
112.25
 20
12.5
 30
0.0
  0
POINT
  5
6A
330
48
100
AcDbEntity
  8
1
 62
     4
100
AcDbPoint
 10
100.75
 20
12.5
 30
0.0
  0
POINT
  5
6B
330
48
100
AcDbEntity
  8
1
 62
     4
100
AcDbPoint
 10
123.5
 20
19.0
 30
0.0
  0
POINT
  5
6C
330
48
100
AcDbEntity
  8
1
 62
     4
100
AcDbPoint
 10
123.5
 20
12.5
 30
0.0
  0
POINT
  5
6D
330
48
100
AcDbEntity
  8
1
 62
     4
100
AcDbPoint
 10
129.25
 20
12.5
 30
0.0
  0
POINT
  5
6E
330
48
100
AcDbEntity
  8
1
 62
     4
100
AcDbPoint
 10
117.75
 20
12.5
 30
0.0
  0
POINT
  5
6F
330
48
100
AcDbEntity
  8
1
 62
     4
100
AcDbPoint
 10
140.5
 20
19.0
 30
0.0
  0
POINT
  5
70
330
48
100
AcDbEntity
  8
1
 62
     4
100
AcDbPoint
 10
140.5
 20
12.5
 30
0.0
  0
POINT
  5
71
330
48
100
AcDbEntity
  8
1
 62
     4
100
AcDbPoint
 10
146.25
 20
12.5
 30
0.0
  0
POINT
  5
72
330
48
100
AcDbEntity
  8
1
 62
     4
100
AcDbPoint
 10
134.75
 20
12.5
 30
0.0
  0
POINT
  5
73
330
48
100
AcDbEntity
  8
1
 62
     4
100
AcDbPoint
 10
151.75
 20
12.5
 30
0.0
  0
POINT
  5
74
330
48
100
AcDbEntity
  8
1
 62
     4
100
AcDbPoint
 10
163.25
 20
12.5
 30
0.0
  0
POINT
  5
75
330
48
100
AcDbEntity
  8
1
 62
     4
100
AcDbPoint
 10
157.5
 20
12.5
 30
0.0
  0
POINT
  5
76
330
48
100
AcDbEntity
  8
1
 62
     4
100
AcDbPoint
 10
57.0
 20
14.25
 30
0.0
  0
POINT
  5
77
330
48
100
AcDbEntity
  8
1
 62
     4
100
AcDbPoint
 10
57.0
 20
22.74999999999999
 30
0.0
  0
POINT
  5
78
330
48
100
AcDbEntity
  8
1
 62
     4
100
AcDbPoint
 10
47.5
 20
282.0000000000003
 30
0.0
  0
POINT
  5
79
330
48
100
AcDbEntity
  8
1
 62
     4
100
AcDbPoint
 10
157.5
 20
19.0
 30
0.0
  0
POINT
  5
7A
330
48
100
AcDbEntity
  8
1
 62
     4
100
AcDbPoint
 10
57.0
 20
16.25
 30
0.0
  0
POINT
  5
7B
330
48
100
AcDbEntity
  8
1
 62
     4
100
AcDbPoint
 10
57.0
 20
24.74999999999999
 30
0.0
  0
POINT
  5
7C
330
48
100
AcDbEntity
  8
1
 62
     4
100
AcDbPoint
 10
57.0
 20
20.74999999999999
 30
0.0
  0
POINT
  5
7D
330
48
100
AcDbEntity
  8
1
 62
     4
100
AcDbPoint
 10
57.0
 20
12.25
 30
0.0
  0
POINT
  5
7E
330
48
100
AcDbEntity
  8
1
 62
     4
100
AcDbPoint
 10
34.0
 20
33.99999999999999
 30
0.0
  0
LINE
  5
83
330
48
100
AcDbEntity
  8
1
  6
Continuous
 62
     7
100
AcDbLine
 10
105.0
 20
10.0
 30
0.0
 11
200.0
 21
10.0
 31
0.0
  0
LINE
  5
84
330
48
100
AcDbEntity
  8
1
  6
Continuous
 62
     2
100
AcDbLine
 10
105.0
 20
10.0
 30
0.0
 11
105.0
 21
5.0
 31
0.0
  0
LINE
  5
85
330
48
100
AcDbEntity
  8
1
  6
Continuous
 62
     7
100
AcDbLine
 10
200.0
 20
148.5
 30
0.0
 11
200.0
 21
287.0000000000003
 31
0.0
  0
LINE
  5
86
330
48
100
AcDbEntity
  8
1
  6
Continuous
 62
     2
100
AcDbLine
 10
200.0
 20
148.5
 30
0.0
 11
205.0
 21
148.5
 31
0.0
  0
LINE
  5
87
330
48
100
AcDbEntity
  8
1
  6
Continuous
 62
     7
100
AcDbLine
 10
25.0
 20
148.5
 30
0.0
 11
25.0
 21
287.0000000000003
 31
0.0
  0
LINE
  5
88
330
48
100
AcDbEntity
  8
1
  6
Continuous
 62
     2
100
AcDbLine
 10
25.0
 20
148.5
 30
0.0
 11
20.0
 21
148.5
 31
0.0
  0
LINE
  5
89
330
48
100
AcDbEntity
  8
1
  6
Continuous
 62
     7
100
AcDbLine
 10
105.0
 20
287.0000000000003
 30
0.0
 11
25.0
 21
287.0000000000003
 31
0.0
  0
LINE
  5
8A
330
48
100
AcDbEntity
  8
1
  6
Continuous
 62
     2
100
AcDbLine
 10
105.0
 20
287.0000000000003
 30
0.0
 11
105.0
 21
292.0000000000003
 31
0.0
  0
LINE
  5
8B
330
48
100
AcDbEntity
  8
1
  6
Continuous
 62
     2
100
AcDbLine
 10
166.0
 20
20.0
 30
0.0
 11
200.0
 21
20.0
 31
0.0
  0
LINE
  5
8C
330
48
100
AcDbEntity
  8
1
  6
Continuous
 62
     2
100
AcDbLine
 10
97.99999999999997
 20
26.99999999999999
 30
0.0
 11
97.99999999999997
 21
10.0
 31
0.0
  0
LINE
  5
8D
330
48
100
AcDbEntity
  8
1
  6
Continuous
 62
     2
100
AcDbLine
 10
115.0
 20
26.99999999999999
 30
0.0
 11
115.0
 21
10.0
 31
0.0
  0
LINE
  5
8E
330
48
100
AcDbEntity
  8
1
  6
Continuous
 62
     2
100
AcDbLine
 10
149.0
 20
26.99999999999999
 30
0.0
 11
149.0
 21
10.0
 31
0.0
  0
LINE
  5
8F
330
48
100
AcDbEntity
  8
1
  6
Continuous
 62
     2
100
AcDbLine
 10
132.0
 20
26.99999999999999
 30
0.0
 11
132.0
 21
10.0
 31
0.0
  0
LINE
  5
90
330
48
100
AcDbEntity
  8
1
  6
Continuous
 62
     2
100
AcDbLine
 10
166.0
 20
26.99999999999999
 30
0.0
 11
166.0
 21
10.0
 31
0.0
  0
LINE
  5
91
330
48
100
AcDbEntity
  8
1
  6
Continuous
 62
     2
100
AcDbLine
 10
55.0
 20
277.0000000000003
 30
0.0
 11
25.0
 21
277.0000000000003
 31
0.0
  0
LINE
  5
92
330
48
100
AcDbEntity
  8
1
  6
Continuous
 62
     7
100
AcDbLine
 10
25.0
 20
10.0
 30
0.0
 11
25.0
 21
148.5
 31
0.0
  0
LINE
  5
93
330
48
100
AcDbEntity
  8
1
  6
Continuous
 62
     2
100
AcDbLine
 10
40.0
 20
287.0000000000003
 30
0.0
 11
40.0
 21
277.0000000000003
 31
0.0
  0
LINE
  5
94
330
48
100
AcDbEntity
  8
1
  6
Continuous
 62
     2
100
AcDbLine
 10
55.0
 20
287.0000000000003
 30
0.0
 11
55.0
 21
277.0000000000003
 31
0.0
  0
LINE
  5
95
330
48
100
AcDbEntity
  8
1
  6
Continuous
 62
     2
100
AcDbLine
 10
33.0
 20
40.99999999999999
 30
0.0
 11
33.0
 21
26.99999999999999
 31
0.0
  0
LINE
  5
96
330
48
100
AcDbEntity
  8
1
  6
Continuous
 62
     7
100
AcDbLine
 10
200.0
 20
26.99999999999999
 30
0.0
 11
25.0
 21
26.99999999999999
 31
0.0
  0
LINE
  5
97
330
48
100
AcDbEntity
  8
1
  6
Continuous
 62
     7
100
AcDbLine
 10
25.0
 20
40.99999999999999
 30
0.0
 11
200.0
 21
40.99999999999999
 31
0.0
  0
LINE
  5
98
330
48
100
AcDbEntity
  8
1
  6
PHANTOM
 62
     4
100
AcDbLine
 10
0.0
 20
0.0
 30
0.0
 11
210.0
 21
0.0
 31
0.0
  0
LINE
  5
99
330
48
100
AcDbEntity
  8
1
  6
PHANTOM
 62
     4
100
AcDbLine
 10
210.0
 20
0.0
 30
0.0
 11
210.0
 21
297.0
 31
0.0
  0
LINE
  5
9A
330
48
100
AcDbEntity
  8
1
  6
PHANTOM
 62
     4
100
AcDbLine
 10
210.0
 20
297.0
 30
0.0
 11
0.0
 21
297.0
 31
0.0
  0
LINE
  5
9B
330
48
100
AcDbEntity
  8
1
  6
PHANTOM
 62
     4
100
AcDbLine
 10
0.0
 20
297.0
 30
0.0
 11
0.0
 21
0.0
 31
0.0
  0
LINE
  5
9C
330
48
100
AcDbEntity
  8
1
  6
Continuous
 62
     7
100
AcDbLine
 10
25.0
 20
10.0
 30
0.0
 11
105.0
 21
10.0
 31
0.0
  0
LINE
  5
9D
330
48
100
AcDbEntity
  8
1
  6
Continuous
 62
     7
100
AcDbLine
 10
200.0
 20
10.0
 30
0.0
 11
200.0
 21
148.5
 31
0.0
  0
LINE
  5
9E
330
48
100
AcDbEntity
  8
1
  6
Continuous
 62
     7
100
AcDbLine
 10
200.0
 20
287.0000000000003
 30
0.0
 11
105.0
 21
287.0000000000003
 31
0.0
  0
LINE
  5
9F
330
48
100
AcDbEntity
  8
1
  6
Continuous
 62
     2
100
AcDbLine
 10
25.0
 20
18.5
 30
0.0
 11
81.0
 21
18.5
 31
0.0
  0
LINE
  5
A0
330
48
100
AcDbEntity
  8
1
  6
Continuous
 62
     2
100
AcDbLine
 10
33.0
 20
26.99999999999999
 30
0.0
 11
33.0
 21
10.0
 31
0.0
  0
LINE
  5
A1
330
48
100
AcDbEntity
  8
1
  6
Continuous
 62
     7
100
AcDbLine
 10
191.0
 20
24.69999999999999
 30
0.0
 11
191.0
 21
22.3
 31
0.0
  0
LINE
  5
A2
330
48
100
AcDbEntity
  8
1
  6
Continuous
 62
     7
100
AcDbLine
 10
191.0
 20
24.69999999999999
 30
0.0
 11
196.0
 21
25.49999999999999
 31
0.0
  0
LINE
  5
A3
330
48
100
AcDbEntity
  8
1
  6
Continuous
 62
     7
100
AcDbLine
 10
196.0
 20
25.49999999999999
 30
0.0
 11
196.0
 21
21.49999999999999
 31
0.0
  0
LINE
  5
A4
330
48
100
AcDbEntity
  8
1
  6
Continuous
 62
     7
100
AcDbLine
 10
196.0
 20
21.49999999999999
 30
0.0
 11
191.0
 21
22.3
 31
0.0
  0
LINE
  5
A5
330
48
100
AcDbEntity
  8
1
  6
DOT_CENTER
 62
     2
100
AcDbLine
 10
184.0
 20
23.49999999999999
 30
0.0
 11
197.0
 21
23.49999999999999
 31
0.0
  0
LINE
  5
A6
330
48
100
AcDbEntity
  8
1
  6
DOT_CENTER
 62
     2
100
AcDbLine
 10
187.0
 20
26.49999999999999
 30
0.0
 11
187.0
 21
20.49999999999999
 31
0.0
  0
LINE
  5
A7
330
48
100
AcDbEntity
  8
1
  6
Continuous
 62
     2
100
AcDbLine
 10
81.0
 20
26.99999999999999
 30
0.0
 11
81.0
 21
10.0
 31
0.0
  0
CIRCLE
  5
A8
330
48
100
AcDbEntity
  8
1
  6
Continuous
 62
     7
100
AcDbCircle
 10
103.5
 20
12.5
 30
0.0
 40
0.2999999999999972
  0
CIRCLE
  5
A9
330
48
100
AcDbEntity
  8
1
  6
Continuous
 62
     7
100
AcDbCircle
 10
109.5
 20
12.5
 30
0.0
 40
0.2999999999999972
  0
CIRCLE
  5
AA
330
48
100
AcDbEntity
  8
1
  6
Continuous
 62
     7
100
AcDbCircle
 10
120.5
 20
12.5
 30
0.0
 40
0.2999999999999972
  0
CIRCLE
  5
AB
330
48
100
AcDbEntity
  8
1
  6
Continuous
 62
     7
100
AcDbCircle
 10
126.5
 20
12.5
 30
0.0
 40
0.2999999999999972
  0
CIRCLE
  5
AC
330
48
100
AcDbEntity
  8
1
  6
Continuous
 62
     7
100
AcDbCircle
 10
137.5
 20
12.5
 30
0.0
 40
0.3000000000000114
  0
CIRCLE
  5
AD
330
48
100
AcDbEntity
  8
1
  6
Continuous
 62
     7
100
AcDbCircle
 10
143.5
 20
12.5
 30
0.0
 40
0.3000000000000114
  0
CIRCLE
  5
AE
330
48
100
AcDbEntity
  8
1
  6
Continuous
 62
     7
100
AcDbCircle
 10
160.5
 20
12.5
 30
0.0
 40
0.3000000000000114
  0
CIRCLE
  5
AF
330
48
100
AcDbEntity
  8
1
  6
Continuous
 62
     7
100
AcDbCircle
 10
154.5
 20
12.5
 30
0.0
 40
0.3000000000000114
  0
CIRCLE
  5
B0
330
48
100
AcDbEntity
  8
1
  6
Continuous
 62
     7
100
AcDbCircle
 10
187.0
 20
23.49999999999999
 30
0.0
 40
1.200000000000102
  0
CIRCLE
  5
B1
330
48
100
AcDbEntity
  8
1
  6
Continuous
 62
     7
100
AcDbCircle
 10
187.0
 20
23.49999999999999
 30
0.0
 40
2.0
  0
CIRCLE
  5
B2
330
48
100
AcDbEntity
  8
1
  6
DOT_CENTER
 62
     7
100
AcDbCircle
 10
89.5
 20
16.0
 30
0.0
 40
0.1000000000000227
  0
CIRCLE
  5
B3
330
48
100
AcDbEntity
  8
1
  6
DOT_CENTER
 62
     7
100
AcDbCircle
 10
89.5
 20
18.0
 30
0.0
 40
0.1000000000000227
  0
SPLINE
  5
B4
102
{ACAD_REACTORS
330
D3
102
}
330
48
100
AcDbEntity
  8
_U_30EC_U_30A4_U_30E4_U_30FC_1
  6
Continuous
 62
     2
100
AcDbSpline
210
0.0
220
0.0
230
1.0
 70
     8
 71
     3
 72
    24
 73
    20
 74
    18
 42
0.000000001
 43
0.0000000001
 44
0.00000001
 40
0.0
 40
0.0
 40
0.0
 40
0.0
 40
0.221107500875402
 40
0.4273218586245804
 40
0.5080174679239814
 40
0.5914835907870694
 40
0.8143265690193418
 40
1.054651302686656
 40
1.295452694023222
 40
1.518109231328823
 40
1.540864321905436
 40
1.595126460622693
 40
1.659890947896
 40
1.714153085187354
 40
1.736908174961652
 40
1.764951100735333
 40
1.801562291220971
 40
1.95391442454364
 40
2.126104167379698
 40
2.126104167379698
 40
2.126104167379698
 40
2.126104167379698
 10
185.9375369556889
 20
15.5898929511302
 30
0.0
 10
185.9112579081812
 20
15.53097628234378
 30
0.0
 10
185.8604698894425
 20
15.41711139679259
 30
0.0
 10
185.8131784839111
 20
15.14441958233114
 30
0.0
 10
185.7043482802618
 20
15.24445482575453
 30
0.0
 10
185.5514800279637
 20
15.27118593367329
 30
0.0
 10
185.7686155181199
 20
15.48518135017633
 30
0.0
 10
185.7838483674381
 20
15.70332117782488
 30
0.0
 10
185.8906889492
 20
15.88451579066425
 30
0.0
 10
185.8305380947078
 20
16.16913226311392
 30
0.0
 10
185.9334317395402
 20
16.14114089222446
 30
0.0
 10
185.977993346815
 20
16.13243251602296
 30
0.0
 10
186.0380842395397
 20
16.12139654183355
 30
0.0
 10
186.0756619587438
 20
16.1076752305556
 30
0.0
 10
186.1252466928606
 20
16.10756076160228
 30
0.0
 10
186.0930158919325
 20
16.07306592398617
 30
0.0
 10
186.0171802221882
 20
16.0840410453798
 30
0.0
 10
186.0429447159694
 20
15.89858969582448
 30
0.0
 10
186.005589676385
 20
15.80702313549592
 30
0.0
 10
185.9857704961609
 20
15.75844135397711
 30
0.0
 11
185.9375369556889
 21
15.5898929511302
 31
0.0
 11
185.8616471328552
 21
15.38221708318562
 31
0.0
 11
185.7717402238433
 21
15.19663392356191
 31
0.0
 11
185.701149392311
 21
15.2357327256355
 31
0.0
 11
185.6245525192651
 21
15.26889163187718
 31
0.0
 11
185.7214026947455
 21
15.46958801203539
 31
0.0
 11
185.7994641467471
 21
15.69688163177025
 31
0.0
 11
185.858971692972
 21
15.93021436608691
 31
0.0
 11
185.9001601511226
 21
16.14902808999048
 31
0.0
 11
185.9224183822214
 21
16.1442988922139
 31
0.0
 11
185.975495702534
 21
16.13302157443896
 31
0.0
 11
186.0388460525844
 21
16.11956154999792
 31
0.0
 11
186.091923372897
 21
16.10828423222299
 31
0.0
 11
186.1141816039958
 21
16.1035550344464
 31
0.0
 11
186.0964097157461
 21
16.08186250841009
 31
0.0
 11
186.0606122998071
 21
16.0741862844537
 31
0.0
 11
186.028195330148
 21
15.92532288171316
 31
0.0
 11
185.9857704961609
 21
15.75844135397711
 31
0.0
  0
SPLINE
  5
B5
102
{ACAD_REACTORS
330
D3
102
}
330
48
100
AcDbEntity
  8
_U_30EC_U_30A4_U_30E4_U_30FC_1
  6
Continuous
 62
     2
100
AcDbSpline
210
0.0
220
0.0
230
1.0
 70
     8
 71
     3
 72
    70
 73
    66
 74
    64
 42
0.000000001
 43
0.0000000001
 44
0.00000001
 40
0.0
 40
0.0
 40
0.0
 40
0.0
 40
0.0241731073021472
 40
0.0846058988987013
 40
0.1631685280353284
 40
0.2417311571789756
 40
0.3021639488292751
 40
0.3263370654895541
 40
0.3533118254248863
 40
0.4228783438922058
 40
0.5179999095313278
 40
0.6216398239465925
 40
0.7167613891499457
 40
0.7863279069649579
 40
0.8133026791761516
 40
0.8372943998771359
 40
0.8945054261372565
 40
0.9627895541962345
 40
1.020000580349045
 40
1.043992300975144
 40
1.071934345522868
 40
1.113121768772881
 40
1.145225199332198
 40
1.225483775412719
 40
1.32981992377141
 40
1.434156071994278
 40
1.514414647795684
 40
1.546518078208286
 40
1.57897476426006
 40
1.662678849314055
 40
1.777131373668275
 40
1.901833377474666
 40
2.016285900500456
 40
2.099989982527823
 40
2.132446666570182
 40
2.158782354485923
 40
2.216720867907755
 40
2.274659381334219
 40
2.300995069256172
 40
2.333451754066144
 40
2.417155836543825
 40
2.531608358985264
 40
2.656310362283759
 40
2.770762886388892
 40
2.854466971340057
 40
2.886923657363864
 40
2.913597976833292
 40
2.982389642875082
 40
3.07645171694693
 40
3.178937260458525
 40
3.272999334739912
 40
3.341791001059123
 40
3.368465320663428
 40
3.396976080738678
 40
3.472140811845914
 40
3.578408190308604
 40
3.700226892456068
 40
3.822045594634314
 40
3.928312973256449
 40
4.003477705314847
 40
4.031988456866912
 40
4.058324144797718
 40
4.116262658236897
 40
4.174201171400714
 40
4.200536849608653
 40
4.200536849608653
 40
4.200536849608653
 40
4.200536849608653
 10
185.9857704961609
 20
15.75844135397711
 30
0.0
 10
185.9938259544679
 20
15.75844359811692
 30
0.0
 10
186.0220200663241
 20
15.75845146032804
 30
0.0
 10
186.0765534803672
 20
15.75830754828377
 30
0.0
 10
186.1482891808604
 20
15.75909120499903
 30
0.0
 10
186.2236240137062
 20
15.75627570463817
 30
0.0
 10
186.2713052366439
 20
15.76298403400963
 30
0.0
 10
186.3195071245616
 20
15.75197563692439
 30
0.0
 10
186.3062571799873
 20
15.80546402997039
 30
0.0
 10
186.3151093964538
 20
15.86049583543097
 30
0.0
 10
186.3108698036285
 20
15.95419908726114
 30
0.0
 10
186.313348348128
 20
16.04959482218536
 30
0.0
 10
186.309093870606
 20
16.14356821983391
 30
0.0
 10
186.3179818665846
 20
16.19795062438015
 30
0.0
 10
186.3046977409945
 20
16.25233997691463
 30
0.0
 10
186.3514119277109
 20
16.2384221633536
 30
0.0
 10
186.3943254545737
 20
16.24103877374044
 30
0.0
 10
186.4605443456685
 20
16.23648422450754
 30
0.0
 10
186.5013342271798
 20
16.2277816213416
 30
0.0
 10
186.5525145690819
 20
16.23531799890192
 30
0.0
 10
186.5253720487201
 20
16.19349970223284
 30
0.0
 10
186.4803096055707
 20
16.20284992072594
 30
0.0
 10
186.4942065045051
 20
16.13841207371836
 30
0.0
 10
186.4858414431653
 20
16.07378219627399
 30
0.0
 10
186.4903632178398
 20
15.97529141193889
 30
0.0
 10
186.4854741311167
 20
15.87595932842574
 30
0.0
 10
186.4950258992081
 20
15.81293115552973
 30
0.0
 10
186.47997614552
 20
15.74964011499795
 30
0.0
 10
186.5449159457208
 20
15.76515072944275
 30
0.0
 10
186.6116246399497
 20
15.75499387697818
 30
0.0
 10
186.7241435470827
 20
15.75988800099374
 30
0.0
 10
186.8390235448953
 20
15.75691204732789
 30
0.0
 10
186.9519871999747
 20
15.76221664184997
 30
0.0
 10
187.0176267597677
 20
15.75107306472095
 30
0.0
 10
187.0816276691053
 20
15.76744532319863
 30
0.0
 10
187.0703142889189
 20
15.71761689905277
 30
0.0
 10
187.077533987151
 20
15.67416715212123
 30
0.0
 10
187.0703142611269
 20
15.63071745587442
 30
0.0
 10
187.0816277175994
 20
15.58088895196871
 30
0.0
 10
187.0176263598972
 20
15.59726166091356
 30
0.0
 10
186.9519921240459
 20
15.58611271661582
 30
0.0
 10
186.838997431733
 20
15.59144857206848
 30
0.0
 10
186.7242456548644
 20
15.58834345663816
 30
0.0
 10
186.611318368686
 20
15.59364894682582
 30
0.0
 10
186.5455220903585
 20
15.58257300019587
 30
0.0
 10
186.4816097975358
 20
15.59887597847612
 30
0.0
 10
186.4936015165126
 20
15.54423524395737
 30
0.0
 10
186.4862104613005
 20
15.48854295047837
 30
0.0
 10
186.4892684841983
 20
15.39649689140568
 30
0.0
 10
186.4893422785682
 20
15.301791098731
 30
0.0
 10
186.486031357836
 20
15.20952782902266
 30
0.0
 10
186.4939505989903
 20
15.15435768736141
 30
0.0
 10
186.4815076611618
 20
15.10058169100138
 30
0.0
 10
186.5389116551631
 20
15.11453768862784
 30
0.0
 10
186.5994708140383
 20
15.10511457884229
 30
0.0
 10
186.7048680855081
 20
15.10942885928708
 30
0.0
 10
186.8204294070623
 20
15.10835504612034
 30
0.0
 10
186.9359688877798
 20
15.10725965900997
 30
0.0
 10
187.0414181130842
 20
15.11162525770635
 30
0.0
 10
187.1018680471805
 20
15.10209426030674
 30
0.0
 10
187.1592837739111
 20
15.11617289606382
 30
0.0
 10
187.1477773876711
 20
15.06707153265684
 30
0.0
 10
187.1537566781749
 20
15.02564658018649
 30
0.0
 10
187.1520311050804
 20
14.97651677966694
 30
0.0
 10
187.1521500122972
 20
14.94854428447606
 30
0.0
 10
187.1521871691834
 20
14.93980288195948
 30
0.0
 11
185.9857704961609
 21
15.75844135397711
 31
0.0
 11
186.0099436128282
 21
15.75844135397711
 31
0.0
 11
186.0703764044962
 21
15.75844135397711
 31
0.0
 11
186.1489390336648
 21
15.75844135397711
 31
0.0
 11
186.2275016628334
 21
15.75844135397711
 31
0.0
 11
186.2879344545015
 21
15.75844135397711
 31
0.0
 11
186.3121075711687
 21
15.75844135397711
 31
0.0
 11
186.3121075711687
 21
15.78541612620069
 31
0.0
 11
186.3121075711687
 21
15.85498264404044
 31
0.0
 11
186.3121075711687
 21
15.9501042092499
 31
0.0
 11
186.3121075711687
 21
16.0537441235826
 31
0.0
 11
186.3121075711687
 21
16.14886568879206
 31
0.0
 11
186.3121075711687
 21
16.21843220663181
 31
0.0
 11
186.3121075711687
 21
16.24540697885539
 31
0.0
 11
186.3360407604892
 21
16.24373213107802
 31
0.0
 11
186.3931122119458
 21
16.23973826330122
 31
0.0
 11
186.461229750781
 21
16.23497138885795
 31
0.0
 11
186.5183012022376
 21
16.23097752108115
 31
0.0
 11
186.5422343915581
 21
16.22930267330378
 31
0.0
 11
186.5274972731229
 21
16.20556293372638
 31
0.0
 11
186.4886640249976
 21
16.1918376733131
 31
0.0
 11
186.4886640249976
 21
16.15973424225117
 31
0.0
 11
186.4886640249976
 21
16.07947566459636
 31
0.0
 11
186.4886640249976
 21
15.9751395136451
 31
0.0
 11
186.4886640249976
 21
15.87080336269385
 31
0.0
 11
186.4886640249976
 21
15.79054478503904
 31
0.0
 11
186.4886640249976
 21
15.75844135397711
 31
0.0
 11
186.5211207110824
 21
15.75844135397711
 31
0.0
 11
186.6048247962486
 21
15.75844135397711
 31
0.0
 11
186.7192773208634
 21
15.75844135397711
 31
0.0
 11
186.8439793252946
 21
15.75844135397711
 31
0.0
 11
186.9584318499095
 21
15.75844135397711
 31
0.0
 11
187.0421359350756
 21
15.75844135397711
 31
0.0
 11
187.0745926211604
 21
15.75844135397711
 31
0.0
 11
187.0745926211604
 21
15.73210566604965
 31
0.0
 11
187.0745926211604
 21
15.67416715260924
 31
0.0
 11
187.0745926211604
 21
15.61622863916884
 31
0.0
 11
187.0745926211604
 21
15.58989295124138
 31
0.0
 11
187.0421359350756
 21
15.58989295124138
 31
0.0
 11
186.9584318499095
 21
15.58989295124138
 31
0.0
 11
186.8439793252946
 21
15.58989295124138
 31
0.0
 11
186.7192773208634
 21
15.58989295124138
 31
0.0
 11
186.6048247962485
 21
15.58989295124138
 31
0.0
 11
186.5211207110824
 21
15.58989295124138
 31
0.0
 11
186.4886640249976
 21
15.58989295124138
 31
0.0
 11
186.4886640249976
 21
15.56321863152016
 31
0.0
 11
186.4886640249976
 21
15.49442696487071
 31
0.0
 11
186.4886640249976
 21
15.40036489006431
 31
0.0
 11
186.4886640249976
 21
15.29787934587227
 31
0.0
 11
186.4886640249976
 21
15.20381727106587
 31
0.0
 11
186.4886640249976
 21
15.13502560441641
 31
0.0
 11
186.4886640249976
 21
15.1083512846952
 31
0.0
 11
186.5171747850993
 21
15.1083512846952
 31
0.0
 11
186.5923395162767
 21
15.1083512846952
 31
0.0
 11
186.6986068948376
 21
15.1083512846952
 31
0.0
 11
186.8204255970905
 21
15.1083512846952
 31
0.0
 11
186.9422442993434
 21
15.1083512846952
 31
0.0
 11
187.0485116779044
 21
15.1083512846952
 31
0.0
 11
187.1236764090817
 21
15.1083512846952
 31
0.0
 11
187.1521871691834
 21
15.1083512846952
 31
0.0
 11
187.1521871691834
 21
15.08201559676774
 31
0.0
 11
187.1521871691834
 21
15.02407708332734
 31
0.0
 11
187.1521871691834
 21
14.96613856988693
 31
0.0
 11
187.1521871691834
 21
14.93980288195948
 31
0.0
  0
SPLINE
  5
B6
102
{ACAD_REACTORS
330
D3
102
}
330
48
100
AcDbEntity
  8
_U_30EC_U_30A4_U_30E4_U_30FC_1
  6
Continuous
 62
     2
100
AcDbSpline
210
0.0
220
0.0
230
1.0
 70
     8
 71
     3
 72
    62
 73
    58
 74
    56
 42
0.000000001
 43
0.0000000001
 44
0.00000001
 40
0.0
 40
0.0
 40
0.0
 40
0.0
 40
0.0598250028308769
 40
0.20248464868979
 40
0.3727558389221599
 40
0.5154154847936923
 40
0.5752404975786476
 40
0.9332326775488248
 40
1.290451762839567
 40
1.602077253145952
 40
1.699931634112235
 40
1.799359756425159
 40
2.270120149657223
 40
2.804661928461665
 40
2.882342287383378
 40
3.076543185719234
 40
3.329004354835701
 40
3.581465524568533
 40
3.775666424543819
 40
3.853346784558441
 40
3.899120679595186
 40
3.984129341792184
 40
4.029903236817533
 40
4.105797496059684
 40
4.295533144152636
 40
4.54218948661187
 40
4.788845828875808
 40
4.978581476410185
 40
5.054475735244426
 40
5.621734664339415
 40
6.130867242037415
 40
6.225249780948682
 40
6.318913039727355
 40
6.663579954558997
 40
7.047498900224856
 40
7.435230791575819
 40
7.498943906668231
 40
7.650875181210253
 40
7.832212509001792
 40
7.984143783697206
 40
8.047856898903362
 40
8.091554632732882
 40
8.172707566964563
 40
8.216405300768297
 40
8.289021782161182
 40
8.462184160757555
 40
8.668861838005636
 40
8.842024215264228
 40
8.914640695475423
 40
8.989881580861615
 40
9.155411528827491
 40
9.320941477744244
 40
9.396182352487482
 40
9.454709011144029
 40
9.583467660170964
 40
9.712226309013243
 40
9.770752957989696
 40
9.770752957989696
 40
9.770752957989696
 40
9.770752957989696
 10
187.1521871691834
 20
14.93980288195948
 30
0.0
 10
187.1322348171624
 20
14.93980875568669
 30
0.0
 10
187.0647037716466
 20
14.93982863806155
 30
0.0
 10
186.9410612161789
 20
14.93949362520324
 30
0.0
 10
186.7863180150056
 20
14.9410767375051
 30
0.0
 10
186.669734948248
 20
14.93686078860493
 30
0.0
 10
186.455094263424
 20
14.95215205331625
 30
0.0
 10
186.8518948407228
 20
14.59198721286193
 30
0.0
 10
186.8945656069268
 20
14.37510503397165
 30
0.0
 10
187.318916214661
 20
14.1932506251145
 30
0.0
 10
187.1439821496074
 20
14.08985196568071
 30
0.0
 10
187.0194523925083
 20
13.87831523212721
 30
0.0
 10
186.7666277235943
 20
14.34806081001563
 30
0.0
 10
186.4797602893627
 20
14.99511516984519
 30
0.0
 10
186.4906335926659
 20
14.68782672154693
 30
0.0
 10
186.4882892777961
 20
14.52288616971777
 30
0.0
 10
186.4861096126411
 20
14.28879670711691
 30
0.0
 10
186.4980774396346
 20
14.04498072421781
 30
0.0
 10
186.4687984740631
 20
13.89855796860981
 30
0.0
 10
186.511452262547
 20
13.75113490174536
 30
0.0
 10
186.4239814005639
 20
13.76685797306216
 30
0.0
 10
186.3768527606745
 20
13.76694303543452
 30
0.0
 10
186.2898973207712
 20
13.75109425482906
 30
0.0
 10
186.3313474021722
 20
13.89527771422759
 30
0.0
 10
186.3029875004285
 20
14.03855052698451
 30
0.0
 10
186.31459737753
 20
14.2767494736526
 30
0.0
 10
186.3124175648272
 20
14.5051723524034
 30
0.0
 10
186.3103111127994
 20
14.66705729375988
 30
0.0
 10
186.3208035438323
 20
14.98153709333744
 30
0.0
 10
186.0128963252893
 20
14.29229470872432
 30
0.0
 10
185.7055258267455
 20
13.81476750243048
 30
0.0
 10
185.5851367066274
 20
14.03741112637427
 30
0.0
 10
185.4074607910722
 20
14.15011034955563
 30
0.0
 10
185.8853326362894
 20
14.32548143465463
 30
0.0
 10
185.9353959057207
 20
14.56091929252031
 30
0.0
 10
186.3583799621719
 20
14.95322989344605
 30
0.0
 10
186.1276754273541
 20
14.93655307029064
 30
0.0
 10
186.0049685859342
 20
14.94269518948769
 30
0.0
 10
185.8325483095662
 20
14.93312822699572
 30
0.0
 10
185.7213224694448
 20
14.95448818489663
 30
0.0
 10
185.6025779627448
 20
14.92136265357418
 30
0.0
 10
185.6183169706685
 20
15.00203900606883
 30
0.0
 10
185.6178550933763
 20
15.04645414290855
 30
0.0
 10
185.6027881889931
 20
15.12967081778536
 30
0.0
 10
185.7372380935444
 20
15.09062651983886
 30
0.0
 10
185.8619755545746
 20
15.11739729328424
 30
0.0
 10
186.062875523728
 20
15.10063949044055
 30
0.0
 10
186.1921540949352
 20
15.12204225913006
 30
0.0
 10
186.3328419928295
 20
15.08868778853424
 30
0.0
 10
186.2980927452614
 20
15.22651875785068
 30
0.0
 10
186.3222185666713
 20
15.34963257349479
 30
0.0
 10
186.2967086182391
 20
15.47024055670331
 30
0.0
 10
186.3333251146685
 20
15.60539865141489
 30
0.0
 10
186.2211417027769
 20
15.58094545781885
 30
0.0
 10
186.1280356457137
 20
15.59307749842017
 30
0.0
 10
186.0191547579819
 20
15.58957630069986
 30
0.0
 10
185.9569697640964
 20
15.58981755951597
 30
0.0
 10
185.9375369557246
 20
15.58989295124138
 30
0.0
 11
187.1521871691834
 21
14.93980288195948
 31
0.0
 11
187.0923621563983
 21
14.93980288195948
 31
0.0
 11
186.949702510526
 21
14.93980288195948
 31
0.0
 11
186.7794313202914
 21
14.93980288195948
 31
0.0
 11
186.6367716744192
 21
14.93980288195948
 31
0.0
 11
186.576946661634
 21
14.93980288195948
 31
0.0
 11
186.7679960754842
 21
14.6370512796689
 31
0.0
 11
186.994127278563
 21
14.36051890576685
 31
0.0
 11
187.2244526173371
 21
14.1506125349346
 31
0.0
 11
187.1521596330704
 21
14.08466403668715
 31
0.0
 11
187.0879364402643
 21
14.00876059052558
 31
0.0
 11
186.7732818215558
 21
14.35891458349364
 31
0.0
 11
186.4886640249976
 21
14.811382951436
 31
0.0
 11
186.4886640249976
 21
14.73370259137312
 31
0.0
 11
186.4886640249976
 21
14.53950169121591
 31
0.0
 11
186.4886640249976
 21
14.28704052101154
 31
0.0
 11
186.4886640249976
 21
14.03457935080718
 31
0.0
 11
186.4886640249976
 21
13.84037845064997
 31
0.0
 11
186.4886640249976
 21
13.76269809058709
 31
0.0
 11
186.4428901295605
 21
13.76269809058709
 31
0.0
 11
186.3578814666058
 21
13.76269809058709
 31
0.0
 11
186.3121075711687
 21
13.76269809058709
 31
0.0
 11
186.3121075711687
 21
13.83859234982737
 31
0.0
 11
186.3121075711687
 21
14.02832799792807
 31
0.0
 11
186.3121075711687
 21
14.27498434045899
 31
0.0
 11
186.3121075711687
 21
14.5216406829899
 31
0.0
 11
186.3121075711687
 21
14.7113763310906
 31
0.0
 11
186.3121075711687
 21
14.78727059033088
 31
0.0
 11
185.9987626399266
 21
14.3144094619769
 31
0.0
 11
185.6352328662148
 21
13.9579517710938
 31
0.0
 11
185.5773927461627
 21
14.03253450545023
 31
0.0
 11
185.5094852305341
 21
14.0970432293924
 31
0.0
 11
185.7750721898319
 21
14.3167221979589
 31
0.0
 11
186.0233764972061
 21
14.60953395971697
 31
0.0
 11
186.2264982805261
 21
14.93980288195948
 31
0.0
 11
186.1627851652722
 21
14.93980288195948
 31
0.0
 11
186.010853890436
 21
14.93980288195948
 31
0.0
 11
185.8295165624056
 21
14.93980288195948
 31
0.0
 11
185.6775852875693
 21
14.93980288195948
 31
0.0
 11
185.6138721723154
 21
14.93980288195948
 31
0.0
 11
185.6138721723154
 21
14.98350061600208
 31
0.0
 11
185.6138721723154
 21
15.06465355065261
 31
0.0
 11
185.6138721723154
 21
15.1083512846952
 31
0.0
 11
185.6864886537961
 21
15.1083512846952
 31
0.0
 11
185.8596510327118
 21
15.1083512846952
 31
0.0
 11
186.0663287107723
 21
15.1083512846952
 31
0.0
 11
186.239491089688
 21
15.1083512846952
 31
0.0
 11
186.3121075711687
 21
15.1083512846952
 31
0.0
 11
186.3121075711687
 21
15.18359217009304
 31
0.0
 11
186.3121075711687
 21
15.34912211796829
 31
0.0
 11
186.3121075711687
 21
15.51465206584354
 31
0.0
 11
186.3121075711687
 21
15.58989295124138
 31
0.0
 11
186.2535809125055
 21
15.58989295124138
 31
0.0
 11
186.1248222634467
 21
15.58989295124138
 31
0.0
 11
185.9960636143877
 21
15.58989295124138
 31
0.0
 11
185.9375369557246
 21
15.58989295124138
 31
0.0
  0
SPLINE
  5
B7
102
{ACAD_REACTORS
330
D4
102
}
330
48
100
AcDbEntity
  8
_U_30EC_U_30A4_U_30E4_U_30FC_1
  6
Continuous
 62
     2
100
AcDbSpline
210
0.0
220
0.0
230
1.0
 70
    11
 71
     3
 72
   124
 73
   120
 74
   118
 42
0.000000001
 43
0.0000000001
 44
0.00000001
 40
0.0
 40
0.0
 40
0.0
 40
0.0
 40
0.027818722962451
 40
0.1011590162384269
 40
0.2048470170590239
 40
0.3237088716559245
 40
0.4425707262522
 40
0.5462587270699547
 40
0.6195990203311798
 40
0.647417752257866
 40
0.6750060736115242
 40
0.7357003855242759
 40
0.7963946998054474
 40
0.8239830245571766
 40
0.854093381110286
 40
0.937339662940954
 40
1.063094687343235
 40
1.220731268638073
 40
1.399622220914748
 40
1.589140358637732
 40
1.778658496423898
 40
1.957549448940509
 40
2.115186030873159
 40
2.240941056914463
 40
2.324187341760532
 40
2.354297700109382
 40
2.38188602467189
 40
2.442580338710475
 40
2.503274652750497
 40
2.530862977314606
 40
2.560983949278559
 40
2.640393784452905
 40
2.752662861759128
 40
2.881361560118145
 40
3.010060258455192
 40
3.122329335705339
 40
3.201739170817953
 40
3.231860142753313
 40
3.264298024030368
 40
3.352343701778236
 40
3.482095226868753
 40
3.639650650173009
 40
3.811108022565459
 40
3.982565394927957
 40
4.140120818152535
 40
4.269872343141238
 40
4.357918020802299
 40
4.390355902043924
 40
4.423256253992494
 40
4.508104530073015
 40
4.624121560636783
 40
4.75052817603154
 40
4.866545206601987
 40
4.951393482691944
 40
4.984293834645345
 40
5.011450833242262
 40
5.07119623015205
 40
5.130941627057131
 40
5.158098625648798
 40
5.190998977601489
 40
5.275847253689315
 40
5.391864284256749
 40
5.518270899648294
 40
5.634287930209333
 40
5.719136206288007
 40
5.752036558235894
 40
5.782130946282922
 40
5.862783906229098
 40
5.979550131774972
 40
6.117984316640382
 40
6.263641154587932
 40
6.402075339414146
 40
6.518841564907949
 40
6.599494524815534
 40
6.629588912848772
 40
6.654403028226349
 40
6.713575149488116
 40
6.784199939329434
 40
6.843372060493537
 40
6.868186175802783
 40
6.896246243201811
 40
6.939586233758284
 40
6.967846564564912
 40
7.043584251089843
 40
7.153234334451696
 40
7.28323185573444
 40
7.420011856035465
 40
7.550009376579807
 40
7.659659458835204
 40
7.735397144417192
 40
7.763657474851362
 40
7.796409728011019
 40
7.880876065096293
 40
7.996370852465679
 40
8.122208446418574
 40
8.237703224799168
 40
8.322169562010862
 40
8.354921815205875
 40
8.382078813307658
 40
8.441824209206969
 40
8.50156960524012
 40
8.528726603485701
 40
8.56147885669575
 40
8.6459451938778
 40
8.761439980865312
 40
8.887277580764454
 40
9.002772362000975
 40
9.087238696661196
 40
9.11999094923565
 40
9.152428830613347
 40
9.240474508638561
 40
9.370226034149507
 40
9.527781457984386
 40
9.699238830981365
 40
9.870696203978548
 40
10.02825162781397
 40
10.15800315332558
 40
10.24604883135112
 40
10.27848670378515
 40
10.27848670378515
 40
10.27848670378515
 40
10.27848670378515
 10
195.3821827564383
 20
14.01410517385759
 30
0.0
 10
195.3914554737523
 20
14.01410498511276
 30
0.0
 10
195.4251744536861
 20
14.01410430876716
 30
0.0
 10
195.4934706812465
 20
14.01411807243307
 30
0.0
 10
195.592014171158
 20
14.01403224219547
 30
0.0
 10
195.7062066464812
 20
14.01441755612253
 30
0.0
 10
195.818589441707
 20
14.01300835897547
 30
0.0
 10
195.9214376600118
 20
14.01719117422245
 30
0.0
 10
195.9806839874849
 20
14.00823089251985
 30
0.0
 10
196.0371265937033
 20
14.02164434526063
 30
0.0
 10
196.0246255586954
 20
13.97087198613363
 30
0.0
 10
196.0329549635703
 20
13.92589320939069
 30
0.0
 10
196.024817084112
 20
13.8805675299049
 30
0.0
 10
196.0370529214457
 20
13.82931932408468
 30
0.0
 10
195.9747773490333
 20
13.84447955365278
 30
0.0
 10
195.9060513026868
 20
13.83359750710744
 30
0.0
 10
195.7782756749592
 20
13.83911304747975
 30
0.0
 10
195.6262984511643
 20
13.837008512537
 30
0.0
 10
195.4502695972523
 20
13.83771002588475
 30
0.0
 10
195.2644431934287
 20
13.83745237531293
 30
0.0
 10
195.0786167437175
 20
13.83771005144606
 30
0.0
 10
194.9025880142168
 20
13.83700841847732
 30
0.0
 10
194.7506104154195
 20
13.83911332229991
 30
0.0
 10
194.6228357664554
 20
13.83359680767642
 30
0.0
 10
194.5541077836581
 20
13.84448077125944
 30
0.0
 10
194.4918349042883
 20
13.82931786684211
 30
0.0
 10
194.5040616290017
 20
13.88057510805173
 30
0.0
 10
194.4960004462597
 20
13.92582473272427
 30
0.0
 10
194.5040675809893
 20
13.97106357955325
 30
0.0
 10
194.4918238487083
 20
14.0223417690996
 30
0.0
 10
194.5525017120697
 20
14.00749577363136
 30
0.0
 10
194.6162810745736
 20
14.01756448170737
 30
0.0
 10
194.7277314353502
 20
14.01294644212001
 30
0.0
 10
194.8497533443824
 20
14.01413328905471
 30
0.0
 10
194.9719538137823
 20
14.01515863900637
 30
0.0
 10
195.0829794287392
 20
14.01092475623403
 30
0.0
 10
195.1476517413959
 20
14.02018584521741
 30
0.0
 10
195.2091162810501
 20
14.00604423049684
 30
0.0
 10
195.1930065601337
 20
14.07235527884519
 30
0.0
 10
195.2042980327358
 20
14.14447790121977
 30
0.0
 10
195.198740082256
 20
14.27513760888287
 30
0.0
 10
195.200803506169
 20
14.42607323708241
 30
0.0
 10
195.2000167127295
 20
14.59335873107885
 30
0.0
 10
195.2007845215628
 20
14.76061110332302
 30
0.0
 10
195.1988038785628
 20
14.91163289269913
 30
0.0
 10
195.204130615662
 20
15.04206069552993
 30
0.0
 10
195.1933101388424
 20
15.11465442605897
 30
0.0
 10
195.2090326429875
 20
15.18150469436796
 30
0.0
 10
195.143270813249
 20
15.16580512490822
 30
0.0
 10
195.0756367830764
 20
15.17609243083993
 30
0.0
 10
194.9615885293809
 20
15.1711378684712
 30
0.0
 10
194.8451242674902
 20
15.17414128030473
 30
0.0
 10
194.7306554121477
 20
15.16880303143386
 30
0.0
 10
194.6640324657812
 20
15.18001268074823
 30
0.0
 10
194.5990769715185
 20
15.16349132665009
 30
0.0
 10
194.6107989758708
 20
15.21473720477057
 30
0.0
 10
194.603283018912
 20
15.25950333784088
 30
0.0
 10
194.6107989878835
 20
15.3042694489796
 30
0.0
 10
194.5990769505347
 20
15.3555153612974
 30
0.0
 10
194.66403263392
 20
15.33899381766814
 30
0.0
 10
194.7306533339822
 20
15.35020571373943
 30
0.0
 10
194.8451352858063
 20
15.34485436710663
 30
0.0
 10
194.9615454436962
 20
15.34791188771116
 30
0.0
 10
195.0757660174641
 20
15.34278499010707
 30
0.0
 10
195.1430150439226
 20
15.35345733355597
 30
0.0
 10
195.2083325941438
 20
15.33742082669076
 30
0.0
 10
195.1941391448552
 20
15.39949685750052
 30
0.0
 10
195.2036059462994
 20
15.46586761628762
 30
0.0
 10
195.1990269004085
 20
15.58239972741966
 30
0.0
 10
195.2007696555948
 20
15.71426685022376
 30
0.0
 10
195.1997551495392
 20
15.85615960150274
 30
0.0
 10
195.2017191344372
 20
15.98769050702581
 30
0.0
 10
195.1964668553851
 20
16.10524577283005
 30
0.0
 10
195.2073408763474
 20
16.16947789001586
 30
0.0
 10
195.1919536641853
 20
16.2310880254505
 30
0.0
 10
195.24075915378
 20
16.21702407382112
 30
0.0
 10
195.2853995564725
 20
16.21954742075316
 30
0.0
 10
195.3538643946742
 20
16.2151279740171
 30
0.0
 10
195.3959106169102
 20
16.20613025544034
 30
0.0
 10
195.4487544758775
 20
16.2141171486651
 30
0.0
 10
195.4207035002014
 20
16.17113917611672
 30
0.0
 10
195.3749142248595
 20
16.18259552043833
 30
0.0
 10
195.3869539073264
 20
16.12173520005132
 30
0.0
 10
195.3796086070641
 20
16.05769299468767
 30
0.0
 10
195.3831195826162
 20
15.94909368863907
 30
0.0
 10
195.3819806760173
 20
15.82494319144749
 30
0.0
 10
195.3819174780263
 20
15.69189719829875
 30
0.0
 10
195.3832872966868
 20
15.56797381249553
 30
0.0
 10
195.3791638801313
 20
15.45868337849336
 30
0.0
 10
195.3877763103564
 20
15.39608580094168
 30
0.0
 10
195.3746757454402
 20
15.33740133296365
 30
0.0
 10
195.4393884328198
 20
15.35362113810901
 30
0.0
 10
195.5060405953156
 20
15.34270260383311
 30
0.0
 10
195.6198779541102
 20
15.34793740173755
 30
0.0
 10
195.7357259122097
 20
15.34485547516912
 30
0.0
 10
195.849692426328
 20
15.35018259812511
 30
0.0
 10
195.9160341018099
 20
15.33904208166541
 30
0.0
 10
195.9807188525479
 20
15.35546979593177
 30
0.0
 10
195.9689820772722
 20
15.30425925210049
 30
0.0
 10
195.976516806304
 20
15.25950334120999
 30
0.0
 10
195.9689820992258
 20
15.21474739010026
 30
0.0
 10
195.9807188140736
 20
15.16353690871038
 30
0.0
 10
195.9160344075252
 20
15.17996427794218
 30
0.0
 10
195.8496886430824
 20
15.16882784447267
 30
0.0
 10
195.7357459487012
 20
15.17413115893118
 30
0.0
 10
195.6197995623054
 20
15.17114764593542
 30
0.0
 10
195.5062756882123
 20
15.17606892268391
 30
0.0
 10
195.4389231318804
 20
15.16585087513518
 30
0.0
 10
195.3734285122495
 20
15.18145996138813
 30
0.0
 10
195.3891713619218
 20
15.11463851827409
 30
0.0
 10
195.3783275998212
 20
15.04207057815876
 30
0.0
 10
195.3836581629793
 20
14.91162247614415
 30
0.0
 10
195.3817136151855
 20
14.76064558185224
 30
0.0
 10
195.3823133683214
 20
14.59322243934159
 30
0.0
 10
195.3821506559604
 20
14.42656176118371
 30
0.0
 10
195.3821895488136
 20
14.27360142921637
 30
0.0
 10
195.3821816413099
 20
14.14849178985706
 30
0.0
 10
195.3821828382745
 20
14.06507890991422
 30
0.0
 10
195.3821827716208
 20
14.02491778281978
 30
0.0
 10
195.3821827564383
 20
14.01410517385759
 30
0.0
 11
195.3821827564383
 21
14.01410517385759
 31
0.0
 11
195.4100014883675
 21
14.01410517385759
 31
0.0
 11
195.4833417816353
 21
14.01410517385759
 31
0.0
 11
195.5870297824622
 21
14.01410517385759
 31
0.0
 11
195.7058916370687
 21
14.01410517385759
 31
0.0
 11
195.8247534916751
 21
14.01410517385759
 31
0.0
 11
195.928441492502
 21
14.01410517385759
 31
0.0
 11
196.0017817857698
 21
14.01410517385759
 31
0.0
 11
196.029600517699
 21
14.01410517385759
 31
0.0
 11
196.029600517699
 21
13.98651684921171
 31
0.0
 11
196.029600517699
 21
13.92582253499079
 31
0.0
 11
196.029600517699
 21
13.86512822076986
 31
0.0
 11
196.029600517699
 21
13.83753989612399
 31
0.0
 11
195.9994901593494
 21
13.83753989612399
 31
0.0
 11
195.9162438745004
 21
13.83753989612399
 31
0.0
 11
195.7904888484521
 21
13.83753989612399
 31
0.0
 11
195.6328522665041
 21
13.83753989612399
 31
0.0
 11
195.4539613139564
 21
13.83753989612399
 31
0.0
 11
195.2644431761089
 21
13.83753989612399
 31
0.0
 11
195.0749250382613
 21
13.83753989612399
 31
0.0
 11
194.8960340857136
 21
13.83753989612399
 31
0.0
 11
194.7383975037656
 21
13.83753989612399
 31
0.0
 11
194.6126424777172
 21
13.83753989612399
 31
0.0
 11
194.5293961928683
 21
13.83753989612399
 31
0.0
 11
194.4992858345187
 21
13.83753989612399
 31
0.0
 11
194.4992858345187
 21
13.86512822076987
 31
0.0
 11
194.4992858345187
 21
13.92582253499079
 31
0.0
 11
194.4992858345187
 21
13.98651684921171
 31
0.0
 11
194.4992858345187
 21
14.01410517385759
 31
0.0
 11
194.5294068064947
 21
14.01410517385759
 31
0.0
 11
194.608816641704
 21
14.01410517385759
 31
0.0
 11
194.721085719069
 21
14.01410517385759
 31
0.0
 11
194.8497844175118
 21
14.01410517385759
 31
0.0
 11
194.9784831159545
 21
14.01410517385759
 31
0.0
 11
195.0907521933195
 21
14.01410517385759
 31
0.0
 11
195.1701620285289
 21
14.01410517385759
 31
0.0
 11
195.2002830005048
 21
14.01410517385759
 31
0.0
 11
195.2002830005048
 21
14.04654305523837
 31
0.0
 11
195.2002830005048
 21
14.13458873327192
 31
0.0
 11
195.2002830005048
 21
14.26434025879504
 31
0.0
 11
195.2002830005048
 21
14.42189568264454
 31
0.0
 11
195.2002830005048
 21
14.59335305565724
 31
0.0
 11
195.2002830005048
 21
14.76481042866993
 31
0.0
 11
195.2002830005048
 21
14.92236585251943
 31
0.0
 11
195.2002830005048
 21
15.05211737804255
 31
0.0
 11
195.2002830005048
 21
15.1401630560761
 31
0.0
 11
195.2002830005048
 21
15.17260093745688
 31
0.0
 11
195.1673826485529
 21
15.17260093745688
 31
0.0
 11
195.0825343724662
 21
15.17260093745688
 31
0.0
 11
194.9665173418988
 21
15.17260093745688
 31
0.0
 11
194.8401107265044
 21
15.17260093745688
 31
0.0
 11
194.724093695937
 21
15.17260093745688
 31
0.0
 11
194.6392454198503
 21
15.17260093745688
 31
0.0
 11
194.6063450678984
 21
15.17260093745688
 31
0.0
 11
194.6063450678984
 21
15.19975793614801
 31
0.0
 11
194.6063450678984
 21
15.25950333326848
 31
0.0
 11
194.6063450678984
 21
15.31924873038896
 31
0.0
 11
194.6063450678984
 21
15.34640572908009
 31
0.0
 11
194.6392454198504
 21
15.34640572908009
 31
0.0
 11
194.724093695937
 21
15.34640572908009
 31
0.0
 11
194.8401107265044
 21
15.34640572908009
 31
0.0
 11
194.9665173418988
 21
15.34640572908009
 31
0.0
 11
195.0825343724662
 21
15.34640572908009
 31
0.0
 11
195.1673826485529
 21
15.34640572908009
 31
0.0
 11
195.2002830005048
 21
15.34640572908009
 31
0.0
 11
195.2002830005048
 21
15.37650011731369
 31
0.0
 11
195.2002830005048
 21
15.45715307777973
 31
0.0
 11
195.2002830005048
 21
15.57391930412609
 31
0.0
 11
195.2002830005048
 21
15.71235349000064
 31
0.0
 11
195.2002830005048
 21
15.85801032905125
 31
0.0
 11
195.2002830005048
 21
15.9964445149258
 31
0.0
 11
195.2002830005048
 21
16.11321074127216
 31
0.0
 11
195.2002830005048
 21
16.1938637017382
 31
0.0
 11
195.2002830005048
 21
16.2239580899718
 31
0.0
 11
195.2250405288618
 21
16.22228324219444
 31
0.0
 11
195.2840777118669
 21
16.21828937441767
 31
0.0
 11
195.3545414464214
 21
16.21352249997442
 31
0.0
 11
195.4135786294265
 21
16.20952863219764
 31
0.0
 11
195.4383361577835
 21
16.20785378442028
 31
0.0
 11
195.4233067224031
 21
16.18415814206511
 31
0.0
 11
195.3821827564383
 21
16.17047697887398
 31
0.0
 11
195.3821827564383
 21
16.14221664794827
 31
0.0
 11
195.3821827564383
 21
16.06647896106735
 31
0.0
 11
195.3821827564383
 21
15.95682887707557
 31
0.0
 11
195.3821827564383
 21
15.82683135481727
 31
0.0
 11
195.3821827564383
 21
15.6900513531368
 31
0.0
 11
195.3821827564383
 21
15.56005383087851
 31
0.0
 11
195.3821827564383
 21
15.45040374688672
 31
0.0
 11
195.3821827564383
 21
15.37466606000581
 31
0.0
 11
195.3821827564383
 21
15.34640572908009
 31
0.0
 11
195.4149350096115
 21
15.34640572908009
 31
0.0
 11
195.4994013467422
 21
15.34640572908009
 31
0.0
 11
195.6148961342476
 21
15.34640572908009
 31
0.0
 11
195.7407337385445
 21
15.34640572908009
 31
0.0
 11
195.8562285260498
 21
15.34640572908009
 31
0.0
 11
195.9406948631806
 21
15.34640572908009
 31
0.0
 11
195.9734471163538
 21
15.34640572908009
 31
0.0
 11
195.9734471163538
 21
15.31924873038896
 31
0.0
 11
195.9734471163538
 21
15.25950333326848
 31
0.0
 11
195.9734471163538
 21
15.19975793614801
 31
0.0
 11
195.9734471163538
 21
15.17260093745688
 31
0.0
 11
195.9406948631806
 21
15.17260093745688
 31
0.0
 11
195.8562285260498
 21
15.17260093745688
 31
0.0
 11
195.7407337385445
 21
15.17260093745688
 31
0.0
 11
195.6148961342476
 21
15.17260093745688
 31
0.0
 11
195.4994013467422
 21
15.17260093745688
 31
0.0
 11
195.4149350096114
 21
15.17260093745688
 31
0.0
 11
195.3821827564383
 21
15.17260093745688
 31
0.0
 11
195.3821827564383
 21
15.1401630560761
 31
0.0
 11
195.3821827564383
 21
15.05211737804255
 31
0.0
 11
195.3821827564383
 21
14.92236585251943
 31
0.0
 11
195.3821827564383
 21
14.76481042866993
 31
0.0
 11
195.3821827564383
 21
14.59335305565724
 31
0.0
 11
195.3821827564383
 21
14.42189568264454
 31
0.0
 11
195.3821827564383
 21
14.26434025879504
 31
0.0
 11
195.3821827564383
 21
14.13458873327192
 31
0.0
 11
195.3821827564383
 21
14.04654305523837
 31
0.0
 11
195.3821827564383
 21
14.01410517385759
 31
0.0
  0
SPLINE
  5
B8
102
{ACAD_REACTORS
330
D5
102
}
330
48
100
AcDbEntity
  8
_U_30EC_U_30A4_U_30E4_U_30FC_1
  6
Continuous
 62
     2
100
AcDbSpline
210
0.0
220
0.0
230
1.0
 70
    11
 71
     3
 72
   131
 73
   127
 74
   125
 42
0.000000001
 43
0.0000000001
 44
0.00000001
 40
0.0
 40
0.0
 40
0.0
 40
0.0
 40
0.0195577029826464
 40
0.0426490537461628
 40
0.2863607575856864
 40
0.5344948436189528
 40
0.7842238845573426
 40
0.8737315789467551
 40
0.9803832810313048
 40
1.092842274517054
 40
1.199761146656822
 40
1.289788768186539
 40
1.351573580786251
 40
1.370727117561477
 40
1.416400936017883
 40
1.470914848356021
 40
1.516588666791808
 40
1.535742203552886
 40
1.634216592293238
 40
1.760283341175068
 40
1.897966686682145
 40
2.03121638736893
 40
2.049689751137926
 40
2.101115601646864
 40
2.179502577739985
 40
2.278859318314105
 40
2.393194462258766
 40
2.516516648383886
 40
2.642834515406019
 40
2.766156701983528
 40
2.880491846754646
 40
2.979848588358692
 40
3.058235565443873
 40
3.109661416669029
 40
3.128134780704206
 40
3.146783742386523
 40
3.191254343315412
 40
3.244332157316071
 40
3.288802758226003
 40
3.307451719895274
 40
3.327717853844886
 40
3.38374775358025
 40
3.468388665924644
 40
3.574487837698955
 40
3.694892515729064
 40
3.822449946852208
 40
3.950007377920603
 40
4.070412055800697
 40
4.176511227368257
 40
4.261152139501705
 40
4.317182039076901
 40
4.337448172964821
 40
4.62001100269644
 40
4.885096638397719
 40
4.945373043518546
 40
5.014107710488866
 40
5.070481727652283
 40
5.319246955636793
 40
5.584812164506257
 40
5.859000912057108
 40
6.1337469375423
 40
6.401732212969124
 40
6.420736683995715
 40
6.472845717451337
 40
6.550702743894265
 40
6.646951193874417
 40
6.754234497930769
 40
6.865196086587547
 40
6.972479390357977
 40
7.06872783977211
 40
7.146584865451119
 40
7.198693898189349
 40
7.21769836890549
 40
7.234950401630966
 40
7.276089864270013
 40
7.325191803516123
 40
7.366331266090508
 40
7.38358329876986
 40
7.402779163492237
 40
7.45338644325464
 40
7.524934666445642
 40
7.606953361405953
 40
7.688972056429076
 40
7.760520279784298
 40
7.81112755973454
 40
7.830323424546162
 40
7.847844055299786
 40
7.894799345666826
 40
7.962779392744507
 40
8.043374293560547
 40
8.128174145149444
 40
8.208769044817238
 40
8.276749090376935
 40
8.32370437966949
 40
8.34122501005622
 40
8.358497614800369
 40
8.401679126686574
 40
8.457815092185632
 40
8.513951057728036
 40
8.557132569707992
 40
8.574405174505035
 40
8.602340668616375
 40
8.643455660539862
 40
8.66322527196653
 40
8.715345156564167
 40
8.789031889628498
 40
8.873502045520215
 40
8.95797219432383
 40
9.031658925567713
 40
9.083778811234396
 40
9.103548423002858
 40
9.119550083123423
 40
9.160817522379697
 40
9.21724442911009
 40
9.278724491644576
 40
9.335151398295332
 40
9.376418837357628
 40
9.392420497300416
 40
9.401196302734608
 40
9.41749422938403
 40
9.426270027749302
 40
9.440875075477337
 40
9.475702496998519
 40
9.517270709865686
 40
9.552098131993857
 40
9.566703169884066
 40
9.566703169884066
 40
9.566703169884066
 40
9.566703169884066
 10
194.6170254148479
 20
15.67015871511029
 30
0.0
 10
194.6134345093371
 20
15.66453690702159
 30
0.0
 10
194.6056039123625
 20
15.6522775441911
 30
0.0
 10
194.5129968974548
 20
15.61601916040985
 30
0.0
 10
194.4887622233247
 20
15.40148444212709
 30
0.0
 10
194.3858709845938
 20
15.22197284509709
 30
0.0
 10
194.1220492364305
 20
15.03615573798145
 30
0.0
 10
194.284547156918
 20
14.95959336566082
 30
0.0
 10
194.3607225760838
 20
14.89856693195443
 30
0.0
 10
194.4492171072758
 20
14.8351580454476
 30
0.0
 10
194.538993023311
 20
14.7752563421956
 30
0.0
 10
194.5883817636047
 20
14.72102154849206
 30
0.0
 10
194.6745708157381
 20
14.69286240541828
 30
0.0
 10
194.6411260674229
 20
14.65713309652806
 30
0.0
 10
194.621467116631
 20
14.625503879919
 30
0.0
 10
194.5919888217882
 20
14.58475872796065
 30
0.0
 10
194.5688989446031
 20
14.55504663489639
 30
0.0
 10
194.5380205968357
 20
14.50211422668491
 30
0.0
 10
194.4729193365739
 20
14.62740334938897
 30
0.0
 10
194.3796000122416
 20
14.68213900233934
 30
0.0
 10
194.2950636285139
 20
14.73916423939341
 30
0.0
 10
194.1722498125743
 20
14.89675287427524
 30
0.0
 10
194.1764450847302
 20
14.82035806766838
 30
0.0
 10
194.1751478652678
 20
14.77361280161297
 30
0.0
 10
194.1758126448078
 20
14.69584785812603
 30
0.0
 10
194.1755549986958
 20
14.59902068324423
 30
0.0
 10
194.1756431239922
 20
14.4865027907881
 30
0.0
 10
194.1756077302282
 20
14.36524085945699
 30
0.0
 10
194.175651175828
 20
14.2408689785896
 30
0.0
 10
194.1755199942406
 20
14.11967683631335
 30
0.0
 10
194.1759477562047
 20
14.00691148919741
 30
0.0
 10
194.1746678202312
 20
13.91082913768742
 30
0.0
 10
194.1779759851042
 20
13.83113826468697
 30
0.0
 10
194.1715197740088
 20
13.78815175788782
 30
0.0
 10
194.1806208705556
 20
13.74955432372039
 30
0.0
 10
194.1447910339936
 20
13.75810887724068
 30
0.0
 10
194.1115223815252
 20
13.75342519985443
 30
0.0
 10
194.0604562576041
 20
13.75351298759782
 30
0.0
 10
194.0269723972813
 20
13.75794430283818
 30
0.0
 10
193.9907585408754
 20
13.74960793842506
 30
0.0
 10
194.0009782568665
 20
13.79145277179281
 30
0.0
 10
193.9936487887773
 20
13.83778560820171
 30
0.0
 10
193.9973633136103
 20
13.92374831106012
 30
0.0
 10
193.9959480554896
 20
14.02605142704847
 30
0.0
 10
193.9964105554638
 20
14.1445322393151
 30
0.0
 10
193.9962773686231
 20
14.26957683153355
 30
0.0
 10
193.9963015910045
 20
14.39475828107049
 30
0.0
 10
193.9963354925551
 20
14.51286645379058
 30
0.0
 10
193.9962060293132
 20
14.61628748709516
 30
0.0
 10
193.996550754908
 20
14.69932036153667
 30
0.0
 10
193.9958698278691
 20
14.75143368521244
 30
0.0
 10
193.9994586600621
 20
14.87912907821361
 30
0.0
 10
193.7826171386436
 20
14.5804871681962
 30
0.0
 10
193.6021354921952
 20
14.35263981511512
 30
0.0
 10
193.5490322295611
 20
14.49373443289813
 30
0.0
 10
193.5200429133149
 20
14.54325767560943
 30
0.0
 10
193.419664806282
 20
14.6464177979011
 30
0.0
 10
193.740512772326
 20
14.72695035023778
 30
0.0
 10
193.868989700543
 20
14.91066283036434
 30
0.0
 10
194.0906454325358
 20
15.11931995771761
 30
0.0
 10
194.1770224894069
 20
15.29339211228344
 30
0.0
 10
194.4549394229074
 20
15.56967051342515
 30
0.0
 10
194.3346247839284
 20
15.56534559551117
 30
0.0
 10
194.2863197351349
 20
15.56614856202556
 30
0.0
 10
194.2102377454905
 20
15.56574582146587
 30
0.0
 10
194.1167010009751
 20
15.56590275611613
 30
0.0
 10
194.0117594788557
 20
15.56582502576227
 30
0.0
 10
193.9033887738718
 20
15.56595464378557
 30
0.0
 10
193.7981454235898
 20
15.56554393490694
 30
0.0
 10
193.7056237819413
 20
15.56682073671594
 30
0.0
 10
193.6268130800709
 20
15.56340766534853
 30
0.0
 10
193.583967456538
 20
15.57023350036323
 30
0.0
 10
193.5449499586516
 20
15.56065064201126
 30
0.0
 10
193.5526365271865
 20
15.59420779565546
 30
0.0
 10
193.5485464404313
 20
15.62523550322236
 30
0.0
 10
193.5485531368815
 20
15.67236529270903
 30
0.0
 10
193.5526239724912
 20
15.70340941646782
 30
0.0
 10
193.5449495574583
 20
15.73701861635904
 30
0.0
 10
193.5834819405496
 20
15.72748410420876
 30
0.0
 10
193.624122801448
 20
15.73397435498074
 30
0.0
 10
193.6951471850464
 20
15.73100150650257
 30
0.0
 10
193.7729318149634
 20
15.73174761399161
 30
0.0
 10
193.8507292246474
 20
15.73247814044528
 30
0.0
 10
193.9217232089908
 20
15.72954235514164
 30
0.0
 10
193.962427979182
 20
15.73595468772955
 30
0.0
 10
194.000985348991
 20
15.72650524176007
 30
0.0
 10
193.9927342754927
 20
15.76264692158787
 30
0.0
 10
193.9982346669358
 20
15.80129837613229
 30
0.0
 10
193.9955754206163
 20
15.86913528561841
 30
0.0
 10
193.9965815471533
 20
15.9459164153874
 30
0.0
 10
193.9960178018319
 20
16.02849393582757
 30
0.0
 10
193.9970714526593
 20
16.10517329229877
 30
0.0
 10
193.994267586313
 20
16.17331990776698
 30
0.0
 10
194.0000702721304
 20
16.21132399809345
 30
0.0
 10
193.9915654551158
 20
16.24758448077644
 30
0.0
 10
194.0255610233125
 20
16.23755723771849
 30
0.0
 10
194.0594575683099
 20
16.24073266813704
 30
0.0
 10
194.1126669060346
 20
16.23508965640606
 30
0.0
 10
194.1660768574482
 20
16.23434774436423
 30
0.0
 10
194.1995914649491
 20
16.22819223482977
 30
0.0
 10
194.2388086183038
 20
16.2334602977359
 30
0.0
 10
194.2120263698493
 20
16.1925338079349
 30
0.0
 10
194.1708111001724
 20
16.20371204538106
 30
0.0
 10
194.1782641540875
 20
16.15867056192122
 30
0.0
 10
194.1742227952185
 20
16.11412278028143
 30
0.0
 10
194.1761714049642
 20
16.04223572621702
 30
0.0
 10
194.1752364849758
 20
15.96168630588771
 30
0.0
 10
194.176510719003
 20
15.88173995404996
 30
0.0
 10
194.1732043793864
 20
15.80841837083185
 30
0.0
 10
194.1802106179961
 20
15.7668864300257
 30
0.0
 10
194.1701440380126
 20
15.72752418568115
 30
0.0
 10
194.2029814803923
 20
15.73468063430984
 30
0.0
 10
194.2364577296481
 20
15.73027243137947
 30
0.0
 10
194.2915053476019
 20
15.732179433479
 30
0.0
 10
194.3489502595316
 20
15.73185366407291
 30
0.0
 10
194.402302624831
 20
15.73106308733085
 30
0.0
 10
194.4398540896639
 20
15.73313959118077
 30
0.0
 10
194.4623172523238
 20
15.73022338167112
 30
0.0
 10
194.4751678073731
 20
15.73572552644059
 30
0.0
 10
194.4858255685889
 20
15.73801118197794
 30
0.0
 10
194.4986635650143
 20
15.74494972588057
 30
0.0
 10
194.514599103307
 20
15.72853046313675
 30
0.0
 10
194.5410623920892
 20
15.71709122319452
 30
0.0
 10
194.5726805253757
 20
15.69644687835193
 30
0.0
 10
194.5987255892151
 20
15.68116869628296
 30
0.0
 10
194.6128517723973
 20
15.67266976323186
 30
0.0
 10
194.6170254148479
 20
15.67015871511029
 30
0.0
 11
194.6170254148479
 21
15.67015871511029
 31
0.0
 11
194.6049990002243
 21
15.65473571164186
 31
0.0
 11
194.5848961795565
 21
15.64337406233918
 31
0.0
 11
194.4778986355813
 21
15.42440620231159
 31
0.0
 11
194.3477039934324
 21
15.21317201512161
 31
0.0
 11
194.1996540366071
 21
15.01206059027479
 31
0.0
 11
194.2734958253735
 21
14.9614738493538
 31
0.0
 11
194.36056643118
 21
14.8998841165374
 31
0.0
 11
194.4518003750404
 21
14.83413160594426
 31
0.0
 11
194.5381321779687
 21
14.77105653169303
 31
0.0
 11
194.6104963609787
 21
14.71749910790239
 31
0.0
 11
194.6598274450843
 21
14.68029954869098
 31
0.0
 11
194.6486940702213
 21
14.66471410869488
 31
0.0
 11
194.6221452532403
 21
14.62754882870418
 31
0.0
 11
194.5904579555533
 21
14.58319026871528
 31
0.0
 11
194.5639091385723
 21
14.54602498872458
 31
0.0
 11
194.5527757637093
 21
14.53043954872848
 31
0.0
 11
194.4807013362947
 21
14.59754008690614
 31
0.0
 11
194.3852856985381
 21
14.67993354174668
 31
0.0
 11
194.279326415217
 21
14.76785017366917
 31
0.0
 11
194.1756210511091
 21
14.85152024309269
 31
0.0
 11
194.1756210511091
 21
14.83304687900865
 31
0.0
 11
194.1756210511091
 21
14.78162102763957
 31
0.0
 11
194.1756210511091
 21
14.70323405031
 31
0.0
 11
194.1756210511091
 21
14.60387730834449
 31
0.0
 11
194.1756210511091
 21
14.48954216306761
 31
0.0
 11
194.1756210511091
 21
14.36621997580389
 31
0.0
 11
194.1756210511091
 21
14.23990210787789
 31
0.0
 11
194.1756210511091
 21
14.11657992061417
 31
0.0
 11
194.1756210511091
 21
14.00224477533729
 31
0.0
 11
194.1756210511091
 21
13.90288803337178
 31
0.0
 11
194.1756210511091
 21
13.82450105604221
 31
0.0
 11
194.1756210511091
 21
13.77307520467313
 31
0.0
 11
194.1756210511091
 21
13.75460184058909
 31
0.0
 11
194.1569720893627
 21
13.75460184058909
 31
0.0
 11
194.112501488275
 21
13.75460184058909
 31
0.0
 11
194.0594236740736
 21
13.75460184058909
 31
0.0
 11
194.0149530729859
 21
13.75460184058909
 31
0.0
 11
193.9963041112395
 21
13.75460184058909
 31
0.0
 11
193.9963041112395
 21
13.77486797460216
 31
0.0
 11
193.9963041112395
 21
13.83089787452064
 31
0.0
 11
193.9963041112395
 21
13.91553878716345
 31
0.0
 11
193.9963041112395
 21
14.02163795934951
 31
0.0
 11
193.9963041112395
 21
14.14204263789774
 31
0.0
 11
193.9963041112395
 21
14.26960006962705
 31
0.0
 11
193.9963041112395
 21
14.39715750135635
 31
0.0
 11
193.9963041112395
 21
14.51756217990458
 31
0.0
 11
193.9963041112395
 21
14.62366135209064
 31
0.0
 11
193.9963041112395
 21
14.70830226473345
 31
0.0
 11
193.9963041112395
 21
14.76433216465193
 31
0.0
 11
193.9963041112395
 21
14.784598298665
 31
0.0
 11
193.7883272849481
 21
14.59331998274056
 31
0.0
 11
193.5763486358425
 21
14.43414885430809
 31
0.0
 11
193.5495629014482
 21
14.48814671952094
 31
0.0
 11
193.5138765415024
 21
14.54689140572026
 31
0.0
 11
193.4799697494124
 21
14.59192871537979
 31
0.0
 11
193.6830287742319
 21
14.73563387201054
 31
0.0
 11
193.881853195826
 21
14.91168423529987
 31
0.0
 11
194.0677041444178
 21
15.11327514524949
 31
0.0
 11
194.2318427502303
 21
15.33360194186109
 31
0.0
 11
194.3655301434864
 21
15.56585996513638
 31
0.0
 11
194.3465256724482
 21
15.56585996513638
 31
0.0
 11
194.2944166389562
 21
15.56585996513638
 31
0.0
 11
194.2165596124447
 21
15.56585996513638
 31
0.0
 11
194.1203111623479
 21
15.56585996513638
 31
0.0
 11
194.0130278580997
 21
15.56585996513638
 31
0.0
 11
193.9020662691345
 21
15.56585996513638
 31
0.0
 11
193.7947829648865
 21
15.56585996513638
 31
0.0
 11
193.6985345147896
 21
15.56585996513638
 31
0.0
 11
193.6206774882781
 21
15.56585996513638
 31
0.0
 11
193.5685684547861
 21
15.56585996513638
 31
0.0
 11
193.5495639837479
 21
15.56585996513638
 31
0.0
 11
193.5495639837479
 21
15.58311199790984
 31
0.0
 11
193.5495639837479
 21
15.62425146067734
 31
0.0
 11
193.5495639837479
 21
15.67335340010952
 31
0.0
 11
193.5495639837479
 21
15.71449286287701
 31
0.0
 11
193.5495639837479
 21
15.73174489565048
 31
0.0
 11
193.568759848601
 21
15.73174489565048
 31
0.0
 11
193.6193671286684
 21
15.73174489565048
 31
0.0
 11
193.690915352212
 21
15.73174489565048
 31
0.0
 11
193.7729340474937
 21
15.73174489565048
 31
0.0
 11
193.8549527427754
 21
15.73174489565048
 31
0.0
 11
193.9265009663189
 21
15.73174489565048
 31
0.0
 11
193.9771082463864
 21
15.73174489565048
 31
0.0
 11
193.9963041112395
 21
15.73174489565048
 31
0.0
 11
193.9963041112395
 21
15.74926552655221
 31
0.0
 11
193.9963041112395
 21
15.79622081736884
 31
0.0
 11
193.9963041112395
 21
15.86420086526755
 31
0.0
 11
193.9963041112395
 21
15.9447957674155
 31
0.0
 11
193.9963041112395
 21
16.02959562097986
 31
0.0
 11
193.9963041112395
 21
16.11019052312781
 31
0.0
 11
193.9963041112395
 21
16.17817057102652
 31
0.0
 11
193.9963041112395
 21
16.22512586184315
 31
0.0
 11
193.9963041112395
 21
16.24264649274488
 31
0.0
 11
194.0135484112111
 21
16.24165806167517
 31
0.0
 11
194.0566591611401
 21
16.23918698400089
 31
0.0
 11
194.1127031360477
 21
16.23597458302433
 31
0.0
 11
194.1687471109553
 21
16.23276218204777
 31
0.0
 11
194.2118578608843
 21
16.23029110437349
 31
0.0
 11
194.2291021608559
 21
16.22930267330378
 31
0.0
 11
194.2143774674851
 21
16.20556293372638
 31
0.0
 11
194.1756210511091
 21
16.1918376733131
 31
0.0
 11
194.1756210511091
 21
16.17206806177291
 31
0.0
 11
194.1756210511091
 21
16.11994817680332
 31
0.0
 11
194.1756210511091
 21
16.04626144288078
 31
0.0
 11
194.1756210511091
 21
15.96179128448179
 31
0.0
 11
194.1756210511091
 21
15.87732112608279
 31
0.0
 11
194.1756210511091
 21
15.80363439216027
 31
0.0
 11
194.1756210511091
 21
15.75151450719067
 31
0.0
 11
194.1756210511091
 21
15.73174489565048
 31
0.0
 11
194.1916227112937
 21
15.73174489565048
 31
0.0
 11
194.2328901507171
 21
15.73174489565048
 31
0.0
 11
194.2893170576838
 21
15.73174489565048
 31
0.0
 11
194.3507971204982
 21
15.73174489565048
 31
0.0
 11
194.4072240274649
 21
15.73174489565048
 31
0.0
 11
194.4484914668883
 21
15.73174489565048
 31
0.0
 11
194.4644931270729
 21
15.73174489565048
 31
0.0
 11
194.4728206422925
 21
15.73451387455924
 31
0.0
 11
194.4882860277004
 21
15.73965626396122
 31
0.0
 11
194.49661354292
 21
15.74242524286998
 31
0.0
 11
194.5091363776005
 21
15.73490952398297
 31
0.0
 11
194.5389985218386
 21
15.71698742509857
 31
0.0
 11
194.5746404359293
 21
15.6955965328817
 31
0.0
 11
194.6045025801674
 21
15.6776744339973
 31
0.0
 11
194.6170254148479
 21
15.67015871511029
 31
0.0
  0
SPLINE
  5
B9
102
{ACAD_REACTORS
330
D6
102
}
330
48
100
AcDbEntity
  8
_U_30EC_U_30A4_U_30E4_U_30FC_1
  6
Continuous
 62
     2
100
AcDbSpline
210
0.0
220
0.0
230
1.0
 70
    11
 71
     3
 72
    91
 73
    87
 74
    85
 42
0.000000001
 43
0.0000000001
 44
0.00000001
 40
0.0
 40
0.0
 40
0.0
 40
0.0
 40
0.0267532254356826
 40
0.0856103386464511
 40
0.1444674521997296
 40
0.1712206856619314
 40
0.2039416005643336
 40
0.2955601971653283
 40
0.4362601844618001
 40
0.6162252844508334
 40
0.8256392189705781
 40
1.054685709844547
 40
1.293548478893668
 40
1.532411247938412
 40
1.761457738799676
 40
1.970871673298673
 40
2.150836773256898
 40
2.291536760495759
 40
2.383155356836837
 40
2.415876284101485
 40
2.442629517488141
 40
2.501486630949299
 40
2.560343744424475
 40
2.58709697782676
 40
2.617068194441187
 40
2.699247336756357
 40
2.822032643466641
 40
2.973822353258199
 40
3.143014704823641
 40
3.31800793688022
 40
3.487200288187053
 40
3.638989997548591
 40
3.76177530379509
 40
3.843954445753424
 40
3.87392566223012
 40
3.890812773500831
 40
3.907699884772013
 40
3.937960767857537
 40
3.980983618142628
 40
4.19908591522876
 40
4.439444339237541
 40
4.6775882412612
 40
5.050698317838115
 40
5.448212454763529
 40
5.855291218044997
 40
6.138575438885646
 40
6.417434507584522
 40
6.444551104394207
 40
6.504207617363509
 40
6.563864130314835
 40
6.590980727104429
 40
6.848609460381865
 40
7.109611990668829
 40
7.352910904446492
 40
7.55783022070582
 40
7.587518925913733
 40
7.652834077376141
 40
7.718149228846068
 40
7.747837934062366
 40
7.854880190301272
 40
7.976511257403792
 40
8.369487896592593
 40
8.757514959223858
 40
9.126072419331292
 40
9.460639380392383
 40
9.746695593036153
 40
9.77756994311893
 40
9.807050320932047
 40
9.830377336129178
 40
9.88600329543628
 40
9.952395569430196
 40
10.00802152870657
 40
10.03134854388249
 40
10.21356951009614
 40
10.42203479292905
 40
10.66154556731096
 40
10.91693789564335
 40
11.15832906556594
 40
11.18982674596651
 40
11.27286608520436
 40
11.39026653033378
 40
11.52484752840914
 40
11.65942852648476
 40
11.77682897161512
 40
11.85986831085711
 40
11.89136598230456
 40
11.89136598230456
 40
11.89136598230456
 40
11.89136598230456
 10
190.7027885008196
 20
14.70699600701769
 30
0.0
 10
190.7028237765288
 20
14.71587847311982
 30
0.0
 10
190.7029366710796
 20
14.74430237047345
 30
0.0
 10
190.7012984568489
 20
14.79409639169804
 30
0.0
 10
190.7069750292911
 20
14.83657564478157
 30
0.0
 10
190.6956928731706
 20
14.88730154856852
 30
0.0
 10
190.7632296979032
 20
14.87012900740114
 30
0.0
 10
190.8388029210701
 20
14.88290227166002
 30
0.0
 10
190.9828357056001
 20
14.87629729457386
 30
0.0
 10
191.1569419185427
 20
14.87888462206471
 30
0.0
 10
191.3639599611003
 20
14.87800591955557
 30
0.0
 10
191.5894688172378
 20
14.87828207920032
 30
0.0
 10
191.8251162293406
 20
14.87818339658668
 30
0.0
 10
192.0607640531349
 20
14.87828184412772
 30
0.0
 10
192.2862717580626
 20
14.87800678190793
 30
0.0
 10
192.4932934632805
 20
14.87888186270739
 30
0.0
 10
192.667388891529
 20
14.87630522678452
 30
0.0
 10
192.8114492071986
 20
14.88288290449218
 30
0.0
 10
192.8869691915293
 20
14.87016243405609
 30
0.0
 10
192.9545776037031
 20
14.88726400191692
 30
0.0
 10
192.9430840140676
 20
14.83674785802943
 30
0.0
 10
192.9505104581734
 20
14.79253252226502
 30
0.0
 10
192.9428838927986
 20
14.74867966503609
 30
0.0
 10
192.9546489459426
 20
14.69878374479325
 30
0.0
 10
192.8930788491983
 20
14.71393227712508
 30
0.0
 10
192.8256791738672
 20
14.70310665350671
 30
0.0
 10
192.7013004056222
 20
14.70852031626233
 30
0.0
 10
192.5554428236572
 20
14.70649205390782
 30
0.0
 10
192.3893576440086
 20
14.70715777578383
 30
0.0
 10
192.2188412621725
 20
14.70689643521239
 30
0.0
 10
192.0519790855389
 20
14.70721553391091
 30
0.0
 10
191.9087346827105
 20
14.70635302590759
 30
0.0
 10
191.7773313869835
 20
14.70863300482986
 30
0.0
 10
191.7239859134655
 20
14.70407704374198
 30
0.0
 10
191.6485188456913
 20
14.70999914992875
 30
0.0
 10
191.6769075779231
 20
14.70094169343348
 30
0.0
 10
191.7033652409542
 20
14.69725912268925
 30
0.0
 10
191.6633522907701
 20
14.66654271968273
 30
0.0
 10
191.5713663691868
 20
14.67667591174635
 30
0.0
 10
191.5439396207069
 20
14.43032502247786
 30
0.0
 10
191.4478793967234
 20
14.27499558764377
 30
0.0
 10
191.1917277964473
 20
13.94525417931568
 30
0.0
 10
191.7627537732762
 20
14.0843002221045
 30
0.0
 10
192.0173656320517
 20
14.08291779973363
 30
0.0
 10
192.6279647048616
 20
13.99790569242081
 30
0.0
 10
192.3340698578084
 20
14.29685417558203
 30
0.0
 10
192.0133304286516
 20
14.44330856901777
 30
0.0
 10
192.1313543360434
 20
14.50025540818286
 30
0.0
 10
192.172471646626
 20
14.52420099873347
 30
0.0
 10
192.2156812394411
 20
14.5459975881123
 30
0.0
 10
192.3174574094449
 20
14.60928721253904
 30
0.0
 10
192.4328867625248
 20
14.35147151408781
 30
0.0
 10
192.6329591642277
 20
14.21616041113679
 30
0.0
 10
192.7269077387229
 20
14.03792795138884
 30
0.0
 10
192.9558829746391
 20
13.87997821027044
 30
0.0
 10
192.8596031846708
 20
13.82915972576301
 30
0.0
 10
192.8167959763779
 20
13.79881292523056
 30
0.0
 10
192.7718243528779
 20
13.77466130281462
 30
0.0
 10
192.7121720925213
 20
13.72552146747575
 30
0.0
 10
192.6789731061325
 20
13.85997475673608
 30
0.0
 10
192.5582013350795
 20
14.01594265286577
 30
0.0
 10
192.1970976005979
 20
13.88569928059554
 30
0.0
 10
191.8385061955541
 20
13.90224694409481
 30
0.0
 10
191.457092045008
 20
13.89331229351862
 30
0.0
 10
191.1703455282892
 20
13.8288267167241
 30
0.0
 10
190.8592055599713
 20
13.94230668192817
 30
0.0
 10
190.8268737818788
 20
13.83122259927767
 30
0.0
 10
190.7896178253318
 20
13.81196313850004
 30
0.0
 10
190.7865737632754
 20
13.85874784087292
 30
0.0
 10
190.7679892860607
 20
13.89806853919128
 30
0.0
 10
190.7512436616779
 20
13.95765983478232
 30
0.0
 10
190.7383730915753
 20
14.00201969871281
 30
0.0
 10
190.7042327806432
 20
14.09106331120203
 30
0.0
 10
190.9482714457753
 20
14.02181042943766
 30
0.0
 10
191.1441394486672
 20
14.00030369057738
 30
0.0
 10
191.2395426381278
 20
14.28226484478462
 30
0.0
 10
191.2945135769596
 20
14.44363045421122
 30
0.0
 10
191.5159619357156
 20
14.71391177589736
 30
0.0
 10
191.3849239381216
 20
14.70548446853731
 30
0.0
 10
191.3110026555854
 20
14.70779008496967
 30
0.0
 10
191.1977459876244
 20
14.70671378321655
 30
0.0
 10
191.0694251807484
 20
14.70707639076507
 30
0.0
 10
190.9404252030415
 20
14.70697724466083
 30
0.0
 10
190.828784094629
 20
14.70699932712569
 30
0.0
 10
190.7514663970026
 20
14.70699579189667
 30
0.0
 10
190.713287653201
 20
14.70699595845078
 30
0.0
 10
190.7027885008196
 20
14.70699600701769
 30
0.0
 11
190.7027885008196
 21
14.70699600701769
 31
0.0
 11
190.7027885008196
 21
14.73374924051796
 31
0.0
 11
190.7027885008196
 21
14.79260635421855
 31
0.0
 11
190.7027885008196
 21
14.85146346791913
 31
0.0
 11
190.7027885008196
 21
14.8782167014194
 31
0.0
 11
190.7355094280989
 21
14.8782167014194
 31
0.0
 11
190.8271280244809
 21
14.8782167014194
 31
0.0
 11
190.9678280117819
 21
14.8782167014194
 31
0.0
 11
191.147793111818
 21
14.8782167014194
 31
0.0
 11
191.3572070464054
 21
14.8782167014194
 31
0.0
 11
191.5862535373604
 21
14.8782167014194
 31
0.0
 11
191.8251163064993
 21
14.8782167014194
 31
0.0
 11
192.0639790756381
 21
14.8782167014194
 31
0.0
 11
192.2930255665931
 21
14.8782167014194
 31
0.0
 11
192.5024395011806
 21
14.8782167014194
 31
0.0
 11
192.6824046012168
 21
14.8782167014194
 31
0.0
 11
192.8231045885177
 21
14.8782167014194
 31
0.0
 11
192.9147231848997
 21
14.8782167014194
 31
0.0
 11
192.947444112179
 21
14.8782167014194
 31
0.0
 11
192.947444112179
 21
14.85146346791913
 31
0.0
 11
192.947444112179
 21
14.79260635421855
 31
0.0
 11
192.947444112179
 21
14.73374924051796
 31
0.0
 11
192.947444112179
 21
14.70699600701769
 31
0.0
 11
192.9174728954758
 21
14.70699600701769
 31
0.0
 11
192.8352937529027
 21
14.70699600701769
 31
0.0
 11
192.712508445764
 21
14.70699600701769
 31
0.0
 11
192.5607187353642
 21
14.70699600701769
 31
0.0
 11
192.3915263830078
 21
14.70699600701769
 31
0.0
 11
192.2165331499991
 21
14.70699600701769
 31
0.0
 11
192.0473407976427
 21
14.70699600701769
 31
0.0
 11
191.8955510872428
 21
14.70699600701769
 31
0.0
 11
191.7727657801042
 21
14.70699600701769
 31
0.0
 11
191.690586637531
 21
14.70699600701769
 31
0.0
 11
191.6606154208279
 21
14.70699600701769
 31
0.0
 11
191.6766359412525
 21
14.70165583340789
 31
0.0
 11
191.6926564616771
 21
14.6963156597981
 31
0.0
 11
191.6706155681421
 21
14.67558114591444
 31
0.0
 11
191.6284861855363
 21
14.66685871536109
 31
0.0
 11
191.5365235541377
 21
14.46909247312658
 31
0.0
 11
191.4279078521763
 21
14.25467511978511
 31
0.0
 11
191.3127500824807
 21
14.0462255905162
 31
0.0
 11
191.685736667502
 21
14.05582441253027
 31
0.0
 11
192.0830700036151
 21
14.06781232404993
 31
0.0
 11
192.4899342191145
 21
14.08102711828528
 31
0.0
 11
192.2983119496979
 21
14.28966761302476
 31
0.0
 11
192.0966752013698
 21
14.4822942015183
 31
0.0
 11
192.1204947794749
 21
14.49525327269563
 31
0.0
 11
192.1728978513061
 21
14.52376322928575
 31
0.0
 11
192.2253009231374
 21
14.55227318587587
 31
0.0
 11
192.2491205012425
 21
14.5652322570532
 31
0.0
 11
192.4387101558627
 21
14.39079508370266
 31
0.0
 11
192.6200310940436
 21
14.20305846374089
 31
0.0
 11
192.7777729231148
 21
14.01782380992434
 31
0.0
 11
192.8966252504058
 21
13.85089253500948
 31
0.0
 11
192.8715408217923
 21
13.83501202286069
 31
0.0
 11
192.8163550788425
 21
13.80007489613334
 31
0.0
 11
192.7611693358928
 21
13.76513776940599
 31
0.0
 11
192.7360849072793
 21
13.7492572572572
 31
0.0
 11
192.6775518151612
 21
13.83887824681808
 31
0.0
 11
192.6050015078457
 21
13.93650288221028
 31
0.0
 11
192.2125412924095
 21
13.91636286943756
 31
0.0
 11
191.8249474069561
 21
13.89803302999771
 31
0.0
 11
191.4567378976213
 21
13.88202178722394
 31
0.0
 11
191.1224308105413
 21
13.86883756444946
 31
0.0
 11
190.8365441918518
 21
13.85898878500748
 31
0.0
 11
190.821186232174
 21
13.83220523466693
 31
0.0
 11
190.7937434290546
 21
13.82143559057238
 31
0.0
 11
190.786792719232
 21
13.84370299445571
 31
0.0
 11
190.7702179496548
 21
13.89680218833134
 31
0.0
 11
190.7504351601596
 21
13.96017864553774
 31
0.0
 11
190.7338603905825
 21
14.01327783941337
 31
0.0
 11
190.7269096807599
 21
14.0355452432967
 31
0.0
 11
190.9091199859153
 21
14.03751638912951
 31
0.0
 11
191.1174975848589
 21
14.04356211829469
 31
0.0
 11
191.2303203127216
 21
14.25483550301553
 31
0.0
 11
191.3407936722035
 21
14.48509813155878
 31
0.0
 11
191.4358254265627
 21
14.70699600701769
 31
0.0
 11
191.4043277461597
 21
14.70699600701769
 31
0.0
 11
191.3212884069153
 21
14.70699600701769
 31
0.0
 11
191.2038879617768
 21
14.70699600701769
 31
0.0
 11
191.0693069636912
 21
14.70699600701769
 31
0.0
 11
190.9347259656055
 21
14.70699600701769
 31
0.0
 11
190.817325520467
 21
14.70699600701769
 31
0.0
 11
190.7342861812226
 21
14.70699600701769
 31
0.0
 11
190.7027885008196
 21
14.70699600701769
 31
0.0
  0
SPLINE
  5
BA
102
{ACAD_REACTORS
330
D7
102
}
330
48
100
AcDbEntity
  8
_U_30EC_U_30A4_U_30E4_U_30FC_1
  6
Continuous
 62
     2
100
AcDbSpline
210
0.0
220
0.0
230
1.0
 70
    11
 71
     3
 72
    35
 73
    31
 74
    29
 42
0.000000001
 43
0.0000000001
 44
0.00000001
 40
0.0
 40
0.0
 40
0.0
 40
0.0
 40
0.0335231036620067
 40
0.0713218571711842
 40
0.4278866681486885
 40
0.8116865841963669
 40
1.198190238000075
 40
1.561379546812734
 40
1.659983174622176
 40
1.7593155738073
 40
2.132719617231236
 40
2.525233363588997
 40
2.910815397779907
 40
3.265244364303528
 40
3.592606723582276
 40
3.964386154604235
 40
4.359942131738061
 40
4.758154118639566
 40
4.843846538700166
 40
4.936650065543497
 40
5.256616602537561
 40
5.581707404416288
 40
5.899719158308386
 40
6.198363494281002
 40
6.466301046616058
 40
6.49389531153738
 40
6.559697020197174
 40
6.63823454344275
 40
6.704036252154504
 40
6.731630508423311
 40
6.731630508423311
 40
6.731630508423311
 40
6.731630508423311
 10
191.9736010568669
 20
16.23463843719128
 30
0.0
 10
191.9676006097789
 20
16.22480690542318
 30
0.0
 10
191.9548344099157
 20
16.20388988579791
 30
0.0
 10
191.7949362006553
 20
16.17127126532715
 30
0.0
 10
192.2322025842338
 20
15.88206680336697
 30
0.0
 10
192.4345394828261
 20
15.68041138358441
 30
0.0
 10
192.6819564267974
 20
15.43749387603281
 30
0.0
 10
193.1831513624608
 20
15.36047662757775
 30
0.0
 10
193.012556219897
 20
15.21876939174657
 30
0.0
 10
192.9383299463203
 20
15.01710366209097
 30
0.0
 10
192.6131432248188
 20
15.36956287174721
 30
0.0
 10
192.3277741670664
 20
15.53175212559559
 30
0.0
 10
192.0337604077658
 20
15.73687130053047
 30
0.0
 10
191.8084452691134
 20
16.21827488595461
 30
0.0
 10
191.5993085055522
 20
15.75343046609226
 30
0.0
 10
191.3207873674834
 20
15.54350952252913
 30
0.0
 10
191.0371383177208
 20
15.37424456359985
 30
0.0
 10
190.7078639527832
 20
15.0014236090794
 30
0.0
 10
190.6277012318223
 20
15.19708014459002
 30
0.0
 10
190.4759724909745
 20
15.32491104190598
 30
0.0
 10
190.9083395826794
 20
15.40454031765933
 30
0.0
 10
191.0962565329766
 20
15.6002663491547
 30
0.0
 10
191.3468477420502
 20
15.81632996916754
 30
0.0
 10
191.5714350470161
 20
15.98190992300056
 30
0.0
 10
191.6259775409713
 20
16.26133964636831
 30
0.0
 10
191.7494661029011
 20
16.24737950408079
 30
0.0
 10
191.806027334452
 20
16.24521268867647
 30
0.0
 10
191.8761870984945
 20
16.24046859881357
 30
0.0
 10
191.9333414022105
 20
16.23709429350536
 30
0.0
 10
191.9644190320839
 20
16.23519854711114
 30
0.0
 10
191.9736010568669
 20
16.23463843719128
 30
0.0
 11
191.9736010568669
 21
16.23463843719128
 31
0.0
 11
191.9525319069885
 21
16.20856374969782
 31
0.0
 11
191.9174464559425
 21
16.1945011455347
 31
0.0
 11
192.1512374769095
 21
15.92527961131385
 31
0.0
 11
192.4414585957566
 21
15.67413407969263
 31
0.0
 11
192.7612797483685
 21
15.45710987618787
 31
0.0
 11
193.083870870629
 21
15.29025232631639
 31
0.0
 11
193.0213299868076
 21
15.21402035584925
 31
0.0
 11
192.9688035818976
 21
15.12971197913419
 31
0.0
 11
192.6436279095814
 21
15.31326404831575
 31
0.0
 11
192.3237227768436
 21
15.54070139743425
 31
0.0
 11
192.0354200158608
 21
15.7967385512331
 31
0.0
 11
191.8050514588095
 21
16.0660900344557
 31
0.0
 11
191.5995531719516
 21
15.81126348721039
 31
0.0
 11
191.3288301341535
 21
15.55645182277757
 31
0.0
 11
191.0119538423246
 21
15.31969466354857
 31
0.0
 11
190.6679957933741
 21
15.11903163191468
 31
0.0
 11
190.6218855341338
 21
15.19126067703554
 31
0.0
 11
190.5636970460348
 21
15.26355586798968
 31
0.0
 11
190.8433040489015
 21
15.41911456961743
 31
0.0
 11
191.1093004621154
 21
15.60601009790402
 31
0.0
 11
191.3499997459746
 21
15.81384496285206
 31
0.0
 11
191.5537153607774
 21
16.03222167446415
 31
0.0
 11
191.7087607668218
 21
16.25074274274289
 31
0.0
 11
191.7363041569865
 21
16.24906789496552
 31
0.0
 11
191.8019845489177
 21
16.24507402718872
 31
0.0
 11
191.880377274771
 21
16.24030715274545
 31
0.0
 11
191.9460576667022
 21
16.23631328496865
 31
0.0
 11
191.9736010568669
 21
16.23463843719128
 31
0.0
  0
SPLINE
  5
BB
102
{ACAD_REACTORS
330
D8
102
}
330
48
100
AcDbEntity
  8
_U_30EC_U_30A4_U_30E4_U_30FC_1
  6
Continuous
 62
     2
100
AcDbSpline
210
0.0
220
0.0
230
1.0
 70
    11
 71
     3
 72
    15
 73
    11
 74
     9
 42
0.000000001
 43
0.0000000001
 44
0.00000001
 40
0.0
 40
0.0
 40
0.0
 40
0.0
 40
0.2785535985096383
 40
0.5215624748199047
 40
0.6076917376040097
 40
0.6938210001740247
 40
0.9405019146454476
 40
1.221691403489001
 40
1.300471877080881
 40
1.37925234168461
 40
1.37925234168461
 40
1.37925234168461
 40
1.37925234168461
 10
189.5681493630999
 20
16.22930267330378
 30
0.0
 10
189.6296017794177
 20
16.17691646592714
 30
0.0
 10
189.7446649974114
 20
16.07882876798223
 30
0.0
 10
190.0397348497243
 20
15.9288978589722
 30
0.0
 10
189.9025147631858
 20
15.84343227515011
 30
0.0
 10
189.8041227843779
 20
15.71085785201554
 30
0.0
 10
189.713003359065
 20
16.01616985781413
 30
0.0
 10
189.3636839480657
 20
16.07967869465367
 30
0.0
 10
189.5119258376571
 20
16.17896509880874
 30
0.0
 10
189.5494081874236
 20
16.21252348402379
 30
0.0
 10
189.5681493630999
 20
16.22930267330378
 30
0.0
 11
189.5681493630999
 21
16.22930267330378
 31
0.0
 11
189.7919222440596
 21
16.06341774278973
 31
0.0
 11
189.9695046306383
 21
15.89753281227559
 31
0.0
 11
189.9066308127979
 21
15.83866743034589
 31
0.0
 11
189.8437569949576
 21
15.7798020484162
 31
0.0
 11
189.6688535117725
 21
15.95375677059488
 31
0.0
 11
189.4478256856141
 21
16.12757920110698
 31
0.0
 11
189.507987524357
 21
16.17844093720538
 31
0.0
 11
189.5681493630999
 21
16.22930267330378
 31
0.0
  0
SPLINE
  5
BC
102
{ACAD_REACTORS
330
D9
102
}
330
48
100
AcDbEntity
  8
_U_30EC_U_30A4_U_30E4_U_30FC_1
  6
Continuous
 62
     2
100
AcDbSpline
210
0.0
220
0.0
230
1.0
 70
    11
 71
     3
 72
    75
 73
    71
 74
    69
 42
0.000000001
 43
0.0000000001
 44
0.00000001
 40
0.0
 40
0.0
 40
0.0
 40
0.0
 40
0.0342546099129638
 40
0.1245622414432222
 40
0.2522385480897234
 40
0.3985991922940218
 40
0.5449598364980217
 40
0.6726361431438088
 40
0.7629437746736107
 40
0.7971983935297084
 40
1.101723623449612
 40
1.408591244036559
 40
1.433332471690255
 40
1.487763172450032
 40
1.542193873081841
 40
1.566935100592381
 40
1.923523931821695
 40
2.271755704953467
 40
2.590579755100682
 40
2.858943305580918
 40
2.889120339308904
 40
2.9183058551909
 40
2.941366645531017
 40
2.996357760972882
 40
3.061992318140409
 40
3.11698343362656
 40
3.140044223997242
 40
3.411273122936082
 40
3.732441619740748
 40
3.761068217532446
 40
3.837787499630004
 40
3.948858699125637
 40
4.08054104910401
 40
4.219093782625389
 40
4.350776132721935
 40
4.461847332405265
 40
4.538566614677995
 40
4.56719321254424
 40
4.594907573998498
 40
4.666381453557037
 40
4.764111044010647
 40
4.87059253812545
 40
4.968322128641901
 40
5.039796008286586
 40
5.067510369784046
 40
5.09426360318526
 40
5.153120716667896
 40
5.211977830150342
 40
5.238731063551347
 40
5.272290535138586
 40
5.363380529444447
 40
5.497618415781124
 40
5.660621563453367
 40
5.838007341749067
 40
6.015393119910419
 40
6.178396267038044
 40
6.312634151841996
 40
6.403724143058986
 40
6.437283612672081
 40
6.464036846260695
 40
6.522893960004312
 40
6.581751071483579
 40
6.608504301590525
 40
6.637253941280672
 40
6.711397748902524
 40
6.812778057283136
 40
6.923237199248913
 40
7.024617507623557
 40
7.098761315207209
 40
7.12751094600716
 40
7.12751094600716
 40
7.12751094600716
 40
7.12751094600716
 10
188.4418622390564
 20
14.95849128473259
 30
0.0
 10
188.4418622819707
 20
14.94707313408715
 30
0.0
 10
188.4418624481129
 20
14.90555257842624
 30
0.0
 10
188.4418593081787
 20
14.82146922003768
 30
0.0
 10
188.4418788279801
 20
14.70004497322326
 30
0.0
 10
188.4417912187737
 20
14.55980494047447
 30
0.0
 10
188.442111623523
 20
14.42006556794577
 30
0.0
 10
188.4411605909741
 20
14.29745038894931
 30
0.0
 10
188.4431978595967
 20
14.21587074438045
 30
0.0
 10
188.4349433178747
 20
14.06271267077701
 30
0.0
 10
188.7430797940899
 20
14.2256023605471
 30
0.0
 10
189.0350645173737
 20
14.39482938687998
 30
0.0
 10
189.0408354448707
 20
14.25973235781908
 30
0.0
 10
189.0455471719891
 20
14.21617221160443
 30
0.0
 10
189.0482535411918
 20
14.17211249350545
 30
0.0
 10
189.067254567296
 20
14.02272590363135
 30
0.0
 10
188.6583942247302
 20
14.08681172241262
 30
0.0
 10
188.3793710348832
 20
13.97296341411016
 30
0.0
 10
188.1018081587167
 20
13.87364095811147
 30
0.0
 10
187.8099837184401
 20
13.91630687596346
 30
0.0
 10
187.7869144678659
 20
13.81321679744542
 30
0.0
 10
187.7537474383332
 20
13.78691091244471
 30
0.0
 10
187.7480653962739
 20
13.83455309036304
 30
0.0
 10
187.7284214559045
 20
13.87180336115071
 30
0.0
 10
187.7095089485623
 20
13.9300738784756
 30
0.0
 10
187.6942849867708
 20
13.97385201007804
 30
0.0
 10
187.6477246372936
 20
14.08759421046299
 30
0.0
 10
187.9890897312451
 20
14.05576301120049
 30
0.0
 10
188.2679649367386
 20
14.02161435106476
 30
0.0
 10
188.2617753034907
 20
14.1691397647965
 30
0.0
 10
188.2630935452773
 20
14.2401315090883
 30
0.0
 10
188.2624831689948
 20
14.34719767958659
 30
0.0
 10
188.2625871570725
 20
14.47398529785995
 30
0.0
 10
188.2629987964055
 20
14.60849243496046
 30
0.0
 10
188.2613907841969
 20
14.7339554995118
 30
0.0
 10
188.2659902567925
 20
14.84505246719112
 30
0.0
 10
188.256418650221
 20
14.90761886800684
 30
0.0
 10
188.2704001783691
 20
14.96595388294996
 30
0.0
 10
188.2147384386705
 20
14.95289710582233
 30
0.0
 10
188.1575655197821
 20
14.96136307749493
 30
0.0
 10
188.0616048925648
 20
14.95729976080631
 30
0.0
 10
187.963376752282
 20
14.95970889852469
 30
0.0
 10
187.8672582457561
 20
14.95551600613383
 30
0.0
 10
187.8104648525811
 20
14.96429346441157
 30
0.0
 10
187.7550356873384
 20
14.95094936850116
 30
0.0
 10
187.7670679427917
 20
15.00036910959252
 30
0.0
 10
187.7592003173937
 20
15.0439398803039
 30
0.0
 10
187.7666295563828
 20
15.0883046911852
 30
0.0
 10
187.7551930564143
 20
15.13902297763985
 30
0.0
 10
187.8232102370133
 20
15.12162460757738
 30
0.0
 10
187.8968496879747
 20
15.13417450237183
 30
0.0
 10
188.0325064058211
 20
15.12799677011093
 30
0.0
 10
188.1884909024525
 20
15.13029203093079
 30
0.0
 10
188.3615926358143
 20
15.12940968262525
 30
0.0
 10
188.5346942964181
 20
15.13029207142403
 30
0.0
 10
188.6906789811216
 20
15.12799662955545
 30
0.0
 10
188.8263351889797
 20
15.13417486262426
 30
0.0
 10
188.8999756705652
 20
15.1216239421833
 30
0.0
 10
188.9679914174724
 20
15.13902373012137
 30
0.0
 10
188.9565590885922
 20
15.0883013041455
 30
0.0
 10
188.9639539458297
 20
15.04397060811103
 30
0.0
 10
188.956203991227
 20
15.0002830755019
 30
0.0
 10
188.9681203741877
 20
14.95063590098472
 30
0.0
 10
188.9108170223616
 20
14.9646141133842
 30
0.0
 10
188.8520145789773
 20
14.95539755673249
 30
0.0
 10
188.7525293633199
 20
14.95952268164924
 30
0.0
 10
188.649428009835
 20
14.95822760025883
 30
0.0
 10
188.5537846354573
 20
14.95854077077635
 30
0.0
 10
188.4857467971617
 20
14.9584877669714
 30
0.0
 10
188.4514462213443
 20
14.95849051871651
 30
0.0
 10
188.4418622390564
 20
14.95849128473259
 30
0.0
 11
188.4418622390564
 21
14.95849128473259
 31
0.0
 11
188.4418622390564
 21
14.9242366658718
 31
0.0
 11
188.4418622390564
 21
14.83392903432971
 31
0.0
 11
188.4418622390564
 21
14.70625272766677
 31
0.0
 11
188.4418622390564
 21
14.55989208344339
 31
0.0
 11
188.4418622390564
 21
14.41353143922001
 31
0.0
 11
188.4418622390564
 21
14.28585513255706
 31
0.0
 11
188.4418622390564
 21
14.19554750101498
 31
0.0
 11
188.4418622390564
 21
14.16129288215419
 31
0.0
 11
188.7391932644568
 21
14.22709475713765
 31
0.0
 11
189.0384623627245
 21
14.29496038212068
 31
0.0
 11
189.0405487124976
 21
14.27030727882824
 31
0.0
 11
189.0451386819987
 21
14.21607045158489
 31
0.0
 11
189.0497286514996
 21
14.16183362434153
 31
0.0
 11
189.0518150012728
 21
14.13718052104909
 31
0.0
 11
188.705639688924
 21
14.05163370140898
 31
0.0
 11
188.3669653138838
 21
13.97060877629902
 31
0.0
 11
188.0563731516688
 21
13.89862764024929
 31
0.0
 11
187.7944444777956
 21
13.84021218778989
 31
0.0
 11
187.7817515029292
 21
13.81283442738016
 31
0.0
 11
187.7569794787513
 21
13.79740260446738
 31
0.0
 11
187.7491867589501
 21
13.81910683390639
 31
0.0
 11
187.7306041194242
 21
13.87086307333786
 31
0.0
 11
187.70842483999
 21
13.9326366494335
 31
0.0
 11
187.6898422004641
 21
13.98439288886497
 31
0.0
 11
187.6820494806629
 21
14.00609711830398
 31
0.0
 11
187.9482776335931
 21
14.05794001759663
 31
0.0
 11
188.2626334936289
 21
14.12373968771908
 31
0.0
 11
188.2626334936289
 21
14.15236628569622
 31
0.0
 11
188.2626334936289
 21
14.22908556827497
 31
0.0
 11
188.2626334936289
 21
14.34015676842628
 31
0.0
 11
188.2626334936289
 21
14.47183911912115
 31
0.0
 11
188.2626334936289
 21
14.61039185333052
 31
0.0
 11
188.2626334936289
 21
14.74207420402538
 31
0.0
 11
188.2626334936289
 21
14.8531454041767
 31
0.0
 11
188.2626334936289
 21
14.92986468675545
 31
0.0
 11
188.2626334936289
 21
14.95849128473259
 31
0.0
 11
188.2349191321108
 21
14.95849128473259
 31
0.0
 11
188.1634452524063
 21
14.95849128473259
 31
0.0
 11
188.06571566179
 21
14.95849128473259
 31
0.0
 11
187.9592341675364
 21
14.95849128473259
 31
0.0
 11
187.8615045769201
 21
14.95849128473259
 31
0.0
 11
187.7900306972156
 21
14.95849128473259
 31
0.0
 11
187.7623163356975
 21
14.95849128473259
 31
0.0
 11
187.7623163356975
 21
14.98524451823284
 31
0.0
 11
187.7623163356975
 21
15.04410163193339
 31
0.0
 11
187.7623163356975
 21
15.10295874563394
 31
0.0
 11
187.7623163356975
 21
15.12971197913419
 31
0.0
 11
187.7958758072874
 21
15.12971197913419
 31
0.0
 11
187.8869658016031
 21
15.12971197913419
 31
0.0
 11
188.0212036879629
 21
15.12971197913419
 31
0.0
 11
188.1842068356856
 21
15.12971197913419
 31
0.0
 11
188.3615926140897
 21
15.12971197913419
 31
0.0
 11
188.5389783924938
 21
15.12971197913419
 31
0.0
 11
188.7019815402164
 21
15.12971197913419
 31
0.0
 11
188.8362194265763
 21
15.12971197913419
 31
0.0
 11
188.9273094208918
 21
15.12971197913419
 31
0.0
 11
188.9608688924818
 21
15.12971197913419
 31
0.0
 11
188.9608688924818
 21
15.10295874563394
 31
0.0
 11
188.9608688924818
 21
15.04410163193339
 31
0.0
 11
188.9608688924818
 21
14.98524451823284
 31
0.0
 11
188.9608688924818
 21
14.95849128473259
 31
0.0
 11
188.9321192527877
 21
14.95849128473259
 31
0.0
 11
188.8579754451555
 21
14.95849128473259
 31
0.0
 11
188.7565951367604
 21
14.95849128473259
 31
0.0
 11
188.6461359947778
 21
14.95849128473259
 31
0.0
 11
188.5447556863827
 21
14.95849128473259
 31
0.0
 11
188.4706118787505
 21
14.95849128473259
 31
0.0
 11
188.4418622390564
 21
14.95849128473259
 31
0.0
  0
SPLINE
  5
BD
102
{ACAD_REACTORS
330
DA
102
}
330
48
100
AcDbEntity
  8
_U_30EC_U_30A4_U_30E4_U_30FC_1
  6
Continuous
 62
     2
100
AcDbSpline
210
0.0
220
0.0
230
1.0
 70
    11
 71
     3
 72
    91
 73
    87
 74
    85
 42
0.000000001
 43
0.0000000001
 44
0.00000001
 40
0.0
 40
0.0
 40
0.0
 40
0.0
 40
0.0345987051695718
 40
0.1258134969461369
 40
0.2547723404888987
 40
0.4026032099154125
 40
0.5504340793416704
 40
0.679392922883608
 40
0.7706077146571035
 40
0.8052064287780925
 40
1.124852390615279
 40
1.427402236308877
 40
1.706356627453524
 40
1.955541417875226
 40
2.169485938566381
 40
2.344350786664856
 40
2.480568411562031
 40
2.590440557429081
 40
2.649189927151186
 40
2.749320643306392
 40
2.912632739880094
 40
3.147745656000304
 40
3.244827496385093
 40
3.338490056946693
 40
3.583815413207103
 40
3.761423943238454
 40
3.886956104362611
 40
3.98585545188677
 40
4.091766255337654
 40
4.250186473811847
 40
4.422734315084491
 40
4.628285684838586
 40
4.872093227758416
 40
5.152549652145526
 40
5.464967135837505
 40
5.803201477852424
 40
6.1603629888139
 40
6.193449448275955
 40
6.28417038550161
 40
6.419718138764451
 40
6.587285046385701
 40
6.774063446723615
 40
6.96724567811357
 40
7.154024078817584
 40
7.321590987025941
 40
7.457138740890271
 40
7.547859678556008
 40
7.580946138182568
 40
7.608533084714622
 40
7.669224367077599
 40
7.729915649429821
 40
7.757502595949874
 40
7.790278062553356
 40
7.880146277430826
 40
8.01441996318026
 40
8.18041184239776
 40
8.365434637679229
 40
8.556801071622502
 40
8.741823866830586
 40
8.907815745916153
 40
9.04208943150725
 40
9.131957646249376
 40
9.164733112796952
 40
9.41542506313985
 40
9.667986180958298
 40
9.694169807462465
 40
9.756607686047424
 40
9.831130315322316
 40
9.893568193899752
 40
9.919751820398597
 40
9.950967964690427
 40
9.996421631210527
 40
10.22087981037444
 40
10.44341866197531
 40
10.47847970788843
 40
10.57091337438744
 40
10.70159545461218
 40
10.85140174170349
 40
11.00120802880466
 40
11.13189010907372
 40
11.22432377582999
 40
11.25938480938946
 40
11.28697175596134
 40
11.34766303835909
 40
11.40835432042059
 40
11.43594125892094
 40
11.43594125892094
 40
11.43594125892094
 40
11.43594125892094
 10
190.0818114333289
 20
15.55242795125079
 30
0.0
 10
190.0702785844941
 20
15.55242790287917
 30
0.0
 10
190.0283409444998
 20
15.55242773704166
 30
0.0
 10
189.9434129719026
 20
15.55243125800911
 30
0.0
 10
189.8207688553128
 20
15.5524092643588
 30
0.0
 10
189.6791206916993
 20
15.55250801177056
 30
0.0
 10
189.537975369849
 20
15.55214686232423
 30
0.0
 10
189.4141351317904
 20
15.5532188360909
 30
0.0
 10
189.3317217825382
 20
15.55092249091271
 30
0.0
 10
189.1727791229692
 20
15.56048569373421
 30
0.0
 10
189.3503402353376
 20
15.19785394311372
 30
0.0
 10
189.3379739205452
 20
14.95243127723116
 30
0.0
 10
189.4064519473864
 20
14.66862501324835
 30
0.0
 10
189.469302432097
 20
14.43250999939035
 30
0.0
 10
189.5452253431728
 20
14.23326740396128
 30
0.0
 10
189.6303189577017
 20
14.0774534745137
 30
0.0
 10
189.7244607592936
 20
13.9765785778139
 30
0.0
 10
189.8282648207728
 20
13.9246585263896
 30
0.0
 10
189.9125872030774
 20
13.97606484379617
 30
0.0
 10
189.9351322179453
 20
14.09144544037515
 30
0.0
 10
189.9745730975371
 20
14.21885149702376
 30
0.0
 10
189.9202919734944
 20
14.53622328086755
 30
0.0
 10
190.0451218072473
 20
14.38982180140903
 30
0.0
 10
190.2019291513603
 20
14.35795300331169
 30
0.0
 10
190.0947720007056
 20
14.12421357767628
 30
0.0
 10
190.0808711209867
 20
13.95972776583657
 30
0.0
 10
190.0234709467225
 20
13.83130869122485
 30
0.0
 10
189.9335020145009
 20
13.76018802352828
 30
0.0
 10
189.8095274657877
 20
13.74432324142256
 30
0.0
 10
189.663427319686
 20
13.77993797554174
 30
0.0
 10
189.5243894320284
 20
13.90000570500279
 30
0.0
 10
189.4102003962144
 20
14.07435682550322
 30
0.0
 10
189.3146141301486
 20
14.29946603111242
 30
0.0
 10
189.2318652572626
 20
14.56388246006445
 30
0.0
 10
189.1807179256411
 20
14.88187933098544
 30
0.0
 10
189.0770189207338
 20
15.15543728488915
 30
0.0
 10
189.204284120852
 20
15.56005818612869
 30
0.0
 10
189.0357890623018
 20
15.5511236784968
 30
0.0
 10
188.9511995787077
 20
15.55315961418365
 30
0.0
 10
188.8189876387628
 20
15.55213937388408
 30
0.0
 10
188.6560505094104
 20
15.55253230318431
 30
0.0
 10
188.4733759170533
 20
15.55235696313371
 30
0.0
 10
188.2847057373383
 20
15.5526010530747
 30
0.0
 10
188.1014469020189
 20
15.55185657906238
 30
0.0
 10
187.9404746832719
 20
15.55416360522428
 30
0.0
 10
187.8029808335276
 20
15.54799804883664
 30
0.0
 10
187.7289590372311
 20
15.56032838458213
 30
0.0
 10
187.6613215186858
 20
15.54329323723558
 30
0.0
 10
187.673237371927
 20
15.59524438447529
 30
0.0
 10
187.6655677285694
 20
15.64071424966531
 30
0.0
 10
187.6732592225117
 20
15.68614453703708
 30
0.0
 10
187.6613141797762
 20
15.73802395984573
 30
0.0
 10
187.7283588305868
 20
15.72119143490266
 30
0.0
 10
187.8017375665677
 20
15.73335409092673
 30
0.0
 10
187.9379128305273
 20
15.7272723107496
 30
0.0
 10
188.0973811801513
 20
15.7295483431506
 30
0.0
 10
188.2789173085837
 20
15.72881233998964
 30
0.0
 10
188.4658034862179
 20
15.72905954196136
 30
0.0
 10
188.6468012316836
 20
15.72886400799256
 30
0.0
 10
188.8080802578879
 20
15.72932234714841
 30
0.0
 10
188.9393882124887
 20
15.72812673751208
 30
0.0
 10
189.0225051322597
 20
15.73051347319745
 30
0.0
 10
189.1556236547813
 20
15.72230605725465
 30
0.0
 10
189.0645893502658
 20
15.97752868952656
 30
0.0
 10
188.978963307442
 20
16.24164358328243
 30
0.0
 10
189.0990589003455
 20
16.22904442969164
 30
0.0
 10
189.1514264948543
 20
16.22694235763073
 30
0.0
 10
189.2214497569717
 20
16.22535399889657
 30
0.0
 10
189.2671922337817
 20
16.21602567538112
 30
0.0
 10
189.3220812646934
 20
16.22545966915427
 30
0.0
 10
189.2963574785682
 20
16.17733028655173
 30
0.0
 10
189.1825397571453
 20
16.18266829744177
 30
0.0
 10
189.3159346621136
 20
15.95449174576776
 30
0.0
 10
189.1943658735471
 20
15.72156856595925
 30
0.0
 10
189.3223188769413
 20
15.73087258884441
 30
0.0
 10
189.4049048406461
 20
15.72801001754682
 30
0.0
 10
189.5307214850824
 20
15.72923437412305
 30
0.0
 10
189.6741469838057
 20
15.72932431888966
 30
0.0
 10
189.8157420951728
 20
15.72746163183855
 30
0.0
 10
189.9459127249967
 20
15.73333075937165
 30
0.0
 10
190.0193452286191
 20
15.72070340823206
 30
0.0
 10
190.0891112922096
 20
15.73877563110414
 30
0.0
 10
190.0775772605396
 20
15.68612850546328
 30
0.0
 10
190.0833184346682
 20
15.64221317686549
 30
0.0
 10
190.081661577091
 20
15.5908998267655
 30
0.0
 10
190.081775756167
 20
15.56158792021636
 30
0.0
 10
190.0818114333289
 20
15.55242795125079
 30
0.0
 11
190.0818114333289
 21
15.55242795125079
 31
0.0
 11
190.0472127192051
 21
15.55242795125079
 31
0.0
 11
189.9559979274241
 21
15.55242795125079
 31
0.0
 11
189.8270390838717
 21
15.55242795125079
 31
0.0
 11
189.6792082144335
 21
15.55242795125079
 31
0.0
 11
189.5313773449954
 21
15.55242795125079
 31
0.0
 11
189.402418501443
 21
15.55242795125079
 31
0.0
 11
189.311203709662
 21
15.55242795125079
 31
0.0
 11
189.2766049955382
 21
15.55242795125079
 31
0.0
 11
189.3083140497693
 21
15.23435864930123
 31
0.0
 11
189.3527866656865
 21
14.93509522788082
 31
0.0
 11
189.4092389118319
 21
14.66191269512577
 31
0.0
 11
189.4768868567478
 21
14.42208605917227
 31
0.0
 11
189.5549465689762
 21
14.22289032815653
 31
0.0
 11
189.6426341170592
 21
14.07160051021475
 31
0.0
 11
189.7391655695389
 21
13.97549161348314
 31
0.0
 11
189.8437569949576
 21
13.94183864609789
 31
0.0
 11
189.8943077302786
 21
13.97177376978832
 31
0.0
 11
189.9310588991552
 21
14.06491619815045
 31
0.0
 11
189.9562640977528
 21
14.22627151712052
 31
0.0
 11
189.9721769222369
 21
14.4608453126348
 31
0.0
 11
190.0494082682583
 21
14.40202182306618
 31
0.0
 11
190.1327184184385
 21
14.35921885432688
 31
0.0
 11
190.1066365811217
 21
14.1152838866101
 31
0.0
 11
190.0673317805105
 21
13.94207902887563
 31
0.0
 11
190.0105702596765
 21
13.83011272445919
 31
0.0
 11
189.932118261691
 21
13.76989341669647
 31
0.0
 11
189.8277420296256
 21
13.75192954892319
 31
0.0
 11
189.6738595065097
 21
13.78957440012363
 31
0.0
 11
189.5388902376747
 21
13.89707348877405
 31
0.0
 11
189.4221739916163
 21
14.06627361744811
 31
0.0
 11
189.32305053683
 21
14.28902158871945
 31
0.0
 11
189.2408596418113
 21
14.55716420516174
 31
0.0
 11
189.1749410750559
 21
14.86254826934862
 31
0.0
 11
189.1246346050593
 21
15.19702058385375
 31
0.0
 11
189.0892800003171
 21
15.55242795125079
 31
0.0
 11
189.0561935405844
 21
15.55242795125079
 31
0.0
 11
188.9654726026075
 21
15.55242795125079
 31
0.0
 11
188.8299248482185
 21
15.55242795125079
 31
0.0
 11
188.6623579392495
 21
15.55242795125079
 31
0.0
 11
188.4755795375324
 21
15.55242795125079
 31
0.0
 11
188.2823973048993
 21
15.55242795125079
 31
0.0
 11
188.0956189031822
 21
15.55242795125079
 31
0.0
 11
187.9280519942131
 21
15.55242795125079
 31
0.0
 11
187.7925042398242
 21
15.55242795125079
 31
0.0
 11
187.7017833018473
 21
15.55242795125079
 31
0.0
 11
187.6686968421146
 21
15.55242795125079
 31
0.0
 11
187.6686968421146
 21
15.58001489785848
 31
0.0
 11
187.6686968421146
 21
15.64070618039539
 31
0.0
 11
187.6686968421146
 21
15.70139746293231
 31
0.0
 11
187.6686968421146
 21
15.72898440954
 31
0.0
 11
187.7014723087632
 21
15.72898440954
 31
0.0
 11
187.7913405237674
 21
15.72898440954
 31
0.0
 11
187.9256142097149
 21
15.72898440954
 31
0.0
 11
188.0916060891932
 21
15.72898440954
 31
0.0
 11
188.2766288847902
 21
15.72898440954
 31
0.0
 11
188.4679953190932
 21
15.72898440954
 31
0.0
 11
188.6530181146902
 21
15.72898440954
 31
0.0
 11
188.8190099941685
 21
15.72898440954
 31
0.0
 11
188.953283680116
 21
15.72898440954
 31
0.0
 11
189.0431518951202
 21
15.72898440954
 31
0.0
 11
189.0759273617688
 21
15.72898440954
 31
0.0
 11
189.0659183950103
 21
15.97947647544958
 31
0.0
 11
189.0599112510663
 21
16.23196614552529
 31
0.0
 11
189.0860575870659
 21
16.2305692160812
 31
0.0
 11
189.1484065421419
 21
16.22723807663759
 31
0.0
 11
189.22282303691
 21
16.22326220052749
 31
0.0
 11
189.285171991986
 21
16.21993106108388
 31
0.0
 11
189.3113183279856
 21
16.21853413163979
 31
0.0
 11
189.2982931113041
 21
16.1901652861608
 31
0.0
 11
189.2551649266406
 21
16.17581274276168
 31
0.0
 11
189.2574991961822
 21
15.95136670115109
 31
0.0
 11
189.2658452735903
 21
15.72898440954
 31
0.0
 11
189.3009063195165
 21
15.72898440954
 31
0.0
 11
189.3933399860495
 21
15.72898440954
 31
0.0
 11
189.5240220663201
 21
15.72898440954
 31
0.0
 11
189.6738283534596
 21
15.72898440954
 31
0.0
 11
189.8236346405991
 21
15.72898440954
 31
0.0
 11
189.9543167208697
 21
15.72898440954
 31
0.0
 11
190.0467503874027
 21
15.72898440954
 31
0.0
 11
190.0818114333289
 21
15.72898440954
 31
0.0
 11
190.0818114333289
 21
15.70139746293231
 31
0.0
 11
190.0818114333289
 21
15.64070618039539
 31
0.0
 11
190.0818114333289
 21
15.58001489785848
 31
0.0
 11
190.0818114333289
 21
15.55242795125079
 31
0.0
  0
SPLINE
  5
BE
102
{ACAD_REACTORS
330
DB
102
}
330
48
100
AcDbEntity
  8
_U_30EC_U_30A4_U_30E4_U_30FC_1
  6
Continuous
 62
     2
100
AcDbSpline
210
0.0
220
0.0
230
1.0
 70
    11
 71
     3
 72
   118
 73
   114
 74
   112
 42
0.000000001
 43
0.0000000001
 44
0.00000001
 40
0.0
 40
0.0
 40
0.0
 40
0.0
 40
0.1054708162972979
 40
0.2466098270051312
 40
0.3965912874590529
 40
0.528552506975333
 40
0.6156245055641599
 40
0.6431434105796869
 40
0.7036850037985488
 40
0.76422659845038
 40
0.7917455052354075
 40
0.9287404319988871
 40
1.106572819087897
 40
1.287544879680858
 40
1.317578308030375
 40
1.399928030857012
 40
1.522968204799788
 40
1.675072986590409
 40
1.844616533180488
 40
2.019973001638551
 40
2.189516548879864
 40
2.341621331585202
 40
2.464661506320336
 40
2.547011229646902
 40
2.577044658167866
 40
2.603797890892936
 40
2.66265500290868
 40
2.721512114949549
 40
2.748265347702729
 40
2.774215307344804
 40
2.845959313407135
 40
2.954338556588333
 40
3.090194227585508
 40
3.244367517100475
 40
3.40769961584423
 40
3.571031714539377
 40
3.725205003920054
 40
3.861060674729554
 40
3.969439917716246
 40
4.041183923628918
 40
4.067133883212911
 40
4.311886746012087
 40
4.547897258335447
 40
4.764747083043887
 40
4.952749679951689
 40
5.045772974195833
 40
5.137862019644901
 40
5.330543169792957
 40
5.553448265243954
 40
5.795083855888113
 40
6.04329341217716
 40
6.285761695541069
 40
6.313902908752553
 40
6.384255941793143
 40
6.475714884766731
 40
6.567173827758793
 40
6.637526860839571
 40
6.665668074073935
 40
6.692018920327914
 40
6.749990782070999
 40
6.807962643790381
 40
6.834313490017861
 40
6.856393084245139
 40
6.913335195649763
 40
6.991194817302427
 40
7.076026942283688
 40
7.153886563725179
 40
7.210828674844761
 40
7.232908268931096
 40
7.258199334923619
 40
7.324875781592274
 40
7.419142481924938
 40
7.527204308841888
 40
7.635266135230475
 40
7.729532834168468
 40
7.796209279292794
 40
7.821500344594744
 40
7.844652988850815
 40
7.899863140541595
 40
7.965759128053763
 40
8.020969279771048
 40
8.044121924046514
 40
8.06935661016059
 40
8.109134395441266
 40
8.132238100190982
 40
8.193147867786347
 40
8.279261678876527
 40
8.377977512673745
 40
8.476693347146536
 40
8.562807160411593
 40
8.623716930826381
 40
8.646820636853336
 40
8.67198879377415
 40
8.734909185828004
 40
8.816705695188718
 40
8.89850220481526
 40
8.961422597377693
 40
8.986590754550805
 40
9.012941600732967
 40
9.070913462380066
 40
9.128885324081574
 40
9.155236170324901
 40
9.180404327928944
 40
9.243324721947989
 40
9.325121234211725
 40
9.40691774663738
 40
9.469838141977835
 40
9.49500628827058
 40
9.517811184378717
 40
9.572192090486705
 40
9.63709833328092
 40
9.691479239515107
 40
9.714284125643141
 40
9.714284125643141
 40
9.714284125643141
 40
9.714284125643141
 10
185.2874469028654
 20
15.26889163187718
 30
0.0
 10
185.3090990569038
 20
15.2411186924281
 30
0.0
 10
185.3597257109474
 20
15.17618054561234
 30
0.0
 10
185.4349383202592
 20
15.06891060312898
 30
0.0
 10
185.5248482274346
 20
14.95377438266624
 30
0.0
 10
185.5709169676673
 20
14.85357045748318
 30
0.0
 10
185.6655825294654
 20
14.78434006814941
 30
0.0
 10
185.6204439320413
 20
14.73771639678272
 30
0.0
 10
185.594704778579
 20
14.69660308866039
 30
0.0
 10
185.5645196708011
 20
14.66065971727939
 30
0.0
 10
185.5193684730563
 20
14.58579782596096
 30
0.0
 10
185.4710504458562
 20
14.80782524253602
 30
0.0
 10
185.3968539713073
 20
14.84510677337706
 30
0.0
 10
185.2836047324607
 20
15.11610202130595
 30
0.0
 10
185.2885133578171
 20
15.00095328446226
 30
0.0
 10
185.2868486556306
 20
14.92836675781624
 30
0.0
 10
185.2876830076715
 20
14.80625588483983
 30
0.0
 10
185.2873609540266
 20
14.65913800810458
 30
0.0
 10
185.2875076912457
 20
14.49307063956554
 30
0.0
 10
185.2872950092723
 20
14.32187554608598
 30
0.0
 10
185.2879497252034
 20
14.15552828635495
 30
0.0
 10
185.2859192461141
 20
14.0093517305569
 30
0.0
 10
185.2913460399931
 20
13.88471047474608
 30
0.0
 10
185.280493086871
 20
13.81718656540624
 30
0.0
 10
185.2956739155556
 20
13.75549061417019
 30
0.0
 10
185.2457895108134
 20
13.76727503896999
 30
0.0
 10
185.2017150342522
 20
13.75943822779966
 30
0.0
 10
185.1582371630201
 20
13.76760441372701
 30
0.0
 10
185.1092346786488
 20
13.75538056738464
 30
0.0
 10
185.1218731234825
 20
13.8096066724931
 30
0.0
 10
185.1130182968449
 20
13.86936918907554
 30
0.0
 10
185.1175058770314
 20
13.97922029044367
 30
0.0
 10
185.1157960135991
 20
14.11029975405675
 30
0.0
 10
185.1163550915986
 20
14.26198011444324
 30
0.0
 10
185.1161928768694
 20
14.4221107492995
 30
0.0
 10
185.1162269924674
 20
14.58236865674563
 30
0.0
 10
185.1162514960127
 20
14.73370247520436
 30
0.0
 10
185.1161453543225
 20
14.86582156338597
 30
0.0
 10
185.1164299141931
 20
14.97294802533189
 30
0.0
 10
185.1158675547567
 20
15.03808619579469
 30
0.0
 10
185.1180765083689
 20
15.16618957858672
 30
0.0
 10
185.0319435998602
 20
14.79097610391572
 30
0.0
 10
184.9555140818499
 20
14.63918193123393
 30
0.0
 10
184.8660040767833
 20
14.47766206446304
 30
0.0
 10
184.7640413217326
 20
14.20471848820168
 30
0.0
 10
184.7187976491039
 20
14.3671734659651
 30
0.0
 10
184.610235594167
 20
14.45605432058118
 30
0.0
 10
184.7995791751753
 20
14.60549794961408
 30
0.0
 10
184.85653405457
 20
14.79749136974925
 30
0.0
 10
184.9717520993352
 20
15.02899622906756
 30
0.0
 10
184.9940151630132
 20
15.21797259759061
 30
0.0
 10
185.177190515214
 20
15.49454089325924
 30
0.0
 10
185.0538033597552
 20
15.48698978832088
 30
0.0
 10
184.9925684166834
 20
15.48856772366112
 30
0.0
 10
184.9081999617064
 20
15.48882592573666
 30
0.0
 10
184.8204235085966
 20
15.485448457512
 30
0.0
 10
184.7656768696122
 20
15.49394814982014
 30
0.0
 10
184.7104703026025
 20
15.48048561049782
 30
0.0
 10
184.7222823035536
 20
15.52931442126758
 30
0.0
 10
184.7142496151794
 20
15.57269004896704
 30
0.0
 10
184.7228186104679
 20
15.6150943830957
 30
0.0
 10
184.7102943409157
 20
15.66267796552116
 30
0.0
 10
184.7555101538735
 20
15.65267212995107
 30
0.0
 10
184.8014815562723
 20
15.65894105174059
 30
0.0
 10
184.8777222047709
 20
15.6559356140587
 30
0.0
 10
184.9561296131994
 20
15.65770448278539
 30
0.0
 10
185.0323992648932
 20
15.65464793981658
 30
0.0
 10
185.0783009459475
 20
15.66103971376176
 30
0.0
 10
185.12317339654
 20
15.65093822978894
 30
0.0
 10
185.1105552275634
 20
15.70157201581898
 30
0.0
 10
185.1191936582707
 20
15.75501261882068
 30
0.0
 10
185.1152361595442
 20
15.8486325513168
 30
0.0
 10
185.1162325068335
 20
15.95112606688924
 30
0.0
 10
185.1171927413073
 20
16.05353270248164
 30
0.0
 10
185.1133211458006
 20
16.14735929609324
 30
0.0
 10
185.1217789814364
 20
16.20036542840355
 30
0.0
 10
185.1093075932835
 20
16.25211435651191
 30
0.0
 10
185.154210638985
 20
16.23850747226759
 30
0.0
 10
185.1955083836772
 20
16.24100480320586
 30
0.0
 10
185.2595344281051
 20
16.23648060574487
 30
0.0
 10
185.2986111148786
 20
16.22781003043307
 30
0.0
 10
185.3476543498741
 20
16.23515102070684
 30
0.0
 10
185.3225080030591
 20
16.19602896051758
 30
0.0
 10
185.2815901333724
 20
16.20563842455806
 30
0.0
 10
185.2910109616604
 20
16.15540148169779
 30
0.0
 10
185.2855647318746
 20
16.10385945639491
 30
0.0
 10
185.2881699601805
 20
16.0195970758452
 30
0.0
 10
185.2870102202156
 20
15.92559135583408
 30
0.0
 10
185.2883591064232
 20
15.83196865395524
 30
0.0
 10
185.284997010151
 20
15.74679517552222
 30
0.0
 10
185.292095991777
 20
15.69716856072042
 30
0.0
 10
185.2812569154547
 20
15.64993694969987
 30
0.0
 10
185.3304010225246
 20
15.66201674936849
 30
0.0
 10
185.3794877630148
 20
15.65447393363009
 30
0.0
 10
185.4573714280641
 20
15.6568607036143
 30
0.0
 10
185.5350365172896
 20
15.65899381905413
 30
0.0
 10
185.5845393931354
 20
15.65193391922452
 30
0.0
 10
185.6344594750639
 20
15.66360151936212
 30
0.0
 10
185.6223198516881
 20
15.61540235371389
 30
0.0
 10
185.6305838229143
 20
15.57249219801231
 30
0.0
 10
185.6223198650784
 20
15.5295820185138
 30
0.0
 10
185.6344594549853
 20
15.48138288754858
 30
0.0
 10
185.5845395158747
 20
15.49305034471504
 30
0.0
 10
185.5350350651202
 20
15.4859920243504
 30
0.0
 10
185.4573784382974
 20
15.48811665228597
 30
0.0
 10
185.379464386576
 20
15.49053389365754
 30
0.0
 10
185.3304500352717
 20
15.48291848194479
 30
0.0
 10
185.2813246108944
 20
15.49507952557585
 30
0.0
 10
185.2915559988572
 20
15.45073013424153
 30
0.0
 10
185.2856677678054
 20
15.40925436202907
 30
0.0
 10
185.287878830557
 20
15.349153943153
 30
0.0
 10
185.2874109346147
 20
15.30225782762887
 30
0.0
 10
185.2874386992914
 20
15.27650146418195
 30
0.0
 10
185.2874469028654
 20
15.26889163187718
 30
0.0
 11
185.2874469028654
 21
15.26889163187718
 31
0.0
 11
185.3516977534485
 21
15.18524999634256
 31
0.0
 11
185.4348258835499
 21
15.07118889748221
 31
0.0
 11
185.5216831568896
 21
14.94891767195723
 31
0.0
 11
185.5971214371872
 21
14.84064565642875
 31
0.0
 11
185.6459925881626
 21
14.76858218755788
 31
0.0
 11
185.6296821285093
 21
14.74641782124398
 31
0.0
 11
185.5937991172719
 21
14.69765621535339
 31
0.0
 11
185.5579161060346
 21
14.6488946094628
 31
0.0
 11
185.5416056463813
 21
14.6267302431489
 31
0.0
 11
185.4763067109446
 21
14.74716139023812
 31
0.0
 11
185.3848434243235
 21
14.89966983670203
 31
0.0
 11
185.2874469028654
 21
15.05219788193139
 31
0.0
 11
185.2874469028654
 21
15.0221644532825
 31
0.0
 11
185.2874469028654
 21
14.9398147295678
 31
0.0
 11
185.2874469028654
 21
14.81677455413525
 31
0.0
 11
185.2874469028654
 21
14.6646697703328
 31
0.0
 11
185.2874469028654
 21
14.49512622150842
 31
0.0
 11
185.2874469028654
 21
14.31976975101006
 31
0.0
 11
185.2874469028654
 21
14.15022620218568
 31
0.0
 11
185.2874469028654
 21
13.99812141838323
 31
0.0
 11
185.2874469028654
 21
13.87508124295068
 31
0.0
 11
185.2874469028654
 21
13.79273151923598
 31
0.0
 11
185.2874469028654
 21
13.76269809058709
 31
0.0
 11
185.260693670041
 21
13.76269809058709
 31
0.0
 11
185.2018365578272
 21
13.76269809058709
 31
0.0
 11
185.1429794456134
 21
13.76269809058709
 31
0.0
 11
185.116226212789
 21
13.76269809058709
 31
0.0
 11
185.116226212789
 21
13.78864805031247
 31
0.0
 11
185.116226212789
 21
13.86039205661205
 31
0.0
 11
185.116226212789
 21
13.96877130017098
 31
0.0
 11
185.116226212789
 21
14.10462697167444
 31
0.0
 11
185.116226212789
 21
14.25880026180758
 31
0.0
 11
185.116226212789
 21
14.42213236125555
 31
0.0
 11
185.116226212789
 21
14.58546446070352
 31
0.0
 11
185.116226212789
 21
14.73963775083666
 31
0.0
 11
185.116226212789
 21
14.87549342234012
 31
0.0
 11
185.116226212789
 21
14.98387266589905
 31
0.0
 11
185.116226212789
 21
15.05561667219863
 31
0.0
 11
185.116226212789
 21
15.08156663192401
 31
0.0
 11
185.0379865861721
 21
14.84965603302369
 31
0.0
 11
184.9497110789303
 21
14.63077616328676
 31
0.0
 11
184.8544106930045
 21
14.43598991333545
 31
0.0
 11
184.7550964303356
 21
14.276360173792
 31
0.0
 11
184.7109198342406
 21
14.35822446196599
 31
0.0
 11
184.658805738348
 21
14.43414885430809
 31
0.0
 11
184.7627302590299
 21
14.59640087926756
 31
0.0
 11
184.8629319864735
 21
14.7955146542178
 31
0.0
 11
184.9550446607901
 21
15.01890447916196
 31
0.0
 11
185.0347020220912
 21
15.25398465410317
 31
0.0
 11
185.097537810488
 21
15.48816947904459
 31
0.0
 11
185.0693965972142
 21
15.48816947904459
 31
0.0
 11
184.9990435640297
 21
15.48816947904459
 31
0.0
 11
184.9075846208898
 21
15.48816947904459
 31
0.0
 11
184.8161256777499
 21
15.48816947904459
 31
0.0
 11
184.7457726445654
 21
15.48816947904459
 31
0.0
 11
184.7176314312916
 21
15.48816947904459
 31
0.0
 11
184.7176314312916
 21
15.51452032539217
 31
0.0
 11
184.7176314312916
 21
15.57249218735685
 31
0.0
 11
184.7176314312916
 21
15.63046404932152
 31
0.0
 11
184.7176314312916
 21
15.6568148956691
 31
0.0
 11
184.739711025602
 21
15.6568148956691
 31
0.0
 11
184.7966531372444
 21
15.6568148956691
 31
0.0
 11
184.8745127592862
 21
15.6568148956691
 31
0.0
 11
184.9593448847944
 21
15.6568148956691
 31
0.0
 11
185.0372045068361
 21
15.6568148956691
 31
0.0
 11
185.0941466184786
 21
15.6568148956691
 31
0.0
 11
185.116226212789
 21
15.6568148956691
 31
0.0
 11
185.116226212789
 21
15.68210596174351
 31
0.0
 11
185.116226212789
 21
15.74878240866696
 31
0.0
 11
185.116226212789
 21
15.84304910948976
 31
0.0
 11
185.116226212789
 21
15.95111093726224
 31
0.0
 11
185.116226212789
 21
16.05917276503473
 31
0.0
 11
185.116226212789
 21
16.15343946585753
 31
0.0
 11
185.116226212789
 21
16.22011591278098
 31
0.0
 11
185.116226212789
 21
16.24540697885539
 31
0.0
 11
185.1393181988665
 21
16.24373213107802
 31
0.0
 11
185.1943837041284
 21
16.23973826330122
 31
0.0
 11
185.2601070491184
 21
16.23497138885795
 31
0.0
 11
185.3151725543802
 21
16.23097752108115
 31
0.0
 11
185.3382645404578
 21
16.22930267330378
 31
0.0
 11
185.3249012644362
 21
16.20789677921188
 31
0.0
 11
185.2874469028654
 21
16.1945011455347
 31
0.0
 11
185.2874469028654
 21
16.17139743948579
 31
0.0
 11
185.2874469028654
 21
16.1104876689932
 31
0.0
 11
185.2874469028654
 21
16.02437385553816
 31
0.0
 11
185.2874469028654
 21
15.9256580206019
 31
0.0
 11
185.2874469028654
 21
15.82694218566564
 31
0.0
 11
185.2874469028654
 21
15.7408283722106
 31
0.0
 11
185.2874469028654
 21
15.67991860171801
 31
0.0
 11
185.2874469028654
 21
15.6568148956691
 31
0.0
 11
185.312615060481
 21
15.6568148956691
 31
0.0
 11
185.3755354545199
 21
15.6568148956691
 31
0.0
 11
185.4573319667706
 21
15.6568148956691
 31
0.0
 11
185.5391284790213
 21
15.6568148956691
 31
0.0
 11
185.6020488730602
 21
15.6568148956691
 31
0.0
 11
185.6272170306758
 21
15.6568148956691
 31
0.0
 11
185.6272170306758
 21
15.63046404932152
 31
0.0
 11
185.6272170306758
 21
15.57249218735685
 31
0.0
 11
185.6272170306758
 21
15.51452032539217
 31
0.0
 11
185.6272170306758
 21
15.48816947904459
 31
0.0
 11
185.6020488730602
 21
15.48816947904459
 31
0.0
 11
185.5391284790213
 21
15.48816947904459
 31
0.0
 11
185.4573319667706
 21
15.48816947904459
 31
0.0
 11
185.37553545452
 21
15.48816947904459
 31
0.0
 11
185.312615060481
 21
15.48816947904459
 31
0.0
 11
185.2874469028654
 21
15.48816947904459
 31
0.0
 11
185.2874469028654
 21
15.46536458293918
 31
0.0
 11
185.2874469028654
 21
15.41098367684166
 31
0.0
 11
185.2874469028654
 21
15.34607743408011
 31
0.0
 11
185.2874469028654
 21
15.29169652798259
 31
0.0
 11
185.2874469028654
 21
15.26889163187718
 31
0.0
  0
SPLINE
  5
BF
102
{ACAD_REACTORS
330
DC
102
}
330
48
100
AcDbEntity
  8
_U_30EC_U_30A4_U_30E4_U_30FC_1
  6
Continuous
 62
     2
100
AcDbSpline
210
0.0
220
0.0
230
1.0
 70
    11
 71
     3
 72
    47
 73
    43
 74
    41
 42
0.000000001
 43
0.0000000001
 44
0.00000001
 40
0.0
 40
0.0
 40
0.0
 40
0.0
 40
0.2207912809957372
 40
0.4459404186303237
 40
0.4902387190459442
 40
0.532747389272233
 40
0.5742260451225971
 40
0.6155432630561829
 40
0.656816406631646
 40
0.6982511618780851
 40
0.7407663929317295
 40
0.7851366743175345
 40
1.010288833836337
 40
1.231080507002203
 40
1.451765243652386
 40
1.676638205891668
 40
1.720461045359641
 40
1.830018144043506
 40
1.97244237235314
 40
2.11486660067751
 40
2.224423699395138
 40
2.268246538883379
 40
2.493628801207237
 40
2.715602830286619
 40
2.934211330706381
 40
3.149502369855347
 40
3.231387784850962
 40
3.31823187385394
 40
3.405143198197956
 40
3.486970301720447
 40
3.702258172493862
 40
3.920866283534101
 40
4.142839325931874
 40
4.368221903865362
 40
4.412044743359844
 40
4.521601842095859
 40
4.664026070452342
 40
4.806450298809055
 40
4.916007397546749
 40
4.959830237043072
 40
5.184703515847104
 40
5.405387250767431
 40
5.405387250767431
 40
5.405387250767431
 40
5.405387250767431
 10
182.6507427258645
 20
15.73406440953869
 30
0.0
 10
182.6568139420002
 20
15.79758482501207
 30
0.0
 10
182.6690762107242
 20
15.92587938689624
 30
0.0
 10
182.5604706879411
 20
16.20166220174077
 30
0.0
 10
182.6761985896604
 20
16.17188133432051
 30
0.0
 10
182.7171842509015
 20
16.16765556262828
 30
0.0
 10
182.7591205797519
 20
16.16310446389605
 30
0.0
 10
182.8004196625711
 20
16.16201982929488
 30
0.0
 10
182.8417032115556
 20
16.16310338195226
 30
0.0
 10
182.8836148270647
 20
16.16766112711352
 30
0.0
 10
182.9245983549019
 20
16.17187430209726
 30
0.0
 10
183.0404922843488
 20
16.20177611317534
 30
0.0
 10
182.9295652727456
 20
15.92339806609886
 30
0.0
 10
182.9574856365267
 20
15.74283140824952
 30
0.0
 10
182.9404267346969
 20
15.50961042346472
 30
0.0
 10
182.9414637282103
 20
15.34906622543148
 30
0.0
 10
182.9414099399404
 20
15.22284817558723
 30
0.0
 10
182.9414277372481
 20
15.12428963336243
 30
0.0
 10
182.941418858108
 20
14.99280702442964
 30
0.0
 10
182.9414263928034
 20
14.86132844968651
 30
0.0
 10
182.9414129405128
 20
14.76276222694091
 30
0.0
 10
182.9414531717493
 20
14.63639735624153
 30
0.0
 10
182.9406746403816
 20
14.47482068822869
 30
0.0
 10
182.9565958319267
 20
14.24361821892914
 30
0.0
 10
182.9333468885407
 20
14.05874351972002
 30
0.0
 10
183.0360183444365
 20
13.78935602770059
 30
0.0
 10
182.8820238362837
 20
13.82660112685817
 30
0.0
 10
182.8004129802833
 20
13.82137994680528
 30
0.0
 10
182.7188192292583
 20
13.82660620378351
 30
0.0
 10
182.5648513666843
 20
13.78937069885388
 30
0.0
 10
182.6674183421916
 20
14.05875129862879
 30
0.0
 10
182.6442045316088
 20
14.24361585325414
 30
0.0
 10
182.6600444655138
 20
14.47482218565638
 30
0.0
 10
182.6593296313427
 20
14.63639712308503
 30
0.0
 10
182.6593664569907
 20
14.76276231210521
 30
0.0
 10
182.6593549000271
 20
14.86132756635983
 30
0.0
 10
182.6593575019213
 20
14.99281127417221
 30
0.0
 10
182.6593648531779
 20
15.12427548031201
 30
0.0
 10
182.6593442541351
 20
15.22287786275328
 30
0.0
 10
182.6594082192028
 20
15.34896149354428
 30
0.0
 10
182.658173394759
 20
15.51210091383771
 30
0.0
 10
182.6532040396745
 20
15.66054183777549
 30
0.0
 10
182.6507427258645
 20
15.73406440953869
 30
0.0
 11
182.6507427258645
 21
15.73406440953869
 31
0.0
 11
182.6417328200379
 21
15.95467178795576
 31
0.0
 11
182.6318769706146
 21
16.17960510387178
 31
0.0
 11
182.6756985840801
 21
16.17312391463728
 31
0.0
 11
182.7178400934215
 21
16.16754892331929
 31
0.0
 11
182.7591371409791
 21
16.16367167505632
 31
0.0
 11
182.8004341885366
 21
16.16238072887609
 31
0.0
 11
182.8416871388731
 21
16.16367167505632
 31
0.0
 11
182.8829400892097
 21
16.16754892331929
 31
0.0
 11
182.9250882131343
 21
16.17312391463728
 31
0.0
 11
182.9689825870145
 21
16.17960510387178
 31
0.0
 11
182.9590577693891
 21
15.95467178795576
 31
0.0
 11
182.950038420831
 21
15.73406440953869
 31
0.0
 11
182.9435638463435
 21
15.51347467001056
 31
0.0
 11
182.9414218238286
 21
15.28861190965009
 31
0.0
 11
182.9414218238286
 21
15.24478907015487
 31
0.0
 11
182.9414218238286
 21
15.13523197141684
 31
0.0
 11
182.9414218238286
 21
14.99280774305738
 31
0.0
 11
182.9414218238286
 21
14.85038351469793
 31
0.0
 11
182.9414218238286
 21
14.74082641595989
 31
0.0
 11
182.9414218238286
 21
14.69700357646468
 31
0.0
 11
182.9435638463435
 21
14.47163149318764
 31
0.0
 11
182.950038420831
 21
14.2497519099098
 31
0.0
 11
182.9590577693891
 21
14.03132954885328
 31
0.0
 11
182.9689825870145
 21
13.81626739612929
 31
0.0
 11
182.887261616877
 21
13.82145433189185
 31
0.0
 11
182.8004341885366
 21
13.82315538223858
 31
0.0
 11
182.713539511934
 21
13.82145433189185
 31
0.0
 11
182.6318769706146
 21
13.81626739612929
 31
0.0
 11
182.6417328200379
 21
14.03132954885328
 31
0.0
 11
182.6507427258645
 21
14.2497519099098
 31
0.0
 11
182.6571833838798
 21
14.47163149318764
 31
0.0
 11
182.6593583588023
 21
14.69700357646468
 31
0.0
 11
182.6593583588023
 21
14.74082641595989
 31
0.0
 11
182.6593583588023
 21
14.85038351469793
 31
0.0
 11
182.6593583588023
 21
14.99280774305738
 31
0.0
 11
182.6593583588023
 21
15.13523197141684
 31
0.0
 11
182.6593583588023
 21
15.24478907015487
 31
0.0
 11
182.6593583588023
 21
15.28861190965009
 31
0.0
 11
182.6571833838798
 21
15.51347467001056
 31
0.0
 11
182.6507427258645
 21
15.73406440953869
 31
0.0
  0
SPLINE
  5
C0
102
{ACAD_REACTORS
330
DD
102
}
330
48
100
AcDbEntity
  8
_U_30EC_U_30A4_U_30E4_U_30FC_1
  6
Continuous
 62
     2
100
AcDbSpline
210
0.0
220
0.0
230
1.0
 70
    11
 71
     3
 72
   110
 73
   106
 74
   104
 42
0.000000001
 43
0.0000000001
 44
0.00000001
 40
0.0
 40
0.0
 40
0.0
 40
0.0
 40
0.2203406257277631
 40
0.4407808782838126
 40
0.5952494494615386
 40
0.7488431659393088
 40
0.9023581831309081
 40
1.056801968670407
 40
1.210736449099964
 40
1.363041386539786
 40
1.515315729683156
 40
1.669377239148163
 40
1.721611652756676
 40
1.773199502943082
 40
1.824933793210094
 40
1.877110426488124
 40
1.982682281206919
 40
2.078781667087673
 40
2.172809640822506
 40
2.27193780737916
 40
2.378349933379497
 40
2.494131557736739
 40
2.626681683943874
 40
2.783145050796302
 40
2.890701232941136
 40
2.993130312455076
 40
3.099869730692029
 40
3.220237816691522
 40
3.352695482737779
 40
3.481732806389992
 40
3.593499473690561
 40
3.674323013332049
 40
3.817951711952941
 40
3.94616712079391
 40
4.061405053453596
 40
4.166480796003237
 40
4.262478775059272
 40
4.350736673551229
 40
4.433071991254169
 40
4.511216293814719
 40
4.564262454118041
 40
4.61847441557167
 40
4.670128488754311
 40
4.722296879126533
 40
4.819540945314405
 40
4.931194984128261
 40
5.049996040257875
 40
5.168643755415335
 40
5.283970811762632
 40
5.392260784910487
 40
5.486512254876533
 40
5.559178233949876
 40
5.59142585285353
 40
5.626215969637931
 40
5.667155838674518
 40
5.717449290214303
 40
5.738402360944918
 40
5.784499116553888
 40
5.830595872164863
 40
5.851548942897721
 40
5.873019280661834
 40
5.924217778408376
 40
5.985325662817751
 40
6.036524160567763
 40
6.057994498334291
 40
6.236847789607535
 40
6.381409928945736
 40
6.493190424178752
 40
6.574067534230615
 40
6.691018086205709
 40
6.814881554220626
 40
6.944307823240664
 40
7.071266716066203
 40
7.193488604462051
 40
7.309042773128274
 40
7.414007203170957
 40
7.505140441886655
 40
7.531150360599777
 40
7.559221645322372
 40
7.587202218921022
 40
7.612569159499264
 40
7.662550809481102
 40
7.702878875764211
 40
7.857328205231025
 40
8.01079956808867
 40
8.16525639965762
 40
8.322232698713846
 40
8.479564855016617
 40
8.635216230290764
 40
8.790882550925739
 40
8.948305154947333
 40
9.168271839033022
 40
9.38735898098727
 40
9.608047961033499
 40
9.83291423479276
 40
9.858338694963093
 40
9.925366817230096
 40
10.02013071422767
 40
10.12876249859005
 40
10.23739428295255
 40
10.33215817995196
 40
10.39918630222399
 40
10.42461076239788
 40
10.64992019336945
 40
10.87188524531191
 40
10.87188524531191
 40
10.87188524531191
 40
10.87188524531191
 10
179.9057788376619
 20
15.73923260398189
 30
0.0
 10
179.9092864933541
 20
15.80616462073802
 30
0.0
 10
179.9163033987662
 20
15.94005891915857
 30
0.0
 10
179.8198027599072
 20
16.2254855497147
 30
0.0
 10
180.0510134726108
 20
16.16284386190281
 30
0.0
 10
180.1919290057156
 20
16.17001554055999
 30
0.0
 10
180.3490417757588
 20
16.16235883078243
 30
0.0
 10
180.5025913427287
 20
16.16252752283044
 30
0.0
 10
180.6545104935081
 20
16.16182040535431
 30
0.0
 10
180.8142214813231
 20
16.17210158351647
 30
0.0
 10
180.9408972601118
 20
16.15496511080749
 30
0.0
 10
181.1370821122081
 20
16.22727260107145
 30
0.0
 10
181.1034395279078
 20
16.12640699080114
 30
0.0
 10
181.1052011317184
 20
16.07619253947668
 30
0.0
 10
181.1027342073458
 20
16.02712335586461
 30
0.0
 10
181.1347076966013
 20
15.94063490846993
 30
0.0
 10
181.0010399903256
 20
15.98997438608335
 30
0.0
 10
180.9172208688057
 20
15.98430634314173
 30
0.0
 10
180.8173861139325
 20
15.99465516706297
 30
0.0
 10
180.7186576720146
 20
16.00086450411085
 30
0.0
 10
180.612153277111
 20
16.00697763816781
 30
0.0
 10
180.491051169806
 20
16.01588883484576
 30
0.0
 10
180.3703381502453
 20
16.00521605912384
 30
0.0
 10
180.1812553843437
 20
16.06468503080363
 30
0.0
 10
180.2129028505311
 20
15.90558320077537
 30
0.0
 10
180.1995563316835
 20
15.80839128339901
 30
0.0
 10
180.1974958426449
 20
15.696340651101
 30
0.0
 10
180.1958188044671
 20
15.57699685629349
 30
0.0
 10
180.1973336794233
 20
15.45032592155111
 30
0.0
 10
180.195658247867
 20
15.3230158801612
 30
0.0
 10
180.2058844271658
 20
15.22451566404466
 30
0.0
 10
180.1779006596583
 20
15.08388702625638
 30
0.0
 10
180.3508029999305
 20
15.13989551134091
 30
0.0
 10
180.4645020202772
 20
15.12719951478501
 30
0.0
 10
180.5840151672239
 20
15.13448377051257
 30
0.0
 10
180.6888491425072
 20
15.13878017056761
 30
0.0
 10
180.7843084898612
 20
15.14330568258972
 30
0.0
 10
180.8763823507032
 20
15.15149201146205
 30
0.0
 10
180.9476551782439
 20
15.14643850638106
 30
0.0
 10
181.0544931705685
 20
15.18536425031677
 30
0.0
 10
181.0226603598036
 20
15.10517122005883
 30
0.0
 10
181.0266164503929
 20
15.05562936846035
 30
0.0
 10
181.0234502392013
 20
15.00557478039819
 30
0.0
 10
181.0550791490585
 20
14.92128847612017
 30
0.0
 10
180.9210133677691
 20
14.97425365495157
 30
0.0
 10
180.82923227932
 20
14.96540080890438
 30
0.0
 10
180.7079729189603
 20
14.97570049965156
 30
0.0
 10
180.5914113119772
 20
14.97748911767501
 30
0.0
 10
180.4783375745879
 20
14.97787017109692
 30
0.0
 10
180.3679246308471
 20
14.98415449472183
 30
0.0
 10
180.289812406784
 20
14.97189133255363
 30
0.0
 10
180.1913625833645
 20
15.00453887616125
 30
0.0
 10
180.2012355173561
 20
14.94769748054207
 30
0.0
 10
180.1973923244402
 20
14.91392130557984
 30
0.0
 10
180.1966789884268
 20
14.87119604709409
 30
0.0
 10
180.1963369642975
 20
14.83401607262151
 30
0.0
 10
180.1963834255345
 20
14.7948723737077
 30
0.0
 10
180.1963649429927
 20
14.75716849497684
 30
0.0
 10
180.1963703431807
 20
14.71944955232401
 30
0.0
 10
180.19636972142
 20
14.68994324745147
 30
0.0
 10
180.1963698151546
 20
14.658735776993
 30
0.0
 10
180.196370428792
 20
14.61414424908083
 30
0.0
 10
180.1963671499337
 20
14.5596395650885
 30
0.0
 10
180.196375962348
 20
14.51505540201446
 30
0.0
 10
180.1963359653419
 20
14.4311780858574
 30
0.0
 10
180.1976024270255
 20
14.31737520677676
 30
0.0
 10
180.1950274117842
 20
14.16830395933708
 30
0.0
 10
180.206500938172
 20
14.06597203813901
 30
0.0
 10
180.1823506222263
 20
13.93338903885827
 30
0.0
 10
180.3332993946476
 20
13.97895732272013
 30
0.0
 10
180.4428436671556
 20
13.96427012162342
 30
0.0
 10
180.573397047392
 20
13.96920435125059
 30
0.0
 10
180.6990312209513
 20
13.97257705323355
 30
0.0
 10
180.8188730625602
 20
13.97711497498778
 30
0.0
 10
180.9391362611426
 20
13.99048536181999
 30
0.0
 10
181.0222761663516
 20
13.98068712782591
 30
0.0
 10
181.1456080421074
 20
14.04126214623315
 30
0.0
 10
181.1244269203957
 20
13.98532460134017
 30
0.0
 10
181.1235950270116
 20
13.95939249372345
 30
0.0
 10
181.1218963707558
 20
13.93197256190936
 30
0.0
 10
181.1217974888829
 20
13.89738195206383
 30
0.0
 10
181.120365930133
 20
13.86050408220767
 30
0.0
 10
181.153280419219
 20
13.76846841021808
 30
0.0
 10
180.9551306988107
 20
13.84132015974832
 30
0.0
 10
180.830054829489
 20
13.818257265086
 30
0.0
 10
180.6673071295156
 20
13.82454021985782
 30
0.0
 10
180.5129366450002
 20
13.82260943909921
 30
0.0
 10
180.3566670436944
 20
13.82393762599264
 30
0.0
 10
180.1970544465282
 20
13.82059872487856
 30
0.0
 10
180.0540326342237
 20
13.83265795728241
 30
0.0
 10
179.8197144881628
 20
13.7695200197692
 30
0.0
 10
179.9173810751197
 20
14.05620527466318
 30
0.0
 10
179.900686878006
 20
14.2498830814266
 30
0.0
 10
179.9146296709684
 20
14.47848242880295
 30
0.0
 10
179.9142987846631
 20
14.6338459395505
 30
0.0
 10
179.9143078119264
 20
14.7396633644413
 30
0.0
 10
179.9143055876316
 20
14.80205784124217
 30
0.0
 10
179.9143065551888
 20
14.89220425248329
 30
0.0
 10
179.9143065473261
 20
14.99621167157439
 30
0.0
 10
179.9143053861102
 20
15.10022131375298
 30
0.0
 10
179.9143090971502
 20
15.19036243688768
 30
0.0
 10
179.9143011051051
 20
15.25276803097215
 30
0.0
 10
179.9143334275018
 20
15.35868835961118
 30
0.0
 10
179.9131440788319
 20
15.51626716544738
 30
0.0
 10
179.9082216489257
 20
15.66528219822064
 30
0.0
 10
179.9057788376619
 20
15.73923260398189
 30
0.0
 11
179.9057788376619
 21
15.73923260398189
 31
0.0
 11
179.896691822374
 21
15.95938578101015
 31
0.0
 11
179.8868249573133
 21
16.17960510387178
 31
0.0
 11
180.04115751414
 21
16.17312391463728
 31
0.0
 11
180.1946500189046
 21
16.16754892331929
 31
0.0
 11
180.3481160653366
 21
16.16367167505632
 31
0.0
 11
180.5025544554939
 21
16.16238072887609
 31
0.0
 11
180.6564835227474
 21
16.16367167505632
 31
0.0
 11
180.80873910046
 21
16.16754892331929
 31
0.0
 11
180.9609113551074
 21
16.17312391463728
 31
0.0
 11
181.1148364762484
 21
16.17960510387178
 31
0.0
 11
181.1070811703124
 21
16.12794961777355
 31
0.0
 11
181.1044991623591
 21
16.07642642334199
 31
0.0
 11
181.1070811703124
 21
16.02475660564659
 31
0.0
 11
181.1148364762484
 21
15.97315954836779
 31
0.0
 11
181.0094874054411
 21
15.98001446156058
 31
0.0
 11
180.9136375700061
 21
15.9869355205866
 31
0.0
 11
180.8198593171903
 21
15.99378381919599
 31
0.0
 11
180.7209679915881
 21
16.0006321178054
 31
0.0
 11
180.6147532199924
 21
16.00710999974825
 31
0.0
 11
180.4991060528038
 21
16.01268829835789
 31
0.0
 11
180.3666126447258
 21
16.01656554662086
 31
0.0
 11
180.2101546018423
 21
16.01785649280109
 31
0.0
 11
180.2062663293721
 21
15.91037061609186
 31
0.0
 11
180.2015380048401
 21
15.80805072896459
 31
0.0
 11
180.1976607566749
 21
15.70138175329685
 31
0.0
 11
180.1963698105272
 21
15.58102059013248
 31
0.0
 11
180.1967799146836
 21
15.44856355891566
 31
0.0
 11
180.1980896021502
 21
15.3195328818646
 31
0.0
 11
180.199407457705
 21
15.2077739843231
 31
0.0
 11
180.1998191153661
 21
15.12695149302388
 31
0.0
 11
180.3434452935875
 21
15.12780256941249
 31
0.0
 11
180.4716343930758
 21
15.13039989580079
 31
0.0
 11
180.5868078221795
 21
15.13425509545256
 31
0.0
 11
180.691775631222
 21
15.13901649302079
 31
0.0
 11
180.7876346289421
 21
15.14418027774174
 31
0.0
 11
180.8757413374193
 21
15.14934406246269
 31
0.0
 11
180.9578881438497
 21
15.15491243919738
 31
0.0
 11
181.0357692335571
 21
15.16132086801528
 31
0.0
 11
181.0280180445186
 21
15.1088440711534
 31
0.0
 11
181.0254328449317
 21
15.0546937847086
 31
0.0
 11
181.0280180445186
 21
15.00310444444365
 31
0.0
 11
181.0357692335571
 21
14.95151510417878
 31
0.0
 11
180.9389813454014
 21
14.96092324653756
 31
0.0
 11
180.8275950722015
 21
14.9686512847301
 31
0.0
 11
180.7089261429373
 21
14.97425273438146
 31
0.0
 11
180.5903167449214
 21
14.9772678819501
 31
0.0
 11
180.4750025117521
 21
14.97898767361638
 31
0.0
 11
180.36672619507
 21
14.98070746528259
 31
0.0
 11
180.2724839317708
 21
14.98202486979617
 31
0.0
 11
180.1998191153661
 21
14.9824360763933
 31
0.0
 11
180.199407457705
 21
14.95019108508193
 31
0.0
 11
180.1980896021502
 21
14.91542593752118
 31
0.0
 11
180.1967799146836
 21
14.87450702260081
 31
0.0
 11
180.1963698105272
 21
14.8242152430995
 31
0.0
 11
180.1963698105272
 21
14.8032621723582
 31
0.0
 11
180.1963698105272
 21
14.75716541672734
 31
0.0
 11
180.1963698105272
 21
14.71106866109649
 31
0.0
 11
180.1963698105272
 21
14.69011559035519
 31
0.0
 11
180.1963698105272
 21
14.66864525258278
 31
0.0
 11
180.1963698105272
 21
14.61744675481782
 31
0.0
 11
180.1963698105272
 21
14.55633887038866
 31
0.0
 11
180.1963698105272
 21
14.5051403726237
 31
0.0
 11
180.1963698105272
 21
14.48367003485129
 31
0.0
 11
180.1967799146836
 21
14.30481721371547
 31
0.0
 11
180.1980896021502
 21
14.16026100715439
 31
0.0
 11
180.2002868589709
 21
14.04850210961287
 31
0.0
 11
180.2032586986985
 21
13.96767961831358
 31
0.0
 11
180.3202092517447
 21
13.96767961831358
 31
0.0
 11
180.4440727208746
 21
13.96767961831358
 31
0.0
 11
180.5734925526423
 21
13.96897056449385
 31
0.0
 11
180.7003922282244
 21
13.97284781275678
 31
0.0
 11
180.8224658067973
 21
13.97886708358866
 31
0.0
 11
180.9377587499463
 21
13.98663260441998
 31
0.0
 11
181.0421754573519
 21
13.99734161483399
 31
0.0
 11
181.1320599255448
 21
14.01237656274688
 31
0.0
 11
181.1264254031191
 21
13.98698427976714
 31
0.0
 11
181.1234433285423
 21
13.959071840538
 31
0.0
 11
181.12213398812
 21
13.93112191867001
 31
0.0
 11
181.1217235369195
 21
13.90575829888468
 31
0.0
 11
181.1243087365064
 21
13.85584355063325
 31
0.0
 11
181.1320599255448
 21
13.81626739612929
 31
0.0
 11
180.9776977178344
 21
13.82145433189185
 31
0.0
 11
180.8242357818765
 21
13.82315538223858
 31
0.0
 11
180.6697789496483
 21
13.82315538223858
 31
0.0
 11
180.5128026496769
 21
13.82315538223858
 31
0.0
 11
180.3554704921536
 21
13.82315538223858
 31
0.0
 11
180.1998191153661
 21
13.82315538223858
 31
0.0
 11
180.0441620874242
 21
13.82145433189185
 31
0.0
 11
179.8868249573133
 21
13.81626739612929
 31
0.0
 11
179.896691822374
 21
14.03601267385212
 31
0.0
 11
179.9057788376619
 21
14.2549112849085
 31
0.0
 11
179.91217215184
 21
14.47550763902001
 31
0.0
 11
179.9143063455009
 21
14.70036378479719
 31
0.0
 11
179.9143063455009
 21
14.72578824496878
 31
0.0
 11
179.9143063455009
 21
14.79281636723935
 31
0.0
 11
179.9143063455009
 21
14.88758026424256
 31
0.0
 11
179.9143063455009
 21
14.99621204861209
 31
0.0
 11
179.9143063455009
 21
15.10484383298163
 31
0.0
 11
179.9143063455009
 21
15.19960772998484
 31
0.0
 11
179.9143063455009
 21
15.2666358522554
 31
0.0
 11
179.9143063455009
 21
15.292060312427
 31
0.0
 11
179.9121721518401
 21
15.51735963528732
 31
0.0
 11
179.9057788376619
 21
15.73923260398189
 31
0.0
  0
SPLINE
  5
C1
102
{ACAD_REACTORS
330
DE
102
}
330
48
100
AcDbEntity
  8
_U_30EC_U_30A4_U_30E4_U_30FC_1
  6
Continuous
 62
     2
100
AcDbSpline
210
0.0
220
0.0
230
1.0
 70
    11
 71
     3
 72
    95
 73
    91
 74
    89
 42
0.000000001
 43
0.0000000001
 44
0.00000001
 40
0.0
 40
0.0
 40
0.0
 40
0.0
 40
0.6550406656911587
 40
1.308087289031918
 40
1.420803739835772
 40
1.566130759770811
 40
1.757067341888455
 40
2.006513545026441
 40
2.087328263121535
 40
2.185328872295652
 40
2.294612454748389
 40
2.408936380534807
 40
2.526802767798557
 40
2.646360524615603
 40
2.762535723971571
 40
2.870057342870141
 40
2.966883448431687
 40
3.05080324351832
 40
3.115818222436599
 40
3.156030057150218
 40
3.213914225080118
 40
3.276689026450518
 40
3.342960320981294
 40
3.404230667150541
 40
3.45382280949333
 40
3.532499827188327
 40
3.634775188507102
 40
3.754909333008112
 40
3.889736761660632
 40
4.035769602175217
 40
4.187256681197587
 40
4.338733685675872
 40
4.488478734676075
 40
4.634708317831529
 40
4.771493189921259
 40
4.892686571561152
 40
5.199775528944394
 40
5.460353566929639
 40
5.66760314234546
 40
5.814722905404427
 40
5.828990806219725
 40
5.855488336304422
 40
5.869756237118754
 40
6.189796507762763
 40
6.531890469872939
 40
6.883053637016954
 40
7.23051202491139
 40
7.566966656764499
 40
7.885203559707318
 40
8.17288743971912
 40
8.41801159406268
 40
8.4439267211906
 40
8.510760470613086
 40
8.602145393795595
 40
8.701714041647033
 40
8.793098965075263
 40
8.859932715057834
 40
8.885847842603482
 40
9.242301256612695
 40
9.5892754550167
 40
9.921808543164063
 40
10.23479624298456
 40
10.2996815088916
 40
10.35323493887743
 40
10.40154625355127
 40
10.46482922477803
 40
10.55973900668385
 40
10.692395459856
 40
10.84920353475649
 40
11.01626328594758
 40
11.18672024367418
 40
11.35372582577187
 40
11.50257442292401
 40
11.61866495023269
 40
11.71329869152854
 40
11.82511050573882
 40
11.94464880845693
 40
12.06929242642483
 40
12.19707290435156
 40
12.32562632860506
 40
12.45034565331255
 40
12.56646595170304
 40
12.6709900741461
 40
12.7607762593676
 40
12.82703233506674
 40
12.87429132785971
 40
12.8983199032331
 40
12.92234847859998
 40
13.53984767410299
 40
14.1829428435934
 40
14.1829428435934
 40
14.1829428435934
 40
14.1829428435934
 10
177.3067935648021
 20
14.70898038201719
 30
0.0
 10
177.1752019758551
 20
14.82265058603228
 30
0.0
 10
176.9124193802728
 20
15.04964496316159
 30
0.0
 10
176.3997393441024
 20
15.89214462956285
 30
0.0
 10
176.4106654595362
 20
15.5342337757702
 30
0.0
 10
176.4041226527991
 20
15.39267392272132
 30
0.0
 10
176.4028026631773
 20
15.19421305299281
 30
0.0
 10
176.4018117602537
 20
15.02150296045983
 30
0.0
 10
176.4024101751975
 20
14.87865373257579
 30
0.0
 10
176.4038994301882
 20
14.78265005413356
 30
0.0
 10
176.4055683588473
 20
14.67545503263139
 30
0.0
 10
176.4071934954617
 20
14.56164211517581
 30
0.0
 10
176.4092429501685
 20
14.44441572604588
 30
0.0
 10
176.4123165501928
 20
14.3265641123297
 30
0.0
 10
176.4156339697044
 20
14.21228087320621
 30
0.0
 10
176.4193605340279
 20
14.10521401867275
 30
0.0
 10
176.4217338161425
 20
14.01007408766919
 30
0.0
 10
176.4278718888357
 20
13.92558557205692
 30
0.0
 10
176.4239784495947
 20
13.86923087298141
 30
0.0
 10
176.4455230443077
 20
13.79825022472358
 30
0.0
 10
176.3680940058618
 20
13.82902677604483
 30
0.0
 10
176.3116353240191
 20
13.82011242517607
 30
0.0
 10
176.2540495896807
 20
13.82896218398275
 30
0.0
 10
176.1690163478472
 20
13.79738225225946
 30
0.0
 10
176.2009714146382
 20
13.88095155992188
 30
0.0
 10
176.1990705282539
 20
13.94882608968306
 30
0.0
 10
176.21079600473
 20
14.05233256764416
 30
0.0
 10
176.2164241053
 20
14.17002125616694
 30
0.0
 10
176.2237902178941
 20
14.30388609164424
 30
0.0
 10
176.232075970161
 20
14.44764152872634
 30
0.0
 10
176.2398851897426
 20
14.59714022843445
 30
0.0
 10
176.2457571222659
 20
14.74792549402077
 30
0.0
 10
176.2503667817969
 20
14.89699943878435
 30
0.0
 10
176.2542632117542
 20
15.04122913163022
 30
0.0
 10
176.2570715126563
 20
15.17583905213016
 30
0.0
 10
176.2576698755022
 20
15.36469614347355
 30
0.0
 10
176.261602386715
 20
15.58975494313153
 30
0.0
 10
176.2442175378499
 20
15.86367091125708
 30
0.0
 10
176.2850417342582
 20
16.02787112098597
 30
0.0
 10
176.1995153256003
 20
16.22749661465093
 30
0.0
 10
176.2660558907688
 20
16.22385458403975
 30
0.0
 10
176.283872427323
 20
16.2241344716085
 30
0.0
 10
176.4056801797508
 20
16.22632927398613
 30
0.0
 10
176.5080770335459
 20
15.94675118721509
 30
0.0
 10
176.7580021509357
 20
15.74563008536
 30
0.0
 10
176.9870035331111
 20
15.47792614987916
 30
0.0
 10
177.2245151213108
 20
15.22646413862374
 30
0.0
 10
177.4486090740772
 20
14.98969974061358
 30
0.0
 10
177.6750716283009
 20
14.7321869258308
 30
0.0
 10
177.8325687886514
 20
14.61649335056923
 30
0.0
 10
178.0472129612673
 20
14.27997152538792
 30
0.0
 10
178.0422645974619
 20
14.40464754091603
 30
0.0
 10
178.0433931602546
 20
14.46327691935737
 30
0.0
 10
178.0428877841517
 20
14.55043662371976
 30
0.0
 10
178.0430475158114
 20
14.64416143182872
 30
0.0
 10
178.0430054891317
 20
14.73018971297034
 30
0.0
 10
178.0430202040373
 20
14.79153891945495
 30
0.0
 10
178.0429706255982
 20
14.9413523152099
 30
0.0
 10
178.0458811522811
 20
15.17989612510105
 30
0.0
 10
178.0259521041161
 20
15.54486509868702
 30
0.0
 10
178.0750433936248
 20
15.80799631993413
 30
0.0
 10
177.917795150918
 20
16.21928904947747
 30
0.0
 10
178.0762112872422
 20
16.16398282551749
 30
0.0
 10
178.1311680478628
 20
16.16199686500177
 30
0.0
 10
178.182788776674
 20
16.16264778248253
 30
0.0
 10
178.2713198965366
 20
16.20369527738244
 30
0.0
 10
178.2204898303168
 20
16.05696326622983
 30
0.0
 10
178.2313389930284
 20
15.9501997195443
 30
0.0
 10
178.2166036994848
 20
15.7908570541411
 30
0.0
 10
178.2099976446204
 20
15.62853061652873
 30
0.0
 10
178.2014961399915
 20
15.45992521892396
 30
0.0
 10
178.1943227202199
 20
15.29814814703542
 30
0.0
 10
178.1889063215389
 20
15.15422331457933
 30
0.0
 10
178.1871713967648
 20
15.03437493466924
 30
0.0
 10
178.1875440672318
 20
14.92686101590514
 30
0.0
 10
178.1873656126263
 20
14.81820024645585
 30
0.0
 10
178.187701086314
 20
14.6995357016553
 30
0.0
 10
178.1890040622186
 20
14.5755516351274
 30
0.0
 10
178.1908887351574
 20
14.44858294171104
 30
0.0
 10
178.1925004454851
 20
14.32153861551031
 30
0.0
 10
178.194140313743
 20
14.19854884492177
 30
0.0
 10
178.1962570745753
 20
14.0830093138376
 30
0.0
 10
178.1963848422363
 20
13.98090903955837
 30
0.0
 10
178.2006514396554
 20
13.89009848838155
 30
0.0
 10
178.1908440085289
 20
13.83213621208784
 30
0.0
 10
178.211847477169
 20
13.76517130132028
 30
0.0
 10
178.1725639739897
 20
13.77291153966686
 30
0.0
 10
177.9595307117747
 20
13.75755254145195
 30
0.0
 10
177.7636297943187
 20
14.31403058094467
 30
0.0
 10
177.4611197631544
 20
14.57556035348506
 30
0.0
 10
177.3067935648021
 20
14.70898038201719
 30
0.0
 11
177.3067935648021
 21
14.70898038201719
 31
0.0
 11
176.8595529338511
 21
15.18757635411978
 31
0.0
 11
176.4124049070644
 21
15.6635264928897
 31
0.0
 11
176.4089664262494
 21
15.55086249986234
 31
0.0
 11
176.40556101835
 21
15.40557538184308
 31
0.0
 11
176.4029636920274
 21
15.21465645827968
 31
0.0
 11
176.4021126156603
 21
14.96521170139758
 31
0.0
 11
176.4025239230289
 21
14.88439802954281
 31
0.0
 11
176.4038420329817
 21
14.78640628477558
 31
0.0
 11
176.4055192267718
 21
14.67713557299736
 31
0.0
 11
176.4072367127518
 21
14.56282454872039
 31
0.0
 11
176.4094007838772
 21
14.44497802965265
 31
0.0
 11
176.4124049070644
 21
14.32545802100199
 31
0.0
 11
176.4158359733138
 21
14.20933349846156
 31
0.0
 11
176.4192928929998
 21
14.1018674655023
 31
0.0
 11
176.4227085253088
 21
14.0051016235126
 31
0.0
 11
176.4261896983793
 21
13.92125406276969
 31
0.0
 11
176.4296006184313
 21
13.8563286200776
 31
0.0
 11
176.4330776843148
 21
13.81626739612929
 31
0.0
 11
176.3754263821571
 21
13.82145433189185
 31
0.0
 11
176.3126746318309
 21
13.82315538223858
 31
0.0
 11
176.2464251717157
 21
13.82145433189185
 31
0.0
 11
176.1853747739675
 21
13.81626739612929
 31
0.0
 11
176.1926772737812
 21
13.8653189412559
 31
0.0
 11
176.2008793569054
 21
13.94356725720849
 31
0.0
 11
176.2090098822348
 21
14.04551893253026
 31
0.0
 11
176.2163406441397
 21
14.16542920159751
 31
0.0
 11
176.2236358280421
 21
14.30005912343891
 31
0.0
 11
176.2318444255596
 21
14.44586107652748
 31
0.0
 11
176.2395504149466
 21
14.59715203135074
 31
0.0
 11
176.2455763002094
 21
14.74850913200729
 31
0.0
 11
176.2503046247416
 21
14.89817951391435
 31
0.0
 11
176.254192897212
 21
15.0443573958222
 31
0.0
 11
176.2567527408965
 21
15.18111831592698
 31
0.0
 11
176.2576324804574
 21
15.30230850686888
 31
0.0
 11
176.257192610677
 21
15.60939715262542
 31
0.0
 11
176.2559126888347
 21
15.86997204839369
 31
0.0
 11
176.2528658717893
 21
16.07719922716124
 31
0.0
 11
176.2473049112763
 21
16.22421385386059
 31
0.0
 11
176.2615728121469
 21
16.22421385386059
 31
0.0
 11
176.2880703423352
 21
16.22421385386059
 31
0.0
 11
176.3023382432058
 21
16.22421385386059
 31
0.0
 11
176.5194743650277
 21
15.98910179662769
 31
0.0
 11
176.7512744123079
 21
15.7375128123156
 31
0.0
 11
176.989481601884
 21
15.47949555543568
 31
0.0
 11
177.2260074557521
 21
15.22497079855489
 31
0.0
 11
177.4555698717705
 21
14.97899759549137
 31
0.0
 11
177.6731797360103
 21
14.74678934034108
 31
0.0
 11
177.8713724913707
 21
14.53826680567101
 31
0.0
 11
178.0430143099086
 21
14.36326697932589
 31
0.0
 11
178.0430143099086
 21
14.38918210687043
 31
0.0
 11
178.0430143099086
 21
14.45601585685371
 31
0.0
 11
178.0430143099086
 21
14.54740078030024
 31
0.0
 11
178.0430143099086
 21
14.64696942823453
 31
0.0
 11
178.0430143099086
 21
14.73835435168106
 31
0.0
 11
178.0430143099086
 21
14.80518810166434
 31
0.0
 11
178.0430143099086
 21
14.83110322920888
 31
0.0
 11
178.0417233637609
 21
15.18755430550866
 31
0.0
 11
178.0378461155958
 21
15.53450684014419
 31
0.0
 11
178.0296197790002
 21
15.86693815950551
 31
0.0
 11
178.0154535467229
 21
16.17960510387178
 31
0.0
 11
178.0790351249619
 21
16.16666367158335
 31
0.0
 11
178.1324170159611
 21
16.16238072887609
 31
0.0
 11
178.1805381084833
 21
16.16666367158335
 31
0.0
 11
178.2424836798197
 21
16.17960510387178
 31
0.0
 11
178.2351216487575
 21
16.08498128445097
 31
0.0
 11
178.2269790968818
 21
15.95257496503959
 31
0.0
 11
178.2183705364005
 21
15.79600336785654
 31
0.0
 11
178.2097547223215
 21
15.62916593734269
 31
0.0
 11
178.2016187850288
 21
15.45890325509362
 31
0.0
 11
178.1942501393835
 21
15.292060312427
 31
0.0
 11
178.1891406931522
 21
15.14329943572812
 31
0.0
 11
178.1874503478904
 21
15.027221215271
 31
0.0
 11
178.1874503478904
 21
14.93258747397516
 31
0.0
 11
178.1874503478904
 21
14.82077565976709
 31
0.0
 11
178.1878461204497
 21
14.70123801222748
 31
0.0
 11
178.1890819450709
 21
14.5766005209392
 31
0.0
 11
178.1908392193317
 21
14.44883212687388
 31
0.0
 11
178.1925303477608
 21
14.32028982655879
 31
0.0
 11
178.1942876220215
 21
14.19558288214556
 31
0.0
 11
178.1959787504506
 21
14.07947489606349
 31
0.0
 11
178.1972884379172
 21
13.9749589672702
 31
0.0
 11
178.1976985420735
 21
13.88517371555651
 31
0.0
 11
178.1976985420735
 21
13.81891763918413
 31
0.0
 11
178.1976985420735
 21
13.7716586461404
 31
0.0
 11
178.1736699662976
 21
13.7716586461404
 31
0.0
 11
178.1496413905217
 21
13.7716586461404
 31
0.0
 11
177.7410729200423
 21
14.2346673526219
 31
0.0
 11
177.3067935648021
 21
14.70898038201719
 31
0.0
  0
SPLINE
  5
C2
102
{ACAD_REACTORS
330
DF
102
}
330
48
100
AcDbEntity
  8
_U_30EC_U_30A4_U_30E4_U_30FC_1
  6
Continuous
 62
     2
100
AcDbSpline
210
0.0
220
0.0
230
1.0
 70
    11
 71
     3
 72
    25
 73
    21
 74
    19
 42
0.000000001
 43
0.0000000001
 44
0.00000001
 40
0.0
 40
0.0
 40
0.0
 40
0.0
 40
0.0911479969065387
 40
0.1858117896204659
 40
0.2804128399734485
 40
0.3715889190714505
 40
0.4679080494218703
 40
0.5642683809229222
 40
0.6605683222644985
 40
0.7569653015810244
 40
0.8561348172522695
 40
1.092615965104281
 40
1.374867658141858
 40
1.611348812011575
 40
1.71051832842522
 40
1.809403163726536
 40
2.045205463294031
 40
2.326646917622083
 40
2.562449217190539
 40
2.661334043833855
 40
2.661334043833855
 40
2.661334043833855
 40
2.661334043833855
 10
173.2683700567199
 20
14.88614538197288
 30
0.0
 10
173.2987525917922
 20
14.88598079714552
 30
0.0
 10
173.3606895889112
 20
14.88564528689921
 30
0.0
 10
173.4541356960329
 20
14.88269055452001
 30
0.0
 10
173.5475095236358
 20
14.87977752877152
 30
0.0
 10
173.6417760753476
 20
14.87894201643415
 30
0.0
 10
173.7354964790967
 20
14.87996644658047
 30
0.0
 10
173.8352040303204
 20
14.87916977470967
 30
0.0
 10
173.9188949546312
 20
14.88921410235219
 30
0.0
 10
174.0637996315045
 20
14.8623461767416
 30
0.0
 10
173.9396132444801
 20
15.03665530280045
 30
0.0
 10
173.8965867286282
 20
15.19651711006086
 30
0.0
 10
173.780892214221
 20
15.4551845855021
 30
0.0
 10
173.7017565431256
 20
15.59231052861851
 30
0.0
 10
173.6431576621816
 20
15.8093703313407
 30
0.0
 10
173.5864803939438
 20
15.59266134213421
 30
0.0
 10
173.5052809900478
 20
15.45327012438231
 30
0.0
 10
173.4063701281487
 20
15.20406969370189
 30
0.0
 10
173.325362509426
 20
15.0192583022607
 30
0.0
 10
173.2813683325838
 20
14.91650446856112
 30
0.0
 10
173.2683700567199
 20
14.88614538197288
 30
0.0
 11
173.2683700567199
 21
14.88614538197288
 31
0.0
 11
173.3595137737821
 21
14.88526123266759
 31
0.0
 11
173.4541428297581
 21
14.882696979196
 31
0.0
 11
173.5487082179706
 21
14.88009965280778
 31
0.0
 11
173.6398803250196
 21
14.87924857641909
 31
0.0
 11
173.7361985777706
 21
14.8796597830162
 31
0.0
 11
173.8325499034376
 21
14.88097718752968
 31
0.0
 11
173.9288262638286
 21
14.8831081857931
 31
0.0
 11
174.0251753846343
 21
14.88614538197288
 31
0.0
 11
173.9854633323141
 21
14.97701642195016
 31
0.0
 11
173.8907653613968
 21
15.19370890189597
 31
0.0
 11
173.7777387509471
 21
15.45234186183129
 31
0.0
 11
173.6830407800297
 21
15.66903434177711
 31
0.0
 11
173.6433287277095
 21
15.75990538175438
 31
0.0
 11
173.6043330259266
 21
15.6690343417771
 31
0.0
 11
173.5113432755212
 21
15.45234186183129
 31
0.0
 11
173.4003555089082
 21
15.19370890189597
 31
0.0
 11
173.3073657585028
 21
14.97701642195016
 31
0.0
 11
173.2683700567199
 21
14.88614538197288
 31
0.0
  0
SPLINE
  5
C3
102
{ACAD_REACTORS
330
DF
102
}
330
48
100
AcDbEntity
  8
_U_30EC_U_30A4_U_30E4_U_30FC_1
  6
Continuous
 62
     2
100
AcDbSpline
210
0.0
220
0.0
230
1.0
 70
    11
 71
     3
 72
    57
 73
    53
 74
    51
 42
0.000000001
 43
0.0000000001
 44
0.00000001
 40
0.0
 40
0.0
 40
0.0
 40
0.0
 40
0.0471632082808925
 40
0.0914861054632114
 40
0.135776251970235
 40
0.1826527001610644
 40
0.2295203288572269
 40
0.2737751972219586
 40
0.3181310461542734
 40
0.3652607198398432
 40
0.4571007286314147
 40
0.5671851029165037
 40
0.6894623283867957
 40
0.8181758272545715
 40
0.9510087229273639
 40
1.085852229674059
 40
1.218126164475318
 40
1.343545131142378
 40
1.454537202956794
 40
1.567187607530803
 40
1.680710966642393
 40
1.7942268697367
 40
1.900009184247557
 40
2.00408586044778
 40
2.108162674451724
 40
2.214000150155296
 40
2.496038577352129
 40
2.762350745479308
 40
2.99727535327943
 40
3.185110082137726
 40
3.246407890063951
 40
3.312607550212681
 40
3.378877742711582
 40
3.440140399651434
 40
4.100501696006436
 40
4.754913085563473
 40
5.411331693423873
 40
6.077890432568655
 40
6.110575292670934
 40
6.143260152775714
 40
6.367989363395113
 40
6.610525374951457
 40
6.863389136467235
 40
7.119380025547486
 40
7.37603660509104
 40
7.631164770966235
 40
7.87672242545636
 40
8.10495373585594
 40
8.312916685924222
 40
8.497730294941217
 40
8.651018984313763
 40
8.764738853624493
 40
8.764738853624493
 40
8.764738853624493
 40
8.764738853624493
 10
174.7922649500513
 20
13.81626739612929
 30
0.0
 10
174.7766616726931
 20
13.81826231079079
 30
0.0
 10
174.7463947960302
 20
13.82213201360299
 30
0.0
 10
174.7010994202253
 20
13.82341984967263
 30
0.0
 10
174.6559553129349
 20
13.82308683554047
 30
0.0
 10
174.6099017123399
 20
13.82314658674219
 30
0.0
 10
174.5640496172097
 20
13.82325813649997
 30
0.0
 10
174.5183711648165
 20
13.82277833456584
 30
0.0
 10
174.4750811541609
 20
13.82461109618723
 30
0.0
 10
174.4039947951514
 20
13.80049556814659
 30
0.0
 10
174.4057477261441
 20
13.92184693977252
 30
0.0
 10
174.358619637057
 20
14.00726239751232
 30
0.0
 10
174.3191478251762
 20
14.12486929345136
 30
0.0
 10
174.2706635532645
 20
14.24232752540438
 30
0.0
 10
174.2201017402521
 20
14.3640593576151
 30
0.0
 10
174.1718634610477
 20
14.49075967862468
 30
0.0
 10
174.1135232947594
 20
14.59933687784954
 30
0.0
 10
174.0980892667262
 20
14.75620657134414
 30
0.0
 10
173.9566586330635
 20
14.72373446548319
 30
0.0
 10
173.8508397414904
 20
14.73512888682178
 30
0.0
 10
173.7358569725222
 20
14.73392591514614
 30
0.0
 10
173.6253142252141
 20
14.73506945347407
 30
0.0
 10
173.5176583522783
 20
14.73418350037525
 30
0.0
 10
173.4121322529243
 20
14.73416602390517
 30
0.0
 10
173.3109192682013
 20
14.72714032472412
 30
0.0
 10
173.1266804827753
 20
14.75135859859874
 30
0.0
 10
173.1157393685413
 20
14.44741691121881
 30
0.0
 10
173.008769163475
 20
14.22353177253397
 30
0.0
 10
172.9098148604347
 20
14.03895314292495
 30
0.0
 10
172.9225090524007
 20
13.79530204804209
 30
0.0
 10
172.8050091716397
 20
13.82508046753197
 30
0.0
 10
172.742205586831
 20
13.82258089509597
 30
0.0
 10
172.67858720934
 20
13.82344075102805
 30
0.0
 10
172.3946014194073
 20
13.78098039941952
 30
0.0
 10
173.0251638499382
 20
14.50081952444783
 30
0.0
 10
173.1087645289072
 20
15.01276539435721
 30
0.0
 10
173.4929252789339
 20
15.53353743550043
 30
0.0
 10
173.4777208288563
 20
16.23519626253209
 30
0.0
 10
173.7239265722697
 20
16.22345633081254
 30
0.0
 10
173.825634615756
 20
16.23225004452769
 30
0.0
 10
173.8249752035818
 20
15.98059650730345
 30
0.0
 10
173.9428317155828
 20
15.79818020733958
 30
0.0
 10
174.0315515260485
 20
15.55563740662867
 30
0.0
 10
174.1322292485259
 20
15.32340030530129
 30
0.0
 10
174.2311142712243
 20
15.08674644566914
 30
0.0
 10
174.3299676990669
 20
14.85461739170091
 30
0.0
 10
174.4256166390926
 20
14.63122222788785
 30
0.0
 10
174.5159904573272
 20
14.4227254904932
 30
0.0
 10
174.5989944568189
 20
14.23308448529319
 30
0.0
 10
174.6726088582799
 20
14.06663106068099
 30
0.0
 10
174.7342815895546
 20
13.92917699626101
 30
0.0
 10
174.7749458885604
 20
13.84999239430036
 30
0.0
 10
174.7922649500513
 20
13.81626739612929
 30
0.0
 11
174.7922649500513
 21
13.81626739612929
 31
0.0
 11
174.7453878317448
 21
13.82145433189185
 31
0.0
 11
174.7010975896125
 21
13.82315538223858
 31
0.0
 11
174.6568074431729
 21
13.82315538223858
 31
0.0
 11
174.6099309947159
 21
13.82315538223858
 31
0.0
 11
174.5630633657034
 21
13.82315538223858
 31
0.0
 11
174.5188084970409
 21
13.82315538223858
 31
0.0
 11
174.4744852776854
 21
13.82145433189185
 31
0.0
 11
174.4276419021443
 21
13.81626739612929
 31
0.0
 11
174.3992532136325
 21
13.90360966173244
 31
0.0
 11
174.3622721815898
 21
14.0072965627482
 31
0.0
 11
174.3188386236701
 21
14.12159987001127
 31
0.0
 11
174.2711055866936
 21
14.24113531268969
 31
0.0
 11
174.2208160133237
 21
14.36408057307564
 31
0.0
 11
174.1696467003932
 21
14.48883822929449
 31
0.0
 11
174.1197531801326
 21
14.61134141502775
 31
0.0
 11
174.0733119111841
 21
14.72784517367919
 31
0.0
 11
173.9623611907589
 21
14.73087465284504
 31
0.0
 11
173.8497309225089
 21
14.73300454867788
 31
0.0
 11
173.7362152069449
 21
14.73432195319139
 31
0.0
 11
173.6227000476801
 21
14.73473315978851
 31
0.0
 11
173.5169185312816
 21
14.73432195319139
 31
0.0
 11
173.4128501919226
 21
14.73300454867788
 31
0.0
 11
173.3087951724045
 21
14.73087465284504
 31
0.0
 11
173.2030010615596
 21
14.72784517367919
 31
0.0
 11
173.0980914750139
 21
14.46604437513351
 31
0.0
 11
173.0034868690331
 21
14.21710232658458
 31
0.0
 11
172.9252231210298
 21
13.99559756969555
 31
0.0
 11
172.8693431224555
 21
13.81626739612929
 31
0.0
 11
172.8082651639442
 21
13.82145433189185
 31
0.0
 11
172.742087361813
 21
13.82315538223858
 31
0.0
 11
172.6758390041282
 21
13.82145433189185
 31
0.0
 11
172.6147963233938
 21
13.81626739612929
 31
0.0
 11
172.889968495193
 21
14.41656508695141
 31
0.0
 11
173.1582945734171
 21
15.01343642360769
 31
0.0
 11
173.4240277350405
 21
15.61366245644378
 31
0.0
 11
173.6914740737033
 21
16.22421385386059
 31
0.0
 11
173.7241589339806
 21
16.22421385386059
 31
0.0
 11
173.7568437942579
 21
16.22421385386059
 31
0.0
 11
173.8428300681057
 21
16.0165853903708
 31
0.0
 11
173.9357285813609
 21
15.79254614563519
 31
0.0
 11
174.0328714521463
 21
15.55908663180469
 31
0.0
 11
174.1317936458031
 21
15.32298128464149
 31
0.0
 11
174.2315341249927
 21
15.08649780379782
 31
0.0
 11
174.3313071129353
 21
14.85168781253708
 31
0.0
 11
174.4280608257449
 21
14.62599492196849
 31
0.0
 11
174.5188084970409
 21
14.41658052097918
 31
0.0
 11
174.6022150834546
 21
14.22607611130462
 31
0.0
 11
174.6770293263377
 21
14.05708232662468
 31
0.0
 11
174.7410729186603
 21
13.9178133770067
 31
0.0
 11
174.7922649500513
 21
13.81626739612929
 31
0.0
  0
SPLINE
  5
C4
102
{ACAD_REACTORS
330
E0
102
}
330
48
100
AcDbEntity
  8
_U_30EC_U_30A4_U_30E4_U_30FC_1
  6
Continuous
 62
     2
100
AcDbSpline
210
0.0
220
0.0
230
1.0
 70
    11
 71
     3
 72
    99
 73
    95
 74
    93
 42
0.000000001
 43
0.0000000001
 44
0.00000001
 40
0.0
 40
0.0
 40
0.0
 40
0.0
 40
0.079641717227271
 40
0.1621768542356327
 40
0.2486489160957836
 40
0.3404969668524779
 40
0.4381912511165441
 40
0.5434463660245203
 40
0.6518115192847551
 40
0.7530190937887098
 40
0.849219691972542
 40
0.9419290312998404
 40
1.034249663570059
 40
1.129078600620217
 40
1.226697027573301
 40
1.327220425421745
 40
1.47057213493808
 40
1.595489863371288
 40
1.719934125348447
 40
1.850576620127391
 40
1.989059629987378
 40
2.134139054226995
 40
2.280698007207251
 40
2.424529739039536
 40
2.565929576985911
 40
2.708239260773634
 40
2.861717887443754
 40
3.045168540347385
 40
3.183798301138688
 40
3.314813961455533
 40
3.442083470447399
 40
3.569912708373092
 40
3.702177512509457
 40
3.842307559659586
 40
3.992872223246035
 40
4.156750662218366
 40
4.310981861107586
 40
4.445859909322627
 40
4.572393936131622
 40
4.701656719782011
 40
4.768279086008515
 40
4.835960697898434
 40
4.912788918729383
 40
5.006285208481577
 40
5.026909478751625
 40
5.047533749021133
 40
5.101808031471205
 40
5.162325165538509
 40
5.226919745995778
 40
5.294231806596713
 40
5.364544852554866
 40
5.438319055467898
 40
5.517877651324204
 40
5.607647714861543
 40
5.700449642544362
 40
5.788251142364018
 40
5.872714706039747
 40
5.955167292575278
 40
6.037192395190357
 40
6.120669181469057
 40
6.206848616686303
 40
6.296680855416756
 40
6.442558392872566
 40
6.568190371608261
 40
6.692904567360293
 40
6.824220446557032
 40
6.96312185032929
 40
7.107843738851086
 40
7.253431663907199
 40
7.395187468036619
 40
7.533140753237666
 40
7.670550457175173
 40
7.816236511769186
 40
7.987691657359145
 40
8.142277421969183
 40
8.293662615414927
 40
8.44296246087919
 40
8.591598316185221
 40
8.743678992361717
 40
8.903725323699106
 40
9.07630700889045
 40
9.265578604680504
 40
9.459203795360681
 40
9.617619810273462
 40
9.753609671361815
 40
9.874873300004003
 40
9.954520184977703
 40
10.02416413719234
 40
10.09769764405434
 40
10.18909955924964
 40
10.20974586420126
 40
10.23039218263371
 40
10.30057101881257
 40
10.37632012987533
 40
10.37632012987533
 40
10.37632012987533
 40
10.37632012987533
 10
170.1465954835851
 20
14.13795663215998
 30
0.0
 10
170.1632217851219
 20
14.11720608845316
 30
0.0
 10
170.1970784206577
 20
14.07495111711902
 30
0.0
 10
170.2599822541036
 20
14.02029811392072
 30
0.0
 10
170.3332500940393
 20
13.97299025121053
 30
0.0
 10
170.4175969238636
 20
13.93527231437937
 30
0.0
 10
170.5132240615459
 20
13.91040619731952
 30
0.0
 10
170.6171853775347
 20
13.90309559345931
 30
0.0
 10
170.7224020220405
 20
13.91142322794053
 30
0.0
 10
170.8206626371334
 20
13.94149179651526
 30
0.0
 10
170.9058986427548
 20
13.98848822971875
 30
0.0
 10
170.9779220206103
 20
14.04952991250855
 30
0.0
 10
171.0350917709096
 20
14.12412969578581
 30
0.0
 10
171.076786874744
 20
14.21002464660174
 30
0.0
 10
171.1026952846293
 20
14.30485850432209
 30
0.0
 10
171.1118037332653
 20
14.41854979038368
 30
0.0
 10
171.0986864796486
 20
14.54332587770779
 30
0.0
 10
171.0325330334414
 20
14.66014719171894
 30
0.0
 10
170.9369370919568
 20
14.74512539577372
 30
0.0
 10
170.824968102237
 20
14.81416684459169
 30
0.0
 10
170.6993659583269
 20
14.87204142045887
 30
0.0
 10
170.5656691620856
 20
14.9237372328434
 30
0.0
 10
170.4313122818831
 20
14.97899092397181
 30
0.0
 10
170.3051983986877
 20
15.04939770641645
 30
0.0
 10
170.1926579987535
 20
15.13785540731248
 30
0.0
 10
170.0969963064457
 20
15.24981067868474
 30
0.0
 10
170.0334157151826
 20
15.39949910101382
 30
0.0
 10
170.0200706505016
 20
15.5593279438514
 30
0.0
 10
170.0320510987449
 20
15.71048405306843
 30
0.0
 10
170.071229892884
 20
15.83809244591539
 30
0.0
 10
170.1354987750911
 20
15.95080874030847
 30
0.0
 10
170.2238204999741
 20
16.04648609268679
 30
0.0
 10
170.3338091207628
 20
16.12354214985752
 30
0.0
 10
170.4632284401266
 20
16.18151396936284
 30
0.0
 10
170.6111838967793
 20
16.21739177588818
 30
0.0
 10
170.7682069455486
 20
16.2274671905056
 30
0.0
 10
170.917494046643
 20
16.21863637762589
 30
0.0
 10
171.059625361417
 20
16.19074899340355
 30
0.0
 10
171.1595922609625
 20
16.13413314701138
 30
0.0
 10
171.3125074736184
 20
16.08674602105508
 30
0.0
 10
171.2455131717168
 20
16.00197553001185
 30
0.0
 10
171.2296479120269
 20
15.93438901873485
 30
0.0
 10
171.1978750531297
 20
15.86926092793192
 30
0.0
 10
171.215020220957
 20
15.76723453256955
 30
0.0
 10
171.1666427208232
 20
15.77493211681903
 30
0.0
 10
171.1315789440766
 20
15.7680677172481
 30
0.0
 10
171.1296697985718
 20
15.83263831158196
 30
0.0
 10
171.0985692931989
 20
15.87825639621392
 30
0.0
 10
171.0664551628456
 20
15.9356103662846
 30
0.0
 10
171.0208038475167
 20
15.98540462692555
 30
0.0
 10
170.9658508218387
 20
16.02994813718997
 30
0.0
 10
170.9010841173007
 20
16.06763988836547
 30
0.0
 10
170.8232377310597
 20
16.0928337579135
 30
0.0
 10
170.7355160553352
 20
16.09931230998108
 30
0.0
 10
170.6452903277807
 20
16.09235709285601
 30
0.0
 10
170.5594594694065
 20
16.06909190460925
 30
0.0
 10
170.4828343638596
 20
16.03131644107546
 30
0.0
 10
170.4165265636201
 20
15.98051641089571
 30
0.0
 10
170.3622560536964
 20
15.91731143407209
 30
0.0
 10
170.3224925345459
 20
15.84276455710368
 30
0.0
 10
170.2976775510588
 20
15.75917313997764
 30
0.0
 10
170.289212426287
 20
15.65192948382284
 30
0.0
 10
170.3019697987104
 20
15.52965457267557
 30
0.0
 10
170.3681548409274
 20
15.41149724291217
 30
0.0
 10
170.4640977399832
 20
15.32606325709529
 30
0.0
 10
170.5757914963183
 20
15.25583362306729
 30
0.0
 10
170.7010863668702
 20
15.19659162305304
 30
0.0
 10
170.8349823941447
 20
15.14616708086131
 30
0.0
 10
170.9689930333149
 20
15.0932251698438
 30
0.0
 10
171.0950885316915
 20
15.02750170625175
 30
0.0
 10
171.2076216638417
 20
14.94480352537322
 30
0.0
 10
171.3031370284233
 20
14.83996006310072
 30
0.0
 10
171.3672706486963
 20
14.69937117251568
 30
0.0
 10
171.3811103725279
 20
14.54065409451591
 30
0.0
 10
171.367395471223
 20
14.38153155217874
 30
0.0
 10
171.3244739153984
 20
14.2348382881921
 30
0.0
 10
171.2545906329066
 20
14.10119796587142
 30
0.0
 10
171.1574592213829
 20
13.98532387699294
 30
0.0
 10
171.0347806023657
 20
13.89089981770086
 30
0.0
 10
170.8874408413168
 20
13.82179270651979
 30
0.0
 10
170.7177132497124
 20
13.77953210858854
 30
0.0
 10
170.5317404979596
 20
13.76781736230404
 30
0.0
 10
170.3528955926183
 20
13.77809486683439
 30
0.0
 10
170.1881733753743
 20
13.81966573769148
 30
0.0
 10
170.0834410841057
 20
13.88797642883946
 30
0.0
 10
169.9350960790365
 20
13.93675219032107
 30
0.0
 10
169.9980378194729
 20
14.02976591290839
 30
0.0
 10
170.0072274430059
 20
14.10296536248278
 30
0.0
 10
170.0303711301231
 20
14.16936294501343
 30
0.0
 10
170.0034588335317
 20
14.26974809527581
 30
0.0
 10
170.0521338956338
 20
14.26234033517378
 30
0.0
 10
170.0916530580697
 20
14.26894063620895
 30
0.0
 10
170.0996204944701
 20
14.19078703218932
 30
0.0
 10
170.1305436967923
 20
14.15600927375859
 30
0.0
 10
170.1465954835851
 20
14.13795663215998
 30
0.0
 11
170.1465954835851
 21
14.13795663215998
 31
0.0
 11
170.1982038075864
 21
14.07729869814737
 31
0.0
 11
170.2601105501335
 21
14.0227129516332
 31
0.0
 11
170.3327764009802
 21
13.97583980928385
 31
0.0
 11
170.4166468655843
 21
13.9383990627654
 31
0.0
 11
170.511221073241
 21
13.91390636311877
 31
0.0
 11
170.6161603327165
 21
13.90575829888468
 31
0.0
 11
170.7240739497552
 21
13.91564048638222
 31
0.0
 11
170.8208419941616
 21
13.9452870488748
 31
0.0
 11
170.9050776083319
 21
13.99175118948818
 31
0.0
 11
170.9756144207686
 21
14.05191413218148
 31
0.0
 11
171.031944210998
 21
14.12505819466317
 31
0.0
 11
171.0736690016003
 21
14.2102143404752
 31
0.0
 11
171.0994680808033
 21
14.30436190989613
 31
0.0
 11
171.1080824729446
 21
14.40451552098219
 31
0.0
 11
171.0878517703357
 21
14.54643250879399
 31
0.0
 11
171.0272522666731
 21
14.65566684036389
 31
0.0
 11
170.9364971286286
 21
14.74081306430096
 31
0.0
 11
170.8260101884741
 21
14.81052746532518
 31
0.0
 11
170.7008523531254
 21
14.86979854169923
 31
0.0
 11
170.5662951950998
 21
14.9240425347412
 31
0.0
 11
170.4316884277007
 21
14.98201274306002
 31
0.0
 11
170.3065802017258
 21
15.05297399304229
 31
0.0
 11
170.196027609828
 21
15.14113315968692
 31
0.0
 11
170.1053381235265
 21
15.25080295132619
 31
0.0
 11
170.0447055469484
 21
15.39179720476317
 31
0.0
 11
170.0245079172553
 21
15.57413260402308
 31
0.0
 11
170.0374030471347
 21
15.71216131926642
 31
0.0
 11
170.0761016659391
 21
15.83733128451289
 31
0.0
 11
170.1393141731507
 21
15.94779262129084
 31
0.0
 11
170.2257499954546
 21
16.04196885390618
 31
0.0
 11
170.3336492808963
 21
16.1184654077065
 31
0.0
 11
170.4613526283328
 21
16.1761567010949
 31
0.0
 11
170.6075393259923
 21
16.21220066809972
 31
0.0
 11
170.770976856545
 21
16.22421385386059
 31
0.0
 11
170.9248918431289
 21
16.21434269066863
 31
0.0
 11
171.0564887242607
 21
16.18477329831498
 31
0.0
 11
171.172563634494
 21
16.13439993895253
 31
0.0
 11
171.2800792741122
 21
16.06264163167879
 31
0.0
 11
171.2516994050444
 21
16.00236624106886
 31
0.0
 11
171.2284855254283
 21
15.9387901733765
 31
0.0
 11
171.2078381040801
 21
15.86478841992269
 31
0.0
 11
171.1871840681487
 21
15.77360197897329
 31
0.0
 11
171.1665597978415
 21
15.77360197897329
 31
0.0
 11
171.1459355275344
 21
15.77360197897329
 31
0.0
 11
171.1256706495791
 21
15.82395108486346
 31
0.0
 11
171.0994658759421
 21
15.87850045116929
 31
0.0
 11
171.0650468924452
 21
15.93316116296114
 31
0.0
 11
171.0203554612937
 21
15.98349593725411
 31
0.0
 11
170.9657333359511
 21
16.0277717532153
 31
0.0
 11
170.9016722004326
 21
16.06436142334499
 31
0.0
 11
170.8259682961141
 21
16.08882545979724
 31
0.0
 11
170.7365722046449
 21
16.09701100667019
 31
0.0
 11
170.6440937174208
 21
16.08926973931098
 31
0.0
 11
170.5594072091646
 21
16.0660900344557
 31
0.0
 11
170.483702448884
 21
16.02863495634008
 31
0.0
 11
170.4183754766516
 21
15.97832774281099
 31
0.0
 11
170.3650487887664
 21
15.91600293379878
 31
0.0
 11
170.3254809233901
 21
15.84249947895609
 31
0.0
 11
170.3009523754711
 21
15.75988443557392
 31
0.0
 11
170.2927954104108
 21
15.6704232984435
 31
0.0
 11
170.3130095765618
 21
15.52595308146573
 31
0.0
 11
170.3736256166821
 21
15.41591177072939
 31
0.0
 11
170.4643479320758
 21
15.33033670130635
 31
0.0
 11
170.5748676948813
 21
15.25941954854631
 31
0.0
 11
170.7000089937719
 21
15.1991430555058
 31
0.0
 11
170.8345826882553
 21
15.1459044791302
 31
0.0
 11
170.9691729191968
 21
15.09039489581072
 31
0.0
 11
171.0942976816297
 21
15.02377281249409
 31
0.0
 11
171.204800907977
 21
14.9411886371675
 31
0.0
 11
171.2955397598288
 21
14.8380000347627
 31
0.0
 11
171.3561557999489
 21
14.70552315979583
 31
0.0
 11
171.3763699660998
 21
14.53526378483838
 31
0.0
 11
171.3621839747998
 21
14.38133030397411
 31
0.0
 11
171.3196087009193
 21
14.23605531269098
 31
0.0
 11
171.2499752884265
 21
14.10398854189068
 31
0.0
 11
171.1544992078713
 21
13.9900721877525
 31
0.0
 11
171.0341060772624
 21
13.89715272597016
 31
0.0
 11
170.8896160201846
 21
13.82832357668178
 31
0.0
 11
170.7223519532713
 21
13.78581275203967
 31
0.0
 11
170.5336103348226
 21
13.7716586461404
 31
0.0
 11
170.3405031726387
 21
13.78581275203967
 31
0.0
 11
170.1878975900911
 21
13.82832357668178
 31
0.0
 11
170.0661897942203
 21
13.88899033013892
 31
0.0
 11
169.9660261826363
 21
13.95734322942738
 31
0.0
 11
169.9922320587039
 21
14.03255545163076
 31
0.0
 11
170.0090121537618
 21
14.10014767383609
 31
0.0
 11
170.0206196447852
 21
14.17275926235959
 31
0.0
 11
170.0313606254139
 21
14.26352788212859
 31
0.0
 11
170.0520069443315
 21
14.26352788212859
 31
0.0
 11
170.0726532632492
 21
14.26352788212859
 31
0.0
 11
170.1048916391629
 21
14.20119204881082
 31
0.0
 11
170.1465954835851
 21
14.13795663215998
 31
0.0
  0
LWPOLYLINE
  5
C5
102
{ACAD_REACTORS
330
D2
102
}
330
48
100
AcDbEntity
  8
_U_30EC_U_30A4_U_30E4_U_30FC_1
  6
Continuous
 62
     2
100
AcDbPolyline
 90
        5
 70
     1
 43
0.0
 10
192.4578138032672
 20
15.39722336795629
 10
192.4578138032672
 20
15.2287543402206
 10
191.1602971697031
 20
15.2287543402206
 10
191.1602971697031
 20
15.39722336795629
 10
192.4578138032672
 20
15.39722336795629
  0
MTEXT
  5
C7
330
48
100
AcDbEntity
  8
1
 62
     2
100
AcDbMText
 10
32.5
 20
282.0000000000003
 30
0.0
 40
5.0
 41
0.0
 71
     5
 72
     1
  1
図番
  7
CONVERTER_11
 73
     1
 44
0.45454545454545
  0
MTEXT
  5
C8
330
48
100
AcDbEntity
  8
1
 62
     2
100
AcDbMText
 10
29.0
 20
33.99999999999999
 30
0.0
 40
3.5
 41
0.0
 71
     5
 72
     1
  1
備考
  7
CONVERTER_11
 73
     1
 44
0.45454545454545
  0
MTEXT
  5
C9
330
48
100
AcDbEntity
  8
1
 62
     2
100
AcDbMText
 10
29.0
 20
22.74999999999999
 30
0.0
 40
3.5
 41
0.0
 71
     5
 72
     1
  1
品名
  7
CONVERTER_11
 73
     1
 44
0.72727272727273
  0
MTEXT
  5
CA
330
48
100
AcDbEntity
  8
1
 62
     2
100
AcDbMText
 10
29.0
 20
14.25
 30
0.0
 40
3.5
 41
0.0
 71
     5
 72
     1
  1
品番
  7
CONVERTER_11
 73
     1
 44
0.72727272727273
  0
MTEXT
  5
CB
330
48
100
AcDbEntity
  8
1
 62
     2
100
AcDbMText
 10
101.5
 20
24.99999999999999
 30
0.0
 40
3.0
 41
0.0
 71
     5
 72
     1
  1
承認
  7
CONVERTER_11
 73
     1
 44
0.59090909090909
  0
MTEXT
  5
CC
330
48
100
AcDbEntity
  8
1
 62
     2
100
AcDbMText
 10
175.0
 20
23.49999999999999
 30
0.0
 40
3.5
 41
0.0
 71
     5
 72
     1
  1
第三角法
  7
CONVERTER_11
 73
     1
 44
0.54545454545455
  0
MTEXT
  5
CD
330
48
100
AcDbEntity
  8
1
 62
     2
100
AcDbMText
 10
118.5
 20
24.99999999999999
 30
0.0
 40
3.0
 41
0.0
 71
     5
 72
     1
  1
検図
  7
CONVERTER_11
 73
     1
 44
0.59090909090909
  0
MTEXT
  5
CE
330
48
100
AcDbEntity
  8
1
 62
     2
100
AcDbMText
 10
152.5
 20
24.99999999999999
 30
0.0
 40
3.0
 41
0.0
 71
     5
 72
     1
  1
設計
  7
CONVERTER_11
 73
     1
 44
0.59090909090909
  0
MTEXT
  5
CF
330
48
100
AcDbEntity
  8
1
 62
     2
100
AcDbMText
 10
135.5
 20
24.99999999999999
 30
0.0
 40
3.0
 41
0.0
 71
     5
 72
     1
  1
製図
  7
CONVERTER_11
 73
     1
 44
0.59090909090909
  0
MTEXT
  5
D0
330
48
100
AcDbEntity
  8
1
 62
     2
100
AcDbMText
 10
89.5
 20
23.99999999999999
 30
0.0
 40
3.5
 41
0.0
 71
     5
 72
     1
  1
尺度
  7
CONVERTER_11
 73
     1
 44
0.54545454545455
  0
MTEXT
  5
D1
330
48
100
AcDbEntity
  8
1
 62
   250
100
AcDbMText
 10
25.0
 20
5.0
 30
0.0
 40
3.5
 41
0.0
 71
     4
 72
     1
  1
備考欄の文字列 原点位置=4
  7
CONVERTER_11
 73
     1
 44
0.54545454545455
  0
HATCH
  5
D2
330
48
100
AcDbEntity
  8
1
  6
Continuous
 62
     2
100
AcDbHatch
 10
0.0
 20
0.0
 30
0.0
210
0.0
220
0.0
230
1.0
  2
CUSTOM0
 70
     0
 71
     1
 91
        1
 92
        1
 93
        4
 72
     1
 10
192.4578138032672
 20
15.39722336795629
 11
192.4578138032672
 21
15.2287543402206
 72
     1
 10
192.4578138032672
 20
15.2287543402206
 11
191.1602971697031
 21
15.2287543402206
 72
     1
 10
191.1602971697031
 20
15.2287543402206
 11
191.1602971697031
 21
15.39722336795629
 72
     1
 10
191.1602971697031
 20
15.39722336795629
 11
192.4578138032672
 21
15.39722336795629
 97
        1
330
C5
 75
     1
 76
     2
 52
45.0
 41
0.1
 77
     0
 78
     1
 53
45.0
 43
0.0
 44
0.0
 45
-0.282842712474619
 46
0.0
 79
     0
 98
        1
 10
0.0
 20
0.0
  0
HATCH
  5
D3
330
48
100
AcDbEntity
  8
1
  6
Continuous
 62
     2
100
AcDbHatch
 10
0.0
 20
0.0
 30
0.0
210
0.0
220
0.0
230
1.0
  2
CUSTOM1
 70
     0
 71
     1
 91
        1
 92
        1
 93
        3
 72
     4
 94
        3
 73
     0
 74
     0
 95
       24
 96
       20
 40
0.0
 40
0.0
 40
0.0
 40
0.0
 40
0.221107500875402
 40
0.4273218586245804
 40
0.5080174679239814
 40
0.5914835907870694
 40
0.8143265690193418
 40
1.054651302686656
 40
1.295452694023222
 40
1.518109231328823
 40
1.540864321905436
 40
1.595126460622693
 40
1.659890947896
 40
1.714153085187354
 40
1.736908174961652
 40
1.764951100735333
 40
1.801562291220971
 40
1.95391442454364
 40
2.126104167379698
 40
2.126104167379698
 40
2.126104167379698
 40
2.126104167379698
 10
185.9375369556889
 20
15.5898929511302
 10
185.9112579081812
 20
15.53097628234378
 10
185.8604698894425
 20
15.41711139679259
 10
185.8131784839111
 20
15.14441958233114
 10
185.7043482802618
 20
15.24445482575453
 10
185.5514800279637
 20
15.27118593367329
 10
185.7686155181199
 20
15.48518135017633
 10
185.7838483674381
 20
15.70332117782488
 10
185.8906889492
 20
15.88451579066425
 10
185.8305380947078
 20
16.16913226311392
 10
185.9334317395402
 20
16.14114089222446
 10
185.977993346815
 20
16.13243251602296
 10
186.0380842395397
 20
16.12139654183355
 10
186.0756619587438
 20
16.1076752305556
 10
186.1252466928606
 20
16.10756076160228
 10
186.0930158919325
 20
16.07306592398617
 10
186.0171802221882
 20
16.0840410453798
 10
186.0429447159694
 20
15.89858969582448
 10
186.005589676385
 20
15.80702313549592
 10
185.9857704961609
 20
15.75844135397711
 72
     4
 94
        3
 73
     0
 74
     0
 95
       70
 96
       66
 40
0.0
 40
0.0
 40
0.0
 40
0.0
 40
0.0241731073021472
 40
0.0846058988987013
 40
0.1631685280353284
 40
0.2417311571789756
 40
0.3021639488292751
 40
0.3263370654895541
 40
0.3533118254248863
 40
0.4228783438922058
 40
0.5179999095313278
 40
0.6216398239465925
 40
0.7167613891499457
 40
0.7863279069649579
 40
0.8133026791761516
 40
0.8372943998771359
 40
0.8945054261372565
 40
0.9627895541962345
 40
1.020000580349045
 40
1.043992300975144
 40
1.071934345522868
 40
1.113121768772881
 40
1.145225199332198
 40
1.225483775412719
 40
1.32981992377141
 40
1.434156071994278
 40
1.514414647795684
 40
1.546518078208286
 40
1.57897476426006
 40
1.662678849314055
 40
1.777131373668275
 40
1.901833377474666
 40
2.016285900500456
 40
2.099989982527823
 40
2.132446666570182
 40
2.158782354485923
 40
2.216720867907755
 40
2.274659381334219
 40
2.300995069256172
 40
2.333451754066144
 40
2.417155836543825
 40
2.531608358985264
 40
2.656310362283759
 40
2.770762886388892
 40
2.854466971340057
 40
2.886923657363864
 40
2.913597976833292
 40
2.982389642875082
 40
3.07645171694693
 40
3.178937260458525
 40
3.272999334739912
 40
3.341791001059123
 40
3.368465320663428
 40
3.396976080738678
 40
3.472140811845914
 40
3.578408190308604
 40
3.700226892456068
 40
3.822045594634314
 40
3.928312973256449
 40
4.003477705314847
 40
4.031988456866912
 40
4.058324144797718
 40
4.116262658236897
 40
4.174201171400714
 40
4.200536849608653
 40
4.200536849608653
 40
4.200536849608653
 40
4.200536849608653
 10
185.9857704961609
 20
15.75844135397711
 10
185.9938259544679
 20
15.75844359811692
 10
186.0220200663241
 20
15.75845146032804
 10
186.0765534803672
 20
15.75830754828377
 10
186.1482891808604
 20
15.75909120499903
 10
186.2236240137062
 20
15.75627570463817
 10
186.2713052366439
 20
15.76298403400963
 10
186.3195071245616
 20
15.75197563692439
 10
186.3062571799873
 20
15.80546402997039
 10
186.3151093964538
 20
15.86049583543097
 10
186.3108698036285
 20
15.95419908726114
 10
186.313348348128
 20
16.04959482218536
 10
186.309093870606
 20
16.14356821983391
 10
186.3179818665846
 20
16.19795062438015
 10
186.3046977409945
 20
16.25233997691463
 10
186.3514119277109
 20
16.2384221633536
 10
186.3943254545737
 20
16.24103877374044
 10
186.4605443456685
 20
16.23648422450754
 10
186.5013342271798
 20
16.2277816213416
 10
186.5525145690819
 20
16.23531799890192
 10
186.5253720487201
 20
16.19349970223284
 10
186.4803096055707
 20
16.20284992072594
 10
186.4942065045051
 20
16.13841207371836
 10
186.4858414431653
 20
16.07378219627399
 10
186.4903632178398
 20
15.97529141193889
 10
186.4854741311167
 20
15.87595932842574
 10
186.4950258992081
 20
15.81293115552973
 10
186.47997614552
 20
15.74964011499795
 10
186.5449159457208
 20
15.76515072944275
 10
186.6116246399497
 20
15.75499387697818
 10
186.7241435470827
 20
15.75988800099374
 10
186.8390235448953
 20
15.75691204732789
 10
186.9519871999747
 20
15.76221664184997
 10
187.0176267597677
 20
15.75107306472095
 10
187.0816276691053
 20
15.76744532319863
 10
187.0703142889189
 20
15.71761689905277
 10
187.077533987151
 20
15.67416715212123
 10
187.0703142611269
 20
15.63071745587442
 10
187.0816277175994
 20
15.58088895196871
 10
187.0176263598972
 20
15.59726166091356
 10
186.9519921240459
 20
15.58611271661582
 10
186.838997431733
 20
15.59144857206848
 10
186.7242456548644
 20
15.58834345663816
 10
186.611318368686
 20
15.59364894682582
 10
186.5455220903585
 20
15.58257300019587
 10
186.4816097975358
 20
15.59887597847612
 10
186.4936015165126
 20
15.54423524395737
 10
186.4862104613005
 20
15.48854295047837
 10
186.4892684841983
 20
15.39649689140568
 10
186.4893422785682
 20
15.301791098731
 10
186.486031357836
 20
15.20952782902266
 10
186.4939505989903
 20
15.15435768736141
 10
186.4815076611618
 20
15.10058169100138
 10
186.5389116551631
 20
15.11453768862784
 10
186.5994708140383
 20
15.10511457884229
 10
186.7048680855081
 20
15.10942885928708
 10
186.8204294070623
 20
15.10835504612034
 10
186.9359688877798
 20
15.10725965900997
 10
187.0414181130842
 20
15.11162525770635
 10
187.1018680471805
 20
15.10209426030674
 10
187.1592837739111
 20
15.11617289606382
 10
187.1477773876711
 20
15.06707153265684
 10
187.1537566781749
 20
15.02564658018649
 10
187.1520311050804
 20
14.97651677966694
 10
187.1521500122972
 20
14.94854428447606
 10
187.1521871691834
 20
14.93980288195948
 72
     4
 94
        3
 73
     0
 74
     0
 95
       62
 96
       58
 40
0.0
 40
0.0
 40
0.0
 40
0.0
 40
0.0598250028308769
 40
0.20248464868979
 40
0.3727558389221599
 40
0.5154154847936923
 40
0.5752404975786476
 40
0.9332326775488248
 40
1.290451762839567
 40
1.602077253145952
 40
1.699931634112235
 40
1.799359756425159
 40
2.270120149657223
 40
2.804661928461665
 40
2.882342287383378
 40
3.076543185719234
 40
3.329004354835701
 40
3.581465524568533
 40
3.775666424543819
 40
3.853346784558441
 40
3.899120679595186
 40
3.984129341792184
 40
4.029903236817533
 40
4.105797496059684
 40
4.295533144152636
 40
4.54218948661187
 40
4.788845828875808
 40
4.978581476410185
 40
5.054475735244426
 40
5.621734664339415
 40
6.130867242037415
 40
6.225249780948682
 40
6.318913039727355
 40
6.663579954558997
 40
7.047498900224856
 40
7.435230791575819
 40
7.498943906668231
 40
7.650875181210253
 40
7.832212509001792
 40
7.984143783697206
 40
8.047856898903362
 40
8.091554632732882
 40
8.172707566964563
 40
8.216405300768297
 40
8.289021782161182
 40
8.462184160757555
 40
8.668861838005636
 40
8.842024215264228
 40
8.914640695475423
 40
8.989881580861615
 40
9.155411528827491
 40
9.320941477744244
 40
9.396182352487482
 40
9.454709011144029
 40
9.583467660170964
 40
9.712226309013243
 40
9.770752957989696
 40
9.770752957989696
 40
9.770752957989696
 40
9.770752957989696
 10
187.1521871691834
 20
14.93980288195948
 10
187.1322348171624
 20
14.93980875568669
 10
187.0647037716466
 20
14.93982863806155
 10
186.9410612161789
 20
14.93949362520324
 10
186.7863180150056
 20
14.9410767375051
 10
186.669734948248
 20
14.93686078860493
 10
186.455094263424
 20
14.95215205331625
 10
186.8518948407228
 20
14.59198721286193
 10
186.8945656069268
 20
14.37510503397165
 10
187.318916214661
 20
14.1932506251145
 10
187.1439821496074
 20
14.08985196568071
 10
187.0194523925083
 20
13.87831523212721
 10
186.7666277235943
 20
14.34806081001563
 10
186.4797602893627
 20
14.99511516984519
 10
186.4906335926659
 20
14.68782672154693
 10
186.4882892777961
 20
14.52288616971777
 10
186.4861096126411
 20
14.28879670711691
 10
186.4980774396346
 20
14.04498072421781
 10
186.4687984740631
 20
13.89855796860981
 10
186.511452262547
 20
13.75113490174536
 10
186.4239814005639
 20
13.76685797306216
 10
186.3768527606745
 20
13.76694303543452
 10
186.2898973207712
 20
13.75109425482906
 10
186.3313474021722
 20
13.89527771422759
 10
186.3029875004285
 20
14.03855052698451
 10
186.31459737753
 20
14.2767494736526
 10
186.3124175648272
 20
14.5051723524034
 10
186.3103111127994
 20
14.66705729375988
 10
186.3208035438323
 20
14.98153709333744
 10
186.0128963252893
 20
14.29229470872432
 10
185.7055258267455
 20
13.81476750243048
 10
185.5851367066274
 20
14.03741112637427
 10
185.4074607910722
 20
14.15011034955563
 10
185.8853326362894
 20
14.32548143465463
 10
185.9353959057207
 20
14.56091929252031
 10
186.3583799621719
 20
14.95322989344605
 10
186.1276754273541
 20
14.93655307029064
 10
186.0049685859342
 20
14.94269518948769
 10
185.8325483095662
 20
14.93312822699572
 10
185.7213224694448
 20
14.95448818489663
 10
185.6025779627448
 20
14.92136265357418
 10
185.6183169706685
 20
15.00203900606883
 10
185.6178550933763
 20
15.04645414290855
 10
185.6027881889931
 20
15.12967081778536
 10
185.7372380935444
 20
15.09062651983886
 10
185.8619755545746
 20
15.11739729328424
 10
186.062875523728
 20
15.10063949044055
 10
186.1921540949352
 20
15.12204225913006
 10
186.3328419928295
 20
15.08868778853424
 10
186.2980927452614
 20
15.22651875785068
 10
186.3222185666713
 20
15.34963257349479
 10
186.2967086182391
 20
15.47024055670331
 10
186.3333251146685
 20
15.60539865141489
 10
186.2211417027769
 20
15.58094545781885
 10
186.1280356457137
 20
15.59307749842017
 10
186.0191547579819
 20
15.58957630069986
 10
185.9569697640964
 20
15.58981755951597
 10
185.9375369557246
 20
15.58989295124138
 97
        3
330
B6
330
B4
330
B5
 75
     1
 76
     2
 52
45.0
 41
0.1
 77
     0
 78
     1
 53
45.0
 43
0.0
 44
0.0
 45
-0.282842712474619
 46
0.0
 79
     0
 98
        1
 10
0.0
 20
0.0
  0
HATCH
  5
D4
330
48
100
AcDbEntity
  8
1
  6
Continuous
 62
     2
100
AcDbHatch
 10
0.0
 20
0.0
 30
0.0
210
0.0
220
0.0
230
1.0
  2
CUSTOM2
 70
     0
 71
     1
 91
        1
 92
        1
 93
        1
 72
     4
 94
        3
 73
     0
 74
     0
 95
      124
 96
      120
 40
0.0
 40
0.0
 40
0.0
 40
0.0
 40
0.027818722962451
 40
0.1011590162384269
 40
0.2048470170590239
 40
0.3237088716559245
 40
0.4425707262522
 40
0.5462587270699547
 40
0.6195990203311798
 40
0.647417752257866
 40
0.6750060736115242
 40
0.7357003855242759
 40
0.7963946998054474
 40
0.8239830245571766
 40
0.854093381110286
 40
0.937339662940954
 40
1.063094687343235
 40
1.220731268638073
 40
1.399622220914748
 40
1.589140358637732
 40
1.778658496423898
 40
1.957549448940509
 40
2.115186030873159
 40
2.240941056914463
 40
2.324187341760532
 40
2.354297700109382
 40
2.38188602467189
 40
2.442580338710475
 40
2.503274652750497
 40
2.530862977314606
 40
2.560983949278559
 40
2.640393784452905
 40
2.752662861759128
 40
2.881361560118145
 40
3.010060258455192
 40
3.122329335705339
 40
3.201739170817953
 40
3.231860142753313
 40
3.264298024030368
 40
3.352343701778236
 40
3.482095226868753
 40
3.639650650173009
 40
3.811108022565459
 40
3.982565394927957
 40
4.140120818152535
 40
4.269872343141238
 40
4.357918020802299
 40
4.390355902043924
 40
4.423256253992494
 40
4.508104530073015
 40
4.624121560636783
 40
4.75052817603154
 40
4.866545206601987
 40
4.951393482691944
 40
4.984293834645345
 40
5.011450833242262
 40
5.07119623015205
 40
5.130941627057131
 40
5.158098625648798
 40
5.190998977601489
 40
5.275847253689315
 40
5.391864284256749
 40
5.518270899648294
 40
5.634287930209333
 40
5.719136206288007
 40
5.752036558235894
 40
5.782130946282922
 40
5.862783906229098
 40
5.979550131774972
 40
6.117984316640382
 40
6.263641154587932
 40
6.402075339414146
 40
6.518841564907949
 40
6.599494524815534
 40
6.629588912848772
 40
6.654403028226349
 40
6.713575149488116
 40
6.784199939329434
 40
6.843372060493537
 40
6.868186175802783
 40
6.896246243201811
 40
6.939586233758284
 40
6.967846564564912
 40
7.043584251089843
 40
7.153234334451696
 40
7.28323185573444
 40
7.420011856035465
 40
7.550009376579807
 40
7.659659458835204
 40
7.735397144417192
 40
7.763657474851362
 40
7.796409728011019
 40
7.880876065096293
 40
7.996370852465679
 40
8.122208446418574
 40
8.237703224799168
 40
8.322169562010862
 40
8.354921815205875
 40
8.382078813307658
 40
8.441824209206969
 40
8.50156960524012
 40
8.528726603485701
 40
8.56147885669575
 40
8.6459451938778
 40
8.761439980865312
 40
8.887277580764454
 40
9.002772362000975
 40
9.087238696661196
 40
9.11999094923565
 40
9.152428830613347
 40
9.240474508638561
 40
9.370226034149507
 40
9.527781457984386
 40
9.699238830981365
 40
9.870696203978548
 40
10.02825162781397
 40
10.15800315332558
 40
10.24604883135112
 40
10.27848670378515
 40
10.27848670378515
 40
10.27848670378515
 40
10.27848670378515
 10
195.3821827564383
 20
14.01410517385759
 10
195.3914554737523
 20
14.01410498511276
 10
195.4251744536861
 20
14.01410430876716
 10
195.4934706812465
 20
14.01411807243307
 10
195.592014171158
 20
14.01403224219547
 10
195.7062066464812
 20
14.01441755612253
 10
195.818589441707
 20
14.01300835897547
 10
195.9214376600118
 20
14.01719117422245
 10
195.9806839874849
 20
14.00823089251985
 10
196.0371265937033
 20
14.02164434526063
 10
196.0246255586954
 20
13.97087198613363
 10
196.0329549635703
 20
13.92589320939069
 10
196.024817084112
 20
13.8805675299049
 10
196.0370529214457
 20
13.82931932408468
 10
195.9747773490333
 20
13.84447955365278
 10
195.9060513026868
 20
13.83359750710744
 10
195.7782756749592
 20
13.83911304747975
 10
195.6262984511643
 20
13.837008512537
 10
195.4502695972523
 20
13.83771002588475
 10
195.2644431934287
 20
13.83745237531293
 10
195.0786167437175
 20
13.83771005144606
 10
194.9025880142168
 20
13.83700841847732
 10
194.7506104154195
 20
13.83911332229991
 10
194.6228357664554
 20
13.83359680767642
 10
194.5541077836581
 20
13.84448077125944
 10
194.4918349042883
 20
13.82931786684211
 10
194.5040616290017
 20
13.88057510805173
 10
194.4960004462597
 20
13.92582473272427
 10
194.5040675809893
 20
13.97106357955325
 10
194.4918238487083
 20
14.0223417690996
 10
194.5525017120697
 20
14.00749577363136
 10
194.6162810745736
 20
14.01756448170737
 10
194.7277314353502
 20
14.01294644212001
 10
194.8497533443824
 20
14.01413328905471
 10
194.9719538137823
 20
14.01515863900637
 10
195.0829794287392
 20
14.01092475623403
 10
195.1476517413959
 20
14.02018584521741
 10
195.2091162810501
 20
14.00604423049684
 10
195.1930065601337
 20
14.07235527884519
 10
195.2042980327358
 20
14.14447790121977
 10
195.198740082256
 20
14.27513760888287
 10
195.200803506169
 20
14.42607323708241
 10
195.2000167127295
 20
14.59335873107885
 10
195.2007845215628
 20
14.76061110332302
 10
195.1988038785628
 20
14.91163289269913
 10
195.204130615662
 20
15.04206069552993
 10
195.1933101388424
 20
15.11465442605897
 10
195.2090326429875
 20
15.18150469436796
 10
195.143270813249
 20
15.16580512490822
 10
195.0756367830764
 20
15.17609243083993
 10
194.9615885293809
 20
15.1711378684712
 10
194.8451242674902
 20
15.17414128030473
 10
194.7306554121477
 20
15.16880303143386
 10
194.6640324657812
 20
15.18001268074823
 10
194.5990769715185
 20
15.16349132665009
 10
194.6107989758708
 20
15.21473720477057
 10
194.603283018912
 20
15.25950333784088
 10
194.6107989878835
 20
15.3042694489796
 10
194.5990769505347
 20
15.3555153612974
 10
194.66403263392
 20
15.33899381766814
 10
194.7306533339822
 20
15.35020571373943
 10
194.8451352858063
 20
15.34485436710663
 10
194.9615454436962
 20
15.34791188771116
 10
195.0757660174641
 20
15.34278499010707
 10
195.1430150439226
 20
15.35345733355597
 10
195.2083325941438
 20
15.33742082669076
 10
195.1941391448552
 20
15.39949685750052
 10
195.2036059462994
 20
15.46586761628762
 10
195.1990269004085
 20
15.58239972741966
 10
195.2007696555948
 20
15.71426685022376
 10
195.1997551495392
 20
15.85615960150274
 10
195.2017191344372
 20
15.98769050702581
 10
195.1964668553851
 20
16.10524577283005
 10
195.2073408763474
 20
16.16947789001586
 10
195.1919536641853
 20
16.2310880254505
 10
195.24075915378
 20
16.21702407382112
 10
195.2853995564725
 20
16.21954742075316
 10
195.3538643946742
 20
16.2151279740171
 10
195.3959106169102
 20
16.20613025544034
 10
195.4487544758775
 20
16.2141171486651
 10
195.4207035002014
 20
16.17113917611672
 10
195.3749142248595
 20
16.18259552043833
 10
195.3869539073264
 20
16.12173520005132
 10
195.3796086070641
 20
16.05769299468767
 10
195.3831195826162
 20
15.94909368863907
 10
195.3819806760173
 20
15.82494319144749
 10
195.3819174780263
 20
15.69189719829875
 10
195.3832872966868
 20
15.56797381249553
 10
195.3791638801313
 20
15.45868337849336
 10
195.3877763103564
 20
15.39608580094168
 10
195.3746757454402
 20
15.33740133296365
 10
195.4393884328198
 20
15.35362113810901
 10
195.5060405953156
 20
15.34270260383311
 10
195.6198779541102
 20
15.34793740173755
 10
195.7357259122097
 20
15.34485547516912
 10
195.849692426328
 20
15.35018259812511
 10
195.9160341018099
 20
15.33904208166541
 10
195.9807188525479
 20
15.35546979593177
 10
195.9689820772722
 20
15.30425925210049
 10
195.976516806304
 20
15.25950334120999
 10
195.9689820992258
 20
15.21474739010026
 10
195.9807188140736
 20
15.16353690871038
 10
195.9160344075252
 20
15.17996427794218
 10
195.8496886430824
 20
15.16882784447267
 10
195.7357459487012
 20
15.17413115893118
 10
195.6197995623054
 20
15.17114764593542
 10
195.5062756882123
 20
15.17606892268391
 10
195.4389231318804
 20
15.16585087513518
 10
195.3734285122495
 20
15.18145996138813
 10
195.3891713619218
 20
15.11463851827409
 10
195.3783275998212
 20
15.04207057815876
 10
195.3836581629793
 20
14.91162247614415
 10
195.3817136151855
 20
14.76064558185224
 10
195.3823133683214
 20
14.59322243934159
 10
195.3821506559604
 20
14.42656176118371
 10
195.3821895488136
 20
14.27360142921637
 10
195.3821816413099
 20
14.14849178985706
 10
195.3821828382745
 20
14.06507890991422
 10
195.3821827716208
 20
14.02491778281978
 10
195.3821827564383
 20
14.01410517385759
 97
        1
330
B7
 75
     1
 76
     2
 52
45.0
 41
0.1
 77
     0
 78
     1
 53
45.0
 43
0.0
 44
0.0
 45
-0.282842712474619
 46
0.0
 79
     0
 98
        1
 10
0.0
 20
0.0
  0
HATCH
  5
D5
330
48
100
AcDbEntity
  8
1
  6
Continuous
 62
     2
100
AcDbHatch
 10
0.0
 20
0.0
 30
0.0
210
0.0
220
0.0
230
1.0
  2
CUSTOM3
 70
     0
 71
     1
 91
        1
 92
        1
 93
        1
 72
     4
 94
        3
 73
     0
 74
     0
 95
      131
 96
      127
 40
0.0
 40
0.0
 40
0.0
 40
0.0
 40
0.0195577029826464
 40
0.0426490537461628
 40
0.2863607575856864
 40
0.5344948436189528
 40
0.7842238845573426
 40
0.8737315789467551
 40
0.9803832810313048
 40
1.092842274517054
 40
1.199761146656822
 40
1.289788768186539
 40
1.351573580786251
 40
1.370727117561477
 40
1.416400936017883
 40
1.470914848356021
 40
1.516588666791808
 40
1.535742203552886
 40
1.634216592293238
 40
1.760283341175068
 40
1.897966686682145
 40
2.03121638736893
 40
2.049689751137926
 40
2.101115601646864
 40
2.179502577739985
 40
2.278859318314105
 40
2.393194462258766
 40
2.516516648383886
 40
2.642834515406019
 40
2.766156701983528
 40
2.880491846754646
 40
2.979848588358692
 40
3.058235565443873
 40
3.109661416669029
 40
3.128134780704206
 40
3.146783742386523
 40
3.191254343315412
 40
3.244332157316071
 40
3.288802758226003
 40
3.307451719895274
 40
3.327717853844886
 40
3.38374775358025
 40
3.468388665924644
 40
3.574487837698955
 40
3.694892515729064
 40
3.822449946852208
 40
3.950007377920603
 40
4.070412055800697
 40
4.176511227368257
 40
4.261152139501705
 40
4.317182039076901
 40
4.337448172964821
 40
4.62001100269644
 40
4.885096638397719
 40
4.945373043518546
 40
5.014107710488866
 40
5.070481727652283
 40
5.319246955636793
 40
5.584812164506257
 40
5.859000912057108
 40
6.1337469375423
 40
6.401732212969124
 40
6.420736683995715
 40
6.472845717451337
 40
6.550702743894265
 40
6.646951193874417
 40
6.754234497930769
 40
6.865196086587547
 40
6.972479390357977
 40
7.06872783977211
 40
7.146584865451119
 40
7.198693898189349
 40
7.21769836890549
 40
7.234950401630966
 40
7.276089864270013
 40
7.325191803516123
 40
7.366331266090508
 40
7.38358329876986
 40
7.402779163492237
 40
7.45338644325464
 40
7.524934666445642
 40
7.606953361405953
 40
7.688972056429076
 40
7.760520279784298
 40
7.81112755973454
 40
7.830323424546162
 40
7.847844055299786
 40
7.894799345666826
 40
7.962779392744507
 40
8.043374293560547
 40
8.128174145149444
 40
8.208769044817238
 40
8.276749090376935
 40
8.32370437966949
 40
8.34122501005622
 40
8.358497614800369
 40
8.401679126686574
 40
8.457815092185632
 40
8.513951057728036
 40
8.557132569707992
 40
8.574405174505035
 40
8.602340668616375
 40
8.643455660539862
 40
8.66322527196653
 40
8.715345156564167
 40
8.789031889628498
 40
8.873502045520215
 40
8.95797219432383
 40
9.031658925567713
 40
9.083778811234396
 40
9.103548423002858
 40
9.119550083123423
 40
9.160817522379697
 40
9.21724442911009
 40
9.278724491644576
 40
9.335151398295332
 40
9.376418837357628
 40
9.392420497300416
 40
9.401196302734608
 40
9.41749422938403
 40
9.426270027749302
 40
9.440875075477337
 40
9.475702496998519
 40
9.517270709865686
 40
9.552098131993857
 40
9.566703169884066
 40
9.566703169884066
 40
9.566703169884066
 40
9.566703169884066
 10
194.6170254148479
 20
15.67015871511029
 10
194.6134345093371
 20
15.66453690702159
 10
194.6056039123625
 20
15.6522775441911
 10
194.5129968974548
 20
15.61601916040985
 10
194.4887622233247
 20
15.40148444212709
 10
194.3858709845938
 20
15.22197284509709
 10
194.1220492364305
 20
15.03615573798145
 10
194.284547156918
 20
14.95959336566082
 10
194.3607225760838
 20
14.89856693195443
 10
194.4492171072758
 20
14.8351580454476
 10
194.538993023311
 20
14.7752563421956
 10
194.5883817636047
 20
14.72102154849206
 10
194.6745708157381
 20
14.69286240541828
 10
194.6411260674229
 20
14.65713309652806
 10
194.621467116631
 20
14.625503879919
 10
194.5919888217882
 20
14.58475872796065
 10
194.5688989446031
 20
14.55504663489639
 10
194.5380205968357
 20
14.50211422668491
 10
194.4729193365739
 20
14.62740334938897
 10
194.3796000122416
 20
14.68213900233934
 10
194.2950636285139
 20
14.73916423939341
 10
194.1722498125743
 20
14.89675287427524
 10
194.1764450847302
 20
14.82035806766838
 10
194.1751478652678
 20
14.77361280161297
 10
194.1758126448078
 20
14.69584785812603
 10
194.1755549986958
 20
14.59902068324423
 10
194.1756431239922
 20
14.4865027907881
 10
194.1756077302282
 20
14.36524085945699
 10
194.175651175828
 20
14.2408689785896
 10
194.1755199942406
 20
14.11967683631335
 10
194.1759477562047
 20
14.00691148919741
 10
194.1746678202312
 20
13.91082913768742
 10
194.1779759851042
 20
13.83113826468697
 10
194.1715197740088
 20
13.78815175788782
 10
194.1806208705556
 20
13.74955432372039
 10
194.1447910339936
 20
13.75810887724068
 10
194.1115223815252
 20
13.75342519985443
 10
194.0604562576041
 20
13.75351298759782
 10
194.0269723972813
 20
13.75794430283818
 10
193.9907585408754
 20
13.74960793842506
 10
194.0009782568665
 20
13.79145277179281
 10
193.9936487887773
 20
13.83778560820171
 10
193.9973633136103
 20
13.92374831106012
 10
193.9959480554896
 20
14.02605142704847
 10
193.9964105554638
 20
14.1445322393151
 10
193.9962773686231
 20
14.26957683153355
 10
193.9963015910045
 20
14.39475828107049
 10
193.9963354925551
 20
14.51286645379058
 10
193.9962060293132
 20
14.61628748709516
 10
193.996550754908
 20
14.69932036153667
 10
193.9958698278691
 20
14.75143368521244
 10
193.9994586600621
 20
14.87912907821361
 10
193.7826171386436
 20
14.5804871681962
 10
193.6021354921952
 20
14.35263981511512
 10
193.5490322295611
 20
14.49373443289813
 10
193.5200429133149
 20
14.54325767560943
 10
193.419664806282
 20
14.6464177979011
 10
193.740512772326
 20
14.72695035023778
 10
193.868989700543
 20
14.91066283036434
 10
194.0906454325358
 20
15.11931995771761
 10
194.1770224894069
 20
15.29339211228344
 10
194.4549394229074
 20
15.56967051342515
 10
194.3346247839284
 20
15.56534559551117
 10
194.2863197351349
 20
15.56614856202556
 10
194.2102377454905
 20
15.56574582146587
 10
194.1167010009751
 20
15.56590275611613
 10
194.0117594788557
 20
15.56582502576227
 10
193.9033887738718
 20
15.56595464378557
 10
193.7981454235898
 20
15.56554393490694
 10
193.7056237819413
 20
15.56682073671594
 10
193.6268130800709
 20
15.56340766534853
 10
193.583967456538
 20
15.57023350036323
 10
193.5449499586516
 20
15.56065064201126
 10
193.5526365271865
 20
15.59420779565546
 10
193.5485464404313
 20
15.62523550322236
 10
193.5485531368815
 20
15.67236529270903
 10
193.5526239724912
 20
15.70340941646782
 10
193.5449495574583
 20
15.73701861635904
 10
193.5834819405496
 20
15.72748410420876
 10
193.624122801448
 20
15.73397435498074
 10
193.6951471850464
 20
15.73100150650257
 10
193.7729318149634
 20
15.73174761399161
 10
193.8507292246474
 20
15.73247814044528
 10
193.9217232089908
 20
15.72954235514164
 10
193.962427979182
 20
15.73595468772955
 10
194.000985348991
 20
15.72650524176007
 10
193.9927342754927
 20
15.76264692158787
 10
193.9982346669358
 20
15.80129837613229
 10
193.9955754206163
 20
15.86913528561841
 10
193.9965815471533
 20
15.9459164153874
 10
193.9960178018319
 20
16.02849393582757
 10
193.9970714526593
 20
16.10517329229877
 10
193.994267586313
 20
16.17331990776698
 10
194.0000702721304
 20
16.21132399809345
 10
193.9915654551158
 20
16.24758448077644
 10
194.0255610233125
 20
16.23755723771849
 10
194.0594575683099
 20
16.24073266813704
 10
194.1126669060346
 20
16.23508965640606
 10
194.1660768574482
 20
16.23434774436423
 10
194.1995914649491
 20
16.22819223482977
 10
194.2388086183038
 20
16.2334602977359
 10
194.2120263698493
 20
16.1925338079349
 10
194.1708111001724
 20
16.20371204538106
 10
194.1782641540875
 20
16.15867056192122
 10
194.1742227952185
 20
16.11412278028143
 10
194.1761714049642
 20
16.04223572621702
 10
194.1752364849758
 20
15.96168630588771
 10
194.176510719003
 20
15.88173995404996
 10
194.1732043793864
 20
15.80841837083185
 10
194.1802106179961
 20
15.7668864300257
 10
194.1701440380126
 20
15.72752418568115
 10
194.2029814803923
 20
15.73468063430984
 10
194.2364577296481
 20
15.73027243137947
 10
194.2915053476019
 20
15.732179433479
 10
194.3489502595316
 20
15.73185366407291
 10
194.402302624831
 20
15.73106308733085
 10
194.4398540896639
 20
15.73313959118077
 10
194.4623172523238
 20
15.73022338167112
 10
194.4751678073731
 20
15.73572552644059
 10
194.4858255685889
 20
15.73801118197794
 10
194.4986635650143
 20
15.74494972588057
 10
194.514599103307
 20
15.72853046313675
 10
194.5410623920892
 20
15.71709122319452
 10
194.5726805253757
 20
15.69644687835193
 10
194.5987255892151
 20
15.68116869628296
 10
194.6128517723973
 20
15.67266976323186
 10
194.6170254148479
 20
15.67015871511029
 97
        1
330
B8
 75
     1
 76
     2
 52
45.0
 41
0.1
 77
     0
 78
     1
 53
45.0
 43
0.0
 44
0.0
 45
-0.282842712474619
 46
0.0
 79
     0
 98
        1
 10
0.0
 20
0.0
  0
HATCH
  5
D6
330
48
100
AcDbEntity
  8
1
  6
Continuous
 62
     2
100
AcDbHatch
 10
0.0
 20
0.0
 30
0.0
210
0.0
220
0.0
230
1.0
  2
CUSTOM4
 70
     0
 71
     1
 91
        1
 92
        1
 93
        1
 72
     4
 94
        3
 73
     0
 74
     0
 95
       91
 96
       87
 40
0.0
 40
0.0
 40
0.0
 40
0.0
 40
0.0267532254356826
 40
0.0856103386464511
 40
0.1444674521997296
 40
0.1712206856619314
 40
0.2039416005643336
 40
0.2955601971653283
 40
0.4362601844618001
 40
0.6162252844508334
 40
0.8256392189705781
 40
1.054685709844547
 40
1.293548478893668
 40
1.532411247938412
 40
1.761457738799676
 40
1.970871673298673
 40
2.150836773256898
 40
2.291536760495759
 40
2.383155356836837
 40
2.415876284101485
 40
2.442629517488141
 40
2.501486630949299
 40
2.560343744424475
 40
2.58709697782676
 40
2.617068194441187
 40
2.699247336756357
 40
2.822032643466641
 40
2.973822353258199
 40
3.143014704823641
 40
3.31800793688022
 40
3.487200288187053
 40
3.638989997548591
 40
3.76177530379509
 40
3.843954445753424
 40
3.87392566223012
 40
3.890812773500831
 40
3.907699884772013
 40
3.937960767857537
 40
3.980983618142628
 40
4.19908591522876
 40
4.439444339237541
 40
4.6775882412612
 40
5.050698317838115
 40
5.448212454763529
 40
5.855291218044997
 40
6.138575438885646
 40
6.417434507584522
 40
6.444551104394207
 40
6.504207617363509
 40
6.563864130314835
 40
6.590980727104429
 40
6.848609460381865
 40
7.109611990668829
 40
7.352910904446492
 40
7.55783022070582
 40
7.587518925913733
 40
7.652834077376141
 40
7.718149228846068
 40
7.747837934062366
 40
7.854880190301272
 40
7.976511257403792
 40
8.369487896592593
 40
8.757514959223858
 40
9.126072419331292
 40
9.460639380392383
 40
9.746695593036153
 40
9.77756994311893
 40
9.807050320932047
 40
9.830377336129178
 40
9.88600329543628
 40
9.952395569430196
 40
10.00802152870657
 40
10.03134854388249
 40
10.21356951009614
 40
10.42203479292905
 40
10.66154556731096
 40
10.91693789564335
 40
11.15832906556594
 40
11.18982674596651
 40
11.27286608520436
 40
11.39026653033378
 40
11.52484752840914
 40
11.65942852648476
 40
11.77682897161512
 40
11.85986831085711
 40
11.89136598230456
 40
11.89136598230456
 40
11.89136598230456
 40
11.89136598230456
 10
190.7027885008196
 20
14.70699600701769
 10
190.7028237765288
 20
14.71587847311982
 10
190.7029366710796
 20
14.74430237047345
 10
190.7012984568489
 20
14.79409639169804
 10
190.7069750292911
 20
14.83657564478157
 10
190.6956928731706
 20
14.88730154856852
 10
190.7632296979032
 20
14.87012900740114
 10
190.8388029210701
 20
14.88290227166002
 10
190.9828357056001
 20
14.87629729457386
 10
191.1569419185427
 20
14.87888462206471
 10
191.3639599611003
 20
14.87800591955557
 10
191.5894688172378
 20
14.87828207920032
 10
191.8251162293406
 20
14.87818339658668
 10
192.0607640531349
 20
14.87828184412772
 10
192.2862717580626
 20
14.87800678190793
 10
192.4932934632805
 20
14.87888186270739
 10
192.667388891529
 20
14.87630522678452
 10
192.8114492071986
 20
14.88288290449218
 10
192.8869691915293
 20
14.87016243405609
 10
192.9545776037031
 20
14.88726400191692
 10
192.9430840140676
 20
14.83674785802943
 10
192.9505104581734
 20
14.79253252226502
 10
192.9428838927986
 20
14.74867966503609
 10
192.9546489459426
 20
14.69878374479325
 10
192.8930788491983
 20
14.71393227712508
 10
192.8256791738672
 20
14.70310665350671
 10
192.7013004056222
 20
14.70852031626233
 10
192.5554428236572
 20
14.70649205390782
 10
192.3893576440086
 20
14.70715777578383
 10
192.2188412621725
 20
14.70689643521239
 10
192.0519790855389
 20
14.70721553391091
 10
191.9087346827105
 20
14.70635302590759
 10
191.7773313869835
 20
14.70863300482986
 10
191.7239859134655
 20
14.70407704374198
 10
191.6485188456913
 20
14.70999914992875
 10
191.6769075779231
 20
14.70094169343348
 10
191.7033652409542
 20
14.69725912268925
 10
191.6633522907701
 20
14.66654271968273
 10
191.5713663691868
 20
14.67667591174635
 10
191.5439396207069
 20
14.43032502247786
 10
191.4478793967234
 20
14.27499558764377
 10
191.1917277964473
 20
13.94525417931568
 10
191.7627537732762
 20
14.0843002221045
 10
192.0173656320517
 20
14.08291779973363
 10
192.6279647048616
 20
13.99790569242081
 10
192.3340698578084
 20
14.29685417558203
 10
192.0133304286516
 20
14.44330856901777
 10
192.1313543360434
 20
14.50025540818286
 10
192.172471646626
 20
14.52420099873347
 10
192.2156812394411
 20
14.5459975881123
 10
192.3174574094449
 20
14.60928721253904
 10
192.4328867625248
 20
14.35147151408781
 10
192.6329591642277
 20
14.21616041113679
 10
192.7269077387229
 20
14.03792795138884
 10
192.9558829746391
 20
13.87997821027044
 10
192.8596031846708
 20
13.82915972576301
 10
192.8167959763779
 20
13.79881292523056
 10
192.7718243528779
 20
13.77466130281462
 10
192.7121720925213
 20
13.72552146747575
 10
192.6789731061325
 20
13.85997475673608
 10
192.5582013350795
 20
14.01594265286577
 10
192.1970976005979
 20
13.88569928059554
 10
191.8385061955541
 20
13.90224694409481
 10
191.457092045008
 20
13.89331229351862
 10
191.1703455282892
 20
13.8288267167241
 10
190.8592055599713
 20
13.94230668192817
 10
190.8268737818788
 20
13.83122259927767
 10
190.7896178253318
 20
13.81196313850004
 10
190.7865737632754
 20
13.85874784087292
 10
190.7679892860607
 20
13.89806853919128
 10
190.7512436616779
 20
13.95765983478232
 10
190.7383730915753
 20
14.00201969871281
 10
190.7042327806432
 20
14.09106331120203
 10
190.9482714457753
 20
14.02181042943766
 10
191.1441394486672
 20
14.00030369057738
 10
191.2395426381278
 20
14.28226484478462
 10
191.2945135769596
 20
14.44363045421122
 10
191.5159619357156
 20
14.71391177589736
 10
191.3849239381216
 20
14.70548446853731
 10
191.3110026555854
 20
14.70779008496967
 10
191.1977459876244
 20
14.70671378321655
 10
191.0694251807484
 20
14.70707639076507
 10
190.9404252030415
 20
14.70697724466083
 10
190.828784094629
 20
14.70699932712569
 10
190.7514663970026
 20
14.70699579189667
 10
190.713287653201
 20
14.70699595845078
 10
190.7027885008196
 20
14.70699600701769
 97
        1
330
B9
 75
     1
 76
     2
 52
45.0
 41
0.1
 77
     0
 78
     1
 53
45.0
 43
0.0
 44
0.0
 45
-0.282842712474619
 46
0.0
 79
     0
 98
        1
 10
0.0
 20
0.0
  0
HATCH
  5
D7
330
48
100
AcDbEntity
  8
1
  6
Continuous
 62
     2
100
AcDbHatch
 10
0.0
 20
0.0
 30
0.0
210
0.0
220
0.0
230
1.0
  2
CUSTOM5
 70
     0
 71
     1
 91
        1
 92
        1
 93
        1
 72
     4
 94
        3
 73
     0
 74
     0
 95
       35
 96
       31
 40
0.0
 40
0.0
 40
0.0
 40
0.0
 40
0.0335231036620067
 40
0.0713218571711842
 40
0.4278866681486885
 40
0.8116865841963669
 40
1.198190238000075
 40
1.561379546812734
 40
1.659983174622176
 40
1.7593155738073
 40
2.132719617231236
 40
2.525233363588997
 40
2.910815397779907
 40
3.265244364303528
 40
3.592606723582276
 40
3.964386154604235
 40
4.359942131738061
 40
4.758154118639566
 40
4.843846538700166
 40
4.936650065543497
 40
5.256616602537561
 40
5.581707404416288
 40
5.899719158308386
 40
6.198363494281002
 40
6.466301046616058
 40
6.49389531153738
 40
6.559697020197174
 40
6.63823454344275
 40
6.704036252154504
 40
6.731630508423311
 40
6.731630508423311
 40
6.731630508423311
 40
6.731630508423311
 10
191.9736010568669
 20
16.23463843719128
 10
191.9676006097789
 20
16.22480690542318
 10
191.9548344099157
 20
16.20388988579791
 10
191.7949362006553
 20
16.17127126532715
 10
192.2322025842338
 20
15.88206680336697
 10
192.4345394828261
 20
15.68041138358441
 10
192.6819564267974
 20
15.43749387603281
 10
193.1831513624608
 20
15.36047662757775
 10
193.012556219897
 20
15.21876939174657
 10
192.9383299463203
 20
15.01710366209097
 10
192.6131432248188
 20
15.36956287174721
 10
192.3277741670664
 20
15.53175212559559
 10
192.0337604077658
 20
15.73687130053047
 10
191.8084452691134
 20
16.21827488595461
 10
191.5993085055522
 20
15.75343046609226
 10
191.3207873674834
 20
15.54350952252913
 10
191.0371383177208
 20
15.37424456359985
 10
190.7078639527832
 20
15.0014236090794
 10
190.6277012318223
 20
15.19708014459002
 10
190.4759724909745
 20
15.32491104190598
 10
190.9083395826794
 20
15.40454031765933
 10
191.0962565329766
 20
15.6002663491547
 10
191.3468477420502
 20
15.81632996916754
 10
191.5714350470161
 20
15.98190992300056
 10
191.6259775409713
 20
16.26133964636831
 10
191.7494661029011
 20
16.24737950408079
 10
191.806027334452
 20
16.24521268867647
 10
191.8761870984945
 20
16.24046859881357
 10
191.9333414022105
 20
16.23709429350536
 10
191.9644190320839
 20
16.23519854711114
 10
191.9736010568669
 20
16.23463843719128
 97
        1
330
BA
 75
     1
 76
     2
 52
45.0
 41
0.1
 77
     0
 78
     1
 53
45.0
 43
0.0
 44
0.0
 45
-0.282842712474619
 46
0.0
 79
     0
 98
        1
 10
0.0
 20
0.0
  0
HATCH
  5
D8
330
48
100
AcDbEntity
  8
1
  6
Continuous
 62
     2
100
AcDbHatch
 10
0.0
 20
0.0
 30
0.0
210
0.0
220
0.0
230
1.0
  2
CUSTOM6
 70
     0
 71
     1
 91
        1
 92
        1
 93
        1
 72
     4
 94
        3
 73
     0
 74
     0
 95
       15
 96
       11
 40
0.0
 40
0.0
 40
0.0
 40
0.0
 40
0.2785535985096383
 40
0.5215624748199047
 40
0.6076917376040097
 40
0.6938210001740247
 40
0.9405019146454476
 40
1.221691403489001
 40
1.300471877080881
 40
1.37925234168461
 40
1.37925234168461
 40
1.37925234168461
 40
1.37925234168461
 10
189.5681493630999
 20
16.22930267330378
 10
189.6296017794177
 20
16.17691646592714
 10
189.7446649974114
 20
16.07882876798223
 10
190.0397348497243
 20
15.9288978589722
 10
189.9025147631858
 20
15.84343227515011
 10
189.8041227843779
 20
15.71085785201554
 10
189.713003359065
 20
16.01616985781413
 10
189.3636839480657
 20
16.07967869465367
 10
189.5119258376571
 20
16.17896509880874
 10
189.5494081874236
 20
16.21252348402379
 10
189.5681493630999
 20
16.22930267330378
 97
        1
330
BB
 75
     1
 76
     2
 52
45.0
 41
0.1
 77
     0
 78
     1
 53
45.0
 43
0.0
 44
0.0
 45
-0.282842712474619
 46
0.0
 79
     0
 98
        1
 10
0.0
 20
0.0
  0
HATCH
  5
D9
330
48
100
AcDbEntity
  8
1
  6
Continuous
 62
     2
100
AcDbHatch
 10
0.0
 20
0.0
 30
0.0
210
0.0
220
0.0
230
1.0
  2
CUSTOM7
 70
     0
 71
     1
 91
        1
 92
        1
 93
        1
 72
     4
 94
        3
 73
     0
 74
     0
 95
       75
 96
       71
 40
0.0
 40
0.0
 40
0.0
 40
0.0
 40
0.0342546099129638
 40
0.1245622414432222
 40
0.2522385480897234
 40
0.3985991922940218
 40
0.5449598364980217
 40
0.6726361431438088
 40
0.7629437746736107
 40
0.7971983935297084
 40
1.101723623449612
 40
1.408591244036559
 40
1.433332471690255
 40
1.487763172450032
 40
1.542193873081841
 40
1.566935100592381
 40
1.923523931821695
 40
2.271755704953467
 40
2.590579755100682
 40
2.858943305580918
 40
2.889120339308904
 40
2.9183058551909
 40
2.941366645531017
 40
2.996357760972882
 40
3.061992318140409
 40
3.11698343362656
 40
3.140044223997242
 40
3.411273122936082
 40
3.732441619740748
 40
3.761068217532446
 40
3.837787499630004
 40
3.948858699125637
 40
4.08054104910401
 40
4.219093782625389
 40
4.350776132721935
 40
4.461847332405265
 40
4.538566614677995
 40
4.56719321254424
 40
4.594907573998498
 40
4.666381453557037
 40
4.764111044010647
 40
4.87059253812545
 40
4.968322128641901
 40
5.039796008286586
 40
5.067510369784046
 40
5.09426360318526
 40
5.153120716667896
 40
5.211977830150342
 40
5.238731063551347
 40
5.272290535138586
 40
5.363380529444447
 40
5.497618415781124
 40
5.660621563453367
 40
5.838007341749067
 40
6.015393119910419
 40
6.178396267038044
 40
6.312634151841996
 40
6.403724143058986
 40
6.437283612672081
 40
6.464036846260695
 40
6.522893960004312
 40
6.581751071483579
 40
6.608504301590525
 40
6.637253941280672
 40
6.711397748902524
 40
6.812778057283136
 40
6.923237199248913
 40
7.024617507623557
 40
7.098761315207209
 40
7.12751094600716
 40
7.12751094600716
 40
7.12751094600716
 40
7.12751094600716
 10
188.4418622390564
 20
14.95849128473259
 10
188.4418622819707
 20
14.94707313408715
 10
188.4418624481129
 20
14.90555257842624
 10
188.4418593081787
 20
14.82146922003768
 10
188.4418788279801
 20
14.70004497322326
 10
188.4417912187737
 20
14.55980494047447
 10
188.442111623523
 20
14.42006556794577
 10
188.4411605909741
 20
14.29745038894931
 10
188.4431978595967
 20
14.21587074438045
 10
188.4349433178747
 20
14.06271267077701
 10
188.7430797940899
 20
14.2256023605471
 10
189.0350645173737
 20
14.39482938687998
 10
189.0408354448707
 20
14.25973235781908
 10
189.0455471719891
 20
14.21617221160443
 10
189.0482535411918
 20
14.17211249350545
 10
189.067254567296
 20
14.02272590363135
 10
188.6583942247302
 20
14.08681172241262
 10
188.3793710348832
 20
13.97296341411016
 10
188.1018081587167
 20
13.87364095811147
 10
187.8099837184401
 20
13.91630687596346
 10
187.7869144678659
 20
13.81321679744542
 10
187.7537474383332
 20
13.78691091244471
 10
187.7480653962739
 20
13.83455309036304
 10
187.7284214559045
 20
13.87180336115071
 10
187.7095089485623
 20
13.9300738784756
 10
187.6942849867708
 20
13.97385201007804
 10
187.6477246372936
 20
14.08759421046299
 10
187.9890897312451
 20
14.05576301120049
 10
188.2679649367386
 20
14.02161435106476
 10
188.2617753034907
 20
14.1691397647965
 10
188.2630935452773
 20
14.2401315090883
 10
188.2624831689948
 20
14.34719767958659
 10
188.2625871570725
 20
14.47398529785995
 10
188.2629987964055
 20
14.60849243496046
 10
188.2613907841969
 20
14.7339554995118
 10
188.2659902567925
 20
14.84505246719112
 10
188.256418650221
 20
14.90761886800684
 10
188.2704001783691
 20
14.96595388294996
 10
188.2147384386705
 20
14.95289710582233
 10
188.1575655197821
 20
14.96136307749493
 10
188.0616048925648
 20
14.95729976080631
 10
187.963376752282
 20
14.95970889852469
 10
187.8672582457561
 20
14.95551600613383
 10
187.8104648525811
 20
14.96429346441157
 10
187.7550356873384
 20
14.95094936850116
 10
187.7670679427917
 20
15.00036910959252
 10
187.7592003173937
 20
15.0439398803039
 10
187.7666295563828
 20
15.0883046911852
 10
187.7551930564143
 20
15.13902297763985
 10
187.8232102370133
 20
15.12162460757738
 10
187.8968496879747
 20
15.13417450237183
 10
188.0325064058211
 20
15.12799677011093
 10
188.1884909024525
 20
15.13029203093079
 10
188.3615926358143
 20
15.12940968262525
 10
188.5346942964181
 20
15.13029207142403
 10
188.6906789811216
 20
15.12799662955545
 10
188.8263351889797
 20
15.13417486262426
 10
188.8999756705652
 20
15.1216239421833
 10
188.9679914174724
 20
15.13902373012137
 10
188.9565590885922
 20
15.0883013041455
 10
188.9639539458297
 20
15.04397060811103
 10
188.956203991227
 20
15.0002830755019
 10
188.9681203741877
 20
14.95063590098472
 10
188.9108170223616
 20
14.9646141133842
 10
188.8520145789773
 20
14.95539755673249
 10
188.7525293633199
 20
14.95952268164924
 10
188.649428009835
 20
14.95822760025883
 10
188.5537846354573
 20
14.95854077077635
 10
188.4857467971617
 20
14.9584877669714
 10
188.4514462213443
 20
14.95849051871651
 10
188.4418622390564
 20
14.95849128473259
 97
        1
330
BC
 75
     1
 76
     2
 52
45.0
 41
0.1
 77
     0
 78
     1
 53
45.0
 43
0.0
 44
0.0
 45
-0.282842712474619
 46
0.0
 79
     0
 98
        1
 10
0.0
 20
0.0
  0
HATCH
  5
DA
330
48
100
AcDbEntity
  8
1
  6
Continuous
 62
     2
100
AcDbHatch
 10
0.0
 20
0.0
 30
0.0
210
0.0
220
0.0
230
1.0
  2
CUSTOM8
 70
     0
 71
     1
 91
        1
 92
        1
 93
        1
 72
     4
 94
        3
 73
     0
 74
     0
 95
       91
 96
       87
 40
0.0
 40
0.0
 40
0.0
 40
0.0
 40
0.0345987051695718
 40
0.1258134969461369
 40
0.2547723404888987
 40
0.4026032099154125
 40
0.5504340793416704
 40
0.679392922883608
 40
0.7706077146571035
 40
0.8052064287780925
 40
1.124852390615279
 40
1.427402236308877
 40
1.706356627453524
 40
1.955541417875226
 40
2.169485938566381
 40
2.344350786664856
 40
2.480568411562031
 40
2.590440557429081
 40
2.649189927151186
 40
2.749320643306392
 40
2.912632739880094
 40
3.147745656000304
 40
3.244827496385093
 40
3.338490056946693
 40
3.583815413207103
 40
3.761423943238454
 40
3.886956104362611
 40
3.98585545188677
 40
4.091766255337654
 40
4.250186473811847
 40
4.422734315084491
 40
4.628285684838586
 40
4.872093227758416
 40
5.152549652145526
 40
5.464967135837505
 40
5.803201477852424
 40
6.1603629888139
 40
6.193449448275955
 40
6.28417038550161
 40
6.419718138764451
 40
6.587285046385701
 40
6.774063446723615
 40
6.96724567811357
 40
7.154024078817584
 40
7.321590987025941
 40
7.457138740890271
 40
7.547859678556008
 40
7.580946138182568
 40
7.608533084714622
 40
7.669224367077599
 40
7.729915649429821
 40
7.757502595949874
 40
7.790278062553356
 40
7.880146277430826
 40
8.01441996318026
 40
8.18041184239776
 40
8.365434637679229
 40
8.556801071622502
 40
8.741823866830586
 40
8.907815745916153
 40
9.04208943150725
 40
9.131957646249376
 40
9.164733112796952
 40
9.41542506313985
 40
9.667986180958298
 40
9.694169807462465
 40
9.756607686047424
 40
9.831130315322316
 40
9.893568193899752
 40
9.919751820398597
 40
9.950967964690427
 40
9.996421631210527
 40
10.22087981037444
 40
10.44341866197531
 40
10.47847970788843
 40
10.57091337438744
 40
10.70159545461218
 40
10.85140174170349
 40
11.00120802880466
 40
11.13189010907372
 40
11.22432377582999
 40
11.25938480938946
 40
11.28697175596134
 40
11.34766303835909
 40
11.40835432042059
 40
11.43594125892094
 40
11.43594125892094
 40
11.43594125892094
 40
11.43594125892094
 10
190.0818114333289
 20
15.55242795125079
 10
190.0702785844941
 20
15.55242790287917
 10
190.0283409444998
 20
15.55242773704166
 10
189.9434129719026
 20
15.55243125800911
 10
189.8207688553128
 20
15.5524092643588
 10
189.6791206916993
 20
15.55250801177056
 10
189.537975369849
 20
15.55214686232423
 10
189.4141351317904
 20
15.5532188360909
 10
189.3317217825382
 20
15.55092249091271
 10
189.1727791229692
 20
15.56048569373421
 10
189.3503402353376
 20
15.19785394311372
 10
189.3379739205452
 20
14.95243127723116
 10
189.4064519473864
 20
14.66862501324835
 10
189.469302432097
 20
14.43250999939035
 10
189.5452253431728
 20
14.23326740396128
 10
189.6303189577017
 20
14.0774534745137
 10
189.7244607592936
 20
13.9765785778139
 10
189.8282648207728
 20
13.9246585263896
 10
189.9125872030774
 20
13.97606484379617
 10
189.9351322179453
 20
14.09144544037515
 10
189.9745730975371
 20
14.21885149702376
 10
189.9202919734944
 20
14.53622328086755
 10
190.0451218072473
 20
14.38982180140903
 10
190.2019291513603
 20
14.35795300331169
 10
190.0947720007056
 20
14.12421357767628
 10
190.0808711209867
 20
13.95972776583657
 10
190.0234709467225
 20
13.83130869122485
 10
189.9335020145009
 20
13.76018802352828
 10
189.8095274657877
 20
13.74432324142256
 10
189.663427319686
 20
13.77993797554174
 10
189.5243894320284
 20
13.90000570500279
 10
189.4102003962144
 20
14.07435682550322
 10
189.3146141301486
 20
14.29946603111242
 10
189.2318652572626
 20
14.56388246006445
 10
189.1807179256411
 20
14.88187933098544
 10
189.0770189207338
 20
15.15543728488915
 10
189.204284120852
 20
15.56005818612869
 10
189.0357890623018
 20
15.5511236784968
 10
188.9511995787077
 20
15.55315961418365
 10
188.8189876387628
 20
15.55213937388408
 10
188.6560505094104
 20
15.55253230318431
 10
188.4733759170533
 20
15.55235696313371
 10
188.2847057373383
 20
15.5526010530747
 10
188.1014469020189
 20
15.55185657906238
 10
187.9404746832719
 20
15.55416360522428
 10
187.8029808335276
 20
15.54799804883664
 10
187.7289590372311
 20
15.56032838458213
 10
187.6613215186858
 20
15.54329323723558
 10
187.673237371927
 20
15.59524438447529
 10
187.6655677285694
 20
15.64071424966531
 10
187.6732592225117
 20
15.68614453703708
 10
187.6613141797762
 20
15.73802395984573
 10
187.7283588305868
 20
15.72119143490266
 10
187.8017375665677
 20
15.73335409092673
 10
187.9379128305273
 20
15.7272723107496
 10
188.0973811801513
 20
15.7295483431506
 10
188.2789173085837
 20
15.72881233998964
 10
188.4658034862179
 20
15.72905954196136
 10
188.6468012316836
 20
15.72886400799256
 10
188.8080802578879
 20
15.72932234714841
 10
188.9393882124887
 20
15.72812673751208
 10
189.0225051322597
 20
15.73051347319745
 10
189.1556236547813
 20
15.72230605725465
 10
189.0645893502658
 20
15.97752868952656
 10
188.978963307442
 20
16.24164358328243
 10
189.0990589003455
 20
16.22904442969164
 10
189.1514264948543
 20
16.22694235763073
 10
189.2214497569717
 20
16.22535399889657
 10
189.2671922337817
 20
16.21602567538112
 10
189.3220812646934
 20
16.22545966915427
 10
189.2963574785682
 20
16.17733028655173
 10
189.1825397571453
 20
16.18266829744177
 10
189.3159346621136
 20
15.95449174576776
 10
189.1943658735471
 20
15.72156856595925
 10
189.3223188769413
 20
15.73087258884441
 10
189.4049048406461
 20
15.72801001754682
 10
189.5307214850824
 20
15.72923437412305
 10
189.6741469838057
 20
15.72932431888966
 10
189.8157420951728
 20
15.72746163183855
 10
189.9459127249967
 20
15.73333075937165
 10
190.0193452286191
 20
15.72070340823206
 10
190.0891112922096
 20
15.73877563110414
 10
190.0775772605396
 20
15.68612850546328
 10
190.0833184346682
 20
15.64221317686549
 10
190.081661577091
 20
15.5908998267655
 10
190.081775756167
 20
15.56158792021636
 10
190.0818114333289
 20
15.55242795125079
 97
        1
330
BD
 75
     1
 76
     2
 52
45.0
 41
0.1
 77
     0
 78
     1
 53
45.0
 43
0.0
 44
0.0
 45
-0.282842712474619
 46
0.0
 79
     0
 98
        1
 10
0.0
 20
0.0
  0
HATCH
  5
DB
330
48
100
AcDbEntity
  8
1
  6
Continuous
 62
     2
100
AcDbHatch
 10
0.0
 20
0.0
 30
0.0
210
0.0
220
0.0
230
1.0
  2
CUSTOM9
 70
     0
 71
     1
 91
        1
 92
        1
 93
        1
 72
     4
 94
        3
 73
     0
 74
     0
 95
      118
 96
      114
 40
0.0
 40
0.0
 40
0.0
 40
0.0
 40
0.1054708162972979
 40
0.2466098270051312
 40
0.3965912874590529
 40
0.528552506975333
 40
0.6156245055641599
 40
0.6431434105796869
 40
0.7036850037985488
 40
0.76422659845038
 40
0.7917455052354075
 40
0.9287404319988871
 40
1.106572819087897
 40
1.287544879680858
 40
1.317578308030375
 40
1.399928030857012
 40
1.522968204799788
 40
1.675072986590409
 40
1.844616533180488
 40
2.019973001638551
 40
2.189516548879864
 40
2.341621331585202
 40
2.464661506320336
 40
2.547011229646902
 40
2.577044658167866
 40
2.603797890892936
 40
2.66265500290868
 40
2.721512114949549
 40
2.748265347702729
 40
2.774215307344804
 40
2.845959313407135
 40
2.954338556588333
 40
3.090194227585508
 40
3.244367517100475
 40
3.40769961584423
 40
3.571031714539377
 40
3.725205003920054
 40
3.861060674729554
 40
3.969439917716246
 40
4.041183923628918
 40
4.067133883212911
 40
4.311886746012087
 40
4.547897258335447
 40
4.764747083043887
 40
4.952749679951689
 40
5.045772974195833
 40
5.137862019644901
 40
5.330543169792957
 40
5.553448265243954
 40
5.795083855888113
 40
6.04329341217716
 40
6.285761695541069
 40
6.313902908752553
 40
6.384255941793143
 40
6.475714884766731
 40
6.567173827758793
 40
6.637526860839571
 40
6.665668074073935
 40
6.692018920327914
 40
6.749990782070999
 40
6.807962643790381
 40
6.834313490017861
 40
6.856393084245139
 40
6.913335195649763
 40
6.991194817302427
 40
7.076026942283688
 40
7.153886563725179
 40
7.210828674844761
 40
7.232908268931096
 40
7.258199334923619
 40
7.324875781592274
 40
7.419142481924938
 40
7.527204308841888
 40
7.635266135230475
 40
7.729532834168468
 40
7.796209279292794
 40
7.821500344594744
 40
7.844652988850815
 40
7.899863140541595
 40
7.965759128053763
 40
8.020969279771048
 40
8.044121924046514
 40
8.06935661016059
 40
8.109134395441266
 40
8.132238100190982
 40
8.193147867786347
 40
8.279261678876527
 40
8.377977512673745
 40
8.476693347146536
 40
8.562807160411593
 40
8.623716930826381
 40
8.646820636853336
 40
8.67198879377415
 40
8.734909185828004
 40
8.816705695188718
 40
8.89850220481526
 40
8.961422597377693
 40
8.986590754550805
 40
9.012941600732967
 40
9.070913462380066
 40
9.128885324081574
 40
9.155236170324901
 40
9.180404327928944
 40
9.243324721947989
 40
9.325121234211725
 40
9.40691774663738
 40
9.469838141977835
 40
9.49500628827058
 40
9.517811184378717
 40
9.572192090486705
 40
9.63709833328092
 40
9.691479239515107
 40
9.714284125643141
 40
9.714284125643141
 40
9.714284125643141
 40
9.714284125643141
 10
185.2874469028654
 20
15.26889163187718
 10
185.3090990569038
 20
15.2411186924281
 10
185.3597257109474
 20
15.17618054561234
 10
185.4349383202592
 20
15.06891060312898
 10
185.5248482274346
 20
14.95377438266624
 10
185.5709169676673
 20
14.85357045748318
 10
185.6655825294654
 20
14.78434006814941
 10
185.6204439320413
 20
14.73771639678272
 10
185.594704778579
 20
14.69660308866039
 10
185.5645196708011
 20
14.66065971727939
 10
185.5193684730563
 20
14.58579782596096
 10
185.4710504458562
 20
14.80782524253602
 10
185.3968539713073
 20
14.84510677337706
 10
185.2836047324607
 20
15.11610202130595
 10
185.2885133578171
 20
15.00095328446226
 10
185.2868486556306
 20
14.92836675781624
 10
185.2876830076715
 20
14.80625588483983
 10
185.2873609540266
 20
14.65913800810458
 10
185.2875076912457
 20
14.49307063956554
 10
185.2872950092723
 20
14.32187554608598
 10
185.2879497252034
 20
14.15552828635495
 10
185.2859192461141
 20
14.0093517305569
 10
185.2913460399931
 20
13.88471047474608
 10
185.280493086871
 20
13.81718656540624
 10
185.2956739155556
 20
13.75549061417019
 10
185.2457895108134
 20
13.76727503896999
 10
185.2017150342522
 20
13.75943822779966
 10
185.1582371630201
 20
13.76760441372701
 10
185.1092346786488
 20
13.75538056738464
 10
185.1218731234825
 20
13.8096066724931
 10
185.1130182968449
 20
13.86936918907554
 10
185.1175058770314
 20
13.97922029044367
 10
185.1157960135991
 20
14.11029975405675
 10
185.1163550915986
 20
14.26198011444324
 10
185.1161928768694
 20
14.4221107492995
 10
185.1162269924674
 20
14.58236865674563
 10
185.1162514960127
 20
14.73370247520436
 10
185.1161453543225
 20
14.86582156338597
 10
185.1164299141931
 20
14.97294802533189
 10
185.1158675547567
 20
15.03808619579469
 10
185.1180765083689
 20
15.16618957858672
 10
185.0319435998602
 20
14.79097610391572
 10
184.9555140818499
 20
14.63918193123393
 10
184.8660040767833
 20
14.47766206446304
 10
184.7640413217326
 20
14.20471848820168
 10
184.7187976491039
 20
14.3671734659651
 10
184.610235594167
 20
14.45605432058118
 10
184.7995791751753
 20
14.60549794961408
 10
184.85653405457
 20
14.79749136974925
 10
184.9717520993352
 20
15.02899622906756
 10
184.9940151630132
 20
15.21797259759061
 10
185.177190515214
 20
15.49454089325924
 10
185.0538033597552
 20
15.48698978832088
 10
184.9925684166834
 20
15.48856772366112
 10
184.9081999617064
 20
15.48882592573666
 10
184.8204235085966
 20
15.485448457512
 10
184.7656768696122
 20
15.49394814982014
 10
184.7104703026025
 20
15.48048561049782
 10
184.7222823035536
 20
15.52931442126758
 10
184.7142496151794
 20
15.57269004896704
 10
184.7228186104679
 20
15.6150943830957
 10
184.7102943409157
 20
15.66267796552116
 10
184.7555101538735
 20
15.65267212995107
 10
184.8014815562723
 20
15.65894105174059
 10
184.8777222047709
 20
15.6559356140587
 10
184.9561296131994
 20
15.65770448278539
 10
185.0323992648932
 20
15.65464793981658
 10
185.0783009459475
 20
15.66103971376176
 10
185.12317339654
 20
15.65093822978894
 10
185.1105552275634
 20
15.70157201581898
 10
185.1191936582707
 20
15.75501261882068
 10
185.1152361595442
 20
15.8486325513168
 10
185.1162325068335
 20
15.95112606688924
 10
185.1171927413073
 20
16.05353270248164
 10
185.1133211458006
 20
16.14735929609324
 10
185.1217789814364
 20
16.20036542840355
 10
185.1093075932835
 20
16.25211435651191
 10
185.154210638985
 20
16.23850747226759
 10
185.1955083836772
 20
16.24100480320586
 10
185.2595344281051
 20
16.23648060574487
 10
185.2986111148786
 20
16.22781003043307
 10
185.3476543498741
 20
16.23515102070684
 10
185.3225080030591
 20
16.19602896051758
 10
185.2815901333724
 20
16.20563842455806
 10
185.2910109616604
 20
16.15540148169779
 10
185.2855647318746
 20
16.10385945639491
 10
185.2881699601805
 20
16.0195970758452
 10
185.2870102202156
 20
15.92559135583408
 10
185.2883591064232
 20
15.83196865395524
 10
185.284997010151
 20
15.74679517552222
 10
185.292095991777
 20
15.69716856072042
 10
185.2812569154547
 20
15.64993694969987
 10
185.3304010225246
 20
15.66201674936849
 10
185.3794877630148
 20
15.65447393363009
 10
185.4573714280641
 20
15.6568607036143
 10
185.5350365172896
 20
15.65899381905413
 10
185.5845393931354
 20
15.65193391922452
 10
185.6344594750639
 20
15.66360151936212
 10
185.6223198516881
 20
15.61540235371389
 10
185.6305838229143
 20
15.57249219801231
 10
185.6223198650784
 20
15.5295820185138
 10
185.6344594549853
 20
15.48138288754858
 10
185.5845395158747
 20
15.49305034471504
 10
185.5350350651202
 20
15.4859920243504
 10
185.4573784382974
 20
15.48811665228597
 10
185.379464386576
 20
15.49053389365754
 10
185.3304500352717
 20
15.48291848194479
 10
185.2813246108944
 20
15.49507952557585
 10
185.2915559988572
 20
15.45073013424153
 10
185.2856677678054
 20
15.40925436202907
 10
185.287878830557
 20
15.349153943153
 10
185.2874109346147
 20
15.30225782762887
 10
185.2874386992914
 20
15.27650146418195
 10
185.2874469028654
 20
15.26889163187718
 97
        1
330
BE
 75
     1
 76
     2
 52
45.0
 41
0.1
 77
     0
 78
     1
 53
45.0
 43
0.0
 44
0.0
 45
-0.282842712474619
 46
0.0
 79
     0
 98
        1
 10
0.0
 20
0.0
  0
HATCH
  5
DC
330
48
100
AcDbEntity
  8
1
  6
Continuous
 62
     2
100
AcDbHatch
 10
0.0
 20
0.0
 30
0.0
210
0.0
220
0.0
230
1.0
  2
CUSTOM10
 70
     0
 71
     1
 91
        1
 92
        1
 93
        1
 72
     4
 94
        3
 73
     0
 74
     0
 95
       47
 96
       43
 40
0.0
 40
0.0
 40
0.0
 40
0.0
 40
0.2207912809957372
 40
0.4459404186303237
 40
0.4902387190459442
 40
0.532747389272233
 40
0.5742260451225971
 40
0.6155432630561829
 40
0.656816406631646
 40
0.6982511618780851
 40
0.7407663929317295
 40
0.7851366743175345
 40
1.010288833836337
 40
1.231080507002203
 40
1.451765243652386
 40
1.676638205891668
 40
1.720461045359641
 40
1.830018144043506
 40
1.97244237235314
 40
2.11486660067751
 40
2.224423699395138
 40
2.268246538883379
 40
2.493628801207237
 40
2.715602830286619
 40
2.934211330706381
 40
3.149502369855347
 40
3.231387784850962
 40
3.31823187385394
 40
3.405143198197956
 40
3.486970301720447
 40
3.702258172493862
 40
3.920866283534101
 40
4.142839325931874
 40
4.368221903865362
 40
4.412044743359844
 40
4.521601842095859
 40
4.664026070452342
 40
4.806450298809055
 40
4.916007397546749
 40
4.959830237043072
 40
5.184703515847104
 40
5.405387250767431
 40
5.405387250767431
 40
5.405387250767431
 40
5.405387250767431
 10
182.6507427258645
 20
15.73406440953869
 10
182.6568139420002
 20
15.79758482501207
 10
182.6690762107242
 20
15.92587938689624
 10
182.5604706879411
 20
16.20166220174077
 10
182.6761985896604
 20
16.17188133432051
 10
182.7171842509015
 20
16.16765556262828
 10
182.7591205797519
 20
16.16310446389605
 10
182.8004196625711
 20
16.16201982929488
 10
182.8417032115556
 20
16.16310338195226
 10
182.8836148270647
 20
16.16766112711352
 10
182.9245983549019
 20
16.17187430209726
 10
183.0404922843488
 20
16.20177611317534
 10
182.9295652727456
 20
15.92339806609886
 10
182.9574856365267
 20
15.74283140824952
 10
182.9404267346969
 20
15.50961042346472
 10
182.9414637282103
 20
15.34906622543148
 10
182.9414099399404
 20
15.22284817558723
 10
182.9414277372481
 20
15.12428963336243
 10
182.941418858108
 20
14.99280702442964
 10
182.9414263928034
 20
14.86132844968651
 10
182.9414129405128
 20
14.76276222694091
 10
182.9414531717493
 20
14.63639735624153
 10
182.9406746403816
 20
14.47482068822869
 10
182.9565958319267
 20
14.24361821892914
 10
182.9333468885407
 20
14.05874351972002
 10
183.0360183444365
 20
13.78935602770059
 10
182.8820238362837
 20
13.82660112685817
 10
182.8004129802833
 20
13.82137994680528
 10
182.7188192292583
 20
13.82660620378351
 10
182.5648513666843
 20
13.78937069885388
 10
182.6674183421916
 20
14.05875129862879
 10
182.6442045316088
 20
14.24361585325414
 10
182.6600444655138
 20
14.47482218565638
 10
182.6593296313427
 20
14.63639712308503
 10
182.6593664569907
 20
14.76276231210521
 10
182.6593549000271
 20
14.86132756635983
 10
182.6593575019213
 20
14.99281127417221
 10
182.6593648531779
 20
15.12427548031201
 10
182.6593442541351
 20
15.22287786275328
 10
182.6594082192028
 20
15.34896149354428
 10
182.658173394759
 20
15.51210091383771
 10
182.6532040396745
 20
15.66054183777549
 10
182.6507427258645
 20
15.73406440953869
 97
        1
330
BF
 75
     1
 76
     2
 52
45.0
 41
0.1
 77
     0
 78
     1
 53
45.0
 43
0.0
 44
0.0
 45
-0.282842712474619
 46
0.0
 79
     0
 98
        1
 10
0.0
 20
0.0
  0
HATCH
  5
DD
330
48
100
AcDbEntity
  8
1
  6
Continuous
 62
     2
100
AcDbHatch
 10
0.0
 20
0.0
 30
0.0
210
0.0
220
0.0
230
1.0
  2
CUSTOM11
 70
     0
 71
     1
 91
        1
 92
        1
 93
        1
 72
     4
 94
        3
 73
     0
 74
     0
 95
      110
 96
      106
 40
0.0
 40
0.0
 40
0.0
 40
0.0
 40
0.2203406257277631
 40
0.4407808782838126
 40
0.5952494494615386
 40
0.7488431659393088
 40
0.9023581831309081
 40
1.056801968670407
 40
1.210736449099964
 40
1.363041386539786
 40
1.515315729683156
 40
1.669377239148163
 40
1.721611652756676
 40
1.773199502943082
 40
1.824933793210094
 40
1.877110426488124
 40
1.982682281206919
 40
2.078781667087673
 40
2.172809640822506
 40
2.27193780737916
 40
2.378349933379497
 40
2.494131557736739
 40
2.626681683943874
 40
2.783145050796302
 40
2.890701232941136
 40
2.993130312455076
 40
3.099869730692029
 40
3.220237816691522
 40
3.352695482737779
 40
3.481732806389992
 40
3.593499473690561
 40
3.674323013332049
 40
3.817951711952941
 40
3.94616712079391
 40
4.061405053453596
 40
4.166480796003237
 40
4.262478775059272
 40
4.350736673551229
 40
4.433071991254169
 40
4.511216293814719
 40
4.564262454118041
 40
4.61847441557167
 40
4.670128488754311
 40
4.722296879126533
 40
4.819540945314405
 40
4.931194984128261
 40
5.049996040257875
 40
5.168643755415335
 40
5.283970811762632
 40
5.392260784910487
 40
5.486512254876533
 40
5.559178233949876
 40
5.59142585285353
 40
5.626215969637931
 40
5.667155838674518
 40
5.717449290214303
 40
5.738402360944918
 40
5.784499116553888
 40
5.830595872164863
 40
5.851548942897721
 40
5.873019280661834
 40
5.924217778408376
 40
5.985325662817751
 40
6.036524160567763
 40
6.057994498334291
 40
6.236847789607535
 40
6.381409928945736
 40
6.493190424178752
 40
6.574067534230615
 40
6.691018086205709
 40
6.814881554220626
 40
6.944307823240664
 40
7.071266716066203
 40
7.193488604462051
 40
7.309042773128274
 40
7.414007203170957
 40
7.505140441886655
 40
7.531150360599777
 40
7.559221645322372
 40
7.587202218921022
 40
7.612569159499264
 40
7.662550809481102
 40
7.702878875764211
 40
7.857328205231025
 40
8.01079956808867
 40
8.16525639965762
 40
8.322232698713846
 40
8.479564855016617
 40
8.635216230290764
 40
8.790882550925739
 40
8.948305154947333
 40
9.168271839033022
 40
9.38735898098727
 40
9.608047961033499
 40
9.83291423479276
 40
9.858338694963093
 40
9.925366817230096
 40
10.02013071422767
 40
10.12876249859005
 40
10.23739428295255
 40
10.33215817995196
 40
10.39918630222399
 40
10.42461076239788
 40
10.64992019336945
 40
10.87188524531191
 40
10.87188524531191
 40
10.87188524531191
 40
10.87188524531191
 10
179.9057788376619
 20
15.73923260398189
 10
179.9092864933541
 20
15.80616462073802
 10
179.9163033987662
 20
15.94005891915857
 10
179.8198027599072
 20
16.2254855497147
 10
180.0510134726108
 20
16.16284386190281
 10
180.1919290057156
 20
16.17001554055999
 10
180.3490417757588
 20
16.16235883078243
 10
180.5025913427287
 20
16.16252752283044
 10
180.6545104935081
 20
16.16182040535431
 10
180.8142214813231
 20
16.17210158351647
 10
180.9408972601118
 20
16.15496511080749
 10
181.1370821122081
 20
16.22727260107145
 10
181.1034395279078
 20
16.12640699080114
 10
181.1052011317184
 20
16.07619253947668
 10
181.1027342073458
 20
16.02712335586461
 10
181.1347076966013
 20
15.94063490846993
 10
181.0010399903256
 20
15.98997438608335
 10
180.9172208688057
 20
15.98430634314173
 10
180.8173861139325
 20
15.99465516706297
 10
180.7186576720146
 20
16.00086450411085
 10
180.612153277111
 20
16.00697763816781
 10
180.491051169806
 20
16.01588883484576
 10
180.3703381502453
 20
16.00521605912384
 10
180.1812553843437
 20
16.06468503080363
 10
180.2129028505311
 20
15.90558320077537
 10
180.1995563316835
 20
15.80839128339901
 10
180.1974958426449
 20
15.696340651101
 10
180.1958188044671
 20
15.57699685629349
 10
180.1973336794233
 20
15.45032592155111
 10
180.195658247867
 20
15.3230158801612
 10
180.2058844271658
 20
15.22451566404466
 10
180.1779006596583
 20
15.08388702625638
 10
180.3508029999305
 20
15.13989551134091
 10
180.4645020202772
 20
15.12719951478501
 10
180.5840151672239
 20
15.13448377051257
 10
180.6888491425072
 20
15.13878017056761
 10
180.7843084898612
 20
15.14330568258972
 10
180.8763823507032
 20
15.15149201146205
 10
180.9476551782439
 20
15.14643850638106
 10
181.0544931705685
 20
15.18536425031677
 10
181.0226603598036
 20
15.10517122005883
 10
181.0266164503929
 20
15.05562936846035
 10
181.0234502392013
 20
15.00557478039819
 10
181.0550791490585
 20
14.92128847612017
 10
180.9210133677691
 20
14.97425365495157
 10
180.82923227932
 20
14.96540080890438
 10
180.7079729189603
 20
14.97570049965156
 10
180.5914113119772
 20
14.97748911767501
 10
180.4783375745879
 20
14.97787017109692
 10
180.3679246308471
 20
14.98415449472183
 10
180.289812406784
 20
14.97189133255363
 10
180.1913625833645
 20
15.00453887616125
 10
180.2012355173561
 20
14.94769748054207
 10
180.1973923244402
 20
14.91392130557984
 10
180.1966789884268
 20
14.87119604709409
 10
180.1963369642975
 20
14.83401607262151
 10
180.1963834255345
 20
14.7948723737077
 10
180.1963649429927
 20
14.75716849497684
 10
180.1963703431807
 20
14.71944955232401
 10
180.19636972142
 20
14.68994324745147
 10
180.1963698151546
 20
14.658735776993
 10
180.196370428792
 20
14.61414424908083
 10
180.1963671499337
 20
14.5596395650885
 10
180.196375962348
 20
14.51505540201446
 10
180.1963359653419
 20
14.4311780858574
 10
180.1976024270255
 20
14.31737520677676
 10
180.1950274117842
 20
14.16830395933708
 10
180.206500938172
 20
14.06597203813901
 10
180.1823506222263
 20
13.93338903885827
 10
180.3332993946476
 20
13.97895732272013
 10
180.4428436671556
 20
13.96427012162342
 10
180.573397047392
 20
13.96920435125059
 10
180.6990312209513
 20
13.97257705323355
 10
180.8188730625602
 20
13.97711497498778
 10
180.9391362611426
 20
13.99048536181999
 10
181.0222761663516
 20
13.98068712782591
 10
181.1456080421074
 20
14.04126214623315
 10
181.1244269203957
 20
13.98532460134017
 10
181.1235950270116
 20
13.95939249372345
 10
181.1218963707558
 20
13.93197256190936
 10
181.1217974888829
 20
13.89738195206383
 10
181.120365930133
 20
13.86050408220767
 10
181.153280419219
 20
13.76846841021808
 10
180.9551306988107
 20
13.84132015974832
 10
180.830054829489
 20
13.818257265086
 10
180.6673071295156
 20
13.82454021985782
 10
180.5129366450002
 20
13.82260943909921
 10
180.3566670436944
 20
13.82393762599264
 10
180.1970544465282
 20
13.82059872487856
 10
180.0540326342237
 20
13.83265795728241
 10
179.8197144881628
 20
13.7695200197692
 10
179.9173810751197
 20
14.05620527466318
 10
179.900686878006
 20
14.2498830814266
 10
179.9146296709684
 20
14.47848242880295
 10
179.9142987846631
 20
14.6338459395505
 10
179.9143078119264
 20
14.7396633644413
 10
179.9143055876316
 20
14.80205784124217
 10
179.9143065551888
 20
14.89220425248329
 10
179.9143065473261
 20
14.99621167157439
 10
179.9143053861102
 20
15.10022131375298
 10
179.9143090971502
 20
15.19036243688768
 10
179.9143011051051
 20
15.25276803097215
 10
179.9143334275018
 20
15.35868835961118
 10
179.9131440788319
 20
15.51626716544738
 10
179.9082216489257
 20
15.66528219822064
 10
179.9057788376619
 20
15.73923260398189
 97
        1
330
C0
 75
     1
 76
     2
 52
45.0
 41
0.1
 77
     0
 78
     1
 53
45.0
 43
0.0
 44
0.0
 45
-0.282842712474619
 46
0.0
 79
     0
 98
        1
 10
0.0
 20
0.0
  0
HATCH
  5
DE
330
48
100
AcDbEntity
  8
1
  6
Continuous
 62
     2
100
AcDbHatch
 10
0.0
 20
0.0
 30
0.0
210
0.0
220
0.0
230
1.0
  2
CUSTOM12
 70
     0
 71
     1
 91
        1
 92
        1
 93
        1
 72
     4
 94
        3
 73
     0
 74
     0
 95
       95
 96
       91
 40
0.0
 40
0.0
 40
0.0
 40
0.0
 40
0.6550406656911587
 40
1.308087289031918
 40
1.420803739835772
 40
1.566130759770811
 40
1.757067341888455
 40
2.006513545026441
 40
2.087328263121535
 40
2.185328872295652
 40
2.294612454748389
 40
2.408936380534807
 40
2.526802767798557
 40
2.646360524615603
 40
2.762535723971571
 40
2.870057342870141
 40
2.966883448431687
 40
3.05080324351832
 40
3.115818222436599
 40
3.156030057150218
 40
3.213914225080118
 40
3.276689026450518
 40
3.342960320981294
 40
3.404230667150541
 40
3.45382280949333
 40
3.532499827188327
 40
3.634775188507102
 40
3.754909333008112
 40
3.889736761660632
 40
4.035769602175217
 40
4.187256681197587
 40
4.338733685675872
 40
4.488478734676075
 40
4.634708317831529
 40
4.771493189921259
 40
4.892686571561152
 40
5.199775528944394
 40
5.460353566929639
 40
5.66760314234546
 40
5.814722905404427
 40
5.828990806219725
 40
5.855488336304422
 40
5.869756237118754
 40
6.189796507762763
 40
6.531890469872939
 40
6.883053637016954
 40
7.23051202491139
 40
7.566966656764499
 40
7.885203559707318
 40
8.17288743971912
 40
8.41801159406268
 40
8.4439267211906
 40
8.510760470613086
 40
8.602145393795595
 40
8.701714041647033
 40
8.793098965075263
 40
8.859932715057834
 40
8.885847842603482
 40
9.242301256612695
 40
9.5892754550167
 40
9.921808543164063
 40
10.23479624298456
 40
10.2996815088916
 40
10.35323493887743
 40
10.40154625355127
 40
10.46482922477803
 40
10.55973900668385
 40
10.692395459856
 40
10.84920353475649
 40
11.01626328594758
 40
11.18672024367418
 40
11.35372582577187
 40
11.50257442292401
 40
11.61866495023269
 40
11.71329869152854
 40
11.82511050573882
 40
11.94464880845693
 40
12.06929242642483
 40
12.19707290435156
 40
12.32562632860506
 40
12.45034565331255
 40
12.56646595170304
 40
12.6709900741461
 40
12.7607762593676
 40
12.82703233506674
 40
12.87429132785971
 40
12.8983199032331
 40
12.92234847859998
 40
13.53984767410299
 40
14.1829428435934
 40
14.1829428435934
 40
14.1829428435934
 40
14.1829428435934
 10
177.3067935648021
 20
14.70898038201719
 10
177.1752019758551
 20
14.82265058603228
 10
176.9124193802728
 20
15.04964496316159
 10
176.3997393441024
 20
15.89214462956285
 10
176.4106654595362
 20
15.5342337757702
 10
176.4041226527991
 20
15.39267392272132
 10
176.4028026631773
 20
15.19421305299281
 10
176.4018117602537
 20
15.02150296045983
 10
176.4024101751975
 20
14.87865373257579
 10
176.4038994301882
 20
14.78265005413356
 10
176.4055683588473
 20
14.67545503263139
 10
176.4071934954617
 20
14.56164211517581
 10
176.4092429501685
 20
14.44441572604588
 10
176.4123165501928
 20
14.3265641123297
 10
176.4156339697044
 20
14.21228087320621
 10
176.4193605340279
 20
14.10521401867275
 10
176.4217338161425
 20
14.01007408766919
 10
176.4278718888357
 20
13.92558557205692
 10
176.4239784495947
 20
13.86923087298141
 10
176.4455230443077
 20
13.79825022472358
 10
176.3680940058618
 20
13.82902677604483
 10
176.3116353240191
 20
13.82011242517607
 10
176.2540495896807
 20
13.82896218398275
 10
176.1690163478472
 20
13.79738225225946
 10
176.2009714146382
 20
13.88095155992188
 10
176.1990705282539
 20
13.94882608968306
 10
176.21079600473
 20
14.05233256764416
 10
176.2164241053
 20
14.17002125616694
 10
176.2237902178941
 20
14.30388609164424
 10
176.232075970161
 20
14.44764152872634
 10
176.2398851897426
 20
14.59714022843445
 10
176.2457571222659
 20
14.74792549402077
 10
176.2503667817969
 20
14.89699943878435
 10
176.2542632117542
 20
15.04122913163022
 10
176.2570715126563
 20
15.17583905213016
 10
176.2576698755022
 20
15.36469614347355
 10
176.261602386715
 20
15.58975494313153
 10
176.2442175378499
 20
15.86367091125708
 10
176.2850417342582
 20
16.02787112098597
 10
176.1995153256003
 20
16.22749661465093
 10
176.2660558907688
 20
16.22385458403975
 10
176.283872427323
 20
16.2241344716085
 10
176.4056801797508
 20
16.22632927398613
 10
176.5080770335459
 20
15.94675118721509
 10
176.7580021509357
 20
15.74563008536
 10
176.9870035331111
 20
15.47792614987916
 10
177.2245151213108
 20
15.22646413862374
 10
177.4486090740772
 20
14.98969974061358
 10
177.6750716283009
 20
14.7321869258308
 10
177.8325687886514
 20
14.61649335056923
 10
178.0472129612673
 20
14.27997152538792
 10
178.0422645974619
 20
14.40464754091603
 10
178.0433931602546
 20
14.46327691935737
 10
178.0428877841517
 20
14.55043662371976
 10
178.0430475158114
 20
14.64416143182872
 10
178.0430054891317
 20
14.73018971297034
 10
178.0430202040373
 20
14.79153891945495
 10
178.0429706255982
 20
14.9413523152099
 10
178.0458811522811
 20
15.17989612510105
 10
178.0259521041161
 20
15.54486509868702
 10
178.0750433936248
 20
15.80799631993413
 10
177.917795150918
 20
16.21928904947747
 10
178.0762112872422
 20
16.16398282551749
 10
178.1311680478628
 20
16.16199686500177
 10
178.182788776674
 20
16.16264778248253
 10
178.2713198965366
 20
16.20369527738244
 10
178.2204898303168
 20
16.05696326622983
 10
178.2313389930284
 20
15.9501997195443
 10
178.2166036994848
 20
15.7908570541411
 10
178.2099976446204
 20
15.62853061652873
 10
178.2014961399915
 20
15.45992521892396
 10
178.1943227202199
 20
15.29814814703542
 10
178.1889063215389
 20
15.15422331457933
 10
178.1871713967648
 20
15.03437493466924
 10
178.1875440672318
 20
14.92686101590514
 10
178.1873656126263
 20
14.81820024645585
 10
178.187701086314
 20
14.6995357016553
 10
178.1890040622186
 20
14.5755516351274
 10
178.1908887351574
 20
14.44858294171104
 10
178.1925004454851
 20
14.32153861551031
 10
178.194140313743
 20
14.19854884492177
 10
178.1962570745753
 20
14.0830093138376
 10
178.1963848422363
 20
13.98090903955837
 10
178.2006514396554
 20
13.89009848838155
 10
178.1908440085289
 20
13.83213621208784
 10
178.211847477169
 20
13.76517130132028
 10
178.1725639739897
 20
13.77291153966686
 10
177.9595307117747
 20
13.75755254145195
 10
177.7636297943187
 20
14.31403058094467
 10
177.4611197631544
 20
14.57556035348506
 10
177.3067935648021
 20
14.70898038201719
 97
        1
330
C1
 75
     1
 76
     2
 52
45.0
 41
0.1
 77
     0
 78
     1
 53
45.0
 43
0.0
 44
0.0
 45
-0.282842712474619
 46
0.0
 79
     0
 98
        1
 10
0.0
 20
0.0
  0
HATCH
  5
DF
330
48
100
AcDbEntity
  8
1
  6
Continuous
 62
     2
100
AcDbHatch
 10
0.0
 20
0.0
 30
0.0
210
0.0
220
0.0
230
1.0
  2
CUSTOM13
 70
     0
 71
     1
 91
        2
 92
        1
 93
        1
 72
     4
 94
        3
 73
     0
 74
     0
 95
       57
 96
       53
 40
0.0
 40
0.0
 40
0.0
 40
0.0
 40
0.0471632082808925
 40
0.0914861054632114
 40
0.135776251970235
 40
0.1826527001610644
 40
0.2295203288572269
 40
0.2737751972219586
 40
0.3181310461542734
 40
0.3652607198398432
 40
0.4571007286314147
 40
0.5671851029165037
 40
0.6894623283867957
 40
0.8181758272545715
 40
0.9510087229273639
 40
1.085852229674059
 40
1.218126164475318
 40
1.343545131142378
 40
1.454537202956794
 40
1.567187607530803
 40
1.680710966642393
 40
1.7942268697367
 40
1.900009184247557
 40
2.00408586044778
 40
2.108162674451724
 40
2.214000150155296
 40
2.496038577352129
 40
2.762350745479308
 40
2.99727535327943
 40
3.185110082137726
 40
3.246407890063951
 40
3.312607550212681
 40
3.378877742711582
 40
3.440140399651434
 40
4.100501696006436
 40
4.754913085563473
 40
5.411331693423873
 40
6.077890432568655
 40
6.110575292670934
 40
6.143260152775714
 40
6.367989363395113
 40
6.610525374951457
 40
6.863389136467235
 40
7.119380025547486
 40
7.37603660509104
 40
7.631164770966235
 40
7.87672242545636
 40
8.10495373585594
 40
8.312916685924222
 40
8.497730294941217
 40
8.651018984313763
 40
8.764738853624493
 40
8.764738853624493
 40
8.764738853624493
 40
8.764738853624493
 10
174.7922649500513
 20
13.81626739612929
 10
174.7766616726931
 20
13.81826231079079
 10
174.7463947960302
 20
13.82213201360299
 10
174.7010994202253
 20
13.82341984967263
 10
174.6559553129349
 20
13.82308683554047
 10
174.6099017123399
 20
13.82314658674219
 10
174.5640496172097
 20
13.82325813649997
 10
174.5183711648165
 20
13.82277833456584
 10
174.4750811541609
 20
13.82461109618723
 10
174.4039947951514
 20
13.80049556814659
 10
174.4057477261441
 20
13.92184693977252
 10
174.358619637057
 20
14.00726239751232
 10
174.3191478251762
 20
14.12486929345136
 10
174.2706635532645
 20
14.24232752540438
 10
174.2201017402521
 20
14.3640593576151
 10
174.1718634610477
 20
14.49075967862468
 10
174.1135232947594
 20
14.59933687784954
 10
174.0980892667262
 20
14.75620657134414
 10
173.9566586330635
 20
14.72373446548319
 10
173.8508397414904
 20
14.73512888682178
 10
173.7358569725222
 20
14.73392591514614
 10
173.6253142252141
 20
14.73506945347407
 10
173.5176583522783
 20
14.73418350037525
 10
173.4121322529243
 20
14.73416602390517
 10
173.3109192682013
 20
14.72714032472412
 10
173.1266804827753
 20
14.75135859859874
 10
173.1157393685413
 20
14.44741691121881
 10
173.008769163475
 20
14.22353177253397
 10
172.9098148604347
 20
14.03895314292495
 10
172.9225090524007
 20
13.79530204804209
 10
172.8050091716397
 20
13.82508046753197
 10
172.742205586831
 20
13.82258089509597
 10
172.67858720934
 20
13.82344075102805
 10
172.3946014194073
 20
13.78098039941952
 10
173.0251638499382
 20
14.50081952444783
 10
173.1087645289072
 20
15.01276539435721
 10
173.4929252789339
 20
15.53353743550043
 10
173.4777208288563
 20
16.23519626253209
 10
173.7239265722697
 20
16.22345633081254
 10
173.825634615756
 20
16.23225004452769
 10
173.8249752035818
 20
15.98059650730345
 10
173.9428317155828
 20
15.79818020733958
 10
174.0315515260485
 20
15.55563740662867
 10
174.1322292485259
 20
15.32340030530129
 10
174.2311142712243
 20
15.08674644566914
 10
174.3299676990669
 20
14.85461739170091
 10
174.4256166390926
 20
14.63122222788785
 10
174.5159904573272
 20
14.4227254904932
 10
174.5989944568189
 20
14.23308448529319
 10
174.6726088582799
 20
14.06663106068099
 10
174.7342815895546
 20
13.92917699626101
 10
174.7749458885604
 20
13.84999239430036
 10
174.7922649500513
 20
13.81626739612929
 97
        1
330
C3
 92
       16
 93
        1
 72
     4
 94
        3
 73
     0
 74
     0
 95
       25
 96
       21
 40
0.0
 40
0.0
 40
0.0
 40
0.0
 40
0.0911479969065387
 40
0.1858117896204659
 40
0.2804128399734485
 40
0.3715889190714505
 40
0.4679080494218703
 40
0.5642683809229222
 40
0.6605683222644985
 40
0.7569653015810244
 40
0.8561348172522695
 40
1.092615965104281
 40
1.374867658141858
 40
1.611348812011575
 40
1.71051832842522
 40
1.809403163726536
 40
2.045205463294031
 40
2.326646917622083
 40
2.562449217190539
 40
2.661334043833855
 40
2.661334043833855
 40
2.661334043833855
 40
2.661334043833855
 10
173.2683700567199
 20
14.88614538197288
 10
173.2987525917922
 20
14.88598079714552
 10
173.3606895889112
 20
14.88564528689921
 10
173.4541356960329
 20
14.88269055452001
 10
173.5475095236358
 20
14.87977752877152
 10
173.6417760753476
 20
14.87894201643415
 10
173.7354964790967
 20
14.87996644658047
 10
173.8352040303204
 20
14.87916977470967
 10
173.9188949546312
 20
14.88921410235219
 10
174.0637996315045
 20
14.8623461767416
 10
173.9396132444801
 20
15.03665530280045
 10
173.8965867286282
 20
15.19651711006086
 10
173.780892214221
 20
15.4551845855021
 10
173.7017565431256
 20
15.59231052861851
 10
173.6431576621816
 20
15.8093703313407
 10
173.5864803939438
 20
15.59266134213421
 10
173.5052809900478
 20
15.45327012438231
 10
173.4063701281487
 20
15.20406969370189
 10
173.325362509426
 20
15.0192583022607
 10
173.2813683325838
 20
14.91650446856112
 10
173.2683700567199
 20
14.88614538197288
 97
        1
330
C2
 75
     1
 76
     2
 52
45.0
 41
0.1
 77
     0
 78
     1
 53
45.0
 43
0.0
 44
0.0
 45
-0.282842712474619
 46
0.0
 79
     0
 98
        1
 10
0.0
 20
0.0
  0
HATCH
  5
E0
330
48
100
AcDbEntity
  8
1
  6
Continuous
 62
     2
100
AcDbHatch
 10
0.0
 20
0.0
 30
0.0
210
0.0
220
0.0
230
1.0
  2
CUSTOM14
 70
     0
 71
     1
 91
        1
 92
        1
 93
        1
 72
     4
 94
        3
 73
     0
 74
     0
 95
       99
 96
       95
 40
0.0
 40
0.0
 40
0.0
 40
0.0
 40
0.079641717227271
 40
0.1621768542356327
 40
0.2486489160957836
 40
0.3404969668524779
 40
0.4381912511165441
 40
0.5434463660245203
 40
0.6518115192847551
 40
0.7530190937887098
 40
0.849219691972542
 40
0.9419290312998404
 40
1.034249663570059
 40
1.129078600620217
 40
1.226697027573301
 40
1.327220425421745
 40
1.47057213493808
 40
1.595489863371288
 40
1.719934125348447
 40
1.850576620127391
 40
1.989059629987378
 40
2.134139054226995
 40
2.280698007207251
 40
2.424529739039536
 40
2.565929576985911
 40
2.708239260773634
 40
2.861717887443754
 40
3.045168540347385
 40
3.183798301138688
 40
3.314813961455533
 40
3.442083470447399
 40
3.569912708373092
 40
3.702177512509457
 40
3.842307559659586
 40
3.992872223246035
 40
4.156750662218366
 40
4.310981861107586
 40
4.445859909322627
 40
4.572393936131622
 40
4.701656719782011
 40
4.768279086008515
 40
4.835960697898434
 40
4.912788918729383
 40
5.006285208481577
 40
5.026909478751625
 40
5.047533749021133
 40
5.101808031471205
 40
5.162325165538509
 40
5.226919745995778
 40
5.294231806596713
 40
5.364544852554866
 40
5.438319055467898
 40
5.517877651324204
 40
5.607647714861543
 40
5.700449642544362
 40
5.788251142364018
 40
5.872714706039747
 40
5.955167292575278
 40
6.037192395190357
 40
6.120669181469057
 40
6.206848616686303
 40
6.296680855416756
 40
6.442558392872566
 40
6.568190371608261
 40
6.692904567360293
 40
6.824220446557032
 40
6.96312185032929
 40
7.107843738851086
 40
7.253431663907199
 40
7.395187468036619
 40
7.533140753237666
 40
7.670550457175173
 40
7.816236511769186
 40
7.987691657359145
 40
8.142277421969183
 40
8.293662615414927
 40
8.44296246087919
 40
8.591598316185221
 40
8.743678992361717
 40
8.903725323699106
 40
9.07630700889045
 40
9.265578604680504
 40
9.459203795360681
 40
9.617619810273462
 40
9.753609671361815
 40
9.874873300004003
 40
9.954520184977703
 40
10.02416413719234
 40
10.09769764405434
 40
10.18909955924964
 40
10.20974586420126
 40
10.23039218263371
 40
10.30057101881257
 40
10.37632012987533
 40
10.37632012987533
 40
10.37632012987533
 40
10.37632012987533
 10
170.1465954835851
 20
14.13795663215998
 10
170.1632217851219
 20
14.11720608845316
 10
170.1970784206577
 20
14.07495111711902
 10
170.2599822541036
 20
14.02029811392072
 10
170.3332500940393
 20
13.97299025121053
 10
170.4175969238636
 20
13.93527231437937
 10
170.5132240615459
 20
13.91040619731952
 10
170.6171853775347
 20
13.90309559345931
 10
170.7224020220405
 20
13.91142322794053
 10
170.8206626371334
 20
13.94149179651526
 10
170.9058986427548
 20
13.98848822971875
 10
170.9779220206103
 20
14.04952991250855
 10
171.0350917709096
 20
14.12412969578581
 10
171.076786874744
 20
14.21002464660174
 10
171.1026952846293
 20
14.30485850432209
 10
171.1118037332653
 20
14.41854979038368
 10
171.0986864796486
 20
14.54332587770779
 10
171.0325330334414
 20
14.66014719171894
 10
170.9369370919568
 20
14.74512539577372
 10
170.824968102237
 20
14.81416684459169
 10
170.6993659583269
 20
14.87204142045887
 10
170.5656691620856
 20
14.9237372328434
 10
170.4313122818831
 20
14.97899092397181
 10
170.3051983986877
 20
15.04939770641645
 10
170.1926579987535
 20
15.13785540731248
 10
170.0969963064457
 20
15.24981067868474
 10
170.0334157151826
 20
15.39949910101382
 10
170.0200706505016
 20
15.5593279438514
 10
170.0320510987449
 20
15.71048405306843
 10
170.071229892884
 20
15.83809244591539
 10
170.1354987750911
 20
15.95080874030847
 10
170.2238204999741
 20
16.04648609268679
 10
170.3338091207628
 20
16.12354214985752
 10
170.4632284401266
 20
16.18151396936284
 10
170.6111838967793
 20
16.21739177588818
 10
170.7682069455486
 20
16.2274671905056
 10
170.917494046643
 20
16.21863637762589
 10
171.059625361417
 20
16.19074899340355
 10
171.1595922609625
 20
16.13413314701138
 10
171.3125074736184
 20
16.08674602105508
 10
171.2455131717168
 20
16.00197553001185
 10
171.2296479120269
 20
15.93438901873485
 10
171.1978750531297
 20
15.86926092793192
 10
171.215020220957
 20
15.76723453256955
 10
171.1666427208232
 20
15.77493211681903
 10
171.1315789440766
 20
15.7680677172481
 10
171.1296697985718
 20
15.83263831158196
 10
171.0985692931989
 20
15.87825639621392
 10
171.0664551628456
 20
15.9356103662846
 10
171.0208038475167
 20
15.98540462692555
 10
170.9658508218387
 20
16.02994813718997
 10
170.9010841173007
 20
16.06763988836547
 10
170.8232377310597
 20
16.0928337579135
 10
170.7355160553352
 20
16.09931230998108
 10
170.6452903277807
 20
16.09235709285601
 10
170.5594594694065
 20
16.06909190460925
 10
170.4828343638596
 20
16.03131644107546
 10
170.4165265636201
 20
15.98051641089571
 10
170.3622560536964
 20
15.91731143407209
 10
170.3224925345459
 20
15.84276455710368
 10
170.2976775510588
 20
15.75917313997764
 10
170.289212426287
 20
15.65192948382284
 10
170.3019697987104
 20
15.52965457267557
 10
170.3681548409274
 20
15.41149724291217
 10
170.4640977399832
 20
15.32606325709529
 10
170.5757914963183
 20
15.25583362306729
 10
170.7010863668702
 20
15.19659162305304
 10
170.8349823941447
 20
15.14616708086131
 10
170.9689930333149
 20
15.0932251698438
 10
171.0950885316915
 20
15.02750170625175
 10
171.2076216638417
 20
14.94480352537322
 10
171.3031370284233
 20
14.83996006310072
 10
171.3672706486963
 20
14.69937117251568
 10
171.3811103725279
 20
14.54065409451591
 10
171.367395471223
 20
14.38153155217874
 10
171.3244739153984
 20
14.2348382881921
 10
171.2545906329066
 20
14.10119796587142
 10
171.1574592213829
 20
13.98532387699294
 10
171.0347806023657
 20
13.89089981770086
 10
170.8874408413168
 20
13.82179270651979
 10
170.7177132497124
 20
13.77953210858854
 10
170.5317404979596
 20
13.76781736230404
 10
170.3528955926183
 20
13.77809486683439
 10
170.1881733753743
 20
13.81966573769148
 10
170.0834410841057
 20
13.88797642883946
 10
169.9350960790365
 20
13.93675219032107
 10
169.9980378194729
 20
14.02976591290839
 10
170.0072274430059
 20
14.10296536248278
 10
170.0303711301231
 20
14.16936294501343
 10
170.0034588335317
 20
14.26974809527581
 10
170.0521338956338
 20
14.26234033517378
 10
170.0916530580697
 20
14.26894063620895
 10
170.0996204944701
 20
14.19078703218932
 10
170.1305436967923
 20
14.15600927375859
 10
170.1465954835851
 20
14.13795663215998
 97
        1
330
C4
 75
     1
 76
     2
 52
45.0
 41
0.1
 77
     0
 78
     1
 53
45.0
 43
0.0
 44
0.0
 45
-0.282842712474619
 46
0.0
 79
     0
 98
        1
 10
0.0
 20
0.0
  0
ENDBLK
  5
4A
330
48
100
AcDbEntity
  8
0
100
AcDbBlockEnd
  0
BLOCK
  5
4D
330
4B
100
AcDbEntity
  8
0
100
AcDbBlockBegin
  2
開示A4枠
 70
     0
 10
0.0
 20
0.0
 30
0.0
  3
開示A4枠
  1

  0
INSERT
  5
4C
330
4B
100
AcDbEntity
  8
1
100
AcDbBlockReference
  2
開示A4
 10
0.0
 20
0.0
 30
0.0
  0
ENDBLK
  5
4E
330
4B
100
AcDbEntity
  8
0
100
AcDbBlockEnd
  0
BLOCK
  5
50
330
4F
100
AcDbEntity
  8
0
100
AcDbBlockBegin
  2
35-85__1
 70
     0
 10
61.60830433596046
 20
98.30412378905186
 30
0.0
  3
35-85__1
  1

  0
LINE
  5
E1
330
4F
100
AcDbEntity
  8
1
  6
Continuous
 62
     7
100
AcDbLine
 10
68.55485505041075
 20
181.8518957353937
 30
0.0
 11
61.680991507977
 21
193.7577766351843
 31
0.0
  0
LINE
  5
E2
330
4F
100
AcDbEntity
  8
1
  6
Continuous
 62
     7
100
AcDbLine
 10
61.680991507977
 20
196.8518957353937
 30
0.0
 11
68.55485505041075
 21
208.7577766351843
 31
0.0
  0
LINE
  5
E3
330
4F
100
AcDbEntity
  8
1
  6
Continuous
 62
     7
100
AcDbLine
 10
71.2344407935267
 20
210.304836185289
 30
0.0
 11
84.98216787839421
 21
210.304836185289
 31
0.0
  0
LINE
  5
E4
330
4F
100
AcDbEntity
  8
1
  6
Continuous
 62
     7
100
AcDbLine
 10
87.66175362151016
 20
208.7577766351843
 30
0.0
 11
94.53561716394387
 21
196.8518957353937
 31
0.0
  0
LINE
  5
E5
330
4F
100
AcDbEntity
  8
1
  6
Continuous
 62
     7
100
AcDbLine
 10
94.53561716394387
 20
193.7577766351843
 30
0.0
 11
87.66175362151016
 21
181.8518957353937
 31
0.0
  0
LINE
  5
E6
330
4F
100
AcDbEntity
  8
1
  6
Continuous
 62
     7
100
AcDbLine
 10
84.98216787839421
 20
180.304836185289
 30
0.0
 11
71.2344407935267
 21
180.304836185289
 31
0.0
  0
ARC
  5
E7
330
4F
100
AcDbEntity
  8
1
  6
Continuous
 62
     7
100
AcDbCircle
 10
78.10830433596045
 20
195.304836185289
 30
0.0
 40
16.49999999999998
100
AcDbArc
 50
234.619977328657
 51
245.3800226713429
  0
ARC
  5
E8
330
4F
100
AcDbEntity
  8
1
  6
Continuous
 62
     7
100
AcDbCircle
 10
78.10830433596045
 20
195.304836185289
 30
0.0
 40
16.49999999999999
100
AcDbArc
 50
180.0
 51
185.3800226713429
  0
ARC
  5
E9
330
4F
100
AcDbEntity
  8
1
  6
Continuous
 62
     7
100
AcDbCircle
 10
78.10830433596045
 20
195.304836185289
 30
0.0
 40
16.5
100
AcDbArc
 50
114.6199773286571
 51
125.3800226713429
  0
ARC
  5
EA
330
4F
100
AcDbEntity
  8
1
  6
Continuous
 62
     7
100
AcDbCircle
 10
78.10830433596045
 20
195.304836185289
 30
0.0
 40
16.5
100
AcDbArc
 50
54.61997732865708
 51
65.38002267134293
  0
ARC
  5
EB
330
4F
100
AcDbEntity
  8
1
  6
Continuous
 62
     7
100
AcDbCircle
 10
78.10830433596045
 20
195.304836185289
 30
0.0
 40
16.50000000000001
100
AcDbArc
 50
0.0
 51
5.38002267134303
  0
ARC
  5
EC
330
4F
100
AcDbEntity
  8
1
  6
Continuous
 62
     7
100
AcDbCircle
 10
78.10830433596045
 20
195.304836185289
 30
0.0
 40
16.5
100
AcDbArc
 50
294.6199773286571
 51
305.3800226713429
  0
ARC
  5
ED
330
4F
100
AcDbEntity
  8
1
  6
Continuous
 62
     7
100
AcDbCircle
 10
78.10830433596045
 20
195.304836185289
 30
0.0
 40
16.49999999999995
100
AcDbArc
 50
354.6199773286571
 51
0.0
  0
ARC
  5
EE
330
4F
100
AcDbEntity
  8
1
  6
Continuous
 62
     7
100
AcDbCircle
 10
78.10830433596045
 20
195.304836185289
 30
0.0
 40
16.5
100
AcDbArc
 50
174.619977328657
 51
180.0
  0
CIRCLE
  5
EF
330
4F
100
AcDbEntity
  8
1
  6
Continuous
 62
     7
100
AcDbCircle
 10
78.10830433596045
 20
195.304836185289
 30
0.0
 40
15.00000000000001
  0
CIRCLE
  5
F0
330
4F
100
AcDbEntity
  8
1
  6
Continuous
 62
     7
100
AcDbCircle
 10
78.10830433596045
 20
195.304836185289
 30
0.0
 40
14.00000000000001
  0
CIRCLE
  5
F1
330
4F
100
AcDbEntity
  8
1
  6
Continuous
 62
     2
100
AcDbCircle
 10
78.10830433596045
 20
195.304836185289
 30
0.0
 40
13.09600000000002
  0
ENDBLK
  5
51
330
4F
100
AcDbEntity
  8
0
100
AcDbBlockEnd
  0
BLOCK
  5
53
330
52
100
AcDbEntity
  8
0
100
AcDbBlockBegin
  2
92-35__2
 70
     0
 10
86.10830433596045
 20
119.304836185289
 30
0.0
  3
92-35__2
  1

  0
CIRCLE
  5
F2
330
52
100
AcDbEntity
  8
1
  6
Continuous
 62
     7
100
AcDbCircle
 10
78.10830433596045
 20
195.304836185289
 30
0.0
 40
8.0
  0
ENDBLK
  5
54
330
52
100
AcDbEntity
  8
0
100
AcDbBlockEnd
  0
BLOCK
  5
56
330
55
100
AcDbEntity
  8
0
100
AcDbBlockBegin
  2
35-85__3
 70
     0
 10
61.60830433596046
 20
98.30412378905186
 30
0.0
  3
35-85__3
  1

  0
LINE
  5
F3
330
55
100
AcDbEntity
  8
1
  6
Continuous
 62
     7
100
AcDbLine
 10
181.7233244905643
 20
99.80483618528899
 30
0.0
 11
183.1083043359605
 21
99.80483618528899
 31
0.0
  0
LINE
  5
F4
330
55
100
AcDbEntity
  8
1
  6
Continuous
 62
     7
100
AcDbLine
 10
181.7233244905643
 20
99.80483618528899
 30
0.0
 11
181.7233244905643
 21
108.804836185289
 31
0.0
  0
LINE
  5
F5
330
55
100
AcDbEntity
  8
1
  6
Continuous
 62
     7
100
AcDbLine
 10
181.7233244905643
 20
99.80483618528899
 30
0.0
 11
181.7233244905643
 21
108.804836185289
 31
0.0
  0
LINE
  5
F6
330
55
100
AcDbEntity
  8
1
  6
Continuous
 62
     7
100
AcDbLine
 10
181.7233244905643
 20
108.804836185289
 30
0.0
 11
183.1083043359605
 21
108.804836185289
 31
0.0
  0
LINE
  5
F7
330
55
100
AcDbEntity
  8
1
  6
Continuous
 62
     7
100
AcDbLine
 10
181.7233244905643
 20
99.80483618528899
 30
0.0
 11
181.7233244905643
 21
108.804836185289
 31
0.0
  0
LINE
  5
F8
330
55
100
AcDbEntity
  8
1
  6
Continuous
 62
     7
100
AcDbLine
 10
153.1083043359605
 20
99.80483618528899
 30
0.0
 11
154.4932841813567
 21
99.80483618528899
 31
0.0
  0
LINE
  5
F9
330
55
100
AcDbEntity
  8
1
  6
Continuous
 62
     7
100
AcDbLine
 10
154.4932841813567
 20
108.804836185289
 30
0.0
 11
154.4932841813567
 21
99.80483618528899
 31
0.0
  0
LINE
  5
FA
330
55
100
AcDbEntity
  8
1
  6
Continuous
 62
     7
100
AcDbLine
 10
153.1083043359605
 20
108.804836185289
 30
0.0
 11
154.4932841813567
 21
108.804836185289
 31
0.0
  0
LINE
  5
FB
330
55
100
AcDbEntity
  8
1
  6
Continuous
 62
     7
100
AcDbLine
 10
154.4932841813567
 20
108.804836185289
 30
0.0
 11
154.4932841813567
 21
99.80483618528899
 31
0.0
  0
LINE
  5
FC
330
55
100
AcDbEntity
  8
1
  6
Continuous
 62
     7
100
AcDbLine
 10
168.1083043359605
 20
98.30483618528899
 30
0.0
 11
153.1083043359605
 21
98.30483618528899
 31
0.0
  0
LINE
  5
FD
330
55
100
AcDbEntity
  8
1
  6
Continuous
 62
     7
100
AcDbLine
 10
154.1083043359605
 20
111.8706101153313
 30
0.0
 11
154.1083043359605
 21
118.400836185289
 31
0.0
  0
LINE
  5
FE
330
55
100
AcDbEntity
  8
1
  6
Continuous
 62
     7
100
AcDbLine
 10
155.0123043359605
 20
111.8706101153313
 30
0.0
 11
154.1083043359605
 21
111.8706101153313
 31
0.0
  0
LINE
  5
FF
330
55
100
AcDbEntity
  8
1
  6
Continuous
 62
     7
100
AcDbLine
 10
181.2043043359605
 20
111.8706101153313
 30
0.0
 11
155.0123043359605
 21
111.8706101153313
 31
0.0
  0
LINE
  5
100
330
55
100
AcDbEntity
  8
1
  6
Continuous
 62
     7
100
AcDbLine
 10
182.1083043359605
 20
111.8706101153313
 30
0.0
 11
182.1083043359605
 21
110.304836185289
 31
0.0
  0
LINE
  5
101
330
55
100
AcDbEntity
  8
1
  6
Continuous
 62
     7
100
AcDbLine
 10
181.2043043359605
 20
111.8706101153313
 30
0.0
 11
182.1083043359605
 21
111.8706101153313
 31
0.0
  0
LINE
  5
102
330
55
100
AcDbEntity
  8
1
  6
Continuous
 62
     7
100
AcDbLine
 10
154.1083043359605
 20
118.400836185289
 30
0.0
 11
182.1083043359605
 21
118.400836185289
 31
0.0
  0
LINE
  5
103
330
55
100
AcDbEntity
  8
1
  6
Continuous
 62
     7
100
AcDbLine
 10
64.10830433596045
 20
111.8706101153313
 30
0.0
 11
64.10830433596045
 21
118.400836185289
 31
0.0
  0
LINE
  5
104
330
55
100
AcDbEntity
  8
1
  6
Continuous
 62
     7
100
AcDbLine
 10
65.01230433596045
 20
111.8706101153313
 30
0.0
 11
64.10830433596045
 21
111.8706101153313
 31
0.0
  0
LINE
  5
105
330
55
100
AcDbEntity
  8
1
  6
Continuous
 62
     7
100
AcDbLine
 10
92.10830433596047
 20
111.8706101153313
 30
0.0
 11
92.10830433596047
 21
110.304836185289
 31
0.0
  0
LINE
  5
106
330
55
100
AcDbEntity
  8
1
  6
Continuous
 62
     7
100
AcDbLine
 10
91.20430433596047
 20
111.8706101153313
 30
0.0
 11
92.10830433596047
 21
111.8706101153313
 31
0.0
  0
LINE
  5
107
330
55
100
AcDbEntity
  8
1
  6
Continuous
 62
     7
100
AcDbLine
 10
65.01230433596045
 20
111.8706101153313
 30
0.0
 11
91.20430433596047
 21
111.8706101153313
 31
0.0
  0
LINE
  5
108
330
55
100
AcDbEntity
  8
1
  6
Continuous
 62
     7
100
AcDbLine
 10
92.10830433596047
 20
118.400836185289
 30
0.0
 11
92.10830433596047
 21
111.8706101153313
 31
0.0
  0
LINE
  5
109
330
55
100
AcDbEntity
  8
1
  6
Continuous
 62
     7
100
AcDbLine
 10
64.10830433596045
 20
118.400836185289
 30
0.0
 11
92.10830433596047
 21
118.400836185289
 31
0.0
  0
LINE
  5
10A
330
55
100
AcDbEntity
  8
1
  6
Continuous
 62
     7
100
AcDbLine
 10
64.10830433596045
 20
110.304836185289
 30
0.0
 11
64.10830433596045
 21
111.8706101153313
 31
0.0
  0
LINE
  5
10B
330
55
100
AcDbEntity
  8
1
  6
Continuous
 62
     7
100
AcDbLine
 10
181.1083043359605
 20
119.304836185289
 30
0.0
 11
168.1083043359605
 21
119.304836185289
 31
0.0
  0
LINE
  5
10C
330
55
100
AcDbEntity
  8
1
  6
Continuous
 62
     7
100
AcDbLine
 10
183.1083043359605
 20
110.304836185289
 30
0.0
 11
168.1083043359605
 21
110.304836185289
 31
0.0
  0
LINE
  5
10D
330
55
100
AcDbEntity
  8
1
  6
Continuous
 62
     7
100
AcDbLine
 10
183.1083043359605
 20
98.30483618528899
 30
0.0
 11
168.1083043359605
 21
98.30483618528899
 31
0.0
  0
LINE
  5
10E
330
55
100
AcDbEntity
  8
1
  6
Continuous
 62
     7
100
AcDbLine
 10
183.1083043359605
 20
98.30483618528899
 30
0.0
 11
181.6083043359605
 21
98.30483618528899
 31
0.0
  0
LINE
  5
10F
330
55
100
AcDbEntity
  8
1
  6
Continuous
 62
     7
100
AcDbLine
 10
183.1083043359605
 20
110.304836185289
 30
0.0
 11
183.1083043359605
 21
98.30483618528899
 31
0.0
  0
LINE
  5
110
330
55
100
AcDbEntity
  8
1
  6
Continuous
 62
     7
100
AcDbLine
 10
166.7233244905643
 20
108.804836185289
 30
0.0
 11
169.4932841813567
 21
108.804836185289
 31
0.0
  0
LINE
  5
111
330
55
100
AcDbEntity
  8
1
  6
Continuous
 62
     7
100
AcDbLine
 10
166.7233244905643
 20
99.80483618528899
 30
0.0
 11
169.4932841813567
 21
99.80483618528899
 31
0.0
  0
LINE
  5
112
330
55
100
AcDbEntity
  8
1
  6
Continuous
 62
     7
100
AcDbLine
 10
169.4932841813567
 20
108.804836185289
 30
0.0
 11
169.4932841813567
 21
99.80483618528899
 31
0.0
  0
LINE
  5
113
330
55
100
AcDbEntity
  8
1
  6
Continuous
 62
     7
100
AcDbLine
 10
166.7233244905643
 20
99.80483618528899
 30
0.0
 11
166.7233244905643
 21
108.804836185289
 31
0.0
  0
LINE
  5
114
330
55
100
AcDbEntity
  8
1
  6
Continuous
 62
     7
100
AcDbLine
 10
182.1083043359605
 20
118.400836185289
 30
0.0
 11
181.2043043359605
 21
119.304836185289
 31
0.0
  0
LINE
  5
115
330
55
100
AcDbEntity
  8
1
  6
Continuous
 62
     2
100
AcDbLine
 10
181.2043043359605
 20
111.8706101153313
 30
0.0
 11
181.2043043359605
 21
119.304836185289
 31
0.0
  0
LINE
  5
116
330
55
100
AcDbEntity
  8
1
  6
Continuous
 62
     2
100
AcDbLine
 10
182.1083043359605
 20
110.304836185289
 30
0.0
 11
181.2043043359605
 21
111.8706101153313
 31
0.0
  0
LINE
  5
117
330
55
100
AcDbEntity
  8
1
  6
Continuous
 62
     7
100
AcDbLine
 10
182.1083043359605
 20
118.400836185289
 30
0.0
 11
182.1083043359605
 21
111.8706101153313
 31
0.0
  0
LINE
  5
118
330
55
100
AcDbEntity
  8
1
  6
Continuous
 62
     7
100
AcDbLine
 10
168.1083043359605
 20
119.304836185289
 30
0.0
 11
155.1083043359605
 21
119.304836185289
 31
0.0
  0
LINE
  5
119
330
55
100
AcDbEntity
  8
1
  6
Continuous
 62
     7
100
AcDbLine
 10
168.1083043359605
 20
110.304836185289
 30
0.0
 11
153.1083043359605
 21
110.304836185289
 31
0.0
  0
LINE
  5
11A
330
55
100
AcDbEntity
  8
1
  6
Continuous
 62
     7
100
AcDbLine
 10
153.1083043359605
 20
98.30483618528899
 30
0.0
 11
153.1083043359605
 21
110.304836185289
 31
0.0
  0
LINE
  5
11B
330
55
100
AcDbEntity
  8
1
  6
Continuous
 62
     7
100
AcDbLine
 10
155.0123043359605
 20
119.304836185289
 30
0.0
 11
154.1083043359605
 21
118.400836185289
 31
0.0
  0
LINE
  5
11C
330
55
100
AcDbEntity
  8
1
  6
Continuous
 62
     2
100
AcDbLine
 10
155.0123043359605
 20
119.304836185289
 30
0.0
 11
155.0123043359605
 21
111.8706101153313
 31
0.0
  0
LINE
  5
11D
330
55
100
AcDbEntity
  8
1
  6
Continuous
 62
     2
100
AcDbLine
 10
155.0123043359605
 20
111.8706101153313
 30
0.0
 11
154.1083043359605
 21
110.304836185289
 31
0.0
  0
LINE
  5
11E
330
55
100
AcDbEntity
  8
1
  6
Continuous
 62
     7
100
AcDbLine
 10
154.1083043359605
 20
110.304836185289
 30
0.0
 11
154.1083043359605
 21
111.8706101153313
 31
0.0
  0
LINE
  5
11F
330
55
100
AcDbEntity
  8
1
  6
Continuous
 62
     7
100
AcDbLine
 10
91.10830433596047
 20
119.304836185289
 30
0.0
 11
78.10830433596045
 21
119.304836185289
 31
0.0
  0
LINE
  5
120
330
55
100
AcDbEntity
  8
1
  6
Continuous
 62
     7
100
AcDbLine
 10
93.10830433596047
 20
110.304836185289
 30
0.0
 11
78.10830433596045
 21
110.304836185289
 31
0.0
  0
LINE
  5
121
330
55
100
AcDbEntity
  8
1
  6
Continuous
 62
     7
100
AcDbLine
 10
91.60830433596047
 20
98.30483618528899
 30
0.0
 11
78.10830433596045
 21
98.30483618528899
 31
0.0
  0
LINE
  5
122
330
55
100
AcDbEntity
  8
1
  6
Continuous
 62
     7
100
AcDbLine
 10
93.10830433596047
 20
98.30483618528899
 30
0.0
 11
91.60830433596047
 21
98.30483618528899
 31
0.0
  0
LINE
  5
123
330
55
100
AcDbEntity
  8
1
  6
Continuous
 62
     7
100
AcDbLine
 10
94.60830433596047
 20
108.804836185289
 30
0.0
 11
94.60830433596047
 21
99.80483618528899
 31
0.0
  0
LINE
  5
124
330
55
100
AcDbEntity
  8
1
  6
Continuous
 62
     7
100
AcDbLine
 10
94.60830433596047
 20
108.804836185289
 30
0.0
 11
93.10830433596047
 21
110.304836185289
 31
0.0
  0
LINE
  5
125
330
55
100
AcDbEntity
  8
1
  6
Continuous
 62
     7
100
AcDbLine
 10
93.10830433596047
 20
98.30483618528899
 30
0.0
 11
94.60830433596047
 21
99.80483618528899
 31
0.0
  0
LINE
  5
126
330
55
100
AcDbEntity
  8
1
  6
Continuous
 62
     7
100
AcDbLine
 10
84.98216787839421
 20
108.804836185289
 30
0.0
 11
87.75212756918661
 21
108.804836185289
 31
0.0
  0
LINE
  5
127
330
55
100
AcDbEntity
  8
1
  6
Continuous
 62
     7
100
AcDbLine
 10
84.98216787839421
 20
99.80483618528899
 30
0.0
 11
87.75212756918661
 21
99.80483618528899
 31
0.0
  0
LINE
  5
128
330
55
100
AcDbEntity
  8
1
  6
Continuous
 62
     7
100
AcDbLine
 10
87.75212756918661
 20
108.804836185289
 30
0.0
 11
87.75212756918661
 21
99.80483618528899
 31
0.0
  0
LINE
  5
129
330
55
100
AcDbEntity
  8
1
  6
Continuous
 62
     7
100
AcDbLine
 10
84.98216787839421
 20
99.80483618528899
 30
0.0
 11
84.98216787839421
 21
108.804836185289
 31
0.0
  0
LINE
  5
12A
330
55
100
AcDbEntity
  8
1
  6
Continuous
 62
     7
100
AcDbLine
 10
92.10830433596047
 20
118.400836185289
 30
0.0
 11
91.20430433596047
 21
119.304836185289
 31
0.0
  0
LINE
  5
12B
330
55
100
AcDbEntity
  8
1
  6
Continuous
 62
     2
100
AcDbLine
 10
91.20430433596047
 20
111.8706101153313
 30
0.0
 11
91.20430433596047
 21
119.304836185289
 31
0.0
  0
LINE
  5
12C
330
55
100
AcDbEntity
  8
1
  6
Continuous
 62
     2
100
AcDbLine
 10
92.10830433596047
 20
110.304836185289
 30
0.0
 11
91.20430433596047
 21
111.8706101153313
 31
0.0
  0
LINE
  5
12D
330
55
100
AcDbEntity
  8
1
  6
Continuous
 62
     7
100
AcDbLine
 10
78.10830433596045
 20
119.304836185289
 30
0.0
 11
65.10830433596045
 21
119.304836185289
 31
0.0
  0
LINE
  5
12E
330
55
100
AcDbEntity
  8
1
  6
Continuous
 62
     7
100
AcDbLine
 10
78.10830433596045
 20
110.304836185289
 30
0.0
 11
63.10830433596046
 21
110.304836185289
 31
0.0
  0
LINE
  5
12F
330
55
100
AcDbEntity
  8
1
  6
Continuous
 62
     7
100
AcDbLine
 10
78.10830433596045
 20
98.30483618528899
 30
0.0
 11
64.60830433596045
 21
98.30483618528899
 31
0.0
  0
LINE
  5
130
330
55
100
AcDbEntity
  8
1
  6
Continuous
 62
     7
100
AcDbLine
 10
64.60830433596045
 20
98.30483618528899
 30
0.0
 11
63.10830433596046
 21
98.30483618528899
 31
0.0
  0
LINE
  5
131
330
55
100
AcDbEntity
  8
1
  6
Continuous
 62
     7
100
AcDbLine
 10
61.60830433596046
 20
99.80483618528899
 30
0.0
 11
61.60830433596046
 21
108.804836185289
 31
0.0
  0
LINE
  5
132
330
55
100
AcDbEntity
  8
1
  6
Continuous
 62
     7
100
AcDbLine
 10
63.10830433596046
 20
110.304836185289
 30
0.0
 11
61.60830433596046
 21
108.804836185289
 31
0.0
  0
LINE
  5
133
330
55
100
AcDbEntity
  8
1
  6
Continuous
 62
     7
100
AcDbLine
 10
61.60830433596046
 20
99.80483618528899
 30
0.0
 11
63.10830433596046
 21
98.30483618528899
 31
0.0
  0
LINE
  5
134
330
55
100
AcDbEntity
  8
1
  6
Continuous
 62
     7
100
AcDbLine
 10
68.4644811027343
 20
108.804836185289
 30
0.0
 11
71.2344407935267
 21
108.804836185289
 31
0.0
  0
LINE
  5
135
330
55
100
AcDbEntity
  8
1
  6
Continuous
 62
     7
100
AcDbLine
 10
68.4644811027343
 20
99.80483618528899
 30
0.0
 11
71.2344407935267
 21
99.80483618528899
 31
0.0
  0
LINE
  5
136
330
55
100
AcDbEntity
  8
1
  6
Continuous
 62
     7
100
AcDbLine
 10
68.4644811027343
 20
99.80483618528899
 30
0.0
 11
68.4644811027343
 21
108.804836185289
 31
0.0
  0
LINE
  5
137
330
55
100
AcDbEntity
  8
1
  6
Continuous
 62
     7
100
AcDbLine
 10
71.2344407935267
 20
108.804836185289
 30
0.0
 11
71.2344407935267
 21
99.80483618528899
 31
0.0
  0
LINE
  5
138
330
55
100
AcDbEntity
  8
1
  6
Continuous
 62
     7
100
AcDbLine
 10
65.01230433596045
 20
119.304836185289
 30
0.0
 11
64.10830433596045
 21
118.400836185289
 31
0.0
  0
LINE
  5
139
330
55
100
AcDbEntity
  8
1
  6
Continuous
 62
     2
100
AcDbLine
 10
65.01230433596045
 20
119.304836185289
 30
0.0
 11
65.01230433596045
 21
111.8706101153313
 31
0.0
  0
LINE
  5
13A
330
55
100
AcDbEntity
  8
1
  6
Continuous
 62
     2
100
AcDbLine
 10
65.01230433596045
 20
111.8706101153313
 30
0.0
 11
64.10830433596045
 21
110.304836185289
 31
0.0
  0
ARC
  5
13B
330
55
100
AcDbEntity
  8
1
  6
Continuous
 62
     7
100
AcDbCircle
 10
175.6083043359605
 20
95.4796535266851
 30
0.0
 40
14.6613084128385
100
AcDbArc
 50
65.3492765023162
 51
114.6507234976838
  0
ARC
  5
13C
330
55
100
AcDbEntity
  8
1
  6
Continuous
 62
     7
100
AcDbCircle
 10
175.6083043359605
 20
113.1300188438929
 30
0.0
 40
14.6613084128385
100
AcDbArc
 50
245.3492765023162
 51
294.6507234976838
  0
ARC
  5
13D
330
55
100
AcDbEntity
  8
1
  6
Continuous
 62
     7
100
AcDbCircle
 10
160.6083043359605
 20
113.1300188438929
 30
0.0
 40
14.6613084128385
100
AcDbArc
 50
245.3492765023162
 51
294.6507234976838
  0
ARC
  5
13E
330
55
100
AcDbEntity
  8
1
  6
Continuous
 62
     7
100
AcDbCircle
 10
160.6083043359605
 20
95.4796535266851
 30
0.0
 40
14.6613084128385
100
AcDbArc
 50
65.3492765023162
 51
114.6507234976838
  0
ARC
  5
13F
330
55
100
AcDbEntity
  8
1
  6
Continuous
 62
     7
100
AcDbCircle
 10
91.18021595257356
 20
105.6397886079145
 30
0.0
 40
4.665759973611642
100
AcDbArc
 50
42.71533008181213
 51
137.2846699181882
  0
ARC
  5
140
330
55
100
AcDbEntity
  8
1
  6
Continuous
 62
     7
100
AcDbCircle
 10
78.10830433596045
 20
93.80483618528899
 30
0.0
 40
16.50000000000001
100
AcDbArc
 50
65.38002267134294
 51
90.0
  0
ARC
  5
141
330
55
100
AcDbEntity
  8
1
  6
Continuous
 62
     7
100
AcDbCircle
 10
78.10830433596045
 20
114.804836185289
 30
0.0
 40
16.50000000000001
100
AcDbArc
 50
270.0
 51
294.619977328657
  0
ARC
  5
142
330
55
100
AcDbEntity
  8
1
  6
Continuous
 62
     7
100
AcDbCircle
 10
91.18021595257356
 20
102.9698837626635
 30
0.0
 40
4.665759973611673
100
AcDbArc
 50
222.7153300818118
 51
317.2846699181878
  0
ARC
  5
143
330
55
100
AcDbEntity
  8
1
  6
Continuous
 62
     7
100
AcDbCircle
 10
65.03639271934738
 20
105.6397886079145
 30
0.0
 40
4.665759973611651
100
AcDbArc
 50
42.71533008181202
 51
137.2846699181879
  0
ARC
  5
144
330
55
100
AcDbEntity
  8
1
  6
Continuous
 62
     7
100
AcDbCircle
 10
78.10830433596045
 20
93.80483618528899
 30
0.0
 40
16.50000000000001
100
AcDbArc
 50
90.0
 51
114.6199773286571
  0
ARC
  5
145
330
55
100
AcDbEntity
  8
1
  6
Continuous
 62
     7
100
AcDbCircle
 10
78.10830433596045
 20
114.804836185289
 30
0.0
 40
16.50000000000001
100
AcDbArc
 50
245.380022671343
 51
270.0
  0
ARC
  5
146
330
55
100
AcDbEntity
  8
1
  6
Continuous
 62
     7
100
AcDbCircle
 10
65.03639271934738
 20
102.9698837626635
 30
0.0
 40
4.665759973611646
100
AcDbArc
 50
222.7153300818121
 51
317.284669918188
  0
ENDBLK
  5
57
330
55
100
AcDbEntity
  8
0
100
AcDbBlockEnd
  0
BLOCK
  5
59
330
58
100
AcDbEntity
  8
0
100
AcDbBlockBegin
  2
92-35__4
 70
     0
 10
65.10830433596045
 20
119.304836185289
 30
0.0
  3
92-35__4
  1

  0
LINE
  5
147
330
58
100
AcDbEntity
  8
1
  6
Continuous
 62
     7
100
AcDbLine
 10
86.10830433596045
 20
119.304836185289
 30
0.0
 11
65.10830433596045
 21
119.304836185289
 31
0.0
  0
ENDBLK
  5
5A
330
58
100
AcDbEntity
  8
0
100
AcDbBlockEnd
  0
BLOCK
  5
5C
330
5B
100
AcDbEntity
  8
0
100
AcDbBlockBegin
  2
92-35__5
 70
     0
 10
70.10830433596045
 20
119.304836185289
 30
0.0
  3
92-35__5
  1

  0
LINE
  5
148
330
5B
100
AcDbEntity
  8
1
  6
Continuous
 62
     7
100
AcDbLine
 10
168.1083043359605
 20
119.304836185289
 30
0.0
 11
181.1083043359605
 21
119.304836185289
 31
0.0
  0
LINE
  5
149
330
5B
100
AcDbEntity
  8
1
  6
Continuous
 62
     7
100
AcDbLine
 10
181.1083043359605
 20
119.304836185289
 30
0.0
 11
181.1083043359605
 21
121.304836185289
 31
0.0
  0
LINE
  5
14A
330
5B
100
AcDbEntity
  8
1
  6
Continuous
 62
     7
100
AcDbLine
 10
181.1083043359605
 20
121.304836185289
 30
0.0
 11
168.1083043359605
 21
121.304836185289
 31
0.0
  0
LINE
  5
14B
330
5B
100
AcDbEntity
  8
1
  6
Continuous
 62
     7
100
AcDbLine
 10
155.1083043359605
 20
119.304836185289
 30
0.0
 11
168.1083043359605
 21
119.304836185289
 31
0.0
  0
LINE
  5
14C
330
5B
100
AcDbEntity
  8
1
  6
Continuous
 62
     7
100
AcDbLine
 10
155.1083043359605
 20
121.304836185289
 30
0.0
 11
155.1083043359605
 21
119.304836185289
 31
0.0
  0
LINE
  5
14D
330
5B
100
AcDbEntity
  8
1
  6
Continuous
 62
     7
100
AcDbLine
 10
168.1083043359605
 20
121.304836185289
 30
0.0
 11
155.1083043359605
 21
121.304836185289
 31
0.0
  0
LINE
  5
14E
330
5B
100
AcDbEntity
  8
1
  6
Continuous
 62
     7
100
AcDbLine
 10
78.10830433596045
 20
119.304836185289
 30
0.0
 11
91.10830433596047
 21
119.304836185289
 31
0.0
  0
LINE
  5
14F
330
5B
100
AcDbEntity
  8
1
  6
Continuous
 62
     7
100
AcDbLine
 10
91.10830433596047
 20
119.304836185289
 30
0.0
 11
91.10830433596047
 21
121.304836185289
 31
0.0
  0
LINE
  5
150
330
5B
100
AcDbEntity
  8
1
  6
Continuous
 62
     7
100
AcDbLine
 10
91.10830433596047
 20
121.304836185289
 30
0.0
 11
78.10830433596045
 21
121.304836185289
 31
0.0
  0
LINE
  5
151
330
5B
100
AcDbEntity
  8
1
  6
Continuous
 62
     7
100
AcDbLine
 10
65.10830433596045
 20
119.304836185289
 30
0.0
 11
78.10830433596045
 21
119.304836185289
 31
0.0
  0
LINE
  5
152
330
5B
100
AcDbEntity
  8
1
  6
Continuous
 62
     7
100
AcDbLine
 10
65.10830433596045
 20
121.304836185289
 30
0.0
 11
65.10830433596045
 21
119.304836185289
 31
0.0
  0
LINE
  5
153
330
5B
100
AcDbEntity
  8
1
  6
Continuous
 62
     7
100
AcDbLine
 10
78.10830433596045
 20
121.304836185289
 30
0.0
 11
65.10830433596045
 21
121.304836185289
 31
0.0
  0
ENDBLK
  5
5D
330
5B
100
AcDbEntity
  8
0
100
AcDbBlockEnd
  0
BLOCK
  5
173
330
16C
100
AcDbEntity
  8
0
100
AcDbBlockBegin
  2
*D8
 70
     1
 10
0.0
 20
0.0
 30
0.0
  3
*D8
  1

  0
LINE
  5
16D
330
16C
100
AcDbEntity
  8
1
  6
Continuous
 62
     2
100
AcDbLine
 10
103.6083043359605
 20
180.304836185289
 30
0.0
 11
103.6083043359605
 21
210.304836185289
 31
0.0
  0
LINE
  5
16E
330
16C
100
AcDbEntity
  8
1
  6
Continuous
 62
     2
100
AcDbLine
 10
84.98216787839425
 20
210.304836185289
 30
0.0
 11
104.6083043359605
 21
210.304836185289
 31
0.0
  0
LINE
  5
16F
330
16C
100
AcDbEntity
  8
1
  6
Continuous
 62
     2
100
AcDbLine
 10
84.98216787839425
 20
180.304836185289
 30
0.0
 11
104.6083043359605
 21
180.304836185289
 31
0.0
  0
SOLID
  5
170
330
16C
100
AcDbEntity
  8
1
 62
     2
100
AcDbTrace
 10
103.1475205944046
 20
183.804836185289
 30
0.0
 11
104.0690880775164
 21
183.804836185289
 31
0.0
 12
103.6083043359605
 22
180.304836185289
 32
0.0
 13
103.6083043359605
 23
180.304836185289
 33
0.0
  0
SOLID
  5
171
330
16C
100
AcDbEntity
  8
1
 62
     2
100
AcDbTrace
 10
104.0690880775164
 20
206.804836185289
 30
0.0
 11
103.1475205944046
 21
206.804836185289
 31
0.0
 12
103.6083043359605
 22
210.304836185289
 32
0.0
 13
103.6083043359605
 23
210.304836185289
 33
0.0
  0
MTEXT
  5
172
330
16C
100
AcDbEntity
  8
1
 62
     7
100
AcDbMText
 10
102.6083043359605
 20
192.679836185289
 30
0.0
 40
3.5
 41
0.0
 71
     7
 72
     1
  1
30
  7
CONVERTER_12
 11
0.0
 21
1.0
 31
0.0
 73
     1
 44
0.60024009603842
  0
ENDBLK
  5
174
330
16C
100
AcDbEntity
  8
0
100
AcDbBlockEnd
  0
BLOCK
  5
17E
330
177
100
AcDbEntity
  8
0
100
AcDbBlockBegin
  2
*D9
 70
     1
 10
0.0
 20
0.0
 30
0.0
  3
*D9
  1

  0
LINE
  5
178
330
177
100
AcDbEntity
  8
1
  6
Continuous
 62
     2
100
AcDbLine
 10
61.60830433596045
 20
221.304836185289
 30
0.0
 11
94.60830433596047
 21
221.304836185289
 31
0.0
  0
LINE
  5
179
330
177
100
AcDbEntity
  8
1
  6
Continuous
 62
     2
100
AcDbLine
 10
94.60830433596047
 20
195.304836185289
 30
0.0
 11
94.60830433596047
 21
222.304836185289
 31
0.0
  0
LINE
  5
17A
330
177
100
AcDbEntity
  8
1
  6
Continuous
 62
     2
100
AcDbLine
 10
61.60830433596045
 20
195.304836185289
 30
0.0
 11
61.60830433596045
 21
222.304836185289
 31
0.0
  0
SOLID
  5
17B
330
177
100
AcDbEntity
  8
1
 62
     2
100
AcDbTrace
 10
65.10830433596045
 20
221.7656199268449
 30
0.0
 11
65.10830433596045
 21
220.8440524437331
 31
0.0
 12
61.60830433596045
 22
221.304836185289
 32
0.0
 13
61.60830433596045
 23
221.304836185289
 33
0.0
  0
SOLID
  5
17C
330
177
100
AcDbEntity
  8
1
 62
     2
100
AcDbTrace
 10
91.10830433596047
 20
220.8440524437331
 30
0.0
 11
91.10830433596047
 21
221.7656199268449
 31
0.0
 12
94.60830433596047
 22
221.304836185289
 32
0.0
 13
94.60830433596047
 23
221.304836185289
 33
0.0
  0
MTEXT
  5
17D
330
177
100
AcDbEntity
  8
1
 62
     7
100
AcDbMText
 10
74.47497338536368
 20
222.3048292282127
 30
0.0
 40
3.5
 41
0.0
 71
     7
 72
     1
  1
\C7;{\Fgdt;n}\C7;33
  7
CONVERTER_12
 11
0.9999999999970619
 21
2.424068405545306E-6
 31
0.0
 73
     1
 44
0.60024009603842
  0
ENDBLK
  5
17F
330
177
100
AcDbEntity
  8
0
100
AcDbBlockEnd
  0
BLOCK
  5
18B
330
182
100
AcDbEntity
  8
0
100
AcDbBlockBegin
  2
*D10
 70
     1
 10
0.0
 20
0.0
 30
0.0
  3
*D10
  1

  0
LINE
  5
183
330
182
100
AcDbEntity
  8
1
  6
Continuous
 62
     2
100
AcDbLine
 10
50.60830433596046
 20
121.304836185289
 30
0.0
 11
50.60830433596046
 21
128.304836185289
 31
0.0
  0
LINE
  5
184
330
182
100
AcDbEntity
  8
1
  6
Continuous
 62
     2
100
AcDbLine
 10
50.60830433596046
 20
119.304836185289
 30
0.0
 11
50.60830433596046
 21
121.304836185289
 31
0.0
  0
LINE
  5
185
330
182
100
AcDbEntity
  8
1
  6
Continuous
 62
     2
100
AcDbLine
 10
50.60830433596046
 20
112.304836185289
 30
0.0
 11
50.60830433596046
 21
119.304836185289
 31
0.0
  0
LINE
  5
186
330
182
100
AcDbEntity
  8
1
  6
Continuous
 62
     2
100
AcDbLine
 10
65.10830433596045
 20
121.304836185289
 30
0.0
 11
49.60830433596046
 21
121.304836185289
 31
0.0
  0
LINE
  5
187
330
182
100
AcDbEntity
  8
1
  6
Continuous
 62
     2
100
AcDbLine
 10
65.01230433596045
 20
119.304836185289
 30
0.0
 11
49.60830433596046
 21
119.304836185289
 31
0.0
  0
SOLID
  5
188
330
182
100
AcDbEntity
  8
1
 62
     2
100
AcDbTrace
 10
51.06908807751635
 20
115.804836185289
 30
0.0
 11
50.14752059440458
 21
115.804836185289
 31
0.0
 12
50.60830433596046
 22
119.304836185289
 32
0.0
 13
50.60830433596046
 23
119.304836185289
 33
0.0
  0
SOLID
  5
189
330
182
100
AcDbEntity
  8
1
 62
     2
100
AcDbTrace
 10
50.14752059440458
 20
124.804836185289
 30
0.0
 11
51.06908807751635
 21
124.804836185289
 31
0.0
 12
50.60830433596046
 22
121.304836185289
 32
0.0
 13
50.60830433596046
 23
121.304836185289
 33
0.0
  0
MTEXT
  5
18A
330
182
100
AcDbEntity
  8
1
 62
     7
100
AcDbMText
 10
49.60830433596046
 20
121.6750110810978
 30
0.0
 40
3.5
 41
0.0
 71
     7
 72
     1
  1
2
  7
CONVERTER_12
 11
0.0
 21
1.0
 31
0.0
 73
     1
 44
0.60024009603842
  0
ENDBLK
  5
18C
330
182
100
AcDbEntity
  8
0
100
AcDbBlockEnd
  0
BLOCK
  5
196
330
18F
100
AcDbEntity
  8
0
100
AcDbBlockBegin
  2
*D11
 70
     1
 10
0.0
 20
0.0
 30
0.0
  3
*D11
  1

  0
LINE
  5
190
330
18F
100
AcDbEntity
  8
1
  6
Continuous
 62
     2
100
AcDbLine
 10
42.60830433596046
 20
119.304836185289
 30
0.0
 11
42.60830433596046
 21
98.30483618528902
 31
0.0
  0
LINE
  5
191
330
18F
100
AcDbEntity
  8
1
  6
Continuous
 62
     2
100
AcDbLine
 10
63.10830433596045
 20
98.30483618528902
 30
0.0
 11
41.60830433596046
 21
98.30483618528902
 31
0.0
  0
LINE
  5
192
330
18F
100
AcDbEntity
  8
1
  6
Continuous
 62
     2
100
AcDbLine
 10
65.10830433596045
 20
119.304836185289
 30
0.0
 11
41.60830433596046
 21
119.304836185289
 31
0.0
  0
SOLID
  5
193
330
18F
100
AcDbEntity
  8
1
 62
     2
100
AcDbTrace
 10
43.06908807751635
 20
115.804836185289
 30
0.0
 11
42.14752059440458
 21
115.804836185289
 31
0.0
 12
42.60830433596046
 22
119.304836185289
 32
0.0
 13
42.60830433596046
 23
119.304836185289
 33
0.0
  0
SOLID
  5
194
330
18F
100
AcDbEntity
  8
1
 62
     2
100
AcDbTrace
 10
42.14752059440458
 20
101.804836185289
 30
0.0
 11
43.06908807751635
 21
101.804836185289
 31
0.0
 12
42.60830433596046
 22
98.30483618528902
 32
0.0
 13
42.60830433596046
 23
98.30483618528902
 33
0.0
  0
MTEXT
  5
195
330
18F
100
AcDbEntity
  8
1
 62
     7
100
AcDbMText
 10
41.60830433596046
 20
106.9119593462815
 30
0.0
 40
3.5
 41
0.0
 71
     7
 72
     1
  1
21
  7
CONVERTER_12
 11
0.0
 21
1.0
 31
0.0
 73
     1
 44
0.60024009603842
  0
ENDBLK
  5
197
330
18F
100
AcDbEntity
  8
0
100
AcDbBlockEnd
  0
BLOCK
  5
1A1
330
19A
100
AcDbEntity
  8
0
100
AcDbBlockBegin
  2
*D12
 70
     1
 10
0.0
 20
0.0
 30
0.0
  3
*D12
  1

  0
LINE
  5
19B
330
19A
100
AcDbEntity
  8
1
  6
Continuous
 62
     2
100
AcDbLine
 10
50.60830433596046
 20
98.30483618528898
 30
0.0
 11
50.60830433596046
 21
110.304836185289
 31
0.0
  0
LINE
  5
19C
330
19A
100
AcDbEntity
  8
1
  6
Continuous
 62
     2
100
AcDbLine
 10
63.10830433596045
 20
110.304836185289
 30
0.0
 11
49.60830433596046
 21
110.304836185289
 31
0.0
  0
LINE
  5
19D
330
19A
100
AcDbEntity
  8
1
  6
Continuous
 62
     2
100
AcDbLine
 10
63.10830433596045
 20
98.30483618528898
 30
0.0
 11
49.60830433596046
 21
98.30483618528898
 31
0.0
  0
SOLID
  5
19E
330
19A
100
AcDbEntity
  8
1
 62
     2
100
AcDbTrace
 10
50.14752059440458
 20
101.804836185289
 30
0.0
 11
51.06908807751635
 21
101.804836185289
 31
0.0
 12
50.60830433596046
 22
98.30483618528898
 32
0.0
 13
50.60830433596046
 23
98.30483618528898
 33
0.0
  0
SOLID
  5
19F
330
19A
100
AcDbEntity
  8
1
 62
     2
100
AcDbTrace
 10
51.06908807751635
 20
106.804836185289
 30
0.0
 11
50.14752059440458
 21
106.804836185289
 31
0.0
 12
50.60830433596046
 22
110.304836185289
 32
0.0
 13
50.60830433596046
 23
110.304836185289
 33
0.0
  0
MTEXT
  5
1A0
330
19A
100
AcDbEntity
  8
1
 62
     7
100
AcDbMText
 10
49.60830433596046
 20
102.117257225697
 30
0.0
 40
3.5
 41
0.0
 71
     7
 72
     1
  1
12
  7
CONVERTER_12
 11
0.0
 21
1.0
 31
0.0
 73
     1
 44
0.60024009603842
  0
ENDBLK
  5
1A2
330
19A
100
AcDbEntity
  8
0
100
AcDbBlockEnd
  0
ENDSEC
  0
SECTION
  2
ENTITIES
  0
INSERT
  5
5E
330
1F
100
AcDbEntity
  8
0
100
AcDbBlockReference
  2
開示A4枠
 10
0.0
 20
0.0
 30
0.0
  0
INSERT
  5
5F
330
1F
100
AcDbEntity
  8
1
100
AcDbBlockReference
  2
35-85__1
 10
61.60830433596046
 20
98.30412378905186
 30
0.0
  0
INSERT
  5
60
330
1F
100
AcDbEntity
  8
1
100
AcDbBlockReference
  2
92-35__2
 10
86.10830433596045
 20
119.304836185289
 30
0.0
  0
INSERT
  5
61
330
1F
100
AcDbEntity
  8
0
100
AcDbBlockReference
  2
35-85__3
 10
61.60830433596046
 20
98.30412378905186
 30
0.0
  0
INSERT
  5
62
330
1F
100
AcDbEntity
  8
0
100
AcDbBlockReference
  2
92-35__4
 10
65.10830433596045
 20
119.304836185289
 30
0.0
  0
INSERT
  5
63
330
1F
100
AcDbEntity
  8
1
100
AcDbBlockReference
  2
92-35__5
 10
70.10830433596045
 20
119.304836185289
 30
0.0
  0
LINE
  5
154
330
1F
100
AcDbEntity
  8
1
  6
DASH_CENTER
 62
     2
100
AcDbLine
 10
168.1083043359605
 20
95.30483618528899
 30
0.0
 11
168.1083043359605
 21
124.304836185289
 31
0.0
  0
LINE
  5
155
330
1F
100
AcDbEntity
  8
1
  6
DASH_CENTER
 62
     2
100
AcDbLine
 10
58.60830433596046
 20
195.304836185289
 30
0.0
 11
97.60830433596047
 21
195.304836185289
 31
0.0
  0
LINE
  5
156
330
1F
100
AcDbEntity
  8
1
  6
DASH_CENTER
 62
     2
100
AcDbLine
 10
78.10830433596045
 20
177.304836185289
 30
0.0
 11
78.10830433596045
 21
213.304836185289
 31
0.0
  0
LINE
  5
157
330
1F
100
AcDbEntity
  8
1
  6
DASH_CENTER
 62
     2
100
AcDbLine
 10
78.10830433596045
 20
95.30483618528899
 30
0.0
 11
78.10830433596045
 21
124.304836185289
 31
0.0
  0
SOLID
  5
158
330
1F
100
AcDbEntity
  8
1
 62
     2
100
AcDbTrace
 10
93.24773581856581
 20
95.5041391428214
 30
0.0
 11
92.44963496688933
 21
95.04335540126552
 31
0.0
 12
91.09868539272757
 22
98.30483618528899
 32
0.0
 13
91.09868539272757
 23
98.30483618528899
 33
0.0
  0
LEADER
  5
159
330
1F
100
AcDbEntity
  8
1
  6
Continuous
 62
     2
100
AcDbLeader
  3
Standard
 71
     0
 76
     3
 10
91.09868539272757
 20
98.30483618528899
 30
0.0
 10
100.7080199364357
 20
81.66098052865989
 30
0.0
 10
112.9686573156783
 20
81.66098052865989
 30
0.0
  0
SOLID
  5
15A
330
1F
100
AcDbEntity
  8
1
 62
     2
100
AcDbTrace
 10
93.45925391012224
 20
119.690450943856
 30
0.0
 11
94.25735476179871
 21
119.2296672023001
 31
0.0
 12
92.10830433596047
 22
116.4289701598325
 32
0.0
 13
92.10830433596047
 23
116.4289701598325
 33
0.0
  0
LEADER
  5
15B
330
1F
100
AcDbEntity
  8
1
  6
Continuous
 62
     2
100
AcDbLeader
  3
Standard
 71
     0
 76
     3
 10
92.10830433596047
 20
116.4289701598325
 30
0.0
 10
101.562914993971
 20
132.804836185289
 30
0.0
 10
119.0737384692533
 20
132.804836185289
 30
0.0
  0
MTEXT
  5
15D
330
1F
100
AcDbEntity
  8
1
 62
     7
100
AcDbMText
 10
157.5
 20
12.5
 30
0.0
 40
2.5
 41
0.0
 71
     5
 72
     1
  1
10
  7
CONVERTER_12
 73
     1
 44
0.7202881152461
  0
MTEXT
  5
15E
330
1F
100
AcDbEntity
  8
1
 62
     7
100
AcDbMText
 10
151.75
 20
12.5
 30
0.0
 40
2.5
 41
0.0
 71
     5
 72
     1
  1
03
  7
CONVERTER_12
 73
     1
 44
0.7202881152461
  0
MTEXT
  5
15F
330
1F
100
AcDbEntity
  8
1
 62
     7
100
AcDbMText
 10
140.5
 20
12.5
 30
0.0
 40
2.5
 41
0.0
 71
     5
 72
     1
  1
10
  7
CONVERTER_12
 73
     1
 44
0.7202881152461
  0
MTEXT
  5
160
330
1F
100
AcDbEntity
  8
1
 62
     7
100
AcDbMText
 10
134.75
 20
12.5
 30
0.0
 40
2.5
 41
0.0
 71
     5
 72
     1
  1
03
  7
CONVERTER_12
 73
     1
 44
0.7202881152461
  0
MTEXT
  5
161
330
1F
100
AcDbEntity
  8
1
 62
     7
100
AcDbMText
 10
123.5
 20
12.5
 30
0.0
 40
2.5
 41
0.0
 71
     5
 72
     1
  1
10
  7
CONVERTER_12
 73
     1
 44
0.7202881152461
  0
MTEXT
  5
162
330
1F
100
AcDbEntity
  8
1
 62
     7
100
AcDbMText
 10
117.75
 20
12.5
 30
0.0
 40
2.5
 41
0.0
 71
     5
 72
     1
  1
03
  7
CONVERTER_12
 73
     1
 44
0.7202881152461
  0
MTEXT
  5
163
330
1F
100
AcDbEntity
  8
1
 62
     7
100
AcDbMText
 10
100.75
 20
12.5
 30
0.0
 40
2.5
 41
0.0
 71
     5
 72
     1
  1
03
  7
CONVERTER_12
 73
     1
 44
0.7202881152461
  0
MTEXT
  5
164
330
1F
100
AcDbEntity
  8
1
 62
     7
100
AcDbMText
 10
106.5
 20
12.5
 30
0.0
 40
2.5
 41
0.0
 71
     5
 72
     1
  1
10
  7
CONVERTER_12
 73
     1
 44
0.7202881152461
  0
MTEXT
  5
165
330
1F
100
AcDbEntity
  8
1
 62
     7
100
AcDbMText
 10
106.6196538399056
 20
84.36958198354199
 30
0.0
 40
3.5
 41
0.0
 71
     5
 72
     1
  1
G3/4
  7
CONVERTER_12
 73
     1
 44
0.7202881152461
  0
MTEXT
  5
166
330
1F
100
AcDbEntity
  8
1
 62
     7
100
AcDbMText
 10
109.6631898832945
 20
135.6291363985125
 30
0.0
 40
3.5
 41
0.0
 71
     5
 72
     1
  1
W28山18
  7
CONVERTER_11
 73
     1
 44
0.54545454545455
  0
MTEXT
  5
167
330
1F
100
AcDbEntity
  8
0
 62
     7
100
AcDbMText
 10
34.0
 20
33.99999999999999
 30
0.0
 40
3.5
 41
0.0
 71
     4
 72
     1
  1
2個1組
  7
CONVERTER_11
 73
     1
 44
0.63636363636364
  0
MTEXT
  5
168
330
1F
100
AcDbEntity
  8
1
 62
     7
100
AcDbMText
 10
85.25
 20
17.0
 30
0.0
 40
3.5
 41
0.0
 71
     5
 72
     1
  1
1
  7
CONVERTER_12
 73
     1
 44
0.7202881152461
  0
MTEXT
  5
169
330
1F
100
AcDbEntity
  8
1
 62
     7
100
AcDbMText
 10
57.0
 20
22.74999999999999
 30
0.0
 40
3.5
 41
0.0
 71
     5
 72
     1
  1
偏心管アダプター
  7
CONVERTER_11
 73
     1
 44
0.54545454545455
  0
MTEXT
  5
16A
330
1F
100
AcDbEntity
  8
1
 62
     7
100
AcDbMText
 10
57.0
 20
14.25
 30
0.0
 40
3.5
 41
0.0
 71
     5
 72
     1
  1
T243S
  7
CONVERTER_12
 73
     1
 44
0.7202881152461
  0
MTEXT
  5
16B
330
1F
100
AcDbEntity
  8
1
 62
     7
100
AcDbMText
 10
93.74999999999997
 20
17.0
 30
0.0
 40
3.5
 41
0.0
 71
     5
 72
     1
  1
1
  7
CONVERTER_12
 73
     1
 44
0.7202881152461
  0
DIMENSION
  5
176
330
1F
100
AcDbEntity
  8
1
100
AcDbDimension
  2
*D8
 10
103.6083043359605
 20
180.304836185289
 30
0.0
 11
100.8583043359605
 21
195.304836185289
 31
0.0
 70
    32
  1
<>
 71
     5
 42
-1.0
 53
90.0
  3
ME10_DIM_10
100
AcDbAlignedDimension
 13
84.98216787839421
 23
210.304836185289
 33
0.0
 14
84.98216787839421
 24
180.304836185289
 34
0.0
 50
90.0
100
AcDbRotatedDimension
  0
DIMENSION
  5
181
330
1F
100
AcDbEntity
  8
1
100
AcDbDimension
  2
*D9
 10
61.60830433596045
 20
221.304836185289
 30
0.0
 11
77.86997338535525
 21
224.054836185289
 31
0.0
 70
    32
  1
<>
 71
     5
 42
-1.0
 53
0.00013888888889
  3
ME10_DIM_11
100
AcDbAlignedDimension
 13
94.60830433596047
 23
195.304836185289
 33
0.0
 14
61.60830433596046
 24
195.304836185289
 34
0.0
100
AcDbRotatedDimension
  0
DIMENSION
  5
18E
330
1F
100
AcDbEntity
  8
1
100
AcDbDimension
  2
*D10
 10
50.60830433596046
 20
119.304836185289
 30
0.0
 11
47.85830433596046
 21
122.7250110810978
 31
0.0
 70
    32
  1
<>
 71
     5
 42
-1.0
 53
90.0
  3
ME10_DIM_12
100
AcDbAlignedDimension
 13
65.10830433596045
 23
121.304836185289
 33
0.0
 14
65.01230433596045
 24
119.304836185289
 34
0.0
 50
90.0
100
AcDbRotatedDimension
  0
DIMENSION
  5
199
330
1F
100
AcDbEntity
  8
1
100
AcDbDimension
  2
*D11
 10
42.60830433596046
 20
119.304836185289
 30
0.0
 11
39.85830433596046
 21
109.0119593462815
 31
0.0
 70
    32
  1
<>
 71
     5
 42
-1.0
 53
90.0
  3
ME10_DIM_13
100
AcDbAlignedDimension
 13
63.10830433596046
 23
98.30483618528899
 33
0.0
 14
65.10830433596045
 24
119.304836185289
 34
0.0
 50
90.0
100
AcDbRotatedDimension
  0
DIMENSION
  5
1A4
330
1F
100
AcDbEntity
  8
1
100
AcDbDimension
  2
*D12
 10
50.60830433596046
 20
98.30483618528898
 30
0.0
 11
47.85830433596046
 21
104.217257225697
 31
0.0
 70
    32
  1
<>
 71
     5
 42
-1.0
 53
90.0
  3
ME10_DIM_14
100
AcDbAlignedDimension
 13
63.10830433596046
 23
110.304836185289
 33
0.0
 14
63.10830433596046
 24
98.30483618528899
 34
0.0
 50
90.0
100
AcDbRotatedDimension
  0
ENDSEC
  0
SECTION
  2
OBJECTS
  0
DICTIONARY
  5
C
330
0
100
AcDbDictionary
281
     1
  3
ACAD_GROUP
350
D
  3
ACAD_LAYOUT
350
1A
  3
ACAD_MATERIAL
350
3B
  3
ACAD_MLEADERSTYLE
350
1A7
  3
ACAD_MLINESTYLE
350
17
  3
ACAD_PLOTSETTINGS
350
19
  3
ACAD_PLOTSTYLENAME
350
E
  3
ACAD_VISUALSTYLE
350
2A
  3
AcDbVariableDictionary
350
1A5
  0
DICTIONARY
  5
D
102
{ACAD_REACTORS
330
C
102
}
330
C
100
AcDbDictionary
281
     1
  0
DICTIONARY
  5
1A
102
{ACAD_REACTORS
330
C
102
}
330
C
100
AcDbDictionary
281
     1
  3
Layout1
350
1E
  3
Layout2
350
26
  3
Model
350
22
  0
DICTIONARY
  5
3B
102
{ACAD_REACTORS
330
C
102
}
330
C
100
AcDbDictionary
281
     1
  3
ByBlock
350
3D
  3
ByLayer
350
3C
  3
Global
350
3E
  0
DICTIONARY
  5
1A7
102
{ACAD_REACTORS
330
C
102
}
330
C
100
AcDbDictionary
281
     1
  0
DICTIONARY
  5
17
102
{ACAD_REACTORS
330
C
102
}
330
C
100
AcDbDictionary
281
     1
  3
Standard
350
18
  0
DICTIONARY
  5
19
102
{ACAD_REACTORS
330
C
102
}
330
C
100
AcDbDictionary
281
     1
  0
ACDBDICTIONARYWDFLT
  5
E
102
{ACAD_REACTORS
330
C
102
}
330
C
100
AcDbDictionary
281
     1
  3
Normal
350
F
100
AcDbDictionaryWithDefault
340
F
  0
DICTIONARY
  5
2A
102
{ACAD_REACTORS
330
C
102
}
330
C
100
AcDbDictionary
281
     1
  3
2dWireframe
350
2F
  3
3D Hidden
350
31
  3
3dWireframe
350
30
  3
Basic
350
32
  3
Brighten
350
36
  3
ColorChange
350
3A
  3
Conceptual
350
34
  3
Dim
350
35
  3
Facepattern
350
39
  3
Flat
350
2B
  3
FlatWithEdges
350
2C
  3
Gouraud
350
2D
  3
GouraudWithEdges
350
2E
  3
Linepattern
350
38
  3
Realistic
350
33
  3
Thicken
350
37
  0
DICTIONARY
  5
1A5
102
{ACAD_REACTORS
330
C
102
}
330
C
100
AcDbDictionary
281
     1
  3
DIMASSOC
350
1A8
  3
HIDETEXT
350
1A9
  0
LAYOUT
  5
1E
102
{ACAD_REACTORS
330
1A
102
}
330
1A
100
AcDbPlotSettings
  1

  2
none_device
  4

  6

 40
0.0
 41
0.0
 42
0.0
 43
0.0
 44
0.0
 45
0.0
 46
0.0
 47
0.0
 48
0.0
 49
0.0
140
0.0
141
0.0
142
1.0
143
1.0
 70
   688
 72
     0
 73
     0
 74
     5
  7

 75
    16
147
1.0
148
0.0
149
0.0
100
AcDbLayout
  1
Layout1
 70
     1
 71
     1
 10
0.0
 20
0.0
 11
12.0
 21
9.0
 12
0.0
 22
0.0
 32
0.0
 14
1.00000000000000E+20
 24
1.00000000000000E+20
 34
1.00000000000000E+20
 15
-1.00000000000000E+20
 25
-1.00000000000000E+20
 35
-1.00000000000000E+20
146
0.0
 13
0.0
 23
0.0
 33
0.0
 16
1.0
 26
0.0
 36
0.0
 17
0.0
 27
1.0
 37
0.0
 76
     0
330
1B
  0
LAYOUT
  5
26
102
{ACAD_REACTORS
330
1A
102
}
330
1A
100
AcDbPlotSettings
  1

  2
none_device
  4

  6

 40
0.0
 41
0.0
 42
0.0
 43
0.0
 44
0.0
 45
0.0
 46
0.0
 47
0.0
 48
0.0
 49
0.0
140
0.0
141
0.0
142
1.0
143
1.0
 70
   688
 72
     0
 73
     0
 74
     5
  7

 75
    16
147
1.0
148
0.0
149
0.0
100
AcDbLayout
  1
Layout2
 70
     1
 71
     2
 10
0.0
 20
0.0
 11
0.0
 21
0.0
 12
0.0
 22
0.0
 32
0.0
 14
0.0
 24
0.0
 34
0.0
 15
0.0
 25
0.0
 35
0.0
146
0.0
 13
0.0
 23
0.0
 33
0.0
 16
1.0
 26
0.0
 36
0.0
 17
0.0
 27
1.0
 37
0.0
 76
     0
330
23
  0
LAYOUT
  5
22
102
{ACAD_REACTORS
330
1A
102
}
330
1A
100
AcDbPlotSettings
  1

  2
none_device
  4

  6

 40
0.0
 41
0.0
 42
0.0
 43
0.0
 44
0.0
 45
0.0
 46
0.0
 47
0.0
 48
0.0
 49
0.0
140
0.0
141
0.0
142
1.0
143
1.0
 70
  1712
 72
     0
 73
     0
 74
     0
  7

 75
     0
147
1.0
148
0.0
149
0.0
100
AcDbLayout
  1
Model
 70
     1
 71
     0
 10
0.0
 20
0.0
 11
12.0
 21
9.0
 12
0.0
 22
0.0
 32
0.0
 14
0.0
 24
0.0
 34
0.0
 15
210.0
 25
297.0
 35
0.0
146
0.0
 13
0.0
 23
0.0
 33
0.0
 16
1.0
 26
0.0
 36
0.0
 17
0.0
 27
1.0
 37
0.0
 76
     0
330
1F
331
29
  0
MATERIAL
  5
3D
102
{ACAD_REACTORS
330
3B
102
}
102
{ACAD_XDICTIONARY
360
1CC
102
}
330
3B
100
AcDbMaterial
  1
ByBlock
  0
MATERIAL
  5
3C
102
{ACAD_REACTORS
330
3B
102
}
102
{ACAD_XDICTIONARY
360
1CA
102
}
330
3B
100
AcDbMaterial
  1
ByLayer
  0
MATERIAL
  5
3E
102
{ACAD_REACTORS
330
3B
102
}
102
{ACAD_XDICTIONARY
360
1CE
102
}
330
3B
100
AcDbMaterial
  1
Global
  0
MLINESTYLE
  5
18
102
{ACAD_REACTORS
330
17
102
}
330
17
100
AcDbMlineStyle
  2
Standard
 70
     0
  3

 62
   256
 51
90.0
 52
90.0
 71
     2
 49
0.5
 62
   256
  6
BYLAYER
 49
-0.5
 62
   256
  6
BYLAYER
  0
ACDBPLACEHOLDER
  5
F
102
{ACAD_REACTORS
330
E
102
}
330
E
  0
VISUALSTYLE
  5
2F
102
{ACAD_REACTORS
330
2A
102
}
102
{ACAD_XDICTIONARY
360
1B2
102
}
330
2A
100
AcDbVisualStyle
  2
2dWireframe
 70
     4
 71
     0
 72
     2
 73
     0
 90
        0
 40
-0.6
 41
-30.0
 62
     5
 63
     7
 74
     1
 91
        4
 64
     7
 65
   257
 75
     1
175
     1
 42
1.0
 92
        0
 66
   257
 43
1.0
 76
     1
 77
     6
 78
     2
 67
     7
 79
     5
170
     0
171
     0
290
     0
174
     0
 93
        1
 44
0.0
173
     0
291
     0
 45
0.0
1001
ACAD
1000
AcDbSavedByObjectVersion
1070
     0
  0
VISUALSTYLE
  5
31
102
{ACAD_REACTORS
330
2A
102
}
102
{ACAD_XDICTIONARY
360
1B6
102
}
330
2A
100
AcDbVisualStyle
  2
3D Hidden
 70
     6
 71
     1
 72
     2
 73
     2
 90
        0
 40
-0.6
 41
-30.0
 62
     5
 63
     7
 74
     2
 91
        2
 64
     7
 65
   257
 75
     2
175
     1
 42
40.0
 92
        0
 66
   257
 43
1.0
 76
     1
 77
     6
 78
     2
 67
     7
 79
     3
170
     0
171
     0
290
     0
174
     0
 93
        1
 44
0.0
173
     0
291
     0
 45
0.0
1001
ACAD
1000
AcDbSavedByObjectVersion
1070
     0
  0
VISUALSTYLE
  5
30
102
{ACAD_REACTORS
330
2A
102
}
102
{ACAD_XDICTIONARY
360
1B4
102
}
330
2A
100
AcDbVisualStyle
  2
3dWireframe
 70
     5
 71
     0
 72
     2
 73
     0
 90
        0
 40
-0.6
 41
-30.0
 62
     5
 63
     7
 74
     1
 91
        4
 64
     7
 65
   257
 75
     1
175
     1
 42
1.0
 92
        0
 66
   257
 43
1.0
 76
     1
 77
     6
 78
     2
 67
     7
 79
     5
170
     0
171
     0
290
     0
174
     0
 93
        1
 44
0.0
173
     0
291
     0
 45
0.0
1001
ACAD
1000
AcDbSavedByObjectVersion
1070
     0
  0
VISUALSTYLE
  5
32
102
{ACAD_REACTORS
330
2A
102
}
102
{ACAD_XDICTIONARY
360
1B8
102
}
330
2A
100
AcDbVisualStyle
  2
Basic
 70
     7
 71
     1
 72
     0
 73
     1
 90
        0
 40
-0.6
 41
-30.0
 62
     5
 63
     7
 74
     0
 91
        4
 64
     7
 65
   257
 75
     1
175
     1
 42
1.0
 92
        8
 66
     7
 43
1.0
 76
     1
 77
     6
 78
     2
 67
     7
 79
     5
170
     0
171
     0
290
     0
174
     0
 93
        1
 44
0.0
173
     0
291
     1
 45
0.0
1001
ACAD
1000
AcDbSavedByObjectVersion
1070
     0
  0
VISUALSTYLE
  5
36
102
{ACAD_REACTORS
330
2A
102
}
102
{ACAD_XDICTIONARY
360
1C0
102
}
330
2A
100
AcDbVisualStyle
  2
Brighten
 70
    12
 71
     2
 72
     2
 73
     0
 90
        0
 40
-0.6
 41
-30.0
 62
     5
 63
     7
 74
     1
 91
        4
 64
     7
 65
   257
 75
     1
175
     1
 42
1.0
 92
        8
 66
     7
 43
1.0
 76
     1
 77
     6
 78
     2
 67
     7
 79
     5
170
     0
171
     0
290
     0
174
     0
 93
        1
 44
50.0
173
     0
291
     1
 45
0.0
1001
ACAD
1000
AcDbSavedByObjectVersion
1070
     0
  0
VISUALSTYLE
  5
3A
102
{ACAD_REACTORS
330
2A
102
}
102
{ACAD_XDICTIONARY
360
1C8
102
}
330
2A
100
AcDbVisualStyle
  2
ColorChange
 70
    16
 71
     2
 72
     2
 73
     3
 90
        0
 40
-0.6
 41
-30.0
 62
     5
 63
     8
 74
     1
 91
        4
 64
     7
 65
   257
 75
     1
175
     1
 42
1.0
 92
        8
 66
     8
 43
1.0
 76
     1
 77
     6
 78
     2
 67
     7
 79
     5
170
     0
171
     0
290
     0
174
     0
 93
        1
 44
0.0
173
     0
291
     1
 45
0.0
1001
ACAD
1000
AcDbSavedByObjectVersion
1070
     0
  0
VISUALSTYLE
  5
34
102
{ACAD_REACTORS
330
2A
102
}
102
{ACAD_XDICTIONARY
360
1BC
102
}
330
2A
100
AcDbVisualStyle
  2
Conceptual
 70
     9
 71
     3
 72
     2
 73
     0
 90
        0
 40
-0.6
 41
-30.0
 62
     5
 63
     7
 74
     2
 91
        2
 64
     7
 65
   257
 75
     1
175
     1
 42
40.0
 92
        8
 66
     7
 43
1.0
 76
     1
 77
     6
 78
     2
 67
     7
 79
     3
170
     0
171
     0
290
     0
174
     0
 93
        1
 44
0.0
173
     0
291
     0
 45
0.0
1001
ACAD
1000
AcDbSavedByObjectVersion
1070
     0
  0
VISUALSTYLE
  5
35
102
{ACAD_REACTORS
330
2A
102
}
102
{ACAD_XDICTIONARY
360
1BE
102
}
330
2A
100
AcDbVisualStyle
  2
Dim
 70
    11
 71
     2
 72
     2
 73
     0
 90
        0
 40
-0.6
 41
-30.0
 62
     5
 63
     7
 74
     1
 91
        4
 64
     7
 65
   257
 75
     1
175
     1
 42
1.0
 92
        8
 66
     7
 43
1.0
 76
     1
 77
     6
 78
     2
 67
     7
 79
     5
170
     0
171
     0
290
     0
174
     0
 93
        1
 44
-50.0
173
     0
291
     1
 45
0.0
1001
ACAD
1000
AcDbSavedByObjectVersion
1070
     0
  0
VISUALSTYLE
  5
39
102
{ACAD_REACTORS
330
2A
102
}
102
{ACAD_XDICTIONARY
360
1C6
102
}
330
2A
100
AcDbVisualStyle
  2
Facepattern
 70
    15
 71
     2
 72
     2
 73
     0
 90
        0
 40
-0.6
 41
-30.0
 62
     5
 63
     7
 74
     1
 91
        4
 64
     7
 65
   257
 75
     1
175
     1
 42
1.0
 92
        8
 66
     7
 43
1.0
 76
     1
 77
     6
 78
     2
 67
     7
 79
     5
170
     0
171
     0
290
     0
174
     0
 93
        1
 44
0.0
173
     0
291
     1
 45
0.0
1001
ACAD
1000
AcDbSavedByObjectVersion
1070
     0
  0
VISUALSTYLE
  5
2B
102
{ACAD_REACTORS
330
2A
102
}
102
{ACAD_XDICTIONARY
360
1AA
102
}
330
2A
100
AcDbVisualStyle
  2
Flat
 70
     0
 71
     2
 72
     1
 73
     1
 90
        2
 40
-0.6
 41
30.0
 62
     5
 63
     7
 74
     0
 91
        4
 64
     7
 65
   257
 75
     1
175
     1
 42
1.0
 92
        8
 66
     7
 43
1.0
 76
     1
 77
     6
 78
     2
 67
     7
 79
     5
170
     0
171
     0
290
     0
174
     0
 93
       13
 44
0.0
173
     0
291
     1
 45
0.0
1001
ACAD
1000
AcDbSavedByObjectVersion
1070
     0
  0
VISUALSTYLE
  5
2C
102
{ACAD_REACTORS
330
2A
102
}
102
{ACAD_XDICTIONARY
360
1AC
102
}
330
2A
100
AcDbVisualStyle
  2
FlatWithEdges
 70
     1
 71
     2
 72
     1
 73
     1
 90
        2
 40
-0.6
 41
30.0
 62
     5
 63
     7
 74
     1
 91
        4
 64
     7
 65
   257
 75
     1
175
     1
 42
1.0
 92
        0
 66
   257
 43
1.0
 76
     1
 77
     6
 78
     2
 67
     7
 79
     5
170
     0
171
     0
290
     0
174
     0
 93
       13
 44
0.0
173
     0
291
     1
 45
0.0
1001
ACAD
1000
AcDbSavedByObjectVersion
1070
     0
  0
VISUALSTYLE
  5
2D
102
{ACAD_REACTORS
330
2A
102
}
102
{ACAD_XDICTIONARY
360
1AE
102
}
330
2A
100
AcDbVisualStyle
  2
Gouraud
 70
     2
 71
     2
 72
     2
 73
     1
 90
        2
 40
-0.6
 41
30.0
 62
     5
 63
     7
 74
     0
 91
        4
 64
     7
 65
   257
 75
     1
175
     1
 42
1.0
 92
        0
 66
     7
 43
1.0
 76
     1
 77
     6
 78
     2
 67
     7
 79
     5
170
     0
171
     0
290
     0
174
     0
 93
       13
 44
0.0
173
     0
291
     1
 45
0.0
1001
ACAD
1000
AcDbSavedByObjectVersion
1070
     0
  0
VISUALSTYLE
  5
2E
102
{ACAD_REACTORS
330
2A
102
}
102
{ACAD_XDICTIONARY
360
1B0
102
}
330
2A
100
AcDbVisualStyle
  2
GouraudWithEdges
 70
     3
 71
     2
 72
     2
 73
     1
 90
        2
 40
-0.6
 41
30.0
 62
     5
 63
     7
 74
     1
 91
        4
 64
     7
 65
   257
 75
     1
175
     1
 42
1.0
 92
        0
 66
   257
 43
1.0
 76
     1
 77
     6
 78
     2
 67
     7
 79
     5
170
     0
171
     0
290
     0
174
     0
 93
       13
 44
0.0
173
     0
291
     1
 45
0.0
1001
ACAD
1000
AcDbSavedByObjectVersion
1070
     0
  0
VISUALSTYLE
  5
38
102
{ACAD_REACTORS
330
2A
102
}
102
{ACAD_XDICTIONARY
360
1C4
102
}
330
2A
100
AcDbVisualStyle
  2
Linepattern
 70
    14
 71
     2
 72
     2
 73
     0
 90
        0
 40
-0.6
 41
-30.0
 62
     5
 63
     7
 74
     1
 91
        4
 64
     7
 65
   257
 75
     7
175
     7
 42
1.0
 92
        8
 66
     7
 43
1.0
 76
     1
 77
     6
 78
     2
 67
     7
 79
     5
170
     0
171
     0
290
     0
174
     0
 93
        1
 44
0.0
173
     0
291
     1
 45
0.0
1001
ACAD
1000
AcDbSavedByObjectVersion
1070
     0
  0
VISUALSTYLE
  5
33
102
{ACAD_REACTORS
330
2A
102
}
102
{ACAD_XDICTIONARY
360
1BA
102
}
330
2A
100
AcDbVisualStyle
  2
Realistic
 70
     8
 71
     2
 72
     2
 73
     0
 90
        0
 40
-0.6
 41
-30.0
 62
     5
 63
     7
 74
     1
 91
        0
 64
     7
 65
   257
 75
     1
175
     1
 42
1.0
 92
        8
 66
     8
 43
1.0
 76
     1
 77
     6
 78
     2
 67
     7
 79
     5
170
     0
171
     0
290
     0
174
     0
 93
       13
 44
0.0
173
     0
291
     0
 45
0.0
1001
ACAD
1000
AcDbSavedByObjectVersion
1070
     0
  0
VISUALSTYLE
  5
37
102
{ACAD_REACTORS
330
2A
102
}
102
{ACAD_XDICTIONARY
360
1C2
102
}
330
2A
100
AcDbVisualStyle
  2
Thicken
 70
    13
 71
     2
 72
     2
 73
     0
 90
        0
 40
-0.6
 41
-30.0
 62
     5
 63
     7
 74
     1
 91
        4
 64
     7
 65
   257
 75
     1
175
     1
 42
1.0
 92
       12
 66
     7
 43
1.0
 76
     1
 77
     6
 78
     2
 67
     7
 79
     5
170
     0
171
     0
290
     0
174
     0
 93
        1
 44
0.0
173
     0
291
     1
 45
0.0
1001
ACAD
1000
AcDbSavedByObjectVersion
1070
     0
  0
DICTIONARYVAR
  5
1A8
102
{ACAD_REACTORS
330
1A5
102
}
330
1A5
100
DictionaryVariables
280
     0
  1
2
  0
DICTIONARYVAR
  5
1A9
102
{ACAD_REACTORS
330
1A5
102
}
330
1A5
100
DictionaryVariables
280
     0
  1
1
  0
DICTIONARY
  5
1CC
330
3D
100
AcDbDictionary
280
     1
281
     1
  3
ACAD_XREC_ROUNDTRIP
360
1CD
  0
DICTIONARY
  5
1CA
330
3C
100
AcDbDictionary
280
     1
281
     1
  3
ACAD_XREC_ROUNDTRIP
360
1CB
  0
DICTIONARY
  5
1CE
330
3E
100
AcDbDictionary
280
     1
281
     1
  3
ACAD_XREC_ROUNDTRIP
360
1CF
  0
DICTIONARY
  5
1B2
330
2F
100
AcDbDictionary
280
     1
281
     1
  3
ACAD_XREC_ROUNDTRIP
360
1B3
  0
DICTIONARY
  5
1B6
330
31
100
AcDbDictionary
280
     1
281
     1
  3
ACAD_XREC_ROUNDTRIP
360
1B7
  0
DICTIONARY
  5
1B4
330
30
100
AcDbDictionary
280
     1
281
     1
  3
ACAD_XREC_ROUNDTRIP
360
1B5
  0
DICTIONARY
  5
1B8
330
32
100
AcDbDictionary
280
     1
281
     1
  3
ACAD_XREC_ROUNDTRIP
360
1B9
  0
DICTIONARY
  5
1C0
330
36
100
AcDbDictionary
280
     1
281
     1
  3
ACAD_XREC_ROUNDTRIP
360
1C1
  0
DICTIONARY
  5
1C8
330
3A
100
AcDbDictionary
280
     1
281
     1
  3
ACAD_XREC_ROUNDTRIP
360
1C9
  0
DICTIONARY
  5
1BC
330
34
100
AcDbDictionary
280
     1
281
     1
  3
ACAD_XREC_ROUNDTRIP
360
1BD
  0
DICTIONARY
  5
1BE
330
35
100
AcDbDictionary
280
     1
281
     1
  3
ACAD_XREC_ROUNDTRIP
360
1BF
  0
DICTIONARY
  5
1C6
330
39
100
AcDbDictionary
280
     1
281
     1
  3
ACAD_XREC_ROUNDTRIP
360
1C7
  0
DICTIONARY
  5
1AA
330
2B
100
AcDbDictionary
280
     1
281
     1
  3
ACAD_XREC_ROUNDTRIP
360
1AB
  0
DICTIONARY
  5
1AC
330
2C
100
AcDbDictionary
280
     1
281
     1
  3
ACAD_XREC_ROUNDTRIP
360
1AD
  0
DICTIONARY
  5
1AE
330
2D
100
AcDbDictionary
280
     1
281
     1
  3
ACAD_XREC_ROUNDTRIP
360
1AF
  0
DICTIONARY
  5
1B0
330
2E
100
AcDbDictionary
280
     1
281
     1
  3
ACAD_XREC_ROUNDTRIP
360
1B1
  0
DICTIONARY
  5
1C4
330
38
100
AcDbDictionary
280
     1
281
     1
  3
ACAD_XREC_ROUNDTRIP
360
1C5
  0
DICTIONARY
  5
1BA
330
33
100
AcDbDictionary
280
     1
281
     1
  3
ACAD_XREC_ROUNDTRIP
360
1BB
  0
DICTIONARY
  5
1C2
330
37
100
AcDbDictionary
280
     1
281
     1
  3
ACAD_XREC_ROUNDTRIP
360
1C3
  0
XRECORD
  5
1CD
102
{ACAD_REACTORS
330
1CC
102
}
330
1CC
100
AcDbXrecord
280
     1
102
MATERIAL
148
0.0
149
0.0
149
0.0
 93
        0
 94
      127
282
     0
 72
     1
 77
     1
171
     1
175
     1
179
     1
273
     0
  0
XRECORD
  5
1CB
102
{ACAD_REACTORS
330
1CA
102
}
330
1CA
100
AcDbXrecord
280
     1
102
MATERIAL
148
0.0
149
0.0
149
0.0
 93
        0
 94
      127
282
     0
 72
     1
 77
     1
171
     1
175
     1
179
     1
273
     0
  0
XRECORD
  5
1CF
102
{ACAD_REACTORS
330
1CE
102
}
330
1CE
100
AcDbXrecord
280
     1
102
MATERIAL
148
0.0
149
0.0
149
0.0
 93
        0
 94
      127
282
     0
 72
     1
 77
     1
171
     1
175
     1
179
     1
273
     0
  0
XRECORD
  5
1B3
102
{ACAD_REACTORS
330
1B2
102
}
330
1B2
100
AcDbXrecord
280
     1
102
RTVSPropertyOp0
 70
     1
102
RTVSPropertyOp1
 70
     1
102
RTVSPropertyOp2
 70
     1
102
RTVSPropertyOp3
 70
     1
102
RTVSPropertyOp4
 70
     1
102
RTVSPropertyOp5
 70
     1
102
RTVSPropertyOp6
 70
     1
102
RTVSPropertyOp7
 70
     1
102
RTVSPropertyOp8
 70
     1
102
RTVSPropertyOp9
 70
     1
102
RTVSPropertyOp10
 70
     1
102
RTVSPropertyOp11
 70
     1
102
RTVSPropertyOp12
 70
     1
102
RTVSPropertyOp13
 70
     1
102
RTVSPropertyOp14
 70
     1
102
RTVSPropertyOp15
 70
     1
102
RTVSPropertyOp16
 70
     1
102
RTVSPropertyOp17
 70
     1
102
RTVSPropertyOp18
 70
     1
102
RTVSPropertyOp19
 70
     1
102
RTVSPropertyOp20
 70
     1
102
RTVSPropertyOp21
 70
     1
102
RTVSPropertyOp22
 70
     1
102
RTVSPropertyOp23
 70
     1
102
RTVSPropertyOp24
 70
     1
102
RTVSPropertyOp25
 70
     1
102
RTVSPropertyOp26
 70
     1
102
RTVSPropertyOp27
 70
     1
102
RTVSPropertyOp28
 70
     1
102
RTVSPropertyOp29
 70
     1
102
RTVSPropertyOp30
 70
     1
102
RTVSPropertyOp31
 70
     1
102
RTVSPropertyOp32
 70
     1
  0
XRECORD
  5
1B7
102
{ACAD_REACTORS
330
1B6
102
}
330
1B6
100
AcDbXrecord
280
     1
102
RTVSPropertyOp0
 70
     1
102
RTVSPropertyOp1
 70
     1
102
RTVSPropertyOp2
 70
     1
102
RTVSPropertyOp3
 70
     1
102
RTVSPropertyOp4
 70
     1
102
RTVSPropertyOp5
 70
     1
102
RTVSPropertyOp6
 70
     1
102
RTVSPropertyOp7
 70
     1
102
RTVSPropertyOp8
 70
     1
102
RTVSPropertyOp9
 70
     1
102
RTVSPropertyOp10
 70
     1
102
RTVSPropertyOp11
 70
     1
102
RTVSPropertyOp12
 70
     1
102
RTVSPropertyOp13
 70
     1
102
RTVSPropertyOp14
 70
     1
102
RTVSPropertyOp15
 70
     1
102
RTVSPropertyOp16
 70
     1
102
RTVSPropertyOp17
 70
     1
102
RTVSPropertyOp18
 70
     1
102
RTVSPropertyOp19
 70
     1
102
RTVSPropertyOp20
 70
     1
102
RTVSPropertyOp21
 70
     1
102
RTVSPropertyOp22
 70
     1
102
RTVSPropertyOp23
 70
     1
102
RTVSPropertyOp24
 70
     1
102
RTVSPropertyOp25
 70
     1
102
RTVSPropertyOp26
 70
     1
102
RTVSPropertyOp27
 70
     1
102
RTVSPropertyOp28
 70
     1
102
RTVSPropertyOp29
 70
     1
102
RTVSPropertyOp30
 70
     1
102
RTVSPropertyOp31
 70
     1
102
RTVSPropertyOp32
 70
     1
  0
XRECORD
  5
1B5
102
{ACAD_REACTORS
330
1B4
102
}
330
1B4
100
AcDbXrecord
280
     1
102
RTVSPropertyOp0
 70
     1
102
RTVSPropertyOp1
 70
     1
102
RTVSPropertyOp2
 70
     1
102
RTVSPropertyOp3
 70
     1
102
RTVSPropertyOp4
 70
     1
102
RTVSPropertyOp5
 70
     1
102
RTVSPropertyOp6
 70
     1
102
RTVSPropertyOp7
 70
     1
102
RTVSPropertyOp8
 70
     1
102
RTVSPropertyOp9
 70
     1
102
RTVSPropertyOp10
 70
     1
102
RTVSPropertyOp11
 70
     1
102
RTVSPropertyOp12
 70
     1
102
RTVSPropertyOp13
 70
     1
102
RTVSPropertyOp14
 70
     1
102
RTVSPropertyOp15
 70
     1
102
RTVSPropertyOp16
 70
     1
102
RTVSPropertyOp17
 70
     1
102
RTVSPropertyOp18
 70
     1
102
RTVSPropertyOp19
 70
     1
102
RTVSPropertyOp20
 70
     1
102
RTVSPropertyOp21
 70
     1
102
RTVSPropertyOp22
 70
     1
102
RTVSPropertyOp23
 70
     1
102
RTVSPropertyOp24
 70
     1
102
RTVSPropertyOp25
 70
     1
102
RTVSPropertyOp26
 70
     1
102
RTVSPropertyOp27
 70
     1
102
RTVSPropertyOp28
 70
     1
102
RTVSPropertyOp29
 70
     1
102
RTVSPropertyOp30
 70
     1
102
RTVSPropertyOp31
 70
     1
102
RTVSPropertyOp32
 70
     1
  0
XRECORD
  5
1B9
102
{ACAD_REACTORS
330
1B8
102
}
330
1B8
100
AcDbXrecord
280
     1
102
RTVSPropertyOp0
 70
     1
102
RTVSPropertyOp1
 70
     1
102
RTVSPropertyOp2
 70
     1
102
RTVSPropertyOp3
 70
     1
102
RTVSPropertyOp4
 70
     1
102
RTVSPropertyOp5
 70
     1
102
RTVSPropertyOp6
 70
     1
102
RTVSPropertyOp7
 70
     1
102
RTVSPropertyOp8
 70
     1
102
RTVSPropertyOp9
 70
     1
102
RTVSPropertyOp10
 70
     1
102
RTVSPropertyOp11
 70
     1
102
RTVSPropertyOp12
 70
     1
102
RTVSPropertyOp13
 70
     1
102
RTVSPropertyOp14
 70
     1
102
RTVSPropertyOp15
 70
     1
102
RTVSPropertyOp16
 70
     1
102
RTVSPropertyOp17
 70
     1
102
RTVSPropertyOp18
 70
     1
102
RTVSPropertyOp19
 70
     1
102
RTVSPropertyOp20
 70
     1
102
RTVSPropertyOp21
 70
     1
102
RTVSPropertyOp22
 70
     1
102
RTVSPropertyOp23
 70
     1
102
RTVSPropertyOp24
 70
     1
102
RTVSPropertyOp25
 70
     1
102
RTVSPropertyOp26
 70
     1
102
RTVSPropertyOp27
 70
     1
102
RTVSPropertyOp28
 70
     1
102
RTVSPropertyOp29
 70
     1
102
RTVSPropertyOp30
 70
     1
102
RTVSPropertyOp31
 70
     1
102
RTVSPropertyOp32
 70
     1
  0
XRECORD
  5
1C1
102
{ACAD_REACTORS
330
1C0
102
}
330
1C0
100
AcDbXrecord
280
     1
102
RTVSPropertyOp0
 70
     1
102
RTVSPropertyOp1
 70
     1
102
RTVSPropertyOp2
 70
     1
102
RTVSPropertyOp3
 70
     1
102
RTVSPropertyOp4
 70
     1
102
RTVSPropertyOp5
 70
     1
102
RTVSPropertyOp6
 70
     1
102
RTVSPropertyOp7
 70
     1
102
RTVSPropertyOp8
 70
     1
102
RTVSPropertyOp9
 70
     1
102
RTVSPropertyOp10
 70
     1
102
RTVSPropertyOp11
 70
     1
102
RTVSPropertyOp12
 70
     1
102
RTVSPropertyOp13
 70
     1
102
RTVSPropertyOp14
 70
     1
102
RTVSPropertyOp15
 70
     1
102
RTVSPropertyOp16
 70
     1
102
RTVSPropertyOp17
 70
     1
102
RTVSPropertyOp18
 70
     1
102
RTVSPropertyOp19
 70
     1
102
RTVSPropertyOp20
 70
     1
102
RTVSPropertyOp21
 70
     1
102
RTVSPropertyOp22
 70
     1
102
RTVSPropertyOp23
 70
     1
102
RTVSPropertyOp24
 70
     1
102
RTVSPropertyOp25
 70
     1
102
RTVSPropertyOp26
 70
     1
102
RTVSPropertyOp27
 70
     1
102
RTVSPropertyOp28
 70
     1
102
RTVSPropertyOp29
 70
     1
102
RTVSPropertyOp30
 70
     1
102
RTVSPropertyOp31
 70
     1
102
RTVSPropertyOp32
 70
     1
  0
XRECORD
  5
1C9
102
{ACAD_REACTORS
330
1C8
102
}
330
1C8
100
AcDbXrecord
280
     1
102
RTVSPropertyOp0
 70
     1
102
RTVSPropertyOp1
 70
     1
102
RTVSPropertyOp2
 70
     1
102
RTVSPropertyOp3
 70
     1
102
RTVSPropertyOp4
 70
     1
102
RTVSPropertyOp5
 70
     1
102
RTVSPropertyOp6
 70
     1
102
RTVSPropertyOp7
 70
     1
102
RTVSPropertyOp8
 70
     1
102
RTVSPropertyOp9
 70
     1
102
RTVSPropertyOp10
 70
     1
102
RTVSPropertyOp11
 70
     1
102
RTVSPropertyOp12
 70
     1
102
RTVSPropertyOp13
 70
     1
102
RTVSPropertyOp14
 70
     1
102
RTVSPropertyOp15
 70
     1
102
RTVSPropertyOp16
 70
     1
102
RTVSPropertyOp17
 70
     1
102
RTVSPropertyOp18
 70
     1
102
RTVSPropertyOp19
 70
     1
102
RTVSPropertyOp20
 70
     1
102
RTVSPropertyOp21
 70
     1
102
RTVSPropertyOp22
 70
     1
102
RTVSPropertyOp23
 70
     1
102
RTVSPropertyOp24
 70
     1
102
RTVSPropertyOp25
 70
     1
102
RTVSPropertyOp26
 70
     1
102
RTVSPropertyOp27
 70
     1
102
RTVSPropertyOp28
 70
     1
102
RTVSPropertyOp29
 70
     1
102
RTVSPropertyOp30
 70
     1
102
RTVSPropertyOp31
 70
     1
102
RTVSPropertyOp32
 70
     1
  0
XRECORD
  5
1BD
102
{ACAD_REACTORS
330
1BC
102
}
330
1BC
100
AcDbXrecord
280
     1
102
RTVSPropertyOp0
 70
     1
102
RTVSPropertyOp1
 70
     1
102
RTVSPropertyOp2
 70
     1
102
RTVSPropertyOp3
 70
     1
102
RTVSPropertyOp4
 70
     1
102
RTVSPropertyOp5
 70
     1
102
RTVSPropertyOp6
 70
     1
102
RTVSPropertyOp7
 70
     1
102
RTVSPropertyOp8
 70
     1
102
RTVSPropertyOp9
 70
     1
102
RTVSPropertyOp10
 70
     1
102
RTVSPropertyOp11
 70
     1
102
RTVSPropertyOp12
 70
     1
102
RTVSPropertyOp13
 70
     1
102
RTVSPropertyOp14
 70
     1
102
RTVSPropertyOp15
 70
     1
102
RTVSPropertyOp16
 70
     1
102
RTVSPropertyOp17
 70
     1
102
RTVSPropertyOp18
 70
     1
102
RTVSPropertyOp19
 70
     1
102
RTVSPropertyOp20
 70
     1
102
RTVSPropertyOp21
 70
     1
102
RTVSPropertyOp22
 70
     1
102
RTVSPropertyOp23
 70
     1
102
RTVSPropertyOp24
 70
     1
102
RTVSPropertyOp25
 70
     1
102
RTVSPropertyOp26
 70
     1
102
RTVSPropertyOp27
 70
     1
102
RTVSPropertyOp28
 70
     1
102
RTVSPropertyOp29
 70
     1
102
RTVSPropertyOp30
 70
     1
102
RTVSPropertyOp31
 70
     1
102
RTVSPropertyOp32
 70
     1
  0
XRECORD
  5
1BF
102
{ACAD_REACTORS
330
1BE
102
}
330
1BE
100
AcDbXrecord
280
     1
102
RTVSPropertyOp0
 70
     1
102
RTVSPropertyOp1
 70
     1
102
RTVSPropertyOp2
 70
     1
102
RTVSPropertyOp3
 70
     1
102
RTVSPropertyOp4
 70
     1
102
RTVSPropertyOp5
 70
     1
102
RTVSPropertyOp6
 70
     1
102
RTVSPropertyOp7
 70
     1
102
RTVSPropertyOp8
 70
     1
102
RTVSPropertyOp9
 70
     1
102
RTVSPropertyOp10
 70
     1
102
RTVSPropertyOp11
 70
     1
102
RTVSPropertyOp12
 70
     1
102
RTVSPropertyOp13
 70
     1
102
RTVSPropertyOp14
 70
     1
102
RTVSPropertyOp15
 70
     1
102
RTVSPropertyOp16
 70
     1
102
RTVSPropertyOp17
 70
     1
102
RTVSPropertyOp18
 70
     1
102
RTVSPropertyOp19
 70
     1
102
RTVSPropertyOp20
 70
     1
102
RTVSPropertyOp21
 70
     1
102
RTVSPropertyOp22
 70
     1
102
RTVSPropertyOp23
 70
     1
102
RTVSPropertyOp24
 70
     1
102
RTVSPropertyOp25
 70
     1
102
RTVSPropertyOp26
 70
     1
102
RTVSPropertyOp27
 70
     1
102
RTVSPropertyOp28
 70
     1
102
RTVSPropertyOp29
 70
     1
102
RTVSPropertyOp30
 70
     1
102
RTVSPropertyOp31
 70
     1
102
RTVSPropertyOp32
 70
     1
  0
XRECORD
  5
1C7
102
{ACAD_REACTORS
330
1C6
102
}
330
1C6
100
AcDbXrecord
280
     1
102
RTVSPropertyOp0
 70
     1
102
RTVSPropertyOp1
 70
     1
102
RTVSPropertyOp2
 70
     1
102
RTVSPropertyOp3
 70
     1
102
RTVSPropertyOp4
 70
     1
102
RTVSPropertyOp5
 70
     1
102
RTVSPropertyOp6
 70
     1
102
RTVSPropertyOp7
 70
     1
102
RTVSPropertyOp8
 70
     1
102
RTVSPropertyOp9
 70
     1
102
RTVSPropertyOp10
 70
     1
102
RTVSPropertyOp11
 70
     1
102
RTVSPropertyOp12
 70
     1
102
RTVSPropertyOp13
 70
     1
102
RTVSPropertyOp14
 70
     1
102
RTVSPropertyOp15
 70
     1
102
RTVSPropertyOp16
 70
     1
102
RTVSPropertyOp17
 70
     1
102
RTVSPropertyOp18
 70
     1
102
RTVSPropertyOp19
 70
     1
102
RTVSPropertyOp20
 70
     1
102
RTVSPropertyOp21
 70
     1
102
RTVSPropertyOp22
 70
     1
102
RTVSPropertyOp23
 70
     1
102
RTVSPropertyOp24
 70
     1
102
RTVSPropertyOp25
 70
     1
102
RTVSPropertyOp26
 70
     1
102
RTVSPropertyOp27
 70
     1
102
RTVSPropertyOp28
 70
     1
102
RTVSPropertyOp29
 70
     1
102
RTVSPropertyOp30
 70
     1
102
RTVSPropertyOp31
 70
     1
102
RTVSPropertyOp32
 70
     1
  0
XRECORD
  5
1AB
102
{ACAD_REACTORS
330
1AA
102
}
330
1AA
100
AcDbXrecord
280
     1
102
RTVSPropertyOp0
 70
     1
102
RTVSPropertyOp1
 70
     1
102
RTVSPropertyOp2
 70
     1
102
RTVSPropertyOp3
 70
     1
102
RTVSPropertyOp4
 70
     1
102
RTVSPropertyOp5
 70
     1
102
RTVSPropertyOp6
 70
     1
102
RTVSPropertyOp7
 70
     1
102
RTVSPropertyOp8
 70
     1
102
RTVSPropertyOp9
 70
     1
102
RTVSPropertyOp10
 70
     1
102
RTVSPropertyOp11
 70
     1
102
RTVSPropertyOp12
 70
     1
102
RTVSPropertyOp13
 70
     1
102
RTVSPropertyOp14
 70
     1
102
RTVSPropertyOp15
 70
     1
102
RTVSPropertyOp16
 70
     1
102
RTVSPropertyOp17
 70
     1
102
RTVSPropertyOp18
 70
     1
102
RTVSPropertyOp19
 70
     1
102
RTVSPropertyOp20
 70
     1
102
RTVSPropertyOp21
 70
     1
102
RTVSPropertyOp22
 70
     1
102
RTVSPropertyOp23
 70
     1
102
RTVSPropertyOp24
 70
     1
102
RTVSPropertyOp25
 70
     1
102
RTVSPropertyOp26
 70
     1
102
RTVSPropertyOp27
 70
     1
102
RTVSPropertyOp28
 70
     1
102
RTVSPropertyOp29
 70
     1
102
RTVSPropertyOp30
 70
     1
102
RTVSPropertyOp31
 70
     1
102
RTVSPropertyOp32
 70
     1
  0
XRECORD
  5
1AD
102
{ACAD_REACTORS
330
1AC
102
}
330
1AC
100
AcDbXrecord
280
     1
102
RTVSPropertyOp0
 70
     1
102
RTVSPropertyOp1
 70
     1
102
RTVSPropertyOp2
 70
     1
102
RTVSPropertyOp3
 70
     1
102
RTVSPropertyOp4
 70
     1
102
RTVSPropertyOp5
 70
     1
102
RTVSPropertyOp6
 70
     1
102
RTVSPropertyOp7
 70
     1
102
RTVSPropertyOp8
 70
     1
102
RTVSPropertyOp9
 70
     1
102
RTVSPropertyOp10
 70
     1
102
RTVSPropertyOp11
 70
     1
102
RTVSPropertyOp12
 70
     1
102
RTVSPropertyOp13
 70
     1
102
RTVSPropertyOp14
 70
     1
102
RTVSPropertyOp15
 70
     1
102
RTVSPropertyOp16
 70
     1
102
RTVSPropertyOp17
 70
     1
102
RTVSPropertyOp18
 70
     1
102
RTVSPropertyOp19
 70
     1
102
RTVSPropertyOp20
 70
     1
102
RTVSPropertyOp21
 70
     1
102
RTVSPropertyOp22
 70
     1
102
RTVSPropertyOp23
 70
     1
102
RTVSPropertyOp24
 70
     1
102
RTVSPropertyOp25
 70
     1
102
RTVSPropertyOp26
 70
     1
102
RTVSPropertyOp27
 70
     1
102
RTVSPropertyOp28
 70
     1
102
RTVSPropertyOp29
 70
     1
102
RTVSPropertyOp30
 70
     1
102
RTVSPropertyOp31
 70
     1
102
RTVSPropertyOp32
 70
     1
  0
XRECORD
  5
1AF
102
{ACAD_REACTORS
330
1AE
102
}
330
1AE
100
AcDbXrecord
280
     1
102
RTVSPropertyOp0
 70
     1
102
RTVSPropertyOp1
 70
     1
102
RTVSPropertyOp2
 70
     1
102
RTVSPropertyOp3
 70
     1
102
RTVSPropertyOp4
 70
     1
102
RTVSPropertyOp5
 70
     1
102
RTVSPropertyOp6
 70
     1
102
RTVSPropertyOp7
 70
     1
102
RTVSPropertyOp8
 70
     1
102
RTVSPropertyOp9
 70
     1
102
RTVSPropertyOp10
 70
     1
102
RTVSPropertyOp11
 70
     1
102
RTVSPropertyOp12
 70
     1
102
RTVSPropertyOp13
 70
     1
102
RTVSPropertyOp14
 70
     1
102
RTVSPropertyOp15
 70
     1
102
RTVSPropertyOp16
 70
     1
102
RTVSPropertyOp17
 70
     1
102
RTVSPropertyOp18
 70
     1
102
RTVSPropertyOp19
 70
     1
102
RTVSPropertyOp20
 70
     1
102
RTVSPropertyOp21
 70
     1
102
RTVSPropertyOp22
 70
     1
102
RTVSPropertyOp23
 70
     1
102
RTVSPropertyOp24
 70
     1
102
RTVSPropertyOp25
 70
     1
102
RTVSPropertyOp26
 70
     1
102
RTVSPropertyOp27
 70
     1
102
RTVSPropertyOp28
 70
     1
102
RTVSPropertyOp29
 70
     1
102
RTVSPropertyOp30
 70
     1
102
RTVSPropertyOp31
 70
     1
102
RTVSPropertyOp32
 70
     1
  0
XRECORD
  5
1B1
102
{ACAD_REACTORS
330
1B0
102
}
330
1B0
100
AcDbXrecord
280
     1
102
RTVSPropertyOp0
 70
     1
102
RTVSPropertyOp1
 70
     1
102
RTVSPropertyOp2
 70
     1
102
RTVSPropertyOp3
 70
     1
102
RTVSPropertyOp4
 70
     1
102
RTVSPropertyOp5
 70
     1
102
RTVSPropertyOp6
 70
     1
102
RTVSPropertyOp7
 70
     1
102
RTVSPropertyOp8
 70
     1
102
RTVSPropertyOp9
 70
     1
102
RTVSPropertyOp10
 70
     1
102
RTVSPropertyOp11
 70
     1
102
RTVSPropertyOp12
 70
     1
102
RTVSPropertyOp13
 70
     1
102
RTVSPropertyOp14
 70
     1
102
RTVSPropertyOp15
 70
     1
102
RTVSPropertyOp16
 70
     1
102
RTVSPropertyOp17
 70
     1
102
RTVSPropertyOp18
 70
     1
102
RTVSPropertyOp19
 70
     1
102
RTVSPropertyOp20
 70
     1
102
RTVSPropertyOp21
 70
     1
102
RTVSPropertyOp22
 70
     1
102
RTVSPropertyOp23
 70
     1
102
RTVSPropertyOp24
 70
     1
102
RTVSPropertyOp25
 70
     1
102
RTVSPropertyOp26
 70
     1
102
RTVSPropertyOp27
 70
     1
102
RTVSPropertyOp28
 70
     1
102
RTVSPropertyOp29
 70
     1
102
RTVSPropertyOp30
 70
     1
102
RTVSPropertyOp31
 70
     1
102
RTVSPropertyOp32
 70
     1
  0
XRECORD
  5
1C5
102
{ACAD_REACTORS
330
1C4
102
}
330
1C4
100
AcDbXrecord
280
     1
102
RTVSPropertyOp0
 70
     1
102
RTVSPropertyOp1
 70
     1
102
RTVSPropertyOp2
 70
     1
102
RTVSPropertyOp3
 70
     1
102
RTVSPropertyOp4
 70
     1
102
RTVSPropertyOp5
 70
     1
102
RTVSPropertyOp6
 70
     1
102
RTVSPropertyOp7
 70
     1
102
RTVSPropertyOp8
 70
     1
102
RTVSPropertyOp9
 70
     1
102
RTVSPropertyOp10
 70
     1
102
RTVSPropertyOp11
 70
     1
102
RTVSPropertyOp12
 70
     1
102
RTVSPropertyOp13
 70
     1
102
RTVSPropertyOp14
 70
     1
102
RTVSPropertyOp15
 70
     1
102
RTVSPropertyOp16
 70
     1
102
RTVSPropertyOp17
 70
     1
102
RTVSPropertyOp18
 70
     1
102
RTVSPropertyOp19
 70
     1
102
RTVSPropertyOp20
 70
     1
102
RTVSPropertyOp21
 70
     1
102
RTVSPropertyOp22
 70
     1
102
RTVSPropertyOp23
 70
     1
102
RTVSPropertyOp24
 70
     1
102
RTVSPropertyOp25
 70
     1
102
RTVSPropertyOp26
 70
     1
102
RTVSPropertyOp27
 70
     1
102
RTVSPropertyOp28
 70
     1
102
RTVSPropertyOp29
 70
     1
102
RTVSPropertyOp30
 70
     1
102
RTVSPropertyOp31
 70
     1
102
RTVSPropertyOp32
 70
     1
  0
XRECORD
  5
1BB
102
{ACAD_REACTORS
330
1BA
102
}
330
1BA
100
AcDbXrecord
280
     1
102
RTVSPropertyOp0
 70
     1
102
RTVSPropertyOp1
 70
     1
102
RTVSPropertyOp2
 70
     1
102
RTVSPropertyOp3
 70
     1
102
RTVSPropertyOp4
 70
     1
102
RTVSPropertyOp5
 70
     1
102
RTVSPropertyOp6
 70
     1
102
RTVSPropertyOp7
 70
     1
102
RTVSPropertyOp8
 70
     1
102
RTVSPropertyOp9
 70
     1
102
RTVSPropertyOp10
 70
     1
102
RTVSPropertyOp11
 70
     1
102
RTVSPropertyOp12
 70
     1
102
RTVSPropertyOp13
 70
     1
102
RTVSPropertyOp14
 70
     1
102
RTVSPropertyOp15
 70
     1
102
RTVSPropertyOp16
 70
     1
102
RTVSPropertyOp17
 70
     1
102
RTVSPropertyOp18
 70
     1
102
RTVSPropertyOp19
 70
     1
102
RTVSPropertyOp20
 70
     1
102
RTVSPropertyOp21
 70
     1
102
RTVSPropertyOp22
 70
     1
102
RTVSPropertyOp23
 70
     1
102
RTVSPropertyOp24
 70
     1
102
RTVSPropertyOp25
 70
     1
102
RTVSPropertyOp26
 70
     1
102
RTVSPropertyOp27
 70
     1
102
RTVSPropertyOp28
 70
     1
102
RTVSPropertyOp29
 70
     1
102
RTVSPropertyOp30
 70
     1
102
RTVSPropertyOp31
 70
     1
102
RTVSPropertyOp32
 70
     1
  0
XRECORD
  5
1C3
102
{ACAD_REACTORS
330
1C2
102
}
330
1C2
100
AcDbXrecord
280
     1
102
RTVSPropertyOp0
 70
     1
102
RTVSPropertyOp1
 70
     1
102
RTVSPropertyOp2
 70
     1
102
RTVSPropertyOp3
 70
     1
102
RTVSPropertyOp4
 70
     1
102
RTVSPropertyOp5
 70
     1
102
RTVSPropertyOp6
 70
     1
102
RTVSPropertyOp7
 70
     1
102
RTVSPropertyOp8
 70
     1
102
RTVSPropertyOp9
 70
     1
102
RTVSPropertyOp10
 70
     1
102
RTVSPropertyOp11
 70
     1
102
RTVSPropertyOp12
 70
     1
102
RTVSPropertyOp13
 70
     1
102
RTVSPropertyOp14
 70
     1
102
RTVSPropertyOp15
 70
     1
102
RTVSPropertyOp16
 70
     1
102
RTVSPropertyOp17
 70
     1
102
RTVSPropertyOp18
 70
     1
102
RTVSPropertyOp19
 70
     1
102
RTVSPropertyOp20
 70
     1
102
RTVSPropertyOp21
 70
     1
102
RTVSPropertyOp22
 70
     1
102
RTVSPropertyOp23
 70
     1
102
RTVSPropertyOp24
 70
     1
102
RTVSPropertyOp25
 70
     1
102
RTVSPropertyOp26
 70
     1
102
RTVSPropertyOp27
 70
     1
102
RTVSPropertyOp28
 70
     1
102
RTVSPropertyOp29
 70
     1
102
RTVSPropertyOp30
 70
     1
102
RTVSPropertyOp31
 70
     1
102
RTVSPropertyOp32
 70
     1
  0
ENDSEC
  0
EOF
