  0
SECTION
  2
HEADER
  9
$ACADVER
  1
AC1015
  9
$ACADMAINTVER
 70
     6
  9
$DWGCODEPAGE
  3
ANSI_932
  9
$INSBASE
 10
0.0
 20
0.0
 30
0.0
  9
$EXTMIN
 10
0.0
 20
0.0
 30
0.0
  9
$EXTMAX
 10
209.9999999999999
 20
297.0
 30
0.0
  9
$LIMMIN
 10
0.0
 20
0.0
  9
$LIMMAX
 10
12.0
 20
9.0
  9
$ORTHOMODE
 70
     0
  9
$REGENMODE
 70
     1
  9
$FILLMODE
 70
     1
  9
$QTEXTMODE
 70
     0
  9
$MIRRTEXT
 70
     1
  9
$LTSCALE
 40
1.0
  9
$ATTMODE
 70
     1
  9
$TEXTSIZE
 40
0.2
  9
$TRACEWID
 40
0.05
  9
$TEXTSTYLE
  7
Standard
  9
$CLAYER
  8
0
  9
$CELTYPE
  6
ByLayer
  9
$CECOLOR
 62
   256
  9
$CELTSCALE
 40
1.0
  9
$DISPSILH
 70
     0
  9
$DIMSCALE
 40
1.0
  9
$DIMASZ
 40
0.18
  9
$DIMEXO
 40
0.0625
  9
$DIMDLI
 40
0.38
  9
$DIMRND
 40
0.0
  9
$DIMDLE
 40
0.0
  9
$DIMEXE
 40
0.18
  9
$DIMTP
 40
0.0
  9
$DIMTM
 40
0.0
  9
$DIMTXT
 40
0.18
  9
$DIMCEN
 40
0.09
  9
$DIMTSZ
 40
0.0
  9
$DIMTOL
 70
     0
  9
$DIMLIM
 70
     0
  9
$DIMTIH
 70
     1
  9
$DIMTOH
 70
     1
  9
$DIMSE1
 70
     0
  9
$DIMSE2
 70
     0
  9
$DIMTAD
 70
     0
  9
$DIMZIN
 70
     0
  9
$DIMBLK
  1

  9
$DIMASO
 70
     1
  9
$DIMSHO
 70
     1
  9
$DIMPOST
  1

  9
$DIMAPOST
  1

  9
$DIMALT
 70
     0
  9
$DIMALTD
 70
     2
  9
$DIMALTF
 40
25.4
  9
$DIMLFAC
 40
1.0
  9
$DIMTOFL
 70
     0
  9
$DIMTVP
 40
0.0
  9
$DIMTIX
 70
     0
  9
$DIMSOXD
 70
     0
  9
$DIMSAH
 70
     0
  9
$DIMBLK1
  1

  9
$DIMBLK2
  1

  9
$DIMSTYLE
  2
Standard
  9
$DIMCLRD
 70
     0
  9
$DIMCLRE
 70
     0
  9
$DIMCLRT
 70
     0
  9
$DIMTFAC
 40
1.0
  9
$DIMGAP
 40
0.09
  9
$DIMJUST
 70
     0
  9
$DIMSD1
 70
     0
  9
$DIMSD2
 70
     0
  9
$DIMTOLJ
 70
     1
  9
$DIMTZIN
 70
     0
  9
$DIMALTZ
 70
     0
  9
$DIMALTTZ
 70
     0
  9
$DIMUPT
 70
     0
  9
$DIMDEC
 70
     4
  9
$DIMTDEC
 70
     4
  9
$DIMALTU
 70
     2
  9
$DIMALTTD
 70
     2
  9
$DIMTXSTY
  7
Standard
  9
$DIMAUNIT
 70
     0
  9
$DIMADEC
 70
     0
  9
$DIMALTRND
 40
0.0
  9
$DIMAZIN
 70
     0
  9
$DIMDSEP
 70
    46
  9
$DIMATFIT
 70
     3
  9
$DIMFRAC
 70
     0
  9
$DIMLDRBLK
  1

  9
$DIMLUNIT
 70
     2
  9
$DIMLWD
 70
    -2
  9
$DIMLWE
 70
    -2
  9
$DIMTMOVE
 70
     0
  9
$LUNITS
 70
     2
  9
$LUPREC
 70
     4
  9
$SKETCHINC
 40
0.1
  9
$FILLETRAD
 40
0.5
  9
$AUNITS
 70
     0
  9
$AUPREC
 70
     0
  9
$MENU
  1
.
  9
$ELEVATION
 40
0.0
  9
$PELEVATION
 40
0.0
  9
$THICKNESS
 40
0.0
  9
$LIMCHECK
 70
     0
  9
$CHAMFERA
 40
0.5
  9
$CHAMFERB
 40
0.5
  9
$CHAMFERC
 40
1.0
  9
$CHAMFERD
 40
0.0
  9
$SKPOLY
 70
     0
  9
$TDCREATE
 40
2460362.596484769
  9
$TDUCREATE
 40
2460362.221484769
  9
$TDUPDATE
 40
2460362.596486215
  9
$TDUUPDATE
 40
2460362.221486215
  9
$TDINDWG
 40
0.0000000116
  9
$TDUSRTIMER
 40
0.0000000116
  9
$USRTIMER
 70
     1
  9
$ANGBASE
 50
0.0
  9
$ANGDIR
 70
     0
  9
$PDMODE
 70
     0
  9
$PDSIZE
 40
0.0
  9
$PLINEWID
 40
0.0
  9
$SPLFRAME
 70
     0
  9
$SPLINETYPE
 70
     6
  9
$SPLINESEGS
 70
     8
  9
$HANDSEED
  5
180
  9
$SURFTAB1
 70
     6
  9
$SURFTAB2
 70
     6
  9
$SURFTYPE
 70
     6
  9
$SURFU
 70
     6
  9
$SURFV
 70
     6
  9
$UCSBASE
  2

  9
$UCSNAME
  2

  9
$UCSORG
 10
0.0
 20
0.0
 30
0.0
  9
$UCSXDIR
 10
1.0
 20
0.0
 30
0.0
  9
$UCSYDIR
 10
0.0
 20
1.0
 30
0.0
  9
$UCSORTHOREF
  2

  9
$UCSORTHOVIEW
 70
     0
  9
$UCSORGTOP
 10
0.0
 20
0.0
 30
0.0
  9
$UCSORGBOTTOM
 10
0.0
 20
0.0
 30
0.0
  9
$UCSORGLEFT
 10
0.0
 20
0.0
 30
0.0
  9
$UCSORGRIGHT
 10
0.0
 20
0.0
 30
0.0
  9
$UCSORGFRONT
 10
0.0
 20
0.0
 30
0.0
  9
$UCSORGBACK
 10
0.0
 20
0.0
 30
0.0
  9
$PUCSBASE
  2

  9
$PUCSNAME
  2

  9
$PUCSORG
 10
0.0
 20
0.0
 30
0.0
  9
$PUCSXDIR
 10
1.0
 20
0.0
 30
0.0
  9
$PUCSYDIR
 10
0.0
 20
1.0
 30
0.0
  9
$PUCSORTHOREF
  2

  9
$PUCSORTHOVIEW
 70
     0
  9
$PUCSORGTOP
 10
0.0
 20
0.0
 30
0.0
  9
$PUCSORGBOTTOM
 10
0.0
 20
0.0
 30
0.0
  9
$PUCSORGLEFT
 10
0.0
 20
0.0
 30
0.0
  9
$PUCSORGRIGHT
 10
0.0
 20
0.0
 30
0.0
  9
$PUCSORGFRONT
 10
0.0
 20
0.0
 30
0.0
  9
$PUCSORGBACK
 10
0.0
 20
0.0
 30
0.0
  9
$USERI1
 70
     0
  9
$USERI2
 70
     0
  9
$USERI3
 70
     0
  9
$USERI4
 70
     0
  9
$USERI5
 70
     0
  9
$USERR1
 40
18.1
  9
$USERR2
 40
0.0
  9
$USERR3
 40
0.0
  9
$USERR4
 40
0.0
  9
$USERR5
 40
0.0
  9
$WORLDVIEW
 70
     1
  9
$SHADEDGE
 70
     3
  9
$SHADEDIF
 70
    70
  9
$TILEMODE
 70
     1
  9
$MAXACTVP
 70
    64
  9
$PINSBASE
 10
0.0
 20
0.0
 30
0.0
  9
$PLIMCHECK
 70
     0
  9
$PEXTMIN
 10
1.00000000000000E+20
 20
1.00000000000000E+20
 30
1.00000000000000E+20
  9
$PEXTMAX
 10
-1.00000000000000E+20
 20
-1.00000000000000E+20
 30
-1.00000000000000E+20
  9
$PLIMMIN
 10
0.0
 20
0.0
  9
$PLIMMAX
 10
12.0
 20
9.0
  9
$UNITMODE
 70
     0
  9
$VISRETAIN
 70
     1
  9
$PLINEGEN
 70
     0
  9
$PSLTSCALE
 70
     1
  9
$TREEDEPTH
 70
  3020
  9
$CMLSTYLE
  2
Standard
  9
$CMLJUST
 70
     0
  9
$CMLSCALE
 40
1.0
  9
$PROXYGRAPHICS
 70
     1
  9
$MEASUREMENT
 70
     1
  9
$CELWEIGHT
370
    -1
  9
$ENDCAPS
280
     0
  9
$JOINSTYLE
280
     0
  9
$LWDISPLAY
290
     0
  9
$INSUNITS
 70
     4
  9
$HYPERLINKBASE
  1

  9
$STYLESHEET
  1

  9
$XEDIT
290
     1
  9
$CEPSNTYPE
380
     0
  9
$PSTYLEMODE
290
     1
  9
$FINGERPRINTGUID
  2
{7EF98FAA-FC8E-4A07-9B82-8DC87FF4F2C2}
  9
$VERSIONGUID
  2
{FAEB1C32-E019-11D5-929B-00C0DF256EC4}
  9
$EXTNAMES
290
     1
  9
$PSVPSCALE
 40
0.0
  9
$OLESTARTUP
290
     0
  0
ENDSEC
  0
SECTION
  2
CLASSES
  0
CLASS
  1
ACDBDICTIONARYWDFLT
  2
AcDbDictionaryWithDefault
  3
ObjectDBX Classes
 90
        0
280
     0
281
     0
  0
CLASS
  1
VISUALSTYLE
  2
AcDbVisualStyle
  3
ObjectDBX Classes
 90
     4095
280
     0
281
     0
  0
CLASS
  1
MATERIAL
  2
AcDbMaterial
  3
ObjectDBX Classes
 90
     1153
280
     0
281
     0
  0
CLASS
  1
DICTIONARYVAR
  2
AcDbDictionaryVar
  3
ObjectDBX Classes
 90
        0
280
     0
281
     0
  0
CLASS
  1
ACDBPLACEHOLDER
  2
AcDbPlaceHolder
  3
ObjectDBX Classes
 90
        0
280
     0
281
     0
  0
CLASS
  1
LAYOUT
  2
AcDbLayout
  3
ObjectDBX Classes
 90
        0
280
     0
281
     0
  0
ENDSEC
  0
SECTION
  2
TABLES
  0
TABLE
  2
VPORT
  5
8
330
0
100
AcDbSymbolTable
 70
     1
  0
VPORT
  5
29
330
8
100
AcDbSymbolTableRecord
100
AcDbViewportTableRecord
  2
*Active
 70
     0
 10
0.0
 20
0.0
 11
1.0
 21
1.0
 12
104.9999999999999
 22
148.5
 13
0.0
 23
0.0
 14
0.5
 24
0.5
 15
0.5
 25
0.5
 16
0.0
 26
0.0
 36
1.0
 17
0.0
 27
0.0
 37
0.0
 40
326.7
 41
1.60267857142857
 42
50.0
 43
0.0
 44
0.0
 50
0.0
 51
0.0
 71
     0
 72
   100
 73
     1
 74
     3
 75
     0
 76
     0
 77
     0
 78
     0
281
     0
 65
     1
110
0.0
120
0.0
130
0.0
111
1.0
121
0.0
131
0.0
112
0.0
122
1.0
132
0.0
 79
     0
146
0.0
  0
ENDTAB
  0
TABLE
  2
LTYPE
  5
5
330
0
100
AcDbSymbolTable
 70
     8
  0
LTYPE
  5
14
330
5
100
AcDbSymbolTableRecord
100
AcDbLinetypeTableRecord
  2
ByBlock
 70
     0
  3

 72
    65
 73
     0
 40
0.0
  0
LTYPE
  5
15
330
5
100
AcDbSymbolTableRecord
100
AcDbLinetypeTableRecord
  2
ByLayer
 70
     0
  3

 72
    65
 73
     0
 40
0.0
  0
LTYPE
  5
16
330
5
100
AcDbSymbolTableRecord
100
AcDbLinetypeTableRecord
  2
Continuous
 70
     0
  3
Solid line
 72
    65
 73
     0
 40
0.0
  0
LTYPE
  5
3F
330
5
100
AcDbSymbolTableRecord
100
AcDbLinetypeTableRecord
  2
DASHED
 70
     0
  3
Dashed
 72
    65
 73
     2
 40
15.0
 49
7.0
 74
     0
 49
-8.0
 74
     0
  0
LTYPE
  5
40
330
5
100
AcDbSymbolTableRecord
100
AcDbLinetypeTableRecord
  2
DOTTED
 70
     0
  3
Dotted
 72
    65
 73
     2
 40
1.0
 49
0.0
 74
     0
 49
-1.0
 74
     0
  0
LTYPE
  5
41
330
5
100
AcDbSymbolTableRecord
100
AcDbLinetypeTableRecord
  2
DOT_CENTER
 70
     0
  3
Dot_Center
 72
    65
 73
     4
 40
14.0
 49
12.0
 74
     0
 49
-1.0
 74
     0
 49
0.0
 74
     0
 49
-1.0
 74
     0
  0
LTYPE
  5
42
330
5
100
AcDbSymbolTableRecord
100
AcDbLinetypeTableRecord
  2
LONG_DASHED
 70
     0
  3
Long_Dashed
 72
    65
 73
     2
 40
15.0
 49
10.0
 74
     0
 49
-5.0
 74
     0
  0
LTYPE
  5
43
330
5
100
AcDbSymbolTableRecord
100
AcDbLinetypeTableRecord
  2
DASH_CENTER
 70
     0
  3
Dash_Center
 72
    65
 73
     4
 40
14.0
 49
11.0
 74
     0
 49
-1.0
 74
     0
 49
1.0
 74
     0
 49
-1.0
 74
     0
  0
LTYPE
  5
44
330
5
100
AcDbSymbolTableRecord
100
AcDbLinetypeTableRecord
  2
PHANTOM
 70
     0
  3
Phantom
 72
    65
 73
     6
 40
13.0
 49
10.0
 74
     0
 49
-1.0
 74
     0
 49
0.0
 74
     0
 49
-1.0
 74
     0
 49
0.0
 74
     0
 49
-1.0
 74
     0
  0
LTYPE
  5
45
330
5
100
AcDbSymbolTableRecord
100
AcDbLinetypeTableRecord
  2
CENTER_DASH_DASH
 70
     0
  3
Center_Dash_Dash
 72
    65
 73
     6
 40
14.0
 49
9.0
 74
     0
 49
-1.0
 74
     0
 49
1.0
 74
     0
 49
-1.0
 74
     0
 49
1.0
 74
     0
 49
-1.0
 74
     0
  0
ENDTAB
  0
TABLE
  2
LAYER
  5
2
330
0
100
AcDbSymbolTable
 70
     3
  0
LAYER
  5
10
330
2
100
AcDbSymbolTableRecord
100
AcDbLayerTableRecord
  2
0
 70
     0
 62
     7
  6
Continuous
370
    -3
390
F
  0
LAYER
  5
46
330
2
100
AcDbSymbolTableRecord
100
AcDbLayerTableRecord
  2
1
 70
     0
 62
     7
  6
Continuous
370
    -3
390
F
  0
LAYER
  5
47
330
2
100
AcDbSymbolTableRecord
100
AcDbLayerTableRecord
  2
_U_30EC_U_30A4_U_30E4_U_30FC_1
 70
     0
 62
     7
  6
Continuous
370
    -3
390
F
  0
ENDTAB
  0
TABLE
  2
STYLE
  5
3
330
0
100
AcDbSymbolTable
 70
     3
  0
STYLE
  5
11
330
3
100
AcDbSymbolTableRecord
100
AcDbTextStyleTableRecord
  2
Standard
 70
     0
 40
0.0
 41
1.0
 50
0.0
 71
     0
 42
0.2
  3
txt
  4

  0
STYLE
  5
B6
330
3
100
AcDbSymbolTableRecord
100
AcDbTextStyleTableRecord
  2
CONVERTER_11
 70
     0
 40
0.0
 41
0.89
 50
0.0
 71
     0
 42
0.2
  3
msmincho.ttc
  4

1001
ACAD
1000
MS Mincho
1071
    32785
  0
STYLE
  5
117
330
3
100
AcDbSymbolTableRecord
100
AcDbTextStyleTableRecord
  2
CONVERTER_12
 70
     0
 40
0.0
 41
0.9
 50
0.0
 71
     0
 42
0.2
  3
txt.shx
  4

  0
ENDTAB
  0
TABLE
  2
VIEW
  5
6
330
0
100
AcDbSymbolTable
 70
     0
  0
ENDTAB
  0
TABLE
  2
UCS
  5
7
330
0
100
AcDbSymbolTable
 70
     0
  0
ENDTAB
  0
TABLE
  2
APPID
  5
9
330
0
100
AcDbSymbolTable
 70
     1
  0
APPID
  5
12
330
9
100
AcDbSymbolTableRecord
100
AcDbRegAppTableRecord
  2
ACAD
 70
     0
  0
ENDTAB
  0
TABLE
  2
DIMSTYLE
  5
A
330
0
100
AcDbSymbolTable
 70
     5
100
AcDbDimStyleTable
  0
DIMSTYLE
105
27
330
A
100
AcDbSymbolTableRecord
100
AcDbDimStyleTableRecord
  2
Standard
 70
     0
178
     0
340
11
  0
DIMSTYLE
105
130
102
{ACAD_REACTORS
330
131
102
}
330
A
100
AcDbSymbolTableRecord
100
AcDbDimStyleTableRecord
  2
ME10_DIM_10
 70
     0
 41
3.5
 42
0.0
 44
1.0
 73
     0
 74
     0
 77
     1
 78
     8
140
3.5
147
1.0
172
     1
173
     1
174
     1
175
     1
176
     2
177
     2
271
     2
178
     7
271
     2
340
117
  0
DIMSTYLE
105
13B
102
{ACAD_REACTORS
330
13C
102
}
330
A
100
AcDbSymbolTableRecord
100
AcDbDimStyleTableRecord
  2
ME10_DIM_11
 70
     0
  3
{\Fgdt;n}<>
 41
3.5
 42
0.0
 44
1.0
 73
     0
 74
     0
 77
     1
 78
     8
140
3.5
147
1.0
172
     1
173
     1
174
     1
175
     1
176
     2
177
     2
271
     2
178
     7
271
     2
340
117
  0
DIMSTYLE
105
146
102
{ACAD_REACTORS
330
147
102
}
330
A
100
AcDbSymbolTableRecord
100
AcDbDimStyleTableRecord
  2
ME10_DIM_12
 70
     0
 41
3.5
 42
0.0
 44
1.0
 73
     0
 74
     0
 77
     1
 78
     8
140
3.5
147
1.0
172
     1
173
     1
174
     1
175
     1
176
     2
177
     2
271
     2
178
     7
271
     2
340
117
  0
DIMSTYLE
105
153
102
{ACAD_REACTORS
330
154
102
}
330
A
100
AcDbSymbolTableRecord
100
AcDbDimStyleTableRecord
  2
ME10_DIM_13
 70
     0
 41
3.5
 42
0.0
 44
1.0
 73
     0
 74
     0
 77
     1
 78
     8
140
3.5
147
1.0
172
     1
173
     1
174
     1
175
     1
176
     2
177
     2
271
     2
178
     7
271
     2
340
117
  0
ENDTAB
  0
TABLE
  2
BLOCK_RECORD
  5
1
330
0
100
AcDbSymbolTable
 70
     8
  0
BLOCK_RECORD
  5
1F
330
1
100
AcDbSymbolTableRecord
100
AcDbBlockTableRecord
  2
*Model_Space
340
22
  0
BLOCK_RECORD
  5
1B
330
1
100
AcDbSymbolTableRecord
100
AcDbBlockTableRecord
  2
*Paper_Space
340
1E
  0
BLOCK_RECORD
  5
23
330
1
100
AcDbSymbolTableRecord
100
AcDbBlockTableRecord
  2
*Paper_Space0
340
26
  0
BLOCK_RECORD
  5
48
330
1
100
AcDbSymbolTableRecord
100
AcDbBlockTableRecord
  2
開示A4
340
0
102
{BLKREFS
331
4C
102
}
  0
BLOCK_RECORD
  5
4B
330
1
100
AcDbSymbolTableRecord
100
AcDbBlockTableRecord
  2
開示A4枠
340
0
102
{BLKREFS
331
52
102
}
  0
BLOCK_RECORD
  5
4F
330
1
100
AcDbSymbolTableRecord
100
AcDbBlockTableRecord
  2
35-69
340
0
102
{BLKREFS
331
53
102
}
  0
BLOCK_RECORD
  5
127
330
1
100
AcDbSymbolTableRecord
100
AcDbBlockTableRecord
  2
*D4
340
0
  0
BLOCK_RECORD
  5
132
330
1
100
AcDbSymbolTableRecord
100
AcDbBlockTableRecord
  2
*D5
340
0
  0
BLOCK_RECORD
  5
13D
330
1
100
AcDbSymbolTableRecord
100
AcDbBlockTableRecord
  2
*D6
340
0
  0
BLOCK_RECORD
  5
148
330
1
100
AcDbSymbolTableRecord
100
AcDbBlockTableRecord
  2
*D7
340
0
  0
ENDTAB
  0
ENDSEC
  0
SECTION
  2
BLOCKS
  0
BLOCK
  5
20
330
1F
100
AcDbEntity
  8
0
100
AcDbBlockBegin
  2
*Model_Space
 70
     0
 10
0.0
 20
0.0
 30
0.0
  3
*Model_Space
  1

  0
ENDBLK
  5
21
330
1F
100
AcDbEntity
  8
0
100
AcDbBlockEnd
  0
BLOCK
  5
1C
330
1B
100
AcDbEntity
 67
     1
  8
0
100
AcDbBlockBegin
  2
*Paper_Space
 70
     0
 10
0.0
 20
0.0
 30
0.0
  3
*Paper_Space
  1

  0
ENDBLK
  5
1D
330
1B
100
AcDbEntity
 67
     1
  8
0
100
AcDbBlockEnd
  0
BLOCK
  5
24
330
23
100
AcDbEntity
  8
0
100
AcDbBlockBegin
  2
*Paper_Space0
 70
     0
 10
0.0
 20
0.0
 30
0.0
  3
*Paper_Space0
  1

  0
ENDBLK
  5
25
330
23
100
AcDbEntity
  8
0
100
AcDbBlockEnd
  0
BLOCK
  5
49
330
48
100
AcDbEntity
  8
0
100
AcDbBlockBegin
  2
開示A4
 70
     0
 10
0.0
 20
0.0
 30
0.0
  3
開示A4
  1

  0
POINT
  5
54
330
48
100
AcDbEntity
  8
1
 62
     4
100
AcDbPoint
 10
34.00000000000001
 20
34.00000000000001
 30
0.0
  0
POINT
  5
55
330
48
100
AcDbEntity
  8
1
 62
     4
100
AcDbPoint
 10
57.0
 20
12.25
 30
0.0
  0
POINT
  5
56
330
48
100
AcDbEntity
  8
1
 62
     4
100
AcDbPoint
 10
57.0
 20
20.75000000000001
 30
0.0
  0
POINT
  5
57
330
48
100
AcDbEntity
  8
1
 62
     4
100
AcDbPoint
 10
57.0
 20
24.75000000000001
 30
0.0
  0
POINT
  5
58
330
48
100
AcDbEntity
  8
1
 62
     4
100
AcDbPoint
 10
57.0
 20
16.25
 30
0.0
  0
POINT
  5
59
330
48
100
AcDbEntity
  8
1
 62
     4
100
AcDbPoint
 10
157.5
 20
19.00000000000001
 30
0.0
  0
POINT
  5
5A
330
48
100
AcDbEntity
  8
1
 62
     4
100
AcDbPoint
 10
47.50000000000001
 20
282.0000000000003
 30
0.0
  0
POINT
  5
5B
330
48
100
AcDbEntity
  8
1
 62
     4
100
AcDbPoint
 10
57.0
 20
22.75000000000001
 30
0.0
  0
POINT
  5
5C
330
48
100
AcDbEntity
  8
1
 62
     4
100
AcDbPoint
 10
57.0
 20
14.25
 30
0.0
  0
POINT
  5
5D
330
48
100
AcDbEntity
  8
1
 62
     4
100
AcDbPoint
 10
157.5
 20
12.5
 30
0.0
  0
POINT
  5
5E
330
48
100
AcDbEntity
  8
1
 62
     4
100
AcDbPoint
 10
163.25
 20
12.5
 30
0.0
  0
POINT
  5
5F
330
48
100
AcDbEntity
  8
1
 62
     4
100
AcDbPoint
 10
151.75
 20
12.5
 30
0.0
  0
POINT
  5
60
330
48
100
AcDbEntity
  8
1
 62
     4
100
AcDbPoint
 10
134.75
 20
12.5
 30
0.0
  0
POINT
  5
61
330
48
100
AcDbEntity
  8
1
 62
     4
100
AcDbPoint
 10
146.25
 20
12.5
 30
0.0
  0
POINT
  5
62
330
48
100
AcDbEntity
  8
1
 62
     4
100
AcDbPoint
 10
140.5
 20
12.5
 30
0.0
  0
POINT
  5
63
330
48
100
AcDbEntity
  8
1
 62
     4
100
AcDbPoint
 10
140.5
 20
19.00000000000001
 30
0.0
  0
POINT
  5
64
330
48
100
AcDbEntity
  8
1
 62
     4
100
AcDbPoint
 10
117.75
 20
12.5
 30
0.0
  0
POINT
  5
65
330
48
100
AcDbEntity
  8
1
 62
     4
100
AcDbPoint
 10
129.25
 20
12.5
 30
0.0
  0
POINT
  5
66
330
48
100
AcDbEntity
  8
1
 62
     4
100
AcDbPoint
 10
123.5
 20
12.5
 30
0.0
  0
POINT
  5
67
330
48
100
AcDbEntity
  8
1
 62
     4
100
AcDbPoint
 10
123.5
 20
19.00000000000001
 30
0.0
  0
POINT
  5
68
330
48
100
AcDbEntity
  8
1
 62
     4
100
AcDbPoint
 10
100.75
 20
12.5
 30
0.0
  0
POINT
  5
69
330
48
100
AcDbEntity
  8
1
 62
     4
100
AcDbPoint
 10
112.25
 20
12.5
 30
0.0
  0
POINT
  5
6A
330
48
100
AcDbEntity
  8
1
 62
     4
100
AcDbPoint
 10
106.5
 20
12.5
 30
0.0
  0
POINT
  5
6B
330
48
100
AcDbEntity
  8
1
 62
     4
100
AcDbPoint
 10
106.5
 20
19.00000000000001
 30
0.0
  0
POINT
  5
6C
330
48
100
AcDbEntity
  8
1
 62
     4
100
AcDbPoint
 10
85.25
 20
17.0
 30
0.0
  0
POINT
  5
6D
330
48
100
AcDbEntity
  8
1
 62
     4
100
AcDbPoint
 10
93.75
 20
17.0
 30
0.0
  0
POINT
  5
6E
330
48
100
AcDbEntity
  8
1
 62
     4
100
AcDbPoint
 10
182.9999999999999
 20
15.00000000000001
 30
0.0
  0
LINE
  5
6F
330
48
100
AcDbEntity
  8
1
  6
Continuous
 62
     2
100
AcDbLine
 10
81.0
 20
27.00000000000001
 30
0.0
 11
81.0
 21
10.0
 31
0.0
  0
LINE
  5
70
330
48
100
AcDbEntity
  8
1
  6
DOT_CENTER
 62
     2
100
AcDbLine
 10
186.9999999999999
 20
26.50000000000001
 30
0.0
 11
186.9999999999999
 21
20.50000000000001
 31
0.0
  0
LINE
  5
71
330
48
100
AcDbEntity
  8
1
  6
DOT_CENTER
 62
     2
100
AcDbLine
 10
183.9999999999999
 20
23.50000000000001
 30
0.0
 11
196.9999999999999
 21
23.50000000000001
 31
0.0
  0
LINE
  5
72
330
48
100
AcDbEntity
  8
1
  6
Continuous
 62
     7
100
AcDbLine
 10
195.9999999999999
 20
21.50000000000001
 30
0.0
 11
190.9999999999999
 21
22.3
 31
0.0
  0
LINE
  5
73
330
48
100
AcDbEntity
  8
1
  6
Continuous
 62
     7
100
AcDbLine
 10
195.9999999999999
 20
25.50000000000001
 30
0.0
 11
195.9999999999999
 21
21.50000000000001
 31
0.0
  0
LINE
  5
74
330
48
100
AcDbEntity
  8
1
  6
Continuous
 62
     7
100
AcDbLine
 10
190.9999999999999
 20
24.70000000000001
 30
0.0
 11
195.9999999999999
 21
25.50000000000001
 31
0.0
  0
LINE
  5
75
330
48
100
AcDbEntity
  8
1
  6
Continuous
 62
     7
100
AcDbLine
 10
190.9999999999999
 20
24.70000000000001
 30
0.0
 11
190.9999999999999
 21
22.3
 31
0.0
  0
LINE
  5
76
330
48
100
AcDbEntity
  8
1
  6
Continuous
 62
     2
100
AcDbLine
 10
33.00000000000001
 20
27.0
 30
0.0
 11
33.00000000000001
 21
10.0
 31
0.0
  0
LINE
  5
77
330
48
100
AcDbEntity
  8
1
  6
Continuous
 62
     2
100
AcDbLine
 10
25.0
 20
18.50000000000001
 30
0.0
 11
81.0
 21
18.50000000000001
 31
0.0
  0
LINE
  5
78
330
48
100
AcDbEntity
  8
1
  6
Continuous
 62
     7
100
AcDbLine
 10
199.9999999999999
 20
287.0000000000003
 30
0.0
 11
105.0
 21
287.0000000000003
 31
0.0
  0
LINE
  5
79
330
48
100
AcDbEntity
  8
1
  6
Continuous
 62
     7
100
AcDbLine
 10
199.9999999999999
 20
10.0
 30
0.0
 11
199.9999999999999
 21
148.5
 31
0.0
  0
LINE
  5
7A
330
48
100
AcDbEntity
  8
1
  6
Continuous
 62
     7
100
AcDbLine
 10
25.0
 20
10.0
 30
0.0
 11
105.0
 21
10.0
 31
0.0
  0
LINE
  5
7B
330
48
100
AcDbEntity
  8
1
  6
PHANTOM
 62
     4
100
AcDbLine
 10
0.0
 20
297.0
 30
0.0
 11
0.0
 21
0.0
 31
0.0
  0
LINE
  5
7C
330
48
100
AcDbEntity
  8
1
  6
PHANTOM
 62
     4
100
AcDbLine
 10
209.9999999999999
 20
297.0
 30
0.0
 11
0.0
 21
297.0
 31
0.0
  0
LINE
  5
7D
330
48
100
AcDbEntity
  8
1
  6
PHANTOM
 62
     4
100
AcDbLine
 10
209.9999999999999
 20
0.0
 30
0.0
 11
209.9999999999999
 21
297.0
 31
0.0
  0
LINE
  5
7E
330
48
100
AcDbEntity
  8
1
  6
PHANTOM
 62
     4
100
AcDbLine
 10
0.0
 20
0.0
 30
0.0
 11
209.9999999999999
 21
0.0
 31
0.0
  0
LINE
  5
7F
330
48
100
AcDbEntity
  8
1
  6
Continuous
 62
     7
100
AcDbLine
 10
25.0
 20
41.0
 30
0.0
 11
199.9999999999999
 21
41.0
 31
0.0
  0
LINE
  5
80
330
48
100
AcDbEntity
  8
1
  6
Continuous
 62
     7
100
AcDbLine
 10
199.9999999999999
 20
27.00000000000001
 30
0.0
 11
25.0
 21
27.00000000000001
 31
0.0
  0
LINE
  5
81
330
48
100
AcDbEntity
  8
1
  6
Continuous
 62
     2
100
AcDbLine
 10
33.00000000000001
 20
41.00000000000001
 30
0.0
 11
33.00000000000001
 21
27.0
 31
0.0
  0
LINE
  5
82
330
48
100
AcDbEntity
  8
1
  6
Continuous
 62
     2
100
AcDbLine
 10
55.0
 20
287.0000000000003
 30
0.0
 11
55.0
 21
277.0000000000003
 31
0.0
  0
LINE
  5
83
330
48
100
AcDbEntity
  8
1
  6
Continuous
 62
     2
100
AcDbLine
 10
40.00000000000001
 20
287.0000000000003
 30
0.0
 11
40.00000000000001
 21
277.0000000000003
 31
0.0
  0
LINE
  5
84
330
48
100
AcDbEntity
  8
1
  6
Continuous
 62
     7
100
AcDbLine
 10
25.0
 20
10.0
 30
0.0
 11
25.0
 21
148.5
 31
0.0
  0
LINE
  5
85
330
48
100
AcDbEntity
  8
1
  6
Continuous
 62
     2
100
AcDbLine
 10
55.0
 20
277.0000000000003
 30
0.0
 11
25.0
 21
277.0000000000003
 31
0.0
  0
LINE
  5
86
330
48
100
AcDbEntity
  8
1
  6
Continuous
 62
     2
100
AcDbLine
 10
166.0
 20
27.00000000000001
 30
0.0
 11
166.0
 21
10.0
 31
0.0
  0
LINE
  5
87
330
48
100
AcDbEntity
  8
1
  6
Continuous
 62
     2
100
AcDbLine
 10
132.0
 20
27.00000000000001
 30
0.0
 11
132.0
 21
9.99999999999999
 31
0.0
  0
LINE
  5
88
330
48
100
AcDbEntity
  8
1
  6
Continuous
 62
     2
100
AcDbLine
 10
149.0
 20
27.00000000000001
 30
0.0
 11
149.0
 21
10.0
 31
0.0
  0
LINE
  5
89
330
48
100
AcDbEntity
  8
1
  6
Continuous
 62
     2
100
AcDbLine
 10
115.0
 20
27.00000000000001
 30
0.0
 11
115.0
 21
9.99999999999999
 31
0.0
  0
LINE
  5
8A
330
48
100
AcDbEntity
  8
1
  6
Continuous
 62
     2
100
AcDbLine
 10
98.0
 20
27.00000000000001
 30
0.0
 11
98.0
 21
9.99999999999999
 31
0.0
  0
LINE
  5
8B
330
48
100
AcDbEntity
  8
1
  6
Continuous
 62
     2
100
AcDbLine
 10
166.0
 20
20.00000000000001
 30
0.0
 11
199.9999999999999
 21
20.00000000000001
 31
0.0
  0
LINE
  5
8C
330
48
100
AcDbEntity
  8
1
  6
Continuous
 62
     2
100
AcDbLine
 10
105.0
 20
287.0000000000003
 30
0.0
 11
105.0
 21
292.0000000000003
 31
0.0
  0
LINE
  5
8D
330
48
100
AcDbEntity
  8
1
  6
Continuous
 62
     7
100
AcDbLine
 10
105.0
 20
287.0000000000003
 30
0.0
 11
25.0
 21
287.0000000000003
 31
0.0
  0
LINE
  5
8E
330
48
100
AcDbEntity
  8
1
  6
Continuous
 62
     2
100
AcDbLine
 10
25.0
 20
148.5
 30
0.0
 11
20.0
 21
148.5
 31
0.0
  0
LINE
  5
8F
330
48
100
AcDbEntity
  8
1
  6
Continuous
 62
     7
100
AcDbLine
 10
25.0
 20
148.5
 30
0.0
 11
25.0
 21
287.0000000000003
 31
0.0
  0
LINE
  5
90
330
48
100
AcDbEntity
  8
1
  6
Continuous
 62
     2
100
AcDbLine
 10
199.9999999999999
 20
148.5
 30
0.0
 11
204.9999999999999
 21
148.5
 31
0.0
  0
LINE
  5
91
330
48
100
AcDbEntity
  8
1
  6
Continuous
 62
     7
100
AcDbLine
 10
199.9999999999999
 20
148.5
 30
0.0
 11
199.9999999999999
 21
287.0000000000003
 31
0.0
  0
LINE
  5
92
330
48
100
AcDbEntity
  8
1
  6
Continuous
 62
     2
100
AcDbLine
 10
105.0
 20
10.0
 30
0.0
 11
105.0
 21
5.0
 31
0.0
  0
LINE
  5
93
330
48
100
AcDbEntity
  8
1
  6
Continuous
 62
     7
100
AcDbLine
 10
105.0
 20
10.0
 30
0.0
 11
199.9999999999999
 21
10.0
 31
0.0
  0
CIRCLE
  5
98
330
48
100
AcDbEntity
  8
1
  6
DOT_CENTER
 62
     7
100
AcDbCircle
 10
89.5
 20
18.0
 30
0.0
 40
0.1000000000000227
  0
CIRCLE
  5
99
330
48
100
AcDbEntity
  8
1
  6
DOT_CENTER
 62
     7
100
AcDbCircle
 10
89.5
 20
16.0
 30
0.0
 40
0.1000000000000227
  0
CIRCLE
  5
9A
330
48
100
AcDbEntity
  8
1
  6
Continuous
 62
     7
100
AcDbCircle
 10
186.9999999999999
 20
23.50000000000001
 30
0.0
 40
2.0
  0
CIRCLE
  5
9B
330
48
100
AcDbEntity
  8
1
  6
Continuous
 62
     7
100
AcDbCircle
 10
186.9999999999999
 20
23.50000000000001
 30
0.0
 40
1.200000000000301
  0
CIRCLE
  5
9C
330
48
100
AcDbEntity
  8
1
  6
Continuous
 62
     7
100
AcDbCircle
 10
154.5
 20
12.5
 30
0.0
 40
0.3000000000000966
  0
CIRCLE
  5
9D
330
48
100
AcDbEntity
  8
1
  6
Continuous
 62
     7
100
AcDbCircle
 10
160.5
 20
12.5
 30
0.0
 40
0.3000000000000966
  0
CIRCLE
  5
9E
330
48
100
AcDbEntity
  8
1
  6
Continuous
 62
     7
100
AcDbCircle
 10
143.5
 20
12.5
 30
0.0
 40
0.3000000000000966
  0
CIRCLE
  5
9F
330
48
100
AcDbEntity
  8
1
  6
Continuous
 62
     7
100
AcDbCircle
 10
137.5
 20
12.5
 30
0.0
 40
0.3000000000000114
  0
CIRCLE
  5
A0
330
48
100
AcDbEntity
  8
1
  6
Continuous
 62
     7
100
AcDbCircle
 10
126.5
 20
12.5
 30
0.0
 40
0.2999999999999972
  0
CIRCLE
  5
A1
330
48
100
AcDbEntity
  8
1
  6
Continuous
 62
     7
100
AcDbCircle
 10
120.5
 20
12.5
 30
0.0
 40
0.2999999999999972
  0
CIRCLE
  5
A2
330
48
100
AcDbEntity
  8
1
  6
Continuous
 62
     7
100
AcDbCircle
 10
109.5
 20
12.5
 30
0.0
 40
0.2999999999999972
  0
CIRCLE
  5
A3
330
48
100
AcDbEntity
  8
1
  6
Continuous
 62
     7
100
AcDbCircle
 10
103.5
 20
12.5
 30
0.0
 40
0.2999999999999972
  0
SPLINE
  5
A4
102
{ACAD_REACTORS
330
C2
102
}
330
48
100
AcDbEntity
  8
_U_30EC_U_30A4_U_30E4_U_30FC_1
  6
Continuous
 62
     2
100
AcDbSpline
210
0.0
220
0.0
230
1.0
 70
    11
 71
     3
 72
    99
 73
    95
 74
    93
 42
0.000000001
 43
0.0000000001
 44
0.00000001
 40
0.0
 40
0.0
 40
0.0
 40
0.0
 40
0.0796417172273046
 40
0.162176854235658
 40
0.2486489160957518
 40
0.3404969668525254
 40
0.4381912511165277
 40
0.5434463660245579
 40
0.6518115192847616
 40
0.753019093788746
 40
0.8492196919725464
 40
0.9419290312998698
 40
1.034249663570084
 40
1.129078600620248
 40
1.22669702757327
 40
1.32722042542174
 40
1.470572134938064
 40
1.595489863371296
 40
1.719934125348409
 40
1.850576620127502
 40
1.989059629987333
 40
2.134139054226902
 40
2.280698007207241
 40
2.424529739039492
 40
2.565929576985857
 40
2.708239260773553
 40
2.861717887443661
 40
3.045168540347365
 40
3.183798301138614
 40
3.31481396145547
 40
3.442083470447306
 40
3.569912708372906
 40
3.702177512509279
 40
3.84230755965955
 40
3.992872223245871
 40
4.156750662218374
 40
4.310981861107482
 40
4.445859909322611
 40
4.572393936131603
 40
4.701656719782003
 40
4.768279086008491
 40
4.835960697898425
 40
4.912788918729366
 40
5.006285208481553
 40
5.026909478751686
 40
5.047533749021308
 40
5.101808031471346
 40
5.162325165538665
 40
5.226919745995985
 40
5.294231806596782
 40
5.364544852554952
 40
5.438319055468072
 40
5.517877651324353
 40
5.607647714861722
 40
5.700449642544569
 40
5.7882511423643
 40
5.87271470603988
 40
5.95516729257544
 40
6.037192395190493
 40
6.120669181469212
 40
6.206848616686467
 40
6.296680855416883
 40
6.442558392872696
 40
6.568190371608371
 40
6.692904567360497
 40
6.824220446557296
 40
6.963121850329482
 40
7.107843738851243
 40
7.253431663907381
 40
7.395187468036855
 40
7.533140753237864
 40
7.67055045717539
 40
7.816236511769395
 40
7.987691657359353
 40
8.142277421969395
 40
8.29366261541513
 40
8.442962460879409
 40
8.591598316185443
 40
8.743678992361888
 40
8.903725323699296
 40
9.076307008890673
 40
9.265578604680698
 40
9.459203795360901
 40
9.617619810273744
 40
9.753609671362103
 40
9.874873300004205
 40
9.95452018497788
 40
10.02416413719257
 40
10.09769764405458
 40
10.18909955924985
 40
10.20974586420147
 40
10.2303921826339
 40
10.30057101881274
 40
10.37632012987551
 40
10.37632012987551
 40
10.37632012987551
 40
10.37632012987551
 10
170.1465954835851
 20
14.13795663215994
 30
0.0
 10
170.1632217851219
 20
14.11720608845313
 30
0.0
 10
170.1970784206578
 20
14.07495111711903
 30
0.0
 10
170.2599822541036
 20
14.02029811392075
 30
0.0
 10
170.3332500940393
 20
13.97299025121045
 30
0.0
 10
170.4175969238636
 20
13.93527231437937
 30
0.0
 10
170.5132240615461
 20
13.9104061973195
 30
0.0
 10
170.6171853775346
 20
13.90309559345937
 30
0.0
 10
170.7224020220406
 20
13.91142322794054
 30
0.0
 10
170.8206626371333
 20
13.94149179651526
 30
0.0
 10
170.9058986427549
 20
13.98848822971878
 30
0.0
 10
170.9779220206103
 20
14.04952991250854
 30
0.0
 10
171.0350917709097
 20
14.12412969578586
 30
0.0
 10
171.076786874744
 20
14.21002464660171
 30
0.0
 10
171.1026952846292
 20
14.30485850432214
 30
0.0
 10
171.1118037332654
 20
14.41854979038365
 30
0.0
 10
171.0986864796488
 20
14.54332587770782
 30
0.0
 10
171.0325330334414
 20
14.66014719171888
 30
0.0
 10
170.9369370919569
 20
14.74512539577379
 30
0.0
 10
170.824968102237
 20
14.81416684459158
 30
0.0
 10
170.6993659583269
 20
14.87204142045889
 30
0.0
 10
170.5656691620858
 20
14.92373723284344
 30
0.0
 10
170.4313122818831
 20
14.97899092397178
 30
0.0
 10
170.3051983986877
 20
15.04939770641652
 30
0.0
 10
170.1926579987536
 20
15.1378554073125
 30
0.0
 10
170.0969963064458
 20
15.24981067868473
 30
0.0
 10
170.0334157151827
 20
15.39949910101383
 30
0.0
 10
170.0200706505016
 20
15.55932794385141
 30
0.0
 10
170.0320510987449
 20
15.71048405306845
 30
0.0
 10
170.0712298928841
 20
15.83809244591538
 30
0.0
 10
170.1354987750912
 20
15.95080874030842
 30
0.0
 10
170.223820499974
 20
16.04648609268688
 30
0.0
 10
170.3338091207627
 20
16.12354214985756
 30
0.0
 10
170.4632284401266
 20
16.18151396936274
 30
0.0
 10
170.6111838967793
 20
16.21739177588824
 30
0.0
 10
170.7682069455487
 20
16.22746719050564
 30
0.0
 10
170.9174940466431
 20
16.21863637762589
 30
0.0
 10
171.0596253614171
 20
16.19074899340354
 30
0.0
 10
171.1595922609626
 20
16.13413314701138
 30
0.0
 10
171.3125074736186
 20
16.08674602105506
 30
0.0
 10
171.2455131717169
 20
16.00197553001185
 30
0.0
 10
171.229647912027
 20
15.93438901873484
 30
0.0
 10
171.1978750531297
 20
15.86926092793191
 30
0.0
 10
171.2150202209572
 20
15.76723453256952
 30
0.0
 10
171.1666427208232
 20
15.77493211681903
 30
0.0
 10
171.1315789440766
 20
15.76806771724807
 30
0.0
 10
171.1296697985719
 20
15.83263831158199
 30
0.0
 10
171.0985692931989
 20
15.87825639621393
 30
0.0
 10
171.0664551628456
 20
15.93561036628451
 30
0.0
 10
171.0208038475169
 20
15.98540462692563
 30
0.0
 10
170.9658508218387
 20
16.02994813718996
 30
0.0
 10
170.9010841173008
 20
16.06763988836547
 30
0.0
 10
170.8232377310596
 20
16.09283375791353
 30
0.0
 10
170.7355160553352
 20
16.09931230998111
 30
0.0
 10
170.6452903277807
 20
16.09235709285607
 30
0.0
 10
170.5594594694064
 20
16.06909190460922
 30
0.0
 10
170.4828343638596
 20
16.03131644107541
 30
0.0
 10
170.4165265636201
 20
15.98051641089578
 30
0.0
 10
170.3622560536965
 20
15.91731143407209
 30
0.0
 10
170.3224925345459
 20
15.84276455710366
 30
0.0
 10
170.2976775510588
 20
15.75917313997764
 30
0.0
 10
170.2892124262872
 20
15.65192948382285
 30
0.0
 10
170.3019697987103
 20
15.5296545726756
 30
0.0
 10
170.3681548409273
 20
15.41149724291209
 30
0.0
 10
170.4640977399832
 20
15.32606325709528
 30
0.0
 10
170.5757914963183
 20
15.25583362306724
 30
0.0
 10
170.7010863668702
 20
15.19659162305303
 30
0.0
 10
170.8349823941447
 20
15.1461670808613
 30
0.0
 10
170.968993033315
 20
15.09322516984381
 30
0.0
 10
171.0950885316915
 20
15.02750170625179
 30
0.0
 10
171.2076216638417
 20
14.94480352537317
 30
0.0
 10
171.3031370284234
 20
14.83996006310077
 30
0.0
 10
171.3672706486963
 20
14.69937117251568
 30
0.0
 10
171.3811103725279
 20
14.54065409451592
 30
0.0
 10
171.3673954712229
 20
14.38153155217876
 30
0.0
 10
171.3244739153985
 20
14.23483828819207
 30
0.0
 10
171.2545906329066
 20
14.10119796587143
 30
0.0
 10
171.157459221383
 20
13.9853238769929
 30
0.0
 10
171.0347806023658
 20
13.89089981770086
 30
0.0
 10
170.8874408413169
 20
13.82179270651982
 30
0.0
 10
170.7177132497125
 20
13.77953210858852
 30
0.0
 10
170.5317404979598
 20
13.76781736230408
 30
0.0
 10
170.3528955926183
 20
13.77809486683436
 30
0.0
 10
170.1881733753744
 20
13.81966573769153
 30
0.0
 10
170.0834410841056
 20
13.88797642883939
 30
0.0
 10
169.9350960790367
 20
13.93675219032107
 30
0.0
 10
169.9980378194729
 20
14.02976591290844
 30
0.0
 10
170.0072274430061
 20
14.10296536248279
 30
0.0
 10
170.0303711301232
 20
14.16936294501346
 30
0.0
 10
170.0034588335318
 20
14.26974809527582
 30
0.0
 10
170.052133895634
 20
14.26234033517379
 30
0.0
 10
170.0916530580698
 20
14.26894063620895
 30
0.0
 10
170.0996204944703
 20
14.19078703218934
 30
0.0
 10
170.1305436967923
 20
14.15600927375857
 30
0.0
 10
170.1465954835851
 20
14.13795663215994
 30
0.0
 11
170.1465954835851
 21
14.13795663215994
 31
0.0
 11
170.1982038075865
 21
14.07729869814736
 31
0.0
 11
170.2601105501336
 21
14.0227129516332
 31
0.0
 11
170.3327764009802
 21
13.97583980928383
 31
0.0
 11
170.4166468655844
 21
13.93839906276537
 31
0.0
 11
170.511221073241
 21
13.91390636311877
 31
0.0
 11
170.6161603327166
 21
13.90575829888472
 31
0.0
 11
170.7240739497552
 21
13.91564048638223
 31
0.0
 11
170.8208419941617
 21
13.94528704887482
 31
0.0
 11
170.9050776083319
 21
13.99175118948818
 31
0.0
 11
170.9756144207687
 21
14.05191413218149
 31
0.0
 11
171.031944210998
 21
14.1250581946632
 31
0.0
 11
171.0736690016004
 21
14.21021434047522
 31
0.0
 11
171.0994680808032
 21
14.30436190989612
 31
0.0
 11
171.1080824729447
 21
14.4045155209822
 31
0.0
 11
171.0878517703357
 21
14.54643250879398
 31
0.0
 11
171.0272522666731
 21
14.65566684036388
 31
0.0
 11
170.9364971286286
 21
14.74081306430095
 31
0.0
 11
170.826010188474
 21
14.81052746532517
 31
0.0
 11
170.7008523531255
 21
14.86979854169921
 31
0.0
 11
170.5662951950999
 21
14.9240425347412
 31
0.0
 11
170.4316884277007
 21
14.98201274306004
 31
0.0
 11
170.3065802017259
 21
15.05297399304233
 31
0.0
 11
170.1960276098281
 21
15.14113315968695
 31
0.0
 11
170.1053381235266
 21
15.25080295132618
 31
0.0
 11
170.0447055469485
 21
15.39179720476315
 31
0.0
 11
170.0245079172554
 21
15.57413260402313
 31
0.0
 11
170.0374030471348
 21
15.71216131926642
 31
0.0
 11
170.0761016659392
 21
15.83733128451289
 31
0.0
 11
170.1393141731507
 21
15.94779262129084
 31
0.0
 11
170.2257499954545
 21
16.04196885390621
 31
0.0
 11
170.3336492808962
 21
16.1184654077065
 31
0.0
 11
170.4613526283329
 21
16.17615670109487
 31
0.0
 11
170.6075393259923
 21
16.21220066809973
 31
0.0
 11
170.7709768565451
 21
16.22421385386062
 31
0.0
 11
170.9248918431289
 21
16.21434269066864
 31
0.0
 11
171.0564887242608
 21
16.18477329831497
 31
0.0
 11
171.1725636344941
 21
16.13439993895252
 31
0.0
 11
171.2800792741123
 21
16.06264163167877
 31
0.0
 11
171.2516994050445
 21
16.00236624106886
 31
0.0
 11
171.2284855254284
 21
15.93879017337648
 31
0.0
 11
171.2078381040801
 21
15.86478841992269
 31
0.0
 11
171.1871840681488
 21
15.77360197897328
 31
0.0
 11
171.1665597978416
 21
15.77360197897328
 31
0.0
 11
171.1459355275343
 21
15.77360197897328
 31
0.0
 11
171.1256706495791
 21
15.82395108486347
 31
0.0
 11
171.0994658759421
 21
15.87850045116929
 31
0.0
 11
171.0650468924451
 21
15.93316116296115
 31
0.0
 11
171.0203554612938
 21
15.98349593725411
 31
0.0
 11
170.9657333359511
 21
16.02777175321529
 31
0.0
 11
170.9016722004326
 21
16.06436142334501
 31
0.0
 11
170.8259682961141
 21
16.08882545979727
 31
0.0
 11
170.7365722046449
 21
16.09701100667022
 31
0.0
 11
170.6440937174207
 21
16.08926973931101
 31
0.0
 11
170.5594072091645
 21
16.06609003445566
 31
0.0
 11
170.483702448884
 21
16.02863495634008
 31
0.0
 11
170.4183754766516
 21
15.97832774281102
 31
0.0
 11
170.3650487887665
 21
15.9160029337988
 31
0.0
 11
170.3254809233902
 21
15.84249947895607
 31
0.0
 11
170.3009523754711
 21
15.75988443557391
 31
0.0
 11
170.2927954104109
 21
15.67042329844352
 31
0.0
 11
170.3130095765618
 21
15.52595308146574
 31
0.0
 11
170.373625616682
 21
15.41591177072937
 31
0.0
 11
170.4643479320758
 21
15.33033670130631
 31
0.0
 11
170.5748676948814
 21
15.25941954854625
 31
0.0
 11
170.7000089937719
 21
15.19914305550579
 31
0.0
 11
170.8345826882553
 21
15.14590447913021
 31
0.0
 11
170.9691729191968
 21
15.09039489581074
 31
0.0
 11
171.0942976816298
 21
15.0237728124941
 31
0.0
 11
171.2048009079771
 21
14.94118863716749
 31
0.0
 11
171.2955397598289
 21
14.83800003476272
 31
0.0
 11
171.3561557999489
 21
14.70552315979584
 31
0.0
 11
171.3763699660998
 21
14.53526378483839
 31
0.0
 11
171.3621839747998
 21
14.38133030397411
 31
0.0
 11
171.3196087009194
 21
14.23605531269097
 31
0.0
 11
171.2499752884266
 21
14.10398854189067
 31
0.0
 11
171.1544992078714
 21
13.99007218775246
 31
0.0
 11
171.0341060772625
 21
13.89715272597017
 31
0.0
 11
170.8896160201847
 21
13.8283235766818
 31
0.0
 11
170.7223519532714
 21
13.78581275203966
 31
0.0
 11
170.5336103348227
 21
13.77165864614041
 31
0.0
 11
170.3405031726388
 21
13.78581275203966
 31
0.0
 11
170.1878975900911
 21
13.8283235766818
 31
0.0
 11
170.0661897942203
 21
13.88899033013889
 31
0.0
 11
169.9660261826364
 21
13.95734322942737
 31
0.0
 11
169.9922320587039
 21
14.03255545163076
 31
0.0
 11
170.0090121537619
 21
14.10014767383612
 31
0.0
 11
170.0206196447853
 21
14.17275926235962
 31
0.0
 11
170.031360625414
 21
14.2635278821286
 31
0.0
 11
170.0520069443317
 21
14.2635278821286
 31
0.0
 11
170.0726532632493
 21
14.2635278821286
 31
0.0
 11
170.104891639163
 21
14.20119204881084
 31
0.0
 11
170.1465954835851
 21
14.13795663215994
 31
0.0
  0
SPLINE
  5
A5
102
{ACAD_REACTORS
330
C3
102
}
330
48
100
AcDbEntity
  8
_U_30EC_U_30A4_U_30E4_U_30FC_1
  6
Continuous
 62
     2
100
AcDbSpline
210
0.0
220
0.0
230
1.0
 70
    11
 71
     3
 72
    57
 73
    53
 74
    51
 42
0.000000001
 43
0.0000000001
 44
0.00000001
 40
0.0
 40
0.0
 40
0.0
 40
0.0
 40
0.0471632082809505
 40
0.0914861054632995
 40
0.1357762519702663
 40
0.1826527001610673
 40
0.229520328857315
 40
0.2737751972221604
 40
0.3181310461543633
 40
0.3652607198398499
 40
0.4571007286314495
 40
0.5671851029165267
 40
0.6894623283868418
 40
0.818175827254581
 40
0.9510087229274115
 40
1.085852229674041
 40
1.218126164475287
 40
1.343545131142368
 40
1.454537202956813
 40
1.567187607530794
 40
1.680710966642469
 40
1.794226869736862
 40
1.900009184247661
 40
2.004085860448054
 40
2.108162674451829
 40
2.214000150155288
 40
2.496038577352156
 40
2.762350745479265
 40
2.997275353279393
 40
3.185110082137701
 40
3.246407890063984
 40
3.312607550212772
 40
3.378877742711589
 40
3.440140399651414
 40
4.100501696006401
 40
4.754913085563444
 40
5.411331693423862
 40
6.077890432568666
 40
6.110575292670945
 40
6.143260152775725
 40
6.367989363395075
 40
6.610525374951504
 40
6.863389136467267
 40
7.119380025547483
 40
7.376036605091019
 40
7.63116477096622
 40
7.876722425456372
 40
8.104953735855869
 40
8.31291668592424
 40
8.497730294941256
 40
8.651018984313808
 40
8.76473885362453
 40
8.76473885362453
 40
8.76473885362453
 40
8.76473885362453
 10
174.7922649500514
 20
13.81626739612928
 30
0.0
 10
174.7766616726931
 20
13.81826231079078
 30
0.0
 10
174.7463947960302
 20
13.82213201360298
 30
0.0
 10
174.7010994202253
 20
13.82341984967269
 30
0.0
 10
174.6559553129349
 20
13.82308683554051
 30
0.0
 10
174.60990171234
 20
13.82314658674224
 30
0.0
 10
174.5640496172097
 20
13.82325813650002
 30
0.0
 10
174.5183711648164
 20
13.82277833456591
 30
0.0
 10
174.4750811541608
 20
13.82461109618721
 30
0.0
 10
174.4039947951514
 20
13.8004955681466
 30
0.0
 10
174.4057477261441
 20
13.92184693977251
 30
0.0
 10
174.358619637057
 20
14.00726239751232
 30
0.0
 10
174.3191478251761
 20
14.12486929345134
 30
0.0
 10
174.2706635532646
 20
14.24232752540441
 30
0.0
 10
174.2201017402523
 20
14.36405935761507
 30
0.0
 10
174.1718634610478
 20
14.49075967862466
 30
0.0
 10
174.1135232947596
 20
14.59933687784953
 30
0.0
 10
174.0980892667262
 20
14.7562065713441
 30
0.0
 10
173.9566586330636
 20
14.72373446548323
 30
0.0
 10
173.8508397414904
 20
14.73512888682179
 30
0.0
 10
173.7358569725222
 20
14.73392591514615
 30
0.0
 10
173.6253142252141
 20
14.73506945347408
 30
0.0
 10
173.5176583522783
 20
14.73418350037526
 30
0.0
 10
173.4121322529242
 20
14.73416602390519
 30
0.0
 10
173.3109192682013
 20
14.72714032472416
 30
0.0
 10
173.1266804827754
 20
14.75135859859864
 30
0.0
 10
173.1157393685411
 20
14.44741691121889
 30
0.0
 10
173.0087691634751
 20
14.22353177253396
 30
0.0
 10
172.9098148604347
 20
14.03895314292496
 30
0.0
 10
172.9225090524009
 20
13.79530204804208
 30
0.0
 10
172.8050091716397
 20
13.82508046753196
 30
0.0
 10
172.7422055868311
 20
13.82258089509605
 30
0.0
 10
172.67858720934
 20
13.82344075102804
 30
0.0
 10
172.3946014194077
 20
13.78098039941952
 30
0.0
 10
173.0251638499381
 20
14.50081952444784
 30
0.0
 10
173.1087645289071
 20
15.01276539435733
 30
0.0
 10
173.492925278934
 20
15.53353743550043
 30
0.0
 10
173.4777208288565
 20
16.23519626253213
 30
0.0
 10
173.7239265722698
 20
16.22345633081257
 30
0.0
 10
173.8256346157561
 20
16.23225004452772
 30
0.0
 10
173.8249752035818
 20
15.98059650730342
 30
0.0
 10
173.9428317155829
 20
15.79818020733959
 30
0.0
 10
174.0315515260486
 20
15.55563740662871
 30
0.0
 10
174.1322292485257
 20
15.32340030530118
 30
0.0
 10
174.2311142712244
 20
15.08674644566918
 30
0.0
 10
174.3299676990669
 20
14.85461739170089
 30
0.0
 10
174.4256166390927
 20
14.63122222788793
 30
0.0
 10
174.515990457327
 20
14.42272549049313
 30
0.0
 10
174.598994456819
 20
14.23308448529321
 30
0.0
 10
174.6726088582799
 20
14.06663106068099
 30
0.0
 10
174.7342815895546
 20
13.92917699626097
 30
0.0
 10
174.7749458885605
 20
13.84999239430034
 30
0.0
 10
174.7922649500514
 20
13.81626739612928
 30
0.0
 11
174.7922649500514
 21
13.81626739612928
 31
0.0
 11
174.7453878317448
 21
13.82145433189185
 31
0.0
 11
174.7010975896125
 21
13.82315538223863
 31
0.0
 11
174.656807443173
 21
13.82315538223863
 31
0.0
 11
174.609930994716
 21
13.82315538223863
 31
0.0
 11
174.5630633657034
 21
13.82315538223863
 31
0.0
 11
174.5188084970408
 21
13.82315538223863
 31
0.0
 11
174.4744852776854
 21
13.82145433189185
 31
0.0
 11
174.4276419021444
 21
13.81626739612928
 31
0.0
 11
174.3992532136325
 21
13.90360966173244
 31
0.0
 11
174.3622721815898
 21
14.00729656274818
 31
0.0
 11
174.3188386236701
 21
14.12159987001127
 31
0.0
 11
174.2711055866937
 21
14.24113531268969
 31
0.0
 11
174.2208160133237
 21
14.36408057307566
 31
0.0
 11
174.1696467003933
 21
14.48883822929446
 31
0.0
 11
174.1197531801327
 21
14.61134141502772
 31
0.0
 11
174.0733119111842
 21
14.72784517367917
 31
0.0
 11
173.9623611907589
 21
14.73087465284506
 31
0.0
 11
173.849730922509
 21
14.7330045486779
 31
0.0
 11
173.7362152069449
 21
14.7343219531914
 31
0.0
 11
173.62270004768
 21
14.73473315978852
 31
0.0
 11
173.5169185312816
 21
14.7343219531914
 31
0.0
 11
173.4128501919224
 21
14.7330045486779
 31
0.0
 11
173.3087951724045
 21
14.73087465284506
 31
0.0
 11
173.2030010615597
 21
14.72784517367917
 31
0.0
 11
173.0980914750139
 21
14.4660443751335
 31
0.0
 11
173.0034868690332
 21
14.2171023265846
 31
0.0
 11
172.9252231210299
 21
13.99559756969557
 31
0.0
 11
172.8693431224556
 21
13.81626739612928
 31
0.0
 11
172.8082651639442
 21
13.82145433189185
 31
0.0
 11
172.742087361813
 21
13.82315538223863
 31
0.0
 11
172.6758390041283
 21
13.82145433189185
 31
0.0
 11
172.6147963233939
 21
13.81626739612928
 31
0.0
 11
172.8899684951931
 21
14.41656508695142
 31
0.0
 11
173.158294573417
 21
15.01343642360776
 31
0.0
 11
173.4240277350405
 21
15.61366245644381
 31
0.0
 11
173.6914740737034
 21
16.22421385386062
 31
0.0
 11
173.7241589339807
 21
16.22421385386062
 31
0.0
 11
173.756843794258
 21
16.22421385386062
 31
0.0
 11
173.8428300681057
 21
16.01658539037084
 31
0.0
 11
173.935728581361
 21
15.79254614563517
 31
0.0
 11
174.0328714521464
 21
15.55908663180468
 31
0.0
 11
174.131793645803
 21
15.32298128464144
 31
0.0
 11
174.2315341249927
 21
15.08649780379784
 31
0.0
 11
174.3313071129353
 21
14.85168781253709
 31
0.0
 11
174.4280608257449
 21
14.6259949219685
 31
0.0
 11
174.5188084970408
 21
14.4165805209792
 31
0.0
 11
174.6022150834546
 21
14.22607611130461
 31
0.0
 11
174.6770293263378
 21
14.05708232662467
 31
0.0
 11
174.7410729186604
 21
13.91781337700667
 31
0.0
 11
174.7922649500514
 21
13.81626739612928
 31
0.0
  0
SPLINE
  5
A6
102
{ACAD_REACTORS
330
C3
102
}
330
48
100
AcDbEntity
  8
_U_30EC_U_30A4_U_30E4_U_30FC_1
  6
Continuous
 62
     2
100
AcDbSpline
210
0.0
220
0.0
230
1.0
 70
    11
 71
     3
 72
    25
 73
    21
 74
    19
 42
0.000000001
 43
0.0000000001
 44
0.00000001
 40
0.0
 40
0.0
 40
0.0
 40
0.0
 40
0.0911479969064538
 40
0.1858117896203815
 40
0.2804128399733637
 40
0.3715889190713657
 40
0.4679080494218139
 40
0.5642683809229229
 40
0.6605683222644706
 40
0.7569653015810254
 40
0.8561348172522737
 40
1.092615965104303
 40
1.374867658141897
 40
1.611348812011589
 40
1.710518328425249
 40
1.809403163726556
 40
2.045205463294081
 40
2.32664691762213
 40
2.562449217190603
 40
2.661334043833911
 40
2.661334043833911
 40
2.661334043833911
 40
2.661334043833911
 10
173.26837005672
 20
14.88614538197292
 30
0.0
 10
173.2987525917924
 20
14.88598079714555
 30
0.0
 10
173.3606895889112
 20
14.88564528689921
 30
0.0
 10
173.454135696033
 20
14.88269055451999
 30
0.0
 10
173.5475095236357
 20
14.87977752877151
 30
0.0
 10
173.6417760753476
 20
14.87894201643416
 30
0.0
 10
173.7354964790967
 20
14.87996644658047
 30
0.0
 10
173.8352040303205
 20
14.87916977470971
 30
0.0
 10
173.9188949546313
 20
14.8892141023522
 30
0.0
 10
174.0637996315046
 20
14.86234617674164
 30
0.0
 10
173.9396132444802
 20
15.03665530280049
 30
0.0
 10
173.8965867286282
 20
15.19651711006091
 30
0.0
 10
173.780892214221
 20
15.45518458550213
 30
0.0
 10
173.7017565431258
 20
15.5923105286186
 30
0.0
 10
173.6431576621817
 20
15.80937033134077
 30
0.0
 10
173.5864803939439
 20
15.59266134213426
 30
0.0
 10
173.5052809900477
 20
15.45327012438239
 30
0.0
 10
173.4063701281489
 20
15.20406969370192
 30
0.0
 10
173.3253625094259
 20
15.01925830226075
 30
0.0
 10
173.2813683325839
 20
14.91650446856117
 30
0.0
 10
173.26837005672
 20
14.88614538197292
 30
0.0
 11
173.26837005672
 21
14.88614538197292
 31
0.0
 11
173.3595137737821
 21
14.88526123266759
 31
0.0
 11
173.4541428297581
 21
14.88269697919598
 31
0.0
 11
173.5487082179706
 21
14.88009965280777
 31
0.0
 11
173.6398803250196
 21
14.8792485764191
 31
0.0
 11
173.7361985777706
 21
14.87965978301622
 31
0.0
 11
173.8325499034377
 21
14.88097718752971
 31
0.0
 11
173.9288262638287
 21
14.88310818579312
 31
0.0
 11
174.0251753846344
 21
14.88614538197292
 31
0.0
 11
173.9854633323142
 21
14.9770164219502
 31
0.0
 11
173.8907653613969
 21
15.19370890189602
 31
0.0
 11
173.7777387509471
 21
15.45234186183135
 31
0.0
 11
173.6830407800298
 21
15.66903434177717
 31
0.0
 11
173.6433287277096
 21
15.75990538175445
 31
0.0
 11
173.6043330259267
 21
15.66903434177717
 31
0.0
 11
173.5113432755213
 21
15.45234186183135
 31
0.0
 11
173.4003555089083
 21
15.19370890189602
 31
0.0
 11
173.3073657585029
 21
14.9770164219502
 31
0.0
 11
173.26837005672
 21
14.88614538197292
 31
0.0
  0
SPLINE
  5
A7
102
{ACAD_REACTORS
330
C4
102
}
330
48
100
AcDbEntity
  8
_U_30EC_U_30A4_U_30E4_U_30FC_1
  6
Continuous
 62
     2
100
AcDbSpline
210
0.0
220
0.0
230
1.0
 70
    11
 71
     3
 72
    95
 73
    91
 74
    89
 42
0.000000001
 43
0.0000000001
 44
0.00000001
 40
0.0
 40
0.0
 40
0.0
 40
0.0
 40
0.6550406656911417
 40
1.308087289031946
 40
1.420803739835817
 40
1.566130759770829
 40
1.757067341888485
 40
2.006513545026487
 40
2.087328263121575
 40
2.185328872295648
 40
2.294612454748384
 40
2.408936380534833
 40
2.526802767798589
 40
2.646360524615627
 40
2.762535723971614
 40
2.870057342870189
 40
2.966883448431666
 40
3.050803243518315
 40
3.115818222436633
 40
3.156030057150258
 40
3.213914225080187
 40
3.27668902645056
 40
3.342960320981337
 40
3.404230667150586
 40
3.453822809493377
 40
3.532499827188448
 40
3.634775188507176
 40
3.754909333008174
 40
3.889736761660664
 40
4.035769602175233
 40
4.187256681197621
 40
4.338733685675964
 40
4.488478734676121
 40
4.634708317831596
 40
4.771493189921284
 40
4.892686571561222
 40
5.199775528944458
 40
5.460353566929648
 40
5.667603142345524
 40
5.8147229054045
 40
5.828990806219827
 40
5.855488336304496
 40
5.869756237118827
 40
6.189796507762832
 40
6.531890469873026
 40
6.883053637016955
 40
7.230512024911426
 40
7.566966656764565
 40
7.88520355970736
 40
8.172887439719155
 40
8.418011594062715
 40
8.443926721190637
 40
8.510760470613125
 40
8.602145393795634
 40
8.701714041647076
 40
8.793098965075306
 40
8.859932715057878
 40
8.885847842603528
 40
9.24230125661275
 40
9.589275455016697
 40
9.921808543164104
 40
10.23479624298461
 40
10.29968150889177
 40
10.3532349388776
 40
10.4015462535515
 40
10.4648292247782
 40
10.55973900668401
 40
10.69239545985612
 40
10.84920353475666
 40
11.01626328594774
 40
11.18672024367438
 40
11.35372582577206
 40
11.50257442292421
 40
11.61866495023286
 40
11.71329869152869
 40
11.82511050573902
 40
11.94464880845711
 40
12.06929242642503
 40
12.19707290435172
 40
12.32562632860524
 40
12.45034565331274
 40
12.56646595170323
 40
12.6709900741463
 40
12.76077625936778
 40
12.8270323350669
 40
12.87429132785988
 40
12.89831990323327
 40
12.92234847860016
 40
13.53984767410319
 40
14.18294284359365
 40
14.18294284359365
 40
14.18294284359365
 40
14.18294284359365
 10
177.3067935648021
 20
14.70898038201723
 30
0.0
 10
177.1752019758551
 20
14.82265058603232
 30
0.0
 10
176.9124193802729
 20
15.04964496316159
 30
0.0
 10
176.3997393441019
 20
15.89214462956288
 30
0.0
 10
176.4106654595363
 20
15.53423377577019
 30
0.0
 10
176.4041226527989
 20
15.39267392272132
 30
0.0
 10
176.4028026631773
 20
15.1942130529928
 30
0.0
 10
176.4018117602538
 20
15.02150296045982
 30
0.0
 10
176.4024101751974
 20
14.87865373257579
 30
0.0
 10
176.4038994301882
 20
14.78265005413358
 30
0.0
 10
176.4055683588473
 20
14.67545503263141
 30
0.0
 10
176.4071934954617
 20
14.56164211517581
 30
0.0
 10
176.4092429501687
 20
14.44441572604589
 30
0.0
 10
176.4123165501926
 20
14.32656411232969
 30
0.0
 10
176.4156339697043
 20
14.21228087320619
 30
0.0
 10
176.4193605340281
 20
14.10521401867276
 30
0.0
 10
176.4217338161424
 20
14.0100740876692
 30
0.0
 10
176.4278718888357
 20
13.92558557205695
 30
0.0
 10
176.4239784495947
 20
13.86923087298141
 30
0.0
 10
176.4455230443079
 20
13.79825022472356
 30
0.0
 10
176.3680940058618
 20
13.82902677604482
 30
0.0
 10
176.3116353240192
 20
13.82011242517615
 30
0.0
 10
176.2540495896808
 20
13.82896218398274
 30
0.0
 10
176.1690163478473
 20
13.79738225225946
 30
0.0
 10
176.2009714146382
 20
13.88095155992191
 30
0.0
 10
176.1990705282541
 20
13.94882608968309
 30
0.0
 10
176.21079600473
 20
14.05233256764419
 30
0.0
 10
176.2164241053001
 20
14.17002125616694
 30
0.0
 10
176.223790217894
 20
14.30388609164423
 30
0.0
 10
176.232075970161
 20
14.44764152872632
 30
0.0
 10
176.2398851897428
 20
14.59714022843444
 30
0.0
 10
176.2457571222657
 20
14.74792549402078
 30
0.0
 10
176.2503667817968
 20
14.89699943878438
 30
0.0
 10
176.2542632117544
 20
15.04122913163022
 30
0.0
 10
176.2570715126564
 20
15.17583905213017
 30
0.0
 10
176.2576698755023
 20
15.36469614347355
 30
0.0
 10
176.261602386715
 20
15.58975494313153
 30
0.0
 10
176.24421753785
 20
15.86367091125708
 30
0.0
 10
176.2850417342583
 20
16.02787112098596
 30
0.0
 10
176.1995153256002
 20
16.22749661465097
 30
0.0
 10
176.2660558907689
 20
16.22385458403978
 30
0.0
 10
176.2838724273231
 20
16.22413447160854
 30
0.0
 10
176.4056801797508
 20
16.22632927398615
 30
0.0
 10
176.5080770335461
 20
15.94675118721512
 30
0.0
 10
176.7580021509357
 20
15.74563008536004
 30
0.0
 10
176.987003533111
 20
15.47792614987914
 30
0.0
 10
177.2245151213108
 20
15.22646413862374
 30
0.0
 10
177.4486090740772
 20
14.98969974061363
 30
0.0
 10
177.6750716283009
 20
14.73218692583077
 30
0.0
 10
177.8325687886514
 20
14.61649335056923
 30
0.0
 10
178.0472129612675
 20
14.27997152538792
 30
0.0
 10
178.0422645974618
 20
14.40464754091603
 30
0.0
 10
178.0433931602546
 20
14.46327691935737
 30
0.0
 10
178.0428877841516
 20
14.55043662371977
 30
0.0
 10
178.0430475158113
 20
14.64416143182872
 30
0.0
 10
178.0430054891318
 20
14.73018971297035
 30
0.0
 10
178.0430202040373
 20
14.79153891945496
 30
0.0
 10
178.0429706255983
 20
14.94135231520992
 30
0.0
 10
178.0458811522811
 20
15.17989612510104
 30
0.0
 10
178.0259521041163
 20
15.54486509868701
 30
0.0
 10
178.0750433936249
 20
15.80799631993414
 30
0.0
 10
177.9177951509179
 20
16.21928904947751
 30
0.0
 10
178.0762112872422
 20
16.16398282551749
 30
0.0
 10
178.1311680478628
 20
16.16199686500175
 30
0.0
 10
178.182788776674
 20
16.1626477824825
 30
0.0
 10
178.2713198965366
 20
16.20369527738245
 30
0.0
 10
178.2204898303169
 20
16.05696326622986
 30
0.0
 10
178.2313389930283
 20
15.95019971954434
 30
0.0
 10
178.2166036994848
 20
15.79085705414113
 30
0.0
 10
178.2099976446204
 20
15.62853061652874
 30
0.0
 10
178.2014961399917
 20
15.45992521892395
 30
0.0
 10
178.1943227202199
 20
15.29814814703541
 30
0.0
 10
178.188906321539
 20
15.15422331457932
 30
0.0
 10
178.1871713967649
 20
15.03437493466926
 30
0.0
 10
178.1875440672319
 20
14.92686101590515
 30
0.0
 10
178.1873656126263
 20
14.81820024645586
 30
0.0
 10
178.187701086314
 20
14.6995357016553
 30
0.0
 10
178.1890040622183
 20
14.5755516351274
 30
0.0
 10
178.1908887351575
 20
14.44858294171104
 30
0.0
 10
178.1925004454849
 20
14.32153861551031
 30
0.0
 10
178.1941403137431
 20
14.19854884492177
 30
0.0
 10
178.1962570745751
 20
14.08300931383759
 30
0.0
 10
178.1963848422365
 20
13.98090903955837
 30
0.0
 10
178.2006514396555
 20
13.89009848838156
 30
0.0
 10
178.190844008529
 20
13.83213621208786
 30
0.0
 10
178.211847477169
 20
13.76517130132029
 30
0.0
 10
178.1725639739897
 20
13.77291153966688
 30
0.0
 10
177.9595307117749
 20
13.75755254145193
 30
0.0
 10
177.7636297943185
 20
14.31403058094468
 30
0.0
 10
177.4611197631544
 20
14.57556035348509
 30
0.0
 10
177.3067935648021
 20
14.70898038201723
 30
0.0
 11
177.3067935648021
 21
14.70898038201723
 31
0.0
 11
176.8595529338511
 21
15.18757635411977
 31
0.0
 11
176.4124049070643
 21
15.6635264928897
 31
0.0
 11
176.4089664262494
 21
15.55086249986232
 31
0.0
 11
176.4055610183499
 21
15.40557538184309
 31
0.0
 11
176.4029636920274
 21
15.21465645827967
 31
0.0
 11
176.4021126156603
 21
14.96521170139756
 31
0.0
 11
176.402523923029
 21
14.88439802954279
 31
0.0
 11
176.4038420329817
 21
14.78640628477561
 31
0.0
 11
176.4055192267718
 21
14.67713557299739
 31
0.0
 11
176.4072367127518
 21
14.56282454872039
 31
0.0
 11
176.4094007838773
 21
14.44497802965265
 31
0.0
 11
176.4124049070643
 21
14.32545802100199
 31
0.0
 11
176.4158359733139
 21
14.20933349846155
 31
0.0
 11
176.4192928929999
 21
14.10186746550228
 31
0.0
 11
176.4227085253088
 21
14.00510162351264
 31
0.0
 11
176.4261896983793
 21
13.92125406276972
 31
0.0
 11
176.4296006184313
 21
13.85632862007759
 31
0.0
 11
176.4330776843149
 21
13.81626739612928
 31
0.0
 11
176.3754263821572
 21
13.82145433189185
 31
0.0
 11
176.312674631831
 21
13.82315538223863
 31
0.0
 11
176.2464251717157
 21
13.82145433189185
 31
0.0
 11
176.1853747739676
 21
13.81626739612928
 31
0.0
 11
176.1926772737813
 21
13.8653189412559
 31
0.0
 11
176.2008793569055
 21
13.94356725720856
 31
0.0
 11
176.2090098822349
 21
14.04551893253029
 31
0.0
 11
176.2163406441398
 21
14.16542920159752
 31
0.0
 11
176.2236358280421
 21
14.30005912343889
 31
0.0
 11
176.2318444255596
 21
14.44586107652745
 31
0.0
 11
176.2395504149466
 21
14.59715203135073
 31
0.0
 11
176.2455763002093
 21
14.74850913200734
 31
0.0
 11
176.2503046247416
 21
14.89817951391435
 31
0.0
 11
176.2541928972121
 21
15.04435739582222
 31
0.0
 11
176.2567527408966
 21
15.18111831592696
 31
0.0
 11
176.2576324804575
 21
15.3023085068689
 31
0.0
 11
176.257192610677
 21
15.60939715262544
 31
0.0
 11
176.2559126888348
 21
15.86997204839365
 31
0.0
 11
176.2528658717893
 21
16.07719922716125
 31
0.0
 11
176.2473049112764
 21
16.22421385386062
 31
0.0
 11
176.261572812147
 21
16.22421385386062
 31
0.0
 11
176.2880703423353
 21
16.22421385386062
 31
0.0
 11
176.3023382432059
 21
16.22421385386062
 31
0.0
 11
176.5194743650278
 21
15.98910179662773
 31
0.0
 11
176.751274412308
 21
15.73751281231561
 31
0.0
 11
176.9894816018839
 21
15.4794955554357
 31
0.0
 11
177.2260074557521
 21
15.22497079855489
 31
0.0
 11
177.4555698717706
 21
14.97899759549138
 31
0.0
 11
177.6731797360103
 21
14.74678934034107
 31
0.0
 11
177.8713724913707
 21
14.53826680567101
 31
0.0
 11
178.0430143099086
 21
14.36326697932589
 31
0.0
 11
178.0430143099086
 21
14.38918210687043
 31
0.0
 11
178.0430143099086
 21
14.45601585685371
 31
0.0
 11
178.0430143099086
 21
14.54740078030025
 31
0.0
 11
178.0430143099086
 21
14.64696942823453
 31
0.0
 11
178.0430143099086
 21
14.73835435168106
 31
0.0
 11
178.0430143099086
 21
14.80518810166435
 31
0.0
 11
178.0430143099086
 21
14.83110322920889
 31
0.0
 11
178.0417233637609
 21
15.18755430550868
 31
0.0
 11
178.0378461155959
 21
15.53450684014415
 31
0.0
 11
178.0296197790003
 21
15.86693815950552
 31
0.0
 11
178.0154535467228
 21
16.17960510387179
 31
0.0
 11
178.0790351249619
 21
16.16666367158334
 31
0.0
 11
178.1324170159611
 21
16.16238072887607
 31
0.0
 11
178.1805381084833
 21
16.16666367158334
 31
0.0
 11
178.2424836798197
 21
16.17960510387179
 31
0.0
 11
178.2351216487575
 21
16.084981284451
 31
0.0
 11
178.2269790968818
 21
15.95257496503965
 31
0.0
 11
178.2183705364005
 21
15.79600336785656
 31
0.0
 11
178.2097547223216
 21
15.62916593734271
 31
0.0
 11
178.201618785029
 21
15.4589032550936
 31
0.0
 11
178.1942501393836
 21
15.292060312427
 31
0.0
 11
178.1891406931522
 21
15.1432994357281
 31
0.0
 11
178.1874503478905
 21
15.02722121527101
 31
0.0
 11
178.1874503478905
 21
14.93258747397519
 31
0.0
 11
178.1874503478905
 21
14.82077565976708
 31
0.0
 11
178.1878461204497
 21
14.70123801222749
 31
0.0
 11
178.1890819450708
 21
14.57660052093918
 31
0.0
 11
178.1908392193318
 21
14.44883212687391
 31
0.0
 11
178.1925303477608
 21
14.32028982655879
 31
0.0
 11
178.1942876220215
 21
14.19558288214555
 31
0.0
 11
178.1959787504505
 21
14.07947489606349
 31
0.0
 11
178.1972884379173
 21
13.97495896727017
 31
0.0
 11
178.1976985420736
 21
13.88517371555652
 31
0.0
 11
178.1976985420736
 21
13.81891763918415
 31
0.0
 11
178.1976985420736
 21
13.77165864614041
 31
0.0
 11
178.1736699662977
 21
13.77165864614041
 31
0.0
 11
178.1496413905218
 21
13.77165864614041
 31
0.0
 11
177.7410729200423
 21
14.2346673526219
 31
0.0
 11
177.3067935648021
 21
14.70898038201723
 31
0.0
  0
SPLINE
  5
A8
102
{ACAD_REACTORS
330
C5
102
}
330
48
100
AcDbEntity
  8
_U_30EC_U_30A4_U_30E4_U_30FC_1
  6
Continuous
 62
     2
100
AcDbSpline
210
0.0
220
0.0
230
1.0
 70
    11
 71
     3
 72
   110
 73
   106
 74
   104
 42
0.000000001
 43
0.0000000001
 44
0.00000001
 40
0.0
 40
0.0
 40
0.0
 40
0.0
 40
0.2203406257277714
 40
0.4407808782838055
 40
0.5952494494614181
 40
0.7488431659393036
 40
0.9023581831308737
 40
1.056801968670401
 40
1.210736449099873
 40
1.363041386539779
 40
1.515315729683065
 40
1.669377239147988
 40
1.721611652756458
 40
1.773199502942843
 40
1.824933793209889
 40
1.877110426487852
 40
1.982682281206587
 40
2.078781667087424
 40
2.172809640822088
 40
2.271937807378714
 40
2.378349933379192
 40
2.494131557736267
 40
2.626681683943458
 40
2.783145050795857
 40
2.89070123294071
 40
2.993130312454608
 40
3.099869730691597
 40
3.22023781669109
 40
3.352695482737379
 40
3.481732806389631
 40
3.593499473690161
 40
3.674323013331675
 40
3.817951711952624
 40
3.946167120793735
 40
4.061405053453306
 40
4.166480796002947
 40
4.262478775059069
 40
4.350736673550855
 40
4.433071991253827
 40
4.511216293814542
 40
4.564262454117882
 40
4.618474415571511
 40
4.67012848875409
 40
4.72229687912631
 40
4.819540945314236
 40
4.931194984128036
 40
5.049996040257734
 40
5.168643755415336
 40
5.283970811762548
 40
5.392260784910373
 40
5.486512254876391
 40
5.559178233949847
 40
5.591425852853506
 40
5.626215969637895
 40
5.667155838674425
 40
5.717449290214232
 40
5.738402360944846
 40
5.784499116553816
 40
5.830595872164789
 40
5.851548942897647
 40
5.873019280661762
 40
5.924217778408304
 40
5.985325662817683
 40
6.0365241605677
 40
6.057994498334228
 40
6.236847789607484
 40
6.381409928945653
 40
6.493190424178686
 40
6.574067534230492
 40
6.691018086205558
 40
6.814881554220504
 40
6.944307823240371
 40
7.071266716065995
 40
7.19348860446184
 40
7.309042773128152
 40
7.414007203170749
 40
7.505140441886534
 40
7.53115036059971
 40
7.559221645322296
 40
7.587202218920962
 40
7.612569159499166
 40
7.662550809481045
 40
7.70287887576418
 40
7.857328205231022
 40
8.010799568088725
 40
8.165256399657618
 40
8.322232698714014
 40
8.479564855016644
 40
8.635216230290904
 40
8.790882550925822
 40
8.948305154947302
 40
9.168271839032977
 40
9.387358980987262
 40
9.608047961033503
 40
9.832914234792696
 40
9.858338694963031
 40
9.925366817230039
 40
10.02013071422762
 40
10.12876249859001
 40
10.23739428295251
 40
10.33215817995193
 40
10.39918630222396
 40
10.42461076239785
 40
10.64992019336945
 40
10.8718852453119
 40
10.8718852453119
 40
10.8718852453119
 40
10.8718852453119
 10
179.9057788376618
 20
15.7392326039819
 30
0.0
 10
179.9092864933541
 20
15.80616462073804
 30
0.0
 10
179.9163033987663
 20
15.94005891915858
 30
0.0
 10
179.8198027599074
 20
16.22548554971468
 30
0.0
 10
180.0510134726109
 20
16.16284386190283
 30
0.0
 10
180.1919290057157
 20
16.17001554055992
 30
0.0
 10
180.3490417757588
 20
16.16235883078243
 30
0.0
 10
180.5025913427288
 20
16.1625275228304
 30
0.0
 10
180.6545104935081
 20
16.16182040535432
 30
0.0
 10
180.8142214813232
 20
16.1721015835164
 30
0.0
 10
180.9408972601118
 20
16.15496511080751
 30
0.0
 10
181.1370821122078
 20
16.22727260107147
 30
0.0
 10
181.1034395279079
 20
16.12640699080116
 30
0.0
 10
181.1052011317184
 20
16.0761925394767
 30
0.0
 10
181.1027342073459
 20
16.02712335586467
 30
0.0
 10
181.134707696601
 20
15.94063490846999
 30
0.0
 10
181.0010399903256
 20
15.98997438608338
 30
0.0
 10
180.9172208688057
 20
15.98430634314167
 30
0.0
 10
180.8173861139324
 20
15.99465516706298
 30
0.0
 10
180.7186576720146
 20
16.00086450411087
 30
0.0
 10
180.6121532771111
 20
16.00697763816776
 30
0.0
 10
180.491051169806
 20
16.01588883484585
 30
0.0
 10
180.3703381502454
 20
16.00521605912382
 30
0.0
 10
180.1812553843438
 20
16.06468503080366
 30
0.0
 10
180.2129028505312
 20
15.9055832007754
 30
0.0
 10
180.1995563316833
 20
15.80839128339905
 30
0.0
 10
180.1974958426451
 20
15.69634065110102
 30
0.0
 10
180.195818804467
 20
15.5769968562935
 30
0.0
 10
180.1973336794234
 20
15.45032592155111
 30
0.0
 10
180.1956582478671
 20
15.32301588016116
 30
0.0
 10
180.2058844271658
 20
15.22451566404464
 30
0.0
 10
180.1779006596581
 20
15.08388702625629
 30
0.0
 10
180.3508029999306
 20
15.13989551134096
 30
0.0
 10
180.4645020202772
 20
15.12719951478499
 30
0.0
 10
180.5840151672239
 20
15.13448377051255
 30
0.0
 10
180.6888491425071
 20
15.13878017056756
 30
0.0
 10
180.7843084898612
 20
15.14330568258976
 30
0.0
 10
180.8763823507032
 20
15.151492011462
 30
0.0
 10
180.9476551782438
 20
15.14643850638111
 30
0.0
 10
181.0544931705687
 20
15.18536425031676
 30
0.0
 10
181.0226603598035
 20
15.1051712200588
 30
0.0
 10
181.026616450393
 20
15.05562936846033
 30
0.0
 10
181.0234502392013
 20
15.00557478039817
 30
0.0
 10
181.0550791490587
 20
14.92128847612022
 30
0.0
 10
180.9210133677692
 20
14.97425365495155
 30
0.0
 10
180.8292322793201
 20
14.96540080890442
 30
0.0
 10
180.7079729189603
 20
14.97570049965156
 30
0.0
 10
180.5914113119771
 20
14.97748911767501
 30
0.0
 10
180.4783375745879
 20
14.97787017109696
 30
0.0
 10
180.3679246308471
 20
14.98415449472181
 30
0.0
 10
180.2898124067841
 20
14.97189133255364
 30
0.0
 10
180.1913625833644
 20
15.00453887616127
 30
0.0
 10
180.2012355173561
 20
14.94769748054205
 30
0.0
 10
180.1973923244404
 20
14.91392130557984
 30
0.0
 10
180.1966789884269
 20
14.87119604709411
 30
0.0
 10
180.1963369642975
 20
14.83401607262153
 30
0.0
 10
180.1963834255345
 20
14.79487237370771
 30
0.0
 10
180.1963649429927
 20
14.75716849497686
 30
0.0
 10
180.1963703431806
 20
14.71944955232402
 30
0.0
 10
180.1963697214201
 20
14.6899432474515
 30
0.0
 10
180.1963698151545
 20
14.65873577699301
 30
0.0
 10
180.1963704287921
 20
14.61414424908085
 30
0.0
 10
180.1963671499336
 20
14.5596395650885
 30
0.0
 10
180.1963759623481
 20
14.51505540201448
 30
0.0
 10
180.1963359653416
 20
14.43117808585739
 30
0.0
 10
180.1976024270256
 20
14.31737520677678
 30
0.0
 10
180.1950274117843
 20
14.16830395933708
 30
0.0
 10
180.206500938172
 20
14.06597203813905
 30
0.0
 10
180.1823506222264
 20
13.93338903885835
 30
0.0
 10
180.3332993946477
 20
13.97895732272021
 30
0.0
 10
180.4428436671556
 20
13.96427012162349
 30
0.0
 10
180.573397047392
 20
13.96920435125062
 30
0.0
 10
180.6990312209514
 20
13.97257705323362
 30
0.0
 10
180.8188730625601
 20
13.97711497498773
 30
0.0
 10
180.9391362611427
 20
13.99048536182005
 30
0.0
 10
181.0222761663516
 20
13.98068712782597
 30
0.0
 10
181.1456080421076
 20
14.04126214623318
 30
0.0
 10
181.1244269203956
 20
13.98532460134022
 30
0.0
 10
181.1235950270116
 20
13.95939249372345
 30
0.0
 10
181.1218963707558
 20
13.93197256190939
 30
0.0
 10
181.121797488883
 20
13.89738195206385
 30
0.0
 10
181.1203659301329
 20
13.86050408220766
 30
0.0
 10
181.1532804192192
 20
13.76846841021809
 30
0.0
 10
180.9551306988106
 20
13.8413201597483
 30
0.0
 10
180.8300548294892
 20
13.81825726508608
 30
0.0
 10
180.6673071295156
 20
13.82454021985786
 30
0.0
 10
180.5129366450001
 20
13.82260943909927
 30
0.0
 10
180.3566670436943
 20
13.82393762599268
 30
0.0
 10
180.1970544465282
 20
13.82059872487863
 30
0.0
 10
180.0540326342237
 20
13.83265795728239
 30
0.0
 10
179.8197144881629
 20
13.76952001976922
 30
0.0
 10
179.9173810751197
 20
14.05620527466319
 30
0.0
 10
179.9006868780058
 20
14.24988308142661
 30
0.0
 10
179.9146296709686
 20
14.47848242880295
 30
0.0
 10
179.9142987846633
 20
14.63384593955049
 30
0.0
 10
179.9143078119264
 20
14.73966336444125
 30
0.0
 10
179.9143055876316
 20
14.80205784124214
 30
0.0
 10
179.914306555189
 20
14.89220425248327
 30
0.0
 10
179.9143065473262
 20
14.99621167157438
 30
0.0
 10
179.9143053861104
 20
15.10022131375296
 30
0.0
 10
179.9143090971502
 20
15.19036243688768
 30
0.0
 10
179.9143011051052
 20
15.25276803097215
 30
0.0
 10
179.9143334275019
 20
15.35868835961119
 30
0.0
 10
179.913144078832
 20
15.5162671654474
 30
0.0
 10
179.9082216489257
 20
15.66528219822066
 30
0.0
 10
179.9057788376618
 20
15.7392326039819
 30
0.0
 11
179.9057788376618
 21
15.7392326039819
 31
0.0
 11
179.8966918223741
 21
15.95938578101018
 31
0.0
 11
179.8868249573134
 21
16.17960510387179
 31
0.0
 11
180.04115751414
 21
16.17312391463728
 31
0.0
 11
180.1946500189047
 21
16.16754892331925
 31
0.0
 11
180.3481160653367
 21
16.16367167505631
 31
0.0
 11
180.502554455494
 21
16.16238072887607
 31
0.0
 11
180.6564835227474
 21
16.16367167505631
 31
0.0
 11
180.8087391004601
 21
16.16754892331925
 31
0.0
 11
180.9609113551074
 21
16.17312391463728
 31
0.0
 11
181.1148364762483
 21
16.17960510387179
 31
0.0
 11
181.1070811703125
 21
16.12794961777358
 31
0.0
 11
181.1044991623592
 21
16.07642642334204
 31
0.0
 11
181.1070811703124
 21
16.0247566056466
 31
0.0
 11
181.1148364762483
 21
15.97315954836785
 31
0.0
 11
181.0094874054411
 21
15.98001446156058
 31
0.0
 11
180.913637570006
 21
15.98693552058657
 31
0.0
 11
180.8198593171904
 21
15.99378381919598
 31
0.0
 11
180.7209679915882
 21
16.0006321178054
 31
0.0
 11
180.6147532199924
 21
16.00710999974824
 31
0.0
 11
180.4991060528039
 21
16.01268829835794
 31
0.0
 11
180.3666126447258
 21
16.01656554662088
 31
0.0
 11
180.2101546018424
 21
16.01785649280112
 31
0.0
 11
180.2062663293722
 21
15.91037061609187
 31
0.0
 11
180.20153800484
 21
15.80805072896465
 31
0.0
 11
180.197660756675
 21
15.70138175329687
 31
0.0
 11
180.1963698105272
 21
15.5810205901325
 31
0.0
 11
180.1967799146836
 21
15.44856355891565
 31
0.0
 11
180.1980896021503
 21
15.31953288186455
 31
0.0
 11
180.199407457705
 21
15.20777398432308
 31
0.0
 11
180.199819115366
 21
15.12695149302384
 31
0.0
 11
180.3434452935874
 21
15.1278025694125
 31
0.0
 11
180.4716343930759
 21
15.13039989580078
 31
0.0
 11
180.5868078221795
 21
15.13425509545254
 31
0.0
 11
180.691775631222
 21
15.13901649302076
 31
0.0
 11
180.7876346289422
 21
15.14418027774175
 31
0.0
 11
180.8757413374192
 21
15.14934406246267
 31
0.0
 11
180.9578881438496
 21
15.15491243919739
 31
0.0
 11
181.0357692335572
 21
15.16132086801524
 31
0.0
 11
181.0280180445186
 21
15.10884407115336
 31
0.0
 11
181.0254328449317
 21
15.05469378470856
 31
0.0
 11
181.0280180445186
 21
15.00310444444367
 31
0.0
 11
181.0357692335572
 21
14.95151510417882
 31
0.0
 11
180.9389813454015
 21
14.96092324653756
 31
0.0
 11
180.8275950722016
 21
14.96865128473012
 31
0.0
 11
180.7089261429373
 21
14.97425273438146
 31
0.0
 11
180.5903167449213
 21
14.97726788195011
 31
0.0
 11
180.4750025117521
 21
14.97898767361639
 31
0.0
 11
180.36672619507
 21
14.98070746528258
 31
0.0
 11
180.2724839317709
 21
14.98202486979617
 31
0.0
 11
180.199819115366
 21
14.98243607639328
 31
0.0
 11
180.199407457705
 21
14.9501910850819
 31
0.0
 11
180.1980896021503
 21
14.91542593752116
 31
0.0
 11
180.1967799146836
 21
14.87450702260085
 31
0.0
 11
180.1963698105272
 21
14.82421524309952
 31
0.0
 11
180.1963698105272
 21
14.80326217235822
 31
0.0
 11
180.1963698105272
 21
14.75716541672736
 31
0.0
 11
180.1963698105272
 21
14.71106866109651
 31
0.0
 11
180.1963698105272
 21
14.69011559035521
 31
0.0
 11
180.1963698105272
 21
14.6686452525828
 31
0.0
 11
180.1963698105272
 21
14.61744675481784
 31
0.0
 11
180.1963698105272
 21
14.55633887038868
 31
0.0
 11
180.1963698105272
 21
14.50514037262371
 31
0.0
 11
180.1963698105272
 21
14.4836700348513
 31
0.0
 11
180.1967799146836
 21
14.30481721371547
 31
0.0
 11
180.1980896021503
 21
14.16026100715442
 31
0.0
 11
180.2002868589709
 21
14.04850210961289
 31
0.0
 11
180.2032586986986
 21
13.96767961831365
 31
0.0
 11
180.3202092517448
 21
13.96767961831365
 31
0.0
 11
180.4440727208747
 21
13.96767961831365
 31
0.0
 11
180.5734925526422
 21
13.96897056449389
 31
0.0
 11
180.7003922282244
 21
13.97284781275683
 31
0.0
 11
180.8224658067973
 21
13.97886708358865
 31
0.0
 11
180.9377587499464
 21
13.98663260442002
 31
0.0
 11
181.0421754573519
 21
13.99734161483402
 31
0.0
 11
181.1320599255449
 21
14.01237656274692
 31
0.0
 11
181.1264254031191
 21
13.98698427976715
 31
0.0
 11
181.1234433285423
 21
13.95907184053802
 31
0.0
 11
181.12213398812
 21
13.93112191867001
 31
0.0
 11
181.1217235369195
 21
13.90575829888472
 31
0.0
 11
181.1243087365064
 21
13.85584355063325
 31
0.0
 11
181.1320599255449
 21
13.81626739612928
 31
0.0
 11
180.9776977178344
 21
13.82145433189185
 31
0.0
 11
180.8242357818765
 21
13.82315538223863
 31
0.0
 11
180.6697789496484
 21
13.82315538223863
 31
0.0
 11
180.5128026496768
 21
13.82315538223863
 31
0.0
 11
180.3554704921537
 21
13.82315538223863
 31
0.0
 11
180.199819115366
 21
13.82315538223863
 31
0.0
 11
180.0441620874241
 21
13.82145433189185
 31
0.0
 11
179.8868249573134
 21
13.81626739612928
 31
0.0
 11
179.896691822374
 21
14.0360126738521
 31
0.0
 11
179.9057788376618
 21
14.25491128490852
 31
0.0
 11
179.9121721518401
 21
14.47550763902003
 31
0.0
 11
179.914306345501
 21
14.70036378479715
 31
0.0
 11
179.914306345501
 21
14.72578824496874
 31
0.0
 11
179.914306345501
 21
14.79281636723931
 31
0.0
 11
179.914306345501
 21
14.88758026424253
 31
0.0
 11
179.914306345501
 21
14.99621204861207
 31
0.0
 11
179.914306345501
 21
15.10484383298162
 31
0.0
 11
179.914306345501
 21
15.19960772998484
 31
0.0
 11
179.914306345501
 21
15.2666358522554
 31
0.0
 11
179.914306345501
 21
15.292060312427
 31
0.0
 11
179.9121721518401
 21
15.51735963528735
 31
0.0
 11
179.9057788376618
 21
15.7392326039819
 31
0.0
  0
SPLINE
  5
A9
102
{ACAD_REACTORS
330
C6
102
}
330
48
100
AcDbEntity
  8
_U_30EC_U_30A4_U_30E4_U_30FC_1
  6
Continuous
 62
     2
100
AcDbSpline
210
0.0
220
0.0
230
1.0
 70
    11
 71
     3
 72
    47
 73
    43
 74
    41
 42
0.000000001
 43
0.0000000001
 44
0.00000001
 40
0.0
 40
0.0
 40
0.0
 40
0.0
 40
0.2207912809957213
 40
0.4459404186303129
 40
0.4902387190460468
 40
0.5327473892722008
 40
0.5742260451227034
 40
0.6155432630561759
 40
0.6568164066317246
 40
0.6982511618782457
 40
0.7407663929318116
 40
0.78513667431773
 40
1.010288833836531
 40
1.231080507002384
 40
1.451765243652613
 40
1.676638205891897
 40
1.720461045359866
 40
1.830018144043732
 40
1.972442372353362
 40
2.114866600677732
 40
2.224423699395357
 40
2.268246538883598
 40
2.493628801207433
 40
2.715602830286828
 40
2.934211330706578
 40
3.149502369855569
 40
3.231387784851214
 40
3.318231873854363
 40
3.405143198198351
 40
3.486970301720872
 40
3.702258172494316
 40
3.920866283534543
 40
4.142839325932327
 40
4.368221903865794
 40
4.412044743360274
 40
4.521601842096289
 40
4.66402607045277
 40
4.806450298809477
 40
4.91600739754717
 40
4.959830237043493
 40
5.184703515847525
 40
5.405387250767899
 40
5.405387250767899
 40
5.405387250767899
 40
5.405387250767899
 10
182.6507427258646
 20
15.73406440953872
 30
0.0
 10
182.6568139420004
 20
15.79758482501211
 30
0.0
 10
182.6690762107244
 20
15.9258793868963
 30
0.0
 10
182.5604706879411
 20
16.20166220174075
 30
0.0
 10
182.6761985896603
 20
16.17188133432056
 30
0.0
 10
182.7171842509015
 20
16.16765556262819
 30
0.0
 10
182.7591205797518
 20
16.16310446389608
 30
0.0
 10
182.800419662571
 20
16.16201982929484
 30
0.0
 10
182.8417032115556
 20
16.16310338195227
 30
0.0
 10
182.8836148270648
 20
16.16766112711343
 30
0.0
 10
182.924598354902
 20
16.1718743020973
 30
0.0
 10
183.0404922843489
 20
16.20177611317533
 30
0.0
 10
182.9295652727458
 20
15.92339806609892
 30
0.0
 10
182.9574856365266
 20
15.74283140824953
 30
0.0
 10
182.940426734697
 20
15.50961042346471
 30
0.0
 10
182.9414637282103
 20
15.34906622543146
 30
0.0
 10
182.9414099399404
 20
15.22284817558722
 30
0.0
 10
182.9414277372481
 20
15.12428963336241
 30
0.0
 10
182.941418858108
 20
14.99280702442963
 30
0.0
 10
182.9414263928033
 20
14.8613284496865
 30
0.0
 10
182.9414129405129
 20
14.7627622269409
 30
0.0
 10
182.9414531717492
 20
14.63639735624152
 30
0.0
 10
182.9406746403818
 20
14.4748206882287
 30
0.0
 10
182.9565958319266
 20
14.24361821892914
 30
0.0
 10
182.9333468885408
 20
14.05874351972002
 30
0.0
 10
183.0360183444367
 20
13.78935602770057
 30
0.0
 10
182.8820238362837
 20
13.82660112685817
 30
0.0
 10
182.8004129802833
 20
13.82137994680536
 30
0.0
 10
182.7188192292583
 20
13.8266062037835
 30
0.0
 10
182.5648513666842
 20
13.78937069885386
 30
0.0
 10
182.6674183421918
 20
14.05875129862878
 30
0.0
 10
182.6442045316089
 20
14.24361585325415
 30
0.0
 10
182.6600444655138
 20
14.47482218565638
 30
0.0
 10
182.6593296313428
 20
14.63639712308503
 30
0.0
 10
182.6593664569907
 20
14.7627623121052
 30
0.0
 10
182.6593549000271
 20
14.86132756635981
 30
0.0
 10
182.6593575019214
 20
14.9928112741722
 30
0.0
 10
182.659364853178
 20
15.124275480312
 30
0.0
 10
182.6593442541352
 20
15.22287786275325
 30
0.0
 10
182.6594082192029
 20
15.34896149354427
 30
0.0
 10
182.658173394759
 20
15.51210091383771
 30
0.0
 10
182.6532040396746
 20
15.6605418377755
 30
0.0
 10
182.6507427258646
 20
15.73406440953872
 30
0.0
 11
182.6507427258646
 21
15.73406440953872
 31
0.0
 11
182.641732820038
 21
15.95467178795577
 31
0.0
 11
182.6318769706145
 21
16.17960510387179
 31
0.0
 11
182.6756985840801
 21
16.17312391463728
 31
0.0
 11
182.7178400934214
 21
16.16754892331925
 31
0.0
 11
182.7591371409791
 21
16.16367167505631
 31
0.0
 11
182.8004341885365
 21
16.16238072887607
 31
0.0
 11
182.8416871388731
 21
16.16367167505631
 31
0.0
 11
182.8829400892098
 21
16.16754892331925
 31
0.0
 11
182.9250882131343
 21
16.17312391463728
 31
0.0
 11
182.9689825870146
 21
16.17960510387179
 31
0.0
 11
182.9590577693892
 21
15.95467178795577
 31
0.0
 11
182.950038420831
 21
15.73406440953872
 31
0.0
 11
182.9435638463435
 21
15.51347467001054
 31
0.0
 11
182.9414218238286
 21
15.28861190965007
 31
0.0
 11
182.9414218238286
 21
15.24478907015486
 31
0.0
 11
182.9414218238286
 21
15.13523197141682
 31
0.0
 11
182.9414218238286
 21
14.99280774305737
 31
0.0
 11
182.9414218238286
 21
14.85038351469792
 31
0.0
 11
182.9414218238286
 21
14.74082641595989
 31
0.0
 11
182.9414218238286
 21
14.69700357646467
 31
0.0
 11
182.9435638463435
 21
14.47163149318766
 31
0.0
 11
182.950038420831
 21
14.2497519099098
 31
0.0
 11
182.9590577693892
 21
14.0313295488533
 31
0.0
 11
182.9689825870146
 21
13.81626739612928
 31
0.0
 11
182.8872616168771
 21
13.82145433189185
 31
0.0
 11
182.8004341885365
 21
13.82315538223863
 31
0.0
 11
182.7135395119339
 21
13.82145433189185
 31
0.0
 11
182.6318769706145
 21
13.81626739612928
 31
0.0
 11
182.641732820038
 21
14.0313295488533
 31
0.0
 11
182.6507427258646
 21
14.2497519099098
 31
0.0
 11
182.6571833838798
 21
14.47163149318766
 31
0.0
 11
182.6593583588024
 21
14.69700357646467
 31
0.0
 11
182.6593583588024
 21
14.74082641595988
 31
0.0
 11
182.6593583588024
 21
14.85038351469792
 31
0.0
 11
182.6593583588024
 21
14.99280774305737
 31
0.0
 11
182.6593583588024
 21
15.13523197141682
 31
0.0
 11
182.6593583588024
 21
15.24478907015486
 31
0.0
 11
182.6593583588024
 21
15.28861190965007
 31
0.0
 11
182.6571833838798
 21
15.51347467001054
 31
0.0
 11
182.6507427258646
 21
15.73406440953872
 31
0.0
  0
SPLINE
  5
AA
102
{ACAD_REACTORS
330
C7
102
}
330
48
100
AcDbEntity
  8
_U_30EC_U_30A4_U_30E4_U_30FC_1
  6
Continuous
 62
     2
100
AcDbSpline
210
0.0
220
0.0
230
1.0
 70
    11
 71
     3
 72
   118
 73
   114
 74
   112
 42
0.000000001
 43
0.0000000001
 44
0.00000001
 40
0.0
 40
0.0
 40
0.0
 40
0.0
 40
0.1054708162973424
 40
0.2466098270052106
 40
0.3965912874591458
 40
0.5285525069754216
 40
0.6156245055642282
 40
0.6431434105797609
 40
0.7036850037986496
 40
0.7642265984505091
 40
0.7917455052355578
 40
0.928740431999005
 40
1.106572819088044
 40
1.287544879681074
 40
1.317578308030591
 40
1.39992803085723
 40
1.522968204800004
 40
1.675072986590625
 40
1.844616533180703
 40
2.019973001638767
 40
2.189516548880079
 40
2.341621331585418
 40
2.464661506320554
 40
2.547011229647118
 40
2.577044658168082
 40
2.603797890893124
 40
2.662655002908811
 40
2.721512114949594
 40
2.748265347702746
 40
2.774215307344822
 40
2.845959313407152
 40
2.954338556588351
 40
3.090194227585529
 40
3.244367517100492
 40
3.407699615844252
 40
3.571031714539402
 40
3.725205003920078
 40
3.861060674729578
 40
3.969439917716271
 40
4.041183923628943
 40
4.067133883212937
 40
4.311886746012114
 40
4.54789725833548
 40
4.764747083043949
 40
4.952749679951741
 40
5.045772974195887
 40
5.137862019644956
 40
5.330543169792991
 40
5.553448265243984
 40
5.795083855888143
 40
6.043293412177208
 40
6.285761695541166
 40
6.313902908752678
 40
6.384255941793268
 40
6.475714884766856
 40
6.56717382775889
 40
6.637526860839668
 40
6.665668074074032
 40
6.692018920328004
 40
6.749990782071069
 40
6.807962643790437
 40
6.834313490017908
 40
6.856393084245187
 40
6.913335195649839
 40
6.991194817302474
 40
7.076026942283707
 40
7.153886563725254
 40
7.210828674844808
 40
7.232908268931143
 40
7.258199334923664
 40
7.324875781592314
 40
7.419142481924971
 40
7.52720430884191
 40
7.635266135230489
 40
7.729532834168475
 40
7.796209279292797
 40
7.821500344594743
 40
7.844652988850842
 40
7.899863140541592
 40
7.965759128053759
 40
8.020969279771071
 40
8.044121924046538
 40
8.069356610160657
 40
8.109134395441481
 40
8.132238100191193
 40
8.193147867786559
 40
8.27926167887673
 40
8.377977512673946
 40
8.476693347146728
 40
8.562807160411783
 40
8.62371693082657
 40
8.646820636853521
 40
8.671988793774334
 40
8.734909185828274
 40
8.816705695188988
 40
8.898502204815587
 40
8.961422597378077
 40
8.98659075455119
 40
9.012941600733342
 40
9.070913462380425
 40
9.128885324081914
 40
9.155236170325235
 40
9.180404327929278
 40
9.24332472194838
 40
9.325121234212173
 40
9.406917746637856
 40
9.46983814197834
 40
9.495006288271114
 40
9.517811184379255
 40
9.572192090487254
 40
9.637098333281486
 40
9.691479239515685
 40
9.714284125643724
 40
9.714284125643724
 40
9.714284125643724
 40
9.714284125643724
 10
185.2874469028653
 20
15.2688916318772
 30
0.0
 10
185.3090990569037
 20
15.24111869242812
 30
0.0
 10
185.3597257109474
 20
15.17618054561236
 30
0.0
 10
185.4349383202592
 20
15.06891060312899
 30
0.0
 10
185.5248482274346
 20
14.95377438266625
 30
0.0
 10
185.5709169676674
 20
14.85357045748321
 30
0.0
 10
185.6655825294654
 20
14.78434006814942
 30
0.0
 10
185.6204439320413
 20
14.73771639678273
 30
0.0
 10
185.5947047785789
 20
14.69660308866038
 30
0.0
 10
185.5645196708011
 20
14.66065971727939
 30
0.0
 10
185.5193684730561
 20
14.58579782596094
 30
0.0
 10
185.4710504458563
 20
14.80782524253606
 30
0.0
 10
185.3968539713073
 20
14.84510677337712
 30
0.0
 10
185.2836047324606
 20
15.11610202130601
 30
0.0
 10
185.288513357817
 20
15.00095328446229
 30
0.0
 10
185.2868486556306
 20
14.92836675781627
 30
0.0
 10
185.2876830076714
 20
14.80625588483986
 30
0.0
 10
185.2873609540264
 20
14.6591380081046
 30
0.0
 10
185.2875076912456
 20
14.49307063956557
 30
0.0
 10
185.2872950092722
 20
14.32187554608602
 30
0.0
 10
185.2879497252034
 20
14.15552828635498
 30
0.0
 10
185.2859192461139
 20
14.00935173055693
 30
0.0
 10
185.291346039993
 20
13.8847104747461
 30
0.0
 10
185.2804930868708
 20
13.81718656540627
 30
0.0
 10
185.2956739155555
 20
13.75549061417023
 30
0.0
 10
185.2457895108134
 20
13.76727503897002
 30
0.0
 10
185.2017150342523
 20
13.7594382277997
 30
0.0
 10
185.1582371630201
 20
13.76760441372702
 30
0.0
 10
185.1092346786489
 20
13.75538056738469
 30
0.0
 10
185.1218731234825
 20
13.80960667249313
 30
0.0
 10
185.113018296845
 20
13.86936918907558
 30
0.0
 10
185.1175058770315
 20
13.97922029044371
 30
0.0
 10
185.1157960135993
 20
14.11029975405679
 30
0.0
 10
185.1163550915986
 20
14.26198011444328
 30
0.0
 10
185.1161928768695
 20
14.42211074929953
 30
0.0
 10
185.1162269924675
 20
14.58236865674566
 30
0.0
 10
185.1162514960128
 20
14.73370247520439
 30
0.0
 10
185.1161453543226
 20
14.86582156338601
 30
0.0
 10
185.1164299141932
 20
14.97294802533193
 30
0.0
 10
185.1158675547568
 20
15.03808619579474
 30
0.0
 10
185.1180765083691
 20
15.16618957858675
 30
0.0
 10
185.0319435998603
 20
14.79097610391575
 30
0.0
 10
184.9555140818501
 20
14.63918193123394
 30
0.0
 10
184.8660040767834
 20
14.47766206446308
 30
0.0
 10
184.7640413217328
 20
14.20471848820172
 30
0.0
 10
184.7187976491039
 20
14.36717346596509
 30
0.0
 10
184.6102355941672
 20
14.45605432058121
 30
0.0
 10
184.7995791751753
 20
14.6054979496141
 30
0.0
 10
184.85653405457
 20
14.79749136974925
 30
0.0
 10
184.9717520993353
 20
15.02899622906757
 30
0.0
 10
184.9940151630133
 20
15.21797259759065
 30
0.0
 10
185.1771905152141
 20
15.49454089325931
 30
0.0
 10
185.0538033597552
 20
15.48698978832095
 30
0.0
 10
184.9925684166834
 20
15.48856772366119
 30
0.0
 10
184.9081999617065
 20
15.48882592573674
 30
0.0
 10
184.8204235085966
 20
15.48544845751206
 30
0.0
 10
184.7656768696123
 20
15.49394814982021
 30
0.0
 10
184.7104703026025
 20
15.48048561049788
 30
0.0
 10
184.7222823035537
 20
15.52931442126764
 30
0.0
 10
184.7142496151795
 20
15.57269004896709
 30
0.0
 10
184.7228186104679
 20
15.61509438309573
 30
0.0
 10
184.7102943409158
 20
15.66267796552119
 30
0.0
 10
184.7555101538735
 20
15.65267212995108
 30
0.0
 10
184.8014815562725
 20
15.65894105174062
 30
0.0
 10
184.877722204771
 20
15.65593561405872
 30
0.0
 10
184.9561296131995
 20
15.65770448278541
 30
0.0
 10
185.0323992648934
 20
15.65464793981659
 30
0.0
 10
185.0783009459475
 20
15.66103971376176
 30
0.0
 10
185.12317339654
 20
15.65093822978896
 30
0.0
 10
185.1105552275635
 20
15.70157201581898
 30
0.0
 10
185.1191936582707
 20
15.7550126188207
 30
0.0
 10
185.1152361595445
 20
15.8486325513168
 30
0.0
 10
185.1162325068335
 20
15.95112606688924
 30
0.0
 10
185.1171927413074
 20
16.05353270248163
 30
0.0
 10
185.1133211458006
 20
16.14735929609321
 30
0.0
 10
185.1217789814365
 20
16.20036542840353
 30
0.0
 10
185.1093075932836
 20
16.25211435651189
 30
0.0
 10
185.1542106389851
 20
16.23850747226757
 30
0.0
 10
185.1955083836773
 20
16.24100480320586
 30
0.0
 10
185.2595344281051
 20
16.23648060574487
 30
0.0
 10
185.2986111148787
 20
16.22781003043309
 30
0.0
 10
185.3476543498743
 20
16.23515102070686
 30
0.0
 10
185.3225080030591
 20
16.19602896051758
 30
0.0
 10
185.2815901333723
 20
16.2056384245581
 30
0.0
 10
185.2910109616604
 20
16.15540148169778
 30
0.0
 10
185.2855647318746
 20
16.1038594563949
 30
0.0
 10
185.2881699601804
 20
16.0195970758452
 30
0.0
 10
185.2870102202153
 20
15.92559135583408
 30
0.0
 10
185.2883591064231
 20
15.83196865395526
 30
0.0
 10
185.2849970101508
 20
15.74679517552222
 30
0.0
 10
185.2920959917769
 20
15.69716856072044
 30
0.0
 10
185.2812569154545
 20
15.64993694969989
 30
0.0
 10
185.3304010225246
 20
15.66201674936852
 30
0.0
 10
185.3794877630147
 20
15.65447393363011
 30
0.0
 10
185.4573714280642
 20
15.65686070361433
 30
0.0
 10
185.5350365172896
 20
15.65899381905415
 30
0.0
 10
185.5845393931356
 20
15.65193391922454
 30
0.0
 10
185.634459475064
 20
15.66360151936214
 30
0.0
 10
185.6223198516882
 20
15.61540235371393
 30
0.0
 10
185.6305838229144
 20
15.57249219801237
 30
0.0
 10
185.6223198650784
 20
15.52958201851385
 30
0.0
 10
185.6344594549855
 20
15.48138288754865
 30
0.0
 10
185.5845395158747
 20
15.49305034471512
 30
0.0
 10
185.5350350651204
 20
15.48599202435047
 30
0.0
 10
185.4573784382972
 20
15.48811665228604
 30
0.0
 10
185.379464386576
 20
15.49053389365761
 30
0.0
 10
185.3304500352717
 20
15.48291848194486
 30
0.0
 10
185.2813246108943
 20
15.49507952557593
 30
0.0
 10
185.2915559988571
 20
15.45073013424159
 30
0.0
 10
185.2856677678053
 20
15.40925436202912
 30
0.0
 10
185.2878788305569
 20
15.34915394315303
 30
0.0
 10
185.2874109346146
 20
15.3022578276289
 30
0.0
 10
185.2874386992913
 20
15.27650146418197
 30
0.0
 10
185.2874469028653
 20
15.2688916318772
 30
0.0
 11
185.2874469028653
 21
15.2688916318772
 31
0.0
 11
185.3516977534484
 21
15.18524999634257
 31
0.0
 11
185.4348258835499
 21
15.07118889748221
 31
0.0
 11
185.5216831568896
 21
14.94891767195723
 31
0.0
 11
185.5971214371872
 21
14.84064565642876
 31
0.0
 11
185.6459925881626
 21
14.7685821875579
 31
0.0
 11
185.6296821285093
 21
14.74641782124399
 31
0.0
 11
185.5937991172719
 21
14.69765621535339
 31
0.0
 11
185.5579161060346
 21
14.64889460946279
 31
0.0
 11
185.5416056463812
 21
14.62673024314888
 31
0.0
 11
185.4763067109446
 21
14.74716139023813
 31
0.0
 11
185.3848434243235
 21
14.89966983670207
 31
0.0
 11
185.2874469028653
 21
15.05219788193142
 31
0.0
 11
185.2874469028653
 21
15.02216445328253
 31
0.0
 11
185.2874469028653
 21
14.93981472956783
 31
0.0
 11
185.2874469028653
 21
14.81677455413528
 31
0.0
 11
185.2874469028653
 21
14.66466977033283
 31
0.0
 11
185.2874469028653
 21
14.49512622150845
 31
0.0
 11
185.2874469028653
 21
14.31976975101009
 31
0.0
 11
185.2874469028653
 21
14.15022620218571
 31
0.0
 11
185.2874469028653
 21
13.99812141838326
 31
0.0
 11
185.2874469028653
 21
13.87508124295071
 31
0.0
 11
185.2874469028653
 21
13.79273151923601
 31
0.0
 11
185.2874469028653
 21
13.76269809058712
 31
0.0
 11
185.2606936700409
 21
13.76269809058712
 31
0.0
 11
185.2018365578272
 21
13.76269809058712
 31
0.0
 11
185.1429794456135
 21
13.76269809058712
 31
0.0
 11
185.1162262127891
 21
13.76269809058712
 31
0.0
 11
185.1162262127891
 21
13.7886480503125
 31
0.0
 11
185.1162262127891
 21
13.86039205661208
 31
0.0
 11
185.1162262127891
 21
13.96877130017102
 31
0.0
 11
185.1162262127891
 21
14.10462697167447
 31
0.0
 11
185.1162262127891
 21
14.25880026180761
 31
0.0
 11
185.1162262127891
 21
14.42213236125558
 31
0.0
 11
185.1162262127891
 21
14.58546446070356
 31
0.0
 11
185.1162262127891
 21
14.7396377508367
 31
0.0
 11
185.1162262127891
 21
14.87549342234015
 31
0.0
 11
185.1162262127891
 21
14.98387266589909
 31
0.0
 11
185.1162262127891
 21
15.05561667219867
 31
0.0
 11
185.1162262127891
 21
15.08156663192405
 31
0.0
 11
185.0379865861723
 21
14.84965603302372
 31
0.0
 11
184.9497110789304
 21
14.63077616328678
 31
0.0
 11
184.8544106930046
 21
14.43598991333546
 31
0.0
 11
184.7550964303357
 21
14.27636017379201
 31
0.0
 11
184.7109198342406
 21
14.35822446196599
 31
0.0
 11
184.6588057383481
 21
14.43414885430811
 31
0.0
 11
184.76273025903
 21
14.59640087926757
 31
0.0
 11
184.8629319864735
 21
14.79551465421781
 31
0.0
 11
184.9550446607902
 21
15.01890447916196
 31
0.0
 11
185.0347020220912
 21
15.2539846541032
 31
0.0
 11
185.0975378104881
 21
15.48816947904466
 31
0.0
 11
185.0693965972143
 21
15.48816947904466
 31
0.0
 11
184.9990435640298
 21
15.48816947904466
 31
0.0
 11
184.9075846208899
 21
15.48816947904466
 31
0.0
 11
184.81612567775
 21
15.48816947904466
 31
0.0
 11
184.7457726445655
 21
15.48816947904466
 31
0.0
 11
184.7176314312917
 21
15.48816947904466
 31
0.0
 11
184.7176314312917
 21
15.51452032539223
 31
0.0
 11
184.7176314312917
 21
15.57249218735689
 31
0.0
 11
184.7176314312917
 21
15.63046404932155
 31
0.0
 11
184.7176314312917
 21
15.65681489566912
 31
0.0
 11
184.739711025602
 21
15.65681489566912
 31
0.0
 11
184.7966531372445
 21
15.65681489566912
 31
0.0
 11
184.8745127592863
 21
15.65681489566912
 31
0.0
 11
184.9593448847945
 21
15.65681489566912
 31
0.0
 11
185.0372045068362
 21
15.65681489566912
 31
0.0
 11
185.0941466184787
 21
15.65681489566912
 31
0.0
 11
185.1162262127891
 21
15.65681489566912
 31
0.0
 11
185.1162262127891
 21
15.68210596174353
 31
0.0
 11
185.1162262127891
 21
15.74878240866697
 31
0.0
 11
185.1162262127891
 21
15.84304910948977
 31
0.0
 11
185.1162262127891
 21
15.95111093726224
 31
0.0
 11
185.1162262127891
 21
16.05917276503471
 31
0.0
 11
185.1162262127891
 21
16.15343946585751
 31
0.0
 11
185.1162262127891
 21
16.22011591278095
 31
0.0
 11
185.1162262127891
 21
16.24540697885536
 31
0.0
 11
185.1393181988666
 21
16.243732131078
 31
0.0
 11
185.1943837041285
 21
16.23973826330122
 31
0.0
 11
185.2601070491185
 21
16.23497138885796
 31
0.0
 11
185.3151725543804
 21
16.23097752108117
 31
0.0
 11
185.3382645404579
 21
16.22930267330381
 31
0.0
 11
185.3249012644362
 21
16.20789677921191
 31
0.0
 11
185.2874469028653
 21
16.19450114553469
 31
0.0
 11
185.2874469028653
 21
16.17139743948578
 31
0.0
 11
185.2874469028653
 21
16.11048766899319
 31
0.0
 11
185.2874469028653
 21
16.02437385553816
 31
0.0
 11
185.2874469028653
 21
15.9256580206019
 31
0.0
 11
185.2874469028653
 21
15.82694218566565
 31
0.0
 11
185.2874469028653
 21
15.74082837221061
 31
0.0
 11
185.2874469028653
 21
15.67991860171803
 31
0.0
 11
185.2874469028653
 21
15.65681489566912
 31
0.0
 11
185.3126150604809
 21
15.65681489566912
 31
0.0
 11
185.3755354545199
 21
15.65681489566912
 31
0.0
 11
185.4573319667706
 21
15.65681489566912
 31
0.0
 11
185.5391284790213
 21
15.65681489566912
 31
0.0
 11
185.6020488730603
 21
15.65681489566912
 31
0.0
 11
185.6272170306759
 21
15.65681489566912
 31
0.0
 11
185.6272170306759
 21
15.63046404932155
 31
0.0
 11
185.6272170306759
 21
15.57249218735689
 31
0.0
 11
185.6272170306759
 21
15.51452032539223
 31
0.0
 11
185.6272170306759
 21
15.48816947904466
 31
0.0
 11
185.6020488730603
 21
15.48816947904466
 31
0.0
 11
185.5391284790213
 21
15.48816947904466
 31
0.0
 11
185.4573319667706
 21
15.48816947904466
 31
0.0
 11
185.3755354545199
 21
15.48816947904466
 31
0.0
 11
185.3126150604809
 21
15.48816947904466
 31
0.0
 11
185.2874469028653
 21
15.48816947904466
 31
0.0
 11
185.2874469028653
 21
15.46536458293924
 31
0.0
 11
185.2874469028653
 21
15.41098367684171
 31
0.0
 11
185.2874469028653
 21
15.34607743408014
 31
0.0
 11
185.2874469028653
 21
15.29169652798262
 31
0.0
 11
185.2874469028653
 21
15.2688916318772
 31
0.0
  0
SPLINE
  5
AB
102
{ACAD_REACTORS
330
C8
102
}
330
48
100
AcDbEntity
  8
_U_30EC_U_30A4_U_30E4_U_30FC_1
  6
Continuous
 62
     2
100
AcDbSpline
210
0.0
220
0.0
230
1.0
 70
    11
 71
     3
 72
    91
 73
    87
 74
    85
 42
0.000000001
 43
0.0000000001
 44
0.00000001
 40
0.0
 40
0.0
 40
0.0
 40
0.0
 40
0.0345987051695434
 40
0.1258134969461085
 40
0.2547723404888703
 40
0.4026032099153841
 40
0.5504340793416704
 40
0.679392922883608
 40
0.770607714657132
 40
0.8052064287780925
 40
1.124852390615278
 40
1.427402236308875
 40
1.706356627453516
 40
1.955541417875193
 40
2.169485938566338
 40
2.344350786664808
 40
2.480568411561938
 40
2.590440557428933
 40
2.649189927151109
 40
2.749320643306298
 40
2.912632739879996
 40
3.147745656000204
 40
3.244827496385139
 40
3.338490056946681
 40
3.583815413207099
 40
3.761423943238459
 40
3.886956104362623
 40
3.985855451886828
 40
4.091766255337741
 40
4.250186473811906
 40
4.422734315084529
 40
4.628285684838606
 40
4.87209322775845
 40
5.152549652145561
 40
5.464967135837538
 40
5.803201477852461
 40
6.160362988813938
 40
6.193449448276022
 40
6.284170385501676
 40
6.419718138764546
 40
6.587285046385825
 40
6.77406344672371
 40
6.967245678113693
 40
7.154024078817736
 40
7.321590987026093
 40
7.457138740890452
 40
7.547859678556216
 40
7.580946138182776
 40
7.608533084714828
 40
7.669224367077804
 40
7.729915649430021
 40
7.757502595950072
 40
7.790278062553526
 40
7.880146277431024
 40
8.014419963180487
 40
8.180411842398016
 40
8.365434637679485
 40
8.556801071622814
 40
8.741823866830899
 40
8.907815745916437
 40
9.04208943150762
 40
9.131957646249745
 40
9.164733112797322
 40
9.415425063140244
 40
9.66798618095871
 40
9.694169807462877
 40
9.756607686047836
 40
9.831130315322643
 40
9.893568193900107
 40
9.919751820398924
 40
9.950967964690737
 40
9.9964216312109
 40
10.22087981037479
 40
10.44341866197566
 40
10.47847970788879
 40
10.57091337438779
 40
10.70159545461259
 40
10.85140174170387
 40
11.0012080288051
 40
11.13189010907416
 40
11.22432377583041
 40
11.2593848093899
 40
11.28697175596178
 40
11.34766303835952
 40
11.40835432042102
 40
11.43594125892137
 40
11.43594125892137
 40
11.43594125892137
 40
11.43594125892137
 10
190.081811433329
 20
15.55242795125078
 30
0.0
 10
190.0702785844942
 20
15.55242790287917
 30
0.0
 10
190.0283409444999
 20
15.55242773704165
 30
0.0
 10
189.9434129719027
 20
15.5524312580091
 30
0.0
 10
189.8207688553129
 20
15.55240926435879
 30
0.0
 10
189.6791206916994
 20
15.55250801177055
 30
0.0
 10
189.537975369849
 20
15.55214686232421
 30
0.0
 10
189.4141351317905
 20
15.5532188360909
 30
0.0
 10
189.3317217825382
 20
15.55092249091269
 30
0.0
 10
189.1727791229694
 20
15.5604856937342
 30
0.0
 10
189.3503402353376
 20
15.1978539431137
 30
0.0
 10
189.3379739205453
 20
14.95243127723115
 30
0.0
 10
189.4064519473864
 20
14.66862501324835
 30
0.0
 10
189.469302432097
 20
14.43250999939035
 30
0.0
 10
189.5452253431728
 20
14.23326740396128
 30
0.0
 10
189.6303189577017
 20
14.07745347451375
 30
0.0
 10
189.7244607592936
 20
13.97657857781392
 30
0.0
 10
189.8282648207727
 20
13.92465852638966
 30
0.0
 10
189.9125872030774
 20
13.97606484379614
 30
0.0
 10
189.9351322179452
 20
14.09144544037517
 30
0.0
 10
189.974573097537
 20
14.21885149702382
 30
0.0
 10
189.9202919734942
 20
14.53622328086754
 30
0.0
 10
190.0451218072474
 20
14.3898218014091
 30
0.0
 10
190.2019291513602
 20
14.35795300331166
 30
0.0
 10
190.0947720007059
 20
14.12421357767628
 30
0.0
 10
190.0808711209867
 20
13.95972776583657
 30
0.0
 10
190.0234709467226
 20
13.8313086912248
 30
0.0
 10
189.9335020145009
 20
13.76018802352828
 30
0.0
 10
189.8095274657878
 20
13.74432324142254
 30
0.0
 10
189.663427319686
 20
13.77993797554172
 30
0.0
 10
189.5243894320284
 20
13.90000570500277
 30
0.0
 10
189.4102003962145
 20
14.07435682550321
 30
0.0
 10
189.3146141301486
 20
14.29946603111239
 30
0.0
 10
189.2318652572627
 20
14.56388246006442
 30
0.0
 10
189.1807179256412
 20
14.88187933098544
 30
0.0
 10
189.0770189207338
 20
15.15543728488912
 30
0.0
 10
189.2042841208522
 20
15.56005818612869
 30
0.0
 10
189.0357890623019
 20
15.55112367849679
 30
0.0
 10
188.9511995787078
 20
15.55315961418364
 30
0.0
 10
188.8189876387628
 20
15.55213937388407
 30
0.0
 10
188.6560505094103
 20
15.5525323031843
 30
0.0
 10
188.4733759170534
 20
15.5523569631337
 30
0.0
 10
188.2847057373382
 20
15.55260105307468
 30
0.0
 10
188.1014469020189
 20
15.55185657906238
 30
0.0
 10
187.9404746832718
 20
15.55416360522426
 30
0.0
 10
187.8029808335275
 20
15.54799804883663
 30
0.0
 10
187.7289590372311
 20
15.56032838458212
 30
0.0
 10
187.6613215186856
 20
15.54329323723557
 30
0.0
 10
187.6732373719269
 20
15.59524438447528
 30
0.0
 10
187.6655677285694
 20
15.64071424966529
 30
0.0
 10
187.6732592225115
 20
15.68614453703706
 30
0.0
 10
187.6613141797762
 20
15.7380239598457
 30
0.0
 10
187.7283588305867
 20
15.72119143490264
 30
0.0
 10
187.8017375665676
 20
15.73335409092671
 30
0.0
 10
187.9379128305272
 20
15.72727231074958
 30
0.0
 10
188.0973811801512
 20
15.72954834315058
 30
0.0
 10
188.2789173085837
 20
15.72881233998962
 30
0.0
 10
188.465803486218
 20
15.72905954196134
 30
0.0
 10
188.6468012316836
 20
15.72886400799254
 30
0.0
 10
188.8080802578879
 20
15.72932234714839
 30
0.0
 10
188.9393882124887
 20
15.72812673751206
 30
0.0
 10
189.0225051322597
 20
15.73051347319742
 30
0.0
 10
189.1556236547814
 20
15.72230605725464
 30
0.0
 10
189.0645893502659
 20
15.97752868952655
 30
0.0
 10
188.9789633074419
 20
16.24164358328245
 30
0.0
 10
189.0990589003455
 20
16.22904442969165
 30
0.0
 10
189.1514264948544
 20
16.22694235763075
 30
0.0
 10
189.2214497569715
 20
16.22535399889657
 30
0.0
 10
189.2671922337817
 20
16.21602567538112
 30
0.0
 10
189.3220812646933
 20
16.22545966915427
 30
0.0
 10
189.2963574785682
 20
16.17733028655169
 30
0.0
 10
189.1825397571452
 20
16.18266829744176
 30
0.0
 10
189.3159346621136
 20
15.95449174576774
 30
0.0
 10
189.1943658735472
 20
15.72156856595923
 30
0.0
 10
189.3223188769412
 20
15.73087258884438
 30
0.0
 10
189.4049048406461
 20
15.7280100175468
 30
0.0
 10
189.5307214850824
 20
15.72923437412302
 30
0.0
 10
189.6741469838059
 20
15.72932431888964
 30
0.0
 10
189.8157420951728
 20
15.72746163183853
 30
0.0
 10
189.9459127249969
 20
15.73333075937162
 30
0.0
 10
190.0193452286191
 20
15.72070340823204
 30
0.0
 10
190.0891112922097
 20
15.73877563110413
 30
0.0
 10
190.0775772605397
 20
15.68612850546326
 30
0.0
 10
190.0833184346682
 20
15.64221317686547
 30
0.0
 10
190.0816615770912
 20
15.5908998267655
 30
0.0
 10
190.081775756167
 20
15.56158792021635
 30
0.0
 10
190.081811433329
 20
15.55242795125078
 30
0.0
 11
190.081811433329
 21
15.55242795125078
 31
0.0
 11
190.0472127192052
 21
15.55242795125078
 31
0.0
 11
189.9559979274242
 21
15.55242795125078
 31
0.0
 11
189.8270390838718
 21
15.55242795125078
 31
0.0
 11
189.6792082144337
 21
15.55242795125078
 31
0.0
 11
189.5313773449955
 21
15.55242795125078
 31
0.0
 11
189.4024185014431
 21
15.55242795125078
 31
0.0
 11
189.3112037096621
 21
15.55242795125078
 31
0.0
 11
189.2766049955383
 21
15.55242795125078
 31
0.0
 11
189.3083140497694
 21
15.23435864930121
 31
0.0
 11
189.3527866656866
 21
14.93509522788081
 31
0.0
 11
189.409238911832
 21
14.66191269512576
 31
0.0
 11
189.4768868567478
 21
14.42208605917227
 31
0.0
 11
189.5549465689762
 21
14.22289032815655
 31
0.0
 11
189.6426341170592
 21
14.07160051021478
 31
0.0
 11
189.7391655695389
 21
13.97549161348317
 31
0.0
 11
189.8437569949575
 21
13.94183864609792
 31
0.0
 11
189.8943077302786
 21
13.97177376978835
 31
0.0
 11
189.9310588991551
 21
14.06491619815047
 31
0.0
 11
189.9562640977527
 21
14.22627151712054
 31
0.0
 11
189.9721769222368
 21
14.46084531263482
 31
0.0
 11
190.0494082682584
 21
14.40202182306618
 31
0.0
 11
190.1327184184385
 21
14.3592188543269
 31
0.0
 11
190.1066365811218
 21
14.1152838866101
 31
0.0
 11
190.0673317805106
 21
13.94207902887562
 31
0.0
 11
190.0105702596765
 21
13.83011272445917
 31
0.0
 11
189.932118261691
 21
13.76989341669645
 31
0.0
 11
189.8277420296256
 21
13.75192954892317
 31
0.0
 11
189.6738595065097
 21
13.78957440012361
 31
0.0
 11
189.5388902376748
 21
13.89707348877403
 31
0.0
 11
189.4221739916163
 21
14.06627361744808
 31
0.0
 11
189.32305053683
 21
14.28902158871943
 31
0.0
 11
189.2408596418114
 21
14.55716420516172
 31
0.0
 11
189.174941075056
 21
14.8625482693486
 31
0.0
 11
189.1246346050594
 21
15.19702058385374
 31
0.0
 11
189.0892800003172
 21
15.55242795125078
 31
0.0
 11
189.0561935405844
 21
15.55242795125078
 31
0.0
 11
188.9654726026075
 21
15.55242795125078
 31
0.0
 11
188.8299248482186
 21
15.55242795125078
 31
0.0
 11
188.6623579392495
 21
15.55242795125078
 31
0.0
 11
188.4755795375324
 21
15.55242795125078
 31
0.0
 11
188.2823973048993
 21
15.55242795125078
 31
0.0
 11
188.0956189031822
 21
15.55242795125078
 31
0.0
 11
187.9280519942131
 21
15.55242795125078
 31
0.0
 11
187.7925042398242
 21
15.55242795125078
 31
0.0
 11
187.7017833018473
 21
15.55242795125078
 31
0.0
 11
187.6686968421145
 21
15.55242795125078
 31
0.0
 11
187.6686968421145
 21
15.58001489785847
 31
0.0
 11
187.6686968421145
 21
15.64070618039538
 31
0.0
 11
187.6686968421145
 21
15.70139746293229
 31
0.0
 11
187.6686968421145
 21
15.72898440953998
 31
0.0
 11
187.7014723087631
 21
15.72898440953998
 31
0.0
 11
187.7913405237673
 21
15.72898440953998
 31
0.0
 11
187.9256142097148
 21
15.72898440953998
 31
0.0
 11
188.0916060891932
 21
15.72898440953998
 31
0.0
 11
188.2766288847901
 21
15.72898440953998
 31
0.0
 11
188.4679953190933
 21
15.72898440953998
 31
0.0
 11
188.6530181146902
 21
15.72898440953998
 31
0.0
 11
188.8190099941685
 21
15.72898440953998
 31
0.0
 11
188.9532836801161
 21
15.72898440953998
 31
0.0
 11
189.0431518951203
 21
15.72898440953998
 31
0.0
 11
189.0759273617689
 21
15.72898440953998
 31
0.0
 11
189.0659183950103
 21
15.97947647544958
 31
0.0
 11
189.0599112510663
 21
16.23196614552531
 31
0.0
 11
189.0860575870659
 21
16.23056921608122
 31
0.0
 11
189.1484065421419
 21
16.22723807663761
 31
0.0
 11
189.2228230369099
 21
16.22326220052749
 31
0.0
 11
189.2851719919859
 21
16.21993106108388
 31
0.0
 11
189.3113183279855
 21
16.21853413163979
 31
0.0
 11
189.298293111304
 21
16.19016528616079
 31
0.0
 11
189.2551649266405
 21
16.17581274276164
 31
0.0
 11
189.2574991961821
 21
15.95136670115108
 31
0.0
 11
189.2658452735903
 21
15.72898440953998
 31
0.0
 11
189.3009063195165
 21
15.72898440953998
 31
0.0
 11
189.3933399860495
 21
15.72898440953998
 31
0.0
 11
189.5240220663201
 21
15.72898440953998
 31
0.0
 11
189.6738283534596
 21
15.72898440953998
 31
0.0
 11
189.8236346405992
 21
15.72898440953998
 31
0.0
 11
189.9543167208698
 21
15.72898440953998
 31
0.0
 11
190.0467503874027
 21
15.72898440953998
 31
0.0
 11
190.081811433329
 21
15.72898440953998
 31
0.0
 11
190.081811433329
 21
15.70139746293229
 31
0.0
 11
190.081811433329
 21
15.64070618039538
 31
0.0
 11
190.081811433329
 21
15.58001489785847
 31
0.0
 11
190.081811433329
 21
15.55242795125078
 31
0.0
  0
SPLINE
  5
AC
102
{ACAD_REACTORS
330
C9
102
}
330
48
100
AcDbEntity
  8
_U_30EC_U_30A4_U_30E4_U_30FC_1
  6
Continuous
 62
     2
100
AcDbSpline
210
0.0
220
0.0
230
1.0
 70
    11
 71
     3
 72
    75
 73
    71
 74
    69
 42
0.000000001
 43
0.0000000001
 44
0.00000001
 40
0.0
 40
0.0
 40
0.0
 40
0.0
 40
0.0342546099129691
 40
0.1245622414432346
 40
0.2522385480897536
 40
0.398599192294068
 40
0.5449598364980839
 40
0.6726361431438834
 40
0.7629437746736978
 40
0.797198393529799
 40
1.101723623449638
 40
1.408591244036586
 40
1.43333247169029
 40
1.487763172450085
 40
1.54219387308191
 40
1.566935100592459
 40
1.923523931821772
 40
2.271755704953545
 40
2.590579755100788
 40
2.858943305581075
 40
2.88912033930907
 40
2.918305855190988
 40
2.941366645531111
 40
2.996357760973015
 40
3.061992318140582
 40
3.116983433626783
 40
3.140044223997462
 40
3.41127312293638
 40
3.732441619741156
 40
3.761068217532854
 40
3.837787499630416
 40
3.948858699126053
 40
4.080541049104427
 40
4.21909378262581
 40
4.350776132722359
 40
4.461847332405693
 40
4.538566614678423
 40
4.567193212544669
 40
4.594907573998928
 40
4.666381453557495
 40
4.764111044011106
 40
4.870592538125909
 40
4.96832212864236
 40
5.039796008287073
 40
5.067510369784504
 40
5.094263603185718
 40
5.15312071666836
 40
5.21197783015081
 40
5.238731063551816
 40
5.272290535139083
 40
5.363380529444887
 40
5.497618415781593
 40
5.660621563453807
 40
5.838007341749508
 40
6.015393119910888
 40
6.178396267038485
 40
6.312634151842465
 40
6.403724143059454
 40
6.43728361267255
 40
6.464036846261168
 40
6.522893960004788
 40
6.581751071484057
 40
6.608504301591005
 40
6.637253941281152
 40
6.711397748903032
 40
6.812778057283616
 40
6.923237199249392
 40
7.024617507624008
 40
7.098761315207689
 40
7.127510946007639
 40
7.127510946007639
 40
7.127510946007639
 40
7.127510946007639
 10
188.4418622390565
 20
14.95849128473263
 30
0.0
 10
188.4418622819707
 20
14.94707313408719
 30
0.0
 10
188.441862448113
 20
14.90555257842628
 30
0.0
 10
188.4418593081787
 20
14.8214692200377
 30
0.0
 10
188.4418788279802
 20
14.70004497322327
 30
0.0
 10
188.4417912187738
 20
14.55980494047446
 30
0.0
 10
188.4421116235231
 20
14.42006556794575
 30
0.0
 10
188.4411605909741
 20
14.29745038894928
 30
0.0
 10
188.4431978595968
 20
14.21587074438041
 30
0.0
 10
188.4349433178746
 20
14.06271267077698
 30
0.0
 10
188.7430797940901
 20
14.22560236054721
 30
0.0
 10
189.0350645173737
 20
14.39482938688001
 30
0.0
 10
189.0408354448707
 20
14.25973235781911
 30
0.0
 10
189.0455471719891
 20
14.21617221160444
 30
0.0
 10
189.0482535411917
 20
14.17211249350545
 30
0.0
 10
189.0672545672961
 20
14.02272590363135
 30
0.0
 10
188.6583942247302
 20
14.08681172241261
 30
0.0
 10
188.3793710348832
 20
13.97296341411018
 30
0.0
 10
188.1018081587167
 20
13.87364095811137
 30
0.0
 10
187.8099837184399
 20
13.91630687596363
 30
0.0
 10
187.7869144678658
 20
13.8132167974454
 30
0.0
 10
187.7537474383333
 20
13.7869109124447
 30
0.0
 10
187.748065396274
 20
13.83455309036306
 30
0.0
 10
187.7284214559044
 20
13.87180336115069
 30
0.0
 10
187.7095089485624
 20
13.93007387847564
 30
0.0
 10
187.6942849867707
 20
13.97385201007805
 30
0.0
 10
187.6477246372935
 20
14.08759421046312
 30
0.0
 10
187.989089731245
 20
14.05576301120046
 30
0.0
 10
188.2679649367389
 20
14.02161435106476
 30
0.0
 10
188.2617753034907
 20
14.16913976479652
 30
0.0
 10
188.2630935452775
 20
14.24013150908832
 30
0.0
 10
188.2624831689949
 20
14.34719767958661
 30
0.0
 10
188.2625871570726
 20
14.47398529785997
 30
0.0
 10
188.2629987964057
 20
14.6084924349605
 30
0.0
 10
188.261390784197
 20
14.73395549951183
 30
0.0
 10
188.2659902567927
 20
14.84505246719117
 30
0.0
 10
188.256418650221
 20
14.90761886800686
 30
0.0
 10
188.2704001783692
 20
14.96595388295001
 30
0.0
 10
188.2147384386705
 20
14.95289710582236
 30
0.0
 10
188.1575655197822
 20
14.96136307749497
 30
0.0
 10
188.0616048925648
 20
14.95729976080635
 30
0.0
 10
187.9633767522822
 20
14.95970889852474
 30
0.0
 10
187.867258245756
 20
14.95551600613386
 30
0.0
 10
187.8104648525812
 20
14.96429346441162
 30
0.0
 10
187.7550356873385
 20
14.95094936850121
 30
0.0
 10
187.7670679427918
 20
15.00036910959256
 30
0.0
 10
187.7592003173938
 20
15.04393988030395
 30
0.0
 10
187.766629556383
 20
15.08830469118525
 30
0.0
 10
187.7551930564144
 20
15.13902297763992
 30
0.0
 10
187.8232102370134
 20
15.12162460757743
 30
0.0
 10
187.8968496879747
 20
15.13417450237189
 30
0.0
 10
188.0325064058211
 20
15.12799677011096
 30
0.0
 10
188.1884909024526
 20
15.13029203093085
 30
0.0
 10
188.3615926358144
 20
15.1294096826253
 30
0.0
 10
188.5346942964182
 20
15.13029207142408
 30
0.0
 10
188.6906789811218
 20
15.1279966295555
 30
0.0
 10
188.8263351889798
 20
15.13417486262431
 30
0.0
 10
188.8999756705653
 20
15.12162394218335
 30
0.0
 10
188.9679914174724
 20
15.13902373012143
 30
0.0
 10
188.9565590885923
 20
15.08830130414555
 30
0.0
 10
188.9639539458297
 20
15.04397060811107
 30
0.0
 10
188.9562039912272
 20
15.00028307550195
 30
0.0
 10
188.9681203741877
 20
14.95063590098476
 30
0.0
 10
188.9108170223618
 20
14.96461411338424
 30
0.0
 10
188.8520145789773
 20
14.95539755673253
 30
0.0
 10
188.75252936332
 20
14.95952268164928
 30
0.0
 10
188.6494280098349
 20
14.95822760025886
 30
0.0
 10
188.5537846354575
 20
14.9585407707764
 30
0.0
 10
188.4857467971616
 20
14.95848776697144
 30
0.0
 10
188.4514462213444
 20
14.95849051871655
 30
0.0
 10
188.4418622390565
 20
14.95849128473263
 30
0.0
 11
188.4418622390565
 21
14.95849128473263
 31
0.0
 11
188.4418622390565
 21
14.92423666587184
 31
0.0
 11
188.4418622390565
 21
14.83392903432974
 31
0.0
 11
188.4418622390565
 21
14.70625272766678
 31
0.0
 11
188.4418622390565
 21
14.55989208344339
 31
0.0
 11
188.4418622390565
 21
14.41353143921999
 31
0.0
 11
188.4418622390565
 21
14.28585513255703
 31
0.0
 11
188.4418622390565
 21
14.19554750101493
 31
0.0
 11
188.4418622390565
 21
14.16129288215414
 31
0.0
 11
188.7391932644568
 21
14.22709475713769
 31
0.0
 11
189.0384623627245
 21
14.29496038212072
 31
0.0
 11
189.0405487124976
 21
14.27030727882828
 31
0.0
 11
189.0451386819987
 21
14.2160704515849
 31
0.0
 11
189.0497286514996
 21
14.16183362434152
 31
0.0
 11
189.0518150012728
 21
14.13718052104908
 31
0.0
 11
188.705639688924
 21
14.05163370140898
 31
0.0
 11
188.3669653138838
 21
13.97060877629901
 31
0.0
 11
188.0563731516688
 21
13.89862764024928
 31
0.0
 11
187.7944444777955
 21
13.8402121877899
 31
0.0
 11
187.7817515029292
 21
13.81283442738012
 31
0.0
 11
187.7569794787514
 21
13.79740260446735
 31
0.0
 11
187.7491867589502
 21
13.81910683390636
 31
0.0
 11
187.7306041194242
 21
13.87086307333786
 31
0.0
 11
187.70842483999
 21
13.93263664943352
 31
0.0
 11
187.689842200464
 21
13.98439288886502
 31
0.0
 11
187.6820494806628
 21
14.00609711830403
 31
0.0
 11
187.9482776335931
 21
14.05794001759666
 31
0.0
 11
188.262633493629
 21
14.1237396877191
 31
0.0
 11
188.262633493629
 21
14.15236628569624
 31
0.0
 11
188.262633493629
 21
14.22908556827499
 31
0.0
 11
188.262633493629
 21
14.34015676842631
 31
0.0
 11
188.262633493629
 21
14.47183911912117
 31
0.0
 11
188.262633493629
 21
14.61039185333055
 31
0.0
 11
188.262633493629
 21
14.74207420402542
 31
0.0
 11
188.262633493629
 21
14.85314540417674
 31
0.0
 11
188.262633493629
 21
14.92986468675549
 31
0.0
 11
188.262633493629
 21
14.95849128473263
 31
0.0
 11
188.2349191321109
 21
14.95849128473263
 31
0.0
 11
188.1634452524064
 21
14.95849128473263
 31
0.0
 11
188.0657156617901
 21
14.95849128473263
 31
0.0
 11
187.9592341675365
 21
14.95849128473263
 31
0.0
 11
187.8615045769201
 21
14.95849128473263
 31
0.0
 11
187.7900306972156
 21
14.95849128473263
 31
0.0
 11
187.7623163356976
 21
14.95849128473263
 31
0.0
 11
187.7623163356976
 21
14.98524451823288
 31
0.0
 11
187.7623163356976
 21
15.04410163193344
 31
0.0
 11
187.7623163356976
 21
15.10295874563399
 31
0.0
 11
187.7623163356976
 21
15.12971197913424
 31
0.0
 11
187.7958758072876
 21
15.12971197913424
 31
0.0
 11
187.8869658016031
 21
15.12971197913424
 31
0.0
 11
188.021203687963
 21
15.12971197913424
 31
0.0
 11
188.1842068356856
 21
15.12971197913424
 31
0.0
 11
188.3615926140897
 21
15.12971197913424
 31
0.0
 11
188.5389783924938
 21
15.12971197913424
 31
0.0
 11
188.7019815402165
 21
15.12971197913424
 31
0.0
 11
188.8362194265763
 21
15.12971197913424
 31
0.0
 11
188.9273094208919
 21
15.12971197913424
 31
0.0
 11
188.9608688924819
 21
15.12971197913424
 31
0.0
 11
188.9608688924819
 21
15.10295874563399
 31
0.0
 11
188.9608688924819
 21
15.04410163193343
 31
0.0
 11
188.9608688924819
 21
14.98524451823288
 31
0.0
 11
188.9608688924819
 21
14.95849128473263
 31
0.0
 11
188.9321192527878
 21
14.95849128473263
 31
0.0
 11
188.8579754451555
 21
14.95849128473263
 31
0.0
 11
188.7565951367605
 21
14.95849128473263
 31
0.0
 11
188.6461359947778
 21
14.95849128473263
 31
0.0
 11
188.5447556863828
 21
14.95849128473263
 31
0.0
 11
188.4706118787506
 21
14.95849128473263
 31
0.0
 11
188.4418622390565
 21
14.95849128473263
 31
0.0
  0
SPLINE
  5
AD
102
{ACAD_REACTORS
330
CA
102
}
330
48
100
AcDbEntity
  8
_U_30EC_U_30A4_U_30E4_U_30FC_1
  6
Continuous
 62
     2
100
AcDbSpline
210
0.0
220
0.0
230
1.0
 70
    11
 71
     3
 72
    15
 73
    11
 74
     9
 42
0.000000001
 43
0.0000000001
 44
0.00000001
 40
0.0
 40
0.0
 40
0.0
 40
0.0
 40
0.2785535985096802
 40
0.5215624748198895
 40
0.6076917376040945
 40
0.6938210001741886
 40
0.9405019146455296
 40
1.221691403489209
 40
1.300471877081147
 40
1.379252341684956
 40
1.379252341684956
 40
1.379252341684956
 40
1.379252341684956
 10
189.5681493631
 20
16.22930267330381
 30
0.0
 10
189.6296017794178
 20
16.17691646592716
 30
0.0
 10
189.7446649974114
 20
16.07882876798225
 30
0.0
 10
190.0397348497245
 20
15.92889785897218
 30
0.0
 10
189.9025147631857
 20
15.84343227515015
 30
0.0
 10
189.8041227843778
 20
15.71085785201556
 30
0.0
 10
189.713003359065
 20
16.01616985781424
 30
0.0
 10
189.3636839480656
 20
16.07967869465375
 30
0.0
 10
189.511925837657
 20
16.17896509880879
 30
0.0
 10
189.5494081874237
 20
16.21252348402383
 30
0.0
 10
189.5681493631
 20
16.22930267330381
 30
0.0
 11
189.5681493631
 21
16.22930267330381
 31
0.0
 11
189.7919222440597
 21
16.06341774278972
 31
0.0
 11
189.9695046306384
 21
15.89753281227564
 31
0.0
 11
189.9066308127979
 21
15.83866743034592
 31
0.0
 11
189.8437569949575
 21
15.7798020484162
 31
0.0
 11
189.6688535117725
 21
15.95375677059491
 31
0.0
 11
189.447825685614
 21
16.12757920110703
 31
0.0
 11
189.507987524357
 21
16.17844093720542
 31
0.0
 11
189.5681493631
 21
16.22930267330381
 31
0.0
  0
SPLINE
  5
AE
102
{ACAD_REACTORS
330
CB
102
}
330
48
100
AcDbEntity
  8
_U_30EC_U_30A4_U_30E4_U_30FC_1
  6
Continuous
 62
     2
100
AcDbSpline
210
0.0
220
0.0
230
1.0
 70
    11
 71
     3
 72
    35
 73
    31
 74
    29
 42
0.000000001
 43
0.0000000001
 44
0.00000001
 40
0.0
 40
0.0
 40
0.0
 40
0.0
 40
0.0335231036621002
 40
0.0713218571711881
 40
0.4278866681486486
 40
0.8116865841963508
 40
1.198190237999961
 40
1.561379546812588
 40
1.659983174621946
 40
1.759315573807097
 40
2.132719617230933
 40
2.52523336358866
 40
2.910815397779547
 40
3.265244364303175
 40
3.592606723581878
 40
3.964386154603807
 40
4.359942131737651
 40
4.758154118639133
 40
4.843846538699728
 40
4.936650065543066
 40
5.25661660253717
 40
5.58170740441588
 40
5.899719158307996
 40
6.198363494280544
 40
6.466301046615557
 40
6.493895311536879
 40
6.5596970201967
 40
6.638234543442303
 40
6.704036252154112
 40
6.731630508422918
 40
6.731630508422918
 40
6.731630508422918
 40
6.731630508422918
 10
191.973601056867
 20
16.23463843719134
 30
0.0
 10
191.967600609779
 20
16.22480690542323
 30
0.0
 10
191.9548344099157
 20
16.20388988579801
 30
0.0
 10
191.7949362006555
 20
16.17127126532676
 30
0.0
 10
192.2322025842338
 20
15.88206680336705
 30
0.0
 10
192.4345394828262
 20
15.68041138358439
 30
0.0
 10
192.6819564267973
 20
15.43749387603275
 30
0.0
 10
193.1831513624606
 20
15.3604766275778
 30
0.0
 10
193.012556219897
 20
15.21876939174654
 30
0.0
 10
192.9383299463201
 20
15.01710366209111
 30
0.0
 10
192.6131432248188
 20
15.36956287174725
 30
0.0
 10
192.3277741670665
 20
15.53175212559564
 30
0.0
 10
192.0337604077658
 20
15.73687130053048
 30
0.0
 10
191.8084452691133
 20
16.21827488595455
 30
0.0
 10
191.5993085055522
 20
15.75343046609223
 30
0.0
 10
191.3207873674834
 20
15.54350952252909
 30
0.0
 10
191.0371383177209
 20
15.37424456359988
 30
0.0
 10
190.7078639527833
 20
15.00142360907936
 30
0.0
 10
190.6277012318225
 20
15.19708014459004
 30
0.0
 10
190.4759724909745
 20
15.32491104190595
 30
0.0
 10
190.9083395826796
 20
15.40454031765935
 30
0.0
 10
191.0962565329766
 20
15.60026634915475
 30
0.0
 10
191.3468477420504
 20
15.81632996916752
 30
0.0
 10
191.5714350470161
 20
15.98190992300062
 30
0.0
 10
191.6259775409712
 20
16.26133964636825
 30
0.0
 10
191.7494661029011
 20
16.24737950408079
 30
0.0
 10
191.806027334452
 20
16.24521268867646
 30
0.0
 10
191.8761870984945
 20
16.24046859881361
 30
0.0
 10
191.9333414022107
 20
16.23709429350541
 30
0.0
 10
191.964419032084
 20
16.23519854711119
 30
0.0
 10
191.973601056867
 20
16.23463843719134
 30
0.0
 11
191.973601056867
 21
16.23463843719134
 31
0.0
 11
191.9525319069885
 21
16.20856374969785
 31
0.0
 11
191.9174464559426
 21
16.19450114553469
 31
0.0
 11
192.1512374769095
 21
15.92527961131382
 31
0.0
 11
192.4414585957567
 21
15.6741340796926
 31
0.0
 11
192.7612797483684
 21
15.45710987618784
 31
0.0
 11
193.0838708706289
 21
15.29025232631638
 31
0.0
 11
193.0213299868076
 21
15.21402035584928
 31
0.0
 11
192.9688035818975
 21
15.12971197913424
 31
0.0
 11
192.6436279095814
 21
15.3132640483158
 31
0.0
 11
192.3237227768437
 21
15.54070139743428
 31
0.0
 11
192.0354200158608
 21
15.79673855123309
 31
0.0
 11
191.8050514588095
 21
16.06609003445566
 31
0.0
 11
191.5995531719516
 21
15.81126348721036
 31
0.0
 11
191.3288301341536
 21
15.55645182277756
 31
0.0
 11
191.0119538423247
 21
15.31969466354856
 31
0.0
 11
190.6679957933742
 21
15.11903163191467
 31
0.0
 11
190.6218855341339
 21
15.19126067703554
 31
0.0
 11
190.5636970460349
 21
15.26355586798967
 31
0.0
 11
190.8433040489016
 21
15.41911456961745
 31
0.0
 11
191.1093004621155
 21
15.60601009790405
 31
0.0
 11
191.3499997459747
 21
15.81384496285209
 31
0.0
 11
191.5537153607774
 21
16.03222167446416
 31
0.0
 11
191.7087607668218
 21
16.25074274274287
 31
0.0
 11
191.7363041569865
 21
16.24906789496551
 31
0.0
 11
191.8019845489177
 21
16.24507402718873
 31
0.0
 11
191.8803772747711
 21
16.24030715274548
 31
0.0
 11
191.9460576667023
 21
16.2363132849687
 31
0.0
 11
191.973601056867
 21
16.23463843719134
 31
0.0
  0
SPLINE
  5
AF
102
{ACAD_REACTORS
330
CC
102
}
330
48
100
AcDbEntity
  8
_U_30EC_U_30A4_U_30E4_U_30FC_1
  6
Continuous
 62
     2
100
AcDbSpline
210
0.0
220
0.0
230
1.0
 70
    11
 71
     3
 72
    91
 73
    87
 74
    85
 42
0.000000001
 43
0.0000000001
 44
0.00000001
 40
0.0
 40
0.0
 40
0.0
 40
0.0
 40
0.0267532254356701
 40
0.0856103386464102
 40
0.1444674521996621
 40
0.1712206856618514
 40
0.2039416005642536
 40
0.2955601971652484
 40
0.4362601844616918
 40
0.616225284450725
 40
0.8256392189704698
 40
1.054685709844411
 40
1.293548478893474
 40
1.532411247938218
 40
1.761457738799483
 40
1.970871673298451
 40
2.150836773256647
 40
2.29153676049548
 40
2.383155356836586
 40
2.415876284101206
 40
2.442629517487851
 40
2.501486630948981
 40
2.560343744424128
 40
2.587096977826401
 40
2.6170681944408
 40
2.699247336755941
 40
2.822032643466254
 40
2.973822353257755
 40
3.143014704823197
 40
3.318007936879748
 40
3.487200288186581
 40
3.638989997548062
 40
3.761775303794532
 40
3.843954445752867
 40
3.873925662229563
 40
3.89081277350027
 40
3.907699884771422
 40
3.937960767857049
 40
3.980983618142053
 40
4.199085915228211
 40
4.439444339236989
 40
4.677588241260633
 40
5.050698317837519
 40
5.448212454762876
 40
5.85529121804443
 40
6.138575438885125
 40
6.417434507583933
 40
6.444551104393592
 40
6.504207617362868
 40
6.563864130314193
 40
6.590980727103762
 40
6.848609460381145
 40
7.109611990668063
 40
7.352910904445765
 40
7.557830220705186
 40
7.587518925913103
 40
7.652834077375545
 40
7.718149228845528
 40
7.74783793406183
 40
7.854880190300753
 40
7.976511257403326
 40
8.36948789659207
 40
8.757514959223391
 40
9.126072419330882
 40
9.460639380391887
 40
9.746695593035572
 40
9.777569943118364
 40
9.807050320931541
 40
9.830377336128674
 40
9.88600329543575
 40
9.952395569429665
 40
10.00802152870602
 40
10.03134854388194
 40
10.21356951009568
 40
10.42203479292847
 40
10.66154556731043
 40
10.91693789564284
 40
11.15832906556545
 40
11.189826745966
 40
11.27286608520387
 40
11.39026653033332
 40
11.52484752840865
 40
11.65942852648422
 40
11.77682897161463
 40
11.8598683108566
 40
11.89136598230405
 40
11.89136598230405
 40
11.89136598230405
 40
11.89136598230405
 10
190.7027885008197
 20
14.70699600701772
 30
0.0
 10
190.7028237765289
 20
14.71587847311985
 30
0.0
 10
190.7029366710797
 20
14.74430237047346
 30
0.0
 10
190.7012984568489
 20
14.79409639169803
 30
0.0
 10
190.7069750292912
 20
14.83657564478154
 30
0.0
 10
190.6956928731707
 20
14.88730154856847
 30
0.0
 10
190.7632296979033
 20
14.87012900740109
 30
0.0
 10
190.8388029210701
 20
14.88290227165996
 30
0.0
 10
190.9828357056001
 20
14.87629729457382
 30
0.0
 10
191.1569419185428
 20
14.87888462206466
 30
0.0
 10
191.3639599611004
 20
14.87800591955553
 30
0.0
 10
191.5894688172378
 20
14.87828207920026
 30
0.0
 10
191.8251162293406
 20
14.87818339658663
 30
0.0
 10
192.0607640531349
 20
14.87828184412767
 30
0.0
 10
192.2862717580626
 20
14.87800678190789
 30
0.0
 10
192.4932934632805
 20
14.87888186270735
 30
0.0
 10
192.6673888915288
 20
14.87630522678446
 30
0.0
 10
192.8114492071986
 20
14.88288290449214
 30
0.0
 10
192.8869691915292
 20
14.87016243405604
 30
0.0
 10
192.954577603703
 20
14.88726400191686
 30
0.0
 10
192.9430840140676
 20
14.83674785802941
 30
0.0
 10
192.9505104581733
 20
14.79253252226501
 30
0.0
 10
192.9428838927986
 20
14.7486796650361
 30
0.0
 10
192.9546489459425
 20
14.69878374479328
 30
0.0
 10
192.8930788491983
 20
14.71393227712512
 30
0.0
 10
192.8256791738672
 20
14.70310665350673
 30
0.0
 10
192.7013004056221
 20
14.70852031626236
 30
0.0
 10
192.5554428236571
 20
14.70649205390785
 30
0.0
 10
192.3893576440086
 20
14.70715777578387
 30
0.0
 10
192.2188412621725
 20
14.70689643521242
 30
0.0
 10
192.051979085539
 20
14.70721553391094
 30
0.0
 10
191.9087346827106
 20
14.70635302590762
 30
0.0
 10
191.7773313869835
 20
14.70863300482987
 30
0.0
 10
191.7239859134658
 20
14.70407704374202
 30
0.0
 10
191.6485188456913
 20
14.70999914992877
 30
0.0
 10
191.6769075779233
 20
14.70094169343353
 30
0.0
 10
191.7033652409543
 20
14.69725912268928
 30
0.0
 10
191.6633522907702
 20
14.66654271968276
 30
0.0
 10
191.571366369187
 20
14.67667591174631
 30
0.0
 10
191.5439396207069
 20
14.43032502247787
 30
0.0
 10
191.4478793967235
 20
14.27499558764374
 30
0.0
 10
191.1917277964474
 20
13.94525417931569
 30
0.0
 10
191.7627537732764
 20
14.08430022210452
 30
0.0
 10
192.0173656320517
 20
14.08291779973363
 30
0.0
 10
192.6279647048618
 20
13.99790569242085
 30
0.0
 10
192.3340698578084
 20
14.29685417558204
 30
0.0
 10
192.0133304286518
 20
14.44330856901774
 30
0.0
 10
192.1313543360434
 20
14.50025540818287
 30
0.0
 10
192.1724716466261
 20
14.52420099873349
 30
0.0
 10
192.2156812394412
 20
14.54599758811229
 30
0.0
 10
192.3174574094449
 20
14.60928721253907
 30
0.0
 10
192.4328867625247
 20
14.35147151408781
 30
0.0
 10
192.6329591642276
 20
14.2161604111368
 30
0.0
 10
192.7269077387228
 20
14.03792795138881
 30
0.0
 10
192.9558829746393
 20
13.87997821027049
 30
0.0
 10
192.8596031846709
 20
13.829159725763
 30
0.0
 10
192.8167959763779
 20
13.79881292523053
 30
0.0
 10
192.771824352878
 20
13.77466130281461
 30
0.0
 10
192.7121720925213
 20
13.72552146747568
 30
0.0
 10
192.6789731061326
 20
13.85997475673614
 30
0.0
 10
192.5582013350794
 20
14.01594265286574
 30
0.0
 10
192.197097600598
 20
13.88569928059558
 30
0.0
 10
191.8385061955541
 20
13.90224694409483
 30
0.0
 10
191.457092045008
 20
13.89331229351864
 30
0.0
 10
191.1703455282891
 20
13.82882671672411
 30
0.0
 10
190.8592055599717
 20
13.94230668192821
 30
0.0
 10
190.8268737818788
 20
13.83122259927766
 30
0.0
 10
190.7896178253318
 20
13.81196313850011
 30
0.0
 10
190.7865737632753
 20
13.85874784087295
 30
0.0
 10
190.7679892860607
 20
13.89806853919135
 30
0.0
 10
190.7512436616778
 20
13.95765983478232
 30
0.0
 10
190.7383730915753
 20
14.00201969871284
 30
0.0
 10
190.7042327806429
 20
14.09106331120202
 30
0.0
 10
190.9482714457754
 20
14.02181042943769
 30
0.0
 10
191.1441394486671
 20
14.00030369057746
 30
0.0
 10
191.2395426381278
 20
14.28226484478463
 30
0.0
 10
191.2945135769598
 20
14.44363045421122
 30
0.0
 10
191.5159619357157
 20
14.71391177589737
 30
0.0
 10
191.3849239381217
 20
14.70548446853735
 30
0.0
 10
191.3110026555855
 20
14.70779008496969
 30
0.0
 10
191.1977459876244
 20
14.70671378321658
 30
0.0
 10
191.0694251807485
 20
14.7070763907651
 30
0.0
 10
190.9404252030416
 20
14.70697724466085
 30
0.0
 10
190.8287840946292
 20
14.70699932712572
 30
0.0
 10
190.7514663970028
 20
14.7069957918967
 30
0.0
 10
190.7132876532011
 20
14.70699595845081
 30
0.0
 10
190.7027885008197
 20
14.70699600701772
 30
0.0
 11
190.7027885008197
 21
14.70699600701772
 31
0.0
 11
190.7027885008197
 21
14.73374924051797
 31
0.0
 11
190.7027885008197
 21
14.79260635421853
 31
0.0
 11
190.7027885008197
 21
14.85146346791909
 31
0.0
 11
190.7027885008197
 21
14.87821670141935
 31
0.0
 11
190.735509428099
 21
14.87821670141935
 31
0.0
 11
190.827128024481
 21
14.87821670141935
 31
0.0
 11
190.967828011782
 21
14.87821670141935
 31
0.0
 11
191.1477931118181
 21
14.87821670141935
 31
0.0
 11
191.3572070464055
 21
14.87821670141935
 31
0.0
 11
191.5862535373605
 21
14.87821670141935
 31
0.0
 11
191.8251163064993
 21
14.87821670141935
 31
0.0
 11
192.0639790756381
 21
14.87821670141935
 31
0.0
 11
192.2930255665931
 21
14.87821670141935
 31
0.0
 11
192.5024395011806
 21
14.87821670141935
 31
0.0
 11
192.6824046012167
 21
14.87821670141935
 31
0.0
 11
192.8231045885176
 21
14.87821670141935
 31
0.0
 11
192.9147231848996
 21
14.87821670141935
 31
0.0
 11
192.9474441121789
 21
14.87821670141935
 31
0.0
 11
192.9474441121789
 21
14.85146346791909
 31
0.0
 11
192.9474441121789
 21
14.79260635421853
 31
0.0
 11
192.9474441121789
 21
14.73374924051797
 31
0.0
 11
192.9474441121789
 21
14.70699600701772
 31
0.0
 11
192.9174728954758
 21
14.70699600701772
 31
0.0
 11
192.8352937529027
 21
14.70699600701772
 31
0.0
 11
192.712508445764
 21
14.70699600701772
 31
0.0
 11
192.5607187353642
 21
14.70699600701772
 31
0.0
 11
192.3915263830078
 21
14.70699600701772
 31
0.0
 11
192.2165331499992
 21
14.70699600701772
 31
0.0
 11
192.0473407976427
 21
14.70699600701772
 31
0.0
 11
191.8955510872429
 21
14.70699600701772
 31
0.0
 11
191.7727657801043
 21
14.70699600701772
 31
0.0
 11
191.6905866375311
 21
14.70699600701772
 31
0.0
 11
191.660615420828
 21
14.70699600701772
 31
0.0
 11
191.6766359412526
 21
14.70165583340794
 31
0.0
 11
191.6926564616772
 21
14.69631565979815
 31
0.0
 11
191.6706155681421
 21
14.67558114591443
 31
0.0
 11
191.6284861855364
 21
14.6668587153611
 31
0.0
 11
191.5365235541378
 21
14.46909247312657
 31
0.0
 11
191.4279078521764
 21
14.25467511978509
 31
0.0
 11
191.3127500824808
 21
14.0462255905162
 31
0.0
 11
191.6857366675021
 21
14.05582441253029
 31
0.0
 11
192.0830700036151
 21
14.06781232404995
 31
0.0
 11
192.4899342191146
 21
14.08102711828532
 31
0.0
 11
192.2983119496979
 21
14.28966761302481
 31
0.0
 11
192.0966752013699
 21
14.48229420151831
 31
0.0
 11
192.120494779475
 21
14.49525327269564
 31
0.0
 11
192.1728978513062
 21
14.52376322928576
 31
0.0
 11
192.2253009231374
 21
14.55227318587587
 31
0.0
 11
192.2491205012425
 21
14.5652322570532
 31
0.0
 11
192.4387101558627
 21
14.39079508370268
 31
0.0
 11
192.6200310940435
 21
14.20305846374091
 31
0.0
 11
192.7777729231147
 21
14.01782380992436
 31
0.0
 11
192.8966252504059
 21
13.85089253500949
 31
0.0
 11
192.8715408217924
 21
13.83501202286069
 31
0.0
 11
192.8163550788426
 21
13.80007489613332
 31
0.0
 11
192.7611693358928
 21
13.76513776940596
 31
0.0
 11
192.7360849072793
 21
13.74925725725716
 31
0.0
 11
192.6775518151613
 21
13.8388782468181
 31
0.0
 11
192.6050015078457
 21
13.93650288221032
 31
0.0
 11
192.2125412924095
 21
13.91636286943759
 31
0.0
 11
191.8249474069561
 21
13.89803302999773
 31
0.0
 11
191.4567378976213
 21
13.88202178722395
 31
0.0
 11
191.1224308105413
 21
13.86883756444947
 31
0.0
 11
190.8365441918519
 21
13.8589887850075
 31
0.0
 11
190.8211862321741
 21
13.83220523466695
 31
0.0
 11
190.7937434290546
 21
13.82143559057245
 31
0.0
 11
190.7867927192319
 21
13.84370299445577
 31
0.0
 11
190.7702179496548
 21
13.89680218833139
 31
0.0
 11
190.7504351601596
 21
13.96017864553777
 31
0.0
 11
190.7338603905825
 21
14.01327783941338
 31
0.0
 11
190.7269096807598
 21
14.0355452432967
 31
0.0
 11
190.9091199859153
 21
14.03751638912952
 31
0.0
 11
191.1174975848588
 21
14.04356211829472
 31
0.0
 11
191.2303203127216
 21
14.25483550301554
 31
0.0
 11
191.3407936722036
 21
14.48509813155879
 31
0.0
 11
191.4358254265628
 21
14.70699600701772
 31
0.0
 11
191.4043277461598
 21
14.70699600701772
 31
0.0
 11
191.3212884069154
 21
14.70699600701772
 31
0.0
 11
191.2038879617769
 21
14.70699600701772
 31
0.0
 11
191.0693069636912
 21
14.70699600701772
 31
0.0
 11
190.9347259656056
 21
14.70699600701772
 31
0.0
 11
190.8173255204671
 21
14.70699600701772
 31
0.0
 11
190.7342861812227
 21
14.70699600701772
 31
0.0
 11
190.7027885008197
 21
14.70699600701772
 31
0.0
  0
SPLINE
  5
B0
102
{ACAD_REACTORS
330
CD
102
}
330
48
100
AcDbEntity
  8
_U_30EC_U_30A4_U_30E4_U_30FC_1
  6
Continuous
 62
     2
100
AcDbSpline
210
0.0
220
0.0
230
1.0
 70
    11
 71
     3
 72
   131
 73
   127
 74
   125
 42
0.000000001
 43
0.0000000001
 44
0.00000001
 40
0.0
 40
0.0
 40
0.0
 40
0.0
 40
0.0195577029826198
 40
0.0426490537461581
 40
0.2863607575856359
 40
0.5344948436189292
 40
0.7842238845573161
 40
0.8737315789467376
 40
0.9803832810313134
 40
1.092842274517039
 40
1.199761146656798
 40
1.289788768186526
 40
1.351573580786284
 40
1.370727117561529
 40
1.416400936017955
 40
1.470914848356099
 40
1.516588666791922
 40
1.535742203553003
 40
1.634216592293308
 40
1.760283341175101
 40
1.897966686682232
 40
2.031216387369083
 40
2.049689751138077
 40
2.101115601647013
 40
2.179502577740132
 40
2.278859318314247
 40
2.393194462258906
 40
2.516516648384021
 40
2.64283451540615
 40
2.766156701983652
 40
2.880491846754769
 40
2.979848588358811
 40
3.05823556544399
 40
3.109661416669145
 40
3.12813478070432
 40
3.146783742386637
 40
3.191254343315469
 40
3.244332157316071
 40
3.288802758225946
 40
3.307451719895218
 40
3.327717853844831
 40
3.38374775358019
 40
3.46838866592458
 40
3.574487837698889
 40
3.694892515728993
 40
3.822449946852132
 40
3.950007377920521
 40
4.070412055800613
 40
4.176511227368168
 40
4.261152139501615
 40
4.317182039076808
 40
4.337448172964727
 40
4.620011002696378
 40
4.885096638397581
 40
4.945373043518405
 40
5.014107710488757
 40
5.070481727652089
 40
5.319246955636567
 40
5.584812164506062
 40
5.859000912056936
 40
6.133746937542104
 40
6.401732212968915
 40
6.420736683995535
 40
6.472845717451128
 40
6.550702743894113
 40
6.646951193874322
 40
6.754234497930645
 40
6.865196086587452
 40
6.97247939035791
 40
7.068727839772101
 40
7.14658486545111
 40
7.198693898189339
 40
7.21769836890548
 40
7.234950401630956
 40
7.276089864269999
 40
7.325191803516106
 40
7.36633126609049
 40
7.38358329876984
 40
7.402779163492245
 40
7.453386443254648
 40
7.524934666445678
 40
7.606953361406018
 40
7.688972056429198
 40
7.760520279784449
 40
7.811127559734719
 40
7.83032342454634
 40
7.84784405529997
 40
7.894799345667011
 40
7.962779392744699
 40
8.043374293560746
 40
8.128174145149652
 40
8.208769044817457
 40
8.276749090377157
 40
8.323704379669715
 40
8.34122501005645
 40
8.358497614800598
 40
8.401679126686775
 40
8.457815092185832
 40
8.513951057728237
 40
8.557132569708136
 40
8.574405174505179
 40
8.60234066861651
 40
8.643455660540106
 40
8.663225271966773
 40
8.715345156564421
 40
8.789031889628756
 40
8.873502045520485
 40
8.957972194324109
 40
9.031658925568
 40
9.08377881123469
 40
9.103548423003152
 40
9.11955008312369
 40
9.160817522379991
 40
9.217244429110357
 40
9.278724491644843
 40
9.335151398295627
 40
9.376418837357923
 40
9.39242049730071
 40
9.40119630273493
 40
9.417494229384404
 40
9.426270027749677
 40
9.44087507547771
 40
9.475702496998888
 40
9.51727070986605
 40
9.552098131994217
 40
9.566703169884425
 40
9.566703169884425
 40
9.566703169884425
 40
9.566703169884425
 10
194.6170254148479
 20
15.67015871511028
 30
0.0
 10
194.6134345093371
 20
15.6645369070216
 30
0.0
 10
194.6056039123625
 20
15.65227754419112
 30
0.0
 10
194.5129968974546
 20
15.61601916040967
 30
0.0
 10
194.4887622233248
 20
15.40148444212712
 30
0.0
 10
194.3858709845938
 20
15.2219728450971
 30
0.0
 10
194.1220492364305
 20
15.03615573798147
 30
0.0
 10
194.284547156918
 20
14.95959336566081
 30
0.0
 10
194.3607225760838
 20
14.89856693195444
 30
0.0
 10
194.4492171072758
 20
14.83515804544758
 30
0.0
 10
194.538993023311
 20
14.7752563421956
 30
0.0
 10
194.5883817636047
 20
14.72102154849205
 30
0.0
 10
194.6745708157382
 20
14.69286240541834
 30
0.0
 10
194.6411260674231
 20
14.65713309652812
 30
0.0
 10
194.6214671166311
 20
14.62550387991907
 30
0.0
 10
194.5919888217883
 20
14.58475872796067
 30
0.0
 10
194.5688989446031
 20
14.55504663489645
 30
0.0
 10
194.5380205968357
 20
14.50211422668495
 30
0.0
 10
194.4729193365741
 20
14.62740334938901
 30
0.0
 10
194.3796000122417
 20
14.68213900233938
 30
0.0
 10
194.2950636285139
 20
14.73916423939339
 30
0.0
 10
194.1722498125743
 20
14.89675287427525
 30
0.0
 10
194.1764450847301
 20
14.82035806766837
 30
0.0
 10
194.1751478652677
 20
14.77361280161297
 30
0.0
 10
194.1758126448076
 20
14.69584785812602
 30
0.0
 10
194.1755549986956
 20
14.59902068324423
 30
0.0
 10
194.1756431239922
 20
14.4865027907881
 30
0.0
 10
194.1756077302281
 20
14.36524085945699
 30
0.0
 10
194.1756511758279
 20
14.24086897858962
 30
0.0
 10
194.1755199942406
 20
14.11967683631336
 30
0.0
 10
194.1759477562046
 20
14.00691148919744
 30
0.0
 10
194.174667820231
 20
13.91082913768744
 30
0.0
 10
194.1779759851044
 20
13.831138264687
 30
0.0
 10
194.1715197740085
 20
13.78815175788784
 30
0.0
 10
194.1806208705556
 20
13.74955432372043
 30
0.0
 10
194.1447910339935
 20
13.7581088772407
 30
0.0
 10
194.1115223815253
 20
13.75342519985447
 30
0.0
 10
194.0604562576041
 20
13.75351298759784
 30
0.0
 10
194.0269723972813
 20
13.75794430283821
 30
0.0
 10
193.9907585408754
 20
13.74960793842508
 30
0.0
 10
194.0009782568666
 20
13.79145277179284
 30
0.0
 10
193.9936487887773
 20
13.83778560820173
 30
0.0
 10
193.9973633136103
 20
13.92374831106014
 30
0.0
 10
193.9959480554897
 20
14.02605142704849
 30
0.0
 10
193.9964105554639
 20
14.14453223931512
 30
0.0
 10
193.9962773686231
 20
14.26957683153356
 30
0.0
 10
193.9963015910045
 20
14.3947582810705
 30
0.0
 10
193.9963354925552
 20
14.51286645379058
 30
0.0
 10
193.9962060293133
 20
14.61628748709516
 30
0.0
 10
193.9965507549082
 20
14.69932036153667
 30
0.0
 10
193.9958698278691
 20
14.75143368521243
 30
0.0
 10
193.9994586600622
 20
14.87912907821362
 30
0.0
 10
193.7826171386438
 20
14.58048716819629
 30
0.0
 10
193.6021354921951
 20
14.35263981511514
 30
0.0
 10
193.5490322295613
 20
14.49373443289817
 30
0.0
 10
193.5200429133149
 20
14.54325767560938
 30
0.0
 10
193.4196648062822
 20
14.64641779790112
 30
0.0
 10
193.7405127723261
 20
14.72695035023777
 30
0.0
 10
193.868989700543
 20
14.91066283036434
 30
0.0
 10
194.090645432536
 20
15.1193199577176
 30
0.0
 10
194.177022489407
 20
15.29339211228345
 30
0.0
 10
194.4549394229076
 20
15.56967051342514
 30
0.0
 10
194.3346247839285
 20
15.56534559551114
 30
0.0
 10
194.286319735135
 20
15.56614856202554
 30
0.0
 10
194.2102377454905
 20
15.56574582146585
 30
0.0
 10
194.1167010009751
 20
15.5659027561161
 30
0.0
 10
194.0117594788557
 20
15.56582502576225
 30
0.0
 10
193.9033887738718
 20
15.56595464378556
 30
0.0
 10
193.7981454235897
 20
15.56554393490692
 30
0.0
 10
193.7056237819413
 20
15.56682073671592
 30
0.0
 10
193.6268130800707
 20
15.5634076653485
 30
0.0
 10
193.5839674565378
 20
15.57023350036321
 30
0.0
 10
193.5449499586516
 20
15.56065064201124
 30
0.0
 10
193.5526365271863
 20
15.59420779565543
 30
0.0
 10
193.5485464404312
 20
15.62523550322234
 30
0.0
 10
193.5485531368814
 20
15.672365292709
 30
0.0
 10
193.5526239724911
 20
15.70340941646779
 30
0.0
 10
193.5449495574583
 20
15.73701861635902
 30
0.0
 10
193.5834819405495
 20
15.72748410420872
 30
0.0
 10
193.624122801448
 20
15.73397435498071
 30
0.0
 10
193.6951471850463
 20
15.73100150650254
 30
0.0
 10
193.7729318149634
 20
15.73174761399158
 30
0.0
 10
193.8507292246474
 20
15.73247814044525
 30
0.0
 10
193.9217232089908
 20
15.7295423551416
 30
0.0
 10
193.9624279791821
 20
15.73595468772952
 30
0.0
 10
194.000985348991
 20
15.72650524176004
 30
0.0
 10
193.9927342754929
 20
15.76264692158784
 30
0.0
 10
193.9982346669358
 20
15.80129837613227
 30
0.0
 10
193.9955754206165
 20
15.86913528561839
 30
0.0
 10
193.9965815471534
 20
15.9459164153874
 30
0.0
 10
193.996017801832
 20
16.02849393582757
 30
0.0
 10
193.9970714526593
 20
16.10517329229878
 30
0.0
 10
193.9942675863131
 20
16.173319907767
 30
0.0
 10
194.0000702721305
 20
16.21132399809346
 30
0.0
 10
193.991565455116
 20
16.24758448077646
 30
0.0
 10
194.0255610233125
 20
16.23755723771853
 30
0.0
 10
194.0594575683099
 20
16.24073266813706
 30
0.0
 10
194.1126669060347
 20
16.2350896564061
 30
0.0
 10
194.1660768574483
 20
16.23434774436425
 30
0.0
 10
194.199591464949
 20
16.2281922348298
 30
0.0
 10
194.2388086183039
 20
16.23346029773593
 30
0.0
 10
194.2120263698493
 20
16.19253380793486
 30
0.0
 10
194.1708111001723
 20
16.20371204538113
 30
0.0
 10
194.1782641540874
 20
16.15867056192124
 30
0.0
 10
194.1742227952184
 20
16.11412278028144
 30
0.0
 10
194.1761714049641
 20
16.04223572621703
 30
0.0
 10
194.1752364849758
 20
15.96168630588771
 30
0.0
 10
194.176510719003
 20
15.88173995404994
 30
0.0
 10
194.1732043793863
 20
15.80841837083183
 30
0.0
 10
194.1802106179961
 20
15.76688643002568
 30
0.0
 10
194.1701440380126
 20
15.72752418568113
 30
0.0
 10
194.2029814803921
 20
15.73468063430981
 30
0.0
 10
194.236457729648
 20
15.73027243137945
 30
0.0
 10
194.2915053476019
 20
15.73217943347897
 30
0.0
 10
194.3489502595314
 20
15.73185366407288
 30
0.0
 10
194.4023026248309
 20
15.73106308733081
 30
0.0
 10
194.4398540896638
 20
15.73313959118074
 30
0.0
 10
194.4623172523237
 20
15.73022338167109
 30
0.0
 10
194.4751678073731
 20
15.73572552644056
 30
0.0
 10
194.4858255685888
 20
15.7380111819779
 30
0.0
 10
194.4986635650143
 20
15.74494972588052
 30
0.0
 10
194.5145991033071
 20
15.72853046313672
 30
0.0
 10
194.5410623920891
 20
15.71709122319449
 30
0.0
 10
194.5726805253757
 20
15.6964468783519
 30
0.0
 10
194.5987255892151
 20
15.68116869628295
 30
0.0
 10
194.6128517723973
 20
15.67266976323184
 30
0.0
 10
194.6170254148479
 20
15.67015871511028
 30
0.0
 11
194.6170254148479
 21
15.67015871511028
 31
0.0
 11
194.6049990002243
 21
15.65473571164188
 31
0.0
 11
194.5848961795565
 21
15.64337406233916
 31
0.0
 11
194.4778986355814
 21
15.42440620231159
 31
0.0
 11
194.3477039934324
 21
15.21317201512161
 31
0.0
 11
194.1996540366071
 21
15.0120605902748
 31
0.0
 11
194.2734958253735
 21
14.96147384935379
 31
0.0
 11
194.36056643118
 21
14.89988411653739
 31
0.0
 11
194.4518003750404
 21
14.83413160594425
 31
0.0
 11
194.5381321779687
 21
14.77105653169304
 31
0.0
 11
194.6104963609787
 21
14.71749910790241
 31
0.0
 11
194.6598274450844
 21
14.68029954869104
 31
0.0
 11
194.6486940702214
 21
14.66471410869494
 31
0.0
 11
194.6221452532403
 21
14.62754882870424
 31
0.0
 11
194.5904579555533
 21
14.58319026871533
 31
0.0
 11
194.5639091385723
 21
14.54602498872462
 31
0.0
 11
194.5527757637093
 21
14.53043954872852
 31
0.0
 11
194.4807013362948
 21
14.59754008690617
 31
0.0
 11
194.3852856985382
 21
14.67993354174669
 31
0.0
 11
194.279326415217
 21
14.76785017366916
 31
0.0
 11
194.175621051109
 21
14.85152024309268
 31
0.0
 11
194.175621051109
 21
14.83304687900864
 31
0.0
 11
194.175621051109
 21
14.78162102763956
 31
0.0
 11
194.175621051109
 21
14.70323405030999
 31
0.0
 11
194.175621051109
 21
14.60387730834449
 31
0.0
 11
194.175621051109
 21
14.48954216306761
 31
0.0
 11
194.175621051109
 21
14.36621997580389
 31
0.0
 11
194.175621051109
 21
14.2399021078779
 31
0.0
 11
194.175621051109
 21
14.11657992061419
 31
0.0
 11
194.175621051109
 21
14.0022447753373
 31
0.0
 11
194.175621051109
 21
13.9028880333718
 31
0.0
 11
194.175621051109
 21
13.82450105604223
 31
0.0
 11
194.175621051109
 21
13.77307520467316
 31
0.0
 11
194.175621051109
 21
13.75460184058912
 31
0.0
 11
194.1569720893626
 21
13.75460184058912
 31
0.0
 11
194.112501488275
 21
13.75460184058912
 31
0.0
 11
194.0594236740737
 21
13.75460184058912
 31
0.0
 11
194.014953072986
 21
13.75460184058912
 31
0.0
 11
193.9963041112396
 21
13.75460184058912
 31
0.0
 11
193.9963041112396
 21
13.77486797460219
 31
0.0
 11
193.9963041112396
 21
13.83089787452066
 31
0.0
 11
193.9963041112396
 21
13.91553878716347
 31
0.0
 11
193.9963041112396
 21
14.02163795934953
 31
0.0
 11
193.9963041112396
 21
14.14204263789775
 31
0.0
 11
193.9963041112396
 21
14.26960006962705
 31
0.0
 11
193.9963041112396
 21
14.39715750135636
 31
0.0
 11
193.9963041112396
 21
14.51756217990458
 31
0.0
 11
193.9963041112396
 21
14.62366135209064
 31
0.0
 11
193.9963041112396
 21
14.70830226473344
 31
0.0
 11
193.9963041112396
 21
14.76433216465193
 31
0.0
 11
193.9963041112396
 21
14.78459829866499
 31
0.0
 11
193.7883272849481
 21
14.59331998274057
 31
0.0
 11
193.5763486358426
 21
14.43414885430811
 31
0.0
 11
193.5495629014484
 21
14.48814671952096
 31
0.0
 11
193.5138765415024
 21
14.54689140572026
 31
0.0
 11
193.4799697494125
 21
14.59192871537975
 31
0.0
 11
193.6830287742319
 21
14.73563387201052
 31
0.0
 11
193.8818531958261
 21
14.91168423529987
 31
0.0
 11
194.0677041444179
 21
15.11327514524949
 31
0.0
 11
194.2318427502304
 21
15.33360194186109
 31
0.0
 11
194.3655301434865
 21
15.56585996513636
 31
0.0
 11
194.3465256724482
 21
15.56585996513636
 31
0.0
 11
194.2944166389563
 21
15.56585996513636
 31
0.0
 11
194.2165596124448
 21
15.56585996513636
 31
0.0
 11
194.1203111623479
 21
15.56585996513636
 31
0.0
 11
194.0130278580997
 21
15.56585996513636
 31
0.0
 11
193.9020662691345
 21
15.56585996513636
 31
0.0
 11
193.7947829648864
 21
15.56585996513636
 31
0.0
 11
193.6985345147895
 21
15.56585996513636
 31
0.0
 11
193.620677488278
 21
15.56585996513636
 31
0.0
 11
193.568568454786
 21
15.56585996513636
 31
0.0
 11
193.5495639837478
 21
15.56585996513636
 31
0.0
 11
193.5495639837478
 21
15.58311199790982
 31
0.0
 11
193.5495639837478
 21
15.62425146067732
 31
0.0
 11
193.5495639837478
 21
15.67335340010949
 31
0.0
 11
193.5495639837478
 21
15.71449286287699
 31
0.0
 11
193.5495639837478
 21
15.73174489565045
 31
0.0
 11
193.568759848601
 21
15.73174489565045
 31
0.0
 11
193.6193671286684
 21
15.73174489565045
 31
0.0
 11
193.690915352212
 21
15.73174489565045
 31
0.0
 11
193.7729340474937
 21
15.73174489565045
 31
0.0
 11
193.8549527427754
 21
15.73174489565045
 31
0.0
 11
193.926500966319
 21
15.73174489565045
 31
0.0
 11
193.9771082463865
 21
15.73174489565045
 31
0.0
 11
193.9963041112396
 21
15.73174489565045
 31
0.0
 11
193.9963041112396
 21
15.74926552655218
 31
0.0
 11
193.9963041112396
 21
15.79622081736882
 31
0.0
 11
193.9963041112396
 21
15.86420086526753
 31
0.0
 11
193.9963041112396
 21
15.94479576741549
 31
0.0
 11
193.9963041112396
 21
16.02959562097986
 31
0.0
 11
193.9963041112396
 21
16.11019052312782
 31
0.0
 11
193.9963041112396
 21
16.17817057102653
 31
0.0
 11
193.9963041112396
 21
16.22512586184317
 31
0.0
 11
193.9963041112396
 21
16.2426464927449
 31
0.0
 11
194.0135484112112
 21
16.24165806167519
 31
0.0
 11
194.0566591611401
 21
16.23918698400091
 31
0.0
 11
194.1127031360478
 21
16.23597458302435
 31
0.0
 11
194.1687471109554
 21
16.2327621820478
 31
0.0
 11
194.2118578608843
 21
16.23029110437352
 31
0.0
 11
194.2291021608559
 21
16.22930267330381
 31
0.0
 11
194.2143774674852
 21
16.2055629337264
 31
0.0
 11
194.175621051109
 21
16.19183767331312
 31
0.0
 11
194.175621051109
 21
16.17206806177293
 31
0.0
 11
194.175621051109
 21
16.11994817680333
 31
0.0
 11
194.175621051109
 21
16.04626144288079
 31
0.0
 11
194.175621051109
 21
15.96179128448179
 31
0.0
 11
194.175621051109
 21
15.87732112608278
 31
0.0
 11
194.175621051109
 21
15.80363439216024
 31
0.0
 11
194.175621051109
 21
15.75151450719064
 31
0.0
 11
194.175621051109
 21
15.73174489565045
 31
0.0
 11
194.1916227112935
 21
15.73174489565045
 31
0.0
 11
194.232890150717
 21
15.73174489565045
 31
0.0
 11
194.2893170576837
 21
15.73174489565045
 31
0.0
 11
194.3507971204981
 21
15.73174489565045
 31
0.0
 11
194.4072240274648
 21
15.73174489565045
 31
0.0
 11
194.4484914668882
 21
15.73174489565045
 31
0.0
 11
194.4644931270728
 21
15.73174489565045
 31
0.0
 11
194.4728206422924
 21
15.73451387455921
 31
0.0
 11
194.4882860277004
 21
15.73965626396118
 31
0.0
 11
194.49661354292
 21
15.74242524286994
 31
0.0
 11
194.5091363776005
 21
15.73490952398294
 31
0.0
 11
194.5389985218386
 21
15.71698742509854
 31
0.0
 11
194.5746404359293
 21
15.69559653288168
 31
0.0
 11
194.6045025801674
 21
15.67767443399729
 31
0.0
 11
194.6170254148479
 21
15.67015871511028
 31
0.0
  0
SPLINE
  5
B1
102
{ACAD_REACTORS
330
CE
102
}
330
48
100
AcDbEntity
  8
_U_30EC_U_30A4_U_30E4_U_30FC_1
  6
Continuous
 62
     2
100
AcDbSpline
210
0.0
220
0.0
230
1.0
 70
    11
 71
     3
 72
   124
 73
   120
 74
   118
 42
0.000000001
 43
0.0000000001
 44
0.00000001
 40
0.0
 40
0.0
 40
0.0
 40
0.0
 40
0.0278187229624226
 40
0.1011590162383985
 40
0.2048470170590239
 40
0.3237088716558961
 40
0.4425707262522
 40
0.5462587270699263
 40
0.6195990203312082
 40
0.647417752257866
 40
0.6750060736115224
 40
0.7357003855242759
 40
0.7963946998054492
 40
0.8239830245571784
 40
0.8540933811103162
 40
0.9373396629409274
 40
1.063094687343237
 40
1.220731268638075
 40
1.399622220914749
 40
1.589140358637762
 40
1.778658496423843
 40
1.957549448940539
 40
2.115186030873132
 40
2.240941056914465
 40
2.324187341760534
 40
2.354297700109384
 40
2.38188602467189
 40
2.442580338710479
 40
2.503274652750503
 40
2.53086297731461
 40
2.560983949278563
 40
2.640393784452908
 40
2.752662861759132
 40
2.88136156011812
 40
3.010060258455167
 40
3.122329335705371
 40
3.201739170817928
 40
3.231860142753317
 40
3.264298024030372
 40
3.352343701778243
 40
3.482095226868764
 40
3.639650650173022
 40
3.811108022565477
 40
3.982565394927982
 40
4.140120818152561
 40
4.269872343141269
 40
4.357918020802329
 40
4.390355902043958
 40
4.423256253992528
 40
4.50810453007302
 40
4.624121560636788
 40
4.750528176031517
 40
4.866545206601992
 40
4.951393482691949
 40
4.98429383464535
 40
5.011450833242267
 40
5.071196230152057
 40
5.130941627057136
 40
5.158098625648804
 40
5.190998977601466
 40
5.275847253689292
 40
5.391864284256754
 40
5.518270899648271
 40
5.634287930209282
 40
5.719136206287955
 40
5.752036558235871
 40
5.782130946282897
 40
5.862783906229072
 40
5.979550131774938
 40
6.117984316640345
 40
6.26364115458789
 40
6.402075339414096
 40
6.51884156490789
 40
6.599494524815472
 40
6.62958891284871
 40
6.654403028226286
 40
6.713575149488053
 40
6.784199939329398
 40
6.8433720604935
 40
6.868186175802718
 40
6.896246243201828
 40
6.93958623375817
 40
6.967846564564798
 40
7.043584251089737
 40
7.153234334451595
 40
7.283231855734345
 40
7.420011856035378
 40
7.55000937657973
 40
7.659659458835129
 40
7.735397144417123
 40
7.763657474851295
 40
7.796409728010952
 40
7.880876065096226
 40
7.996370852465612
 40
8.122208446418506
 40
8.2377032247991
 40
8.322169562010822
 40
8.354921815205808
 40
8.38207881330759
 40
8.4418242092069
 40
8.501569605240054
 40
8.528726603485634
 40
8.561478856695654
 40
8.645945193877704
 40
8.761439980865244
 40
8.887277580764387
 40
9.002772362000908
 40
9.0872386966611
 40
9.119990949235582
 40
9.15242883061328
 40
9.240474508638496
 40
9.370226034149443
 40
9.527781457984325
 40
9.699238830981313
 40
9.870696203978502
 40
10.02825162781392
 40
10.15800315332554
 40
10.24604883135109
 40
10.27848670378511
 40
10.27848670378511
 40
10.27848670378511
 40
10.27848670378511
 10
195.3821827564384
 20
14.01410517385757
 30
0.0
 10
195.3914554737524
 20
14.01410498511274
 30
0.0
 10
195.4251744536861
 20
14.01410430876714
 30
0.0
 10
195.4934706812466
 20
14.01411807243305
 30
0.0
 10
195.592014171158
 20
14.01403224219544
 30
0.0
 10
195.7062066464812
 20
14.0144175561225
 30
0.0
 10
195.8185894417072
 20
14.01300835897545
 30
0.0
 10
195.9214376600118
 20
14.01719117422243
 30
0.0
 10
195.980683987485
 20
14.00823089251983
 30
0.0
 10
196.0371265937034
 20
14.0216443452606
 30
0.0
 10
196.0246255586956
 20
13.97087198613361
 30
0.0
 10
196.0329549635704
 20
13.92589320939067
 30
0.0
 10
196.0248170841121
 20
13.88056752990488
 30
0.0
 10
196.0370529214458
 20
13.82931932408465
 30
0.0
 10
195.9747773490334
 20
13.84447955365276
 30
0.0
 10
195.9060513026869
 20
13.83359750710742
 30
0.0
 10
195.7782756749592
 20
13.83911304747972
 30
0.0
 10
195.6262984511644
 20
13.83700851253698
 30
0.0
 10
195.4502695972523
 20
13.83771002588473
 30
0.0
 10
195.2644431934288
 20
13.83745237531292
 30
0.0
 10
195.0786167437176
 20
13.83771005144602
 30
0.0
 10
194.9025880142169
 20
13.83700841847731
 30
0.0
 10
194.7506104154195
 20
13.83911332229988
 30
0.0
 10
194.6228357664555
 20
13.8335968076764
 30
0.0
 10
194.5541077836581
 20
13.84448077125942
 30
0.0
 10
194.4918349042884
 20
13.82931786684209
 30
0.0
 10
194.5040616290018
 20
13.88057510805171
 30
0.0
 10
194.4960004462598
 20
13.92582473272425
 30
0.0
 10
194.5040675809893
 20
13.97106357955323
 30
0.0
 10
194.4918238487084
 20
14.02234176909958
 30
0.0
 10
194.5525017120699
 20
14.00749577363134
 30
0.0
 10
194.6162810745737
 20
14.01756448170735
 30
0.0
 10
194.7277314353503
 20
14.01294644211999
 30
0.0
 10
194.8497533443824
 20
14.01413328905469
 30
0.0
 10
194.9719538137824
 20
14.01515863900635
 30
0.0
 10
195.0829794287392
 20
14.01092475623402
 30
0.0
 10
195.1476517413959
 20
14.02018584521739
 30
0.0
 10
195.2091162810502
 20
14.00604423049682
 30
0.0
 10
195.1930065601338
 20
14.07235527884516
 30
0.0
 10
195.2042980327359
 20
14.14447790121976
 30
0.0
 10
195.1987400822561
 20
14.27513760888285
 30
0.0
 10
195.2008035061691
 20
14.42607323708241
 30
0.0
 10
195.2000167127295
 20
14.59335873107885
 30
0.0
 10
195.2007845215629
 20
14.76061110332302
 30
0.0
 10
195.1988038785628
 20
14.91163289269912
 30
0.0
 10
195.2041306156621
 20
15.04206069552994
 30
0.0
 10
195.1933101388426
 20
15.11465442605898
 30
0.0
 10
195.2090326429876
 20
15.18150469436797
 30
0.0
 10
195.1432708132492
 20
15.16580512490823
 30
0.0
 10
195.0756367830764
 20
15.17609243083994
 30
0.0
 10
194.9615885293811
 20
15.1711378684712
 30
0.0
 10
194.8451242674903
 20
15.17414128030474
 30
0.0
 10
194.7306554121478
 20
15.16880303143388
 30
0.0
 10
194.6640324657814
 20
15.18001268074824
 30
0.0
 10
194.5990769715186
 20
15.1634913266501
 30
0.0
 10
194.610798975871
 20
15.21473720477058
 30
0.0
 10
194.6032830189122
 20
15.25950333784091
 30
0.0
 10
194.6107989878836
 20
15.30426944897961
 30
0.0
 10
194.5990769505348
 20
15.3555153612974
 30
0.0
 10
194.6640326339201
 20
15.33899381766816
 30
0.0
 10
194.7306533339821
 20
15.35020571373943
 30
0.0
 10
194.8451352858065
 20
15.34485436710665
 30
0.0
 10
194.9615454436963
 20
15.34791188771117
 30
0.0
 10
195.0757660174641
 20
15.34278499010708
 30
0.0
 10
195.1430150439228
 20
15.35345733355599
 30
0.0
 10
195.2083325941439
 20
15.33742082669076
 30
0.0
 10
195.1941391448553
 20
15.39949685750054
 30
0.0
 10
195.2036059462996
 20
15.46586761628762
 30
0.0
 10
195.1990269004085
 20
15.58239972741966
 30
0.0
 10
195.2007696555949
 20
15.71426685022376
 30
0.0
 10
195.1997551495392
 20
15.85615960150273
 30
0.0
 10
195.2017191344372
 20
15.9876905070258
 30
0.0
 10
195.1964668553852
 20
16.10524577283002
 30
0.0
 10
195.2073408763474
 20
16.16947789001584
 30
0.0
 10
195.1919536641855
 20
16.23108802545047
 30
0.0
 10
195.2407591537801
 20
16.21702407382111
 30
0.0
 10
195.2853995564727
 20
16.21954742075314
 30
0.0
 10
195.3538643946744
 20
16.21512797401709
 30
0.0
 10
195.3959106169103
 20
16.20613025544036
 30
0.0
 10
195.4487544758776
 20
16.21411714866509
 30
0.0
 10
195.4207035002014
 20
16.17113917611677
 30
0.0
 10
195.3749142248595
 20
16.18259552043835
 30
0.0
 10
195.3869539073265
 20
16.12173520005137
 30
0.0
 10
195.3796086070643
 20
16.05769299468773
 30
0.0
 10
195.3831195826162
 20
15.94909368863911
 30
0.0
 10
195.3819806760175
 20
15.82494319144753
 30
0.0
 10
195.3819174780263
 20
15.69189719829878
 30
0.0
 10
195.3832872966868
 20
15.56797381249555
 30
0.0
 10
195.3791638801314
 20
15.45868337849339
 30
0.0
 10
195.3877763103565
 20
15.3960858009417
 30
0.0
 10
195.3746757454402
 20
15.33740133296365
 30
0.0
 10
195.4393884328199
 20
15.35362113810902
 30
0.0
 10
195.5060405953157
 20
15.34270260383311
 30
0.0
 10
195.6198779541103
 20
15.34793740173756
 30
0.0
 10
195.7357259122098
 20
15.34485547516913
 30
0.0
 10
195.8496924263281
 20
15.35018259812512
 30
0.0
 10
195.91603410181
 20
15.33904208166543
 30
0.0
 10
195.980718852548
 20
15.35546979593177
 30
0.0
 10
195.9689820772724
 20
15.30425925210051
 30
0.0
 10
195.9765168063041
 20
15.25950334121
 30
0.0
 10
195.9689820992259
 20
15.21474739010027
 30
0.0
 10
195.9807188140738
 20
15.1635369087104
 30
0.0
 10
195.9160344075253
 20
15.17996427794218
 30
0.0
 10
195.8496886430826
 20
15.16882784447269
 30
0.0
 10
195.7357459487013
 20
15.17413115893119
 30
0.0
 10
195.6197995623055
 20
15.17114764593543
 30
0.0
 10
195.5062756882124
 20
15.17606892268392
 30
0.0
 10
195.4389231318805
 20
15.16585087513518
 30
0.0
 10
195.3734285122496
 20
15.18145996138815
 30
0.0
 10
195.3891713619218
 20
15.1146385182741
 30
0.0
 10
195.3783275998215
 20
15.04207057815878
 30
0.0
 10
195.3836581629792
 20
14.91162247614416
 30
0.0
 10
195.3817136151856
 20
14.76064558185225
 30
0.0
 10
195.3823133683215
 20
14.59322243934158
 30
0.0
 10
195.3821506559605
 20
14.42656176118371
 30
0.0
 10
195.3821895488136
 20
14.27360142921636
 30
0.0
 10
195.38218164131
 20
14.14849178985705
 30
0.0
 10
195.3821828382745
 20
14.06507890991419
 30
0.0
 10
195.3821827716209
 20
14.02491778281976
 30
0.0
 10
195.3821827564384
 20
14.01410517385757
 30
0.0
 11
195.3821827564384
 21
14.01410517385757
 31
0.0
 11
195.4100014883675
 21
14.01410517385757
 31
0.0
 11
195.4833417816353
 21
14.01410517385757
 31
0.0
 11
195.5870297824623
 21
14.01410517385757
 31
0.0
 11
195.7058916370687
 21
14.01410517385757
 31
0.0
 11
195.8247534916752
 21
14.01410517385757
 31
0.0
 11
195.9284414925021
 21
14.01410517385757
 31
0.0
 11
196.0017817857699
 21
14.01410517385757
 31
0.0
 11
196.0296005176991
 21
14.01410517385757
 31
0.0
 11
196.0296005176991
 21
13.9865168492117
 31
0.0
 11
196.0296005176991
 21
13.92582253499077
 31
0.0
 11
196.0296005176991
 21
13.86512822076984
 31
0.0
 11
196.0296005176991
 21
13.83753989612397
 31
0.0
 11
195.9994901593494
 21
13.83753989612397
 31
0.0
 11
195.9162438745005
 21
13.83753989612397
 31
0.0
 11
195.7904888484522
 21
13.83753989612397
 31
0.0
 11
195.6328522665042
 21
13.83753989612397
 31
0.0
 11
195.4539613139565
 21
13.83753989612397
 31
0.0
 11
195.2644431761089
 21
13.83753989612397
 31
0.0
 11
195.0749250382614
 21
13.83753989612397
 31
0.0
 11
194.8960340857137
 21
13.83753989612397
 31
0.0
 11
194.7383975037657
 21
13.83753989612397
 31
0.0
 11
194.6126424777173
 21
13.83753989612397
 31
0.0
 11
194.5293961928684
 21
13.83753989612397
 31
0.0
 11
194.4992858345188
 21
13.83753989612397
 31
0.0
 11
194.4992858345188
 21
13.86512822076984
 31
0.0
 11
194.4992858345188
 21
13.92582253499077
 31
0.0
 11
194.4992858345188
 21
13.9865168492117
 31
0.0
 11
194.4992858345188
 21
14.01410517385757
 31
0.0
 11
194.5294068064948
 21
14.01410517385757
 31
0.0
 11
194.6088166417041
 21
14.01410517385757
 31
0.0
 11
194.7210857190691
 21
14.01410517385757
 31
0.0
 11
194.8497844175118
 21
14.01410517385757
 31
0.0
 11
194.9784831159546
 21
14.01410517385757
 31
0.0
 11
195.0907521933196
 21
14.01410517385757
 31
0.0
 11
195.1701620285289
 21
14.01410517385757
 31
0.0
 11
195.2002830005049
 21
14.01410517385757
 31
0.0
 11
195.2002830005049
 21
14.04654305523835
 31
0.0
 11
195.2002830005049
 21
14.1345887332719
 31
0.0
 11
195.2002830005049
 21
14.26434025879502
 31
0.0
 11
195.2002830005049
 21
14.42189568264453
 31
0.0
 11
195.2002830005049
 21
14.59335305565723
 31
0.0
 11
195.2002830005049
 21
14.76481042866993
 31
0.0
 11
195.2002830005049
 21
14.92236585251944
 31
0.0
 11
195.2002830005049
 21
15.05211737804256
 31
0.0
 11
195.2002830005049
 21
15.14016305607611
 31
0.0
 11
195.2002830005049
 21
15.17260093745689
 31
0.0
 11
195.1673826485529
 21
15.17260093745689
 31
0.0
 11
195.0825343724663
 21
15.17260093745689
 31
0.0
 11
194.9665173418989
 21
15.17260093745689
 31
0.0
 11
194.8401107265045
 21
15.17260093745689
 31
0.0
 11
194.7240936959371
 21
15.17260093745689
 31
0.0
 11
194.6392454198505
 21
15.17260093745689
 31
0.0
 11
194.6063450678985
 21
15.17260093745689
 31
0.0
 11
194.6063450678985
 21
15.19975793614802
 31
0.0
 11
194.6063450678985
 21
15.2595033332685
 31
0.0
 11
194.6063450678985
 21
15.31924873038897
 31
0.0
 11
194.6063450678985
 21
15.3464057290801
 31
0.0
 11
194.6392454198505
 21
15.3464057290801
 31
0.0
 11
194.7240936959371
 21
15.3464057290801
 31
0.0
 11
194.8401107265045
 21
15.3464057290801
 31
0.0
 11
194.9665173418989
 21
15.3464057290801
 31
0.0
 11
195.0825343724663
 21
15.3464057290801
 31
0.0
 11
195.1673826485529
 21
15.3464057290801
 31
0.0
 11
195.2002830005049
 21
15.3464057290801
 31
0.0
 11
195.2002830005049
 21
15.3765001173137
 31
0.0
 11
195.2002830005049
 21
15.45715307777974
 31
0.0
 11
195.2002830005049
 21
15.57391930412609
 31
0.0
 11
195.2002830005049
 21
15.71235349000063
 31
0.0
 11
195.2002830005049
 21
15.85801032905124
 31
0.0
 11
195.2002830005049
 21
15.99644451492578
 31
0.0
 11
195.2002830005049
 21
16.11321074127214
 31
0.0
 11
195.2002830005049
 21
16.19386370173817
 31
0.0
 11
195.2002830005049
 21
16.22395808997177
 31
0.0
 11
195.2250405288619
 21
16.22228324219442
 31
0.0
 11
195.284077711867
 21
16.21828937441765
 31
0.0
 11
195.3545414464215
 21
16.21352249997441
 31
0.0
 11
195.4135786294266
 21
16.20952863219765
 31
0.0
 11
195.4383361577836
 21
16.20785378442029
 31
0.0
 11
195.4233067224031
 21
16.1841581420651
 31
0.0
 11
195.3821827564384
 21
16.17047697887404
 31
0.0
 11
195.3821827564384
 21
16.14221664794832
 31
0.0
 11
195.3821827564384
 21
16.0664789610674
 31
0.0
 11
195.3821827564384
 21
15.95682887707561
 31
0.0
 11
195.3821827564384
 21
15.82683135481731
 31
0.0
 11
195.3821827564384
 21
15.69005135313683
 31
0.0
 11
195.3821827564384
 21
15.56005383087853
 31
0.0
 11
195.3821827564384
 21
15.45040374688674
 31
0.0
 11
195.3821827564384
 21
15.37466606000582
 31
0.0
 11
195.3821827564384
 21
15.3464057290801
 31
0.0
 11
195.4149350096116
 21
15.3464057290801
 31
0.0
 11
195.4994013467423
 21
15.3464057290801
 31
0.0
 11
195.6148961342477
 21
15.3464057290801
 31
0.0
 11
195.7407337385446
 21
15.3464057290801
 31
0.0
 11
195.8562285260499
 21
15.3464057290801
 31
0.0
 11
195.9406948631807
 21
15.3464057290801
 31
0.0
 11
195.9734471163539
 21
15.3464057290801
 31
0.0
 11
195.9734471163539
 21
15.31924873038897
 31
0.0
 11
195.9734471163539
 21
15.2595033332685
 31
0.0
 11
195.9734471163539
 21
15.19975793614802
 31
0.0
 11
195.9734471163539
 21
15.17260093745689
 31
0.0
 11
195.9406948631807
 21
15.17260093745689
 31
0.0
 11
195.85622852605
 21
15.17260093745689
 31
0.0
 11
195.7407337385446
 21
15.17260093745689
 31
0.0
 11
195.6148961342477
 21
15.17260093745689
 31
0.0
 11
195.4994013467423
 21
15.17260093745689
 31
0.0
 11
195.4149350096116
 21
15.17260093745689
 31
0.0
 11
195.3821827564384
 21
15.17260093745689
 31
0.0
 11
195.3821827564384
 21
15.14016305607611
 31
0.0
 11
195.3821827564384
 21
15.05211737804256
 31
0.0
 11
195.3821827564384
 21
14.92236585251944
 31
0.0
 11
195.3821827564384
 21
14.76481042866993
 31
0.0
 11
195.3821827564384
 21
14.59335305565723
 31
0.0
 11
195.3821827564384
 21
14.42189568264453
 31
0.0
 11
195.3821827564384
 21
14.26434025879503
 31
0.0
 11
195.3821827564384
 21
14.1345887332719
 31
0.0
 11
195.3821827564384
 21
14.04654305523835
 31
0.0
 11
195.3821827564384
 21
14.01410517385757
 31
0.0
  0
SPLINE
  5
B2
102
{ACAD_REACTORS
330
CF
102
}
330
48
100
AcDbEntity
  8
_U_30EC_U_30A4_U_30E4_U_30FC_1
  6
Continuous
 62
     2
100
AcDbSpline
210
0.0
220
0.0
230
1.0
 70
     8
 71
     3
 72
    62
 73
    58
 74
    56
 42
0.000000001
 43
0.0000000001
 44
0.00000001
 40
0.0
 40
0.0
 40
0.0
 40
0.0
 40
0.0598250028308485
 40
0.2024846486897331
 40
0.3727558389221031
 40
0.515415484793607
 40
0.5752404975785339
 40
0.9332326775487353
 40
1.290451762839502
 40
1.602077253145923
 40
1.699931634112194
 40
1.799359756425153
 40
2.270120149657154
 40
2.804661928461607
 40
2.88234228738332
 40
3.07654318571917
 40
3.329004354835637
 40
3.581465524568464
 40
3.775666424543752
 40
3.853346784558372
 40
3.899120679595146
 40
3.984129341792087
 40
4.029903236817436
 40
4.105797496059592
 40
4.295533144152552
 40
4.542189486611793
 40
4.78884582887574
 40
4.978581476410126
 40
5.054475735244369
 40
5.621734664339402
 40
6.130867242037413
 40
6.225249780948675
 40
6.318913039727402
 40
6.663579954559071
 40
7.047498900224923
 40
7.435230791575821
 40
7.498943906668233
 40
7.65087518121017
 40
7.832212509001652
 40
7.984143783697037
 40
8.047856898903165
 40
8.09155463273267
 40
8.172707566964329
 40
8.21640530076805
 40
8.289021782160935
 40
8.46218416075728
 40
8.668861838005446
 40
8.84202421526401
 40
8.914640695475205
 40
8.989881580861413
 40
9.155411528827322
 40
9.32094147774411
 40
9.396182352487363
 40
9.454709011143853
 40
9.583467660170873
 40
9.712226309013095
 40
9.770752957989577
 40
9.770752957989577
 40
9.770752957989577
 40
9.770752957989577
 10
187.1521871691833
 20
14.93980288195949
 30
0.0
 10
187.1322348171623
 20
14.93980875568671
 30
0.0
 10
187.0647037716466
 20
14.93982863806156
 30
0.0
 10
186.9410612161788
 20
14.93949362520325
 30
0.0
 10
186.7863180150056
 20
14.9410767375051
 30
0.0
 10
186.669734948248
 20
14.93686078860495
 30
0.0
 10
186.4550942634239
 20
14.95215205331625
 30
0.0
 10
186.8518948407229
 20
14.59198721286191
 30
0.0
 10
186.8945656069268
 20
14.37510503397167
 30
0.0
 10
187.3189162146612
 20
14.19325062511444
 30
0.0
 10
187.1439821496074
 20
14.08985196568073
 30
0.0
 10
187.0194523925083
 20
13.87831523212727
 30
0.0
 10
186.7666277235945
 20
14.34806081001563
 30
0.0
 10
186.4797602893626
 20
14.99511516984522
 30
0.0
 10
186.4906335926661
 20
14.68782672154695
 30
0.0
 10
186.4882892777961
 20
14.5228861697178
 30
0.0
 10
186.4861096126411
 20
14.28879670711694
 30
0.0
 10
186.4980774396348
 20
14.04498072421783
 30
0.0
 10
186.4687984740632
 20
13.89855796860985
 30
0.0
 10
186.511452262547
 20
13.75113490174537
 30
0.0
 10
186.4239814005641
 20
13.7668579730622
 30
0.0
 10
186.3768527606745
 20
13.76694303543454
 30
0.0
 10
186.2898973207714
 20
13.75109425482909
 30
0.0
 10
186.3313474021724
 20
13.89527771422762
 30
0.0
 10
186.3029875004286
 20
14.03855052698456
 30
0.0
 10
186.31459737753
 20
14.27674947365264
 30
0.0
 10
186.3124175648273
 20
14.50517235240346
 30
0.0
 10
186.3103111127995
 20
14.66705729375994
 30
0.0
 10
186.3208035438324
 20
14.98153709333753
 30
0.0
 10
186.0128963252893
 20
14.29229470872435
 30
0.0
 10
185.7055258267457
 20
13.81476750243055
 30
0.0
 10
185.5851367066275
 20
14.03741112637428
 30
0.0
 10
185.4074607910721
 20
14.15011034955562
 30
0.0
 10
185.8853326362895
 20
14.3254814346546
 30
0.0
 10
185.9353959057208
 20
14.56091929252028
 30
0.0
 10
186.3583799621717
 20
14.95322989344606
 30
0.0
 10
186.127675427354
 20
14.93655307029065
 30
0.0
 10
186.0049685859341
 20
14.94269518948769
 30
0.0
 10
185.8325483095662
 20
14.93312822699573
 30
0.0
 10
185.721322469445
 20
14.95448818489665
 30
0.0
 10
185.6025779627448
 20
14.92136265357419
 30
0.0
 10
185.6183169706687
 20
15.00203900606883
 30
0.0
 10
185.6178550933762
 20
15.04645414290853
 30
0.0
 10
185.6027881889932
 20
15.12967081778532
 30
0.0
 10
185.7372380935444
 20
15.09062651983881
 30
0.0
 10
185.8619755545747
 20
15.11739729328421
 30
0.0
 10
186.0628755237281
 20
15.10063949044051
 30
0.0
 10
186.1921540949354
 20
15.12204225913002
 30
0.0
 10
186.3328419928295
 20
15.08868778853419
 30
0.0
 10
186.2980927452617
 20
15.22651875785067
 30
0.0
 10
186.3222185666712
 20
15.34963257349481
 30
0.0
 10
186.2967086182394
 20
15.47024055670334
 30
0.0
 10
186.3333251146686
 20
15.60539865141493
 30
0.0
 10
186.2211417027771
 20
15.58094545781891
 30
0.0
 10
186.1280356457137
 20
15.59307749842022
 30
0.0
 10
186.0191547579821
 20
15.58957630069994
 30
0.0
 10
185.9569697640965
 20
15.58981755951602
 30
0.0
 10
185.9375369557247
 20
15.58989295124144
 30
0.0
 11
187.1521871691833
 21
14.93980288195949
 31
0.0
 11
187.0923621563982
 21
14.93980288195949
 31
0.0
 11
186.949702510526
 21
14.93980288195949
 31
0.0
 11
186.7794313202913
 21
14.93980288195949
 31
0.0
 11
186.6367716744191
 21
14.93980288195949
 31
0.0
 11
186.576946661634
 21
14.93980288195949
 31
0.0
 11
186.7679960754843
 21
14.6370512796689
 31
0.0
 11
186.994127278563
 21
14.36051890576684
 31
0.0
 11
187.2244526173372
 21
14.15061253493457
 31
0.0
 11
187.1521596330704
 21
14.08466403668717
 31
0.0
 11
187.0879364402643
 21
14.0087605905256
 31
0.0
 11
186.7732818215559
 21
14.35891458349363
 31
0.0
 11
186.4886640249977
 21
14.81138295143602
 31
0.0
 11
186.4886640249977
 21
14.73370259137314
 31
0.0
 11
186.4886640249977
 21
14.53950169121594
 31
0.0
 11
186.4886640249977
 21
14.28704052101157
 31
0.0
 11
186.4886640249977
 21
14.03457935080721
 31
0.0
 11
186.4886640249977
 21
13.84037845065
 31
0.0
 11
186.4886640249977
 21
13.76269809058712
 31
0.0
 11
186.4428901295606
 21
13.76269809058712
 31
0.0
 11
186.3578814666059
 21
13.76269809058712
 31
0.0
 11
186.3121075711688
 21
13.76269809058712
 31
0.0
 11
186.3121075711688
 21
13.8385923498274
 31
0.0
 11
186.3121075711688
 21
14.02832799792811
 31
0.0
 11
186.3121075711688
 21
14.27498434045904
 31
0.0
 11
186.3121075711688
 21
14.52164068298996
 31
0.0
 11
186.3121075711688
 21
14.71137633109067
 31
0.0
 11
186.3121075711688
 21
14.78727059033095
 31
0.0
 11
185.9987626399267
 21
14.31440946197693
 31
0.0
 11
185.6352328662149
 21
13.95795177109382
 31
0.0
 11
185.5773927461628
 21
14.03253450545022
 31
0.0
 11
185.5094852305341
 21
14.09704322939241
 31
0.0
 11
185.775072189832
 21
14.31672219795889
 31
0.0
 11
186.0233764972062
 21
14.60953395971697
 31
0.0
 11
186.226498280526
 21
14.93980288195949
 31
0.0
 11
186.1627851652721
 21
14.93980288195949
 31
0.0
 11
186.0108538904359
 21
14.93980288195949
 31
0.0
 11
185.8295165624056
 21
14.93980288195949
 31
0.0
 11
185.6775852875694
 21
14.93980288195949
 31
0.0
 11
185.6138721723155
 21
14.93980288195949
 31
0.0
 11
185.6138721723155
 21
14.98350061600207
 31
0.0
 11
185.6138721723155
 21
15.06465355065258
 31
0.0
 11
185.6138721723155
 21
15.10835128469516
 31
0.0
 11
185.6864886537962
 21
15.10835128469516
 31
0.0
 11
185.8596510327119
 21
15.10835128469516
 31
0.0
 11
186.0663287107725
 21
15.10835128469516
 31
0.0
 11
186.2394910896881
 21
15.10835128469516
 31
0.0
 11
186.3121075711688
 21
15.10835128469516
 31
0.0
 11
186.3121075711688
 21
15.18359217009302
 31
0.0
 11
186.3121075711688
 21
15.3491221179683
 31
0.0
 11
186.3121075711688
 21
15.51465206584358
 31
0.0
 11
186.3121075711688
 21
15.58989295124144
 31
0.0
 11
186.2535809125057
 21
15.58989295124144
 31
0.0
 11
186.1248222634468
 21
15.58989295124144
 31
0.0
 11
185.9960636143879
 21
15.58989295124144
 31
0.0
 11
185.9375369557247
 21
15.58989295124144
 31
0.0
  0
SPLINE
  5
B3
102
{ACAD_REACTORS
330
CF
102
}
330
48
100
AcDbEntity
  8
_U_30EC_U_30A4_U_30E4_U_30FC_1
  6
Continuous
 62
     2
100
AcDbSpline
210
0.0
220
0.0
230
1.0
 70
     8
 71
     3
 72
    70
 73
    66
 74
    64
 42
0.000000001
 43
0.0000000001
 44
0.00000001
 40
0.0
 40
0.0
 40
0.0
 40
0.0
 40
0.0241731073021472
 40
0.0846058988987297
 40
0.1631685280353284
 40
0.2417311571789756
 40
0.3021639488292751
 40
0.3263370654895825
 40
0.3533118254249165
 40
0.4228783438922395
 40
0.5179999095313687
 40
0.6216398239466386
 40
0.716761389149999
 40
0.7863279069650148
 40
0.813302679176212
 40
0.8372943998771958
 40
0.894505426137287
 40
0.962789554196264
 40
1.020000580349074
 40
1.043992300975172
 40
1.071934345522902
 40
1.113121768772915
 40
1.14522519933224
 40
1.225483775412775
 40
1.329819923771483
 40
1.434156071994373
 40
1.514414647795794
 40
1.546518078208402
 40
1.578974764260204
 40
1.662678849314142
 40
1.777131373668391
 40
1.901833377474782
 40
2.016285900500572
 40
2.099989982527939
 40
2.132446666570297
 40
2.15878235448602
 40
2.21672086790781
 40
2.274659381334233
 40
2.300995069256167
 40
2.333451754066139
 40
2.41715583654382
 40
2.53160835898526
 40
2.656310362283755
 40
2.770762886388887
 40
2.854466971340052
 40
2.886923657363859
 40
2.913597976833293
 40
2.9823896428751
 40
3.076451716946965
 40
3.17893726045858
 40
3.272999334739985
 40
3.34179100105921
 40
3.368465320663523
 40
3.396976080738744
 40
3.472140811845952
 40
3.578408190308641
 40
3.700226892456049
 40
3.822045594634266
 40
3.928312973256345
 40
4.003477705314742
 40
4.031988456866808
 40
4.058324144797606
 40
4.116262658236767
 40
4.174201171400565
 40
4.200536849608499
 40
4.200536849608499
 40
4.200536849608499
 40
4.200536849608499
 10
185.985770496161
 20
15.75844135397705
 30
0.0
 10
185.993825954468
 20
15.75844359811686
 30
0.0
 10
186.0220200663242
 20
15.75845146032798
 30
0.0
 10
186.0765534803674
 20
15.75830754828372
 30
0.0
 10
186.1482891808604
 20
15.75909120499898
 30
0.0
 10
186.2236240137063
 20
15.75627570463811
 30
0.0
 10
186.2713052366439
 20
15.76298403400957
 30
0.0
 10
186.3195071245617
 20
15.75197563692432
 30
0.0
 10
186.3062571799875
 20
15.80546402997033
 30
0.0
 10
186.3151093964538
 20
15.86049583543092
 30
0.0
 10
186.3108698036287
 20
15.95419908726109
 30
0.0
 10
186.313348348128
 20
16.04959482218532
 30
0.0
 10
186.3090938706062
 20
16.14356821983387
 30
0.0
 10
186.3179818665847
 20
16.19795062438012
 30
0.0
 10
186.3046977409946
 20
16.25233997691461
 30
0.0
 10
186.351411927711
 20
16.23842216335358
 30
0.0
 10
186.3943254545738
 20
16.24103877374043
 30
0.0
 10
186.4605443456685
 20
16.23648422450754
 30
0.0
 10
186.50133422718
 20
16.22778162134162
 30
0.0
 10
186.5525145690819
 20
16.23531799890194
 30
0.0
 10
186.5253720487201
 20
16.19349970223285
 30
0.0
 10
186.4803096055708
 20
16.20284992072596
 30
0.0
 10
186.4942065045051
 20
16.13841207371837
 30
0.0
 10
186.4858414431655
 20
16.07378219627399
 30
0.0
 10
186.4903632178399
 20
15.97529141193887
 30
0.0
 10
186.4854741311168
 20
15.8759593284257
 30
0.0
 10
186.4950258992082
 20
15.81293115552968
 30
0.0
 10
186.4799761455201
 20
15.74964011499788
 30
0.0
 10
186.5449159457209
 20
15.76515072944268
 30
0.0
 10
186.6116246399498
 20
15.75499387697813
 30
0.0
 10
186.7241435470827
 20
15.75988800099367
 30
0.0
 10
186.8390235448954
 20
15.75691204732784
 30
0.0
 10
186.9519871999748
 20
15.76221664184991
 30
0.0
 10
187.0176267597678
 20
15.75107306472089
 30
0.0
 10
187.0816276691054
 20
15.76744532319857
 30
0.0
 10
187.070314288919
 20
15.71761689905274
 30
0.0
 10
187.0775339871511
 20
15.67416715212123
 30
0.0
 10
187.070314261127
 20
15.63071745587445
 30
0.0
 10
187.0816277175995
 20
15.58088895196876
 30
0.0
 10
187.0176263598972
 20
15.59726166091362
 30
0.0
 10
186.9519921240461
 20
15.58611271661588
 30
0.0
 10
186.8389974317331
 20
15.59144857206854
 30
0.0
 10
186.7242456548644
 20
15.58834345663822
 30
0.0
 10
186.6113183686861
 20
15.59364894682588
 30
0.0
 10
186.5455220903585
 20
15.58257300019593
 30
0.0
 10
186.4816097975358
 20
15.59887597847618
 30
0.0
 10
186.4936015165128
 20
15.54423524395742
 30
0.0
 10
186.4862104613005
 20
15.48854295047841
 30
0.0
 10
186.4892684841984
 20
15.3964968914057
 30
0.0
 10
186.4893422785684
 20
15.301791098731
 30
0.0
 10
186.4860313578361
 20
15.20952782902265
 30
0.0
 10
186.4939505989904
 20
15.15435768736139
 30
0.0
 10
186.4815076611618
 20
15.10058169100135
 30
0.0
 10
186.5389116551632
 20
15.1145376886278
 30
0.0
 10
186.5994708140383
 20
15.10511457884226
 30
0.0
 10
186.7048680855081
 20
15.10942885928703
 30
0.0
 10
186.8204294070623
 20
15.1083550461203
 30
0.0
 10
186.9359688877797
 20
15.10725965900994
 30
0.0
 10
187.0414181130841
 20
15.11162525770631
 30
0.0
 10
187.1018680471804
 20
15.10209426030669
 30
0.0
 10
187.159283773911
 20
15.11617289606378
 30
0.0
 10
187.1477773876709
 20
15.06707153265682
 30
0.0
 10
187.1537566781749
 20
15.02564658018648
 30
0.0
 10
187.1520311050801
 20
14.97651677966694
 30
0.0
 10
187.1521500122971
 20
14.94854428447607
 30
0.0
 10
187.1521871691833
 20
14.93980288195949
 30
0.0
 11
185.985770496161
 21
15.75844135397705
 31
0.0
 11
186.0099436128282
 21
15.75844135397705
 31
0.0
 11
186.0703764044964
 21
15.75844135397705
 31
0.0
 11
186.1489390336649
 21
15.75844135397705
 31
0.0
 11
186.2275016628334
 21
15.75844135397705
 31
0.0
 11
186.2879344545015
 21
15.75844135397705
 31
0.0
 11
186.3121075711688
 21
15.75844135397705
 31
0.0
 11
186.3121075711688
 21
15.78541612620063
 31
0.0
 11
186.3121075711688
 21
15.85498264404039
 31
0.0
 11
186.3121075711688
 21
15.95010420924985
 31
0.0
 11
186.3121075711688
 21
16.05374412358256
 31
0.0
 11
186.3121075711688
 21
16.14886568879202
 31
0.0
 11
186.3121075711688
 21
16.21843220663178
 31
0.0
 11
186.3121075711688
 21
16.24540697885536
 31
0.0
 11
186.3360407604893
 21
16.243732131078
 31
0.0
 11
186.3931122119459
 21
16.23973826330121
 31
0.0
 11
186.4612297507811
 21
16.23497138885795
 31
0.0
 11
186.5183012022377
 21
16.23097752108117
 31
0.0
 11
186.5422343915582
 21
16.22930267330381
 31
0.0
 11
186.527497273123
 21
16.2055629337264
 31
0.0
 11
186.4886640249977
 21
16.19183767331312
 31
0.0
 11
186.4886640249977
 21
16.15973424225119
 31
0.0
 11
186.4886640249977
 21
16.07947566459636
 31
0.0
 11
186.4886640249977
 21
15.97513951364509
 31
0.0
 11
186.4886640249977
 21
15.87080336269381
 31
0.0
 11
186.4886640249977
 21
15.79054478503898
 31
0.0
 11
186.4886640249977
 21
15.75844135397705
 31
0.0
 11
186.5211207110825
 21
15.75844135397705
 31
0.0
 11
186.6048247962486
 21
15.75844135397705
 31
0.0
 11
186.7192773208635
 21
15.75844135397705
 31
0.0
 11
186.8439793252947
 21
15.75844135397705
 31
0.0
 11
186.9584318499095
 21
15.75844135397705
 31
0.0
 11
187.0421359350757
 21
15.75844135397705
 31
0.0
 11
187.0745926211605
 21
15.75844135397705
 31
0.0
 11
187.0745926211605
 21
15.73210566604961
 31
0.0
 11
187.0745926211605
 21
15.67416715260924
 31
0.0
 11
187.0745926211605
 21
15.61622863916888
 31
0.0
 11
187.0745926211605
 21
15.58989295124144
 31
0.0
 11
187.0421359350757
 21
15.58989295124144
 31
0.0
 11
186.9584318499095
 21
15.58989295124144
 31
0.0
 11
186.8439793252947
 21
15.58989295124144
 31
0.0
 11
186.7192773208635
 21
15.58989295124144
 31
0.0
 11
186.6048247962486
 21
15.58989295124144
 31
0.0
 11
186.5211207110825
 21
15.58989295124144
 31
0.0
 11
186.4886640249977
 21
15.58989295124144
 31
0.0
 11
186.4886640249977
 21
15.56321863152022
 31
0.0
 11
186.4886640249977
 21
15.49442696487075
 31
0.0
 11
186.4886640249977
 21
15.40036489006433
 31
0.0
 11
186.4886640249977
 21
15.29787934587227
 31
0.0
 11
186.4886640249977
 21
15.20381727106585
 31
0.0
 11
186.4886640249977
 21
15.13502560441638
 31
0.0
 11
186.4886640249977
 21
15.10835128469516
 31
0.0
 11
186.5171747850994
 21
15.10835128469516
 31
0.0
 11
186.5923395162767
 21
15.10835128469516
 31
0.0
 11
186.6986068948377
 21
15.10835128469516
 31
0.0
 11
186.8204255970905
 21
15.10835128469516
 31
0.0
 11
186.9422442993433
 21
15.10835128469516
 31
0.0
 11
187.0485116779043
 21
15.10835128469516
 31
0.0
 11
187.1236764090816
 21
15.10835128469516
 31
0.0
 11
187.1521871691833
 21
15.10835128469516
 31
0.0
 11
187.1521871691833
 21
15.08201559676771
 31
0.0
 11
187.1521871691833
 21
15.02407708332733
 31
0.0
 11
187.1521871691833
 21
14.96613856988694
 31
0.0
 11
187.1521871691833
 21
14.93980288195949
 31
0.0
  0
SPLINE
  5
B4
102
{ACAD_REACTORS
330
CF
102
}
330
48
100
AcDbEntity
  8
_U_30EC_U_30A4_U_30E4_U_30FC_1
  6
Continuous
 62
     2
100
AcDbSpline
210
0.0
220
0.0
230
1.0
 70
     8
 71
     3
 72
    24
 73
    20
 74
    18
 42
0.000000001
 43
0.0000000001
 44
0.00000001
 40
0.0
 40
0.0
 40
0.0
 40
0.0
 40
0.2211075008753867
 40
0.4273218586245223
 40
0.5080174679239482
 40
0.5914835907870397
 40
0.8143265690192709
 40
1.054651302686571
 40
1.295452694023168
 40
1.518109231328827
 40
1.540864321905442
 40
1.595126460622703
 40
1.659890947896017
 40
1.714153085187403
 40
1.736908174961675
 40
1.76495110073538
 40
1.801562291220942
 40
1.953914424543626
 40
2.126104167379697
 40
2.126104167379697
 40
2.126104167379697
 40
2.126104167379697
 10
185.937536955689
 20
15.58989295113015
 30
0.0
 10
185.9112579081813
 20
15.53097628234373
 30
0.0
 10
185.8604698894426
 20
15.41711139679258
 30
0.0
 10
185.8131784839112
 20
15.14441958233116
 30
0.0
 10
185.7043482802619
 20
15.24445482575454
 30
0.0
 10
185.5514800279638
 20
15.27118593367332
 30
0.0
 10
185.7686155181199
 20
15.48518135017632
 30
0.0
 10
185.7838483674381
 20
15.70332117782488
 30
0.0
 10
185.8906889492
 20
15.88451579066425
 30
0.0
 10
185.8305380947079
 20
16.16913226311404
 30
0.0
 10
185.9334317395402
 20
16.1411408922245
 30
0.0
 10
185.9779933468151
 20
16.13243251602299
 30
0.0
 10
186.0380842395397
 20
16.12139654183354
 30
0.0
 10
186.0756619587439
 20
16.10767523055561
 30
0.0
 10
186.1252466928606
 20
16.1075607616022
 30
0.0
 10
186.0930158919325
 20
16.07306592398625
 30
0.0
 10
186.0171802221882
 20
16.0840410453796
 30
0.0
 10
186.0429447159693
 20
15.89858969582452
 30
0.0
 10
186.005589676385
 20
15.8070231354959
 30
0.0
 10
185.985770496161
 20
15.75844135397705
 30
0.0
 11
185.937536955689
 21
15.58989295113015
 31
0.0
 11
185.8616471328553
 21
15.38221708318559
 31
0.0
 11
185.7717402238434
 21
15.19663392356192
 31
0.0
 11
185.701149392311
 21
15.23573272563551
 31
0.0
 11
185.6245525192652
 21
15.2688916318772
 31
0.0
 11
185.7214026947456
 21
15.46958801203538
 31
0.0
 11
185.7994641467471
 21
15.69688163177024
 31
0.0
 11
185.8589716929721
 21
15.93021436608691
 31
0.0
 11
185.9001601511227
 21
16.14902808999054
 31
0.0
 11
185.9224183822215
 21
16.14429889221395
 31
0.0
 11
185.9754957025341
 21
16.13302157443899
 31
0.0
 11
186.0388460525845
 21
16.11956154999792
 31
0.0
 11
186.0919233728971
 21
16.10828423222296
 31
0.0
 11
186.1141816039959
 21
16.10355503444637
 31
0.0
 11
186.0964097157461
 21
16.0818625084101
 31
0.0
 11
186.0606122998072
 21
16.07418628445367
 31
0.0
 11
186.028195330148
 21
15.92532288171314
 31
0.0
 11
185.985770496161
 21
15.75844135397705
 31
0.0
  0
LWPOLYLINE
  5
B5
102
{ACAD_REACTORS
330
D0
102
}
330
48
100
AcDbEntity
  8
_U_30EC_U_30A4_U_30E4_U_30FC_1
  6
Continuous
 62
     2
100
AcDbPolyline
 90
        5
 70
     1
 43
0.0
 10
191.1602971697031
 20
15.39722336795624
 10
192.4578138032672
 20
15.39722336795624
 10
192.4578138032672
 20
15.22875434022056
 10
191.1602971697031
 20
15.22875434022056
 10
191.1602971697031
 20
15.39722336795624
  0
MTEXT
  5
B7
330
48
100
AcDbEntity
  8
1
 62
   250
100
AcDbMText
 10
25.0
 20
5.0
 30
0.0
 40
3.5
 41
0.0
 71
     4
 72
     1
  1
備考欄の文字列 原点位置=4
  7
CONVERTER_11
 73
     1
 44
0.54545454545455
  0
MTEXT
  5
B8
330
48
100
AcDbEntity
  8
1
 62
     2
100
AcDbMText
 10
89.5
 20
24.00000000000001
 30
0.0
 40
3.5
 41
0.0
 71
     5
 72
     1
  1
尺度
  7
CONVERTER_11
 73
     1
 44
0.54545454545455
  0
MTEXT
  5
B9
330
48
100
AcDbEntity
  8
1
 62
     2
100
AcDbMText
 10
135.5
 20
25.00000000000001
 30
0.0
 40
3.0
 41
0.0
 71
     5
 72
     1
  1
製図
  7
CONVERTER_11
 73
     1
 44
0.59090909090909
  0
MTEXT
  5
BA
330
48
100
AcDbEntity
  8
1
 62
     2
100
AcDbMText
 10
152.5
 20
25.00000000000001
 30
0.0
 40
3.0
 41
0.0
 71
     5
 72
     1
  1
設計
  7
CONVERTER_11
 73
     1
 44
0.59090909090909
  0
MTEXT
  5
BB
330
48
100
AcDbEntity
  8
1
 62
     2
100
AcDbMText
 10
118.5
 20
25.00000000000001
 30
0.0
 40
3.0
 41
0.0
 71
     5
 72
     1
  1
検図
  7
CONVERTER_11
 73
     1
 44
0.59090909090909
  0
MTEXT
  5
BC
330
48
100
AcDbEntity
  8
1
 62
     2
100
AcDbMText
 10
174.9999999999999
 20
23.50000000000001
 30
0.0
 40
3.5
 41
0.0
 71
     5
 72
     1
  1
第三角法
  7
CONVERTER_11
 73
     1
 44
0.54545454545455
  0
MTEXT
  5
BD
330
48
100
AcDbEntity
  8
1
 62
     2
100
AcDbMText
 10
101.5
 20
25.00000000000001
 30
0.0
 40
3.0
 41
0.0
 71
     5
 72
     1
  1
承認
  7
CONVERTER_11
 73
     1
 44
0.59090909090909
  0
MTEXT
  5
BE
330
48
100
AcDbEntity
  8
1
 62
     2
100
AcDbMText
 10
29.0
 20
14.25
 30
0.0
 40
3.5
 41
0.0
 71
     5
 72
     1
  1
品番
  7
CONVERTER_11
 73
     1
 44
0.72727272727273
  0
MTEXT
  5
BF
330
48
100
AcDbEntity
  8
1
 62
     2
100
AcDbMText
 10
29.0
 20
22.75
 30
0.0
 40
3.5
 41
0.0
 71
     5
 72
     1
  1
品名
  7
CONVERTER_11
 73
     1
 44
0.72727272727273
  0
MTEXT
  5
C0
330
48
100
AcDbEntity
  8
1
 62
     2
100
AcDbMText
 10
29.0
 20
34.00000000000001
 30
0.0
 40
3.5
 41
0.0
 71
     5
 72
     1
  1
備考
  7
CONVERTER_11
 73
     1
 44
0.45454545454545
  0
MTEXT
  5
C1
330
48
100
AcDbEntity
  8
1
 62
     2
100
AcDbMText
 10
32.50000000000001
 20
282.0000000000003
 30
0.0
 40
5.0
 41
0.0
 71
     5
 72
     1
  1
図番
  7
CONVERTER_11
 73
     1
 44
0.45454545454545
  0
HATCH
  5
C2
330
48
100
AcDbEntity
  8
1
  6
Continuous
 62
     2
100
AcDbHatch
 10
0.0
 20
0.0
 30
0.0
210
0.0
220
0.0
230
1.0
  2
CUSTOM0
 70
     0
 71
     1
 91
        1
 92
        1
 93
        1
 72
     4
 94
        3
 73
     0
 74
     0
 95
       99
 96
       95
 40
0.0
 40
0.0
 40
0.0
 40
0.0
 40
0.0796417172273046
 40
0.162176854235658
 40
0.2486489160957518
 40
0.3404969668525254
 40
0.4381912511165277
 40
0.5434463660245579
 40
0.6518115192847616
 40
0.753019093788746
 40
0.8492196919725464
 40
0.9419290312998698
 40
1.034249663570084
 40
1.129078600620248
 40
1.22669702757327
 40
1.32722042542174
 40
1.470572134938064
 40
1.595489863371296
 40
1.719934125348409
 40
1.850576620127502
 40
1.989059629987333
 40
2.134139054226902
 40
2.280698007207241
 40
2.424529739039492
 40
2.565929576985857
 40
2.708239260773553
 40
2.861717887443661
 40
3.045168540347365
 40
3.183798301138614
 40
3.31481396145547
 40
3.442083470447306
 40
3.569912708372906
 40
3.702177512509279
 40
3.84230755965955
 40
3.992872223245871
 40
4.156750662218374
 40
4.310981861107482
 40
4.445859909322611
 40
4.572393936131603
 40
4.701656719782003
 40
4.768279086008491
 40
4.835960697898425
 40
4.912788918729366
 40
5.006285208481553
 40
5.026909478751686
 40
5.047533749021308
 40
5.101808031471346
 40
5.162325165538665
 40
5.226919745995985
 40
5.294231806596782
 40
5.364544852554952
 40
5.438319055468072
 40
5.517877651324353
 40
5.607647714861722
 40
5.700449642544569
 40
5.7882511423643
 40
5.87271470603988
 40
5.95516729257544
 40
6.037192395190493
 40
6.120669181469212
 40
6.206848616686467
 40
6.296680855416883
 40
6.442558392872696
 40
6.568190371608371
 40
6.692904567360497
 40
6.824220446557296
 40
6.963121850329482
 40
7.107843738851243
 40
7.253431663907381
 40
7.395187468036855
 40
7.533140753237864
 40
7.67055045717539
 40
7.816236511769395
 40
7.987691657359353
 40
8.142277421969395
 40
8.29366261541513
 40
8.442962460879409
 40
8.591598316185443
 40
8.743678992361888
 40
8.903725323699296
 40
9.076307008890673
 40
9.265578604680698
 40
9.459203795360901
 40
9.617619810273744
 40
9.753609671362103
 40
9.874873300004205
 40
9.95452018497788
 40
10.02416413719257
 40
10.09769764405458
 40
10.18909955924985
 40
10.20974586420147
 40
10.2303921826339
 40
10.30057101881274
 40
10.37632012987551
 40
10.37632012987551
 40
10.37632012987551
 40
10.37632012987551
 10
170.1465954835851
 20
14.13795663215994
 10
170.1632217851219
 20
14.11720608845313
 10
170.1970784206578
 20
14.07495111711903
 10
170.2599822541036
 20
14.02029811392075
 10
170.3332500940393
 20
13.97299025121045
 10
170.4175969238636
 20
13.93527231437937
 10
170.5132240615461
 20
13.9104061973195
 10
170.6171853775346
 20
13.90309559345937
 10
170.7224020220406
 20
13.91142322794054
 10
170.8206626371333
 20
13.94149179651526
 10
170.9058986427549
 20
13.98848822971878
 10
170.9779220206103
 20
14.04952991250854
 10
171.0350917709097
 20
14.12412969578586
 10
171.076786874744
 20
14.21002464660171
 10
171.1026952846292
 20
14.30485850432214
 10
171.1118037332654
 20
14.41854979038365
 10
171.0986864796488
 20
14.54332587770782
 10
171.0325330334414
 20
14.66014719171888
 10
170.9369370919569
 20
14.74512539577379
 10
170.824968102237
 20
14.81416684459158
 10
170.6993659583269
 20
14.87204142045889
 10
170.5656691620858
 20
14.92373723284344
 10
170.4313122818831
 20
14.97899092397178
 10
170.3051983986877
 20
15.04939770641652
 10
170.1926579987536
 20
15.1378554073125
 10
170.0969963064458
 20
15.24981067868473
 10
170.0334157151827
 20
15.39949910101383
 10
170.0200706505016
 20
15.55932794385141
 10
170.0320510987449
 20
15.71048405306845
 10
170.0712298928841
 20
15.83809244591538
 10
170.1354987750912
 20
15.95080874030842
 10
170.223820499974
 20
16.04648609268688
 10
170.3338091207627
 20
16.12354214985756
 10
170.4632284401266
 20
16.18151396936274
 10
170.6111838967793
 20
16.21739177588824
 10
170.7682069455487
 20
16.22746719050564
 10
170.9174940466431
 20
16.21863637762589
 10
171.0596253614171
 20
16.19074899340354
 10
171.1595922609626
 20
16.13413314701138
 10
171.3125074736186
 20
16.08674602105506
 10
171.2455131717169
 20
16.00197553001185
 10
171.229647912027
 20
15.93438901873484
 10
171.1978750531297
 20
15.86926092793191
 10
171.2150202209572
 20
15.76723453256952
 10
171.1666427208232
 20
15.77493211681903
 10
171.1315789440766
 20
15.76806771724807
 10
171.1296697985719
 20
15.83263831158199
 10
171.0985692931989
 20
15.87825639621393
 10
171.0664551628456
 20
15.93561036628451
 10
171.0208038475169
 20
15.98540462692563
 10
170.9658508218387
 20
16.02994813718996
 10
170.9010841173008
 20
16.06763988836547
 10
170.8232377310596
 20
16.09283375791353
 10
170.7355160553352
 20
16.09931230998111
 10
170.6452903277807
 20
16.09235709285607
 10
170.5594594694064
 20
16.06909190460922
 10
170.4828343638596
 20
16.03131644107541
 10
170.4165265636201
 20
15.98051641089578
 10
170.3622560536965
 20
15.91731143407209
 10
170.3224925345459
 20
15.84276455710366
 10
170.2976775510588
 20
15.75917313997764
 10
170.2892124262872
 20
15.65192948382285
 10
170.3019697987103
 20
15.5296545726756
 10
170.3681548409273
 20
15.41149724291209
 10
170.4640977399832
 20
15.32606325709528
 10
170.5757914963183
 20
15.25583362306724
 10
170.7010863668702
 20
15.19659162305303
 10
170.8349823941447
 20
15.1461670808613
 10
170.968993033315
 20
15.09322516984381
 10
171.0950885316915
 20
15.02750170625179
 10
171.2076216638417
 20
14.94480352537317
 10
171.3031370284234
 20
14.83996006310077
 10
171.3672706486963
 20
14.69937117251568
 10
171.3811103725279
 20
14.54065409451592
 10
171.3673954712229
 20
14.38153155217876
 10
171.3244739153985
 20
14.23483828819207
 10
171.2545906329066
 20
14.10119796587143
 10
171.157459221383
 20
13.9853238769929
 10
171.0347806023658
 20
13.89089981770086
 10
170.8874408413169
 20
13.82179270651982
 10
170.7177132497125
 20
13.77953210858852
 10
170.5317404979598
 20
13.76781736230408
 10
170.3528955926183
 20
13.77809486683436
 10
170.1881733753744
 20
13.81966573769153
 10
170.0834410841056
 20
13.88797642883939
 10
169.9350960790367
 20
13.93675219032107
 10
169.9980378194729
 20
14.02976591290844
 10
170.0072274430061
 20
14.10296536248279
 10
170.0303711301232
 20
14.16936294501346
 10
170.0034588335318
 20
14.26974809527582
 10
170.052133895634
 20
14.26234033517379
 10
170.0916530580698
 20
14.26894063620895
 10
170.0996204944703
 20
14.19078703218934
 10
170.1305436967923
 20
14.15600927375857
 10
170.1465954835851
 20
14.13795663215994
 97
        1
330
A4
 75
     1
 76
     2
 52
45.0
 41
0.1
 77
     0
 78
     1
 53
45.0
 43
0.0
 44
0.0
 45
-0.282842712474619
 46
0.0
 79
     0
 98
        1
 10
0.0
 20
0.0
  0
HATCH
  5
C3
330
48
100
AcDbEntity
  8
1
  6
Continuous
 62
     2
100
AcDbHatch
 10
0.0
 20
0.0
 30
0.0
210
0.0
220
0.0
230
1.0
  2
CUSTOM1
 70
     0
 71
     1
 91
        2
 92
        1
 93
        1
 72
     4
 94
        3
 73
     0
 74
     0
 95
       57
 96
       53
 40
0.0
 40
0.0
 40
0.0
 40
0.0
 40
0.0471632082809505
 40
0.0914861054632995
 40
0.1357762519702663
 40
0.1826527001610673
 40
0.229520328857315
 40
0.2737751972221604
 40
0.3181310461543633
 40
0.3652607198398499
 40
0.4571007286314495
 40
0.5671851029165267
 40
0.6894623283868418
 40
0.818175827254581
 40
0.9510087229274115
 40
1.085852229674041
 40
1.218126164475287
 40
1.343545131142368
 40
1.454537202956813
 40
1.567187607530794
 40
1.680710966642469
 40
1.794226869736862
 40
1.900009184247661
 40
2.004085860448054
 40
2.108162674451829
 40
2.214000150155288
 40
2.496038577352156
 40
2.762350745479265
 40
2.997275353279393
 40
3.185110082137701
 40
3.246407890063984
 40
3.312607550212772
 40
3.378877742711589
 40
3.440140399651414
 40
4.100501696006401
 40
4.754913085563444
 40
5.411331693423862
 40
6.077890432568666
 40
6.110575292670945
 40
6.143260152775725
 40
6.367989363395075
 40
6.610525374951504
 40
6.863389136467267
 40
7.119380025547483
 40
7.376036605091019
 40
7.63116477096622
 40
7.876722425456372
 40
8.104953735855869
 40
8.31291668592424
 40
8.497730294941256
 40
8.651018984313808
 40
8.76473885362453
 40
8.76473885362453
 40
8.76473885362453
 40
8.76473885362453
 10
174.7922649500514
 20
13.81626739612928
 10
174.7766616726931
 20
13.81826231079078
 10
174.7463947960302
 20
13.82213201360298
 10
174.7010994202253
 20
13.82341984967269
 10
174.6559553129349
 20
13.82308683554051
 10
174.60990171234
 20
13.82314658674224
 10
174.5640496172097
 20
13.82325813650002
 10
174.5183711648164
 20
13.82277833456591
 10
174.4750811541608
 20
13.82461109618721
 10
174.4039947951514
 20
13.8004955681466
 10
174.4057477261441
 20
13.92184693977251
 10
174.358619637057
 20
14.00726239751232
 10
174.3191478251761
 20
14.12486929345134
 10
174.2706635532646
 20
14.24232752540441
 10
174.2201017402523
 20
14.36405935761507
 10
174.1718634610478
 20
14.49075967862466
 10
174.1135232947596
 20
14.59933687784953
 10
174.0980892667262
 20
14.7562065713441
 10
173.9566586330636
 20
14.72373446548323
 10
173.8508397414904
 20
14.73512888682179
 10
173.7358569725222
 20
14.73392591514615
 10
173.6253142252141
 20
14.73506945347408
 10
173.5176583522783
 20
14.73418350037526
 10
173.4121322529242
 20
14.73416602390519
 10
173.3109192682013
 20
14.72714032472416
 10
173.1266804827754
 20
14.75135859859864
 10
173.1157393685411
 20
14.44741691121889
 10
173.0087691634751
 20
14.22353177253396
 10
172.9098148604347
 20
14.03895314292496
 10
172.9225090524009
 20
13.79530204804208
 10
172.8050091716397
 20
13.82508046753196
 10
172.7422055868311
 20
13.82258089509605
 10
172.67858720934
 20
13.82344075102804
 10
172.3946014194077
 20
13.78098039941952
 10
173.0251638499381
 20
14.50081952444784
 10
173.1087645289071
 20
15.01276539435733
 10
173.492925278934
 20
15.53353743550043
 10
173.4777208288565
 20
16.23519626253213
 10
173.7239265722698
 20
16.22345633081257
 10
173.8256346157561
 20
16.23225004452772
 10
173.8249752035818
 20
15.98059650730342
 10
173.9428317155829
 20
15.79818020733959
 10
174.0315515260486
 20
15.55563740662871
 10
174.1322292485257
 20
15.32340030530118
 10
174.2311142712244
 20
15.08674644566918
 10
174.3299676990669
 20
14.85461739170089
 10
174.4256166390927
 20
14.63122222788793
 10
174.515990457327
 20
14.42272549049313
 10
174.598994456819
 20
14.23308448529321
 10
174.6726088582799
 20
14.06663106068099
 10
174.7342815895546
 20
13.92917699626097
 10
174.7749458885605
 20
13.84999239430034
 10
174.7922649500514
 20
13.81626739612928
 97
        1
330
A5
 92
       16
 93
        1
 72
     4
 94
        3
 73
     0
 74
     0
 95
       25
 96
       21
 40
0.0
 40
0.0
 40
0.0
 40
0.0
 40
0.0911479969064538
 40
0.1858117896203815
 40
0.2804128399733637
 40
0.3715889190713657
 40
0.4679080494218139
 40
0.5642683809229229
 40
0.6605683222644706
 40
0.7569653015810254
 40
0.8561348172522737
 40
1.092615965104303
 40
1.374867658141897
 40
1.611348812011589
 40
1.710518328425249
 40
1.809403163726556
 40
2.045205463294081
 40
2.32664691762213
 40
2.562449217190603
 40
2.661334043833911
 40
2.661334043833911
 40
2.661334043833911
 40
2.661334043833911
 10
173.26837005672
 20
14.88614538197292
 10
173.2987525917924
 20
14.88598079714555
 10
173.3606895889112
 20
14.88564528689921
 10
173.454135696033
 20
14.88269055451999
 10
173.5475095236357
 20
14.87977752877151
 10
173.6417760753476
 20
14.87894201643416
 10
173.7354964790967
 20
14.87996644658047
 10
173.8352040303205
 20
14.87916977470971
 10
173.9188949546313
 20
14.8892141023522
 10
174.0637996315046
 20
14.86234617674164
 10
173.9396132444802
 20
15.03665530280049
 10
173.8965867286282
 20
15.19651711006091
 10
173.780892214221
 20
15.45518458550213
 10
173.7017565431258
 20
15.5923105286186
 10
173.6431576621817
 20
15.80937033134077
 10
173.5864803939439
 20
15.59266134213426
 10
173.5052809900477
 20
15.45327012438239
 10
173.4063701281489
 20
15.20406969370192
 10
173.3253625094259
 20
15.01925830226075
 10
173.2813683325839
 20
14.91650446856117
 10
173.26837005672
 20
14.88614538197292
 97
        1
330
A6
 75
     1
 76
     2
 52
45.0
 41
0.1
 77
     0
 78
     1
 53
45.0
 43
0.0
 44
0.0
 45
-0.282842712474619
 46
0.0
 79
     0
 98
        1
 10
0.0
 20
0.0
  0
HATCH
  5
C4
330
48
100
AcDbEntity
  8
1
  6
Continuous
 62
     2
100
AcDbHatch
 10
0.0
 20
0.0
 30
0.0
210
0.0
220
0.0
230
1.0
  2
CUSTOM2
 70
     0
 71
     1
 91
        1
 92
        1
 93
        1
 72
     4
 94
        3
 73
     0
 74
     0
 95
       95
 96
       91
 40
0.0
 40
0.0
 40
0.0
 40
0.0
 40
0.6550406656911417
 40
1.308087289031946
 40
1.420803739835817
 40
1.566130759770829
 40
1.757067341888485
 40
2.006513545026487
 40
2.087328263121575
 40
2.185328872295648
 40
2.294612454748384
 40
2.408936380534833
 40
2.526802767798589
 40
2.646360524615627
 40
2.762535723971614
 40
2.870057342870189
 40
2.966883448431666
 40
3.050803243518315
 40
3.115818222436633
 40
3.156030057150258
 40
3.213914225080187
 40
3.27668902645056
 40
3.342960320981337
 40
3.404230667150586
 40
3.453822809493377
 40
3.532499827188448
 40
3.634775188507176
 40
3.754909333008174
 40
3.889736761660664
 40
4.035769602175233
 40
4.187256681197621
 40
4.338733685675964
 40
4.488478734676121
 40
4.634708317831596
 40
4.771493189921284
 40
4.892686571561222
 40
5.199775528944458
 40
5.460353566929648
 40
5.667603142345524
 40
5.8147229054045
 40
5.828990806219827
 40
5.855488336304496
 40
5.869756237118827
 40
6.189796507762832
 40
6.531890469873026
 40
6.883053637016955
 40
7.230512024911426
 40
7.566966656764565
 40
7.88520355970736
 40
8.172887439719155
 40
8.418011594062715
 40
8.443926721190637
 40
8.510760470613125
 40
8.602145393795634
 40
8.701714041647076
 40
8.793098965075306
 40
8.859932715057878
 40
8.885847842603528
 40
9.24230125661275
 40
9.589275455016697
 40
9.921808543164104
 40
10.23479624298461
 40
10.29968150889177
 40
10.3532349388776
 40
10.4015462535515
 40
10.4648292247782
 40
10.55973900668401
 40
10.69239545985612
 40
10.84920353475666
 40
11.01626328594774
 40
11.18672024367438
 40
11.35372582577206
 40
11.50257442292421
 40
11.61866495023286
 40
11.71329869152869
 40
11.82511050573902
 40
11.94464880845711
 40
12.06929242642503
 40
12.19707290435172
 40
12.32562632860524
 40
12.45034565331274
 40
12.56646595170323
 40
12.6709900741463
 40
12.76077625936778
 40
12.8270323350669
 40
12.87429132785988
 40
12.89831990323327
 40
12.92234847860016
 40
13.53984767410319
 40
14.18294284359365
 40
14.18294284359365
 40
14.18294284359365
 40
14.18294284359365
 10
177.3067935648021
 20
14.70898038201723
 10
177.1752019758551
 20
14.82265058603232
 10
176.9124193802729
 20
15.04964496316159
 10
176.3997393441019
 20
15.89214462956288
 10
176.4106654595363
 20
15.53423377577019
 10
176.4041226527989
 20
15.39267392272132
 10
176.4028026631773
 20
15.1942130529928
 10
176.4018117602538
 20
15.02150296045982
 10
176.4024101751974
 20
14.87865373257579
 10
176.4038994301882
 20
14.78265005413358
 10
176.4055683588473
 20
14.67545503263141
 10
176.4071934954617
 20
14.56164211517581
 10
176.4092429501687
 20
14.44441572604589
 10
176.4123165501926
 20
14.32656411232969
 10
176.4156339697043
 20
14.21228087320619
 10
176.4193605340281
 20
14.10521401867276
 10
176.4217338161424
 20
14.0100740876692
 10
176.4278718888357
 20
13.92558557205695
 10
176.4239784495947
 20
13.86923087298141
 10
176.4455230443079
 20
13.79825022472356
 10
176.3680940058618
 20
13.82902677604482
 10
176.3116353240192
 20
13.82011242517615
 10
176.2540495896808
 20
13.82896218398274
 10
176.1690163478473
 20
13.79738225225946
 10
176.2009714146382
 20
13.88095155992191
 10
176.1990705282541
 20
13.94882608968309
 10
176.21079600473
 20
14.05233256764419
 10
176.2164241053001
 20
14.17002125616694
 10
176.223790217894
 20
14.30388609164423
 10
176.232075970161
 20
14.44764152872632
 10
176.2398851897428
 20
14.59714022843444
 10
176.2457571222657
 20
14.74792549402078
 10
176.2503667817968
 20
14.89699943878438
 10
176.2542632117544
 20
15.04122913163022
 10
176.2570715126564
 20
15.17583905213017
 10
176.2576698755023
 20
15.36469614347355
 10
176.261602386715
 20
15.58975494313153
 10
176.24421753785
 20
15.86367091125708
 10
176.2850417342583
 20
16.02787112098596
 10
176.1995153256002
 20
16.22749661465097
 10
176.2660558907689
 20
16.22385458403978
 10
176.2838724273231
 20
16.22413447160854
 10
176.4056801797508
 20
16.22632927398615
 10
176.5080770335461
 20
15.94675118721512
 10
176.7580021509357
 20
15.74563008536004
 10
176.987003533111
 20
15.47792614987914
 10
177.2245151213108
 20
15.22646413862374
 10
177.4486090740772
 20
14.98969974061363
 10
177.6750716283009
 20
14.73218692583077
 10
177.8325687886514
 20
14.61649335056923
 10
178.0472129612675
 20
14.27997152538792
 10
178.0422645974618
 20
14.40464754091603
 10
178.0433931602546
 20
14.46327691935737
 10
178.0428877841516
 20
14.55043662371977
 10
178.0430475158113
 20
14.64416143182872
 10
178.0430054891318
 20
14.73018971297035
 10
178.0430202040373
 20
14.79153891945496
 10
178.0429706255983
 20
14.94135231520992
 10
178.0458811522811
 20
15.17989612510104
 10
178.0259521041163
 20
15.54486509868701
 10
178.0750433936249
 20
15.80799631993414
 10
177.9177951509179
 20
16.21928904947751
 10
178.0762112872422
 20
16.16398282551749
 10
178.1311680478628
 20
16.16199686500175
 10
178.182788776674
 20
16.1626477824825
 10
178.2713198965366
 20
16.20369527738245
 10
178.2204898303169
 20
16.05696326622986
 10
178.2313389930283
 20
15.95019971954434
 10
178.2166036994848
 20
15.79085705414113
 10
178.2099976446204
 20
15.62853061652874
 10
178.2014961399917
 20
15.45992521892395
 10
178.1943227202199
 20
15.29814814703541
 10
178.188906321539
 20
15.15422331457932
 10
178.1871713967649
 20
15.03437493466926
 10
178.1875440672319
 20
14.92686101590515
 10
178.1873656126263
 20
14.81820024645586
 10
178.187701086314
 20
14.6995357016553
 10
178.1890040622183
 20
14.5755516351274
 10
178.1908887351575
 20
14.44858294171104
 10
178.1925004454849
 20
14.32153861551031
 10
178.1941403137431
 20
14.19854884492177
 10
178.1962570745751
 20
14.08300931383759
 10
178.1963848422365
 20
13.98090903955837
 10
178.2006514396555
 20
13.89009848838156
 10
178.190844008529
 20
13.83213621208786
 10
178.211847477169
 20
13.76517130132029
 10
178.1725639739897
 20
13.77291153966688
 10
177.9595307117749
 20
13.75755254145193
 10
177.7636297943185
 20
14.31403058094468
 10
177.4611197631544
 20
14.57556035348509
 10
177.3067935648021
 20
14.70898038201723
 97
        1
330
A7
 75
     1
 76
     2
 52
45.0
 41
0.1
 77
     0
 78
     1
 53
45.0
 43
0.0
 44
0.0
 45
-0.282842712474619
 46
0.0
 79
     0
 98
        1
 10
0.0
 20
0.0
  0
HATCH
  5
C5
330
48
100
AcDbEntity
  8
1
  6
Continuous
 62
     2
100
AcDbHatch
 10
0.0
 20
0.0
 30
0.0
210
0.0
220
0.0
230
1.0
  2
CUSTOM3
 70
     0
 71
     1
 91
        1
 92
        1
 93
        1
 72
     4
 94
        3
 73
     0
 74
     0
 95
      110
 96
      106
 40
0.0
 40
0.0
 40
0.0
 40
0.0
 40
0.2203406257277714
 40
0.4407808782838055
 40
0.5952494494614181
 40
0.7488431659393036
 40
0.9023581831308737
 40
1.056801968670401
 40
1.210736449099873
 40
1.363041386539779
 40
1.515315729683065
 40
1.669377239147988
 40
1.721611652756458
 40
1.773199502942843
 40
1.824933793209889
 40
1.877110426487852
 40
1.982682281206587
 40
2.078781667087424
 40
2.172809640822088
 40
2.271937807378714
 40
2.378349933379192
 40
2.494131557736267
 40
2.626681683943458
 40
2.783145050795857
 40
2.89070123294071
 40
2.993130312454608
 40
3.099869730691597
 40
3.22023781669109
 40
3.352695482737379
 40
3.481732806389631
 40
3.593499473690161
 40
3.674323013331675
 40
3.817951711952624
 40
3.946167120793735
 40
4.061405053453306
 40
4.166480796002947
 40
4.262478775059069
 40
4.350736673550855
 40
4.433071991253827
 40
4.511216293814542
 40
4.564262454117882
 40
4.618474415571511
 40
4.67012848875409
 40
4.72229687912631
 40
4.819540945314236
 40
4.931194984128036
 40
5.049996040257734
 40
5.168643755415336
 40
5.283970811762548
 40
5.392260784910373
 40
5.486512254876391
 40
5.559178233949847
 40
5.591425852853506
 40
5.626215969637895
 40
5.667155838674425
 40
5.717449290214232
 40
5.738402360944846
 40
5.784499116553816
 40
5.830595872164789
 40
5.851548942897647
 40
5.873019280661762
 40
5.924217778408304
 40
5.985325662817683
 40
6.0365241605677
 40
6.057994498334228
 40
6.236847789607484
 40
6.381409928945653
 40
6.493190424178686
 40
6.574067534230492
 40
6.691018086205558
 40
6.814881554220504
 40
6.944307823240371
 40
7.071266716065995
 40
7.19348860446184
 40
7.309042773128152
 40
7.414007203170749
 40
7.505140441886534
 40
7.53115036059971
 40
7.559221645322296
 40
7.587202218920962
 40
7.612569159499166
 40
7.662550809481045
 40
7.70287887576418
 40
7.857328205231022
 40
8.010799568088725
 40
8.165256399657618
 40
8.322232698714014
 40
8.479564855016644
 40
8.635216230290904
 40
8.790882550925822
 40
8.948305154947302
 40
9.168271839032977
 40
9.387358980987262
 40
9.608047961033503
 40
9.832914234792696
 40
9.858338694963031
 40
9.925366817230039
 40
10.02013071422762
 40
10.12876249859001
 40
10.23739428295251
 40
10.33215817995193
 40
10.39918630222396
 40
10.42461076239785
 40
10.64992019336945
 40
10.8718852453119
 40
10.8718852453119
 40
10.8718852453119
 40
10.8718852453119
 10
179.9057788376618
 20
15.7392326039819
 10
179.9092864933541
 20
15.80616462073804
 10
179.9163033987663
 20
15.94005891915858
 10
179.8198027599074
 20
16.22548554971468
 10
180.0510134726109
 20
16.16284386190283
 10
180.1919290057157
 20
16.17001554055992
 10
180.3490417757588
 20
16.16235883078243
 10
180.5025913427288
 20
16.1625275228304
 10
180.6545104935081
 20
16.16182040535432
 10
180.8142214813232
 20
16.1721015835164
 10
180.9408972601118
 20
16.15496511080751
 10
181.1370821122078
 20
16.22727260107147
 10
181.1034395279079
 20
16.12640699080116
 10
181.1052011317184
 20
16.0761925394767
 10
181.1027342073459
 20
16.02712335586467
 10
181.134707696601
 20
15.94063490846999
 10
181.0010399903256
 20
15.98997438608338
 10
180.9172208688057
 20
15.98430634314167
 10
180.8173861139324
 20
15.99465516706298
 10
180.7186576720146
 20
16.00086450411087
 10
180.6121532771111
 20
16.00697763816776
 10
180.491051169806
 20
16.01588883484585
 10
180.3703381502454
 20
16.00521605912382
 10
180.1812553843438
 20
16.06468503080366
 10
180.2129028505312
 20
15.9055832007754
 10
180.1995563316833
 20
15.80839128339905
 10
180.1974958426451
 20
15.69634065110102
 10
180.195818804467
 20
15.5769968562935
 10
180.1973336794234
 20
15.45032592155111
 10
180.1956582478671
 20
15.32301588016116
 10
180.2058844271658
 20
15.22451566404464
 10
180.1779006596581
 20
15.08388702625629
 10
180.3508029999306
 20
15.13989551134096
 10
180.4645020202772
 20
15.12719951478499
 10
180.5840151672239
 20
15.13448377051255
 10
180.6888491425071
 20
15.13878017056756
 10
180.7843084898612
 20
15.14330568258976
 10
180.8763823507032
 20
15.151492011462
 10
180.9476551782438
 20
15.14643850638111
 10
181.0544931705687
 20
15.18536425031676
 10
181.0226603598035
 20
15.1051712200588
 10
181.026616450393
 20
15.05562936846033
 10
181.0234502392013
 20
15.00557478039817
 10
181.0550791490587
 20
14.92128847612022
 10
180.9210133677692
 20
14.97425365495155
 10
180.8292322793201
 20
14.96540080890442
 10
180.7079729189603
 20
14.97570049965156
 10
180.5914113119771
 20
14.97748911767501
 10
180.4783375745879
 20
14.97787017109696
 10
180.3679246308471
 20
14.98415449472181
 10
180.2898124067841
 20
14.97189133255364
 10
180.1913625833644
 20
15.00453887616127
 10
180.2012355173561
 20
14.94769748054205
 10
180.1973923244404
 20
14.91392130557984
 10
180.1966789884269
 20
14.87119604709411
 10
180.1963369642975
 20
14.83401607262153
 10
180.1963834255345
 20
14.79487237370771
 10
180.1963649429927
 20
14.75716849497686
 10
180.1963703431806
 20
14.71944955232402
 10
180.1963697214201
 20
14.6899432474515
 10
180.1963698151545
 20
14.65873577699301
 10
180.1963704287921
 20
14.61414424908085
 10
180.1963671499336
 20
14.5596395650885
 10
180.1963759623481
 20
14.51505540201448
 10
180.1963359653416
 20
14.43117808585739
 10
180.1976024270256
 20
14.31737520677678
 10
180.1950274117843
 20
14.16830395933708
 10
180.206500938172
 20
14.06597203813905
 10
180.1823506222264
 20
13.93338903885835
 10
180.3332993946477
 20
13.97895732272021
 10
180.4428436671556
 20
13.96427012162349
 10
180.573397047392
 20
13.96920435125062
 10
180.6990312209514
 20
13.97257705323362
 10
180.8188730625601
 20
13.97711497498773
 10
180.9391362611427
 20
13.99048536182005
 10
181.0222761663516
 20
13.98068712782597
 10
181.1456080421076
 20
14.04126214623318
 10
181.1244269203956
 20
13.98532460134022
 10
181.1235950270116
 20
13.95939249372345
 10
181.1218963707558
 20
13.93197256190939
 10
181.121797488883
 20
13.89738195206385
 10
181.1203659301329
 20
13.86050408220766
 10
181.1532804192192
 20
13.76846841021809
 10
180.9551306988106
 20
13.8413201597483
 10
180.8300548294892
 20
13.81825726508608
 10
180.6673071295156
 20
13.82454021985786
 10
180.5129366450001
 20
13.82260943909927
 10
180.3566670436943
 20
13.82393762599268
 10
180.1970544465282
 20
13.82059872487863
 10
180.0540326342237
 20
13.83265795728239
 10
179.8197144881629
 20
13.76952001976922
 10
179.9173810751197
 20
14.05620527466319
 10
179.9006868780058
 20
14.24988308142661
 10
179.9146296709686
 20
14.47848242880295
 10
179.9142987846633
 20
14.63384593955049
 10
179.9143078119264
 20
14.73966336444125
 10
179.9143055876316
 20
14.80205784124214
 10
179.914306555189
 20
14.89220425248327
 10
179.9143065473262
 20
14.99621167157438
 10
179.9143053861104
 20
15.10022131375296
 10
179.9143090971502
 20
15.19036243688768
 10
179.9143011051052
 20
15.25276803097215
 10
179.9143334275019
 20
15.35868835961119
 10
179.913144078832
 20
15.5162671654474
 10
179.9082216489257
 20
15.66528219822066
 10
179.9057788376618
 20
15.7392326039819
 97
        1
330
A8
 75
     1
 76
     2
 52
45.0
 41
0.1
 77
     0
 78
     1
 53
45.0
 43
0.0
 44
0.0
 45
-0.282842712474619
 46
0.0
 79
     0
 98
        1
 10
0.0
 20
0.0
  0
HATCH
  5
C6
330
48
100
AcDbEntity
  8
1
  6
Continuous
 62
     2
100
AcDbHatch
 10
0.0
 20
0.0
 30
0.0
210
0.0
220
0.0
230
1.0
  2
CUSTOM4
 70
     0
 71
     1
 91
        1
 92
        1
 93
        1
 72
     4
 94
        3
 73
     0
 74
     0
 95
       47
 96
       43
 40
0.0
 40
0.0
 40
0.0
 40
0.0
 40
0.2207912809957213
 40
0.4459404186303129
 40
0.4902387190460468
 40
0.5327473892722008
 40
0.5742260451227034
 40
0.6155432630561759
 40
0.6568164066317246
 40
0.6982511618782457
 40
0.7407663929318116
 40
0.78513667431773
 40
1.010288833836531
 40
1.231080507002384
 40
1.451765243652613
 40
1.676638205891897
 40
1.720461045359866
 40
1.830018144043732
 40
1.972442372353362
 40
2.114866600677732
 40
2.224423699395357
 40
2.268246538883598
 40
2.493628801207433
 40
2.715602830286828
 40
2.934211330706578
 40
3.149502369855569
 40
3.231387784851214
 40
3.318231873854363
 40
3.405143198198351
 40
3.486970301720872
 40
3.702258172494316
 40
3.920866283534543
 40
4.142839325932327
 40
4.368221903865794
 40
4.412044743360274
 40
4.521601842096289
 40
4.66402607045277
 40
4.806450298809477
 40
4.91600739754717
 40
4.959830237043493
 40
5.184703515847525
 40
5.405387250767899
 40
5.405387250767899
 40
5.405387250767899
 40
5.405387250767899
 10
182.6507427258646
 20
15.73406440953872
 10
182.6568139420004
 20
15.79758482501211
 10
182.6690762107244
 20
15.9258793868963
 10
182.5604706879411
 20
16.20166220174075
 10
182.6761985896603
 20
16.17188133432056
 10
182.7171842509015
 20
16.16765556262819
 10
182.7591205797518
 20
16.16310446389608
 10
182.800419662571
 20
16.16201982929484
 10
182.8417032115556
 20
16.16310338195227
 10
182.8836148270648
 20
16.16766112711343
 10
182.924598354902
 20
16.1718743020973
 10
183.0404922843489
 20
16.20177611317533
 10
182.9295652727458
 20
15.92339806609892
 10
182.9574856365266
 20
15.74283140824953
 10
182.940426734697
 20
15.50961042346471
 10
182.9414637282103
 20
15.34906622543146
 10
182.9414099399404
 20
15.22284817558722
 10
182.9414277372481
 20
15.12428963336241
 10
182.941418858108
 20
14.99280702442963
 10
182.9414263928033
 20
14.8613284496865
 10
182.9414129405129
 20
14.7627622269409
 10
182.9414531717492
 20
14.63639735624152
 10
182.9406746403818
 20
14.4748206882287
 10
182.9565958319266
 20
14.24361821892914
 10
182.9333468885408
 20
14.05874351972002
 10
183.0360183444367
 20
13.78935602770057
 10
182.8820238362837
 20
13.82660112685817
 10
182.8004129802833
 20
13.82137994680536
 10
182.7188192292583
 20
13.8266062037835
 10
182.5648513666842
 20
13.78937069885386
 10
182.6674183421918
 20
14.05875129862878
 10
182.6442045316089
 20
14.24361585325415
 10
182.6600444655138
 20
14.47482218565638
 10
182.6593296313428
 20
14.63639712308503
 10
182.6593664569907
 20
14.7627623121052
 10
182.6593549000271
 20
14.86132756635981
 10
182.6593575019214
 20
14.9928112741722
 10
182.659364853178
 20
15.124275480312
 10
182.6593442541352
 20
15.22287786275325
 10
182.6594082192029
 20
15.34896149354427
 10
182.658173394759
 20
15.51210091383771
 10
182.6532040396746
 20
15.6605418377755
 10
182.6507427258646
 20
15.73406440953872
 97
        1
330
A9
 75
     1
 76
     2
 52
45.0
 41
0.1
 77
     0
 78
     1
 53
45.0
 43
0.0
 44
0.0
 45
-0.282842712474619
 46
0.0
 79
     0
 98
        1
 10
0.0
 20
0.0
  0
HATCH
  5
C7
330
48
100
AcDbEntity
  8
1
  6
Continuous
 62
     2
100
AcDbHatch
 10
0.0
 20
0.0
 30
0.0
210
0.0
220
0.0
230
1.0
  2
CUSTOM5
 70
     0
 71
     1
 91
        1
 92
        1
 93
        1
 72
     4
 94
        3
 73
     0
 74
     0
 95
      118
 96
      114
 40
0.0
 40
0.0
 40
0.0
 40
0.0
 40
0.1054708162973424
 40
0.2466098270052106
 40
0.3965912874591458
 40
0.5285525069754216
 40
0.6156245055642282
 40
0.6431434105797609
 40
0.7036850037986496
 40
0.7642265984505091
 40
0.7917455052355578
 40
0.928740431999005
 40
1.106572819088044
 40
1.287544879681074
 40
1.317578308030591
 40
1.39992803085723
 40
1.522968204800004
 40
1.675072986590625
 40
1.844616533180703
 40
2.019973001638767
 40
2.189516548880079
 40
2.341621331585418
 40
2.464661506320554
 40
2.547011229647118
 40
2.577044658168082
 40
2.603797890893124
 40
2.662655002908811
 40
2.721512114949594
 40
2.748265347702746
 40
2.774215307344822
 40
2.845959313407152
 40
2.954338556588351
 40
3.090194227585529
 40
3.244367517100492
 40
3.407699615844252
 40
3.571031714539402
 40
3.725205003920078
 40
3.861060674729578
 40
3.969439917716271
 40
4.041183923628943
 40
4.067133883212937
 40
4.311886746012114
 40
4.54789725833548
 40
4.764747083043949
 40
4.952749679951741
 40
5.045772974195887
 40
5.137862019644956
 40
5.330543169792991
 40
5.553448265243984
 40
5.795083855888143
 40
6.043293412177208
 40
6.285761695541166
 40
6.313902908752678
 40
6.384255941793268
 40
6.475714884766856
 40
6.56717382775889
 40
6.637526860839668
 40
6.665668074074032
 40
6.692018920328004
 40
6.749990782071069
 40
6.807962643790437
 40
6.834313490017908
 40
6.856393084245187
 40
6.913335195649839
 40
6.991194817302474
 40
7.076026942283707
 40
7.153886563725254
 40
7.210828674844808
 40
7.232908268931143
 40
7.258199334923664
 40
7.324875781592314
 40
7.419142481924971
 40
7.52720430884191
 40
7.635266135230489
 40
7.729532834168475
 40
7.796209279292797
 40
7.821500344594743
 40
7.844652988850842
 40
7.899863140541592
 40
7.965759128053759
 40
8.020969279771071
 40
8.044121924046538
 40
8.069356610160657
 40
8.109134395441481
 40
8.132238100191193
 40
8.193147867786559
 40
8.27926167887673
 40
8.377977512673946
 40
8.476693347146728
 40
8.562807160411783
 40
8.62371693082657
 40
8.646820636853521
 40
8.671988793774334
 40
8.734909185828274
 40
8.816705695188988
 40
8.898502204815587
 40
8.961422597378077
 40
8.98659075455119
 40
9.012941600733342
 40
9.070913462380425
 40
9.128885324081914
 40
9.155236170325235
 40
9.180404327929278
 40
9.24332472194838
 40
9.325121234212173
 40
9.406917746637856
 40
9.46983814197834
 40
9.495006288271114
 40
9.517811184379255
 40
9.572192090487254
 40
9.637098333281486
 40
9.691479239515685
 40
9.714284125643724
 40
9.714284125643724
 40
9.714284125643724
 40
9.714284125643724
 10
185.2874469028653
 20
15.2688916318772
 10
185.3090990569037
 20
15.24111869242812
 10
185.3597257109474
 20
15.17618054561236
 10
185.4349383202592
 20
15.06891060312899
 10
185.5248482274346
 20
14.95377438266625
 10
185.5709169676674
 20
14.85357045748321
 10
185.6655825294654
 20
14.78434006814942
 10
185.6204439320413
 20
14.73771639678273
 10
185.5947047785789
 20
14.69660308866038
 10
185.5645196708011
 20
14.66065971727939
 10
185.5193684730561
 20
14.58579782596094
 10
185.4710504458563
 20
14.80782524253606
 10
185.3968539713073
 20
14.84510677337712
 10
185.2836047324606
 20
15.11610202130601
 10
185.288513357817
 20
15.00095328446229
 10
185.2868486556306
 20
14.92836675781627
 10
185.2876830076714
 20
14.80625588483986
 10
185.2873609540264
 20
14.6591380081046
 10
185.2875076912456
 20
14.49307063956557
 10
185.2872950092722
 20
14.32187554608602
 10
185.2879497252034
 20
14.15552828635498
 10
185.2859192461139
 20
14.00935173055693
 10
185.291346039993
 20
13.8847104747461
 10
185.2804930868708
 20
13.81718656540627
 10
185.2956739155555
 20
13.75549061417023
 10
185.2457895108134
 20
13.76727503897002
 10
185.2017150342523
 20
13.7594382277997
 10
185.1582371630201
 20
13.76760441372702
 10
185.1092346786489
 20
13.75538056738469
 10
185.1218731234825
 20
13.80960667249313
 10
185.113018296845
 20
13.86936918907558
 10
185.1175058770315
 20
13.97922029044371
 10
185.1157960135993
 20
14.11029975405679
 10
185.1163550915986
 20
14.26198011444328
 10
185.1161928768695
 20
14.42211074929953
 10
185.1162269924675
 20
14.58236865674566
 10
185.1162514960128
 20
14.73370247520439
 10
185.1161453543226
 20
14.86582156338601
 10
185.1164299141932
 20
14.97294802533193
 10
185.1158675547568
 20
15.03808619579474
 10
185.1180765083691
 20
15.16618957858675
 10
185.0319435998603
 20
14.79097610391575
 10
184.9555140818501
 20
14.63918193123394
 10
184.8660040767834
 20
14.47766206446308
 10
184.7640413217328
 20
14.20471848820172
 10
184.7187976491039
 20
14.36717346596509
 10
184.6102355941672
 20
14.45605432058121
 10
184.7995791751753
 20
14.6054979496141
 10
184.85653405457
 20
14.79749136974925
 10
184.9717520993353
 20
15.02899622906757
 10
184.9940151630133
 20
15.21797259759065
 10
185.1771905152141
 20
15.49454089325931
 10
185.0538033597552
 20
15.48698978832095
 10
184.9925684166834
 20
15.48856772366119
 10
184.9081999617065
 20
15.48882592573674
 10
184.8204235085966
 20
15.48544845751206
 10
184.7656768696123
 20
15.49394814982021
 10
184.7104703026025
 20
15.48048561049788
 10
184.7222823035537
 20
15.52931442126764
 10
184.7142496151795
 20
15.57269004896709
 10
184.7228186104679
 20
15.61509438309573
 10
184.7102943409158
 20
15.66267796552119
 10
184.7555101538735
 20
15.65267212995108
 10
184.8014815562725
 20
15.65894105174062
 10
184.877722204771
 20
15.65593561405872
 10
184.9561296131995
 20
15.65770448278541
 10
185.0323992648934
 20
15.65464793981659
 10
185.0783009459475
 20
15.66103971376176
 10
185.12317339654
 20
15.65093822978896
 10
185.1105552275635
 20
15.70157201581898
 10
185.1191936582707
 20
15.7550126188207
 10
185.1152361595445
 20
15.8486325513168
 10
185.1162325068335
 20
15.95112606688924
 10
185.1171927413074
 20
16.05353270248163
 10
185.1133211458006
 20
16.14735929609321
 10
185.1217789814365
 20
16.20036542840353
 10
185.1093075932836
 20
16.25211435651189
 10
185.1542106389851
 20
16.23850747226757
 10
185.1955083836773
 20
16.24100480320586
 10
185.2595344281051
 20
16.23648060574487
 10
185.2986111148787
 20
16.22781003043309
 10
185.3476543498743
 20
16.23515102070686
 10
185.3225080030591
 20
16.19602896051758
 10
185.2815901333723
 20
16.2056384245581
 10
185.2910109616604
 20
16.15540148169778
 10
185.2855647318746
 20
16.1038594563949
 10
185.2881699601804
 20
16.0195970758452
 10
185.2870102202153
 20
15.92559135583408
 10
185.2883591064231
 20
15.83196865395526
 10
185.2849970101508
 20
15.74679517552222
 10
185.2920959917769
 20
15.69716856072044
 10
185.2812569154545
 20
15.64993694969989
 10
185.3304010225246
 20
15.66201674936852
 10
185.3794877630147
 20
15.65447393363011
 10
185.4573714280642
 20
15.65686070361433
 10
185.5350365172896
 20
15.65899381905415
 10
185.5845393931356
 20
15.65193391922454
 10
185.634459475064
 20
15.66360151936214
 10
185.6223198516882
 20
15.61540235371393
 10
185.6305838229144
 20
15.57249219801237
 10
185.6223198650784
 20
15.52958201851385
 10
185.6344594549855
 20
15.48138288754865
 10
185.5845395158747
 20
15.49305034471512
 10
185.5350350651204
 20
15.48599202435047
 10
185.4573784382972
 20
15.48811665228604
 10
185.379464386576
 20
15.49053389365761
 10
185.3304500352717
 20
15.48291848194486
 10
185.2813246108943
 20
15.49507952557593
 10
185.2915559988571
 20
15.45073013424159
 10
185.2856677678053
 20
15.40925436202912
 10
185.2878788305569
 20
15.34915394315303
 10
185.2874109346146
 20
15.3022578276289
 10
185.2874386992913
 20
15.27650146418197
 10
185.2874469028653
 20
15.2688916318772
 97
        1
330
AA
 75
     1
 76
     2
 52
45.0
 41
0.1
 77
     0
 78
     1
 53
45.0
 43
0.0
 44
0.0
 45
-0.282842712474619
 46
0.0
 79
     0
 98
        1
 10
0.0
 20
0.0
  0
HATCH
  5
C8
330
48
100
AcDbEntity
  8
1
  6
Continuous
 62
     2
100
AcDbHatch
 10
0.0
 20
0.0
 30
0.0
210
0.0
220
0.0
230
1.0
  2
CUSTOM6
 70
     0
 71
     1
 91
        1
 92
        1
 93
        1
 72
     4
 94
        3
 73
     0
 74
     0
 95
       91
 96
       87
 40
0.0
 40
0.0
 40
0.0
 40
0.0
 40
0.0345987051695434
 40
0.1258134969461085
 40
0.2547723404888703
 40
0.4026032099153841
 40
0.5504340793416704
 40
0.679392922883608
 40
0.770607714657132
 40
0.8052064287780925
 40
1.124852390615278
 40
1.427402236308875
 40
1.706356627453516
 40
1.955541417875193
 40
2.169485938566338
 40
2.344350786664808
 40
2.480568411561938
 40
2.590440557428933
 40
2.649189927151109
 40
2.749320643306298
 40
2.912632739879996
 40
3.147745656000204
 40
3.244827496385139
 40
3.338490056946681
 40
3.583815413207099
 40
3.761423943238459
 40
3.886956104362623
 40
3.985855451886828
 40
4.091766255337741
 40
4.250186473811906
 40
4.422734315084529
 40
4.628285684838606
 40
4.87209322775845
 40
5.152549652145561
 40
5.464967135837538
 40
5.803201477852461
 40
6.160362988813938
 40
6.193449448276022
 40
6.284170385501676
 40
6.419718138764546
 40
6.587285046385825
 40
6.77406344672371
 40
6.967245678113693
 40
7.154024078817736
 40
7.321590987026093
 40
7.457138740890452
 40
7.547859678556216
 40
7.580946138182776
 40
7.608533084714828
 40
7.669224367077804
 40
7.729915649430021
 40
7.757502595950072
 40
7.790278062553526
 40
7.880146277431024
 40
8.014419963180487
 40
8.180411842398016
 40
8.365434637679485
 40
8.556801071622814
 40
8.741823866830899
 40
8.907815745916437
 40
9.04208943150762
 40
9.131957646249745
 40
9.164733112797322
 40
9.415425063140244
 40
9.66798618095871
 40
9.694169807462877
 40
9.756607686047836
 40
9.831130315322643
 40
9.893568193900107
 40
9.919751820398924
 40
9.950967964690737
 40
9.9964216312109
 40
10.22087981037479
 40
10.44341866197566
 40
10.47847970788879
 40
10.57091337438779
 40
10.70159545461259
 40
10.85140174170387
 40
11.0012080288051
 40
11.13189010907416
 40
11.22432377583041
 40
11.2593848093899
 40
11.28697175596178
 40
11.34766303835952
 40
11.40835432042102
 40
11.43594125892137
 40
11.43594125892137
 40
11.43594125892137
 40
11.43594125892137
 10
190.081811433329
 20
15.55242795125078
 10
190.0702785844942
 20
15.55242790287917
 10
190.0283409444999
 20
15.55242773704165
 10
189.9434129719027
 20
15.5524312580091
 10
189.8207688553129
 20
15.55240926435879
 10
189.6791206916994
 20
15.55250801177055
 10
189.537975369849
 20
15.55214686232421
 10
189.4141351317905
 20
15.5532188360909
 10
189.3317217825382
 20
15.55092249091269
 10
189.1727791229694
 20
15.5604856937342
 10
189.3503402353376
 20
15.1978539431137
 10
189.3379739205453
 20
14.95243127723115
 10
189.4064519473864
 20
14.66862501324835
 10
189.469302432097
 20
14.43250999939035
 10
189.5452253431728
 20
14.23326740396128
 10
189.6303189577017
 20
14.07745347451375
 10
189.7244607592936
 20
13.97657857781392
 10
189.8282648207727
 20
13.92465852638966
 10
189.9125872030774
 20
13.97606484379614
 10
189.9351322179452
 20
14.09144544037517
 10
189.974573097537
 20
14.21885149702382
 10
189.9202919734942
 20
14.53622328086754
 10
190.0451218072474
 20
14.3898218014091
 10
190.2019291513602
 20
14.35795300331166
 10
190.0947720007059
 20
14.12421357767628
 10
190.0808711209867
 20
13.95972776583657
 10
190.0234709467226
 20
13.8313086912248
 10
189.9335020145009
 20
13.76018802352828
 10
189.8095274657878
 20
13.74432324142254
 10
189.663427319686
 20
13.77993797554172
 10
189.5243894320284
 20
13.90000570500277
 10
189.4102003962145
 20
14.07435682550321
 10
189.3146141301486
 20
14.29946603111239
 10
189.2318652572627
 20
14.56388246006442
 10
189.1807179256412
 20
14.88187933098544
 10
189.0770189207338
 20
15.15543728488912
 10
189.2042841208522
 20
15.56005818612869
 10
189.0357890623019
 20
15.55112367849679
 10
188.9511995787078
 20
15.55315961418364
 10
188.8189876387628
 20
15.55213937388407
 10
188.6560505094103
 20
15.5525323031843
 10
188.4733759170534
 20
15.5523569631337
 10
188.2847057373382
 20
15.55260105307468
 10
188.1014469020189
 20
15.55185657906238
 10
187.9404746832718
 20
15.55416360522426
 10
187.8029808335275
 20
15.54799804883663
 10
187.7289590372311
 20
15.56032838458212
 10
187.6613215186856
 20
15.54329323723557
 10
187.6732373719269
 20
15.59524438447528
 10
187.6655677285694
 20
15.64071424966529
 10
187.6732592225115
 20
15.68614453703706
 10
187.6613141797762
 20
15.7380239598457
 10
187.7283588305867
 20
15.72119143490264
 10
187.8017375665676
 20
15.73335409092671
 10
187.9379128305272
 20
15.72727231074958
 10
188.0973811801512
 20
15.72954834315058
 10
188.2789173085837
 20
15.72881233998962
 10
188.465803486218
 20
15.72905954196134
 10
188.6468012316836
 20
15.72886400799254
 10
188.8080802578879
 20
15.72932234714839
 10
188.9393882124887
 20
15.72812673751206
 10
189.0225051322597
 20
15.73051347319742
 10
189.1556236547814
 20
15.72230605725464
 10
189.0645893502659
 20
15.97752868952655
 10
188.9789633074419
 20
16.24164358328245
 10
189.0990589003455
 20
16.22904442969165
 10
189.1514264948544
 20
16.22694235763075
 10
189.2214497569715
 20
16.22535399889657
 10
189.2671922337817
 20
16.21602567538112
 10
189.3220812646933
 20
16.22545966915427
 10
189.2963574785682
 20
16.17733028655169
 10
189.1825397571452
 20
16.18266829744176
 10
189.3159346621136
 20
15.95449174576774
 10
189.1943658735472
 20
15.72156856595923
 10
189.3223188769412
 20
15.73087258884438
 10
189.4049048406461
 20
15.7280100175468
 10
189.5307214850824
 20
15.72923437412302
 10
189.6741469838059
 20
15.72932431888964
 10
189.8157420951728
 20
15.72746163183853
 10
189.9459127249969
 20
15.73333075937162
 10
190.0193452286191
 20
15.72070340823204
 10
190.0891112922097
 20
15.73877563110413
 10
190.0775772605397
 20
15.68612850546326
 10
190.0833184346682
 20
15.64221317686547
 10
190.0816615770912
 20
15.5908998267655
 10
190.081775756167
 20
15.56158792021635
 10
190.081811433329
 20
15.55242795125078
 97
        1
330
AB
 75
     1
 76
     2
 52
45.0
 41
0.1
 77
     0
 78
     1
 53
45.0
 43
0.0
 44
0.0
 45
-0.282842712474619
 46
0.0
 79
     0
 98
        1
 10
0.0
 20
0.0
  0
HATCH
  5
C9
330
48
100
AcDbEntity
  8
1
  6
Continuous
 62
     2
100
AcDbHatch
 10
0.0
 20
0.0
 30
0.0
210
0.0
220
0.0
230
1.0
  2
CUSTOM7
 70
     0
 71
     1
 91
        1
 92
        1
 93
        1
 72
     4
 94
        3
 73
     0
 74
     0
 95
       75
 96
       71
 40
0.0
 40
0.0
 40
0.0
 40
0.0
 40
0.0342546099129691
 40
0.1245622414432346
 40
0.2522385480897536
 40
0.398599192294068
 40
0.5449598364980839
 40
0.6726361431438834
 40
0.7629437746736978
 40
0.797198393529799
 40
1.101723623449638
 40
1.408591244036586
 40
1.43333247169029
 40
1.487763172450085
 40
1.54219387308191
 40
1.566935100592459
 40
1.923523931821772
 40
2.271755704953545
 40
2.590579755100788
 40
2.858943305581075
 40
2.88912033930907
 40
2.918305855190988
 40
2.941366645531111
 40
2.996357760973015
 40
3.061992318140582
 40
3.116983433626783
 40
3.140044223997462
 40
3.41127312293638
 40
3.732441619741156
 40
3.761068217532854
 40
3.837787499630416
 40
3.948858699126053
 40
4.080541049104427
 40
4.21909378262581
 40
4.350776132722359
 40
4.461847332405693
 40
4.538566614678423
 40
4.567193212544669
 40
4.594907573998928
 40
4.666381453557495
 40
4.764111044011106
 40
4.870592538125909
 40
4.96832212864236
 40
5.039796008287073
 40
5.067510369784504
 40
5.094263603185718
 40
5.15312071666836
 40
5.21197783015081
 40
5.238731063551816
 40
5.272290535139083
 40
5.363380529444887
 40
5.497618415781593
 40
5.660621563453807
 40
5.838007341749508
 40
6.015393119910888
 40
6.178396267038485
 40
6.312634151842465
 40
6.403724143059454
 40
6.43728361267255
 40
6.464036846261168
 40
6.522893960004788
 40
6.581751071484057
 40
6.608504301591005
 40
6.637253941281152
 40
6.711397748903032
 40
6.812778057283616
 40
6.923237199249392
 40
7.024617507624008
 40
7.098761315207689
 40
7.127510946007639
 40
7.127510946007639
 40
7.127510946007639
 40
7.127510946007639
 10
188.4418622390565
 20
14.95849128473263
 10
188.4418622819707
 20
14.94707313408719
 10
188.441862448113
 20
14.90555257842628
 10
188.4418593081787
 20
14.8214692200377
 10
188.4418788279802
 20
14.70004497322327
 10
188.4417912187738
 20
14.55980494047446
 10
188.4421116235231
 20
14.42006556794575
 10
188.4411605909741
 20
14.29745038894928
 10
188.4431978595968
 20
14.21587074438041
 10
188.4349433178746
 20
14.06271267077698
 10
188.7430797940901
 20
14.22560236054721
 10
189.0350645173737
 20
14.39482938688001
 10
189.0408354448707
 20
14.25973235781911
 10
189.0455471719891
 20
14.21617221160444
 10
189.0482535411917
 20
14.17211249350545
 10
189.0672545672961
 20
14.02272590363135
 10
188.6583942247302
 20
14.08681172241261
 10
188.3793710348832
 20
13.97296341411018
 10
188.1018081587167
 20
13.87364095811137
 10
187.8099837184399
 20
13.91630687596363
 10
187.7869144678658
 20
13.8132167974454
 10
187.7537474383333
 20
13.7869109124447
 10
187.748065396274
 20
13.83455309036306
 10
187.7284214559044
 20
13.87180336115069
 10
187.7095089485624
 20
13.93007387847564
 10
187.6942849867707
 20
13.97385201007805
 10
187.6477246372935
 20
14.08759421046312
 10
187.989089731245
 20
14.05576301120046
 10
188.2679649367389
 20
14.02161435106476
 10
188.2617753034907
 20
14.16913976479652
 10
188.2630935452775
 20
14.24013150908832
 10
188.2624831689949
 20
14.34719767958661
 10
188.2625871570726
 20
14.47398529785997
 10
188.2629987964057
 20
14.6084924349605
 10
188.261390784197
 20
14.73395549951183
 10
188.2659902567927
 20
14.84505246719117
 10
188.256418650221
 20
14.90761886800686
 10
188.2704001783692
 20
14.96595388295001
 10
188.2147384386705
 20
14.95289710582236
 10
188.1575655197822
 20
14.96136307749497
 10
188.0616048925648
 20
14.95729976080635
 10
187.9633767522822
 20
14.95970889852474
 10
187.867258245756
 20
14.95551600613386
 10
187.8104648525812
 20
14.96429346441162
 10
187.7550356873385
 20
14.95094936850121
 10
187.7670679427918
 20
15.00036910959256
 10
187.7592003173938
 20
15.04393988030395
 10
187.766629556383
 20
15.08830469118525
 10
187.7551930564144
 20
15.13902297763992
 10
187.8232102370134
 20
15.12162460757743
 10
187.8968496879747
 20
15.13417450237189
 10
188.0325064058211
 20
15.12799677011096
 10
188.1884909024526
 20
15.13029203093085
 10
188.3615926358144
 20
15.1294096826253
 10
188.5346942964182
 20
15.13029207142408
 10
188.6906789811218
 20
15.1279966295555
 10
188.8263351889798
 20
15.13417486262431
 10
188.8999756705653
 20
15.12162394218335
 10
188.9679914174724
 20
15.13902373012143
 10
188.9565590885923
 20
15.08830130414555
 10
188.9639539458297
 20
15.04397060811107
 10
188.9562039912272
 20
15.00028307550195
 10
188.9681203741877
 20
14.95063590098476
 10
188.9108170223618
 20
14.96461411338424
 10
188.8520145789773
 20
14.95539755673253
 10
188.75252936332
 20
14.95952268164928
 10
188.6494280098349
 20
14.95822760025886
 10
188.5537846354575
 20
14.9585407707764
 10
188.4857467971616
 20
14.95848776697144
 10
188.4514462213444
 20
14.95849051871655
 10
188.4418622390565
 20
14.95849128473263
 97
        1
330
AC
 75
     1
 76
     2
 52
45.0
 41
0.1
 77
     0
 78
     1
 53
45.0
 43
0.0
 44
0.0
 45
-0.282842712474619
 46
0.0
 79
     0
 98
        1
 10
0.0
 20
0.0
  0
HATCH
  5
CA
330
48
100
AcDbEntity
  8
1
  6
Continuous
 62
     2
100
AcDbHatch
 10
0.0
 20
0.0
 30
0.0
210
0.0
220
0.0
230
1.0
  2
CUSTOM8
 70
     0
 71
     1
 91
        1
 92
        1
 93
        1
 72
     4
 94
        3
 73
     0
 74
     0
 95
       15
 96
       11
 40
0.0
 40
0.0
 40
0.0
 40
0.0
 40
0.2785535985096802
 40
0.5215624748198895
 40
0.6076917376040945
 40
0.6938210001741886
 40
0.9405019146455296
 40
1.221691403489209
 40
1.300471877081147
 40
1.379252341684956
 40
1.379252341684956
 40
1.379252341684956
 40
1.379252341684956
 10
189.5681493631
 20
16.22930267330381
 10
189.6296017794178
 20
16.17691646592716
 10
189.7446649974114
 20
16.07882876798225
 10
190.0397348497245
 20
15.92889785897218
 10
189.9025147631857
 20
15.84343227515015
 10
189.8041227843778
 20
15.71085785201556
 10
189.713003359065
 20
16.01616985781424
 10
189.3636839480656
 20
16.07967869465375
 10
189.511925837657
 20
16.17896509880879
 10
189.5494081874237
 20
16.21252348402383
 10
189.5681493631
 20
16.22930267330381
 97
        1
330
AD
 75
     1
 76
     2
 52
45.0
 41
0.1
 77
     0
 78
     1
 53
45.0
 43
0.0
 44
0.0
 45
-0.282842712474619
 46
0.0
 79
     0
 98
        1
 10
0.0
 20
0.0
  0
HATCH
  5
CB
330
48
100
AcDbEntity
  8
1
  6
Continuous
 62
     2
100
AcDbHatch
 10
0.0
 20
0.0
 30
0.0
210
0.0
220
0.0
230
1.0
  2
CUSTOM9
 70
     0
 71
     1
 91
        1
 92
        1
 93
        1
 72
     4
 94
        3
 73
     0
 74
     0
 95
       35
 96
       31
 40
0.0
 40
0.0
 40
0.0
 40
0.0
 40
0.0335231036621002
 40
0.0713218571711881
 40
0.4278866681486486
 40
0.8116865841963508
 40
1.198190237999961
 40
1.561379546812588
 40
1.659983174621946
 40
1.759315573807097
 40
2.132719617230933
 40
2.52523336358866
 40
2.910815397779547
 40
3.265244364303175
 40
3.592606723581878
 40
3.964386154603807
 40
4.359942131737651
 40
4.758154118639133
 40
4.843846538699728
 40
4.936650065543066
 40
5.25661660253717
 40
5.58170740441588
 40
5.899719158307996
 40
6.198363494280544
 40
6.466301046615557
 40
6.493895311536879
 40
6.5596970201967
 40
6.638234543442303
 40
6.704036252154112
 40
6.731630508422918
 40
6.731630508422918
 40
6.731630508422918
 40
6.731630508422918
 10
191.973601056867
 20
16.23463843719134
 10
191.967600609779
 20
16.22480690542323
 10
191.9548344099157
 20
16.20388988579801
 10
191.7949362006555
 20
16.17127126532676
 10
192.2322025842338
 20
15.88206680336705
 10
192.4345394828262
 20
15.68041138358439
 10
192.6819564267973
 20
15.43749387603275
 10
193.1831513624606
 20
15.3604766275778
 10
193.012556219897
 20
15.21876939174654
 10
192.9383299463201
 20
15.01710366209111
 10
192.6131432248188
 20
15.36956287174725
 10
192.3277741670665
 20
15.53175212559564
 10
192.0337604077658
 20
15.73687130053048
 10
191.8084452691133
 20
16.21827488595455
 10
191.5993085055522
 20
15.75343046609223
 10
191.3207873674834
 20
15.54350952252909
 10
191.0371383177209
 20
15.37424456359988
 10
190.7078639527833
 20
15.00142360907936
 10
190.6277012318225
 20
15.19708014459004
 10
190.4759724909745
 20
15.32491104190595
 10
190.9083395826796
 20
15.40454031765935
 10
191.0962565329766
 20
15.60026634915475
 10
191.3468477420504
 20
15.81632996916752
 10
191.5714350470161
 20
15.98190992300062
 10
191.6259775409712
 20
16.26133964636825
 10
191.7494661029011
 20
16.24737950408079
 10
191.806027334452
 20
16.24521268867646
 10
191.8761870984945
 20
16.24046859881361
 10
191.9333414022107
 20
16.23709429350541
 10
191.964419032084
 20
16.23519854711119
 10
191.973601056867
 20
16.23463843719134
 97
        1
330
AE
 75
     1
 76
     2
 52
45.0
 41
0.1
 77
     0
 78
     1
 53
45.0
 43
0.0
 44
0.0
 45
-0.282842712474619
 46
0.0
 79
     0
 98
        1
 10
0.0
 20
0.0
  0
HATCH
  5
CC
330
48
100
AcDbEntity
  8
1
  6
Continuous
 62
     2
100
AcDbHatch
 10
0.0
 20
0.0
 30
0.0
210
0.0
220
0.0
230
1.0
  2
CUSTOM10
 70
     0
 71
     1
 91
        1
 92
        1
 93
        1
 72
     4
 94
        3
 73
     0
 74
     0
 95
       91
 96
       87
 40
0.0
 40
0.0
 40
0.0
 40
0.0
 40
0.0267532254356701
 40
0.0856103386464102
 40
0.1444674521996621
 40
0.1712206856618514
 40
0.2039416005642536
 40
0.2955601971652484
 40
0.4362601844616918
 40
0.616225284450725
 40
0.8256392189704698
 40
1.054685709844411
 40
1.293548478893474
 40
1.532411247938218
 40
1.761457738799483
 40
1.970871673298451
 40
2.150836773256647
 40
2.29153676049548
 40
2.383155356836586
 40
2.415876284101206
 40
2.442629517487851
 40
2.501486630948981
 40
2.560343744424128
 40
2.587096977826401
 40
2.6170681944408
 40
2.699247336755941
 40
2.822032643466254
 40
2.973822353257755
 40
3.143014704823197
 40
3.318007936879748
 40
3.487200288186581
 40
3.638989997548062
 40
3.761775303794532
 40
3.843954445752867
 40
3.873925662229563
 40
3.89081277350027
 40
3.907699884771422
 40
3.937960767857049
 40
3.980983618142053
 40
4.199085915228211
 40
4.439444339236989
 40
4.677588241260633
 40
5.050698317837519
 40
5.448212454762876
 40
5.85529121804443
 40
6.138575438885125
 40
6.417434507583933
 40
6.444551104393592
 40
6.504207617362868
 40
6.563864130314193
 40
6.590980727103762
 40
6.848609460381145
 40
7.109611990668063
 40
7.352910904445765
 40
7.557830220705186
 40
7.587518925913103
 40
7.652834077375545
 40
7.718149228845528
 40
7.74783793406183
 40
7.854880190300753
 40
7.976511257403326
 40
8.36948789659207
 40
8.757514959223391
 40
9.126072419330882
 40
9.460639380391887
 40
9.746695593035572
 40
9.777569943118364
 40
9.807050320931541
 40
9.830377336128674
 40
9.88600329543575
 40
9.952395569429665
 40
10.00802152870602
 40
10.03134854388194
 40
10.21356951009568
 40
10.42203479292847
 40
10.66154556731043
 40
10.91693789564284
 40
11.15832906556545
 40
11.189826745966
 40
11.27286608520387
 40
11.39026653033332
 40
11.52484752840865
 40
11.65942852648422
 40
11.77682897161463
 40
11.8598683108566
 40
11.89136598230405
 40
11.89136598230405
 40
11.89136598230405
 40
11.89136598230405
 10
190.7027885008197
 20
14.70699600701772
 10
190.7028237765289
 20
14.71587847311985
 10
190.7029366710797
 20
14.74430237047346
 10
190.7012984568489
 20
14.79409639169803
 10
190.7069750292912
 20
14.83657564478154
 10
190.6956928731707
 20
14.88730154856847
 10
190.7632296979033
 20
14.87012900740109
 10
190.8388029210701
 20
14.88290227165996
 10
190.9828357056001
 20
14.87629729457382
 10
191.1569419185428
 20
14.87888462206466
 10
191.3639599611004
 20
14.87800591955553
 10
191.5894688172378
 20
14.87828207920026
 10
191.8251162293406
 20
14.87818339658663
 10
192.0607640531349
 20
14.87828184412767
 10
192.2862717580626
 20
14.87800678190789
 10
192.4932934632805
 20
14.87888186270735
 10
192.6673888915288
 20
14.87630522678446
 10
192.8114492071986
 20
14.88288290449214
 10
192.8869691915292
 20
14.87016243405604
 10
192.954577603703
 20
14.88726400191686
 10
192.9430840140676
 20
14.83674785802941
 10
192.9505104581733
 20
14.79253252226501
 10
192.9428838927986
 20
14.7486796650361
 10
192.9546489459425
 20
14.69878374479328
 10
192.8930788491983
 20
14.71393227712512
 10
192.8256791738672
 20
14.70310665350673
 10
192.7013004056221
 20
14.70852031626236
 10
192.5554428236571
 20
14.70649205390785
 10
192.3893576440086
 20
14.70715777578387
 10
192.2188412621725
 20
14.70689643521242
 10
192.051979085539
 20
14.70721553391094
 10
191.9087346827106
 20
14.70635302590762
 10
191.7773313869835
 20
14.70863300482987
 10
191.7239859134658
 20
14.70407704374202
 10
191.6485188456913
 20
14.70999914992877
 10
191.6769075779233
 20
14.70094169343353
 10
191.7033652409543
 20
14.69725912268928
 10
191.6633522907702
 20
14.66654271968276
 10
191.571366369187
 20
14.67667591174631
 10
191.5439396207069
 20
14.43032502247787
 10
191.4478793967235
 20
14.27499558764374
 10
191.1917277964474
 20
13.94525417931569
 10
191.7627537732764
 20
14.08430022210452
 10
192.0173656320517
 20
14.08291779973363
 10
192.6279647048618
 20
13.99790569242085
 10
192.3340698578084
 20
14.29685417558204
 10
192.0133304286518
 20
14.44330856901774
 10
192.1313543360434
 20
14.50025540818287
 10
192.1724716466261
 20
14.52420099873349
 10
192.2156812394412
 20
14.54599758811229
 10
192.3174574094449
 20
14.60928721253907
 10
192.4328867625247
 20
14.35147151408781
 10
192.6329591642276
 20
14.2161604111368
 10
192.7269077387228
 20
14.03792795138881
 10
192.9558829746393
 20
13.87997821027049
 10
192.8596031846709
 20
13.829159725763
 10
192.8167959763779
 20
13.79881292523053
 10
192.771824352878
 20
13.77466130281461
 10
192.7121720925213
 20
13.72552146747568
 10
192.6789731061326
 20
13.85997475673614
 10
192.5582013350794
 20
14.01594265286574
 10
192.197097600598
 20
13.88569928059558
 10
191.8385061955541
 20
13.90224694409483
 10
191.457092045008
 20
13.89331229351864
 10
191.1703455282891
 20
13.82882671672411
 10
190.8592055599717
 20
13.94230668192821
 10
190.8268737818788
 20
13.83122259927766
 10
190.7896178253318
 20
13.81196313850011
 10
190.7865737632753
 20
13.85874784087295
 10
190.7679892860607
 20
13.89806853919135
 10
190.7512436616778
 20
13.95765983478232
 10
190.7383730915753
 20
14.00201969871284
 10
190.7042327806429
 20
14.09106331120202
 10
190.9482714457754
 20
14.02181042943769
 10
191.1441394486671
 20
14.00030369057746
 10
191.2395426381278
 20
14.28226484478463
 10
191.2945135769598
 20
14.44363045421122
 10
191.5159619357157
 20
14.71391177589737
 10
191.3849239381217
 20
14.70548446853735
 10
191.3110026555855
 20
14.70779008496969
 10
191.1977459876244
 20
14.70671378321658
 10
191.0694251807485
 20
14.7070763907651
 10
190.9404252030416
 20
14.70697724466085
 10
190.8287840946292
 20
14.70699932712572
 10
190.7514663970028
 20
14.7069957918967
 10
190.7132876532011
 20
14.70699595845081
 10
190.7027885008197
 20
14.70699600701772
 97
        1
330
AF
 75
     1
 76
     2
 52
45.0
 41
0.1
 77
     0
 78
     1
 53
45.0
 43
0.0
 44
0.0
 45
-0.282842712474619
 46
0.0
 79
     0
 98
        1
 10
0.0
 20
0.0
  0
HATCH
  5
CD
330
48
100
AcDbEntity
  8
1
  6
Continuous
 62
     2
100
AcDbHatch
 10
0.0
 20
0.0
 30
0.0
210
0.0
220
0.0
230
1.0
  2
CUSTOM11
 70
     0
 71
     1
 91
        1
 92
        1
 93
        1
 72
     4
 94
        3
 73
     0
 74
     0
 95
      131
 96
      127
 40
0.0
 40
0.0
 40
0.0
 40
0.0
 40
0.0195577029826198
 40
0.0426490537461581
 40
0.2863607575856359
 40
0.5344948436189292
 40
0.7842238845573161
 40
0.8737315789467376
 40
0.9803832810313134
 40
1.092842274517039
 40
1.199761146656798
 40
1.289788768186526
 40
1.351573580786284
 40
1.370727117561529
 40
1.416400936017955
 40
1.470914848356099
 40
1.516588666791922
 40
1.535742203553003
 40
1.634216592293308
 40
1.760283341175101
 40
1.897966686682232
 40
2.031216387369083
 40
2.049689751138077
 40
2.101115601647013
 40
2.179502577740132
 40
2.278859318314247
 40
2.393194462258906
 40
2.516516648384021
 40
2.64283451540615
 40
2.766156701983652
 40
2.880491846754769
 40
2.979848588358811
 40
3.05823556544399
 40
3.109661416669145
 40
3.12813478070432
 40
3.146783742386637
 40
3.191254343315469
 40
3.244332157316071
 40
3.288802758225946
 40
3.307451719895218
 40
3.327717853844831
 40
3.38374775358019
 40
3.46838866592458
 40
3.574487837698889
 40
3.694892515728993
 40
3.822449946852132
 40
3.950007377920521
 40
4.070412055800613
 40
4.176511227368168
 40
4.261152139501615
 40
4.317182039076808
 40
4.337448172964727
 40
4.620011002696378
 40
4.885096638397581
 40
4.945373043518405
 40
5.014107710488757
 40
5.070481727652089
 40
5.319246955636567
 40
5.584812164506062
 40
5.859000912056936
 40
6.133746937542104
 40
6.401732212968915
 40
6.420736683995535
 40
6.472845717451128
 40
6.550702743894113
 40
6.646951193874322
 40
6.754234497930645
 40
6.865196086587452
 40
6.97247939035791
 40
7.068727839772101
 40
7.14658486545111
 40
7.198693898189339
 40
7.21769836890548
 40
7.234950401630956
 40
7.276089864269999
 40
7.325191803516106
 40
7.36633126609049
 40
7.38358329876984
 40
7.402779163492245
 40
7.453386443254648
 40
7.524934666445678
 40
7.606953361406018
 40
7.688972056429198
 40
7.760520279784449
 40
7.811127559734719
 40
7.83032342454634
 40
7.84784405529997
 40
7.894799345667011
 40
7.962779392744699
 40
8.043374293560746
 40
8.128174145149652
 40
8.208769044817457
 40
8.276749090377157
 40
8.323704379669715
 40
8.34122501005645
 40
8.358497614800598
 40
8.401679126686775
 40
8.457815092185832
 40
8.513951057728237
 40
8.557132569708136
 40
8.574405174505179
 40
8.60234066861651
 40
8.643455660540106
 40
8.663225271966773
 40
8.715345156564421
 40
8.789031889628756
 40
8.873502045520485
 40
8.957972194324109
 40
9.031658925568
 40
9.08377881123469
 40
9.103548423003152
 40
9.11955008312369
 40
9.160817522379991
 40
9.217244429110357
 40
9.278724491644843
 40
9.335151398295627
 40
9.376418837357923
 40
9.39242049730071
 40
9.40119630273493
 40
9.417494229384404
 40
9.426270027749677
 40
9.44087507547771
 40
9.475702496998888
 40
9.51727070986605
 40
9.552098131994217
 40
9.566703169884425
 40
9.566703169884425
 40
9.566703169884425
 40
9.566703169884425
 10
194.6170254148479
 20
15.67015871511028
 10
194.6134345093371
 20
15.6645369070216
 10
194.6056039123625
 20
15.65227754419112
 10
194.5129968974546
 20
15.61601916040967
 10
194.4887622233248
 20
15.40148444212712
 10
194.3858709845938
 20
15.2219728450971
 10
194.1220492364305
 20
15.03615573798147
 10
194.284547156918
 20
14.95959336566081
 10
194.3607225760838
 20
14.89856693195444
 10
194.4492171072758
 20
14.83515804544758
 10
194.538993023311
 20
14.7752563421956
 10
194.5883817636047
 20
14.72102154849205
 10
194.6745708157382
 20
14.69286240541834
 10
194.6411260674231
 20
14.65713309652812
 10
194.6214671166311
 20
14.62550387991907
 10
194.5919888217883
 20
14.58475872796067
 10
194.5688989446031
 20
14.55504663489645
 10
194.5380205968357
 20
14.50211422668495
 10
194.4729193365741
 20
14.62740334938901
 10
194.3796000122417
 20
14.68213900233938
 10
194.2950636285139
 20
14.73916423939339
 10
194.1722498125743
 20
14.89675287427525
 10
194.1764450847301
 20
14.82035806766837
 10
194.1751478652677
 20
14.77361280161297
 10
194.1758126448076
 20
14.69584785812602
 10
194.1755549986956
 20
14.59902068324423
 10
194.1756431239922
 20
14.4865027907881
 10
194.1756077302281
 20
14.36524085945699
 10
194.1756511758279
 20
14.24086897858962
 10
194.1755199942406
 20
14.11967683631336
 10
194.1759477562046
 20
14.00691148919744
 10
194.174667820231
 20
13.91082913768744
 10
194.1779759851044
 20
13.831138264687
 10
194.1715197740085
 20
13.78815175788784
 10
194.1806208705556
 20
13.74955432372043
 10
194.1447910339935
 20
13.7581088772407
 10
194.1115223815253
 20
13.75342519985447
 10
194.0604562576041
 20
13.75351298759784
 10
194.0269723972813
 20
13.75794430283821
 10
193.9907585408754
 20
13.74960793842508
 10
194.0009782568666
 20
13.79145277179284
 10
193.9936487887773
 20
13.83778560820173
 10
193.9973633136103
 20
13.92374831106014
 10
193.9959480554897
 20
14.02605142704849
 10
193.9964105554639
 20
14.14453223931512
 10
193.9962773686231
 20
14.26957683153356
 10
193.9963015910045
 20
14.3947582810705
 10
193.9963354925552
 20
14.51286645379058
 10
193.9962060293133
 20
14.61628748709516
 10
193.9965507549082
 20
14.69932036153667
 10
193.9958698278691
 20
14.75143368521243
 10
193.9994586600622
 20
14.87912907821362
 10
193.7826171386438
 20
14.58048716819629
 10
193.6021354921951
 20
14.35263981511514
 10
193.5490322295613
 20
14.49373443289817
 10
193.5200429133149
 20
14.54325767560938
 10
193.4196648062822
 20
14.64641779790112
 10
193.7405127723261
 20
14.72695035023777
 10
193.868989700543
 20
14.91066283036434
 10
194.090645432536
 20
15.1193199577176
 10
194.177022489407
 20
15.29339211228345
 10
194.4549394229076
 20
15.56967051342514
 10
194.3346247839285
 20
15.56534559551114
 10
194.286319735135
 20
15.56614856202554
 10
194.2102377454905
 20
15.56574582146585
 10
194.1167010009751
 20
15.5659027561161
 10
194.0117594788557
 20
15.56582502576225
 10
193.9033887738718
 20
15.56595464378556
 10
193.7981454235897
 20
15.56554393490692
 10
193.7056237819413
 20
15.56682073671592
 10
193.6268130800707
 20
15.5634076653485
 10
193.5839674565378
 20
15.57023350036321
 10
193.5449499586516
 20
15.56065064201124
 10
193.5526365271863
 20
15.59420779565543
 10
193.5485464404312
 20
15.62523550322234
 10
193.5485531368814
 20
15.672365292709
 10
193.5526239724911
 20
15.70340941646779
 10
193.5449495574583
 20
15.73701861635902
 10
193.5834819405495
 20
15.72748410420872
 10
193.624122801448
 20
15.73397435498071
 10
193.6951471850463
 20
15.73100150650254
 10
193.7729318149634
 20
15.73174761399158
 10
193.8507292246474
 20
15.73247814044525
 10
193.9217232089908
 20
15.7295423551416
 10
193.9624279791821
 20
15.73595468772952
 10
194.000985348991
 20
15.72650524176004
 10
193.9927342754929
 20
15.76264692158784
 10
193.9982346669358
 20
15.80129837613227
 10
193.9955754206165
 20
15.86913528561839
 10
193.9965815471534
 20
15.9459164153874
 10
193.996017801832
 20
16.02849393582757
 10
193.9970714526593
 20
16.10517329229878
 10
193.9942675863131
 20
16.173319907767
 10
194.0000702721305
 20
16.21132399809346
 10
193.991565455116
 20
16.24758448077646
 10
194.0255610233125
 20
16.23755723771853
 10
194.0594575683099
 20
16.24073266813706
 10
194.1126669060347
 20
16.2350896564061
 10
194.1660768574483
 20
16.23434774436425
 10
194.199591464949
 20
16.2281922348298
 10
194.2388086183039
 20
16.23346029773593
 10
194.2120263698493
 20
16.19253380793486
 10
194.1708111001723
 20
16.20371204538113
 10
194.1782641540874
 20
16.15867056192124
 10
194.1742227952184
 20
16.11412278028144
 10
194.1761714049641
 20
16.04223572621703
 10
194.1752364849758
 20
15.96168630588771
 10
194.176510719003
 20
15.88173995404994
 10
194.1732043793863
 20
15.80841837083183
 10
194.1802106179961
 20
15.76688643002568
 10
194.1701440380126
 20
15.72752418568113
 10
194.2029814803921
 20
15.73468063430981
 10
194.236457729648
 20
15.73027243137945
 10
194.2915053476019
 20
15.73217943347897
 10
194.3489502595314
 20
15.73185366407288
 10
194.4023026248309
 20
15.73106308733081
 10
194.4398540896638
 20
15.73313959118074
 10
194.4623172523237
 20
15.73022338167109
 10
194.4751678073731
 20
15.73572552644056
 10
194.4858255685888
 20
15.7380111819779
 10
194.4986635650143
 20
15.74494972588052
 10
194.5145991033071
 20
15.72853046313672
 10
194.5410623920891
 20
15.71709122319449
 10
194.5726805253757
 20
15.6964468783519
 10
194.5987255892151
 20
15.68116869628295
 10
194.6128517723973
 20
15.67266976323184
 10
194.6170254148479
 20
15.67015871511028
 97
        1
330
B0
 75
     1
 76
     2
 52
45.0
 41
0.1
 77
     0
 78
     1
 53
45.0
 43
0.0
 44
0.0
 45
-0.282842712474619
 46
0.0
 79
     0
 98
        1
 10
0.0
 20
0.0
  0
HATCH
  5
CE
330
48
100
AcDbEntity
  8
1
  6
Continuous
 62
     2
100
AcDbHatch
 10
0.0
 20
0.0
 30
0.0
210
0.0
220
0.0
230
1.0
  2
CUSTOM12
 70
     0
 71
     1
 91
        1
 92
        1
 93
        1
 72
     4
 94
        3
 73
     0
 74
     0
 95
      124
 96
      120
 40
0.0
 40
0.0
 40
0.0
 40
0.0
 40
0.0278187229624226
 40
0.1011590162383985
 40
0.2048470170590239
 40
0.3237088716558961
 40
0.4425707262522
 40
0.5462587270699263
 40
0.6195990203312082
 40
0.647417752257866
 40
0.6750060736115224
 40
0.7357003855242759
 40
0.7963946998054492
 40
0.8239830245571784
 40
0.8540933811103162
 40
0.9373396629409274
 40
1.063094687343237
 40
1.220731268638075
 40
1.399622220914749
 40
1.589140358637762
 40
1.778658496423843
 40
1.957549448940539
 40
2.115186030873132
 40
2.240941056914465
 40
2.324187341760534
 40
2.354297700109384
 40
2.38188602467189
 40
2.442580338710479
 40
2.503274652750503
 40
2.53086297731461
 40
2.560983949278563
 40
2.640393784452908
 40
2.752662861759132
 40
2.88136156011812
 40
3.010060258455167
 40
3.122329335705371
 40
3.201739170817928
 40
3.231860142753317
 40
3.264298024030372
 40
3.352343701778243
 40
3.482095226868764
 40
3.639650650173022
 40
3.811108022565477
 40
3.982565394927982
 40
4.140120818152561
 40
4.269872343141269
 40
4.357918020802329
 40
4.390355902043958
 40
4.423256253992528
 40
4.50810453007302
 40
4.624121560636788
 40
4.750528176031517
 40
4.866545206601992
 40
4.951393482691949
 40
4.98429383464535
 40
5.011450833242267
 40
5.071196230152057
 40
5.130941627057136
 40
5.158098625648804
 40
5.190998977601466
 40
5.275847253689292
 40
5.391864284256754
 40
5.518270899648271
 40
5.634287930209282
 40
5.719136206287955
 40
5.752036558235871
 40
5.782130946282897
 40
5.862783906229072
 40
5.979550131774938
 40
6.117984316640345
 40
6.26364115458789
 40
6.402075339414096
 40
6.51884156490789
 40
6.599494524815472
 40
6.62958891284871
 40
6.654403028226286
 40
6.713575149488053
 40
6.784199939329398
 40
6.8433720604935
 40
6.868186175802718
 40
6.896246243201828
 40
6.93958623375817
 40
6.967846564564798
 40
7.043584251089737
 40
7.153234334451595
 40
7.283231855734345
 40
7.420011856035378
 40
7.55000937657973
 40
7.659659458835129
 40
7.735397144417123
 40
7.763657474851295
 40
7.796409728010952
 40
7.880876065096226
 40
7.996370852465612
 40
8.122208446418506
 40
8.2377032247991
 40
8.322169562010822
 40
8.354921815205808
 40
8.38207881330759
 40
8.4418242092069
 40
8.501569605240054
 40
8.528726603485634
 40
8.561478856695654
 40
8.645945193877704
 40
8.761439980865244
 40
8.887277580764387
 40
9.002772362000908
 40
9.0872386966611
 40
9.119990949235582
 40
9.15242883061328
 40
9.240474508638496
 40
9.370226034149443
 40
9.527781457984325
 40
9.699238830981313
 40
9.870696203978502
 40
10.02825162781392
 40
10.15800315332554
 40
10.24604883135109
 40
10.27848670378511
 40
10.27848670378511
 40
10.27848670378511
 40
10.27848670378511
 10
195.3821827564384
 20
14.01410517385757
 10
195.3914554737524
 20
14.01410498511274
 10
195.4251744536861
 20
14.01410430876714
 10
195.4934706812466
 20
14.01411807243305
 10
195.592014171158
 20
14.01403224219544
 10
195.7062066464812
 20
14.0144175561225
 10
195.8185894417072
 20
14.01300835897545
 10
195.9214376600118
 20
14.01719117422243
 10
195.980683987485
 20
14.00823089251983
 10
196.0371265937034
 20
14.0216443452606
 10
196.0246255586956
 20
13.97087198613361
 10
196.0329549635704
 20
13.92589320939067
 10
196.0248170841121
 20
13.88056752990488
 10
196.0370529214458
 20
13.82931932408465
 10
195.9747773490334
 20
13.84447955365276
 10
195.9060513026869
 20
13.83359750710742
 10
195.7782756749592
 20
13.83911304747972
 10
195.6262984511644
 20
13.83700851253698
 10
195.4502695972523
 20
13.83771002588473
 10
195.2644431934288
 20
13.83745237531292
 10
195.0786167437176
 20
13.83771005144602
 10
194.9025880142169
 20
13.83700841847731
 10
194.7506104154195
 20
13.83911332229988
 10
194.6228357664555
 20
13.8335968076764
 10
194.5541077836581
 20
13.84448077125942
 10
194.4918349042884
 20
13.82931786684209
 10
194.5040616290018
 20
13.88057510805171
 10
194.4960004462598
 20
13.92582473272425
 10
194.5040675809893
 20
13.97106357955323
 10
194.4918238487084
 20
14.02234176909958
 10
194.5525017120699
 20
14.00749577363134
 10
194.6162810745737
 20
14.01756448170735
 10
194.7277314353503
 20
14.01294644211999
 10
194.8497533443824
 20
14.01413328905469
 10
194.9719538137824
 20
14.01515863900635
 10
195.0829794287392
 20
14.01092475623402
 10
195.1476517413959
 20
14.02018584521739
 10
195.2091162810502
 20
14.00604423049682
 10
195.1930065601338
 20
14.07235527884516
 10
195.2042980327359
 20
14.14447790121976
 10
195.1987400822561
 20
14.27513760888285
 10
195.2008035061691
 20
14.42607323708241
 10
195.2000167127295
 20
14.59335873107885
 10
195.2007845215629
 20
14.76061110332302
 10
195.1988038785628
 20
14.91163289269912
 10
195.2041306156621
 20
15.04206069552994
 10
195.1933101388426
 20
15.11465442605898
 10
195.2090326429876
 20
15.18150469436797
 10
195.1432708132492
 20
15.16580512490823
 10
195.0756367830764
 20
15.17609243083994
 10
194.9615885293811
 20
15.1711378684712
 10
194.8451242674903
 20
15.17414128030474
 10
194.7306554121478
 20
15.16880303143388
 10
194.6640324657814
 20
15.18001268074824
 10
194.5990769715186
 20
15.1634913266501
 10
194.610798975871
 20
15.21473720477058
 10
194.6032830189122
 20
15.25950333784091
 10
194.6107989878836
 20
15.30426944897961
 10
194.5990769505348
 20
15.3555153612974
 10
194.6640326339201
 20
15.33899381766816
 10
194.7306533339821
 20
15.35020571373943
 10
194.8451352858065
 20
15.34485436710665
 10
194.9615454436963
 20
15.34791188771117
 10
195.0757660174641
 20
15.34278499010708
 10
195.1430150439228
 20
15.35345733355599
 10
195.2083325941439
 20
15.33742082669076
 10
195.1941391448553
 20
15.39949685750054
 10
195.2036059462996
 20
15.46586761628762
 10
195.1990269004085
 20
15.58239972741966
 10
195.2007696555949
 20
15.71426685022376
 10
195.1997551495392
 20
15.85615960150273
 10
195.2017191344372
 20
15.9876905070258
 10
195.1964668553852
 20
16.10524577283002
 10
195.2073408763474
 20
16.16947789001584
 10
195.1919536641855
 20
16.23108802545047
 10
195.2407591537801
 20
16.21702407382111
 10
195.2853995564727
 20
16.21954742075314
 10
195.3538643946744
 20
16.21512797401709
 10
195.3959106169103
 20
16.20613025544036
 10
195.4487544758776
 20
16.21411714866509
 10
195.4207035002014
 20
16.17113917611677
 10
195.3749142248595
 20
16.18259552043835
 10
195.3869539073265
 20
16.12173520005137
 10
195.3796086070643
 20
16.05769299468773
 10
195.3831195826162
 20
15.94909368863911
 10
195.3819806760175
 20
15.82494319144753
 10
195.3819174780263
 20
15.69189719829878
 10
195.3832872966868
 20
15.56797381249555
 10
195.3791638801314
 20
15.45868337849339
 10
195.3877763103565
 20
15.3960858009417
 10
195.3746757454402
 20
15.33740133296365
 10
195.4393884328199
 20
15.35362113810902
 10
195.5060405953157
 20
15.34270260383311
 10
195.6198779541103
 20
15.34793740173756
 10
195.7357259122098
 20
15.34485547516913
 10
195.8496924263281
 20
15.35018259812512
 10
195.91603410181
 20
15.33904208166543
 10
195.980718852548
 20
15.35546979593177
 10
195.9689820772724
 20
15.30425925210051
 10
195.9765168063041
 20
15.25950334121
 10
195.9689820992259
 20
15.21474739010027
 10
195.9807188140738
 20
15.1635369087104
 10
195.9160344075253
 20
15.17996427794218
 10
195.8496886430826
 20
15.16882784447269
 10
195.7357459487013
 20
15.17413115893119
 10
195.6197995623055
 20
15.17114764593543
 10
195.5062756882124
 20
15.17606892268392
 10
195.4389231318805
 20
15.16585087513518
 10
195.3734285122496
 20
15.18145996138815
 10
195.3891713619218
 20
15.1146385182741
 10
195.3783275998215
 20
15.04207057815878
 10
195.3836581629792
 20
14.91162247614416
 10
195.3817136151856
 20
14.76064558185225
 10
195.3823133683215
 20
14.59322243934158
 10
195.3821506559605
 20
14.42656176118371
 10
195.3821895488136
 20
14.27360142921636
 10
195.38218164131
 20
14.14849178985705
 10
195.3821828382745
 20
14.06507890991419
 10
195.3821827716209
 20
14.02491778281976
 10
195.3821827564384
 20
14.01410517385757
 97
        1
330
B1
 75
     1
 76
     2
 52
45.0
 41
0.1
 77
     0
 78
     1
 53
45.0
 43
0.0
 44
0.0
 45
-0.282842712474619
 46
0.0
 79
     0
 98
        1
 10
0.0
 20
0.0
  0
HATCH
  5
CF
330
48
100
AcDbEntity
  8
1
  6
Continuous
 62
     2
100
AcDbHatch
 10
0.0
 20
0.0
 30
0.0
210
0.0
220
0.0
230
1.0
  2
CUSTOM13
 70
     0
 71
     1
 91
        1
 92
        1
 93
        3
 72
     4
 94
        3
 73
     0
 74
     0
 95
       24
 96
       20
 40
0.0
 40
0.0
 40
0.0
 40
0.0
 40
0.2211075008753867
 40
0.4273218586245223
 40
0.5080174679239482
 40
0.5914835907870397
 40
0.8143265690192709
 40
1.054651302686571
 40
1.295452694023168
 40
1.518109231328827
 40
1.540864321905442
 40
1.595126460622703
 40
1.659890947896017
 40
1.714153085187403
 40
1.736908174961675
 40
1.76495110073538
 40
1.801562291220942
 40
1.953914424543626
 40
2.126104167379697
 40
2.126104167379697
 40
2.126104167379697
 40
2.126104167379697
 10
185.937536955689
 20
15.58989295113015
 10
185.9112579081813
 20
15.53097628234373
 10
185.8604698894426
 20
15.41711139679258
 10
185.8131784839112
 20
15.14441958233116
 10
185.7043482802619
 20
15.24445482575454
 10
185.5514800279638
 20
15.27118593367332
 10
185.7686155181199
 20
15.48518135017632
 10
185.7838483674381
 20
15.70332117782488
 10
185.8906889492
 20
15.88451579066425
 10
185.8305380947079
 20
16.16913226311404
 10
185.9334317395402
 20
16.1411408922245
 10
185.9779933468151
 20
16.13243251602299
 10
186.0380842395397
 20
16.12139654183354
 10
186.0756619587439
 20
16.10767523055561
 10
186.1252466928606
 20
16.1075607616022
 10
186.0930158919325
 20
16.07306592398625
 10
186.0171802221882
 20
16.0840410453796
 10
186.0429447159693
 20
15.89858969582452
 10
186.005589676385
 20
15.8070231354959
 10
185.985770496161
 20
15.75844135397705
 72
     4
 94
        3
 73
     0
 74
     0
 95
       70
 96
       66
 40
0.0
 40
0.0
 40
0.0
 40
0.0
 40
0.0241731073021472
 40
0.0846058988987297
 40
0.1631685280353284
 40
0.2417311571789756
 40
0.3021639488292751
 40
0.3263370654895825
 40
0.3533118254249165
 40
0.4228783438922395
 40
0.5179999095313687
 40
0.6216398239466386
 40
0.716761389149999
 40
0.7863279069650148
 40
0.813302679176212
 40
0.8372943998771958
 40
0.894505426137287
 40
0.962789554196264
 40
1.020000580349074
 40
1.043992300975172
 40
1.071934345522902
 40
1.113121768772915
 40
1.14522519933224
 40
1.225483775412775
 40
1.329819923771483
 40
1.434156071994373
 40
1.514414647795794
 40
1.546518078208402
 40
1.578974764260204
 40
1.662678849314142
 40
1.777131373668391
 40
1.901833377474782
 40
2.016285900500572
 40
2.099989982527939
 40
2.132446666570297
 40
2.15878235448602
 40
2.21672086790781
 40
2.274659381334233
 40
2.300995069256167
 40
2.333451754066139
 40
2.41715583654382
 40
2.53160835898526
 40
2.656310362283755
 40
2.770762886388887
 40
2.854466971340052
 40
2.886923657363859
 40
2.913597976833293
 40
2.9823896428751
 40
3.076451716946965
 40
3.17893726045858
 40
3.272999334739985
 40
3.34179100105921
 40
3.368465320663523
 40
3.396976080738744
 40
3.472140811845952
 40
3.578408190308641
 40
3.700226892456049
 40
3.822045594634266
 40
3.928312973256345
 40
4.003477705314742
 40
4.031988456866808
 40
4.058324144797606
 40
4.116262658236767
 40
4.174201171400565
 40
4.200536849608499
 40
4.200536849608499
 40
4.200536849608499
 40
4.200536849608499
 10
185.985770496161
 20
15.75844135397705
 10
185.993825954468
 20
15.75844359811686
 10
186.0220200663242
 20
15.75845146032798
 10
186.0765534803674
 20
15.75830754828372
 10
186.1482891808604
 20
15.75909120499898
 10
186.2236240137063
 20
15.75627570463811
 10
186.2713052366439
 20
15.76298403400957
 10
186.3195071245617
 20
15.75197563692432
 10
186.3062571799875
 20
15.80546402997033
 10
186.3151093964538
 20
15.86049583543092
 10
186.3108698036287
 20
15.95419908726109
 10
186.313348348128
 20
16.04959482218532
 10
186.3090938706062
 20
16.14356821983387
 10
186.3179818665847
 20
16.19795062438012
 10
186.3046977409946
 20
16.25233997691461
 10
186.351411927711
 20
16.23842216335358
 10
186.3943254545738
 20
16.24103877374043
 10
186.4605443456685
 20
16.23648422450754
 10
186.50133422718
 20
16.22778162134162
 10
186.5525145690819
 20
16.23531799890194
 10
186.5253720487201
 20
16.19349970223285
 10
186.4803096055708
 20
16.20284992072596
 10
186.4942065045051
 20
16.13841207371837
 10
186.4858414431655
 20
16.07378219627399
 10
186.4903632178399
 20
15.97529141193887
 10
186.4854741311168
 20
15.8759593284257
 10
186.4950258992082
 20
15.81293115552968
 10
186.4799761455201
 20
15.74964011499788
 10
186.5449159457209
 20
15.76515072944268
 10
186.6116246399498
 20
15.75499387697813
 10
186.7241435470827
 20
15.75988800099367
 10
186.8390235448954
 20
15.75691204732784
 10
186.9519871999748
 20
15.76221664184991
 10
187.0176267597678
 20
15.75107306472089
 10
187.0816276691054
 20
15.76744532319857
 10
187.070314288919
 20
15.71761689905274
 10
187.0775339871511
 20
15.67416715212123
 10
187.070314261127
 20
15.63071745587445
 10
187.0816277175995
 20
15.58088895196876
 10
187.0176263598972
 20
15.59726166091362
 10
186.9519921240461
 20
15.58611271661588
 10
186.8389974317331
 20
15.59144857206854
 10
186.7242456548644
 20
15.58834345663822
 10
186.6113183686861
 20
15.59364894682588
 10
186.5455220903585
 20
15.58257300019593
 10
186.4816097975358
 20
15.59887597847618
 10
186.4936015165128
 20
15.54423524395742
 10
186.4862104613005
 20
15.48854295047841
 10
186.4892684841984
 20
15.3964968914057
 10
186.4893422785684
 20
15.301791098731
 10
186.4860313578361
 20
15.20952782902265
 10
186.4939505989904
 20
15.15435768736139
 10
186.4815076611618
 20
15.10058169100135
 10
186.5389116551632
 20
15.1145376886278
 10
186.5994708140383
 20
15.10511457884226
 10
186.7048680855081
 20
15.10942885928703
 10
186.8204294070623
 20
15.1083550461203
 10
186.9359688877797
 20
15.10725965900994
 10
187.0414181130841
 20
15.11162525770631
 10
187.1018680471804
 20
15.10209426030669
 10
187.159283773911
 20
15.11617289606378
 10
187.1477773876709
 20
15.06707153265682
 10
187.1537566781749
 20
15.02564658018648
 10
187.1520311050801
 20
14.97651677966694
 10
187.1521500122971
 20
14.94854428447607
 10
187.1521871691833
 20
14.93980288195949
 72
     4
 94
        3
 73
     0
 74
     0
 95
       62
 96
       58
 40
0.0
 40
0.0
 40
0.0
 40
0.0
 40
0.0598250028308485
 40
0.2024846486897331
 40
0.3727558389221031
 40
0.515415484793607
 40
0.5752404975785339
 40
0.9332326775487353
 40
1.290451762839502
 40
1.602077253145923
 40
1.699931634112194
 40
1.799359756425153
 40
2.270120149657154
 40
2.804661928461607
 40
2.88234228738332
 40
3.07654318571917
 40
3.329004354835637
 40
3.581465524568464
 40
3.775666424543752
 40
3.853346784558372
 40
3.899120679595146
 40
3.984129341792087
 40
4.029903236817436
 40
4.105797496059592
 40
4.295533144152552
 40
4.542189486611793
 40
4.78884582887574
 40
4.978581476410126
 40
5.054475735244369
 40
5.621734664339402
 40
6.130867242037413
 40
6.225249780948675
 40
6.318913039727402
 40
6.663579954559071
 40
7.047498900224923
 40
7.435230791575821
 40
7.498943906668233
 40
7.65087518121017
 40
7.832212509001652
 40
7.984143783697037
 40
8.047856898903165
 40
8.09155463273267
 40
8.172707566964329
 40
8.21640530076805
 40
8.289021782160935
 40
8.46218416075728
 40
8.668861838005446
 40
8.84202421526401
 40
8.914640695475205
 40
8.989881580861413
 40
9.155411528827322
 40
9.32094147774411
 40
9.396182352487363
 40
9.454709011143853
 40
9.583467660170873
 40
9.712226309013095
 40
9.770752957989577
 40
9.770752957989577
 40
9.770752957989577
 40
9.770752957989577
 10
187.1521871691833
 20
14.93980288195949
 10
187.1322348171623
 20
14.93980875568671
 10
187.0647037716466
 20
14.93982863806156
 10
186.9410612161788
 20
14.93949362520325
 10
186.7863180150056
 20
14.9410767375051
 10
186.669734948248
 20
14.93686078860495
 10
186.4550942634239
 20
14.95215205331625
 10
186.8518948407229
 20
14.59198721286191
 10
186.8945656069268
 20
14.37510503397167
 10
187.3189162146612
 20
14.19325062511444
 10
187.1439821496074
 20
14.08985196568073
 10
187.0194523925083
 20
13.87831523212727
 10
186.7666277235945
 20
14.34806081001563
 10
186.4797602893626
 20
14.99511516984522
 10
186.4906335926661
 20
14.68782672154695
 10
186.4882892777961
 20
14.5228861697178
 10
186.4861096126411
 20
14.28879670711694
 10
186.4980774396348
 20
14.04498072421783
 10
186.4687984740632
 20
13.89855796860985
 10
186.511452262547
 20
13.75113490174537
 10
186.4239814005641
 20
13.7668579730622
 10
186.3768527606745
 20
13.76694303543454
 10
186.2898973207714
 20
13.75109425482909
 10
186.3313474021724
 20
13.89527771422762
 10
186.3029875004286
 20
14.03855052698456
 10
186.31459737753
 20
14.27674947365264
 10
186.3124175648273
 20
14.50517235240346
 10
186.3103111127995
 20
14.66705729375994
 10
186.3208035438324
 20
14.98153709333753
 10
186.0128963252893
 20
14.29229470872435
 10
185.7055258267457
 20
13.81476750243055
 10
185.5851367066275
 20
14.03741112637428
 10
185.4074607910721
 20
14.15011034955562
 10
185.8853326362895
 20
14.3254814346546
 10
185.9353959057208
 20
14.56091929252028
 10
186.3583799621717
 20
14.95322989344606
 10
186.127675427354
 20
14.93655307029065
 10
186.0049685859341
 20
14.94269518948769
 10
185.8325483095662
 20
14.93312822699573
 10
185.721322469445
 20
14.95448818489665
 10
185.6025779627448
 20
14.92136265357419
 10
185.6183169706687
 20
15.00203900606883
 10
185.6178550933762
 20
15.04645414290853
 10
185.6027881889932
 20
15.12967081778532
 10
185.7372380935444
 20
15.09062651983881
 10
185.8619755545747
 20
15.11739729328421
 10
186.0628755237281
 20
15.10063949044051
 10
186.1921540949354
 20
15.12204225913002
 10
186.3328419928295
 20
15.08868778853419
 10
186.2980927452617
 20
15.22651875785067
 10
186.3222185666712
 20
15.34963257349481
 10
186.2967086182394
 20
15.47024055670334
 10
186.3333251146686
 20
15.60539865141493
 10
186.2211417027771
 20
15.58094545781891
 10
186.1280356457137
 20
15.59307749842022
 10
186.0191547579821
 20
15.58957630069994
 10
185.9569697640965
 20
15.58981755951602
 10
185.9375369557247
 20
15.58989295124144
 97
        3
330
B3
330
B4
330
B2
 75
     1
 76
     2
 52
45.0
 41
0.1
 77
     0
 78
     1
 53
45.0
 43
0.0
 44
0.0
 45
-0.282842712474619
 46
0.0
 79
     0
 98
        1
 10
0.0
 20
0.0
  0
HATCH
  5
D0
330
48
100
AcDbEntity
  8
1
  6
Continuous
 62
     2
100
AcDbHatch
 10
0.0
 20
0.0
 30
0.0
210
0.0
220
0.0
230
1.0
  2
CUSTOM14
 70
     0
 71
     1
 91
        1
 92
        1
 93
        4
 72
     1
 10
192.4578138032672
 20
15.22875434022056
 11
191.1602971697031
 21
15.22875434022056
 72
     1
 10
191.1602971697031
 20
15.22875434022056
 11
191.1602971697031
 21
15.39722336795624
 72
     1
 10
191.1602971697031
 20
15.39722336795624
 11
192.4578138032672
 21
15.39722336795624
 72
     1
 10
192.4578138032672
 20
15.39722336795624
 11
192.4578138032672
 21
15.22875434022056
 97
        1
330
B5
 75
     1
 76
     2
 52
45.0
 41
0.1
 77
     0
 78
     1
 53
45.0
 43
0.0
 44
0.0
 45
-0.282842712474619
 46
0.0
 79
     0
 98
        1
 10
0.0
 20
0.0
  0
ENDBLK
  5
4A
330
48
100
AcDbEntity
  8
0
100
AcDbBlockEnd
  0
BLOCK
  5
4D
330
4B
100
AcDbEntity
  8
0
100
AcDbBlockBegin
  2
開示A4枠
 70
     0
 10
0.0
 20
0.0
 30
0.0
  3
開示A4枠
  1

  0
INSERT
  5
4C
330
4B
100
AcDbEntity
  8
1
100
AcDbBlockReference
  2
開示A4
 10
0.0
 20
0.0
 30
0.0
  0
ENDBLK
  5
4E
330
4B
100
AcDbEntity
  8
0
100
AcDbBlockEnd
  0
BLOCK
  5
50
330
4F
100
AcDbEntity
  8
0
100
AcDbBlockBegin
  2
35-69
 70
     0
 10
-27.48067698188725
 20
-195.9833749005507
 30
0.0
  3
35-69
  1

  0
LINE
  5
D1
330
4F
100
AcDbEntity
  8
1
  6
Continuous
 62
     7
100
AcDbLine
 10
125.5193725153819
 20
198.3983955046609
 30
0.0
 11
119.3347140769554
 21
209.1105381474751
 31
0.0
  0
LINE
  5
D2
330
4F
100
AcDbEntity
  8
1
  6
Continuous
 62
     7
100
AcDbLine
 10
119.3347140769554
 20
186.3983955046609
 30
0.0
 11
125.5193725153819
 21
197.1105381474751
 31
0.0
  0
LINE
  5
D3
330
4F
100
AcDbEntity
  8
1
  6
Continuous
 62
     7
100
AcDbLine
 10
105.8500800123289
 20
185.754466826068
 30
0.0
 11
118.2193968891819
 21
185.754466826068
 31
0.0
  0
LINE
  5
D4
330
4F
100
AcDbEntity
  8
1
  6
Continuous
 62
     7
100
AcDbLine
 10
98.55010438612887
 20
197.1105381474751
 30
0.0
 11
104.7347628245553
 21
186.3983955046609
 31
0.0
  0
LINE
  5
D5
330
4F
100
AcDbEntity
  8
1
  6
Continuous
 62
     7
100
AcDbLine
 10
104.7347628245553
 20
209.1105381474751
 30
0.0
 11
98.55010438612887
 21
198.3983955046609
 31
0.0
  0
LINE
  5
D6
330
4F
100
AcDbEntity
  8
1
  6
Continuous
 62
     7
100
AcDbLine
 10
118.2193968891819
 20
209.754466826068
 30
0.0
 11
105.8500800123289
 21
209.754466826068
 31
0.0
  0
LINE
  5
D7
330
4F
100
AcDbEntity
  8
1
  6
Continuous
 62
     7
100
AcDbLine
 10
122.4347384507554
 20
134.0166250994493
 30
0.0
 11
121.3347384507554
 21
134.0166250994493
 31
0.0
  0
LINE
  5
D8
330
4F
100
AcDbEntity
  8
1
  6
Continuous
 62
     7
100
AcDbLine
 10
122.4347384507554
 20
130.3249154763148
 30
0.0
 11
121.3347384507554
 21
130.3249154763148
 31
0.0
  0
LINE
  5
D9
330
4F
100
AcDbEntity
  8
1
  6
Continuous
 62
     7
100
AcDbLine
 10
122.4347384507554
 20
130.3249154763148
 30
0.0
 11
122.4347384507554
 21
134.0166250994493
 31
0.0
  0
LINE
  5
DA
330
4F
100
AcDbEntity
  8
1
  6
Continuous
 62
     7
100
AcDbLine
 10
122.4347384507554
 20
130.3249154763148
 30
0.0
 11
121.2727384507554
 21
129.6540344635164
 31
0.0
  0
LINE
  5
DB
330
4F
100
AcDbEntity
  8
1
  6
Continuous
 62
     7
100
AcDbLine
 10
122.4347384507554
 20
134.0166250994493
 30
0.0
 11
121.2727384507554
 21
135.1786250994493
 31
0.0
  0
LINE
  5
DC
330
4F
100
AcDbEntity
  8
1
  6
Continuous
 62
     7
100
AcDbLine
 10
121.2727384507554
 20
135.1786250994493
 30
0.0
 11
120.9347384507554
 21
135.5166250994493
 31
0.0
  0
LINE
  5
DD
330
4F
100
AcDbEntity
  8
1
  6
Continuous
 62
     2
100
AcDbLine
 10
121.3347384507554
 20
135.1166250994493
 30
0.0
 11
121.3347384507554
 21
134.0166250994493
 31
0.0
  0
LINE
  5
DE
330
4F
100
AcDbEntity
  8
1
  6
Continuous
 62
     2
100
AcDbLine
 10
121.3347384507554
 20
134.0166250994493
 30
0.0
 11
121.3347384507554
 21
130.3249154763148
 31
0.0
  0
LINE
  5
DF
330
4F
100
AcDbEntity
  8
1
  6
Continuous
 62
     7
100
AcDbLine
 10
121.2727384507554
 20
129.6540344635164
 30
0.0
 11
121.0347384507554
 21
129.5166250994493
 31
0.0
  0
LINE
  5
E0
330
4F
100
AcDbEntity
  8
1
  6
Continuous
 62
     7
100
AcDbLine
 10
121.0347384507554
 20
129.5166250994493
 30
0.0
 11
121.0347384507554
 21
127.0166250994493
 31
0.0
  0
LINE
  5
E1
330
4F
100
AcDbEntity
  8
1
  6
Continuous
 62
     7
100
AcDbLine
 10
118.5347384507554
 20
135.5166250994493
 30
0.0
 11
112.0347384507554
 21
135.5166250994493
 31
0.0
  0
LINE
  5
E2
330
4F
100
AcDbEntity
  8
1
  6
Continuous
 62
     7
100
AcDbLine
 10
112.0347384507554
 20
134.0166250994493
 30
0.0
 11
121.3347384507554
 21
134.0166250994493
 31
0.0
  0
LINE
  5
E3
330
4F
100
AcDbEntity
  8
1
  6
Continuous
 62
     7
100
AcDbLine
 10
112.0347384507554
 20
130.3249154763148
 30
0.0
 11
121.3347384507554
 21
130.3249154763148
 31
0.0
  0
LINE
  5
E4
330
4F
100
AcDbEntity
  8
1
  6
Continuous
 62
     7
100
AcDbLine
 10
112.0347384507554
 20
129.5166250994493
 30
0.0
 11
121.0347384507554
 21
129.5166250994493
 31
0.0
  0
LINE
  5
E5
330
4F
100
AcDbEntity
  8
1
  6
Continuous
 62
     7
100
AcDbLine
 10
120.9347384507554
 20
135.5166250994493
 30
0.0
 11
118.5347384507554
 21
135.5166250994493
 31
0.0
  0
LINE
  5
E6
330
4F
100
AcDbEntity
  8
1
  6
Continuous
 62
     2
100
AcDbLine
 10
121.3347384507554
 20
130.3249154763148
 30
0.0
 11
121.3347384507554
 21
129.6898301802062
 31
0.0
  0
LINE
  5
E7
330
4F
100
AcDbEntity
  8
1
  6
Continuous
 62
     7
100
AcDbLine
 10
112.0347384507554
 20
116.0166250994493
 30
0.0
 11
100.5347384507554
 21
116.0166250994493
 31
0.0
  0
LINE
  5
E8
330
4F
100
AcDbEntity
  8
1
  6
Continuous
 62
     7
100
AcDbLine
 10
103.1347384507554
 20
135.5166250994493
 30
0.0
 11
102.7967384507554
 21
135.1786250994493
 31
0.0
  0
LINE
  5
E9
330
4F
100
AcDbEntity
  8
1
  6
Continuous
 62
     2
100
AcDbLine
 10
102.7347384507554
 20
134.0166250994493
 30
0.0
 11
102.7347384507554
 21
135.1166250994493
 31
0.0
  0
LINE
  5
EA
330
4F
100
AcDbEntity
  8
1
  6
Continuous
 62
     2
100
AcDbLine
 10
102.7347384507554
 20
130.3249154763148
 30
0.0
 11
102.7347384507554
 21
134.0166250994493
 31
0.0
  0
LINE
  5
EB
330
4F
100
AcDbEntity
  8
1
  6
Continuous
 62
     7
100
AcDbLine
 10
103.0347384507554
 20
129.5166250994493
 30
0.0
 11
102.7967384507554
 21
129.6540344635164
 31
0.0
  0
LINE
  5
EC
330
4F
100
AcDbEntity
  8
1
  6
Continuous
 62
     7
100
AcDbLine
 10
103.0347384507554
 20
127.0166250994493
 30
0.0
 11
103.0347384507554
 21
129.5166250994493
 31
0.0
  0
LINE
  5
ED
330
4F
100
AcDbEntity
  8
1
  6
Continuous
 62
     7
100
AcDbLine
 10
100.5347384507554
 20
127.0166250994493
 30
0.0
 11
103.0347384507554
 21
127.0166250994493
 31
0.0
  0
LINE
  5
EE
330
4F
100
AcDbEntity
  8
1
  6
Continuous
 62
     7
100
AcDbLine
 10
102.7967384507554
 20
135.1786250994493
 30
0.0
 11
101.6347384507554
 21
134.0166250994493
 31
0.0
  0
LINE
  5
EF
330
4F
100
AcDbEntity
  8
1
  6
Continuous
 62
     7
100
AcDbLine
 10
102.7967384507554
 20
129.6540344635164
 30
0.0
 11
101.6347384507554
 21
130.3249154763148
 31
0.0
  0
LINE
  5
F0
330
4F
100
AcDbEntity
  8
1
  6
Continuous
 62
     7
100
AcDbLine
 10
101.6347384507554
 20
134.0166250994493
 30
0.0
 11
101.6347384507554
 21
130.3249154763148
 31
0.0
  0
LINE
  5
F1
330
4F
100
AcDbEntity
  8
1
  6
Continuous
 62
     7
100
AcDbLine
 10
112.0347384507554
 20
135.5166250994493
 30
0.0
 11
105.5347384507554
 21
135.5166250994493
 31
0.0
  0
LINE
  5
F2
330
4F
100
AcDbEntity
  8
1
  6
Continuous
 62
     7
100
AcDbLine
 10
102.7347384507554
 20
134.0166250994493
 30
0.0
 11
112.0347384507554
 21
134.0166250994493
 31
0.0
  0
LINE
  5
F3
330
4F
100
AcDbEntity
  8
1
  6
Continuous
 62
     7
100
AcDbLine
 10
102.7347384507554
 20
130.3249154763148
 30
0.0
 11
112.0347384507554
 21
130.3249154763148
 31
0.0
  0
LINE
  5
F4
330
4F
100
AcDbEntity
  8
1
  6
Continuous
 62
     7
100
AcDbLine
 10
103.0347384507554
 20
129.5166250994493
 30
0.0
 11
112.0347384507554
 21
129.5166250994493
 31
0.0
  0
LINE
  5
F5
330
4F
100
AcDbEntity
  8
1
  6
Continuous
 62
     7
100
AcDbLine
 10
103.0347384507554
 20
127.0166250994493
 30
0.0
 11
112.0347384507554
 21
127.0166250994493
 31
0.0
  0
LINE
  5
F6
330
4F
100
AcDbEntity
  8
1
  6
Continuous
 62
     7
100
AcDbLine
 10
105.5347384507554
 20
135.5166250994493
 30
0.0
 11
103.1347384507554
 21
135.5166250994493
 31
0.0
  0
LINE
  5
F7
330
4F
100
AcDbEntity
  8
1
  6
Continuous
 62
     7
100
AcDbLine
 10
102.7347384507554
 20
130.3249154763148
 30
0.0
 11
101.6347384507554
 21
130.3249154763148
 31
0.0
  0
LINE
  5
F8
330
4F
100
AcDbEntity
  8
1
  6
Continuous
 62
     7
100
AcDbLine
 10
102.7347384507554
 20
134.0166250994493
 30
0.0
 11
101.6347384507554
 21
134.0166250994493
 31
0.0
  0
LINE
  5
F9
330
4F
100
AcDbEntity
  8
1
  6
Continuous
 62
     2
100
AcDbLine
 10
102.7347384507554
 20
129.6898301802062
 30
0.0
 11
102.7347384507554
 21
130.3249154763148
 31
0.0
  0
LINE
  5
FA
330
4F
100
AcDbEntity
  8
1
  6
Continuous
 62
     7
100
AcDbLine
 10
123.5347384507554
 20
116.0166250994493
 30
0.0
 11
112.0347384507554
 21
116.0166250994493
 31
0.0
  0
LINE
  5
FB
330
4F
100
AcDbEntity
  8
1
  6
Continuous
 62
     7
100
AcDbLine
 10
121.0347384507554
 20
127.0166250994493
 30
0.0
 11
123.5347384507554
 21
127.0166250994493
 31
0.0
  0
LINE
  5
FC
330
4F
100
AcDbEntity
  8
1
  6
Continuous
 62
     7
100
AcDbLine
 10
112.0347384507554
 20
127.0166250994493
 30
0.0
 11
121.0347384507554
 21
127.0166250994493
 31
0.0
  0
ARC
  5
FD
330
4F
100
AcDbEntity
  8
1
  6
Continuous
 62
     7
100
AcDbCircle
 10
112.0347384507554
 20
197.754466826068
 30
0.0
 40
13.5
100
AcDbArc
 50
0.0
 51
2.73395554926728
  0
ARC
  5
FE
330
4F
100
AcDbEntity
  8
1
  6
Continuous
 62
     7
100
AcDbCircle
 10
112.0347384507554
 20
197.754466826068
 30
0.0
 40
13.5
100
AcDbArc
 50
297.2660444507329
 51
302.7339555492671
  0
ARC
  5
FF
330
4F
100
AcDbEntity
  8
1
  6
Continuous
 62
     7
100
AcDbCircle
 10
112.0347384507554
 20
197.754466826068
 30
0.0
 40
13.50000000000002
100
AcDbArc
 50
237.2660444507325
 51
242.7339555492671
  0
ARC
  5
100
330
4F
100
AcDbEntity
  8
1
  6
Continuous
 62
     7
100
AcDbCircle
 10
112.0347384507554
 20
197.754466826068
 30
0.0
 40
13.50000000000003
100
AcDbArc
 50
180.0
 51
182.7339555492674
  0
ARC
  5
101
330
4F
100
AcDbEntity
  8
1
  6
Continuous
 62
     7
100
AcDbCircle
 10
112.0347384507554
 20
197.754466826068
 30
0.0
 40
13.5
100
AcDbArc
 50
117.2660444507328
 51
122.7339555492676
  0
ARC
  5
102
330
4F
100
AcDbEntity
  8
1
  6
Continuous
 62
     7
100
AcDbCircle
 10
112.0347384507554
 20
197.754466826068
 30
0.0
 40
13.49999999999994
100
AcDbArc
 50
57.26604445073279
 51
62.73395554926716
  0
ARC
  5
103
330
4F
100
AcDbEntity
  8
1
  6
Continuous
 62
     7
100
AcDbCircle
 10
112.0347384507554
 20
197.754466826068
 30
0.0
 40
13.5
100
AcDbArc
 50
357.2660444507326
 51
0.0
  0
ARC
  5
104
330
4F
100
AcDbEntity
  8
1
  6
Continuous
 62
     7
100
AcDbCircle
 10
112.0347384507554
 20
197.754466826068
 30
0.0
 40
13.50000000000002
100
AcDbArc
 50
177.2660444507327
 51
180.0
  0
ARC
  5
105
330
4F
100
AcDbEntity
  8
1
  6
Continuous
 62
     7
100
AcDbCircle
 10
107.0972384507554
 20
121.5166250994493
 30
0.0
 40
8.5625
100
AcDbArc
 50
140.0337869562
 51
219.9662130438
  0
ARC
  5
106
330
4F
100
AcDbEntity
  8
1
  6
Continuous
 62
     7
100
AcDbCircle
 10
116.9722384507554
 20
121.5166250994493
 30
0.0
 40
8.5625
100
AcDbArc
 50
320.0337869562001
 51
39.96621304379996
  0
CIRCLE
  5
107
330
4F
100
AcDbEntity
  8
0
  6
Continuous
 62
     2
100
AcDbCircle
 10
112.0347384507554
 20
197.754466826068
 30
0.0
 40
9.299999999999997
  0
CIRCLE
  5
108
330
4F
100
AcDbEntity
  8
1
  6
Continuous
 62
     7
100
AcDbCircle
 10
112.0347384507554
 20
197.754466826068
 30
0.0
 40
10.39999999999999
  0
CIRCLE
  5
109
330
4F
100
AcDbEntity
  8
1
  6
Continuous
 62
     7
100
AcDbCircle
 10
112.0347384507554
 20
197.754466826068
 30
0.0
 40
6.5
  0
CIRCLE
  5
10A
330
4F
100
AcDbEntity
  8
1
  6
Continuous
 62
     7
100
AcDbCircle
 10
112.0347384507554
 20
197.754466826068
 30
0.0
 40
11.5
  0
SPLINE
  5
10B
330
4F
100
AcDbEntity
  8
1
  6
Continuous
 62
     7
100
AcDbSpline
210
0.0
220
0.0
230
1.0
 70
    11
 71
     3
 72
    79
 73
    75
 74
    73
 42
0.000000001
 43
0.0000000001
 44
0.00000001
 40
0.0
 40
0.0
 40
0.0
 40
0.0
 40
0.4049022585794018
 40
0.8096719302956688
 40
1.228241772104189
 40
1.646601489788797
 40
2.08526851804772
 40
2.523713907295625
 40
2.985864372602215
 40
3.447823006842741
 40
3.933752893511412
 40
4.419535034344101
 40
4.926822002173338
 40
5.434004933259234
 40
5.958072428450457
 40
6.482074591923596
 40
7.016812421651172
 40
7.551518897263652
 40
8.089904169089596
 40
8.628289440911095
 40
9.162995916509995
 40
9.697733746213975
 40
10.22173590965266
 40
10.7458034047959
 40
11.25298633581936
 40
11.76027330356641
 40
12.24605544429687
 40
12.73198533083399
 40
13.19394396491441
 40
13.65609443001649
 40
14.09453981901488
 40
14.53320684694789
 40
14.95156656419942
 40
15.37013640531368
 40
15.77490607522151
 40
16.1798083419398
 40
16.57980677959947
 40
16.97980521725792
 40
17.38470748397268
 40
17.78947715387475
 40
18.20804699498121
 40
18.62640671222334
 40
19.06507374014525
 40
19.50351912913172
 40
19.96566959422068
 40
20.42762822828764
 40
20.91355811481053
 40
21.39934025552688
 40
21.90662722325937
 40
22.41381015426856
 40
22.9378776493974
 40
23.46187981282204
 40
23.99661764251208
 40
24.53132411809738
 40
25.06970938990554
 40
25.60809466171834
 40
26.142801137318
 40
26.67753896703287
 40
27.2015411304936
 40
27.72560862567213
 40
28.2327915567454
 40
28.74007852456126
 40
29.22586066537987
 40
29.71179055203226
 40
30.1737491862537
 40
30.63589965153493
 40
31.07434504074683
 40
31.51301206894564
 40
31.9313717865129
 40
32.34994162802164
 40
32.75471129843425
 40
33.15961356590501
 40
33.55961200544315
 40
33.95961043505865
 40
33.95961043505865
 40
33.95961043505865
 40
33.95961043505865
 10
105.8739559468802
 20
121.1173398755661
 30
0.0
 10
105.8944043680456
 20
120.9837672890205
 30
0.0
 10
105.9352945073758
 20
120.7166658536416
 30
0.0
 10
106.0571547843398
 20
120.3243810517022
 30
0.0
 10
106.2199238239079
 20
119.9431312959885
 30
0.0
 10
106.429831204367
 20
119.572376430355
 30
0.0
 10
106.6799343585558
 20
119.2194755075676
 30
0.0
 10
106.9731082714344
 20
118.8819340903512
 30
0.0
 10
107.3016979250983
 20
118.5674722539637
 30
0.0
 10
107.6689065133984
 20
118.2732094838913
 30
0.0
 10
108.0658120195828
 20
118.0060732250704
 30
0.0
 10
108.4956585116684
 20
117.763691431826
 30
0.0
 10
108.9490093664602
 20
117.5514980895251
 30
0.0
 10
109.428361478021
 20
117.3680205259872
 30
0.0
 10
109.9247145672876
 20
117.2169448730755
 30
0.0
 10
110.4390500566836
 20
117.097646623081
 30
0.0
 10
110.9636711680899
 20
117.0121951775406
 30
0.0
 10
111.4974833867282
 20
116.9604506104022
 30
0.0
 10
112.0347384409039
 20
116.9432679774239
 30
0.0
 10
112.5719934950937
 20
116.9604506102436
 30
0.0
 10
113.1058057136931
 20
117.0121951772256
 30
0.0
 10
113.6304268252491
 20
117.097646622581
 30
0.0
 10
114.1447623141134
 20
117.2169448724617
 30
0.0
 10
114.6411154053591
 20
117.3680205249468
 30
0.0
 10
115.1204675097981
 20
117.5514980891292
 30
0.0
 10
115.5738183906711
 20
117.7636914280841
 30
0.0
 10
116.0036647894289
 20
118.0060732322401
 30
0.0
 10
116.4005706352519
 20
118.273209450159
 30
0.0
 10
116.7677780156071
 20
118.5674723644016
 30
0.0
 10
117.096372054624
 20
118.881933675905
 30
0.0
 10
117.389530397997
 20
119.2194769549933
 30
0.0
 10
117.6396901491423
 20
119.5723711077102
 30
0.0
 10
117.8493955688856
 20
119.943150129347
 30
0.0
 10
118.0129029155494
 20
120.32431157459
 30
0.0
 10
118.1320936546706
 20
120.7169156830512
 30
0.0
 10
118.2030401732813
 20
121.114793156879
 30
0.0
 10
118.2275254058187
 20
121.5166250989806
 30
0.0
 10
118.203040173297
 20
121.9184570410821
 30
0.0
 10
118.132093654702
 20
122.3163345149091
 30
0.0
 10
118.0129029155962
 20
122.7089386233691
 30
0.0
 10
117.8493955689477
 20
123.0901000686104
 30
0.0
 10
117.6396901492191
 20
123.4608790902448
 30
0.0
 10
117.3895303980883
 20
123.8137732429587
 30
0.0
 10
117.0963720547294
 20
124.1513165220433
 30
0.0
 10
116.7677780157261
 20
124.4657778335425
 30
0.0
 10
116.4005706353843
 20
124.76004074778
 30
0.0
 10
116.0036647895741
 20
125.0271769656931
 30
0.0
 10
115.573818390829
 20
125.2695587698425
 30
0.0
 10
115.1204675099682
 20
125.4817521087899
 30
0.0
 10
114.6411154055413
 20
125.6652296729639
 30
0.0
 10
114.1447623143077
 20
125.8163053254395
 30
0.0
 10
113.6304268254554
 20
125.9356035753097
 30
0.0
 10
113.1058057139117
 20
126.0210550206534
 30
0.0
 10
112.5719934953239
 20
126.0727995876227
 30
0.0
 10
112.0347384411497
 20
126.0899822204279
 30
0.0
 10
111.4974833869776
 20
126.0727995874357
 30
0.0
 10
110.9636711683906
 20
126.0210550202757
 30
0.0
 10
110.4390500568638
 20
125.9356035747365
 30
0.0
 10
109.9247145679831
 20
125.8163053246548
 30
0.0
 10
109.4283614769042
 20
125.665229671977
 30
0.0
 10
108.9490093719879
 20
125.4817521075061
 30
0.0
 10
108.4956584930132
 20
125.2695587685274
 30
0.0
 10
108.0658120876421
 20
125.0271769633041
 30
0.0
 10
107.6689062661106
 20
124.7600407479898
 30
0.0
 10
107.3016987996309
 20
124.4657778231127
 30
0.0
 10
106.9731050736211
 20
124.1513165486858
 30
0.0
 10
106.6799456193734
 20
123.8137731363221
 30
0.0
 10
106.429789906901
 20
123.4608794662349
 30
0.0
 10
106.2200700761688
 20
123.0900987203933
 30
0.0
 10
106.0566154125116
 20
122.70894357604
 30
0.0
 10
105.9372341854308
 20
122.316316682469
 30
0.0
 10
105.8669909261936
 20
121.9185233247753
 30
0.0
 10
105.8399108447948
 20
121.5163810124978
 30
0.0
 10
105.8626075820639
 20
121.2503535869571
 30
0.0
 10
105.8739559468802
 20
121.1173398755661
 30
0.0
 11
105.8739559468802
 21
121.1173398755661
 31
0.0
 11
105.9451648495953
 21
120.718748433236
 31
0.0
 11
106.0621276008372
 21
120.3312459163109
 31
0.0
 11
106.2269580111395
 21
119.9464971049378
 31
0.0
 11
106.4323105415291
 21
119.5820040441082
 31
0.0
 11
106.6856478037303
 21
119.2238853583549
 31
0.0
 11
106.9726684248082
 21
118.8924437763131
 31
0.0
 11
107.3061973272766
 21
118.5725351585716
 31
0.0
 11
107.6663608699064
 21
118.2832463716448
 31
0.0
 11
108.0692033755253
 21
118.0115005890251
 31
0.0
 11
108.4921530797383
 21
117.7725490541442
 31
0.0
 11
108.9514203311394
 21
117.5571107578876
 31
0.0
 11
109.4249923171965
 21
117.3755505761545
 31
0.0
 11
109.926256654504
 21
117.2226427488499
 31
0.0
 11
110.4366728774227
 21
117.104095093016
 31
0.0
 11
110.9644224623255
 21
117.0179271048779
 31
0.0
 11
111.4966310151467
 21
116.9663027755964
 31
0.0
 11
112.0347384507554
 21
116.9490085952325
 31
0.0
 11
112.5728458863641
 21
116.9663027755964
 31
0.0
 11
113.1050544391853
 21
117.0179271048779
 31
0.0
 11
113.6328040240881
 21
117.104095093016
 31
0.0
 11
114.1432202470068
 21
117.2226427488499
 31
0.0
 11
114.6444845843143
 21
117.3755505761545
 31
0.0
 11
115.1180565703714
 21
117.5571107578876
 31
0.0
 11
115.5773238217724
 21
117.7725490541442
 31
0.0
 11
116.0002735259854
 21
118.0115005890251
 31
0.0
 11
116.4031160316043
 21
118.2832463716448
 31
0.0
 11
116.7632795742341
 21
118.5725351585716
 31
0.0
 11
117.0968084767025
 21
118.8924437763131
 31
0.0
 11
117.3838290977804
 21
119.2238853583549
 31
0.0
 11
117.6371663599817
 21
119.5820040441082
 31
0.0
 11
117.8425188903713
 21
119.9464971049378
 31
0.0
 11
118.0073493006737
 21
120.3312459163109
 31
0.0
 11
118.1243120519155
 21
120.718748433236
 31
0.0
 11
118.1955209546306
 21
121.1173398755661
 31
0.0
 11
118.2193968891819
 21
121.5166250994493
 31
0.0
 11
118.1955209546306
 21
121.9159103233325
 31
0.0
 11
118.1243120519155
 21
122.3145017656626
 31
0.0
 11
118.0073493006737
 21
122.7020042825877
 31
0.0
 11
117.8425188903713
 21
123.0867530939608
 31
0.0
 11
117.6371663599817
 21
123.4512461547904
 31
0.0
 11
117.3838290977804
 21
123.8093648405437
 31
0.0
 11
117.0968084767025
 21
124.1408064225855
 31
0.0
 11
116.763279574234
 21
124.460715040327
 31
0.0
 11
116.4031160316043
 21
124.7500038272538
 31
0.0
 11
116.0002735259854
 21
125.0217496098735
 31
0.0
 11
115.5773238217724
 21
125.2607011447544
 31
0.0
 11
115.1180565703714
 21
125.476139441011
 31
0.0
 11
114.6444845843143
 21
125.657699622744
 31
0.0
 11
114.1432202470068
 21
125.8106074500486
 31
0.0
 11
113.6328040240881
 21
125.9291551058826
 31
0.0
 11
113.1050544391853
 21
126.0153230940207
 31
0.0
 11
112.5728458863641
 21
126.0669474233022
 31
0.0
 11
112.0347384507554
 21
126.084241603666
 31
0.0
 11
111.4966310151467
 21
126.0669474233022
 31
0.0
 11
110.9644224623255
 21
126.0153230940207
 31
0.0
 11
110.4366728774227
 21
125.9291551058826
 31
0.0
 11
109.926256654504
 21
125.8106074500486
 31
0.0
 11
109.4249923171965
 21
125.657699622744
 31
0.0
 11
108.9514203311394
 21
125.476139441011
 31
0.0
 11
108.4921530797383
 21
125.2607011447544
 31
0.0
 11
108.0692033755253
 21
125.0217496098735
 31
0.0
 11
107.6663608699064
 21
124.7500038272538
 31
0.0
 11
107.3061973272767
 21
124.460715040327
 31
0.0
 11
106.9726684248082
 21
124.1408064225855
 31
0.0
 11
106.6856478037303
 21
123.8093648405437
 31
0.0
 11
106.4323105415291
 21
123.4512461547904
 31
0.0
 11
106.2269580111395
 21
123.0867530939608
 31
0.0
 11
106.0621276008371
 21
122.7020042825877
 31
0.0
 11
105.9451648495953
 21
122.3145017656626
 31
0.0
 11
105.8739559468802
 21
121.9159103233325
 31
0.0
 11
105.8500800123289
 21
121.5166250994493
 31
0.0
 11
105.8739559468802
 21
121.1173398755661
 31
0.0
  0
SPLINE
  5
10C
330
4F
100
AcDbEntity
  8
1
  6
Continuous
 62
     7
100
AcDbSpline
210
0.0
220
0.0
230
1.0
 70
    11
 71
     3
 72
    79
 73
    75
 74
    73
 42
0.000000001
 43
0.0000000001
 44
0.00000001
 40
0.0
 40
0.0
 40
0.0
 40
0.0
 40
0.2683551658292075
 40
0.536542176387518
 40
0.8188166305145992
 40
1.100846469198113
 40
1.403193966923815
 40
1.705311760498467
 40
2.030641413910142
 40
2.355793489713208
 40
2.703970240268364
 40
3.052022212386219
 40
3.420414207071108
 40
3.788724107115643
 40
4.172826171636159
 40
4.556878997607972
 40
4.950900831678068
 40
5.34489965088094
 40
5.742302589061545
 40
6.139705527240534
 40
6.533704346438216
 40
6.927726180498619
 40
7.311779006454822
 40
7.695881070951213
 40
8.06419097096102
 40
8.432582965595126
 40
8.78063493764425
 40
9.128811688102406
 40
9.453963763779608
 40
9.779293417017728
 40
10.08141121037078
 40
10.38375870778879
 40
10.66578854605108
 40
10.94806299947329
 40
11.21625000804484
 40
11.48460518148929
 40
11.74789048789906
 40
12.01117579430768
 40
12.27953096774872
 40
12.54771797631476
 40
12.82999242972955
 40
13.11202226798321
 40
13.41436976539112
 40
13.71648755873371
 40
14.04181721196044
 40
14.36696928762647
 40
14.71514603807302
 40
15.06319801011101
 40
15.43159000473388
 40
15.79989990473308
 40
16.18400196921906
 40
16.56805479516558
 40
16.96207662921671
 40
17.35607544840583
 40
17.75347838657689
 40
18.15088132475029
 40
18.54488014394673
 40
18.93890197801105
 40
19.32295480397789
 40
19.70705686849391
 40
20.0753667685345
 40
20.44375876321543
 40
20.79181073532907
 40
21.13998748587839
 40
21.46513956167307
 40
21.79046921507028
 40
22.09258700862005
 40
22.39493450629628
 40
22.67696434487273
 40
22.95923879870175
 40
23.22742580779903
 40
23.49578098202991
 40
23.75906629051514
 40
24.02235158949286
 40
24.02235158949286
 40
24.02235158949286
 40
24.02235158949286
 10
101.4720771538743
 20
126.0664823506501
 30
0.0
 10
101.3837921062
 20
126.0512636754273
 30
0.0
 10
101.2072773300244
 20
126.0208358693612
 30
0.0
 10
100.9487030604527
 20
125.9300417035337
 30
0.0
 10
100.6982401758566
 20
125.8094272398319
 30
0.0
 10
100.4542376011718
 20
125.6535679654987
 30
0.0
 10
100.2230250536147
 20
125.4687169947394
 30
0.0
 10
100.0012146680471
 20
125.2515873656736
 30
0.0
 10
99.79546126001706
 20
125.0091638925467
 30
0.0
 10
99.60227170415865
 20
124.7376293007698
 30
0.0
 10
99.42752782749606
 20
124.4450244055969
 30
0.0
 10
99.26847951651797
 20
124.1274589459346
 30
0.0
 10
99.12963857814725
 20
123.7932766657804
 30
0.0
 10
99.0092752908094
 20
123.4393286276866
 30
0.0
 10
98.9103856113951
 20
123.073381314821
 30
0.0
 10
98.8321352900867
 20
122.6937419769496
 30
0.0
 10
98.77618733823616
 20
122.3068476155493
 30
0.0
 10
98.74224054576425
 20
121.9129503557758
 30
0.0
 10
98.73100788352139
 20
121.5166251093789
 30
0.0
 10
98.74224054571094
 20
121.1202998629705
 30
0.0
 10
98.77618733813094
 20
120.7264026032327
 30
0.0
 10
98.83213528989947
 20
120.3395082417066
 30
0.0
 10
98.91038561119299
 20
119.9598689042977
 30
0.0
 10
99.00927529028434
 20
119.5939215897439
 30
0.0
 10
99.1296385783261
 20
119.2399735577053
 30
0.0
 10
99.26847951357792
 20
118.9057912555581
 30
0.0
 10
99.42752783490947
 20
118.588225873645
 30
0.0
 10
99.60227167339292
 20
118.295620698012
 30
0.0
 10
99.7954613618034
 20
118.0240870871406
 30
0.0
 10
100.0012142925081
 20
117.7816600906634
 30
0.0
 10
100.2230263376659
 20
117.5645427221949
 30
0.0
 10
100.4542329201991
 20
117.3796476965759
 30
0.0
 10
100.6982563408909
 20
117.2239423972871
 30
0.0
 10
100.9486437933897
 20
117.1027707942934
 30
0.0
 10
101.2074863305615
 20
117.0139580666411
 30
0.0
 10
101.4696335819461
 20
116.9613263060945
 30
0.0
 10
101.734762824146
 20
116.9429084872512
 30
0.0
 10
101.9998920663457
 20
116.9613263060821
 30
0.0
 10
102.2620393177293
 20
117.0139580666165
 30
0.0
 10
102.5208818548996
 20
117.1027707942568
 30
0.0
 10
102.771269307396
 20
117.223942397239
 30
0.0
 10
103.0152927280846
 20
117.3796476965166
 30
0.0
 10
103.246499310614
 20
117.5645427221249
 30
0.0
 10
103.468311355767
 20
117.7816600905833
 30
0.0
 10
103.674064286466
 20
118.0240870870508
 30
0.0
 10
103.86725397487
 20
118.295620697913
 30
0.0
 10
104.0419978133459
 20
118.5882258735373
 30
0.0
 10
104.2010461346687
 20
118.9057912554422
 30
0.0
 10
104.3398870699106
 20
119.2399735575816
 30
0.0
 10
104.460250357941
 20
119.5939215896128
 30
0.0
 10
104.5591400370194
 20
119.9598689041596
 30
0.0
 10
104.6373903582983
 20
120.3395082415616
 30
0.0
 10
104.6933383100501
 20
120.7264026030805
 30
0.0
 10
104.7272851024518
 20
121.1202998628121
 30
0.0
 10
104.7385177646201
 20
121.5166251092108
 30
0.0
 10
104.7272851023556
 20
121.9129503556086
 30
0.0
 10
104.6933383098531
 20
122.3068476153416
 30
0.0
 10
104.6373903579931
 20
122.6937419768499
 30
0.0
 10
104.5591400365876
 20
123.0733813142814
 30
0.0
 10
104.4602503573862
 20
123.4393286287026
 30
0.0
 10
104.3398870691363
 20
123.7932766611557
 30
0.0
 10
104.2010461339201
 20
124.1274589617181
 30
0.0
 10
104.0419978116316
 20
124.4450243491322
 30
0.0
 10
103.8672539756066
 20
124.7376295047862
 30
0.0
 10
103.6740642774698
 20
125.0091631853595
 30
0.0
 10
103.4683113803631
 20
125.2515899312369
 30
0.0
 10
103.2464992167961
 20
125.4687081714458
 30
0.0
 10
103.0152930579716
 20
125.6536000643189
 30
0.0
 10
102.7712681544351
 20
125.8093163122802
 30
0.0
 10
102.5208860651073
 20
125.9304482981842
 30
0.0
 10
102.2620244513855
 20
126.0194019212492
 30
0.0
 10
101.9999472158472
 20
126.0715165296595
 30
0.0
 10
101.7345612814649
 20
126.0918303063187
 30
0.0
 10
101.5595718622475
 20
126.0749316662457
 30
0.0
 10
101.4720771538743
 20
126.0664823506501
 30
0.0
 11
101.4720771538743
 21
126.0664823506501
 31
0.0
 11
101.2089931160003
 21
126.0135551534113
 31
0.0
 11
100.9551026104537
 21
125.9271613872523
 31
0.0
 11
100.7008935703545
 21
125.804455922591
 31
0.0
 11
100.4627795329642
 21
125.6533184522869
 31
0.0
 11
100.2263312595662
 21
125.4648875013716
 31
0.0
 11
100.0100348679203
 21
125.2539585273727
 31
0.0
 11
99.79909076551111
 21
125.0062854182486
 31
0.0
 11
99.61023719226942
 21
124.7416003218982
 31
0.0
 11
99.43128340703637
 21
124.4429322915605
 31
0.0
 11
99.27513684677685
 21
124.1318721253644
 31
0.0
 11
99.13342346375858
 21
123.7918280417405
 31
0.0
 11
99.01464460934012
 21
123.4431967663134
 31
0.0
 11
98.91416196648267
 21
123.0724709451885
 31
0.0
 11
98.83652137274407
 21
122.6963479449095
 31
0.0
 11
98.77994872915814
 21
122.3064085371533
 31
0.0
 11
98.74610182114432
 21
121.9138662383472
 31
0.0
 11
98.73476282455535
 21
121.5166250994493
 31
0.0
 11
98.74610182114431
 21
121.1193839605514
 31
0.0
 11
98.77994872915814
 21
120.7268416617453
 31
0.0
 11
98.83652137274407
 21
120.3369022539891
 31
0.0
 11
98.91416196648267
 21
119.9607792537102
 31
0.0
 11
99.01464460934014
 21
119.5900534325852
 31
0.0
 11
99.13342346375858
 21
119.2414221571581
 31
0.0
 11
99.27513684677683
 21
118.9013780735342
 31
0.0
 11
99.43128340703636
 21
118.590317907338
 31
0.0
 11
99.61023719226942
 21
118.2916498770004
 31
0.0
 11
99.79909076551108
 21
118.02696478065
 31
0.0
 11
100.0100348679202
 21
117.7792916715259
 31
0.0
 11
100.2263312595661
 21
117.5683626975269
 31
0.0
 11
100.4627795329642
 21
117.3799317466116
 31
0.0
 11
100.7008935703544
 21
117.2287942763076
 31
0.0
 11
100.9551026104536
 21
117.1060888116463
 31
0.0
 11
101.2089931160003
 21
117.0196950454873
 31
0.0
 11
101.4720771538742
 21
116.9667678482485
 31
0.0
 11
101.7347628245553
 21
116.9490085952325
 31
0.0
 11
101.9974484952364
 21
116.9667678482485
 31
0.0
 11
102.2605325331104
 21
117.0196950454873
 31
0.0
 11
102.5144230386571
 21
117.1060888116463
 31
0.0
 11
102.7686320787563
 21
117.2287942763076
 31
0.0
 11
103.0067461161465
 21
117.3799317466116
 31
0.0
 11
103.2431943895446
 21
117.5683626975269
 31
0.0
 11
103.4594907811905
 21
117.7792916715259
 31
0.0
 11
103.6704348835996
 21
118.02696478065
 31
0.0
 11
103.8592884568413
 21
118.2916498770004
 31
0.0
 11
104.0382422420743
 21
118.5903179073381
 31
0.0
 11
104.1943888023339
 21
118.9013780735342
 31
0.0
 11
104.3361021853522
 21
119.2414221571581
 31
0.0
 11
104.4548810397706
 21
119.5900534325852
 31
0.0
 11
104.555363682628
 21
119.9607792537101
 31
0.0
 11
104.6330042763666
 21
120.3369022539891
 31
0.0
 11
104.6895769199525
 21
120.7268416617453
 31
0.0
 11
104.7234238279664
 21
121.1193839605514
 31
0.0
 11
104.7347628245553
 21
121.5166250994493
 31
0.0
 11
104.7234238279664
 21
121.9138662383472
 31
0.0
 11
104.6895769199526
 21
122.3064085371533
 31
0.0
 11
104.6330042763666
 21
122.6963479449095
 31
0.0
 11
104.5553636826281
 21
123.0724709451885
 31
0.0
 11
104.4548810397706
 21
123.4431967663134
 31
0.0
 11
104.3361021853522
 21
123.7918280417405
 31
0.0
 11
104.1943888023339
 21
124.1318721253643
 31
0.0
 11
104.0382422420743
 21
124.4429322915605
 31
0.0
 11
103.8592884568413
 21
124.7416003218982
 31
0.0
 11
103.6704348835996
 21
125.0062854182486
 31
0.0
 11
103.4594907811905
 21
125.2539585273727
 31
0.0
 11
103.2431943895446
 21
125.4648875013716
 31
0.0
 11
103.0067461161465
 21
125.6533184522869
 31
0.0
 11
102.7686320787563
 21
125.804455922591
 31
0.0
 11
102.5144230386571
 21
125.9271613872523
 31
0.0
 11
102.2605325331104
 21
126.0135551534113
 31
0.0
 11
101.9974484952365
 21
126.0664823506501
 31
0.0
 11
101.7347628245554
 21
126.084241603666
 31
0.0
 11
101.4720771538743
 21
126.0664823506501
 31
0.0
  0
SPLINE
  5
10D
330
4F
100
AcDbEntity
  8
1
  6
Continuous
 62
     7
100
AcDbSpline
210
0.0
220
0.0
230
1.0
 70
    11
 71
     3
 72
    79
 73
    75
 74
    73
 42
0.000000001
 43
0.0000000001
 44
0.00000001
 40
0.0
 40
0.0
 40
0.0
 40
0.0
 40
0.2683551658292215
 40
0.5365421763875049
 40
0.8188166305145349
 40
1.100846469198061
 40
1.403193966923796
 40
1.705311760498448
 40
2.030641413910113
 40
2.355793489713163
 40
2.703970240268319
 40
3.052022212386187
 40
3.420414207071081
 40
3.788724107115602
 40
4.172826171636118
 40
4.556878997607933
 40
4.950900831678032
 40
5.344899650880904
 40
5.742302589061508
 40
6.139705527240496
 40
6.533704346438176
 40
6.92772618049858
 40
7.311779006454781
 40
7.695881070951176
 40
8.06419097096098
 40
8.4325829655951
 40
8.780634937644232
 40
9.128811688102374
 40
9.45396376377956
 40
9.779293417017707
 40
10.08141121037076
 40
10.38375870778878
 40
10.66578854605108
 40
10.94806299947327
 40
11.21625000804481
 40
11.48460518148927
 40
11.74789048789905
 40
12.01117579430762
 40
12.27953096774864
 40
12.54771797631466
 40
12.82999242972944
 40
13.11202226798309
 40
13.41436976539103
 40
13.71648755873364
 40
14.0418172119604
 40
14.3669692876264
 40
14.71514603807293
 40
15.06319801011092
 40
15.4315900047338
 40
15.799899904733
 40
16.18400196921898
 40
16.5680547951655
 40
16.96207662921664
 40
17.35607544840576
 40
17.75347838657682
 40
18.15088132475022
 40
18.54488014394665
 40
18.93890197801097
 40
19.32295480397782
 40
19.70705686849384
 40
20.07536676853443
 40
20.44375876321536
 40
20.79181073532899
 40
21.1399874858783
 40
21.46513956167297
 40
21.7904692150702
 40
22.09258700861999
 40
22.39493450629623
 40
22.67696434487267
 40
22.95923879870169
 40
23.22742580779899
 40
23.49578098202986
 40
23.75906629051508
 40
24.02235158949281
 40
24.02235158949281
 40
24.02235158949281
 40
24.02235158949281
 10
122.5973997476365
 20
126.0664823506501
 30
0.0
 10
122.6856847953108
 20
126.0512636754273
 30
0.0
 10
122.8621995714863
 20
126.0208358693612
 30
0.0
 10
123.1207738410581
 20
125.9300417035337
 30
0.0
 10
123.3712367256542
 20
125.8094272398318
 30
0.0
 10
123.6152393003389
 20
125.6535679654987
 30
0.0
 10
123.8464518478961
 20
125.4687169947394
 30
0.0
 10
124.0682622334637
 20
125.2515873656736
 30
0.0
 10
124.2740156414937
 20
125.0091638925467
 30
0.0
 10
124.467205197352
 20
124.7376293007697
 30
0.0
 10
124.6419490740147
 20
124.4450244055969
 30
0.0
 10
124.8009973849927
 20
124.1274589459345
 30
0.0
 10
124.9398383233635
 20
123.7932766657804
 30
0.0
 10
125.0602016107013
 20
123.4393286276866
 30
0.0
 10
125.1590912901156
 20
123.073381314821
 30
0.0
 10
125.2373416114241
 20
122.6937419769496
 30
0.0
 10
125.2932895632746
 20
122.3068476155493
 30
0.0
 10
125.3272363557465
 20
121.9129503557758
 30
0.0
 10
125.3384690179894
 20
121.5166251093789
 30
0.0
 10
125.3272363557998
 20
121.1202998629705
 30
0.0
 10
125.2932895633798
 20
120.7264026032327
 30
0.0
 10
125.2373416116113
 20
120.3395082417067
 30
0.0
 10
125.1590912903178
 20
119.9598689042977
 30
0.0
 10
125.0602016112264
 20
119.5939215897439
 30
0.0
 10
124.9398383231846
 20
119.2399735577053
 30
0.0
 10
124.8009973879328
 20
118.9057912555581
 30
0.0
 10
124.6419490666012
 20
118.588225873645
 30
0.0
 10
124.4672052281178
 20
118.295620698012
 30
0.0
 10
124.2740155397074
 20
118.0240870871406
 30
0.0
 10
124.0682626090026
 20
117.7816600906634
 30
0.0
 10
123.8464505638448
 20
117.5645427221949
 30
0.0
 10
123.6152439813116
 20
117.3796476965759
 30
0.0
 10
123.3712205606198
 20
117.2239423972871
 30
0.0
 10
123.120833108121
 20
117.1027707942934
 30
0.0
 10
122.8619905709492
 20
117.0139580666411
 30
0.0
 10
122.5998433195646
 20
116.9613263060945
 30
0.0
 10
122.3347140773647
 20
116.9429084872512
 30
0.0
 10
122.0695848351651
 20
116.9613263060821
 30
0.0
 10
121.8074375837814
 20
117.0139580666165
 30
0.0
 10
121.5485950466112
 20
117.1027707942568
 30
0.0
 10
121.2982075941148
 20
117.223942397239
 30
0.0
 10
121.0541841734261
 20
117.3796476965166
 30
0.0
 10
120.8229775908968
 20
117.5645427221249
 30
0.0
 10
120.6011655457438
 20
117.7816600905832
 30
0.0
 10
120.3954126150447
 20
118.0240870870508
 30
0.0
 10
120.2022229266407
 20
118.2956206979129
 30
0.0
 10
120.0274790881649
 20
118.5882258735373
 30
0.0
 10
119.8684307668421
 20
118.9057912554422
 30
0.0
 10
119.7295898316002
 20
119.2399735575816
 30
0.0
 10
119.6092265435699
 20
119.5939215896128
 30
0.0
 10
119.5103368644913
 20
119.9598689041595
 30
0.0
 10
119.4320865432125
 20
120.3395082415616
 30
0.0
 10
119.3761385914605
 20
120.7264026030806
 30
0.0
 10
119.342191799059
 20
121.120299862812
 30
0.0
 10
119.3309591368907
 20
121.5166251092108
 30
0.0
 10
119.3421917991552
 20
121.9129503556086
 30
0.0
 10
119.3761385916577
 20
122.3068476153416
 30
0.0
 10
119.4320865435176
 20
122.6937419768498
 30
0.0
 10
119.5103368649232
 20
123.0733813142814
 30
0.0
 10
119.6092265441246
 20
123.4393286287026
 30
0.0
 10
119.7295898323745
 20
123.7932766611557
 30
0.0
 10
119.8684307675906
 20
124.1274589617181
 30
0.0
 10
120.0274790898792
 20
124.4450243491323
 30
0.0
 10
120.2022229259041
 20
124.7376295047862
 30
0.0
 10
120.3954126240409
 20
125.0091631853595
 30
0.0
 10
120.6011655211477
 20
125.251589931237
 30
0.0
 10
120.8229776847148
 20
125.4687081714457
 30
0.0
 10
121.0541838435392
 20
125.653600064319
 30
0.0
 10
121.2982087470756
 20
125.8093163122802
 30
0.0
 10
121.5485908364035
 20
125.9304482981842
 30
0.0
 10
121.8074524501253
 20
126.0194019212492
 30
0.0
 10
122.0695296856636
 20
126.0715165296594
 30
0.0
 10
122.3349156200459
 20
126.0918303063188
 30
0.0
 10
122.5099050392633
 20
126.0749316662456
 30
0.0
 10
122.5973997476365
 20
126.0664823506501
 30
0.0
 11
122.5973997476365
 21
126.0664823506501
 31
0.0
 11
122.8604837855105
 21
126.0135551534113
 31
0.0
 11
123.1143742910571
 21
125.9271613872523
 31
0.0
 11
123.3685833311563
 21
125.804455922591
 31
0.0
 11
123.6066973685465
 21
125.6533184522869
 31
0.0
 11
123.8431456419446
 21
125.4648875013716
 31
0.0
 11
124.0594420335905
 21
125.2539585273727
 31
0.0
 11
124.2703861359996
 21
125.0062854182486
 31
0.0
 11
124.4592397092413
 21
124.7416003218982
 31
0.0
 11
124.6381934944744
 21
124.4429322915605
 31
0.0
 11
124.7943400547339
 21
124.1318721253644
 31
0.0
 11
124.9360534377522
 21
123.7918280417405
 31
0.0
 11
125.0548322921706
 21
123.4431967663134
 31
0.0
 11
125.1553149350281
 21
123.0724709451885
 31
0.0
 11
125.2329555287667
 21
122.6963479449095
 31
0.0
 11
125.2895281723526
 21
122.3064085371533
 31
0.0
 11
125.3233750803664
 21
121.9138662383472
 31
0.0
 11
125.3347140769554
 21
121.5166250994493
 31
0.0
 11
125.3233750803664
 21
121.1193839605514
 31
0.0
 11
125.2895281723526
 21
120.7268416617453
 31
0.0
 11
125.2329555287667
 21
120.3369022539891
 31
0.0
 11
125.1553149350281
 21
119.9607792537102
 31
0.0
 11
125.0548322921706
 21
119.5900534325852
 31
0.0
 11
124.9360534377522
 21
119.2414221571581
 31
0.0
 11
124.7943400547339
 21
118.9013780735342
 31
0.0
 11
124.6381934944743
 21
118.590317907338
 31
0.0
 11
124.4592397092413
 21
118.2916498770004
 31
0.0
 11
124.2703861359997
 21
118.02696478065
 31
0.0
 11
124.0594420335905
 21
117.7792916715259
 31
0.0
 11
123.8431456419446
 21
117.5683626975269
 31
0.0
 11
123.6066973685465
 21
117.3799317466116
 31
0.0
 11
123.3685833311563
 21
117.2287942763076
 31
0.0
 11
123.1143742910571
 21
117.1060888116463
 31
0.0
 11
122.8604837855104
 21
117.0196950454873
 31
0.0
 11
122.5973997476365
 21
116.9667678482485
 31
0.0
 11
122.3347140769554
 21
116.9490085952325
 31
0.0
 11
122.0720284062743
 21
116.9667678482485
 31
0.0
 11
121.8089443684003
 21
117.0196950454873
 31
0.0
 11
121.5550538628537
 21
117.1060888116463
 31
0.0
 11
121.3008448227545
 21
117.2287942763076
 31
0.0
 11
121.0627307853643
 21
117.3799317466116
 31
0.0
 11
120.8262825119662
 21
117.5683626975269
 31
0.0
 11
120.6099861203203
 21
117.7792916715259
 31
0.0
 11
120.3990420179111
 21
118.02696478065
 31
0.0
 11
120.2101884446695
 21
118.2916498770004
 31
0.0
 11
120.0312346594364
 21
118.5903179073381
 31
0.0
 11
119.8750880991769
 21
118.9013780735342
 31
0.0
 11
119.7333747161586
 21
119.2414221571581
 31
0.0
 11
119.6145958617402
 21
119.5900534325852
 31
0.0
 11
119.5141132188827
 21
119.9607792537101
 31
0.0
 11
119.4364726251441
 21
120.3369022539891
 31
0.0
 11
119.3798999815582
 21
120.7268416617453
 31
0.0
 11
119.3460530735444
 21
121.1193839605514
 31
0.0
 11
119.3347140769554
 21
121.5166250994493
 31
0.0
 11
119.3460530735444
 21
121.9138662383472
 31
0.0
 11
119.3798999815582
 21
122.3064085371533
 31
0.0
 11
119.4364726251441
 21
122.6963479449095
 31
0.0
 11
119.5141132188827
 21
123.0724709451885
 31
0.0
 11
119.6145958617402
 21
123.4431967663134
 31
0.0
 11
119.7333747161586
 21
123.7918280417405
 31
0.0
 11
119.8750880991769
 21
124.1318721253643
 31
0.0
 11
120.0312346594364
 21
124.4429322915605
 31
0.0
 11
120.2101884446695
 21
124.7416003218982
 31
0.0
 11
120.3990420179111
 21
125.0062854182486
 31
0.0
 11
120.6099861203203
 21
125.2539585273727
 31
0.0
 11
120.8262825119662
 21
125.4648875013716
 31
0.0
 11
121.0627307853643
 21
125.6533184522869
 31
0.0
 11
121.3008448227545
 21
125.804455922591
 31
0.0
 11
121.5550538628537
 21
125.9271613872523
 31
0.0
 11
121.8089443684004
 21
126.0135551534113
 31
0.0
 11
122.0720284062743
 21
126.0664823506501
 31
0.0
 11
122.3347140769554
 21
126.084241603666
 31
0.0
 11
122.5973997476365
 21
126.0664823506501
 31
0.0
  0
ENDBLK
  5
51
330
4F
100
AcDbEntity
  8
0
100
AcDbBlockEnd
  0
BLOCK
  5
12E
330
127
100
AcDbEntity
  8
0
100
AcDbBlockBegin
  2
*D4
 70
     1
 10
0.0
 20
0.0
 30
0.0
  3
*D4
  1

  0
LINE
  5
128
330
127
100
AcDbEntity
  8
1
  6
Continuous
 62
     2
100
AcDbLine
 10
134.5347384507554
 20
209.754466826068
 30
0.0
 11
134.5347384507554
 21
185.754466826068
 31
0.0
  0
LINE
  5
129
330
127
100
AcDbEntity
  8
1
  6
Continuous
 62
     2
100
AcDbLine
 10
118.2193968891819
 20
185.754466826068
 30
0.0
 11
135.5347384507554
 21
185.754466826068
 31
0.0
  0
LINE
  5
12A
330
127
100
AcDbEntity
  8
1
  6
Continuous
 62
     2
100
AcDbLine
 10
118.2193968891819
 20
209.754466826068
 30
0.0
 11
135.5347384507554
 21
209.754466826068
 31
0.0
  0
SOLID
  5
12B
330
127
100
AcDbEntity
  8
1
 62
     2
100
AcDbTrace
 10
134.9955221923113
 20
206.254466826068
 30
0.0
 11
134.0739547091995
 21
206.254466826068
 31
0.0
 12
134.5347384507554
 22
209.754466826068
 32
0.0
 13
134.5347384507554
 23
209.754466826068
 33
0.0
  0
SOLID
  5
12C
330
127
100
AcDbEntity
  8
1
 62
     2
100
AcDbTrace
 10
134.0739547091995
 20
189.254466826068
 30
0.0
 11
134.9955221923113
 21
189.254466826068
 31
0.0
 12
134.5347384507554
 22
185.754466826068
 32
0.0
 13
134.5347384507554
 23
185.754466826068
 33
0.0
  0
MTEXT
  5
12D
330
127
100
AcDbEntity
  8
1
 62
     7
100
AcDbMText
 10
133.5347384507554
 20
195.129466826068
 30
0.0
 40
3.5
 41
0.0
 71
     7
 72
     1
  1
24
  7
CONVERTER_12
 11
0.0
 21
1.0
 31
0.0
 73
     1
 44
0.60024009603842
  0
ENDBLK
  5
12F
330
127
100
AcDbEntity
  8
0
100
AcDbBlockEnd
  0
BLOCK
  5
139
330
132
100
AcDbEntity
  8
0
100
AcDbBlockBegin
  2
*D5
 70
     1
 10
0.0
 20
0.0
 30
0.0
  3
*D5
  1

  0
LINE
  5
133
330
132
100
AcDbEntity
  8
1
  6
Continuous
 62
     2
100
AcDbLine
 10
98.53473845075538
 20
220.754466826068
 30
0.0
 11
125.5347384507554
 21
220.754466826068
 31
0.0
  0
LINE
  5
134
330
132
100
AcDbEntity
  8
1
  6
Continuous
 62
     2
100
AcDbLine
 10
125.5347384507554
 20
197.754466826068
 30
0.0
 11
125.5347384507554
 21
221.754466826068
 31
0.0
  0
LINE
  5
135
330
132
100
AcDbEntity
  8
1
  6
Continuous
 62
     2
100
AcDbLine
 10
98.53473845075538
 20
197.754466826068
 30
0.0
 11
98.53473845075538
 21
221.754466826068
 31
0.0
  0
SOLID
  5
136
330
132
100
AcDbEntity
  8
1
 62
     2
100
AcDbTrace
 10
102.0347384507554
 20
221.2152505676239
 30
0.0
 11
102.0347384507554
 21
220.2936830845121
 31
0.0
 12
98.53473845075538
 22
220.754466826068
 32
0.0
 13
98.53473845075538
 23
220.754466826068
 33
0.0
  0
SOLID
  5
137
330
132
100
AcDbEntity
  8
1
 62
     2
100
AcDbTrace
 10
122.0347384507554
 20
220.2936830845121
 30
0.0
 11
122.0347384507554
 21
221.2152505676239
 31
0.0
 12
125.5347384507554
 22
220.754466826068
 32
0.0
 13
125.5347384507554
 23
220.754466826068
 33
0.0
  0
MTEXT
  5
138
330
132
100
AcDbEntity
  8
1
 62
     7
100
AcDbMText
 10
108.6397384507638
 20
221.7544598689917
 30
0.0
 40
3.5
 41
0.0
 71
     7
 72
     1
  1
\C7;{\Fgdt;n}\C7;27
  7
CONVERTER_12
 11
0.9999999999970619
 21
2.424068405545306E-6
 31
0.0
 73
     1
 44
0.60024009603842
  0
ENDBLK
  5
13A
330
132
100
AcDbEntity
  8
0
100
AcDbBlockEnd
  0
BLOCK
  5
144
330
13D
100
AcDbEntity
  8
0
100
AcDbBlockBegin
  2
*D6
 70
     1
 10
0.0
 20
0.0
 30
0.0
  3
*D6
  1

  0
LINE
  5
13E
330
13D
100
AcDbEntity
  8
1
  6
Continuous
 62
     2
100
AcDbLine
 10
82.63473845075536
 20
135.5166250994493
 30
0.0
 11
82.63473845075536
 21
116.0166250994493
 31
0.0
  0
LINE
  5
13F
330
13D
100
AcDbEntity
  8
1
  6
Continuous
 62
     2
100
AcDbLine
 10
100.5347384507554
 20
116.0166250994493
 30
0.0
 11
81.63473845075536
 21
116.0166250994493
 31
0.0
  0
LINE
  5
140
330
13D
100
AcDbEntity
  8
1
  6
Continuous
 62
     2
100
AcDbLine
 10
103.1347384507554
 20
135.5166250994493
 30
0.0
 11
81.63473845075536
 21
135.5166250994493
 31
0.0
  0
SOLID
  5
141
330
13D
100
AcDbEntity
  8
1
 62
     2
100
AcDbTrace
 10
83.09552219231125
 20
132.0166250994493
 30
0.0
 11
82.17395470919948
 21
132.0166250994493
 31
0.0
 12
82.63473845075536
 22
135.5166250994493
 32
0.0
 13
82.63473845075536
 23
135.5166250994493
 33
0.0
  0
SOLID
  5
142
330
13D
100
AcDbEntity
  8
1
 62
     2
100
AcDbTrace
 10
82.17395470919948
 20
119.5166250994493
 30
0.0
 11
83.09552219231125
 21
119.5166250994493
 31
0.0
 12
82.63473845075536
 22
116.0166250994493
 32
0.0
 13
82.63473845075536
 23
116.0166250994493
 33
0.0
  0
MTEXT
  5
143
330
13D
100
AcDbEntity
  8
1
 62
     7
100
AcDbMText
 10
81.63473845075536
 20
123.1049834458767
 30
0.0
 40
3.5
 41
0.0
 71
     7
 72
     1
  1
20
  7
CONVERTER_12
 11
0.0
 21
1.0
 31
0.0
 73
     1
 44
0.60024009603842
  0
ENDBLK
  5
145
330
13D
100
AcDbEntity
  8
0
100
AcDbBlockEnd
  0
BLOCK
  5
151
330
148
100
AcDbEntity
  8
0
100
AcDbBlockBegin
  2
*D7
 70
     1
 10
0.0
 20
0.0
 30
0.0
  3
*D7
  1

  0
LINE
  5
149
330
148
100
AcDbEntity
  8
1
  6
Continuous
 62
     2
100
AcDbLine
 10
90.63473845075538
 20
127.0166250994493
 30
0.0
 11
90.63473845075538
 21
120.0166250994493
 31
0.0
  0
LINE
  5
14A
330
148
100
AcDbEntity
  8
1
  6
Continuous
 62
     2
100
AcDbLine
 10
90.63473845075538
 20
135.5166250994493
 30
0.0
 11
90.63473845075538
 21
127.0166250994493
 31
0.0
  0
LINE
  5
14B
330
148
100
AcDbEntity
  8
1
  6
Continuous
 62
     2
100
AcDbLine
 10
90.63473845075538
 20
142.5166250994493
 30
0.0
 11
90.63473845075538
 21
135.5166250994493
 31
0.0
  0
LINE
  5
14C
330
148
100
AcDbEntity
  8
1
  6
Continuous
 62
     2
100
AcDbLine
 10
100.5347384507554
 20
127.0166250994493
 30
0.0
 11
89.63473845075538
 21
127.0166250994493
 31
0.0
  0
LINE
  5
14D
330
148
100
AcDbEntity
  8
1
  6
Continuous
 62
     2
100
AcDbLine
 10
103.1347384507554
 20
135.5166250994493
 30
0.0
 11
89.63473845075538
 21
135.5166250994493
 31
0.0
  0
SOLID
  5
14E
330
148
100
AcDbEntity
  8
1
 62
     2
100
AcDbTrace
 10
90.17395470919949
 20
139.0166250994493
 30
0.0
 11
91.09552219231126
 21
139.0166250994493
 31
0.0
 12
90.63473845075538
 22
135.5166250994493
 32
0.0
 13
90.63473845075538
 23
135.5166250994493
 33
0.0
  0
SOLID
  5
14F
330
148
100
AcDbEntity
  8
1
 62
     2
100
AcDbTrace
 10
91.09552219231126
 20
123.5166250994493
 30
0.0
 11
90.17395470919949
 21
123.5166250994493
 31
0.0
 12
90.63473845075538
 22
127.0166250994493
 32
0.0
 13
90.63473845075538
 23
127.0166250994493
 33
0.0
  0
MTEXT
  5
150
330
148
100
AcDbEntity
  8
1
 62
     7
100
AcDbMText
 10
89.63473845075538
 20
129.8624527950138
 30
0.0
 40
3.5
 41
0.0
 71
     7
 72
     1
  1
9
  7
CONVERTER_12
 11
0.0
 21
1.0
 31
0.0
 73
     1
 44
0.60024009603842
  0
ENDBLK
  5
152
330
148
100
AcDbEntity
  8
0
100
AcDbBlockEnd
  0
ENDSEC
  0
SECTION
  2
ENTITIES
  0
INSERT
  5
52
330
1F
100
AcDbEntity
  8
0
100
AcDbBlockReference
  2
開示A4枠
 10
0.0
 20
0.0
 30
0.0
  0
INSERT
  5
53
330
1F
100
AcDbEntity
  8
1
100
AcDbBlockReference
  2
35-69
 10
-27.48067698188725
 20
-195.9833749005507
 30
0.0
  0
LINE
  5
10E
330
1F
100
AcDbEntity
  8
1
  6
DASH_CENTER
 62
     2
100
AcDbLine
 10
112.0347384507554
 20
113.4510145202867
 30
0.0
 11
112.0347384507554
 21
139.2935961671994
 31
0.0
  0
LINE
  5
10F
330
1F
100
AcDbEntity
  8
1
  6
DASH_CENTER
 62
     2
100
AcDbLine
 10
127.6810900601388
 20
197.754466826068
 30
0.0
 11
123.5347384507554
 21
197.754466826068
 31
0.0
  0
LINE
  5
110
330
1F
100
AcDbEntity
  8
1
  6
DASH_CENTER
 62
     2
100
AcDbLine
 10
123.5347384507554
 20
197.754466826068
 30
0.0
 11
121.2727384507554
 21
197.754466826068
 31
0.0
  0
LINE
  5
111
330
1F
100
AcDbEntity
  8
1
  6
DASH_CENTER
 62
     2
100
AcDbLine
 10
112.0347384507554
 20
212.4833010318135
 30
0.0
 11
112.0347384507554
 21
182.9423995268718
 31
0.0
  0
LINE
  5
112
330
1F
100
AcDbEntity
  8
1
  6
DASH_CENTER
 62
     2
100
AcDbLine
 10
121.2727384507554
 20
197.754466826068
 30
0.0
 11
96.75726740823447
 21
197.754466826068
 31
0.0
  0
SOLID
  5
113
330
1F
100
AcDbEntity
  8
1
 62
     2
100
AcDbTrace
 10
124.6837888765936
 20
113.2159280569817
 30
0.0
 11
123.8856880249172
 21
112.7551443154258
 31
0.0
 12
122.5347384507554
 22
116.0166250994493
 32
0.0
 13
122.5347384507554
 23
116.0166250994493
 33
0.0
  0
LEADER
  5
114
330
1F
100
AcDbEntity
  8
1
  6
Continuous
 62
     2
100
AcDbLeader
  3
Standard
 71
     0
 76
     3
 10
122.5347384507554
 20
116.0166250994493
 30
0.0
 10
130.5599071924912
 20
102.1166250994493
 30
0.0
 10
152.5894550506164
 20
102.1166250994493
 30
0.0
  0
SOLID
  5
115
330
1F
100
AcDbEntity
  8
1
 62
     2
100
AcDbTrace
 10
123.7856880249171
 20
135.8207838452144
 30
0.0
 11
124.5837888765936
 21
135.3600001036585
 31
0.0
 12
122.4347384507554
 22
132.5593030611909
 32
0.0
 13
122.4347384507554
 23
132.5593030611909
 33
0.0
  0
LEADER
  5
116
330
1F
100
AcDbEntity
  8
1
  6
Continuous
 62
     2
100
AcDbLeader
  3
Standard
 71
     0
 76
     3
 10
122.4347384507554
 20
132.5593030611909
 30
0.0
 10
130.3476939273575
 20
146.2649439846962
 30
0.0
 10
146.5368021547424
 20
146.2649439846962
 30
0.0
  0
MTEXT
  5
118
330
1F
100
AcDbEntity
  8
1
 62
     7
100
AcDbMText
 10
157.5
 20
12.5
 30
0.0
 40
2.5
 41
0.0
 71
     5
 72
     1
  1
9
  7
CONVERTER_12
 73
     1
 44
0.7202881152461
  0
MTEXT
  5
119
330
1F
100
AcDbEntity
  8
1
 62
     7
100
AcDbMText
 10
151.75
 20
12.5
 30
0.0
 40
2.5
 41
0.0
 71
     5
 72
     1
  1
03
  7
CONVERTER_12
 73
     1
 44
0.7202881152461
  0
MTEXT
  5
11A
330
1F
100
AcDbEntity
  8
1
 62
     7
100
AcDbMText
 10
140.5
 20
12.5
 30
0.0
 40
2.5
 41
0.0
 71
     5
 72
     1
  1
9
  7
CONVERTER_12
 73
     1
 44
0.7202881152461
  0
MTEXT
  5
11B
330
1F
100
AcDbEntity
  8
1
 62
     7
100
AcDbMText
 10
134.75
 20
12.5
 30
0.0
 40
2.5
 41
0.0
 71
     5
 72
     1
  1
03
  7
CONVERTER_12
 73
     1
 44
0.7202881152461
  0
MTEXT
  5
11C
330
1F
100
AcDbEntity
  8
1
 62
     7
100
AcDbMText
 10
123.5
 20
12.5
 30
0.0
 40
2.5
 41
0.0
 71
     5
 72
     1
  1
9
  7
CONVERTER_12
 73
     1
 44
0.7202881152461
  0
MTEXT
  5
11D
330
1F
100
AcDbEntity
  8
1
 62
     7
100
AcDbMText
 10
117.75
 20
12.5
 30
0.0
 40
2.5
 41
0.0
 71
     5
 72
     1
  1
03
  7
CONVERTER_12
 73
     1
 44
0.7202881152461
  0
MTEXT
  5
11E
330
1F
100
AcDbEntity
  8
1
 62
     7
100
AcDbMText
 10
100.75
 20
12.5
 30
0.0
 40
2.5
 41
0.0
 71
     5
 72
     1
  1
03
  7
CONVERTER_12
 73
     1
 44
0.7202881152461
  0
MTEXT
  5
11F
330
1F
100
AcDbEntity
  8
1
 62
     7
100
AcDbMText
 10
106.5
 20
12.5
 30
0.0
 40
2.5
 41
0.0
 71
     5
 72
     1
  1
9
  7
CONVERTER_12
 73
     1
 44
0.7202881152461
  0
TEXT
  5
120
330
1F
100
AcDbEntity
  8
1
 62
     7
100
AcDbText
 10
133.3414890253362
 20
102.9716807684775
 30
0.0
 40
3.5
  1
W21山18
 41
0.89
  7
CONVERTER_11
100
AcDbText
  0
TEXT
  5
121
330
1F
100
AcDbEntity
  8
1
 62
     7
100
AcDbText
 10
134.1461068976572
 20
146.7415130526549
 30
0.0
 40
3.5
  1
G1/2
 41
0.9
  7
CONVERTER_12
100
AcDbText
  0
MTEXT
  5
122
330
1F
100
AcDbEntity
  8
1
 62
     7
100
AcDbMText
 10
93.75
 20
17.00000000000001
 30
0.0
 40
3.5
 41
0.0
 71
     5
 72
     1
  1
1
  7
CONVERTER_12
 73
     1
 44
0.7202881152461
  0
MTEXT
  5
123
330
1F
100
AcDbEntity
  8
1
 62
     7
100
AcDbMText
 10
57.0
 20
14.25000000000001
 30
0.0
 40
3.5
 41
0.0
 71
     5
 72
     1
  1
T25-10
  7
CONVERTER_12
 73
     1
 44
0.7202881152461
  0
MTEXT
  5
124
330
1F
100
AcDbEntity
  8
1
 62
     7
100
AcDbMText
 10
57.0
 20
22.75000000000003
 30
0.0
 40
3.5
 41
0.0
 71
     5
 72
     1
  1
シャワアダプター
  7
CONVERTER_11
 73
     1
 44
0.54545454545455
  0
MTEXT
  5
125
330
1F
100
AcDbEntity
  8
1
 62
     7
100
AcDbMText
 10
85.25
 20
17.00000000000001
 30
0.0
 40
3.5
 41
0.0
 71
     5
 72
     1
  1
1
  7
CONVERTER_12
 73
     1
 44
0.7202881152461
  0
MTEXT
  5
126
330
1F
100
AcDbEntity
  8
0
 62
     7
100
AcDbMText
 10
34.00000000000001
 20
34.00000000000001
 30
0.0
 40
3.5
 41
0.0
 71
     4
 72
     1
  1
YUKO社製混合栓用
  7
CONVERTER_11
 73
     1
 44
0.63636363636364
  0
DIMENSION
  5
131
330
1F
100
AcDbEntity
  8
1
100
AcDbDimension
  2
*D4
 10
134.5347384507554
 20
209.754466826068
 30
0.0
 11
131.7847384507554
 21
197.754466826068
 31
0.0
 70
    32
  1
<>
 71
     5
 42
-1.0
 53
90.0
  3
ME10_DIM_10
100
AcDbAlignedDimension
 13
118.2193968891819
 23
185.754466826068
 33
0.0
 14
118.2193968891819
 24
209.754466826068
 34
0.0
 50
90.0
100
AcDbRotatedDimension
  0
DIMENSION
  5
13C
330
1F
100
AcDbEntity
  8
1
100
AcDbDimension
  2
*D5
 10
98.53473845075538
 20
220.754466826068
 30
0.0
 11
112.0347384507554
 21
223.504466826068
 31
0.0
 70
    32
  1
<>
 71
     5
 42
-1.0
 53
0.00013888888889
  3
ME10_DIM_11
100
AcDbAlignedDimension
 13
125.5347384507554
 23
197.754466826068
 33
0.0
 14
98.53473845075537
 24
197.754466826068
 34
0.0
100
AcDbRotatedDimension
  0
DIMENSION
  5
147
330
1F
100
AcDbEntity
  8
1
100
AcDbDimension
  2
*D6
 10
82.63473845075536
 20
135.5166250994493
 30
0.0
 11
79.88473845075536
 21
125.7299834458767
 31
0.0
 70
    32
  1
20
 71
     5
 42
-1.0
 53
90.0
  3
ME10_DIM_12
100
AcDbAlignedDimension
 13
100.5347384507554
 23
116.0166250994493
 33
0.0
 14
103.1347384507554
 24
135.5166250994493
 34
0.0
 50
90.0
100
AcDbRotatedDimension
  0
DIMENSION
  5
154
330
1F
100
AcDbEntity
  8
1
100
AcDbDimension
  2
*D7
 10
90.63473845075538
 20
135.5166250994493
 30
0.0
 11
87.88473845075538
 21
130.9124527950138
 31
0.0
 70
    32
  1
9
 71
     5
 42
-1.0
 53
90.0
  3
ME10_DIM_13
100
AcDbAlignedDimension
 13
100.5347384507554
 23
127.0166250994493
 33
0.0
 14
103.1347384507554
 24
135.5166250994493
 34
0.0
 50
90.0
100
AcDbRotatedDimension
  0
ENDSEC
  0
SECTION
  2
OBJECTS
  0
DICTIONARY
  5
C
330
0
100
AcDbDictionary
281
     1
  3
ACAD_GROUP
350
D
  3
ACAD_LAYOUT
350
1A
  3
ACAD_MATERIAL
350
3B
  3
ACAD_MLEADERSTYLE
350
157
  3
ACAD_MLINESTYLE
350
17
  3
ACAD_PLOTSETTINGS
350
19
  3
ACAD_PLOTSTYLENAME
350
E
  3
ACAD_VISUALSTYLE
350
2A
  3
AcDbVariableDictionary
350
155
  0
DICTIONARY
  5
D
102
{ACAD_REACTORS
330
C
102
}
330
C
100
AcDbDictionary
281
     1
  0
DICTIONARY
  5
1A
102
{ACAD_REACTORS
330
C
102
}
330
C
100
AcDbDictionary
281
     1
  3
Layout1
350
1E
  3
Layout2
350
26
  3
Model
350
22
  0
DICTIONARY
  5
3B
102
{ACAD_REACTORS
330
C
102
}
330
C
100
AcDbDictionary
281
     1
  3
ByBlock
350
3D
  3
ByLayer
350
3C
  3
Global
350
3E
  0
DICTIONARY
  5
157
102
{ACAD_REACTORS
330
C
102
}
330
C
100
AcDbDictionary
281
     1
  0
DICTIONARY
  5
17
102
{ACAD_REACTORS
330
C
102
}
330
C
100
AcDbDictionary
281
     1
  3
Standard
350
18
  0
DICTIONARY
  5
19
102
{ACAD_REACTORS
330
C
102
}
330
C
100
AcDbDictionary
281
     1
  0
ACDBDICTIONARYWDFLT
  5
E
102
{ACAD_REACTORS
330
C
102
}
330
C
100
AcDbDictionary
281
     1
  3
Normal
350
F
100
AcDbDictionaryWithDefault
340
F
  0
DICTIONARY
  5
2A
102
{ACAD_REACTORS
330
C
102
}
330
C
100
AcDbDictionary
281
     1
  3
2dWireframe
350
2F
  3
3D Hidden
350
31
  3
3dWireframe
350
30
  3
Basic
350
32
  3
Brighten
350
36
  3
ColorChange
350
3A
  3
Conceptual
350
34
  3
Dim
350
35
  3
Facepattern
350
39
  3
Flat
350
2B
  3
FlatWithEdges
350
2C
  3
Gouraud
350
2D
  3
GouraudWithEdges
350
2E
  3
Linepattern
350
38
  3
Realistic
350
33
  3
Thicken
350
37
  0
DICTIONARY
  5
155
102
{ACAD_REACTORS
330
C
102
}
330
C
100
AcDbDictionary
281
     1
  3
DIMASSOC
350
158
  3
HIDETEXT
350
159
  0
LAYOUT
  5
1E
102
{ACAD_REACTORS
330
1A
102
}
330
1A
100
AcDbPlotSettings
  1

  2
none_device
  4

  6

 40
0.0
 41
0.0
 42
0.0
 43
0.0
 44
0.0
 45
0.0
 46
0.0
 47
0.0
 48
0.0
 49
0.0
140
0.0
141
0.0
142
1.0
143
1.0
 70
   688
 72
     0
 73
     0
 74
     5
  7

 75
    16
147
1.0
148
0.0
149
0.0
100
AcDbLayout
  1
Layout1
 70
     1
 71
     1
 10
0.0
 20
0.0
 11
12.0
 21
9.0
 12
0.0
 22
0.0
 32
0.0
 14
1.00000000000000E+20
 24
1.00000000000000E+20
 34
1.00000000000000E+20
 15
-1.00000000000000E+20
 25
-1.00000000000000E+20
 35
-1.00000000000000E+20
146
0.0
 13
0.0
 23
0.0
 33
0.0
 16
1.0
 26
0.0
 36
0.0
 17
0.0
 27
1.0
 37
0.0
 76
     0
330
1B
  0
LAYOUT
  5
26
102
{ACAD_REACTORS
330
1A
102
}
330
1A
100
AcDbPlotSettings
  1

  2
none_device
  4

  6

 40
0.0
 41
0.0
 42
0.0
 43
0.0
 44
0.0
 45
0.0
 46
0.0
 47
0.0
 48
0.0
 49
0.0
140
0.0
141
0.0
142
1.0
143
1.0
 70
   688
 72
     0
 73
     0
 74
     5
  7

 75
    16
147
1.0
148
0.0
149
0.0
100
AcDbLayout
  1
Layout2
 70
     1
 71
     2
 10
0.0
 20
0.0
 11
0.0
 21
0.0
 12
0.0
 22
0.0
 32
0.0
 14
0.0
 24
0.0
 34
0.0
 15
0.0
 25
0.0
 35
0.0
146
0.0
 13
0.0
 23
0.0
 33
0.0
 16
1.0
 26
0.0
 36
0.0
 17
0.0
 27
1.0
 37
0.0
 76
     0
330
23
  0
LAYOUT
  5
22
102
{ACAD_REACTORS
330
1A
102
}
330
1A
100
AcDbPlotSettings
  1

  2
none_device
  4

  6

 40
0.0
 41
0.0
 42
0.0
 43
0.0
 44
0.0
 45
0.0
 46
0.0
 47
0.0
 48
0.0
 49
0.0
140
0.0
141
0.0
142
1.0
143
1.0
 70
  1712
 72
     0
 73
     0
 74
     0
  7

 75
     0
147
1.0
148
0.0
149
0.0
100
AcDbLayout
  1
Model
 70
     1
 71
     0
 10
0.0
 20
0.0
 11
12.0
 21
9.0
 12
0.0
 22
0.0
 32
0.0
 14
0.0
 24
0.0
 34
0.0
 15
209.9999999999999
 25
297.0
 35
0.0
146
0.0
 13
0.0
 23
0.0
 33
0.0
 16
1.0
 26
0.0
 36
0.0
 17
0.0
 27
1.0
 37
0.0
 76
     0
330
1F
331
29
  0
MATERIAL
  5
3D
102
{ACAD_REACTORS
330
3B
102
}
102
{ACAD_XDICTIONARY
360
17C
102
}
330
3B
100
AcDbMaterial
  1
ByBlock
  0
MATERIAL
  5
3C
102
{ACAD_REACTORS
330
3B
102
}
102
{ACAD_XDICTIONARY
360
17A
102
}
330
3B
100
AcDbMaterial
  1
ByLayer
  0
MATERIAL
  5
3E
102
{ACAD_REACTORS
330
3B
102
}
102
{ACAD_XDICTIONARY
360
17E
102
}
330
3B
100
AcDbMaterial
  1
Global
  0
MLINESTYLE
  5
18
102
{ACAD_REACTORS
330
17
102
}
330
17
100
AcDbMlineStyle
  2
Standard
 70
     0
  3

 62
   256
 51
90.0
 52
90.0
 71
     2
 49
0.5
 62
   256
  6
BYLAYER
 49
-0.5
 62
   256
  6
BYLAYER
  0
ACDBPLACEHOLDER
  5
F
102
{ACAD_REACTORS
330
E
102
}
330
E
  0
VISUALSTYLE
  5
2F
102
{ACAD_REACTORS
330
2A
102
}
102
{ACAD_XDICTIONARY
360
162
102
}
330
2A
100
AcDbVisualStyle
  2
2dWireframe
 70
     4
 71
     0
 72
     2
 73
     0
 90
        0
 40
-0.6
 41
-30.0
 62
     5
 63
     7
 74
     1
 91
        4
 64
     7
 65
   257
 75
     1
175
     1
 42
1.0
 92
        0
 66
   257
 43
1.0
 76
     1
 77
     6
 78
     2
 67
     7
 79
     5
170
     0
171
     0
290
     0
174
     0
 93
        1
 44
0.0
173
     0
291
     0
 45
0.0
1001
ACAD
1000
AcDbSavedByObjectVersion
1070
     0
  0
VISUALSTYLE
  5
31
102
{ACAD_REACTORS
330
2A
102
}
102
{ACAD_XDICTIONARY
360
166
102
}
330
2A
100
AcDbVisualStyle
  2
3D Hidden
 70
     6
 71
     1
 72
     2
 73
     2
 90
        0
 40
-0.6
 41
-30.0
 62
     5
 63
     7
 74
     2
 91
        2
 64
     7
 65
   257
 75
     2
175
     1
 42
40.0
 92
        0
 66
   257
 43
1.0
 76
     1
 77
     6
 78
     2
 67
     7
 79
     3
170
     0
171
     0
290
     0
174
     0
 93
        1
 44
0.0
173
     0
291
     0
 45
0.0
1001
ACAD
1000
AcDbSavedByObjectVersion
1070
     0
  0
VISUALSTYLE
  5
30
102
{ACAD_REACTORS
330
2A
102
}
102
{ACAD_XDICTIONARY
360
164
102
}
330
2A
100
AcDbVisualStyle
  2
3dWireframe
 70
     5
 71
     0
 72
     2
 73
     0
 90
        0
 40
-0.6
 41
-30.0
 62
     5
 63
     7
 74
     1
 91
        4
 64
     7
 65
   257
 75
     1
175
     1
 42
1.0
 92
        0
 66
   257
 43
1.0
 76
     1
 77
     6
 78
     2
 67
     7
 79
     5
170
     0
171
     0
290
     0
174
     0
 93
        1
 44
0.0
173
     0
291
     0
 45
0.0
1001
ACAD
1000
AcDbSavedByObjectVersion
1070
     0
  0
VISUALSTYLE
  5
32
102
{ACAD_REACTORS
330
2A
102
}
102
{ACAD_XDICTIONARY
360
168
102
}
330
2A
100
AcDbVisualStyle
  2
Basic
 70
     7
 71
     1
 72
     0
 73
     1
 90
        0
 40
-0.6
 41
-30.0
 62
     5
 63
     7
 74
     0
 91
        4
 64
     7
 65
   257
 75
     1
175
     1
 42
1.0
 92
        8
 66
     7
 43
1.0
 76
     1
 77
     6
 78
     2
 67
     7
 79
     5
170
     0
171
     0
290
     0
174
     0
 93
        1
 44
0.0
173
     0
291
     1
 45
0.0
1001
ACAD
1000
AcDbSavedByObjectVersion
1070
     0
  0
VISUALSTYLE
  5
36
102
{ACAD_REACTORS
330
2A
102
}
102
{ACAD_XDICTIONARY
360
170
102
}
330
2A
100
AcDbVisualStyle
  2
Brighten
 70
    12
 71
     2
 72
     2
 73
     0
 90
        0
 40
-0.6
 41
-30.0
 62
     5
 63
     7
 74
     1
 91
        4
 64
     7
 65
   257
 75
     1
175
     1
 42
1.0
 92
        8
 66
     7
 43
1.0
 76
     1
 77
     6
 78
     2
 67
     7
 79
     5
170
     0
171
     0
290
     0
174
     0
 93
        1
 44
50.0
173
     0
291
     1
 45
0.0
1001
ACAD
1000
AcDbSavedByObjectVersion
1070
     0
  0
VISUALSTYLE
  5
3A
102
{ACAD_REACTORS
330
2A
102
}
102
{ACAD_XDICTIONARY
360
178
102
}
330
2A
100
AcDbVisualStyle
  2
ColorChange
 70
    16
 71
     2
 72
     2
 73
     3
 90
        0
 40
-0.6
 41
-30.0
 62
     5
 63
     8
 74
     1
 91
        4
 64
     7
 65
   257
 75
     1
175
     1
 42
1.0
 92
        8
 66
     8
 43
1.0
 76
     1
 77
     6
 78
     2
 67
     7
 79
     5
170
     0
171
     0
290
     0
174
     0
 93
        1
 44
0.0
173
     0
291
     1
 45
0.0
1001
ACAD
1000
AcDbSavedByObjectVersion
1070
     0
  0
VISUALSTYLE
  5
34
102
{ACAD_REACTORS
330
2A
102
}
102
{ACAD_XDICTIONARY
360
16C
102
}
330
2A
100
AcDbVisualStyle
  2
Conceptual
 70
     9
 71
     3
 72
     2
 73
     0
 90
        0
 40
-0.6
 41
-30.0
 62
     5
 63
     7
 74
     2
 91
        2
 64
     7
 65
   257
 75
     1
175
     1
 42
40.0
 92
        8
 66
     7
 43
1.0
 76
     1
 77
     6
 78
     2
 67
     7
 79
     3
170
     0
171
     0
290
     0
174
     0
 93
        1
 44
0.0
173
     0
291
     0
 45
0.0
1001
ACAD
1000
AcDbSavedByObjectVersion
1070
     0
  0
VISUALSTYLE
  5
35
102
{ACAD_REACTORS
330
2A
102
}
102
{ACAD_XDICTIONARY
360
16E
102
}
330
2A
100
AcDbVisualStyle
  2
Dim
 70
    11
 71
     2
 72
     2
 73
     0
 90
        0
 40
-0.6
 41
-30.0
 62
     5
 63
     7
 74
     1
 91
        4
 64
     7
 65
   257
 75
     1
175
     1
 42
1.0
 92
        8
 66
     7
 43
1.0
 76
     1
 77
     6
 78
     2
 67
     7
 79
     5
170
     0
171
     0
290
     0
174
     0
 93
        1
 44
-50.0
173
     0
291
     1
 45
0.0
1001
ACAD
1000
AcDbSavedByObjectVersion
1070
     0
  0
VISUALSTYLE
  5
39
102
{ACAD_REACTORS
330
2A
102
}
102
{ACAD_XDICTIONARY
360
176
102
}
330
2A
100
AcDbVisualStyle
  2
Facepattern
 70
    15
 71
     2
 72
     2
 73
     0
 90
        0
 40
-0.6
 41
-30.0
 62
     5
 63
     7
 74
     1
 91
        4
 64
     7
 65
   257
 75
     1
175
     1
 42
1.0
 92
        8
 66
     7
 43
1.0
 76
     1
 77
     6
 78
     2
 67
     7
 79
     5
170
     0
171
     0
290
     0
174
     0
 93
        1
 44
0.0
173
     0
291
     1
 45
0.0
1001
ACAD
1000
AcDbSavedByObjectVersion
1070
     0
  0
VISUALSTYLE
  5
2B
102
{ACAD_REACTORS
330
2A
102
}
102
{ACAD_XDICTIONARY
360
15A
102
}
330
2A
100
AcDbVisualStyle
  2
Flat
 70
     0
 71
     2
 72
     1
 73
     1
 90
        2
 40
-0.6
 41
30.0
 62
     5
 63
     7
 74
     0
 91
        4
 64
     7
 65
   257
 75
     1
175
     1
 42
1.0
 92
        8
 66
     7
 43
1.0
 76
     1
 77
     6
 78
     2
 67
     7
 79
     5
170
     0
171
     0
290
     0
174
     0
 93
       13
 44
0.0
173
     0
291
     1
 45
0.0
1001
ACAD
1000
AcDbSavedByObjectVersion
1070
     0
  0
VISUALSTYLE
  5
2C
102
{ACAD_REACTORS
330
2A
102
}
102
{ACAD_XDICTIONARY
360
15C
102
}
330
2A
100
AcDbVisualStyle
  2
FlatWithEdges
 70
     1
 71
     2
 72
     1
 73
     1
 90
        2
 40
-0.6
 41
30.0
 62
     5
 63
     7
 74
     1
 91
        4
 64
     7
 65
   257
 75
     1
175
     1
 42
1.0
 92
        0
 66
   257
 43
1.0
 76
     1
 77
     6
 78
     2
 67
     7
 79
     5
170
     0
171
     0
290
     0
174
     0
 93
       13
 44
0.0
173
     0
291
     1
 45
0.0
1001
ACAD
1000
AcDbSavedByObjectVersion
1070
     0
  0
VISUALSTYLE
  5
2D
102
{ACAD_REACTORS
330
2A
102
}
102
{ACAD_XDICTIONARY
360
15E
102
}
330
2A
100
AcDbVisualStyle
  2
Gouraud
 70
     2
 71
     2
 72
     2
 73
     1
 90
        2
 40
-0.6
 41
30.0
 62
     5
 63
     7
 74
     0
 91
        4
 64
     7
 65
   257
 75
     1
175
     1
 42
1.0
 92
        0
 66
     7
 43
1.0
 76
     1
 77
     6
 78
     2
 67
     7
 79
     5
170
     0
171
     0
290
     0
174
     0
 93
       13
 44
0.0
173
     0
291
     1
 45
0.0
1001
ACAD
1000
AcDbSavedByObjectVersion
1070
     0
  0
VISUALSTYLE
  5
2E
102
{ACAD_REACTORS
330
2A
102
}
102
{ACAD_XDICTIONARY
360
160
102
}
330
2A
100
AcDbVisualStyle
  2
GouraudWithEdges
 70
     3
 71
     2
 72
     2
 73
     1
 90
        2
 40
-0.6
 41
30.0
 62
     5
 63
     7
 74
     1
 91
        4
 64
     7
 65
   257
 75
     1
175
     1
 42
1.0
 92
        0
 66
   257
 43
1.0
 76
     1
 77
     6
 78
     2
 67
     7
 79
     5
170
     0
171
     0
290
     0
174
     0
 93
       13
 44
0.0
173
     0
291
     1
 45
0.0
1001
ACAD
1000
AcDbSavedByObjectVersion
1070
     0
  0
VISUALSTYLE
  5
38
102
{ACAD_REACTORS
330
2A
102
}
102
{ACAD_XDICTIONARY
360
174
102
}
330
2A
100
AcDbVisualStyle
  2
Linepattern
 70
    14
 71
     2
 72
     2
 73
     0
 90
        0
 40
-0.6
 41
-30.0
 62
     5
 63
     7
 74
     1
 91
        4
 64
     7
 65
   257
 75
     7
175
     7
 42
1.0
 92
        8
 66
     7
 43
1.0
 76
     1
 77
     6
 78
     2
 67
     7
 79
     5
170
     0
171
     0
290
     0
174
     0
 93
        1
 44
0.0
173
     0
291
     1
 45
0.0
1001
ACAD
1000
AcDbSavedByObjectVersion
1070
     0
  0
VISUALSTYLE
  5
33
102
{ACAD_REACTORS
330
2A
102
}
102
{ACAD_XDICTIONARY
360
16A
102
}
330
2A
100
AcDbVisualStyle
  2
Realistic
 70
     8
 71
     2
 72
     2
 73
     0
 90
        0
 40
-0.6
 41
-30.0
 62
     5
 63
     7
 74
     1
 91
        0
 64
     7
 65
   257
 75
     1
175
     1
 42
1.0
 92
        8
 66
     8
 43
1.0
 76
     1
 77
     6
 78
     2
 67
     7
 79
     5
170
     0
171
     0
290
     0
174
     0
 93
       13
 44
0.0
173
     0
291
     0
 45
0.0
1001
ACAD
1000
AcDbSavedByObjectVersion
1070
     0
  0
VISUALSTYLE
  5
37
102
{ACAD_REACTORS
330
2A
102
}
102
{ACAD_XDICTIONARY
360
172
102
}
330
2A
100
AcDbVisualStyle
  2
Thicken
 70
    13
 71
     2
 72
     2
 73
     0
 90
        0
 40
-0.6
 41
-30.0
 62
     5
 63
     7
 74
     1
 91
        4
 64
     7
 65
   257
 75
     1
175
     1
 42
1.0
 92
       12
 66
     7
 43
1.0
 76
     1
 77
     6
 78
     2
 67
     7
 79
     5
170
     0
171
     0
290
     0
174
     0
 93
        1
 44
0.0
173
     0
291
     1
 45
0.0
1001
ACAD
1000
AcDbSavedByObjectVersion
1070
     0
  0
DICTIONARYVAR
  5
158
102
{ACAD_REACTORS
330
155
102
}
330
155
100
DictionaryVariables
280
     0
  1
2
  0
DICTIONARYVAR
  5
159
102
{ACAD_REACTORS
330
155
102
}
330
155
100
DictionaryVariables
280
     0
  1
1
  0
DICTIONARY
  5
17C
330
3D
100
AcDbDictionary
280
     1
281
     1
  3
ACAD_XREC_ROUNDTRIP
360
17D
  0
DICTIONARY
  5
17A
330
3C
100
AcDbDictionary
280
     1
281
     1
  3
ACAD_XREC_ROUNDTRIP
360
17B
  0
DICTIONARY
  5
17E
330
3E
100
AcDbDictionary
280
     1
281
     1
  3
ACAD_XREC_ROUNDTRIP
360
17F
  0
DICTIONARY
  5
162
330
2F
100
AcDbDictionary
280
     1
281
     1
  3
ACAD_XREC_ROUNDTRIP
360
163
  0
DICTIONARY
  5
166
330
31
100
AcDbDictionary
280
     1
281
     1
  3
ACAD_XREC_ROUNDTRIP
360
167
  0
DICTIONARY
  5
164
330
30
100
AcDbDictionary
280
     1
281
     1
  3
ACAD_XREC_ROUNDTRIP
360
165
  0
DICTIONARY
  5
168
330
32
100
AcDbDictionary
280
     1
281
     1
  3
ACAD_XREC_ROUNDTRIP
360
169
  0
DICTIONARY
  5
170
330
36
100
AcDbDictionary
280
     1
281
     1
  3
ACAD_XREC_ROUNDTRIP
360
171
  0
DICTIONARY
  5
178
330
3A
100
AcDbDictionary
280
     1
281
     1
  3
ACAD_XREC_ROUNDTRIP
360
179
  0
DICTIONARY
  5
16C
330
34
100
AcDbDictionary
280
     1
281
     1
  3
ACAD_XREC_ROUNDTRIP
360
16D
  0
DICTIONARY
  5
16E
330
35
100
AcDbDictionary
280
     1
281
     1
  3
ACAD_XREC_ROUNDTRIP
360
16F
  0
DICTIONARY
  5
176
330
39
100
AcDbDictionary
280
     1
281
     1
  3
ACAD_XREC_ROUNDTRIP
360
177
  0
DICTIONARY
  5
15A
330
2B
100
AcDbDictionary
280
     1
281
     1
  3
ACAD_XREC_ROUNDTRIP
360
15B
  0
DICTIONARY
  5
15C
330
2C
100
AcDbDictionary
280
     1
281
     1
  3
ACAD_XREC_ROUNDTRIP
360
15D
  0
DICTIONARY
  5
15E
330
2D
100
AcDbDictionary
280
     1
281
     1
  3
ACAD_XREC_ROUNDTRIP
360
15F
  0
DICTIONARY
  5
160
330
2E
100
AcDbDictionary
280
     1
281
     1
  3
ACAD_XREC_ROUNDTRIP
360
161
  0
DICTIONARY
  5
174
330
38
100
AcDbDictionary
280
     1
281
     1
  3
ACAD_XREC_ROUNDTRIP
360
175
  0
DICTIONARY
  5
16A
330
33
100
AcDbDictionary
280
     1
281
     1
  3
ACAD_XREC_ROUNDTRIP
360
16B
  0
DICTIONARY
  5
172
330
37
100
AcDbDictionary
280
     1
281
     1
  3
ACAD_XREC_ROUNDTRIP
360
173
  0
XRECORD
  5
17D
102
{ACAD_REACTORS
330
17C
102
}
330
17C
100
AcDbXrecord
280
     1
102
MATERIAL
148
0.0
149
0.0
149
0.0
 93
        0
 94
      127
282
     0
 72
     1
 77
     1
171
     1
175
     1
179
     1
273
     0
  0
XRECORD
  5
17B
102
{ACAD_REACTORS
330
17A
102
}
330
17A
100
AcDbXrecord
280
     1
102
MATERIAL
148
0.0
149
0.0
149
0.0
 93
        0
 94
      127
282
     0
 72
     1
 77
     1
171
     1
175
     1
179
     1
273
     0
  0
XRECORD
  5
17F
102
{ACAD_REACTORS
330
17E
102
}
330
17E
100
AcDbXrecord
280
     1
102
MATERIAL
148
0.0
149
0.0
149
0.0
 93
        0
 94
      127
282
     0
 72
     1
 77
     1
171
     1
175
     1
179
     1
273
     0
  0
XRECORD
  5
163
102
{ACAD_REACTORS
330
162
102
}
330
162
100
AcDbXrecord
280
     1
102
RTVSPropertyOp0
 70
     1
102
RTVSPropertyOp1
 70
     1
102
RTVSPropertyOp2
 70
     1
102
RTVSPropertyOp3
 70
     1
102
RTVSPropertyOp4
 70
     1
102
RTVSPropertyOp5
 70
     1
102
RTVSPropertyOp6
 70
     1
102
RTVSPropertyOp7
 70
     1
102
RTVSPropertyOp8
 70
     1
102
RTVSPropertyOp9
 70
     1
102
RTVSPropertyOp10
 70
     1
102
RTVSPropertyOp11
 70
     1
102
RTVSPropertyOp12
 70
     1
102
RTVSPropertyOp13
 70
     1
102
RTVSPropertyOp14
 70
     1
102
RTVSPropertyOp15
 70
     1
102
RTVSPropertyOp16
 70
     1
102
RTVSPropertyOp17
 70
     1
102
RTVSPropertyOp18
 70
     1
102
RTVSPropertyOp19
 70
     1
102
RTVSPropertyOp20
 70
     1
102
RTVSPropertyOp21
 70
     1
102
RTVSPropertyOp22
 70
     1
102
RTVSPropertyOp23
 70
     1
102
RTVSPropertyOp24
 70
     1
102
RTVSPropertyOp25
 70
     1
102
RTVSPropertyOp26
 70
     1
102
RTVSPropertyOp27
 70
     1
102
RTVSPropertyOp28
 70
     1
102
RTVSPropertyOp29
 70
     1
102
RTVSPropertyOp30
 70
     1
102
RTVSPropertyOp31
 70
     1
102
RTVSPropertyOp32
 70
     1
  0
XRECORD
  5
167
102
{ACAD_REACTORS
330
166
102
}
330
166
100
AcDbXrecord
280
     1
102
RTVSPropertyOp0
 70
     1
102
RTVSPropertyOp1
 70
     1
102
RTVSPropertyOp2
 70
     1
102
RTVSPropertyOp3
 70
     1
102
RTVSPropertyOp4
 70
     1
102
RTVSPropertyOp5
 70
     1
102
RTVSPropertyOp6
 70
     1
102
RTVSPropertyOp7
 70
     1
102
RTVSPropertyOp8
 70
     1
102
RTVSPropertyOp9
 70
     1
102
RTVSPropertyOp10
 70
     1
102
RTVSPropertyOp11
 70
     1
102
RTVSPropertyOp12
 70
     1
102
RTVSPropertyOp13
 70
     1
102
RTVSPropertyOp14
 70
     1
102
RTVSPropertyOp15
 70
     1
102
RTVSPropertyOp16
 70
     1
102
RTVSPropertyOp17
 70
     1
102
RTVSPropertyOp18
 70
     1
102
RTVSPropertyOp19
 70
     1
102
RTVSPropertyOp20
 70
     1
102
RTVSPropertyOp21
 70
     1
102
RTVSPropertyOp22
 70
     1
102
RTVSPropertyOp23
 70
     1
102
RTVSPropertyOp24
 70
     1
102
RTVSPropertyOp25
 70
     1
102
RTVSPropertyOp26
 70
     1
102
RTVSPropertyOp27
 70
     1
102
RTVSPropertyOp28
 70
     1
102
RTVSPropertyOp29
 70
     1
102
RTVSPropertyOp30
 70
     1
102
RTVSPropertyOp31
 70
     1
102
RTVSPropertyOp32
 70
     1
  0
XRECORD
  5
165
102
{ACAD_REACTORS
330
164
102
}
330
164
100
AcDbXrecord
280
     1
102
RTVSPropertyOp0
 70
     1
102
RTVSPropertyOp1
 70
     1
102
RTVSPropertyOp2
 70
     1
102
RTVSPropertyOp3
 70
     1
102
RTVSPropertyOp4
 70
     1
102
RTVSPropertyOp5
 70
     1
102
RTVSPropertyOp6
 70
     1
102
RTVSPropertyOp7
 70
     1
102
RTVSPropertyOp8
 70
     1
102
RTVSPropertyOp9
 70
     1
102
RTVSPropertyOp10
 70
     1
102
RTVSPropertyOp11
 70
     1
102
RTVSPropertyOp12
 70
     1
102
RTVSPropertyOp13
 70
     1
102
RTVSPropertyOp14
 70
     1
102
RTVSPropertyOp15
 70
     1
102
RTVSPropertyOp16
 70
     1
102
RTVSPropertyOp17
 70
     1
102
RTVSPropertyOp18
 70
     1
102
RTVSPropertyOp19
 70
     1
102
RTVSPropertyOp20
 70
     1
102
RTVSPropertyOp21
 70
     1
102
RTVSPropertyOp22
 70
     1
102
RTVSPropertyOp23
 70
     1
102
RTVSPropertyOp24
 70
     1
102
RTVSPropertyOp25
 70
     1
102
RTVSPropertyOp26
 70
     1
102
RTVSPropertyOp27
 70
     1
102
RTVSPropertyOp28
 70
     1
102
RTVSPropertyOp29
 70
     1
102
RTVSPropertyOp30
 70
     1
102
RTVSPropertyOp31
 70
     1
102
RTVSPropertyOp32
 70
     1
  0
XRECORD
  5
169
102
{ACAD_REACTORS
330
168
102
}
330
168
100
AcDbXrecord
280
     1
102
RTVSPropertyOp0
 70
     1
102
RTVSPropertyOp1
 70
     1
102
RTVSPropertyOp2
 70
     1
102
RTVSPropertyOp3
 70
     1
102
RTVSPropertyOp4
 70
     1
102
RTVSPropertyOp5
 70
     1
102
RTVSPropertyOp6
 70
     1
102
RTVSPropertyOp7
 70
     1
102
RTVSPropertyOp8
 70
     1
102
RTVSPropertyOp9
 70
     1
102
RTVSPropertyOp10
 70
     1
102
RTVSPropertyOp11
 70
     1
102
RTVSPropertyOp12
 70
     1
102
RTVSPropertyOp13
 70
     1
102
RTVSPropertyOp14
 70
     1
102
RTVSPropertyOp15
 70
     1
102
RTVSPropertyOp16
 70
     1
102
RTVSPropertyOp17
 70
     1
102
RTVSPropertyOp18
 70
     1
102
RTVSPropertyOp19
 70
     1
102
RTVSPropertyOp20
 70
     1
102
RTVSPropertyOp21
 70
     1
102
RTVSPropertyOp22
 70
     1
102
RTVSPropertyOp23
 70
     1
102
RTVSPropertyOp24
 70
     1
102
RTVSPropertyOp25
 70
     1
102
RTVSPropertyOp26
 70
     1
102
RTVSPropertyOp27
 70
     1
102
RTVSPropertyOp28
 70
     1
102
RTVSPropertyOp29
 70
     1
102
RTVSPropertyOp30
 70
     1
102
RTVSPropertyOp31
 70
     1
102
RTVSPropertyOp32
 70
     1
  0
XRECORD
  5
171
102
{ACAD_REACTORS
330
170
102
}
330
170
100
AcDbXrecord
280
     1
102
RTVSPropertyOp0
 70
     1
102
RTVSPropertyOp1
 70
     1
102
RTVSPropertyOp2
 70
     1
102
RTVSPropertyOp3
 70
     1
102
RTVSPropertyOp4
 70
     1
102
RTVSPropertyOp5
 70
     1
102
RTVSPropertyOp6
 70
     1
102
RTVSPropertyOp7
 70
     1
102
RTVSPropertyOp8
 70
     1
102
RTVSPropertyOp9
 70
     1
102
RTVSPropertyOp10
 70
     1
102
RTVSPropertyOp11
 70
     1
102
RTVSPropertyOp12
 70
     1
102
RTVSPropertyOp13
 70
     1
102
RTVSPropertyOp14
 70
     1
102
RTVSPropertyOp15
 70
     1
102
RTVSPropertyOp16
 70
     1
102
RTVSPropertyOp17
 70
     1
102
RTVSPropertyOp18
 70
     1
102
RTVSPropertyOp19
 70
     1
102
RTVSPropertyOp20
 70
     1
102
RTVSPropertyOp21
 70
     1
102
RTVSPropertyOp22
 70
     1
102
RTVSPropertyOp23
 70
     1
102
RTVSPropertyOp24
 70
     1
102
RTVSPropertyOp25
 70
     1
102
RTVSPropertyOp26
 70
     1
102
RTVSPropertyOp27
 70
     1
102
RTVSPropertyOp28
 70
     1
102
RTVSPropertyOp29
 70
     1
102
RTVSPropertyOp30
 70
     1
102
RTVSPropertyOp31
 70
     1
102
RTVSPropertyOp32
 70
     1
  0
XRECORD
  5
179
102
{ACAD_REACTORS
330
178
102
}
330
178
100
AcDbXrecord
280
     1
102
RTVSPropertyOp0
 70
     1
102
RTVSPropertyOp1
 70
     1
102
RTVSPropertyOp2
 70
     1
102
RTVSPropertyOp3
 70
     1
102
RTVSPropertyOp4
 70
     1
102
RTVSPropertyOp5
 70
     1
102
RTVSPropertyOp6
 70
     1
102
RTVSPropertyOp7
 70
     1
102
RTVSPropertyOp8
 70
     1
102
RTVSPropertyOp9
 70
     1
102
RTVSPropertyOp10
 70
     1
102
RTVSPropertyOp11
 70
     1
102
RTVSPropertyOp12
 70
     1
102
RTVSPropertyOp13
 70
     1
102
RTVSPropertyOp14
 70
     1
102
RTVSPropertyOp15
 70
     1
102
RTVSPropertyOp16
 70
     1
102
RTVSPropertyOp17
 70
     1
102
RTVSPropertyOp18
 70
     1
102
RTVSPropertyOp19
 70
     1
102
RTVSPropertyOp20
 70
     1
102
RTVSPropertyOp21
 70
     1
102
RTVSPropertyOp22
 70
     1
102
RTVSPropertyOp23
 70
     1
102
RTVSPropertyOp24
 70
     1
102
RTVSPropertyOp25
 70
     1
102
RTVSPropertyOp26
 70
     1
102
RTVSPropertyOp27
 70
     1
102
RTVSPropertyOp28
 70
     1
102
RTVSPropertyOp29
 70
     1
102
RTVSPropertyOp30
 70
     1
102
RTVSPropertyOp31
 70
     1
102
RTVSPropertyOp32
 70
     1
  0
XRECORD
  5
16D
102
{ACAD_REACTORS
330
16C
102
}
330
16C
100
AcDbXrecord
280
     1
102
RTVSPropertyOp0
 70
     1
102
RTVSPropertyOp1
 70
     1
102
RTVSPropertyOp2
 70
     1
102
RTVSPropertyOp3
 70
     1
102
RTVSPropertyOp4
 70
     1
102
RTVSPropertyOp5
 70
     1
102
RTVSPropertyOp6
 70
     1
102
RTVSPropertyOp7
 70
     1
102
RTVSPropertyOp8
 70
     1
102
RTVSPropertyOp9
 70
     1
102
RTVSPropertyOp10
 70
     1
102
RTVSPropertyOp11
 70
     1
102
RTVSPropertyOp12
 70
     1
102
RTVSPropertyOp13
 70
     1
102
RTVSPropertyOp14
 70
     1
102
RTVSPropertyOp15
 70
     1
102
RTVSPropertyOp16
 70
     1
102
RTVSPropertyOp17
 70
     1
102
RTVSPropertyOp18
 70
     1
102
RTVSPropertyOp19
 70
     1
102
RTVSPropertyOp20
 70
     1
102
RTVSPropertyOp21
 70
     1
102
RTVSPropertyOp22
 70
     1
102
RTVSPropertyOp23
 70
     1
102
RTVSPropertyOp24
 70
     1
102
RTVSPropertyOp25
 70
     1
102
RTVSPropertyOp26
 70
     1
102
RTVSPropertyOp27
 70
     1
102
RTVSPropertyOp28
 70
     1
102
RTVSPropertyOp29
 70
     1
102
RTVSPropertyOp30
 70
     1
102
RTVSPropertyOp31
 70
     1
102
RTVSPropertyOp32
 70
     1
  0
XRECORD
  5
16F
102
{ACAD_REACTORS
330
16E
102
}
330
16E
100
AcDbXrecord
280
     1
102
RTVSPropertyOp0
 70
     1
102
RTVSPropertyOp1
 70
     1
102
RTVSPropertyOp2
 70
     1
102
RTVSPropertyOp3
 70
     1
102
RTVSPropertyOp4
 70
     1
102
RTVSPropertyOp5
 70
     1
102
RTVSPropertyOp6
 70
     1
102
RTVSPropertyOp7
 70
     1
102
RTVSPropertyOp8
 70
     1
102
RTVSPropertyOp9
 70
     1
102
RTVSPropertyOp10
 70
     1
102
RTVSPropertyOp11
 70
     1
102
RTVSPropertyOp12
 70
     1
102
RTVSPropertyOp13
 70
     1
102
RTVSPropertyOp14
 70
     1
102
RTVSPropertyOp15
 70
     1
102
RTVSPropertyOp16
 70
     1
102
RTVSPropertyOp17
 70
     1
102
RTVSPropertyOp18
 70
     1
102
RTVSPropertyOp19
 70
     1
102
RTVSPropertyOp20
 70
     1
102
RTVSPropertyOp21
 70
     1
102
RTVSPropertyOp22
 70
     1
102
RTVSPropertyOp23
 70
     1
102
RTVSPropertyOp24
 70
     1
102
RTVSPropertyOp25
 70
     1
102
RTVSPropertyOp26
 70
     1
102
RTVSPropertyOp27
 70
     1
102
RTVSPropertyOp28
 70
     1
102
RTVSPropertyOp29
 70
     1
102
RTVSPropertyOp30
 70
     1
102
RTVSPropertyOp31
 70
     1
102
RTVSPropertyOp32
 70
     1
  0
XRECORD
  5
177
102
{ACAD_REACTORS
330
176
102
}
330
176
100
AcDbXrecord
280
     1
102
RTVSPropertyOp0
 70
     1
102
RTVSPropertyOp1
 70
     1
102
RTVSPropertyOp2
 70
     1
102
RTVSPropertyOp3
 70
     1
102
RTVSPropertyOp4
 70
     1
102
RTVSPropertyOp5
 70
     1
102
RTVSPropertyOp6
 70
     1
102
RTVSPropertyOp7
 70
     1
102
RTVSPropertyOp8
 70
     1
102
RTVSPropertyOp9
 70
     1
102
RTVSPropertyOp10
 70
     1
102
RTVSPropertyOp11
 70
     1
102
RTVSPropertyOp12
 70
     1
102
RTVSPropertyOp13
 70
     1
102
RTVSPropertyOp14
 70
     1
102
RTVSPropertyOp15
 70
     1
102
RTVSPropertyOp16
 70
     1
102
RTVSPropertyOp17
 70
     1
102
RTVSPropertyOp18
 70
     1
102
RTVSPropertyOp19
 70
     1
102
RTVSPropertyOp20
 70
     1
102
RTVSPropertyOp21
 70
     1
102
RTVSPropertyOp22
 70
     1
102
RTVSPropertyOp23
 70
     1
102
RTVSPropertyOp24
 70
     1
102
RTVSPropertyOp25
 70
     1
102
RTVSPropertyOp26
 70
     1
102
RTVSPropertyOp27
 70
     1
102
RTVSPropertyOp28
 70
     1
102
RTVSPropertyOp29
 70
     1
102
RTVSPropertyOp30
 70
     1
102
RTVSPropertyOp31
 70
     1
102
RTVSPropertyOp32
 70
     1
  0
XRECORD
  5
15B
102
{ACAD_REACTORS
330
15A
102
}
330
15A
100
AcDbXrecord
280
     1
102
RTVSPropertyOp0
 70
     1
102
RTVSPropertyOp1
 70
     1
102
RTVSPropertyOp2
 70
     1
102
RTVSPropertyOp3
 70
     1
102
RTVSPropertyOp4
 70
     1
102
RTVSPropertyOp5
 70
     1
102
RTVSPropertyOp6
 70
     1
102
RTVSPropertyOp7
 70
     1
102
RTVSPropertyOp8
 70
     1
102
RTVSPropertyOp9
 70
     1
102
RTVSPropertyOp10
 70
     1
102
RTVSPropertyOp11
 70
     1
102
RTVSPropertyOp12
 70
     1
102
RTVSPropertyOp13
 70
     1
102
RTVSPropertyOp14
 70
     1
102
RTVSPropertyOp15
 70
     1
102
RTVSPropertyOp16
 70
     1
102
RTVSPropertyOp17
 70
     1
102
RTVSPropertyOp18
 70
     1
102
RTVSPropertyOp19
 70
     1
102
RTVSPropertyOp20
 70
     1
102
RTVSPropertyOp21
 70
     1
102
RTVSPropertyOp22
 70
     1
102
RTVSPropertyOp23
 70
     1
102
RTVSPropertyOp24
 70
     1
102
RTVSPropertyOp25
 70
     1
102
RTVSPropertyOp26
 70
     1
102
RTVSPropertyOp27
 70
     1
102
RTVSPropertyOp28
 70
     1
102
RTVSPropertyOp29
 70
     1
102
RTVSPropertyOp30
 70
     1
102
RTVSPropertyOp31
 70
     1
102
RTVSPropertyOp32
 70
     1
  0
XRECORD
  5
15D
102
{ACAD_REACTORS
330
15C
102
}
330
15C
100
AcDbXrecord
280
     1
102
RTVSPropertyOp0
 70
     1
102
RTVSPropertyOp1
 70
     1
102
RTVSPropertyOp2
 70
     1
102
RTVSPropertyOp3
 70
     1
102
RTVSPropertyOp4
 70
     1
102
RTVSPropertyOp5
 70
     1
102
RTVSPropertyOp6
 70
     1
102
RTVSPropertyOp7
 70
     1
102
RTVSPropertyOp8
 70
     1
102
RTVSPropertyOp9
 70
     1
102
RTVSPropertyOp10
 70
     1
102
RTVSPropertyOp11
 70
     1
102
RTVSPropertyOp12
 70
     1
102
RTVSPropertyOp13
 70
     1
102
RTVSPropertyOp14
 70
     1
102
RTVSPropertyOp15
 70
     1
102
RTVSPropertyOp16
 70
     1
102
RTVSPropertyOp17
 70
     1
102
RTVSPropertyOp18
 70
     1
102
RTVSPropertyOp19
 70
     1
102
RTVSPropertyOp20
 70
     1
102
RTVSPropertyOp21
 70
     1
102
RTVSPropertyOp22
 70
     1
102
RTVSPropertyOp23
 70
     1
102
RTVSPropertyOp24
 70
     1
102
RTVSPropertyOp25
 70
     1
102
RTVSPropertyOp26
 70
     1
102
RTVSPropertyOp27
 70
     1
102
RTVSPropertyOp28
 70
     1
102
RTVSPropertyOp29
 70
     1
102
RTVSPropertyOp30
 70
     1
102
RTVSPropertyOp31
 70
     1
102
RTVSPropertyOp32
 70
     1
  0
XRECORD
  5
15F
102
{ACAD_REACTORS
330
15E
102
}
330
15E
100
AcDbXrecord
280
     1
102
RTVSPropertyOp0
 70
     1
102
RTVSPropertyOp1
 70
     1
102
RTVSPropertyOp2
 70
     1
102
RTVSPropertyOp3
 70
     1
102
RTVSPropertyOp4
 70
     1
102
RTVSPropertyOp5
 70
     1
102
RTVSPropertyOp6
 70
     1
102
RTVSPropertyOp7
 70
     1
102
RTVSPropertyOp8
 70
     1
102
RTVSPropertyOp9
 70
     1
102
RTVSPropertyOp10
 70
     1
102
RTVSPropertyOp11
 70
     1
102
RTVSPropertyOp12
 70
     1
102
RTVSPropertyOp13
 70
     1
102
RTVSPropertyOp14
 70
     1
102
RTVSPropertyOp15
 70
     1
102
RTVSPropertyOp16
 70
     1
102
RTVSPropertyOp17
 70
     1
102
RTVSPropertyOp18
 70
     1
102
RTVSPropertyOp19
 70
     1
102
RTVSPropertyOp20
 70
     1
102
RTVSPropertyOp21
 70
     1
102
RTVSPropertyOp22
 70
     1
102
RTVSPropertyOp23
 70
     1
102
RTVSPropertyOp24
 70
     1
102
RTVSPropertyOp25
 70
     1
102
RTVSPropertyOp26
 70
     1
102
RTVSPropertyOp27
 70
     1
102
RTVSPropertyOp28
 70
     1
102
RTVSPropertyOp29
 70
     1
102
RTVSPropertyOp30
 70
     1
102
RTVSPropertyOp31
 70
     1
102
RTVSPropertyOp32
 70
     1
  0
XRECORD
  5
161
102
{ACAD_REACTORS
330
160
102
}
330
160
100
AcDbXrecord
280
     1
102
RTVSPropertyOp0
 70
     1
102
RTVSPropertyOp1
 70
     1
102
RTVSPropertyOp2
 70
     1
102
RTVSPropertyOp3
 70
     1
102
RTVSPropertyOp4
 70
     1
102
RTVSPropertyOp5
 70
     1
102
RTVSPropertyOp6
 70
     1
102
RTVSPropertyOp7
 70
     1
102
RTVSPropertyOp8
 70
     1
102
RTVSPropertyOp9
 70
     1
102
RTVSPropertyOp10
 70
     1
102
RTVSPropertyOp11
 70
     1
102
RTVSPropertyOp12
 70
     1
102
RTVSPropertyOp13
 70
     1
102
RTVSPropertyOp14
 70
     1
102
RTVSPropertyOp15
 70
     1
102
RTVSPropertyOp16
 70
     1
102
RTVSPropertyOp17
 70
     1
102
RTVSPropertyOp18
 70
     1
102
RTVSPropertyOp19
 70
     1
102
RTVSPropertyOp20
 70
     1
102
RTVSPropertyOp21
 70
     1
102
RTVSPropertyOp22
 70
     1
102
RTVSPropertyOp23
 70
     1
102
RTVSPropertyOp24
 70
     1
102
RTVSPropertyOp25
 70
     1
102
RTVSPropertyOp26
 70
     1
102
RTVSPropertyOp27
 70
     1
102
RTVSPropertyOp28
 70
     1
102
RTVSPropertyOp29
 70
     1
102
RTVSPropertyOp30
 70
     1
102
RTVSPropertyOp31
 70
     1
102
RTVSPropertyOp32
 70
     1
  0
XRECORD
  5
175
102
{ACAD_REACTORS
330
174
102
}
330
174
100
AcDbXrecord
280
     1
102
RTVSPropertyOp0
 70
     1
102
RTVSPropertyOp1
 70
     1
102
RTVSPropertyOp2
 70
     1
102
RTVSPropertyOp3
 70
     1
102
RTVSPropertyOp4
 70
     1
102
RTVSPropertyOp5
 70
     1
102
RTVSPropertyOp6
 70
     1
102
RTVSPropertyOp7
 70
     1
102
RTVSPropertyOp8
 70
     1
102
RTVSPropertyOp9
 70
     1
102
RTVSPropertyOp10
 70
     1
102
RTVSPropertyOp11
 70
     1
102
RTVSPropertyOp12
 70
     1
102
RTVSPropertyOp13
 70
     1
102
RTVSPropertyOp14
 70
     1
102
RTVSPropertyOp15
 70
     1
102
RTVSPropertyOp16
 70
     1
102
RTVSPropertyOp17
 70
     1
102
RTVSPropertyOp18
 70
     1
102
RTVSPropertyOp19
 70
     1
102
RTVSPropertyOp20
 70
     1
102
RTVSPropertyOp21
 70
     1
102
RTVSPropertyOp22
 70
     1
102
RTVSPropertyOp23
 70
     1
102
RTVSPropertyOp24
 70
     1
102
RTVSPropertyOp25
 70
     1
102
RTVSPropertyOp26
 70
     1
102
RTVSPropertyOp27
 70
     1
102
RTVSPropertyOp28
 70
     1
102
RTVSPropertyOp29
 70
     1
102
RTVSPropertyOp30
 70
     1
102
RTVSPropertyOp31
 70
     1
102
RTVSPropertyOp32
 70
     1
  0
XRECORD
  5
16B
102
{ACAD_REACTORS
330
16A
102
}
330
16A
100
AcDbXrecord
280
     1
102
RTVSPropertyOp0
 70
     1
102
RTVSPropertyOp1
 70
     1
102
RTVSPropertyOp2
 70
     1
102
RTVSPropertyOp3
 70
     1
102
RTVSPropertyOp4
 70
     1
102
RTVSPropertyOp5
 70
     1
102
RTVSPropertyOp6
 70
     1
102
RTVSPropertyOp7
 70
     1
102
RTVSPropertyOp8
 70
     1
102
RTVSPropertyOp9
 70
     1
102
RTVSPropertyOp10
 70
     1
102
RTVSPropertyOp11
 70
     1
102
RTVSPropertyOp12
 70
     1
102
RTVSPropertyOp13
 70
     1
102
RTVSPropertyOp14
 70
     1
102
RTVSPropertyOp15
 70
     1
102
RTVSPropertyOp16
 70
     1
102
RTVSPropertyOp17
 70
     1
102
RTVSPropertyOp18
 70
     1
102
RTVSPropertyOp19
 70
     1
102
RTVSPropertyOp20
 70
     1
102
RTVSPropertyOp21
 70
     1
102
RTVSPropertyOp22
 70
     1
102
RTVSPropertyOp23
 70
     1
102
RTVSPropertyOp24
 70
     1
102
RTVSPropertyOp25
 70
     1
102
RTVSPropertyOp26
 70
     1
102
RTVSPropertyOp27
 70
     1
102
RTVSPropertyOp28
 70
     1
102
RTVSPropertyOp29
 70
     1
102
RTVSPropertyOp30
 70
     1
102
RTVSPropertyOp31
 70
     1
102
RTVSPropertyOp32
 70
     1
  0
XRECORD
  5
173
102
{ACAD_REACTORS
330
172
102
}
330
172
100
AcDbXrecord
280
     1
102
RTVSPropertyOp0
 70
     1
102
RTVSPropertyOp1
 70
     1
102
RTVSPropertyOp2
 70
     1
102
RTVSPropertyOp3
 70
     1
102
RTVSPropertyOp4
 70
     1
102
RTVSPropertyOp5
 70
     1
102
RTVSPropertyOp6
 70
     1
102
RTVSPropertyOp7
 70
     1
102
RTVSPropertyOp8
 70
     1
102
RTVSPropertyOp9
 70
     1
102
RTVSPropertyOp10
 70
     1
102
RTVSPropertyOp11
 70
     1
102
RTVSPropertyOp12
 70
     1
102
RTVSPropertyOp13
 70
     1
102
RTVSPropertyOp14
 70
     1
102
RTVSPropertyOp15
 70
     1
102
RTVSPropertyOp16
 70
     1
102
RTVSPropertyOp17
 70
     1
102
RTVSPropertyOp18
 70
     1
102
RTVSPropertyOp19
 70
     1
102
RTVSPropertyOp20
 70
     1
102
RTVSPropertyOp21
 70
     1
102
RTVSPropertyOp22
 70
     1
102
RTVSPropertyOp23
 70
     1
102
RTVSPropertyOp24
 70
     1
102
RTVSPropertyOp25
 70
     1
102
RTVSPropertyOp26
 70
     1
102
RTVSPropertyOp27
 70
     1
102
RTVSPropertyOp28
 70
     1
102
RTVSPropertyOp29
 70
     1
102
RTVSPropertyOp30
 70
     1
102
RTVSPropertyOp31
 70
     1
102
RTVSPropertyOp32
 70
     1
  0
ENDSEC
  0
EOF
