  0
SECTION
  2
HEADER
  9
$ACADVER
  1
AC1015
  9
$ACADMAINTVER
 70
     6
  9
$DWGCODEPAGE
  3
ANSI_932
  9
$INSBASE
 10
0.0
 20
0.0
 30
0.0
  9
$EXTMIN
 10
0.0
 20
0.0
 30
0.0
  9
$EXTMAX
 10
210.0
 20
297.0
 30
0.0
  9
$LIMMIN
 10
0.0
 20
0.0
  9
$LIMMAX
 10
12.0
 20
9.0
  9
$ORTHOMODE
 70
     0
  9
$REGENMODE
 70
     1
  9
$FILLMODE
 70
     1
  9
$QTEXTMODE
 70
     0
  9
$MIRRTEXT
 70
     1
  9
$LTSCALE
 40
1.0
  9
$ATTMODE
 70
     1
  9
$TEXTSIZE
 40
0.2
  9
$TRACEWID
 40
0.05
  9
$TEXTSTYLE
  7
Standard
  9
$CLAYER
  8
0
  9
$CELTYPE
  6
ByLayer
  9
$CECOLOR
 62
   256
  9
$CELTSCALE
 40
1.0
  9
$DISPSILH
 70
     0
  9
$DIMSCALE
 40
1.0
  9
$DIMASZ
 40
0.18
  9
$DIMEXO
 40
0.0625
  9
$DIMDLI
 40
0.38
  9
$DIMRND
 40
0.0
  9
$DIMDLE
 40
0.0
  9
$DIMEXE
 40
0.18
  9
$DIMTP
 40
0.0
  9
$DIMTM
 40
0.0
  9
$DIMTXT
 40
0.18
  9
$DIMCEN
 40
0.09
  9
$DIMTSZ
 40
0.0
  9
$DIMTOL
 70
     0
  9
$DIMLIM
 70
     0
  9
$DIMTIH
 70
     1
  9
$DIMTOH
 70
     1
  9
$DIMSE1
 70
     0
  9
$DIMSE2
 70
     0
  9
$DIMTAD
 70
     0
  9
$DIMZIN
 70
     0
  9
$DIMBLK
  1

  9
$DIMASO
 70
     1
  9
$DIMSHO
 70
     1
  9
$DIMPOST
  1

  9
$DIMAPOST
  1

  9
$DIMALT
 70
     0
  9
$DIMALTD
 70
     2
  9
$DIMALTF
 40
25.4
  9
$DIMLFAC
 40
1.0
  9
$DIMTOFL
 70
     0
  9
$DIMTVP
 40
0.0
  9
$DIMTIX
 70
     0
  9
$DIMSOXD
 70
     0
  9
$DIMSAH
 70
     0
  9
$DIMBLK1
  1

  9
$DIMBLK2
  1

  9
$DIMSTYLE
  2
Standard
  9
$DIMCLRD
 70
     0
  9
$DIMCLRE
 70
     0
  9
$DIMCLRT
 70
     0
  9
$DIMTFAC
 40
1.0
  9
$DIMGAP
 40
0.09
  9
$DIMJUST
 70
     0
  9
$DIMSD1
 70
     0
  9
$DIMSD2
 70
     0
  9
$DIMTOLJ
 70
     1
  9
$DIMTZIN
 70
     0
  9
$DIMALTZ
 70
     0
  9
$DIMALTTZ
 70
     0
  9
$DIMUPT
 70
     0
  9
$DIMDEC
 70
     4
  9
$DIMTDEC
 70
     4
  9
$DIMALTU
 70
     2
  9
$DIMALTTD
 70
     2
  9
$DIMTXSTY
  7
Standard
  9
$DIMAUNIT
 70
     0
  9
$DIMADEC
 70
     0
  9
$DIMALTRND
 40
0.0
  9
$DIMAZIN
 70
     0
  9
$DIMDSEP
 70
    46
  9
$DIMATFIT
 70
     3
  9
$DIMFRAC
 70
     0
  9
$DIMLDRBLK
  1

  9
$DIMLUNIT
 70
     2
  9
$DIMLWD
 70
    -2
  9
$DIMLWE
 70
    -2
  9
$DIMTMOVE
 70
     0
  9
$LUNITS
 70
     2
  9
$LUPREC
 70
     4
  9
$SKETCHINC
 40
0.1
  9
$FILLETRAD
 40
0.5
  9
$AUNITS
 70
     0
  9
$AUPREC
 70
     0
  9
$MENU
  1
.
  9
$ELEVATION
 40
0.0
  9
$PELEVATION
 40
0.0
  9
$THICKNESS
 40
0.0
  9
$LIMCHECK
 70
     0
  9
$CHAMFERA
 40
0.5
  9
$CHAMFERB
 40
0.5
  9
$CHAMFERC
 40
1.0
  9
$CHAMFERD
 40
0.0
  9
$SKPOLY
 70
     0
  9
$TDCREATE
 40
2460362.604811111
  9
$TDUCREATE
 40
2460362.229811111
  9
$TDUPDATE
 40
2460362.604812199
  9
$TDUUPDATE
 40
2460362.229812199
  9
$TDINDWG
 40
0.0000000116
  9
$TDUSRTIMER
 40
0.0000000116
  9
$USRTIMER
 70
     1
  9
$ANGBASE
 50
0.0
  9
$ANGDIR
 70
     0
  9
$PDMODE
 70
     0
  9
$PDSIZE
 40
0.0
  9
$PLINEWID
 40
0.0
  9
$SPLFRAME
 70
     0
  9
$SPLINETYPE
 70
     6
  9
$SPLINESEGS
 70
     8
  9
$HANDSEED
  5
197
  9
$SURFTAB1
 70
     6
  9
$SURFTAB2
 70
     6
  9
$SURFTYPE
 70
     6
  9
$SURFU
 70
     6
  9
$SURFV
 70
     6
  9
$UCSBASE
  2

  9
$UCSNAME
  2

  9
$UCSORG
 10
0.0
 20
0.0
 30
0.0
  9
$UCSXDIR
 10
1.0
 20
0.0
 30
0.0
  9
$UCSYDIR
 10
0.0
 20
1.0
 30
0.0
  9
$UCSORTHOREF
  2

  9
$UCSORTHOVIEW
 70
     0
  9
$UCSORGTOP
 10
0.0
 20
0.0
 30
0.0
  9
$UCSORGBOTTOM
 10
0.0
 20
0.0
 30
0.0
  9
$UCSORGLEFT
 10
0.0
 20
0.0
 30
0.0
  9
$UCSORGRIGHT
 10
0.0
 20
0.0
 30
0.0
  9
$UCSORGFRONT
 10
0.0
 20
0.0
 30
0.0
  9
$UCSORGBACK
 10
0.0
 20
0.0
 30
0.0
  9
$PUCSBASE
  2

  9
$PUCSNAME
  2

  9
$PUCSORG
 10
0.0
 20
0.0
 30
0.0
  9
$PUCSXDIR
 10
1.0
 20
0.0
 30
0.0
  9
$PUCSYDIR
 10
0.0
 20
1.0
 30
0.0
  9
$PUCSORTHOREF
  2

  9
$PUCSORTHOVIEW
 70
     0
  9
$PUCSORGTOP
 10
0.0
 20
0.0
 30
0.0
  9
$PUCSORGBOTTOM
 10
0.0
 20
0.0
 30
0.0
  9
$PUCSORGLEFT
 10
0.0
 20
0.0
 30
0.0
  9
$PUCSORGRIGHT
 10
0.0
 20
0.0
 30
0.0
  9
$PUCSORGFRONT
 10
0.0
 20
0.0
 30
0.0
  9
$PUCSORGBACK
 10
0.0
 20
0.0
 30
0.0
  9
$USERI1
 70
     0
  9
$USERI2
 70
     0
  9
$USERI3
 70
     0
  9
$USERI4
 70
     0
  9
$USERI5
 70
     0
  9
$USERR1
 40
18.1
  9
$USERR2
 40
0.0
  9
$USERR3
 40
0.0
  9
$USERR4
 40
0.0
  9
$USERR5
 40
0.0
  9
$WORLDVIEW
 70
     1
  9
$SHADEDGE
 70
     3
  9
$SHADEDIF
 70
    70
  9
$TILEMODE
 70
     1
  9
$MAXACTVP
 70
    64
  9
$PINSBASE
 10
0.0
 20
0.0
 30
0.0
  9
$PLIMCHECK
 70
     0
  9
$PEXTMIN
 10
1.00000000000000E+20
 20
1.00000000000000E+20
 30
1.00000000000000E+20
  9
$PEXTMAX
 10
-1.00000000000000E+20
 20
-1.00000000000000E+20
 30
-1.00000000000000E+20
  9
$PLIMMIN
 10
0.0
 20
0.0
  9
$PLIMMAX
 10
12.0
 20
9.0
  9
$UNITMODE
 70
     0
  9
$VISRETAIN
 70
     1
  9
$PLINEGEN
 70
     0
  9
$PSLTSCALE
 70
     1
  9
$TREEDEPTH
 70
  3020
  9
$CMLSTYLE
  2
Standard
  9
$CMLJUST
 70
     0
  9
$CMLSCALE
 40
1.0
  9
$PROXYGRAPHICS
 70
     1
  9
$MEASUREMENT
 70
     1
  9
$CELWEIGHT
370
    -1
  9
$ENDCAPS
280
     0
  9
$JOINSTYLE
280
     0
  9
$LWDISPLAY
290
     0
  9
$INSUNITS
 70
     4
  9
$HYPERLINKBASE
  1

  9
$STYLESHEET
  1

  9
$XEDIT
290
     1
  9
$CEPSNTYPE
380
     0
  9
$PSTYLEMODE
290
     1
  9
$FINGERPRINTGUID
  2
{1014CE34-5184-4A86-B091-79C796E35650}
  9
$VERSIONGUID
  2
{FAEB1C32-E019-11D5-929B-00C0DF256EC4}
  9
$EXTNAMES
290
     1
  9
$PSVPSCALE
 40
0.0
  9
$OLESTARTUP
290
     0
  0
ENDSEC
  0
SECTION
  2
CLASSES
  0
CLASS
  1
ACDBDICTIONARYWDFLT
  2
AcDbDictionaryWithDefault
  3
ObjectDBX Classes
 90
        0
280
     0
281
     0
  0
CLASS
  1
VISUALSTYLE
  2
AcDbVisualStyle
  3
ObjectDBX Classes
 90
     4095
280
     0
281
     0
  0
CLASS
  1
MATERIAL
  2
AcDbMaterial
  3
ObjectDBX Classes
 90
     1153
280
     0
281
     0
  0
CLASS
  1
DICTIONARYVAR
  2
AcDbDictionaryVar
  3
ObjectDBX Classes
 90
        0
280
     0
281
     0
  0
CLASS
  1
ACDBPLACEHOLDER
  2
AcDbPlaceHolder
  3
ObjectDBX Classes
 90
        0
280
     0
281
     0
  0
CLASS
  1
LAYOUT
  2
AcDbLayout
  3
ObjectDBX Classes
 90
        0
280
     0
281
     0
  0
ENDSEC
  0
SECTION
  2
TABLES
  0
TABLE
  2
VPORT
  5
8
330
0
100
AcDbSymbolTable
 70
     1
  0
VPORT
  5
29
330
8
100
AcDbSymbolTableRecord
100
AcDbViewportTableRecord
  2
*Active
 70
     0
 10
0.0
 20
0.0
 11
1.0
 21
1.0
 12
105.0
 22
148.5
 13
0.0
 23
0.0
 14
0.5
 24
0.5
 15
0.5
 25
0.5
 16
0.0
 26
0.0
 36
1.0
 17
0.0
 27
0.0
 37
0.0
 40
326.7
 41
1.60267857142857
 42
50.0
 43
0.0
 44
0.0
 50
0.0
 51
0.0
 71
     0
 72
   100
 73
     1
 74
     3
 75
     0
 76
     0
 77
     0
 78
     0
281
     0
 65
     1
110
0.0
120
0.0
130
0.0
111
1.0
121
0.0
131
0.0
112
0.0
122
1.0
132
0.0
 79
     0
146
0.0
  0
ENDTAB
  0
TABLE
  2
LTYPE
  5
5
330
0
100
AcDbSymbolTable
 70
     8
  0
LTYPE
  5
14
330
5
100
AcDbSymbolTableRecord
100
AcDbLinetypeTableRecord
  2
ByBlock
 70
     0
  3

 72
    65
 73
     0
 40
0.0
  0
LTYPE
  5
15
330
5
100
AcDbSymbolTableRecord
100
AcDbLinetypeTableRecord
  2
ByLayer
 70
     0
  3

 72
    65
 73
     0
 40
0.0
  0
LTYPE
  5
16
330
5
100
AcDbSymbolTableRecord
100
AcDbLinetypeTableRecord
  2
Continuous
 70
     0
  3
Solid line
 72
    65
 73
     0
 40
0.0
  0
LTYPE
  5
3F
330
5
100
AcDbSymbolTableRecord
100
AcDbLinetypeTableRecord
  2
DASHED
 70
     0
  3
Dashed
 72
    65
 73
     2
 40
15.0
 49
7.0
 74
     0
 49
-8.0
 74
     0
  0
LTYPE
  5
40
330
5
100
AcDbSymbolTableRecord
100
AcDbLinetypeTableRecord
  2
DOTTED
 70
     0
  3
Dotted
 72
    65
 73
     2
 40
1.0
 49
0.0
 74
     0
 49
-1.0
 74
     0
  0
LTYPE
  5
41
330
5
100
AcDbSymbolTableRecord
100
AcDbLinetypeTableRecord
  2
DOT_CENTER
 70
     0
  3
Dot_Center
 72
    65
 73
     4
 40
14.0
 49
12.0
 74
     0
 49
-1.0
 74
     0
 49
0.0
 74
     0
 49
-1.0
 74
     0
  0
LTYPE
  5
42
330
5
100
AcDbSymbolTableRecord
100
AcDbLinetypeTableRecord
  2
LONG_DASHED
 70
     0
  3
Long_Dashed
 72
    65
 73
     2
 40
15.0
 49
10.0
 74
     0
 49
-5.0
 74
     0
  0
LTYPE
  5
43
330
5
100
AcDbSymbolTableRecord
100
AcDbLinetypeTableRecord
  2
DASH_CENTER
 70
     0
  3
Dash_Center
 72
    65
 73
     4
 40
14.0
 49
11.0
 74
     0
 49
-1.0
 74
     0
 49
1.0
 74
     0
 49
-1.0
 74
     0
  0
LTYPE
  5
44
330
5
100
AcDbSymbolTableRecord
100
AcDbLinetypeTableRecord
  2
PHANTOM
 70
     0
  3
Phantom
 72
    65
 73
     6
 40
13.0
 49
10.0
 74
     0
 49
-1.0
 74
     0
 49
0.0
 74
     0
 49
-1.0
 74
     0
 49
0.0
 74
     0
 49
-1.0
 74
     0
  0
LTYPE
  5
45
330
5
100
AcDbSymbolTableRecord
100
AcDbLinetypeTableRecord
  2
CENTER_DASH_DASH
 70
     0
  3
Center_Dash_Dash
 72
    65
 73
     6
 40
14.0
 49
9.0
 74
     0
 49
-1.0
 74
     0
 49
1.0
 74
     0
 49
-1.0
 74
     0
 49
1.0
 74
     0
 49
-1.0
 74
     0
  0
ENDTAB
  0
TABLE
  2
LAYER
  5
2
330
0
100
AcDbSymbolTable
 70
     3
  0
LAYER
  5
10
330
2
100
AcDbSymbolTableRecord
100
AcDbLayerTableRecord
  2
0
 70
     0
 62
     7
  6
Continuous
370
    -3
390
F
  0
LAYER
  5
46
330
2
100
AcDbSymbolTableRecord
100
AcDbLayerTableRecord
  2
1
 70
     0
 62
     7
  6
Continuous
370
    -3
390
F
  0
LAYER
  5
47
330
2
100
AcDbSymbolTableRecord
100
AcDbLayerTableRecord
  2
_U_30EC_U_30A4_U_30E4_U_30FC_1
 70
     0
 62
     7
  6
Continuous
370
    -3
390
F
  0
ENDTAB
  0
TABLE
  2
STYLE
  5
3
330
0
100
AcDbSymbolTable
 70
     3
  0
STYLE
  5
11
330
3
100
AcDbSymbolTableRecord
100
AcDbTextStyleTableRecord
  2
Standard
 70
     0
 40
0.0
 41
1.0
 50
0.0
 71
     0
 42
0.2
  3
txt
  4

  0
STYLE
  5
BA
330
3
100
AcDbSymbolTableRecord
100
AcDbTextStyleTableRecord
  2
CONVERTER_11
 70
     0
 40
0.0
 41
0.89
 50
0.0
 71
     0
 42
0.2
  3
MS Mincho.ttf
  4

1001
ACAD
1000
MS Mincho
1071
    32785
  0
STYLE
  5
12E
330
3
100
AcDbSymbolTableRecord
100
AcDbTextStyleTableRecord
  2
CONVERTER_12
 70
     0
 40
0.0
 41
0.9
 50
0.0
 71
     0
 42
0.2
  3
txt.shx
  4

  0
ENDTAB
  0
TABLE
  2
VIEW
  5
6
330
0
100
AcDbSymbolTable
 70
     0
  0
ENDTAB
  0
TABLE
  2
UCS
  5
7
330
0
100
AcDbSymbolTable
 70
     0
  0
ENDTAB
  0
TABLE
  2
APPID
  5
9
330
0
100
AcDbSymbolTable
 70
     1
  0
APPID
  5
12
330
9
100
AcDbSymbolTableRecord
100
AcDbRegAppTableRecord
  2
ACAD
 70
     0
  0
ENDTAB
  0
TABLE
  2
DIMSTYLE
  5
A
330
0
100
AcDbSymbolTable
 70
     5
100
AcDbDimStyleTable
  0
DIMSTYLE
105
27
330
A
100
AcDbSymbolTableRecord
100
AcDbDimStyleTableRecord
  2
Standard
 70
     0
178
     0
340
11
  0
DIMSTYLE
105
149
102
{ACAD_REACTORS
330
14A
102
}
330
A
100
AcDbSymbolTableRecord
100
AcDbDimStyleTableRecord
  2
ME10_DIM_10
 70
     0
 41
3.5
 42
0.0
 44
1.0
 73
     0
 74
     0
 77
     1
 78
     8
140
3.5
147
1.0
172
     1
173
     1
174
     1
175
     1
176
     2
177
     2
271
     2
178
     7
271
     2
340
12E
  0
DIMSTYLE
105
154
102
{ACAD_REACTORS
330
155
102
}
330
A
100
AcDbSymbolTableRecord
100
AcDbDimStyleTableRecord
  2
ME10_DIM_11
 70
     0
 41
3.5
 42
0.0
 44
1.0
 73
     0
 74
     0
 77
     1
 78
     8
140
3.5
147
1.0
172
     1
173
     1
174
     1
175
     1
176
     2
177
     2
271
     2
178
     7
271
     2
340
12E
  0
DIMSTYLE
105
15F
102
{ACAD_REACTORS
330
160
102
}
330
A
100
AcDbSymbolTableRecord
100
AcDbDimStyleTableRecord
  2
ME10_DIM_12
 70
     0
 41
3.5
 42
0.0
 44
1.0
 73
     0
 74
     0
 77
     1
 78
     8
140
3.5
147
1.0
172
     1
173
     1
174
     1
175
     1
176
     2
177
     2
271
     2
178
     7
271
     2
340
12E
  0
DIMSTYLE
105
16A
102
{ACAD_REACTORS
330
16B
102
}
330
A
100
AcDbSymbolTableRecord
100
AcDbDimStyleTableRecord
  2
ME10_DIM_13
 70
     0
  3
{\Fgdt;n}<>
 41
3.5
 42
0.0
 44
1.0
 73
     0
 74
     0
 77
     1
 78
     8
140
3.5
147
1.0
172
     1
173
     1
174
     1
175
     1
176
     2
177
     2
271
     2
178
     7
271
     2
340
12E
  0
ENDTAB
  0
TABLE
  2
BLOCK_RECORD
  5
1
330
0
100
AcDbSymbolTable
 70
     9
  0
BLOCK_RECORD
  5
1F
330
1
100
AcDbSymbolTableRecord
100
AcDbBlockTableRecord
  2
*Model_Space
340
22
  0
BLOCK_RECORD
  5
1B
330
1
100
AcDbSymbolTableRecord
100
AcDbBlockTableRecord
  2
*Paper_Space
340
1E
  0
BLOCK_RECORD
  5
23
330
1
100
AcDbSymbolTableRecord
100
AcDbBlockTableRecord
  2
*Paper_Space0
340
26
  0
BLOCK_RECORD
  5
48
330
1
100
AcDbSymbolTableRecord
100
AcDbBlockTableRecord
  2
開示A4
340
0
102
{BLKREFS
331
4C
102
}
  0
BLOCK_RECORD
  5
4B
330
1
100
AcDbSymbolTableRecord
100
AcDbBlockTableRecord
  2
開示A4枠
340
0
102
{BLKREFS
331
56
102
}
  0
BLOCK_RECORD
  5
4F
330
1
100
AcDbSymbolTableRecord
100
AcDbBlockTableRecord
  2
35-160
340
0
102
{BLKREFS
331
53
102
}
  0
BLOCK_RECORD
  5
52
330
1
100
AcDbSymbolTableRecord
100
AcDbBlockTableRecord
  2
T25-11-WL
340
0
102
{BLKREFS
331
57
102
}
  0
BLOCK_RECORD
  5
13E
330
1
100
AcDbSymbolTableRecord
100
AcDbBlockTableRecord
  2
*D5
340
0
  0
BLOCK_RECORD
  5
14B
330
1
100
AcDbSymbolTableRecord
100
AcDbBlockTableRecord
  2
*D6
340
0
  0
BLOCK_RECORD
  5
156
330
1
100
AcDbSymbolTableRecord
100
AcDbBlockTableRecord
  2
*D7
340
0
  0
BLOCK_RECORD
  5
161
330
1
100
AcDbSymbolTableRecord
100
AcDbBlockTableRecord
  2
*D8
340
0
  0
ENDTAB
  0
ENDSEC
  0
SECTION
  2
BLOCKS
  0
BLOCK
  5
20
330
1F
100
AcDbEntity
  8
0
100
AcDbBlockBegin
  2
*Model_Space
 70
     0
 10
0.0
 20
0.0
 30
0.0
  3
*Model_Space
  1

  0
ENDBLK
  5
21
330
1F
100
AcDbEntity
  8
0
100
AcDbBlockEnd
  0
BLOCK
  5
1C
330
1B
100
AcDbEntity
 67
     1
  8
0
100
AcDbBlockBegin
  2
*Paper_Space
 70
     0
 10
0.0
 20
0.0
 30
0.0
  3
*Paper_Space
  1

  0
ENDBLK
  5
1D
330
1B
100
AcDbEntity
 67
     1
  8
0
100
AcDbBlockEnd
  0
BLOCK
  5
24
330
23
100
AcDbEntity
  8
0
100
AcDbBlockBegin
  2
*Paper_Space0
 70
     0
 10
0.0
 20
0.0
 30
0.0
  3
*Paper_Space0
  1

  0
ENDBLK
  5
25
330
23
100
AcDbEntity
  8
0
100
AcDbBlockEnd
  0
BLOCK
  5
49
330
48
100
AcDbEntity
  8
0
100
AcDbBlockBegin
  2
開示A4
 70
     0
 10
0.0
 20
0.0
 30
0.0
  3
開示A4
  1

  0
POINT
  5
58
330
48
100
AcDbEntity
  8
1
 62
     4
100
AcDbPoint
 10
33.99999999999996
 20
34.0
 30
0.0
  0
POINT
  5
59
330
48
100
AcDbEntity
  8
1
 62
     4
100
AcDbPoint
 10
56.99999999999997
 20
12.25
 30
0.0
  0
POINT
  5
5A
330
48
100
AcDbEntity
  8
1
 62
     4
100
AcDbPoint
 10
56.99999999999997
 20
20.75
 30
0.0
  0
POINT
  5
5B
330
48
100
AcDbEntity
  8
1
 62
     4
100
AcDbPoint
 10
56.99999999999997
 20
24.75000000000001
 30
0.0
  0
POINT
  5
5C
330
48
100
AcDbEntity
  8
1
 62
     4
100
AcDbPoint
 10
56.99999999999997
 20
16.25
 30
0.0
  0
POINT
  5
5D
330
48
100
AcDbEntity
  8
1
 62
     4
100
AcDbPoint
 10
157.5
 20
19.0
 30
0.0
  0
POINT
  5
5E
330
48
100
AcDbEntity
  8
1
 62
     4
100
AcDbPoint
 10
47.49999999999997
 20
282.0000000000003
 30
0.0
  0
POINT
  5
5F
330
48
100
AcDbEntity
  8
1
 62
     4
100
AcDbPoint
 10
56.99999999999997
 20
22.75
 30
0.0
  0
POINT
  5
60
330
48
100
AcDbEntity
  8
1
 62
     4
100
AcDbPoint
 10
56.99999999999997
 20
14.25
 30
0.0
  0
POINT
  5
61
330
48
100
AcDbEntity
  8
1
 62
     4
100
AcDbPoint
 10
157.5
 20
12.5
 30
0.0
  0
POINT
  5
62
330
48
100
AcDbEntity
  8
1
 62
     4
100
AcDbPoint
 10
163.25
 20
12.5
 30
0.0
  0
POINT
  5
63
330
48
100
AcDbEntity
  8
1
 62
     4
100
AcDbPoint
 10
151.75
 20
12.5
 30
0.0
  0
POINT
  5
64
330
48
100
AcDbEntity
  8
1
 62
     4
100
AcDbPoint
 10
134.75
 20
12.5
 30
0.0
  0
POINT
  5
65
330
48
100
AcDbEntity
  8
1
 62
     4
100
AcDbPoint
 10
146.25
 20
12.5
 30
0.0
  0
POINT
  5
66
330
48
100
AcDbEntity
  8
1
 62
     4
100
AcDbPoint
 10
140.5
 20
12.5
 30
0.0
  0
POINT
  5
67
330
48
100
AcDbEntity
  8
1
 62
     4
100
AcDbPoint
 10
140.5
 20
19.0
 30
0.0
  0
POINT
  5
68
330
48
100
AcDbEntity
  8
1
 62
     4
100
AcDbPoint
 10
117.75
 20
12.5
 30
0.0
  0
POINT
  5
69
330
48
100
AcDbEntity
  8
1
 62
     4
100
AcDbPoint
 10
129.2499999999999
 20
12.5
 30
0.0
  0
POINT
  5
6A
330
48
100
AcDbEntity
  8
1
 62
     4
100
AcDbPoint
 10
123.5
 20
12.5
 30
0.0
  0
POINT
  5
6B
330
48
100
AcDbEntity
  8
1
 62
     4
100
AcDbPoint
 10
123.5
 20
19.0
 30
0.0
  0
POINT
  5
6C
330
48
100
AcDbEntity
  8
1
 62
     4
100
AcDbPoint
 10
100.75
 20
12.5
 30
0.0
  0
POINT
  5
6D
330
48
100
AcDbEntity
  8
1
 62
     4
100
AcDbPoint
 10
112.25
 20
12.5
 30
0.0
  0
POINT
  5
6E
330
48
100
AcDbEntity
  8
1
 62
     4
100
AcDbPoint
 10
106.5
 20
12.5
 30
0.0
  0
POINT
  5
6F
330
48
100
AcDbEntity
  8
1
 62
     4
100
AcDbPoint
 10
106.5
 20
19.0
 30
0.0
  0
POINT
  5
70
330
48
100
AcDbEntity
  8
1
 62
     4
100
AcDbPoint
 10
85.24999999999997
 20
17.0
 30
0.0
  0
POINT
  5
71
330
48
100
AcDbEntity
  8
1
 62
     4
100
AcDbPoint
 10
93.74999999999997
 20
17.0
 30
0.0
  0
POINT
  5
72
330
48
100
AcDbEntity
  8
1
 62
     4
100
AcDbPoint
 10
183.0
 20
15.0
 30
0.0
  0
LINE
  5
73
330
48
100
AcDbEntity
  8
1
  6
Continuous
 62
     2
100
AcDbLine
 10
80.99999999999997
 20
27.00000000000001
 30
0.0
 11
80.99999999999997
 21
10.0
 31
0.0
  0
LINE
  5
74
330
48
100
AcDbEntity
  8
1
  6
DOT_CENTER
 62
     2
100
AcDbLine
 10
187.0
 20
26.50000000000001
 30
0.0
 11
187.0
 21
20.5
 31
0.0
  0
LINE
  5
75
330
48
100
AcDbEntity
  8
1
  6
DOT_CENTER
 62
     2
100
AcDbLine
 10
184.0
 20
23.5
 30
0.0
 11
197.0
 21
23.5
 31
0.0
  0
LINE
  5
76
330
48
100
AcDbEntity
  8
1
  6
Continuous
 62
     7
100
AcDbLine
 10
196.0
 20
21.5
 30
0.0
 11
191.0
 21
22.3
 31
0.0
  0
LINE
  5
77
330
48
100
AcDbEntity
  8
1
  6
Continuous
 62
     7
100
AcDbLine
 10
196.0
 20
25.50000000000001
 30
0.0
 11
196.0
 21
21.5
 31
0.0
  0
LINE
  5
78
330
48
100
AcDbEntity
  8
1
  6
Continuous
 62
     7
100
AcDbLine
 10
191.0
 20
24.70000000000002
 30
0.0
 11
196.0
 21
25.50000000000001
 31
0.0
  0
LINE
  5
79
330
48
100
AcDbEntity
  8
1
  6
Continuous
 62
     7
100
AcDbLine
 10
191.0
 20
24.70000000000002
 30
0.0
 11
191.0
 21
22.3
 31
0.0
  0
LINE
  5
7A
330
48
100
AcDbEntity
  8
1
  6
Continuous
 62
     2
100
AcDbLine
 10
32.99999999999996
 20
27.0
 30
0.0
 11
32.99999999999996
 21
10.0
 31
0.0
  0
LINE
  5
7B
330
48
100
AcDbEntity
  8
1
  6
Continuous
 62
     2
100
AcDbLine
 10
25.0
 20
18.5
 30
0.0
 11
80.99999999999997
 21
18.5
 31
0.0
  0
LINE
  5
7C
330
48
100
AcDbEntity
  8
1
  6
Continuous
 62
     7
100
AcDbLine
 10
200.0
 20
287.0000000000003
 30
0.0
 11
105.0
 21
287.0000000000003
 31
0.0
  0
LINE
  5
7D
330
48
100
AcDbEntity
  8
1
  6
Continuous
 62
     7
100
AcDbLine
 10
200.0
 20
10.0
 30
0.0
 11
200.0
 21
148.5
 31
0.0
  0
LINE
  5
7E
330
48
100
AcDbEntity
  8
1
  6
Continuous
 62
     7
100
AcDbLine
 10
25.0
 20
10.0
 30
0.0
 11
105.0
 21
10.0
 31
0.0
  0
LINE
  5
7F
330
48
100
AcDbEntity
  8
1
  6
PHANTOM
 62
     4
100
AcDbLine
 10
0.0
 20
297.0
 30
0.0
 11
0.0
 21
0.0
 31
0.0
  0
LINE
  5
80
330
48
100
AcDbEntity
  8
1
  6
PHANTOM
 62
     4
100
AcDbLine
 10
210.0
 20
297.0
 30
0.0
 11
0.0
 21
297.0
 31
0.0
  0
LINE
  5
81
330
48
100
AcDbEntity
  8
1
  6
PHANTOM
 62
     4
100
AcDbLine
 10
210.0
 20
0.0
 30
0.0
 11
210.0
 21
297.0
 31
0.0
  0
LINE
  5
82
330
48
100
AcDbEntity
  8
1
  6
PHANTOM
 62
     4
100
AcDbLine
 10
0.0
 20
0.0
 30
0.0
 11
210.0
 21
0.0
 31
0.0
  0
LINE
  5
83
330
48
100
AcDbEntity
  8
1
  6
Continuous
 62
     7
100
AcDbLine
 10
25.0
 20
41.0
 30
0.0
 11
200.0
 21
41.0
 31
0.0
  0
LINE
  5
84
330
48
100
AcDbEntity
  8
1
  6
Continuous
 62
     7
100
AcDbLine
 10
200.0
 20
27.00000000000001
 30
0.0
 11
25.0
 21
27.00000000000001
 31
0.0
  0
LINE
  5
85
330
48
100
AcDbEntity
  8
1
  6
Continuous
 62
     2
100
AcDbLine
 10
32.99999999999996
 20
41.0
 30
0.0
 11
32.99999999999996
 21
27.0
 31
0.0
  0
LINE
  5
86
330
48
100
AcDbEntity
  8
1
  6
Continuous
 62
     2
100
AcDbLine
 10
54.99999999999997
 20
287.0000000000003
 30
0.0
 11
54.99999999999997
 21
277.0000000000003
 31
0.0
  0
LINE
  5
87
330
48
100
AcDbEntity
  8
1
  6
Continuous
 62
     2
100
AcDbLine
 10
39.99999999999997
 20
287.0000000000003
 30
0.0
 11
39.99999999999997
 21
277.0000000000003
 31
0.0
  0
LINE
  5
88
330
48
100
AcDbEntity
  8
1
  6
Continuous
 62
     7
100
AcDbLine
 10
25.0
 20
10.0
 30
0.0
 11
25.0
 21
148.5
 31
0.0
  0
LINE
  5
89
330
48
100
AcDbEntity
  8
1
  6
Continuous
 62
     2
100
AcDbLine
 10
54.99999999999997
 20
277.0000000000003
 30
0.0
 11
25.0
 21
277.0000000000003
 31
0.0
  0
LINE
  5
8A
330
48
100
AcDbEntity
  8
1
  6
Continuous
 62
     2
100
AcDbLine
 10
166.0
 20
27.00000000000001
 30
0.0
 11
166.0
 21
10.0
 31
0.0
  0
LINE
  5
8B
330
48
100
AcDbEntity
  8
1
  6
Continuous
 62
     2
100
AcDbLine
 10
132.0
 20
27.00000000000001
 30
0.0
 11
132.0
 21
10.0
 31
0.0
  0
LINE
  5
8C
330
48
100
AcDbEntity
  8
1
  6
Continuous
 62
     2
100
AcDbLine
 10
149.0
 20
27.00000000000001
 30
0.0
 11
149.0
 21
10.0
 31
0.0
  0
LINE
  5
8D
330
48
100
AcDbEntity
  8
1
  6
Continuous
 62
     2
100
AcDbLine
 10
115.0
 20
27.00000000000001
 30
0.0
 11
115.0
 21
10.0
 31
0.0
  0
LINE
  5
8E
330
48
100
AcDbEntity
  8
1
  6
Continuous
 62
     2
100
AcDbLine
 10
97.99999999999997
 20
27.00000000000001
 30
0.0
 11
97.99999999999997
 21
10.0
 31
0.0
  0
LINE
  5
8F
330
48
100
AcDbEntity
  8
1
  6
Continuous
 62
     2
100
AcDbLine
 10
166.0
 20
20.0
 30
0.0
 11
200.0
 21
20.0
 31
0.0
  0
LINE
  5
90
330
48
100
AcDbEntity
  8
1
  6
Continuous
 62
     2
100
AcDbLine
 10
105.0
 20
287.0000000000003
 30
0.0
 11
105.0
 21
292.0000000000003
 31
0.0
  0
LINE
  5
91
330
48
100
AcDbEntity
  8
1
  6
Continuous
 62
     7
100
AcDbLine
 10
105.0
 20
287.0000000000003
 30
0.0
 11
25.0
 21
287.0000000000003
 31
0.0
  0
LINE
  5
92
330
48
100
AcDbEntity
  8
1
  6
Continuous
 62
     2
100
AcDbLine
 10
25.0
 20
148.5
 30
0.0
 11
20.0
 21
148.5
 31
0.0
  0
LINE
  5
93
330
48
100
AcDbEntity
  8
1
  6
Continuous
 62
     7
100
AcDbLine
 10
25.0
 20
148.5
 30
0.0
 11
25.0
 21
287.0000000000003
 31
0.0
  0
LINE
  5
94
330
48
100
AcDbEntity
  8
1
  6
Continuous
 62
     2
100
AcDbLine
 10
200.0
 20
148.5
 30
0.0
 11
205.0
 21
148.5
 31
0.0
  0
LINE
  5
95
330
48
100
AcDbEntity
  8
1
  6
Continuous
 62
     7
100
AcDbLine
 10
200.0
 20
148.5
 30
0.0
 11
200.0
 21
287.0000000000003
 31
0.0
  0
LINE
  5
96
330
48
100
AcDbEntity
  8
1
  6
Continuous
 62
     2
100
AcDbLine
 10
105.0
 20
10.0
 30
0.0
 11
105.0
 21
5.0
 31
0.0
  0
LINE
  5
97
330
48
100
AcDbEntity
  8
1
  6
Continuous
 62
     7
100
AcDbLine
 10
105.0
 20
10.0
 30
0.0
 11
200.0
 21
10.0
 31
0.0
  0
CIRCLE
  5
9C
330
48
100
AcDbEntity
  8
1
  6
DOT_CENTER
 62
     7
100
AcDbCircle
 10
89.49999999999997
 20
18.0
 30
0.0
 40
0.1000000000000227
  0
CIRCLE
  5
9D
330
48
100
AcDbEntity
  8
1
  6
DOT_CENTER
 62
     7
100
AcDbCircle
 10
89.49999999999997
 20
16.0
 30
0.0
 40
0.1000000000000227
  0
CIRCLE
  5
9E
330
48
100
AcDbEntity
  8
1
  6
Continuous
 62
     7
100
AcDbCircle
 10
187.0
 20
23.5
 30
0.0
 40
2.0
  0
CIRCLE
  5
9F
330
48
100
AcDbEntity
  8
1
  6
Continuous
 62
     7
100
AcDbCircle
 10
187.0
 20
23.5
 30
0.0
 40
1.200000000000188
  0
CIRCLE
  5
A0
330
48
100
AcDbEntity
  8
1
  6
Continuous
 62
     7
100
AcDbCircle
 10
154.5
 20
12.5
 30
0.0
 40
0.3000000000000966
  0
CIRCLE
  5
A1
330
48
100
AcDbEntity
  8
1
  6
Continuous
 62
     7
100
AcDbCircle
 10
160.5
 20
12.5
 30
0.0
 40
0.3000000000000966
  0
CIRCLE
  5
A2
330
48
100
AcDbEntity
  8
1
  6
Continuous
 62
     7
100
AcDbCircle
 10
143.5
 20
12.5
 30
0.0
 40
0.3000000000000966
  0
CIRCLE
  5
A3
330
48
100
AcDbEntity
  8
1
  6
Continuous
 62
     7
100
AcDbCircle
 10
137.5
 20
12.5
 30
0.0
 40
0.3000000000000966
  0
CIRCLE
  5
A4
330
48
100
AcDbEntity
  8
1
  6
Continuous
 62
     7
100
AcDbCircle
 10
126.5
 20
12.5
 30
0.0
 40
0.2999999999999972
  0
CIRCLE
  5
A5
330
48
100
AcDbEntity
  8
1
  6
Continuous
 62
     7
100
AcDbCircle
 10
120.5
 20
12.5
 30
0.0
 40
0.2999999999999972
  0
CIRCLE
  5
A6
330
48
100
AcDbEntity
  8
1
  6
Continuous
 62
     7
100
AcDbCircle
 10
109.5
 20
12.5
 30
0.0
 40
0.2999999999999972
  0
CIRCLE
  5
A7
330
48
100
AcDbEntity
  8
1
  6
Continuous
 62
     7
100
AcDbCircle
 10
103.5
 20
12.5
 30
0.0
 40
0.2999999999999972
  0
SPLINE
  5
A8
102
{ACAD_REACTORS
330
C6
102
}
330
48
100
AcDbEntity
  8
_U_30EC_U_30A4_U_30E4_U_30FC_1
  6
Continuous
 62
     2
100
AcDbSpline
210
0.0
220
0.0
230
1.0
 70
    11
 71
     3
 72
    99
 73
    95
 74
    93
 42
0.000000001
 43
0.0000000001
 44
0.00000001
 40
0.0
 40
0.0
 40
0.0
 40
0.0
 40
0.079641717227247
 40
0.1621768542355659
 40
0.2486489160957121
 40
0.34049696685241
 40
0.4381912511164731
 40
0.5434463660244495
 40
0.6518115192846836
 40
0.7530190937887188
 40
0.8492196919725312
 40
0.9419290312998512
 40
1.034249663570018
 40
1.129078600620194
 40
1.226697027573252
 40
1.327220425421708
 40
1.470572134938002
 40
1.595489863371193
 40
1.719934125348435
 40
1.850576620127427
 40
1.989059629987346
 40
2.134139054226962
 40
2.280698007207222
 40
2.424529739039439
 40
2.565929576985826
 40
2.708239260773589
 40
2.861717887443632
 40
3.045168540347338
 40
3.183798301138593
 40
3.314813961455469
 40
3.442083470447322
 40
3.569912708372965
 40
3.702177512509366
 40
3.842307559659623
 40
3.992872223246017
 40
4.156750662218319
 40
4.310981861107539
 40
4.445859909322578
 40
4.572393936131575
 40
4.701656719782033
 40
4.76827908600854
 40
4.835960697898466
 40
4.91278891872942
 40
5.006285208481618
 40
5.026909478751666
 40
5.047533749021174
 40
5.101808031471229
 40
5.162325165538552
 40
5.226919745995867
 40
5.294231806596722
 40
5.364544852554839
 40
5.438319055467843
 40
5.517877651324176
 40
5.607647714861574
 40
5.70044964254439
 40
5.788251142364058
 40
5.872714706039733
 40
5.955167292575313
 40
6.037192395190353
 40
6.120669181469032
 40
6.206848616686301
 40
6.296680855416766
 40
6.442558392872612
 40
6.568190371608274
 40
6.69290456736034
 40
6.824220446557181
 40
6.963121850329353
 40
7.107843738851107
 40
7.253431663907241
 40
7.395187468036714
 40
7.533140753237701
 40
7.670550457175261
 40
7.816236511769254
 40
7.987691657359205
 40
8.142277421969249
 40
8.293662615414988
 40
8.442962460879256
 40
8.591598316185236
 40
8.743678992361751
 40
8.903725323699108
 40
9.076307008890483
 40
9.26557860468051
 40
9.459203795360743
 40
9.617619810273556
 40
9.753609671361902
 40
9.874873300004024
 40
9.9545201849777
 40
10.02416413719232
 40
10.09769764405434
 40
10.18909955924964
 40
10.20974586420125
 40
10.23039218263371
 40
10.30057101881258
 40
10.3763201298754
 40
10.3763201298754
 40
10.3763201298754
 40
10.3763201298754
 10
170.1465954835851
 20
14.1379566321599
 30
0.0
 10
170.1632217851219
 20
14.11720608845311
 30
0.0
 10
170.1970784206578
 20
14.07495111711906
 30
0.0
 10
170.2599822541035
 20
14.02029811392069
 30
0.0
 10
170.3332500940393
 20
13.97299025121055
 30
0.0
 10
170.4175969238636
 20
13.93527231437936
 30
0.0
 10
170.513224061546
 20
13.91040619731953
 30
0.0
 10
170.6171853775346
 20
13.90309559345931
 30
0.0
 10
170.7224020220405
 20
13.91142322794056
 30
0.0
 10
170.8206626371335
 20
13.94149179651523
 30
0.0
 10
170.9058986427548
 20
13.98848822971879
 30
0.0
 10
170.9779220206104
 20
14.04952991250852
 30
0.0
 10
171.0350917709096
 20
14.12412969578587
 30
0.0
 10
171.0767868747441
 20
14.21002464660168
 30
0.0
 10
171.1026952846291
 20
14.30485850432212
 30
0.0
 10
171.1118037332653
 20
14.41854979038366
 30
0.0
 10
171.0986864796487
 20
14.54332587770775
 30
0.0
 10
171.0325330334415
 20
14.66014719171899
 30
0.0
 10
170.9369370919569
 20
14.74512539577374
 30
0.0
 10
170.8249681022368
 20
14.8141668445915
 30
0.0
 10
170.699365958327
 20
14.87204142045893
 30
0.0
 10
170.5656691620856
 20
14.92373723284338
 30
0.0
 10
170.4313122818831
 20
14.97899092397179
 30
0.0
 10
170.3051983986877
 20
15.04939770641649
 30
0.0
 10
170.1926579987535
 20
15.13785540731248
 30
0.0
 10
170.0969963064458
 20
15.2498106786847
 30
0.0
 10
170.0334157151825
 20
15.3994991010138
 30
0.0
 10
170.0200706505017
 20
15.55932794385137
 30
0.0
 10
170.0320510987448
 20
15.71048405306842
 30
0.0
 10
170.071229892884
 20
15.83809244591539
 30
0.0
 10
170.135498775091
 20
15.95080874030846
 30
0.0
 10
170.223820499974
 20
16.04648609268686
 30
0.0
 10
170.3338091207628
 20
16.12354214985754
 30
0.0
 10
170.4632284401265
 20
16.1815139693628
 30
0.0
 10
170.6111838967794
 20
16.21739177588819
 30
0.0
 10
170.7682069455486
 20
16.22746719050561
 30
0.0
 10
170.917494046643
 20
16.21863637762588
 30
0.0
 10
171.059625361417
 20
16.19074899340357
 30
0.0
 10
171.1595922609625
 20
16.13413314701135
 30
0.0
 10
171.3125074736186
 20
16.08674602105513
 30
0.0
 10
171.2455131717169
 20
16.00197553001186
 30
0.0
 10
171.2296479120269
 20
15.93438901873485
 30
0.0
 10
171.1978750531298
 20
15.86926092793192
 30
0.0
 10
171.215020220957
 20
15.76723453256956
 30
0.0
 10
171.1666427208233
 20
15.77493211681904
 30
0.0
 10
171.1315789440766
 20
15.76806771724811
 30
0.0
 10
171.1296697985718
 20
15.83263831158197
 30
0.0
 10
171.0985692931989
 20
15.87825639621395
 30
0.0
 10
171.0664551628456
 20
15.93561036628455
 30
0.0
 10
171.0208038475168
 20
15.98540462692556
 30
0.0
 10
170.9658508218387
 20
16.0299481371899
 30
0.0
 10
170.9010841173008
 20
16.0676398883655
 30
0.0
 10
170.8232377310597
 20
16.0928337579135
 30
0.0
 10
170.7355160553353
 20
16.09931230998108
 30
0.0
 10
170.6452903277807
 20
16.09235709285608
 30
0.0
 10
170.5594594694065
 20
16.06909190460925
 30
0.0
 10
170.4828343638597
 20
16.03131644107544
 30
0.0
 10
170.4165265636201
 20
15.98051641089575
 30
0.0
 10
170.3622560536964
 20
15.91731143407208
 30
0.0
 10
170.322492534546
 20
15.84276455710367
 30
0.0
 10
170.2976775510588
 20
15.75917313997766
 30
0.0
 10
170.2892124262869
 20
15.65192948382283
 30
0.0
 10
170.3019697987104
 20
15.52965457267555
 30
0.0
 10
170.3681548409274
 20
15.41149724291215
 30
0.0
 10
170.4640977399833
 20
15.32606325709527
 30
0.0
 10
170.5757914963182
 20
15.25583362306717
 30
0.0
 10
170.7010863668703
 20
15.19659162305301
 30
0.0
 10
170.8349823941447
 20
15.14616708086129
 30
0.0
 10
170.968993033315
 20
15.09322516984381
 30
0.0
 10
171.0950885316916
 20
15.0275017062518
 30
0.0
 10
171.2076216638417
 20
14.94480352537316
 30
0.0
 10
171.3031370284234
 20
14.83996006310077
 30
0.0
 10
171.3672706486963
 20
14.69937117251567
 30
0.0
 10
171.3811103725279
 20
14.54065409451592
 30
0.0
 10
171.3673954712229
 20
14.38153155217874
 30
0.0
 10
171.3244739153985
 20
14.23483828819211
 30
0.0
 10
171.2545906329065
 20
14.10119796587145
 30
0.0
 10
171.157459221383
 20
13.98532387699291
 30
0.0
 10
171.0347806023657
 20
13.89089981770088
 30
0.0
 10
170.8874408413168
 20
13.8217927065198
 30
0.0
 10
170.7177132497125
 20
13.77953210858855
 30
0.0
 10
170.5317404979597
 20
13.76781736230405
 30
0.0
 10
170.3528955926184
 20
13.77809486683438
 30
0.0
 10
170.1881733753743
 20
13.81966573769151
 30
0.0
 10
170.0834410841057
 20
13.88797642883944
 30
0.0
 10
169.9350960790367
 20
13.93675219032109
 30
0.0
 10
169.9980378194729
 20
14.02976591290842
 30
0.0
 10
170.007227443006
 20
14.10296536248279
 30
0.0
 10
170.0303711301232
 20
14.16936294501343
 30
0.0
 10
170.0034588335317
 20
14.26974809527582
 30
0.0
 10
170.0521338956339
 20
14.26234033517379
 30
0.0
 10
170.0916530580697
 20
14.26894063620895
 30
0.0
 10
170.0996204944701
 20
14.1907870321893
 30
0.0
 10
170.1305436967922
 20
14.15600927375853
 30
0.0
 10
170.1465954835851
 20
14.1379566321599
 30
0.0
 11
170.1465954835851
 21
14.1379566321599
 31
0.0
 11
170.1982038075864
 21
14.07729869814737
 31
0.0
 11
170.2601105501335
 21
14.0227129516332
 31
0.0
 11
170.3327764009802
 21
13.97583980928386
 31
0.0
 11
170.4166468655843
 21
13.9383990627654
 31
0.0
 11
170.511221073241
 21
13.91390636311878
 31
0.0
 11
170.6161603327165
 21
13.90575829888469
 31
0.0
 11
170.7240739497552
 21
13.91564048638222
 31
0.0
 11
170.8208419941617
 21
13.9452870488748
 31
0.0
 11
170.9050776083319
 21
13.99175118948819
 31
0.0
 11
170.9756144207687
 21
14.05191413218149
 31
0.0
 11
171.031944210998
 21
14.12505819466318
 31
0.0
 11
171.0736690016004
 21
14.21021434047519
 31
0.0
 11
171.0994680808032
 21
14.30436190989613
 31
0.0
 11
171.1080824729446
 21
14.4045155209822
 31
0.0
 11
171.0878517703357
 21
14.54643250879396
 31
0.0
 11
171.0272522666732
 21
14.65566684036389
 31
0.0
 11
170.9364971286286
 21
14.74081306430096
 31
0.0
 11
170.826010188474
 21
14.81052746532509
 31
0.0
 11
170.7008523531254
 21
14.86979854169922
 31
0.0
 11
170.5662951950998
 21
14.92404253474119
 31
0.0
 11
170.4316884277007
 21
14.98201274306002
 31
0.0
 11
170.3065802017259
 21
15.0529739930423
 31
0.0
 11
170.196027609828
 21
15.14113315968692
 31
0.0
 11
170.1053381235265
 21
15.25080295132619
 31
0.0
 11
170.0447055469484
 21
15.3917972047631
 31
0.0
 11
170.0245079172554
 21
15.57413260402309
 31
0.0
 11
170.0374030471347
 21
15.71216131926639
 31
0.0
 11
170.0761016659391
 21
15.8373312845129
 31
0.0
 11
170.1393141731506
 21
15.94779262129085
 31
0.0
 11
170.2257499954545
 21
16.0419688539062
 31
0.0
 11
170.3336492808962
 21
16.1184654077065
 31
0.0
 11
170.4613526283329
 21
16.1761567010949
 31
0.0
 11
170.6075393259923
 21
16.21220066809972
 31
0.0
 11
170.770976856545
 21
16.22421385386059
 31
0.0
 11
170.9248918431289
 21
16.21434269066863
 31
0.0
 11
171.0564887242607
 21
16.18477329831499
 31
0.0
 11
171.172563634494
 21
16.13439993895253
 31
0.0
 11
171.2800792741123
 21
16.0626416316788
 31
0.0
 11
171.2516994050445
 21
16.00236624106887
 31
0.0
 11
171.2284855254284
 21
15.9387901733765
 31
0.0
 11
171.2078381040801
 21
15.8647884199227
 31
0.0
 11
171.1871840681487
 21
15.7736019789733
 31
0.0
 11
171.1665597978415
 21
15.7736019789733
 31
0.0
 11
171.1459355275344
 21
15.7736019789733
 31
0.0
 11
171.1256706495791
 21
15.82395108486346
 31
0.0
 11
171.0994658759421
 21
15.8785004511693
 31
0.0
 11
171.0650468924451
 21
15.93316116296115
 31
0.0
 11
171.0203554612937
 21
15.98349593725409
 31
0.0
 11
170.9657333359511
 21
16.02777175321526
 31
0.0
 11
170.9016722004327
 21
16.06436142334499
 31
0.0
 11
170.8259682961141
 21
16.08882545979725
 31
0.0
 11
170.7365722046449
 21
16.0970110066702
 31
0.0
 11
170.6440937174208
 21
16.08926973931102
 31
0.0
 11
170.5594072091646
 21
16.0660900344557
 31
0.0
 11
170.483702448884
 21
16.02863495634008
 31
0.0
 11
170.4183754766516
 21
15.97832774281099
 31
0.0
 11
170.3650487887665
 21
15.91600293379878
 31
0.0
 11
170.3254809233902
 21
15.8424994789561
 31
0.0
 11
170.3009523754711
 21
15.75988443557394
 31
0.0
 11
170.2927954104108
 21
15.6704232984435
 31
0.0
 11
170.3130095765618
 21
15.5259530814657
 31
0.0
 11
170.3736256166821
 21
15.41591177072939
 31
0.0
 11
170.4643479320758
 21
15.33033670130633
 31
0.0
 11
170.5748676948814
 21
15.25941954854619
 31
0.0
 11
170.7000089937719
 21
15.19914305550576
 31
0.0
 11
170.8345826882553
 21
15.1459044791302
 31
0.0
 11
170.9691729191968
 21
15.09039489581074
 31
0.0
 11
171.0942976816298
 21
15.0237728124941
 31
0.0
 11
171.204800907977
 21
14.9411886371675
 31
0.0
 11
171.2955397598289
 21
14.8380000347627
 31
0.0
 11
171.3561557999489
 21
14.70552315979584
 31
0.0
 11
171.3763699660998
 21
14.53526378483839
 31
0.0
 11
171.3621839747998
 21
14.38133030397411
 31
0.0
 11
171.3196087009193
 21
14.23605531269099
 31
0.0
 11
171.2499752884265
 21
14.10398854189069
 31
0.0
 11
171.1544992078714
 21
13.9900721877525
 31
0.0
 11
171.0341060772624
 21
13.89715272597017
 31
0.0
 11
170.8896160201847
 21
13.8283235766818
 31
0.0
 11
170.7223519532714
 21
13.78581275203967
 31
0.0
 11
170.5336103348227
 21
13.7716586461404
 31
0.0
 11
170.3405031726388
 21
13.78581275203967
 31
0.0
 11
170.1878975900911
 21
13.8283235766818
 31
0.0
 11
170.0661897942203
 21
13.88899033013892
 31
0.0
 11
169.9660261826364
 21
13.95734322942739
 31
0.0
 11
169.9922320587039
 21
14.03255545163077
 31
0.0
 11
170.0090121537618
 21
14.10014767383609
 31
0.0
 11
170.0206196447852
 21
14.1727592623596
 31
0.0
 11
170.0313606254139
 21
14.2635278821286
 31
0.0
 11
170.0520069443315
 21
14.2635278821286
 31
0.0
 11
170.0726532632492
 21
14.2635278821286
 31
0.0
 11
170.1048916391629
 21
14.20119204881082
 31
0.0
 11
170.1465954835851
 21
14.1379566321599
 31
0.0
  0
SPLINE
  5
A9
102
{ACAD_REACTORS
330
C7
102
}
330
48
100
AcDbEntity
  8
_U_30EC_U_30A4_U_30E4_U_30FC_1
  6
Continuous
 62
     2
100
AcDbSpline
210
0.0
220
0.0
230
1.0
 70
    11
 71
     3
 72
    57
 73
    53
 74
    51
 42
0.000000001
 43
0.0000000001
 44
0.00000001
 40
0.0
 40
0.0
 40
0.0
 40
0.0
 40
0.0471632082809507
 40
0.0914861054632982
 40
0.1357762519703218
 40
0.1826527001611512
 40
0.2295203288573421
 40
0.273775197222159
 40
0.3181310461543888
 40
0.3652607198399319
 40
0.4571007286314913
 40
0.5671851029165932
 40
0.6894623283868733
 40
0.8181758272546302
 40
0.9510087229274599
 40
1.085852229674158
 40
1.218126164475363
 40
1.343545131142446
 40
1.454537202956946
 40
1.567187607530955
 40
1.680710966642545
 40
1.794226869736853
 40
1.900009184247737
 40
2.004085860448017
 40
2.108162674451848
 40
2.214000150155448
 40
2.496038577352285
 40
2.76235074547942
 40
2.997275353279576
 40
3.185110082137884
 40
3.246407890064054
 40
3.31260755021284
 40
3.378877742711713
 40
3.440140399651595
 40
4.100501696006599
 40
4.754913085563643
 40
5.411331693424035
 40
6.077890432568815
 40
6.110575292671094
 40
6.143260152775874
 40
6.367989363395234
 40
6.610525374951642
 40
6.863389136467405
 40
7.119380025547637
 40
7.376036605091197
 40
7.631164770966386
 40
7.87672242545653
 40
8.104953735856036
 40
8.312916685924423
 40
8.497730294941361
 40
8.651018984313957
 40
8.764738853624694
 40
8.764738853624694
 40
8.764738853624694
 40
8.764738853624694
 10
174.7922649500514
 20
13.81626739612929
 30
0.0
 10
174.7766616726931
 20
13.81826231079079
 30
0.0
 10
174.7463947960303
 20
13.82213201360301
 30
0.0
 10
174.7010994202253
 20
13.82341984967265
 30
0.0
 10
174.6559553129349
 20
13.82308683554048
 30
0.0
 10
174.6099017123399
 20
13.82314658674222
 30
0.0
 10
174.5640496172096
 20
13.82325813649999
 30
0.0
 10
174.5183711648165
 20
13.82277833456588
 30
0.0
 10
174.4750811541608
 20
13.82461109618723
 30
0.0
 10
174.4039947951513
 20
13.80049556814658
 30
0.0
 10
174.4057477261442
 20
13.92184693977255
 30
0.0
 10
174.3586196370569
 20
14.0072623975123
 30
0.0
 10
174.3191478251763
 20
14.12486929345137
 30
0.0
 10
174.2706635532646
 20
14.24232752540441
 30
0.0
 10
174.2201017402522
 20
14.36405935761508
 30
0.0
 10
174.1718634610477
 20
14.49075967862466
 30
0.0
 10
174.1135232947595
 20
14.59933687784955
 30
0.0
 10
174.0980892667262
 20
14.75620657134417
 30
0.0
 10
173.9566586330636
 20
14.72373446548319
 30
0.0
 10
173.8508397414903
 20
14.73512888682181
 30
0.0
 10
173.7358569725222
 20
14.73392591514613
 30
0.0
 10
173.6253142252141
 20
14.73506945347405
 30
0.0
 10
173.5176583522783
 20
14.73418350037523
 30
0.0
 10
173.4121322529242
 20
14.7341660239052
 30
0.0
 10
173.3109192682013
 20
14.72714032472413
 30
0.0
 10
173.1266804827753
 20
14.75135859859876
 30
0.0
 10
173.1157393685412
 20
14.44741691121885
 30
0.0
 10
173.0087691634751
 20
14.22353177253395
 30
0.0
 10
172.9098148604347
 20
14.03895314292498
 30
0.0
 10
172.9225090524008
 20
13.7953020480421
 30
0.0
 10
172.8050091716397
 20
13.825080467532
 30
0.0
 10
172.7422055868311
 20
13.82258089509599
 30
0.0
 10
172.67858720934
 20
13.82344075102807
 30
0.0
 10
172.3946014194076
 20
13.78098039941947
 30
0.0
 10
173.0251638499381
 20
14.50081952444785
 30
0.0
 10
173.1087645289073
 20
15.01276539435722
 30
0.0
 10
173.4929252789339
 20
15.53353743550042
 30
0.0
 10
173.4777208288565
 20
16.23519626253211
 30
0.0
 10
173.7239265722697
 20
16.22345633081254
 30
0.0
 10
173.8256346157561
 20
16.2322500445277
 30
0.0
 10
173.8249752035818
 20
15.98059650730344
 30
0.0
 10
173.942831715583
 20
15.79818020733963
 30
0.0
 10
174.0315515260485
 20
15.55563740662867
 30
0.0
 10
174.1322292485259
 20
15.32340030530129
 30
0.0
 10
174.2311142712243
 20
15.08674644566915
 30
0.0
 10
174.3299676990669
 20
14.8546173917009
 30
0.0
 10
174.4256166390927
 20
14.63122222788791
 30
0.0
 10
174.5159904573271
 20
14.42272549049313
 30
0.0
 10
174.5989944568189
 20
14.23308448529322
 30
0.0
 10
174.6726088582799
 20
14.06663106068099
 30
0.0
 10
174.7342815895546
 20
13.92917699626097
 30
0.0
 10
174.7749458885604
 20
13.84999239430035
 30
0.0
 10
174.7922649500514
 20
13.81626739612929
 30
0.0
 11
174.7922649500514
 21
13.81626739612929
 31
0.0
 11
174.7453878317448
 21
13.82145433189186
 31
0.0
 11
174.7010975896125
 21
13.8231553822386
 31
0.0
 11
174.6568074431729
 21
13.8231553822386
 31
0.0
 11
174.6099309947159
 21
13.8231553822386
 31
0.0
 11
174.5630633657033
 21
13.8231553822386
 31
0.0
 11
174.5188084970408
 21
13.8231553822386
 31
0.0
 11
174.4744852776854
 21
13.82145433189186
 31
0.0
 11
174.4276419021443
 21
13.81626739612929
 31
0.0
 11
174.3992532136326
 21
13.90360966173244
 31
0.0
 11
174.3622721815898
 21
14.0072965627482
 31
0.0
 11
174.3188386236702
 21
14.12159987001128
 31
0.0
 11
174.2711055866937
 21
14.24113531268969
 31
0.0
 11
174.2208160133237
 21
14.36408057307565
 31
0.0
 11
174.1696467003932
 21
14.4888382292945
 31
0.0
 11
174.1197531801326
 21
14.61134141502772
 31
0.0
 11
174.0733119111842
 21
14.7278451736792
 31
0.0
 11
173.9623611907589
 21
14.73087465284505
 31
0.0
 11
173.8497309225089
 21
14.7330045486779
 31
0.0
 11
173.7362152069449
 21
14.73432195319138
 31
0.0
 11
173.6227000476801
 21
14.73473315978849
 31
0.0
 11
173.5169185312816
 21
14.73432195319138
 31
0.0
 11
173.4128501919225
 21
14.7330045486779
 31
0.0
 11
173.3087951724046
 21
14.73087465284505
 31
0.0
 11
173.2030010615596
 21
14.7278451736792
 31
0.0
 11
173.0980914750139
 21
14.46604437513351
 31
0.0
 11
173.0034868690332
 21
14.2171023265846
 31
0.0
 11
172.9252231210298
 21
13.99559756969556
 31
0.0
 11
172.8693431224555
 21
13.81626739612929
 31
0.0
 11
172.8082651639442
 21
13.82145433189186
 31
0.0
 11
172.742087361813
 21
13.8231553822386
 31
0.0
 11
172.6758390041282
 21
13.82145433189186
 31
0.0
 11
172.6147963233938
 21
13.81626739612929
 31
0.0
 11
172.889968495193
 21
14.41656508695141
 31
0.0
 11
173.1582945734171
 21
15.0134364236077
 31
0.0
 11
173.4240277350405
 21
15.61366245644379
 31
0.0
 11
173.6914740737033
 21
16.22421385386059
 31
0.0
 11
173.7241589339806
 21
16.22421385386059
 31
0.0
 11
173.7568437942579
 21
16.22421385386059
 31
0.0
 11
173.8428300681057
 21
16.01658539037084
 31
0.0
 11
173.935728581361
 21
15.7925461456352
 31
0.0
 11
174.0328714521464
 21
15.55908663180469
 31
0.0
 11
174.1317936458031
 21
15.3229812846415
 31
0.0
 11
174.2315341249927
 21
15.08649780379783
 31
0.0
 11
174.3313071129353
 21
14.85168781253709
 31
0.0
 11
174.4280608257449
 21
14.62599492196849
 31
0.0
 11
174.5188084970408
 21
14.4165805209792
 31
0.0
 11
174.6022150834546
 21
14.22607611130459
 31
0.0
 11
174.6770293263377
 21
14.0570823266247
 31
0.0
 11
174.7410729186603
 21
13.91781337700667
 31
0.0
 11
174.7922649500514
 21
13.81626739612929
 31
0.0
  0
SPLINE
  5
AA
102
{ACAD_REACTORS
330
C7
102
}
330
48
100
AcDbEntity
  8
_U_30EC_U_30A4_U_30E4_U_30FC_1
  6
Continuous
 62
     2
100
AcDbSpline
210
0.0
220
0.0
230
1.0
 70
    11
 71
     3
 72
    25
 73
    21
 74
    19
 42
0.000000001
 43
0.0000000001
 44
0.00000001
 40
0.0
 40
0.0
 40
0.0
 40
0.0
 40
0.0911479969064535
 40
0.1858117896203809
 40
0.2804128399734201
 40
0.3715889190713654
 40
0.4679080494217852
 40
0.5642683809229225
 40
0.66056832226447
 40
0.7569653015810248
 40
0.8561348172522699
 40
1.092615965104288
 40
1.374867658141874
 40
1.611348812011555
 40
1.710518328425211
 40
1.809403163726515
 40
2.04520546329403
 40
2.326646917622067
 40
2.562449217190532
 40
2.661334043833835
 40
2.661334043833835
 40
2.661334043833835
 40
2.661334043833835
 10
173.26837005672
 20
14.8861453819729
 30
0.0
 10
173.2987525917924
 20
14.88598079714554
 30
0.0
 10
173.3606895889111
 20
14.88564528689922
 30
0.0
 10
173.4541356960331
 20
14.88269055452001
 30
0.0
 10
173.5475095236357
 20
14.87977752877152
 30
0.0
 10
173.6417760753476
 20
14.87894201643416
 30
0.0
 10
173.7354964790967
 20
14.87996644658047
 30
0.0
 10
173.8352040303205
 20
14.87916977470971
 30
0.0
 10
173.9188949546313
 20
14.88921410235218
 30
0.0
 10
174.0637996315046
 20
14.86234617674162
 30
0.0
 10
173.9396132444802
 20
15.03665530280047
 30
0.0
 10
173.8965867286283
 20
15.19651711006088
 30
0.0
 10
173.7808922142209
 20
15.45518458550207
 30
0.0
 10
173.7017565431258
 20
15.59231052861855
 30
0.0
 10
173.6431576621816
 20
15.80937033134071
 30
0.0
 10
173.586480393944
 20
15.59266134213421
 30
0.0
 10
173.5052809900477
 20
15.45327012438234
 30
0.0
 10
173.4063701281489
 20
15.20406969370189
 30
0.0
 10
173.325362509426
 20
15.01925830226072
 30
0.0
 10
173.2813683325839
 20
14.91650446856114
 30
0.0
 10
173.26837005672
 20
14.8861453819729
 30
0.0
 11
173.26837005672
 21
14.8861453819729
 31
0.0
 11
173.3595137737821
 21
14.8852612326676
 31
0.0
 11
173.4541428297581
 21
14.882696979196
 31
0.0
 11
173.5487082179706
 21
14.88009965280779
 31
0.0
 11
173.6398803250196
 21
14.8792485764191
 31
0.0
 11
173.7361985777706
 21
14.87965978301621
 31
0.0
 11
173.8325499034377
 21
14.8809771875297
 31
0.0
 11
173.9288262638287
 21
14.88310818579311
 31
0.0
 11
174.0251753846344
 21
14.8861453819729
 31
0.0
 11
173.9854633323142
 21
14.97701642195018
 31
0.0
 11
173.8907653613969
 21
15.19370890189598
 31
0.0
 11
173.7777387509471
 21
15.45234186183131
 31
0.0
 11
173.6830407800298
 21
15.66903434177711
 31
0.0
 11
173.6433287277096
 21
15.75990538175439
 31
0.0
 11
173.6043330259267
 21
15.66903434177711
 31
0.0
 11
173.5113432755213
 21
15.45234186183131
 31
0.0
 11
173.4003555089083
 21
15.19370890189599
 31
0.0
 11
173.3073657585029
 21
14.97701642195018
 31
0.0
 11
173.26837005672
 21
14.8861453819729
 31
0.0
  0
SPLINE
  5
AB
102
{ACAD_REACTORS
330
C8
102
}
330
48
100
AcDbEntity
  8
_U_30EC_U_30A4_U_30E4_U_30FC_1
  6
Continuous
 62
     2
100
AcDbSpline
210
0.0
220
0.0
230
1.0
 70
    11
 71
     3
 72
    95
 73
    91
 74
    89
 42
0.000000001
 43
0.0000000001
 44
0.00000001
 40
0.0
 40
0.0
 40
0.0
 40
0.0
 40
0.6550406656911574
 40
1.30808728903191
 40
1.420803739835755
 40
1.566130759770794
 40
1.757067341888441
 40
2.006513545026423
 40
2.087328263121511
 40
2.185328872295626
 40
2.294612454748367
 40
2.408936380534788
 40
2.526802767798542
 40
2.646360524615595
 40
2.76253572397157
 40
2.870057342870133
 40
2.966883448431624
 40
3.050803243518312
 40
3.115818222436594
 40
3.156030057150216
 40
3.213914225080202
 40
3.276689026450602
 40
3.342960320981321
 40
3.404230667150626
 40
3.453822809493418
 40
3.532499827188424
 40
3.634775188507199
 40
3.754909333008186
 40
3.889736761660712
 40
4.035769602175222
 40
4.187256681197677
 40
4.338733685675972
 40
4.488478734676169
 40
4.63470831783162
 40
4.771493189921289
 40
4.892686571561266
 40
5.199775528944488
 40
5.460353566929632
 40
5.667603142345548
 40
5.81472290540452
 40
5.828990806219847
 40
5.855488336304572
 40
5.869756237118932
 40
6.189796507762922
 40
6.531890469873059
 40
6.883053637017052
 40
7.23051202491151
 40
7.566966656764651
 40
7.885203559707422
 40
8.17288743971926
 40
8.41801159406285
 40
8.443926721190772
 40
8.510760470613258
 40
8.602145393795766
 40
8.701714041647204
 40
8.793098965075433
 40
8.859932715058005
 40
8.885847842603653
 40
9.242301256612857
 40
9.589275455016763
 40
9.921808543164225
 40
10.23479624298473
 40
10.29968150889184
 40
10.35323493887772
 40
10.40154625355159
 40
10.4648292247784
 40
10.55973900668419
 40
10.69239545985638
 40
10.84920353475688
 40
11.01626328594797
 40
11.18672024367457
 40
11.35372582577226
 40
11.50257442292443
 40
11.61866495023308
 40
11.71329869152893
 40
11.82511050573921
 40
11.94464880845732
 40
12.06929242642522
 40
12.19707290435195
 40
12.32562632860544
 40
12.45034565331298
 40
12.56646595170342
 40
12.67099007414648
 40
12.76077625936801
 40
12.8270323350671
 40
12.8742913278601
 40
12.89831990323349
 40
12.92234847860037
 40
13.53984767410344
 40
14.18294284359385
 40
14.18294284359385
 40
14.18294284359385
 40
14.18294284359385
 10
177.3067935648021
 20
14.7089803820172
 30
0.0
 10
177.175201975855
 20
14.8226505860323
 30
0.0
 10
176.9124193802729
 20
15.04964496316159
 30
0.0
 10
176.3997393441023
 20
15.89214462956286
 30
0.0
 10
176.4106654595363
 20
15.5342337757702
 30
0.0
 10
176.4041226527991
 20
15.39267392272134
 30
0.0
 10
176.4028026631773
 20
15.19421305299281
 30
0.0
 10
176.4018117602538
 20
15.02150296045984
 30
0.0
 10
176.4024101751975
 20
14.87865373257581
 30
0.0
 10
176.4038994301884
 20
14.78265005413358
 30
0.0
 10
176.4055683588472
 20
14.6754550326314
 30
0.0
 10
176.4071934954618
 20
14.56164211517583
 30
0.0
 10
176.4092429501686
 20
14.44441572604589
 30
0.0
 10
176.4123165501928
 20
14.3265641123297
 30
0.0
 10
176.4156339697043
 20
14.2122808732062
 30
0.0
 10
176.419360534028
 20
14.10521401867277
 30
0.0
 10
176.4217338161424
 20
14.0100740876692
 30
0.0
 10
176.4278718888357
 20
13.92558557205695
 30
0.0
 10
176.4239784495947
 20
13.8692308729814
 30
0.0
 10
176.4455230443079
 20
13.79825022472355
 30
0.0
 10
176.3680940058618
 20
13.82902677604485
 30
0.0
 10
176.3116353240191
 20
13.82011242517609
 30
0.0
 10
176.2540495896807
 20
13.82896218398276
 30
0.0
 10
176.1690163478472
 20
13.79738225225945
 30
0.0
 10
176.2009714146383
 20
13.88095155992187
 30
0.0
 10
176.1990705282538
 20
13.94882608968307
 30
0.0
 10
176.21079600473
 20
14.05233256764414
 30
0.0
 10
176.2164241053
 20
14.17002125616693
 30
0.0
 10
176.2237902178942
 20
14.3038860916442
 30
0.0
 10
176.2320759701612
 20
14.4476415287263
 30
0.0
 10
176.2398851897428
 20
14.59714022843442
 30
0.0
 10
176.2457571222658
 20
14.74792549402077
 30
0.0
 10
176.2503667817968
 20
14.89699943878436
 30
0.0
 10
176.2542632117542
 20
15.0412291316302
 30
0.0
 10
176.2570715126565
 20
15.17583905213015
 30
0.0
 10
176.2576698755023
 20
15.36469614347352
 30
0.0
 10
176.2616023867151
 20
15.58975494313152
 30
0.0
 10
176.2442175378499
 20
15.86367091125704
 30
0.0
 10
176.2850417342582
 20
16.02787112098593
 30
0.0
 10
176.1995153256004
 20
16.22749661465095
 30
0.0
 10
176.2660558907687
 20
16.22385458403975
 30
0.0
 10
176.2838724273231
 20
16.22413447160851
 30
0.0
 10
176.4056801797502
 20
16.22632927398611
 30
0.0
 10
176.5080770335464
 20
15.94675118721512
 30
0.0
 10
176.7580021509356
 20
15.74563008535998
 30
0.0
 10
176.987003533111
 20
15.47792614987915
 30
0.0
 10
177.2245151213108
 20
15.22646413862374
 30
0.0
 10
177.4486090740773
 20
14.98969974061363
 30
0.0
 10
177.6750716283009
 20
14.7321869258308
 30
0.0
 10
177.8325687886514
 20
14.6164933505692
 30
0.0
 10
178.0472129612675
 20
14.27997152538795
 30
0.0
 10
178.0422645974619
 20
14.40464754091604
 30
0.0
 10
178.0433931602547
 20
14.46327691935738
 30
0.0
 10
178.0428877841517
 20
14.55043662371978
 30
0.0
 10
178.0430475158114
 20
14.64416143182872
 30
0.0
 10
178.0430054891319
 20
14.73018971297035
 30
0.0
 10
178.0430202040374
 20
14.79153891945495
 30
0.0
 10
178.0429706255983
 20
14.94135231520992
 30
0.0
 10
178.0458811522812
 20
15.17989612510102
 30
0.0
 10
178.0259521041161
 20
15.54486509868698
 30
0.0
 10
178.0750433936247
 20
15.80799631993409
 30
0.0
 10
177.9177951509182
 20
16.21928904947751
 30
0.0
 10
178.076211287242
 20
16.16398282551748
 30
0.0
 10
178.1311680478629
 20
16.1619968650018
 30
0.0
 10
178.182788776674
 20
16.16264778248253
 30
0.0
 10
178.2713198965367
 20
16.20369527738245
 30
0.0
 10
178.2204898303168
 20
16.05696326622987
 30
0.0
 10
178.2313389930283
 20
15.95019971954432
 30
0.0
 10
178.2166036994847
 20
15.7908570541411
 30
0.0
 10
178.2099976446204
 20
15.62853061652873
 30
0.0
 10
178.2014961399915
 20
15.45992521892396
 30
0.0
 10
178.1943227202199
 20
15.29814814703541
 30
0.0
 10
178.1889063215389
 20
15.15422331457932
 30
0.0
 10
178.1871713967649
 20
15.03437493466923
 30
0.0
 10
178.1875440672319
 20
14.92686101590514
 30
0.0
 10
178.1873656126264
 20
14.81820024645586
 30
0.0
 10
178.1877010863139
 20
14.69953570165531
 30
0.0
 10
178.1890040622184
 20
14.5755516351274
 30
0.0
 10
178.1908887351574
 20
14.44858294171103
 30
0.0
 10
178.1925004454851
 20
14.3215386155103
 30
0.0
 10
178.194140313743
 20
14.19854884492177
 30
0.0
 10
178.1962570745753
 20
14.08300931383759
 30
0.0
 10
178.1963848422364
 20
13.98090903955837
 30
0.0
 10
178.2006514396555
 20
13.89009848838156
 30
0.0
 10
178.190844008529
 20
13.83213621208785
 30
0.0
 10
178.211847477169
 20
13.76517130132027
 30
0.0
 10
178.1725639739898
 20
13.77291153966686
 30
0.0
 10
177.9595307117744
 20
13.75755254145193
 30
0.0
 10
177.7636297943188
 20
14.31403058094466
 30
0.0
 10
177.4611197631543
 20
14.57556035348507
 30
0.0
 10
177.3067935648021
 20
14.7089803820172
 30
0.0
 11
177.3067935648021
 21
14.7089803820172
 31
0.0
 11
176.8595529338511
 21
15.18757635411979
 31
0.0
 11
176.4124049070644
 21
15.6635264928897
 31
0.0
 11
176.4089664262494
 21
15.55086249986235
 31
0.0
 11
176.40556101835
 21
15.40557538184309
 31
0.0
 11
176.4029636920274
 21
15.21465645827968
 31
0.0
 11
176.4021126156603
 21
14.96521170139759
 31
0.0
 11
176.402523923029
 21
14.88439802954282
 31
0.0
 11
176.4038420329818
 21
14.7864062847756
 31
0.0
 11
176.4055192267718
 21
14.67713557299738
 31
0.0
 11
176.4072367127518
 21
14.5628245487204
 31
0.0
 11
176.4094007838773
 21
14.44497802965266
 31
0.0
 11
176.4124049070644
 21
14.32545802100199
 31
0.0
 11
176.4158359733138
 21
14.20933349846156
 31
0.0
 11
176.4192928929998
 21
14.1018674655023
 31
0.0
 11
176.4227085253088
 21
14.00510162351265
 31
0.0
 11
176.4261896983793
 21
13.92125406276969
 31
0.0
 11
176.4296006184313
 21
13.8563286200776
 31
0.0
 11
176.4330776843149
 21
13.81626739612929
 31
0.0
 11
176.3754263821571
 21
13.82145433189186
 31
0.0
 11
176.3126746318309
 21
13.8231553822386
 31
0.0
 11
176.2464251717157
 21
13.82145433189186
 31
0.0
 11
176.1853747739675
 21
13.81626739612929
 31
0.0
 11
176.1926772737813
 21
13.86531894125589
 31
0.0
 11
176.2008793569054
 21
13.9435672572085
 31
0.0
 11
176.2090098822349
 21
14.04551893253027
 31
0.0
 11
176.2163406441398
 21
14.16542920159749
 31
0.0
 11
176.2236358280422
 21
14.30005912343889
 31
0.0
 11
176.2318444255597
 21
14.44586107652739
 31
0.0
 11
176.2395504149467
 21
14.59715203135074
 31
0.0
 11
176.2455763002094
 21
14.7485091320073
 31
0.0
 11
176.2503046247416
 21
14.89817951391435
 31
0.0
 11
176.254192897212
 21
15.0443573958222
 31
0.0
 11
176.2567527408965
 21
15.18111831592692
 31
0.0
 11
176.2576324804575
 21
15.3023085068689
 31
0.0
 11
176.257192610677
 21
15.60939715262542
 31
0.0
 11
176.2559126888348
 21
15.86997204839359
 31
0.0
 11
176.2528658717893
 21
16.07719922716123
 31
0.0
 11
176.2473049112763
 21
16.22421385386059
 31
0.0
 11
176.2615728121469
 21
16.22421385386059
 31
0.0
 11
176.2880703423353
 21
16.22421385386059
 31
0.0
 11
176.3023382432059
 21
16.22421385386059
 31
0.0
 11
176.5194743650277
 21
15.98910179662769
 31
0.0
 11
176.7512744123079
 21
15.7375128123156
 31
0.0
 11
176.9894816018839
 21
15.47949555543568
 31
0.0
 11
177.2260074557521
 21
15.22497079855489
 31
0.0
 11
177.4555698717706
 21
14.97899759549138
 31
0.0
 11
177.6731797360103
 21
14.7467893403411
 31
0.0
 11
177.8713724913707
 21
14.53826680567101
 31
0.0
 11
178.0430143099087
 21
14.3632669793259
 31
0.0
 11
178.0430143099087
 21
14.38918210687044
 31
0.0
 11
178.0430143099087
 21
14.45601585685372
 31
0.0
 11
178.0430143099087
 21
14.54740078030025
 31
0.0
 11
178.0430143099087
 21
14.64696942823454
 31
0.0
 11
178.0430143099087
 21
14.73835435168107
 31
0.0
 11
178.0430143099087
 21
14.80518810166435
 31
0.0
 11
178.0430143099087
 21
14.83110322920889
 31
0.0
 11
178.041723363761
 21
15.18755430550866
 31
0.0
 11
178.0378461155958
 21
15.53450684014409
 31
0.0
 11
178.0296197790002
 21
15.86693815950551
 31
0.0
 11
178.0154535467228
 21
16.17960510387179
 31
0.0
 11
178.0790351249618
 21
16.16666367158336
 31
0.0
 11
178.1324170159611
 21
16.1623807288761
 31
0.0
 11
178.1805381084833
 21
16.16666367158336
 31
0.0
 11
178.2424836798198
 21
16.17960510387179
 31
0.0
 11
178.2351216487575
 21
16.08498128445103
 31
0.0
 11
178.2269790968818
 21
15.9525749650396
 31
0.0
 11
178.2183705364004
 21
15.79600336785655
 31
0.0
 11
178.2097547223215
 21
15.62916593734269
 31
0.0
 11
178.2016187850289
 21
15.45890325509362
 31
0.0
 11
178.1942501393836
 21
15.292060312427
 31
0.0
 11
178.1891406931522
 21
15.14329943572809
 31
0.0
 11
178.1874503478905
 21
15.027221215271
 31
0.0
 11
178.1874503478905
 21
14.93258747397516
 31
0.0
 11
178.1874503478905
 21
14.82077565976709
 31
0.0
 11
178.1878461204497
 21
14.70123801222749
 31
0.0
 11
178.1890819450708
 21
14.5766005209392
 31
0.0
 11
178.1908392193317
 21
14.44883212687388
 31
0.0
 11
178.1925303477608
 21
14.32028982655879
 31
0.0
 11
178.1942876220215
 21
14.19558288214552
 31
0.0
 11
178.1959787504506
 21
14.0794748960635
 31
0.0
 11
178.1972884379173
 21
13.9749589672702
 31
0.0
 11
178.1976985420736
 21
13.88517371555649
 31
0.0
 11
178.1976985420736
 21
13.81891763918416
 31
0.0
 11
178.1976985420736
 21
13.7716586461404
 31
0.0
 11
178.1736699662977
 21
13.7716586461404
 31
0.0
 11
178.1496413905218
 21
13.7716586461404
 31
0.0
 11
177.7410729200423
 21
14.23466735262191
 31
0.0
 11
177.3067935648021
 21
14.7089803820172
 31
0.0
  0
SPLINE
  5
AC
102
{ACAD_REACTORS
330
C9
102
}
330
48
100
AcDbEntity
  8
_U_30EC_U_30A4_U_30E4_U_30FC_1
  6
Continuous
 62
     2
100
AcDbSpline
210
0.0
220
0.0
230
1.0
 70
    11
 71
     3
 72
   110
 73
   106
 74
   104
 42
0.000000001
 43
0.0000000001
 44
0.00000001
 40
0.0
 40
0.0
 40
0.0
 40
0.0
 40
0.2203406257277696
 40
0.4407808782838196
 40
0.5952494494614611
 40
0.7488431659393195
 40
0.9023581831308599
 40
1.056801968670415
 40
1.21073644909983
 40
1.363041386539707
 40
1.51531572968308
 40
1.669377239148088
 40
1.721611652756592
 40
1.773199502942994
 40
1.824933793210003
 40
1.877110426488023
 40
1.982682281206818
 40
2.078781667087685
 40
2.172809640822376
 40
2.271937807378973
 40
2.37834993337945
 40
2.494131557736637
 40
2.626681683943772
 40
2.783145050796199
 40
2.890701232941039
 40
2.993130312454979
 40
3.099869730691925
 40
3.22023781669141
 40
3.352695482737688
 40
3.481732806390009
 40
3.593499473690493
 40
3.674323013332036
 40
3.817951711952928
 40
3.946167120793898
 40
4.061405053453611
 40
4.166480796003225
 40
4.262478775059318
 40
4.350736673551219
 40
4.433071991254101
 40
4.511216293814701
 40
4.564262454117976
 40
4.618474415571573
 40
4.670128488754198
 40
4.722296879126395
 40
4.819540945314265
 40
4.931194984128121
 40
5.049996040257736
 40
5.168643755415309
 40
5.283970811762464
 40
5.392260784910348
 40
5.486512254876394
 40
5.559178233949736
 40
5.591425852853389
 40
5.626215969637782
 40
5.667155838674319
 40
5.717449290214161
 40
5.738402360944776
 40
5.784499116553746
 40
5.830595872164721
 40
5.851548942897579
 40
5.87301928066169
 40
5.924217778408228
 40
5.985325662817602
 40
6.03652416056761
 40
6.057994498334138
 40
6.236847789607389
 40
6.381409928945581
 40
6.49319042417858
 40
6.574067534230351
 40
6.691018086205474
 40
6.814881554220363
 40
6.944307823240315
 40
7.071266716065938
 40
7.193488604461839
 40
7.309042773128095
 40
7.414007203170664
 40
7.505140441886391
 40
7.531150360599525
 40
7.559221645322118
 40
7.587202218920766
 40
7.612569159498999
 40
7.66255080948085
 40
7.702878875763957
 40
7.857328205230772
 40
8.010799568088418
 40
8.165256399657368
 40
8.322232698713707
 40
8.479564855016365
 40
8.635216230290512
 40
8.790882550925486
 40
8.948305154946995
 40
9.168271839032684
 40
9.387358980986928
 40
9.608047961033153
 40
9.83291423479232
 40
9.858338694962656
 40
9.925366817229671
 40
10.02013071422726
 40
10.12876249858966
 40
10.23739428295218
 40
10.3321581799516
 40
10.39918630222364
 40
10.42461076239754
 40
10.64992019336911
 40
10.87188524531157
 40
10.87188524531157
 40
10.87188524531157
 40
10.87188524531157
 10
179.9057788376619
 20
15.73923260398189
 30
0.0
 10
179.9092864933542
 20
15.80616462073802
 30
0.0
 10
179.9163033987662
 20
15.94005891915857
 30
0.0
 10
179.8198027599073
 20
16.22548554971468
 30
0.0
 10
180.0510134726109
 20
16.16284386190283
 30
0.0
 10
180.1919290057156
 20
16.17001554055984
 30
0.0
 10
180.3490417757588
 20
16.16235883078245
 30
0.0
 10
180.5025913427288
 20
16.16252752283044
 30
0.0
 10
180.6545104935081
 20
16.16182040535434
 30
0.0
 10
180.8142214813231
 20
16.17210158351632
 30
0.0
 10
180.9408972601118
 20
16.1549651108075
 30
0.0
 10
181.1370821122081
 20
16.22727260107148
 30
0.0
 10
181.1034395279079
 20
16.12640699080114
 30
0.0
 10
181.1052011317185
 20
16.07619253947668
 30
0.0
 10
181.1027342073459
 20
16.02712335586464
 30
0.0
 10
181.1347076966012
 20
15.94063490846992
 30
0.0
 10
181.0010399903256
 20
15.98997438608339
 30
0.0
 10
180.9172208688057
 20
15.98430634314171
 30
0.0
 10
180.8173861139324
 20
15.99465516706298
 30
0.0
 10
180.7186576720146
 20
16.00086450411088
 30
0.0
 10
180.612153277111
 20
16.00697763816775
 30
0.0
 10
180.491051169806
 20
16.0158888348458
 30
0.0
 10
180.3703381502453
 20
16.00521605912385
 30
0.0
 10
180.1812553843437
 20
16.06468503080365
 30
0.0
 10
180.2129028505311
 20
15.90558320077537
 30
0.0
 10
180.1995563316833
 20
15.80839128339903
 30
0.0
 10
180.197495842645
 20
15.69634065110101
 30
0.0
 10
180.1958188044671
 20
15.5769968562935
 30
0.0
 10
180.1973336794235
 20
15.45032592155109
 30
0.0
 10
180.1956582478669
 20
15.32301588016114
 30
0.0
 10
180.2058844271659
 20
15.2245156640446
 30
0.0
 10
180.1779006596583
 20
15.08388702625628
 30
0.0
 10
180.3508029999306
 20
15.13989551134094
 30
0.0
 10
180.4645020202771
 20
15.12719951478502
 30
0.0
 10
180.584015167224
 20
15.1344837705125
 30
0.0
 10
180.6888491425071
 20
15.13878017056762
 30
0.0
 10
180.7843084898612
 20
15.14330568258973
 30
0.0
 10
180.8763823507032
 20
15.15149201146205
 30
0.0
 10
180.9476551782439
 20
15.14643850638108
 30
0.0
 10
181.0544931705684
 20
15.18536425031669
 30
0.0
 10
181.0226603598036
 20
15.10517122005878
 30
0.0
 10
181.0266164503931
 20
15.05562936846033
 30
0.0
 10
181.0234502392013
 20
15.00557478039819
 30
0.0
 10
181.0550791490585
 20
14.92128847612019
 30
0.0
 10
180.9210133677691
 20
14.97425365495158
 30
0.0
 10
180.82923227932
 20
14.96540080890437
 30
0.0
 10
180.7079729189602
 20
14.9757004996516
 30
0.0
 10
180.5914113119772
 20
14.97748911767499
 30
0.0
 10
180.4783375745878
 20
14.97787017109695
 30
0.0
 10
180.3679246308472
 20
14.98415449472183
 30
0.0
 10
180.2898124067841
 20
14.97189133255363
 30
0.0
 10
180.1913625833645
 20
15.00453887616126
 30
0.0
 10
180.2012355173562
 20
14.94769748054207
 30
0.0
 10
180.1973923244402
 20
14.91392130557986
 30
0.0
 10
180.1966789884269
 20
14.87119604709411
 30
0.0
 10
180.1963369642976
 20
14.83401607262153
 30
0.0
 10
180.1963834255346
 20
14.79487237370769
 30
0.0
 10
180.1963649429928
 20
14.75716849497684
 30
0.0
 10
180.1963703431807
 20
14.719449552324
 30
0.0
 10
180.1963697214202
 20
14.68994324745148
 30
0.0
 10
180.1963698151547
 20
14.658735776993
 30
0.0
 10
180.1963704287921
 20
14.61414424908083
 30
0.0
 10
180.1963671499338
 20
14.55963956508851
 30
0.0
 10
180.1963759623482
 20
14.51505540201447
 30
0.0
 10
180.1963359653419
 20
14.43117808585741
 30
0.0
 10
180.1976024270257
 20
14.31737520677678
 30
0.0
 10
180.1950274117841
 20
14.16830395933708
 30
0.0
 10
180.206500938172
 20
14.06597203813906
 30
0.0
 10
180.1823506222263
 20
13.93338903885837
 30
0.0
 10
180.3332993946476
 20
13.97895732272026
 30
0.0
 10
180.4428436671555
 20
13.96427012162355
 30
0.0
 10
180.573397047392
 20
13.96920435125064
 30
0.0
 10
180.6990312209513
 20
13.97257705323358
 30
0.0
 10
180.8188730625601
 20
13.97711497498771
 30
0.0
 10
180.9391362611427
 20
13.99048536182002
 30
0.0
 10
181.0222761663516
 20
13.98068712782595
 30
0.0
 10
181.1456080421074
 20
14.04126214623317
 30
0.0
 10
181.1244269203957
 20
13.98532460134018
 30
0.0
 10
181.1235950270116
 20
13.95939249372345
 30
0.0
 10
181.1218963707558
 20
13.93197256190936
 30
0.0
 10
181.1217974888829
 20
13.89738195206384
 30
0.0
 10
181.120365930133
 20
13.86050408220767
 30
0.0
 10
181.153280419219
 20
13.76846841021809
 30
0.0
 10
180.9551306988108
 20
13.84132015974834
 30
0.0
 10
180.830054829489
 20
13.81825726508602
 30
0.0
 10
180.6673071295156
 20
13.82454021985784
 30
0.0
 10
180.5129366450001
 20
13.82260943909924
 30
0.0
 10
180.3566670436944
 20
13.82393762599266
 30
0.0
 10
180.1970544465282
 20
13.82059872487859
 30
0.0
 10
180.0540326342237
 20
13.83265795728243
 30
0.0
 10
179.8197144881629
 20
13.76952001976922
 30
0.0
 10
179.9173810751197
 20
14.05620527466319
 30
0.0
 10
179.900686878006
 20
14.2498830814266
 30
0.0
 10
179.9146296709685
 20
14.47848242880292
 30
0.0
 10
179.9142987846631
 20
14.63384593955043
 30
0.0
 10
179.9143078119264
 20
14.7396633644412
 30
0.0
 10
179.9143055876316
 20
14.8020578412421
 30
0.0
 10
179.9143065551887
 20
14.89220425248322
 30
0.0
 10
179.9143065473262
 20
14.99621167157435
 30
0.0
 10
179.9143053861101
 20
15.10022131375293
 30
0.0
 10
179.9143090971502
 20
15.19036243688767
 30
0.0
 10
179.9143011051051
 20
15.25276803097214
 30
0.0
 10
179.9143334275019
 20
15.35868835961119
 30
0.0
 10
179.9131440788319
 20
15.51626716544738
 30
0.0
 10
179.9082216489257
 20
15.66528219822064
 30
0.0
 10
179.9057788376619
 20
15.73923260398189
 30
0.0
 11
179.9057788376619
 21
15.73923260398189
 31
0.0
 11
179.8966918223741
 21
15.95938578101016
 31
0.0
 11
179.8868249573134
 21
16.17960510387179
 31
0.0
 11
180.04115751414
 21
16.17312391463727
 31
0.0
 11
180.1946500189047
 21
16.1675489233192
 31
0.0
 11
180.3481160653367
 21
16.16367167505631
 31
0.0
 11
180.502554455494
 21
16.1623807288761
 31
0.0
 11
180.6564835227473
 21
16.16367167505631
 31
0.0
 11
180.80873910046
 21
16.1675489233192
 31
0.0
 11
180.9609113551074
 21
16.17312391463727
 31
0.0
 11
181.1148364762484
 21
16.17960510387179
 31
0.0
 11
181.1070811703125
 21
16.12794961777356
 31
0.0
 11
181.1044991623592
 21
16.076426423342
 31
0.0
 11
181.1070811703125
 21
16.0247566056466
 31
0.0
 11
181.1148364762484
 21
15.9731595483678
 31
0.0
 11
181.0094874054411
 21
15.98001446156058
 31
0.0
 11
180.913637570006
 21
15.9869355205866
 31
0.0
 11
180.8198593171903
 21
15.993783819196
 31
0.0
 11
180.7209679915882
 21
16.0006321178054
 31
0.0
 11
180.6147532199924
 21
16.00710999974822
 31
0.0
 11
180.4991060528038
 21
16.0126882983579
 31
0.0
 11
180.3666126447258
 21
16.01656554662087
 31
0.0
 11
180.2101546018423
 21
16.0178564928011
 31
0.0
 11
180.2062663293721
 21
15.91037061609186
 31
0.0
 11
180.20153800484
 21
15.8080507289646
 31
0.0
 11
180.197660756675
 21
15.70138175329686
 31
0.0
 11
180.1963698105273
 21
15.5810205901325
 31
0.0
 11
180.1967799146837
 21
15.44856355891566
 31
0.0
 11
180.1980896021502
 21
15.31953288186449
 31
0.0
 11
180.199407457705
 21
15.20777398432307
 31
0.0
 11
180.1998191153661
 21
15.1269514930238
 31
0.0
 11
180.3434452935875
 21
15.12780256941249
 31
0.0
 11
180.4716343930758
 21
15.13039989580079
 31
0.0
 11
180.5868078221796
 21
15.13425509545253
 31
0.0
 11
180.691775631222
 21
15.13901649302079
 31
0.0
 11
180.7876346289422
 21
15.14418027774175
 31
0.0
 11
180.8757413374193
 21
15.1493440624627
 31
0.0
 11
180.9578881438496
 21
15.15491243919737
 31
0.0
 11
181.0357692335571
 21
15.1613208680152
 31
0.0
 11
181.0280180445186
 21
15.10884407115336
 31
0.0
 11
181.0254328449318
 21
15.05469378470859
 31
0.0
 11
181.0280180445186
 21
15.00310444444365
 31
0.0
 11
181.0357692335571
 21
14.9515151041788
 31
0.0
 11
180.9389813454014
 21
14.96092324653756
 31
0.0
 11
180.8275950722015
 21
14.9686512847301
 31
0.0
 11
180.7089261429373
 21
14.97425273438148
 31
0.0
 11
180.5903167449213
 21
14.9772678819501
 31
0.0
 11
180.4750025117522
 21
14.97898767361639
 31
0.0
 11
180.36672619507
 21
14.98070746528259
 31
0.0
 11
180.2724839317708
 21
14.98202486979617
 31
0.0
 11
180.1998191153661
 21
14.9824360763933
 31
0.0
 11
180.199407457705
 21
14.95019108508193
 31
0.0
 11
180.1980896021502
 21
14.91542593752119
 31
0.0
 11
180.1967799146836
 21
14.87450702260086
 31
0.0
 11
180.1963698105273
 21
14.8242152430995
 31
0.0
 11
180.1963698105273
 21
14.8032621723582
 31
0.0
 11
180.1963698105273
 21
14.75716541672734
 31
0.0
 11
180.1963698105273
 21
14.71106866109649
 31
0.0
 11
180.1963698105273
 21
14.69011559035519
 31
0.0
 11
180.1963698105273
 21
14.66864525258279
 31
0.0
 11
180.1963698105273
 21
14.61744675481782
 31
0.0
 11
180.1963698105273
 21
14.55633887038867
 31
0.0
 11
180.1963698105273
 21
14.50514037262371
 31
0.0
 11
180.1963698105273
 21
14.4836700348513
 31
0.0
 11
180.1967799146837
 21
14.30481721371548
 31
0.0
 11
180.1980896021502
 21
14.1602610071544
 31
0.0
 11
180.2002868589709
 21
14.0485021096129
 31
0.0
 11
180.2032586986985
 21
13.9676796183137
 31
0.0
 11
180.3202092517448
 21
13.9676796183137
 31
0.0
 11
180.4440727208746
 21
13.9676796183137
 31
0.0
 11
180.5734925526422
 21
13.96897056449391
 31
0.0
 11
180.7003922282244
 21
13.9728478127568
 31
0.0
 11
180.8224658067974
 21
13.97886708358863
 31
0.0
 11
180.9377587499464
 21
13.98663260442
 31
0.0
 11
181.0421754573518
 21
13.997341614834
 31
0.0
 11
181.1320599255448
 21
14.01237656274689
 31
0.0
 11
181.1264254031191
 21
13.98698427976713
 31
0.0
 11
181.1234433285423
 21
13.959071840538
 31
0.0
 11
181.12213398812
 21
13.93112191867001
 31
0.0
 11
181.1217235369195
 21
13.90575829888469
 31
0.0
 11
181.1243087365064
 21
13.85584355063325
 31
0.0
 11
181.1320599255448
 21
13.81626739612929
 31
0.0
 11
180.9776977178344
 21
13.82145433189186
 31
0.0
 11
180.8242357818765
 21
13.8231553822386
 31
0.0
 11
180.6697789496483
 21
13.8231553822386
 31
0.0
 11
180.5128026496768
 21
13.8231553822386
 31
0.0
 11
180.3554704921536
 21
13.8231553822386
 31
0.0
 11
180.1998191153661
 21
13.8231553822386
 31
0.0
 11
180.0441620874242
 21
13.82145433189186
 31
0.0
 11
179.8868249573134
 21
13.81626739612929
 31
0.0
 11
179.8966918223741
 21
14.03601267385212
 31
0.0
 11
179.9057788376619
 21
14.2549112849085
 31
0.0
 11
179.9121721518401
 21
14.47550763902
 31
0.0
 11
179.9143063455009
 21
14.70036378479709
 31
0.0
 11
179.9143063455009
 21
14.72578824496869
 31
0.0
 11
179.9143063455009
 21
14.79281636723926
 31
0.0
 11
179.9143063455009
 21
14.88758026424249
 31
0.0
 11
179.9143063455009
 21
14.99621204861204
 31
0.0
 11
179.9143063455009
 21
15.1048438329816
 31
0.0
 11
179.9143063455009
 21
15.19960772998483
 31
0.0
 11
179.9143063455009
 21
15.2666358522554
 31
0.0
 11
179.9143063455009
 21
15.292060312427
 31
0.0
 11
179.9121721518401
 21
15.51735963528732
 31
0.0
 11
179.9057788376619
 21
15.73923260398189
 31
0.0
  0
SPLINE
  5
AD
102
{ACAD_REACTORS
330
CA
102
}
330
48
100
AcDbEntity
  8
_U_30EC_U_30A4_U_30E4_U_30FC_1
  6
Continuous
 62
     2
100
AcDbSpline
210
0.0
220
0.0
230
1.0
 70
    11
 71
     3
 72
    47
 73
    43
 74
    41
 42
0.000000001
 43
0.0000000001
 44
0.00000001
 40
0.0
 40
0.0
 40
0.0
 40
0.0
 40
0.2207912809957301
 40
0.4459404186303237
 40
0.4902387190459749
 40
0.5327473892722467
 40
0.5742260451226029
 40
0.6155432630561881
 40
0.6568164066316222
 40
0.6982511618781666
 40
0.7407663929317658
 40
0.7851366743175453
 40
1.010288833836353
 40
1.231080507002214
 40
1.451765243652434
 40
1.676638205891677
 40
1.720461045359648
 40
1.830018144043512
 40
1.972442372353144
 40
2.114866600677512
 40
2.224423699395137
 40
2.268246538883378
 40
2.493628801207256
 40
2.715602830286649
 40
2.934211330706404
 40
3.149502369855365
 40
3.231387784850925
 40
3.31823187385396
 40
3.405143198198033
 40
3.486970301720469
 40
3.702258172493881
 40
3.920866283534111
 40
4.142839325931899
 40
4.368221903865407
 40
4.412044743359886
 40
4.5216018420959
 40
4.664026070452381
 40
4.80645029880909
 40
4.916007397546784
 40
4.959830237043106
 40
5.184703515847096
 40
5.405387250767467
 40
5.405387250767467
 40
5.405387250767467
 40
5.405387250767467
 10
182.6507427258645
 20
15.7340644095387
 30
0.0
 10
182.6568139420002
 20
15.79758482501209
 30
0.0
 10
182.6690762107243
 20
15.92587938689627
 30
0.0
 10
182.5604706879411
 20
16.20166220174075
 30
0.0
 10
182.6761985896604
 20
16.17188133432054
 30
0.0
 10
182.7171842509016
 20
16.16765556262813
 30
0.0
 10
182.7591205797518
 20
16.16310446389608
 30
0.0
 10
182.800419662571
 20
16.16201982929488
 30
0.0
 10
182.8417032115556
 20
16.16310338195229
 30
0.0
 10
182.8836148270648
 20
16.16766112711336
 30
0.0
 10
182.9245983549019
 20
16.17187430209729
 30
0.0
 10
183.0404922843488
 20
16.20177611317533
 30
0.0
 10
182.9295652727457
 20
15.92339806609888
 30
0.0
 10
182.9574856365266
 20
15.74283140824951
 30
0.0
 10
182.940426734697
 20
15.50961042346471
 30
0.0
 10
182.9414637282103
 20
15.34906622543148
 30
0.0
 10
182.9414099399404
 20
15.22284817558724
 30
0.0
 10
182.9414277372481
 20
15.12428963336244
 30
0.0
 10
182.941418858108
 20
14.99280702442966
 30
0.0
 10
182.9414263928033
 20
14.86132844968652
 30
0.0
 10
182.9414129405129
 20
14.76276222694094
 30
0.0
 10
182.9414531717492
 20
14.63639735624153
 30
0.0
 10
182.9406746403818
 20
14.4748206882287
 30
0.0
 10
182.9565958319266
 20
14.24361821892912
 30
0.0
 10
182.9333468885408
 20
14.05874351972003
 30
0.0
 10
183.0360183444366
 20
13.78935602770058
 30
0.0
 10
182.8820238362837
 20
13.82660112685819
 30
0.0
 10
182.8004129802833
 20
13.8213799468053
 30
0.0
 10
182.7188192292583
 20
13.82660620378353
 30
0.0
 10
182.5648513666842
 20
13.78937069885388
 30
0.0
 10
182.6674183421917
 20
14.0587512986288
 30
0.0
 10
182.6442045316088
 20
14.24361585325414
 30
0.0
 10
182.6600444655139
 20
14.47482218565638
 30
0.0
 10
182.6593296313428
 20
14.63639712308504
 30
0.0
 10
182.6593664569907
 20
14.76276231210524
 30
0.0
 10
182.6593549000271
 20
14.86132756635984
 30
0.0
 10
182.6593575019215
 20
14.99281127417223
 30
0.0
 10
182.659364853178
 20
15.12427548031202
 30
0.0
 10
182.6593442541352
 20
15.22287786275329
 30
0.0
 10
182.6594082192029
 20
15.34896149354428
 30
0.0
 10
182.6581733947591
 20
15.51210091383772
 30
0.0
 10
182.6532040396745
 20
15.66054183777548
 30
0.0
 10
182.6507427258645
 20
15.7340644095387
 30
0.0
 11
182.6507427258645
 21
15.7340644095387
 31
0.0
 11
182.6417328200379
 21
15.95467178795576
 31
0.0
 11
182.6318769706146
 21
16.17960510387179
 31
0.0
 11
182.6756985840801
 21
16.17312391463727
 31
0.0
 11
182.7178400934215
 21
16.1675489233192
 31
0.0
 11
182.7591371409791
 21
16.16367167505631
 31
0.0
 11
182.8004341885366
 21
16.1623807288761
 31
0.0
 11
182.8416871388731
 21
16.16367167505631
 31
0.0
 11
182.8829400892098
 21
16.1675489233192
 31
0.0
 11
182.9250882131343
 21
16.17312391463727
 31
0.0
 11
182.9689825870145
 21
16.17960510387179
 31
0.0
 11
182.9590577693891
 21
15.95467178795576
 31
0.0
 11
182.950038420831
 21
15.7340644095387
 31
0.0
 11
182.9435638463435
 21
15.51347467001053
 31
0.0
 11
182.9414218238286
 21
15.2886119096501
 31
0.0
 11
182.9414218238286
 21
15.24478907015489
 31
0.0
 11
182.9414218238286
 21
15.13523197141685
 31
0.0
 11
182.9414218238286
 21
14.9928077430574
 31
0.0
 11
182.9414218238286
 21
14.85038351469795
 31
0.0
 11
182.9414218238286
 21
14.74082641595992
 31
0.0
 11
182.9414218238286
 21
14.6970035764647
 31
0.0
 11
182.9435638463435
 21
14.47163149318765
 31
0.0
 11
182.950038420831
 21
14.24975190990979
 31
0.0
 11
182.9590577693892
 21
14.03132954885328
 31
0.0
 11
182.9689825870145
 21
13.81626739612929
 31
0.0
 11
182.8872616168771
 21
13.82145433189186
 31
0.0
 11
182.8004341885366
 21
13.8231553822386
 31
0.0
 11
182.7135395119339
 21
13.82145433189186
 31
0.0
 11
182.6318769706146
 21
13.81626739612929
 31
0.0
 11
182.6417328200379
 21
14.03132954885328
 31
0.0
 11
182.6507427258645
 21
14.24975190990979
 31
0.0
 11
182.6571833838798
 21
14.47163149318765
 31
0.0
 11
182.6593583588024
 21
14.6970035764647
 31
0.0
 11
182.6593583588024
 21
14.74082641595991
 31
0.0
 11
182.6593583588024
 21
14.85038351469795
 31
0.0
 11
182.6593583588024
 21
14.9928077430574
 31
0.0
 11
182.6593583588024
 21
15.13523197141685
 31
0.0
 11
182.6593583588024
 21
15.24478907015489
 31
0.0
 11
182.6593583588024
 21
15.2886119096501
 31
0.0
 11
182.6571833838799
 21
15.51347467001053
 31
0.0
 11
182.6507427258645
 21
15.7340644095387
 31
0.0
  0
SPLINE
  5
AE
102
{ACAD_REACTORS
330
CB
102
}
330
48
100
AcDbEntity
  8
_U_30EC_U_30A4_U_30E4_U_30FC_1
  6
Continuous
 62
     2
100
AcDbSpline
210
0.0
220
0.0
230
1.0
 70
    11
 71
     3
 72
   118
 73
   114
 74
   112
 42
0.000000001
 43
0.0000000001
 44
0.00000001
 40
0.0
 40
0.0
 40
0.0
 40
0.0
 40
0.1054708162973368
 40
0.2466098270052035
 40
0.3965912874591567
 40
0.528552506975453
 40
0.6156245055642771
 40
0.6431434105798068
 40
0.7036850037986898
 40
0.7642265984505435
 40
0.7917455052355907
 40
0.9287404319990448
 40
1.106572819088073
 40
1.287544879681106
 40
1.317578308030623
 40
1.399928030857259
 40
1.522968204800036
 40
1.675072986590657
 40
1.844616533180736
 40
2.019973001638798
 40
2.189516548880111
 40
2.341621331585449
 40
2.464661506320584
 40
2.547011229647149
 40
2.577044658168113
 40
2.603797890893184
 40
2.662655002908871
 40
2.721512114949683
 40
2.748265347702862
 40
2.774215307344937
 40
2.845959313407267
 40
2.954338556588465
 40
3.090194227585638
 40
3.2443675171006
 40
3.407699615844355
 40
3.571031714539498
 40
3.725205003920172
 40
3.86106067472967
 40
3.96943991771636
 40
4.041183923629029
 40
4.067133883213023
 40
4.311886746012179
 40
4.547897258335514
 40
4.764747083043954
 40
4.952749679951744
 40
5.045772974195919
 40
5.13786201964495
 40
5.330543169792978
 40
5.553448265243967
 40
5.795083855888144
 40
6.043293412177195
 40
6.285761695541093
 40
6.313902908752577
 40
6.384255941793167
 40
6.475714884766727
 40
6.567173827758761
 40
6.637526860839539
 40
6.665668074073873
 40
6.692018920327851
 40
6.749990782070932
 40
6.807962643790311
 40
6.834313490017789
 40
6.856393084245068
 40
6.913335195649691
 40
6.991194817302326
 40
7.076026942283588
 40
7.15388656372505
 40
7.210828674844604
 40
7.232908268930939
 40
7.258199334923463
 40
7.324875781592119
 40
7.419142481924784
 40
7.527204308841736
 40
7.635266135230325
 40
7.729532834168322
 40
7.796209279292648
 40
7.821500344594598
 40
7.844652988850669
 40
7.899863140541449
 40
7.965759128053616
 40
8.0209692797709
 40
8.044121924046367
 40
8.069356610160439
 40
8.109134395441227
 40
8.132238100190943
 40
8.193147867786308
 40
8.279261678876487
 40
8.377977512673706
 40
8.476693347146497
 40
8.562807160411554
 40
8.623716930826342
 40
8.646820636853297
 40
8.67198879377411
 40
8.73490918582805
 40
8.816705695188764
 40
8.898502204815363
 40
8.961422597377853
 40
8.986590754550965
 40
9.012941600733125
 40
9.07091346238022
 40
9.128885324081724
 40
9.15523617032505
 40
9.180404327929093
 40
9.243324721948195
 40
9.325121234211988
 40
9.40691774663767
 40
9.469838141978155
 40
9.495006288270929
 40
9.517811184379065
 40
9.57219209048705
 40
9.63709833328126
 40
9.691479239515449
 40
9.71428412564348
 40
9.71428412564348
 40
9.71428412564348
 40
9.71428412564348
 10
185.2874469028653
 20
15.2688916318772
 30
0.0
 10
185.3090990569037
 20
15.24111869242812
 30
0.0
 10
185.3597257109474
 20
15.17618054561236
 30
0.0
 10
185.4349383202591
 20
15.06891060312899
 30
0.0
 10
185.5248482274347
 20
14.95377438266626
 30
0.0
 10
185.5709169676674
 20
14.85357045748321
 30
0.0
 10
185.6655825294656
 20
14.78434006814942
 30
0.0
 10
185.6204439320413
 20
14.73771639678273
 30
0.0
 10
185.594704778579
 20
14.6966030886604
 30
0.0
 10
185.5645196708013
 20
14.6606597172794
 30
0.0
 10
185.5193684730561
 20
14.58579782596097
 30
0.0
 10
185.4710504458563
 20
14.80782524253603
 30
0.0
 10
185.3968539713073
 20
14.84510677337709
 30
0.0
 10
185.2836047324607
 20
15.11610202130599
 30
0.0
 10
185.2885133578169
 20
15.00095328446226
 30
0.0
 10
185.2868486556306
 20
14.92836675781624
 30
0.0
 10
185.2876830076713
 20
14.80625588483983
 30
0.0
 10
185.2873609540264
 20
14.65913800810457
 30
0.0
 10
185.2875076912456
 20
14.49307063956554
 30
0.0
 10
185.2872950092722
 20
14.32187554608599
 30
0.0
 10
185.2879497252034
 20
14.15552828635495
 30
0.0
 10
185.2859192461139
 20
14.0093517305569
 30
0.0
 10
185.291346039993
 20
13.88471047474608
 30
0.0
 10
185.2804930868708
 20
13.81718656540623
 30
0.0
 10
185.2956739155555
 20
13.7554906141702
 30
0.0
 10
185.2457895108134
 20
13.76727503896998
 30
0.0
 10
185.2017150342521
 20
13.75943822779966
 30
0.0
 10
185.1582371630201
 20
13.767604413727
 30
0.0
 10
185.1092346786488
 20
13.75538056738465
 30
0.0
 10
185.1218731234824
 20
13.80960667249309
 30
0.0
 10
185.113018296845
 20
13.86936918907555
 30
0.0
 10
185.1175058770314
 20
13.97922029044367
 30
0.0
 10
185.115796013599
 20
14.11029975405675
 30
0.0
 10
185.1163550915987
 20
14.26198011444324
 30
0.0
 10
185.1161928768693
 20
14.42211074929948
 30
0.0
 10
185.1162269924674
 20
14.58236865674561
 30
0.0
 10
185.1162514960127
 20
14.73370247520434
 30
0.0
 10
185.1161453543224
 20
14.86582156338595
 30
0.0
 10
185.1164299141931
 20
14.97294802533187
 30
0.0
 10
185.1158675547568
 20
15.03808619579468
 30
0.0
 10
185.1180765083689
 20
15.16618957858667
 30
0.0
 10
185.0319435998602
 20
14.79097610391574
 30
0.0
 10
184.95551408185
 20
14.63918193123392
 30
0.0
 10
184.8660040767834
 20
14.47766206446304
 30
0.0
 10
184.7640413217326
 20
14.2047184882017
 30
0.0
 10
184.7187976491039
 20
14.36717346596507
 30
0.0
 10
184.6102355941671
 20
14.4560543205812
 30
0.0
 10
184.7995791751753
 20
14.60549794961409
 30
0.0
 10
184.85653405457
 20
14.79749136974927
 30
0.0
 10
184.9717520993353
 20
15.02899622906755
 30
0.0
 10
184.9940151630133
 20
15.2179725975906
 30
0.0
 10
185.177190515214
 20
15.49454089325926
 30
0.0
 10
185.0538033597552
 20
15.48698978832089
 30
0.0
 10
184.9925684166834
 20
15.48856772366113
 30
0.0
 10
184.9081999617064
 20
15.48882592573668
 30
0.0
 10
184.8204235085967
 20
15.48544845751201
 30
0.0
 10
184.7656768696123
 20
15.49394814982015
 30
0.0
 10
184.7104703026025
 20
15.48048561049784
 30
0.0
 10
184.7222823035536
 20
15.52931442126759
 30
0.0
 10
184.7142496151795
 20
15.57269004896705
 30
0.0
 10
184.722818610468
 20
15.61509438309571
 30
0.0
 10
184.7102943409157
 20
15.66267796552116
 30
0.0
 10
184.7555101538736
 20
15.65267212995107
 30
0.0
 10
184.8014815562724
 20
15.65894105174059
 30
0.0
 10
184.8777222047711
 20
15.6559356140587
 30
0.0
 10
184.9561296131994
 20
15.65770448278539
 30
0.0
 10
185.0323992648933
 20
15.65464793981658
 30
0.0
 10
185.0783009459475
 20
15.66103971376175
 30
0.0
 10
185.12317339654
 20
15.65093822978895
 30
0.0
 10
185.1105552275634
 20
15.70157201581897
 30
0.0
 10
185.1191936582707
 20
15.75501261882069
 30
0.0
 10
185.1152361595442
 20
15.8486325513168
 30
0.0
 10
185.1162325068335
 20
15.95112606688925
 30
0.0
 10
185.1171927413073
 20
16.05353270248165
 30
0.0
 10
185.1133211458006
 20
16.14735929609324
 30
0.0
 10
185.1217789814364
 20
16.20036542840356
 30
0.0
 10
185.1093075932835
 20
16.25211435651192
 30
0.0
 10
185.154210638985
 20
16.2385074722676
 30
0.0
 10
185.1955083836772
 20
16.24100480320587
 30
0.0
 10
185.2595344281051
 20
16.23648060574488
 30
0.0
 10
185.2986111148786
 20
16.22781003043307
 30
0.0
 10
185.3476543498742
 20
16.23515102070685
 30
0.0
 10
185.322508003059
 20
16.19602896051754
 30
0.0
 10
185.2815901333723
 20
16.2056384245581
 30
0.0
 10
185.2910109616604
 20
16.15540148169779
 30
0.0
 10
185.2855647318746
 20
16.1038594563949
 30
0.0
 10
185.2881699601803
 20
16.0195970758452
 30
0.0
 10
185.2870102202154
 20
15.92559135583408
 30
0.0
 10
185.2883591064231
 20
15.83196865395524
 30
0.0
 10
185.284997010151
 20
15.74679517552222
 30
0.0
 10
185.2920959917768
 20
15.69716856072042
 30
0.0
 10
185.2812569154546
 20
15.64993694969987
 30
0.0
 10
185.3304010225245
 20
15.6620167493685
 30
0.0
 10
185.3794877630147
 20
15.65447393363009
 30
0.0
 10
185.4573714280642
 20
15.65686070361431
 30
0.0
 10
185.5350365172896
 20
15.65899381905413
 30
0.0
 10
185.5845393931356
 20
15.65193391922452
 30
0.0
 10
185.6344594750639
 20
15.66360151936212
 30
0.0
 10
185.6223198516882
 20
15.6154023537139
 30
0.0
 10
185.6305838229144
 20
15.57249219801232
 30
0.0
 10
185.6223198650785
 20
15.5295820185138
 30
0.0
 10
185.6344594549855
 20
15.48138288754859
 30
0.0
 10
185.5845395158747
 20
15.49305034471506
 30
0.0
 10
185.5350350651203
 20
15.48599202435041
 30
0.0
 10
185.4573784382973
 20
15.48811665228598
 30
0.0
 10
185.3794643865761
 20
15.49053389365756
 30
0.0
 10
185.3304500352716
 20
15.4829184819448
 30
0.0
 10
185.2813246108943
 20
15.49507952557587
 30
0.0
 10
185.2915559988571
 20
15.45073013424154
 30
0.0
 10
185.2856677678053
 20
15.40925436202909
 30
0.0
 10
185.2878788305569
 20
15.34915394315301
 30
0.0
 10
185.2874109346146
 20
15.30225782762889
 30
0.0
 10
185.2874386992913
 20
15.27650146418196
 30
0.0
 10
185.2874469028653
 20
15.2688916318772
 30
0.0
 11
185.2874469028653
 21
15.2688916318772
 31
0.0
 11
185.3516977534484
 21
15.18524999634258
 31
0.0
 11
185.4348258835499
 21
15.07118889748222
 31
0.0
 11
185.5216831568896
 21
14.94891767195724
 31
0.0
 11
185.5971214371873
 21
14.84064565642876
 31
0.0
 11
185.6459925881627
 21
14.7685821875579
 31
0.0
 11
185.6296821285094
 21
14.74641782124399
 31
0.0
 11
185.593799117272
 21
14.6976562153534
 31
0.0
 11
185.5579161060346
 21
14.64889460946281
 31
0.0
 11
185.5416056463813
 21
14.6267302431489
 31
0.0
 11
185.4763067109446
 21
14.74716139023812
 31
0.0
 11
185.3848434243235
 21
14.89966983670204
 31
0.0
 11
185.2874469028653
 21
15.05219788193139
 31
0.0
 11
185.2874469028653
 21
15.0221644532825
 31
0.0
 11
185.2874469028653
 21
14.9398147295678
 31
0.0
 11
185.2874469028653
 21
14.81677455413525
 31
0.0
 11
185.2874469028653
 21
14.6646697703328
 31
0.0
 11
185.2874469028653
 21
14.49512622150842
 31
0.0
 11
185.2874469028653
 21
14.31976975101006
 31
0.0
 11
185.2874469028653
 21
14.15022620218568
 31
0.0
 11
185.2874469028653
 21
13.99812141838323
 31
0.0
 11
185.2874469028653
 21
13.87508124295068
 31
0.0
 11
185.2874469028653
 21
13.79273151923598
 31
0.0
 11
185.2874469028653
 21
13.76269809058709
 31
0.0
 11
185.2606936700409
 21
13.76269809058709
 31
0.0
 11
185.2018365578272
 21
13.76269809058709
 31
0.0
 11
185.1429794456134
 21
13.76269809058709
 31
0.0
 11
185.116226212789
 21
13.76269809058709
 31
0.0
 11
185.116226212789
 21
13.78864805031247
 31
0.0
 11
185.116226212789
 21
13.86039205661205
 31
0.0
 11
185.116226212789
 21
13.96877130017098
 31
0.0
 11
185.116226212789
 21
14.10462697167443
 31
0.0
 11
185.116226212789
 21
14.25880026180757
 31
0.0
 11
185.116226212789
 21
14.42213236125554
 31
0.0
 11
185.116226212789
 21
14.58546446070351
 31
0.0
 11
185.116226212789
 21
14.73963775083665
 31
0.0
 11
185.116226212789
 21
14.8754934223401
 31
0.0
 11
185.116226212789
 21
14.98387266589903
 31
0.0
 11
185.116226212789
 21
15.05561667219861
 31
0.0
 11
185.116226212789
 21
15.08156663192399
 31
0.0
 11
185.0379865861721
 21
14.84965603302369
 31
0.0
 11
184.9497110789304
 21
14.63077616328676
 31
0.0
 11
184.8544106930046
 21
14.43598991333545
 31
0.0
 11
184.7550964303357
 21
14.276360173792
 31
0.0
 11
184.7109198342406
 21
14.35822446196599
 31
0.0
 11
184.6588057383481
 21
14.43414885430809
 31
0.0
 11
184.7627302590299
 21
14.59640087926756
 31
0.0
 11
184.8629319864735
 21
14.79551465421781
 31
0.0
 11
184.9550446607902
 21
15.01890447916196
 31
0.0
 11
185.0347020220912
 21
15.25398465410318
 31
0.0
 11
185.097537810488
 21
15.4881694790446
 31
0.0
 11
185.0693965972142
 21
15.4881694790446
 31
0.0
 11
184.9990435640297
 21
15.4881694790446
 31
0.0
 11
184.9075846208898
 21
15.4881694790446
 31
0.0
 11
184.81612567775
 21
15.4881694790446
 31
0.0
 11
184.7457726445655
 21
15.4881694790446
 31
0.0
 11
184.7176314312917
 21
15.4881694790446
 31
0.0
 11
184.7176314312917
 21
15.51452032539218
 31
0.0
 11
184.7176314312917
 21
15.57249218735685
 31
0.0
 11
184.7176314312917
 21
15.63046404932152
 31
0.0
 11
184.7176314312917
 21
15.6568148956691
 31
0.0
 11
184.739711025602
 21
15.6568148956691
 31
0.0
 11
184.7966531372445
 21
15.6568148956691
 31
0.0
 11
184.8745127592863
 21
15.6568148956691
 31
0.0
 11
184.9593448847945
 21
15.6568148956691
 31
0.0
 11
185.0372045068362
 21
15.6568148956691
 31
0.0
 11
185.0941466184786
 21
15.6568148956691
 31
0.0
 11
185.116226212789
 21
15.6568148956691
 31
0.0
 11
185.116226212789
 21
15.68210596174351
 31
0.0
 11
185.116226212789
 21
15.74878240866696
 31
0.0
 11
185.116226212789
 21
15.84304910948977
 31
0.0
 11
185.116226212789
 21
15.95111093726225
 31
0.0
 11
185.116226212789
 21
16.05917276503473
 31
0.0
 11
185.116226212789
 21
16.15343946585754
 31
0.0
 11
185.116226212789
 21
16.22011591278099
 31
0.0
 11
185.116226212789
 21
16.2454069788554
 31
0.0
 11
185.1393181988665
 21
16.24373213107803
 31
0.0
 11
185.1943837041284
 21
16.23973826330123
 31
0.0
 11
185.2601070491184
 21
16.23497138885796
 31
0.0
 11
185.3151725543802
 21
16.23097752108116
 31
0.0
 11
185.3382645404578
 21
16.22930267330379
 31
0.0
 11
185.3249012644362
 21
16.20789677921189
 31
0.0
 11
185.2874469028653
 21
16.1945011455347
 31
0.0
 11
185.2874469028653
 21
16.17139743948579
 31
0.0
 11
185.2874469028653
 21
16.1104876689932
 31
0.0
 11
185.2874469028653
 21
16.02437385553816
 31
0.0
 11
185.2874469028653
 21
15.9256580206019
 31
0.0
 11
185.2874469028653
 21
15.82694218566564
 31
0.0
 11
185.2874469028653
 21
15.7408283722106
 31
0.0
 11
185.2874469028653
 21
15.67991860171801
 31
0.0
 11
185.2874469028653
 21
15.6568148956691
 31
0.0
 11
185.3126150604809
 21
15.6568148956691
 31
0.0
 11
185.3755354545199
 21
15.6568148956691
 31
0.0
 11
185.4573319667706
 21
15.6568148956691
 31
0.0
 11
185.5391284790213
 21
15.6568148956691
 31
0.0
 11
185.6020488730603
 21
15.6568148956691
 31
0.0
 11
185.6272170306759
 21
15.6568148956691
 31
0.0
 11
185.6272170306759
 21
15.63046404932152
 31
0.0
 11
185.6272170306759
 21
15.57249218735685
 31
0.0
 11
185.6272170306759
 21
15.51452032539218
 31
0.0
 11
185.6272170306759
 21
15.4881694790446
 31
0.0
 11
185.6020488730603
 21
15.4881694790446
 31
0.0
 11
185.5391284790213
 21
15.4881694790446
 31
0.0
 11
185.4573319667706
 21
15.4881694790446
 31
0.0
 11
185.3755354545199
 21
15.4881694790446
 31
0.0
 11
185.3126150604809
 21
15.4881694790446
 31
0.0
 11
185.2874469028653
 21
15.4881694790446
 31
0.0
 11
185.2874469028653
 21
15.46536458293919
 31
0.0
 11
185.2874469028653
 21
15.41098367684168
 31
0.0
 11
185.2874469028653
 21
15.34607743408013
 31
0.0
 11
185.2874469028653
 21
15.29169652798261
 31
0.0
 11
185.2874469028653
 21
15.2688916318772
 31
0.0
  0
SPLINE
  5
AF
102
{ACAD_REACTORS
330
CC
102
}
330
48
100
AcDbEntity
  8
_U_30EC_U_30A4_U_30E4_U_30FC_1
  6
Continuous
 62
     2
100
AcDbSpline
210
0.0
220
0.0
230
1.0
 70
    11
 71
     3
 72
    91
 73
    87
 74
    85
 42
0.000000001
 43
0.0000000001
 44
0.00000001
 40
0.0
 40
0.0
 40
0.0
 40
0.0
 40
0.0345987051695434
 40
0.1258134969461085
 40
0.2547723404888703
 40
0.4026032099153841
 40
0.5504340793416704
 40
0.679392922883608
 40
0.770607714657132
 40
0.8052064287780925
 40
1.124852390615277
 40
1.427402236308871
 40
1.706356627453517
 40
1.955541417875203
 40
2.169485938566358
 40
2.34435078666482
 40
2.480568411561975
 40
2.590440557428997
 40
2.6491899271512
 40
2.749320643306406
 40
2.912632739880104
 40
3.147745656000307
 40
3.244827496385231
 40
3.338490056946773
 40
3.583815413207183
 40
3.761423943238534
 40
3.886956104362679
 40
3.985855451886884
 40
4.091766255337768
 40
4.250186473811934
 40
4.422734315084556
 40
4.628285684838633
 40
4.872093227758473
 40
5.152549652145582
 40
5.464967135837562
 40
5.803201477852486
 40
6.160362988813959
 40
6.193449448276014
 40
6.284170385501668
 40
6.419718138764538
 40
6.587285046385788
 40
6.774063446723702
 40
6.967245678113685
 40
7.154024078817671
 40
7.321590987026057
 40
7.457138740890415
 40
7.547859678556152
 40
7.580946138182711
 40
7.608533084714764
 40
7.669224367077738
 40
7.729915649429956
 40
7.757502595950007
 40
7.790278062553461
 40
7.880146277430959
 40
8.014419963180423
 40
8.180411842397952
 40
8.36543463767942
 40
8.55680107162275
 40
8.741823866830835
 40
8.907815745916373
 40
9.042089431507556
 40
9.131957646249681
 40
9.164733112797258
 40
9.415425063140175
 40
9.66798618095862
 40
9.694169807462787
 40
9.756607686047746
 40
9.831130315322552
 40
9.893568193900016
 40
9.919751820398833
 40
9.950967964690683
 40
9.996421631210808
 40
10.22087981037464
 40
10.44341866197551
 40
10.47847970788864
 40
10.57091337438762
 40
10.70159545461242
 40
10.85140174170367
 40
11.00120802880487
 40
11.13189010907389
 40
11.22432377583014
 40
11.25938480938963
 40
11.28697175596152
 40
11.34766303835926
 40
11.40835432042076
 40
11.4359412589211
 40
11.4359412589211
 40
11.4359412589211
 40
11.4359412589211
 10
190.081811433329
 20
15.55242795125079
 30
0.0
 10
190.0702785844942
 20
15.55242790287918
 30
0.0
 10
190.0283409444999
 20
15.55242773704166
 30
0.0
 10
189.9434129719027
 20
15.55243125800911
 30
0.0
 10
189.8207688553129
 20
15.5524092643588
 30
0.0
 10
189.6791206916994
 20
15.55250801177056
 30
0.0
 10
189.537975369849
 20
15.55214686232423
 30
0.0
 10
189.4141351317905
 20
15.55321883609091
 30
0.0
 10
189.3317217825382
 20
15.5509224909127
 30
0.0
 10
189.1727791229693
 20
15.56048569373423
 30
0.0
 10
189.3503402353376
 20
15.19785394311371
 30
0.0
 10
189.3379739205453
 20
14.95243127723116
 30
0.0
 10
189.4064519473865
 20
14.66862501324836
 30
0.0
 10
189.469302432097
 20
14.43250999939035
 30
0.0
 10
189.5452253431728
 20
14.23326740396129
 30
0.0
 10
189.6303189577017
 20
14.07745347451372
 30
0.0
 10
189.7244607592935
 20
13.97657857781389
 30
0.0
 10
189.8282648207727
 20
13.92465852638963
 30
0.0
 10
189.9125872030775
 20
13.97606484379611
 30
0.0
 10
189.9351322179452
 20
14.09144544037515
 30
0.0
 10
189.9745730975371
 20
14.2188514970238
 30
0.0
 10
189.9202919734943
 20
14.53622328086751
 30
0.0
 10
190.0451218072473
 20
14.38982180140909
 30
0.0
 10
190.2019291513603
 20
14.35795300331166
 30
0.0
 10
190.0947720007056
 20
14.12421357767629
 30
0.0
 10
190.0808711209867
 20
13.9597277658366
 30
0.0
 10
190.0234709467225
 20
13.83130869122482
 30
0.0
 10
189.9335020145008
 20
13.76018802352831
 30
0.0
 10
189.8095274657877
 20
13.74432324142256
 30
0.0
 10
189.6634273196861
 20
13.77993797554175
 30
0.0
 10
189.5243894320284
 20
13.9000057050028
 30
0.0
 10
189.4102003962145
 20
14.07435682550324
 30
0.0
 10
189.3146141301486
 20
14.29946603111242
 30
0.0
 10
189.2318652572626
 20
14.56388246006445
 30
0.0
 10
189.1807179256413
 20
14.88187933098546
 30
0.0
 10
189.0770189207338
 20
15.15543728488914
 30
0.0
 10
189.2042841208521
 20
15.56005818612869
 30
0.0
 10
189.0357890623018
 20
15.5511236784968
 30
0.0
 10
188.9511995787077
 20
15.55315961418365
 30
0.0
 10
188.8189876387627
 20
15.55213937388408
 30
0.0
 10
188.6560505094104
 20
15.55253230318431
 30
0.0
 10
188.4733759170532
 20
15.5523569631337
 30
0.0
 10
188.2847057373383
 20
15.5526010530747
 30
0.0
 10
188.1014469020189
 20
15.55185657906238
 30
0.0
 10
187.9404746832718
 20
15.55416360522428
 30
0.0
 10
187.8029808335276
 20
15.54799804883664
 30
0.0
 10
187.728959037231
 20
15.56032838458213
 30
0.0
 10
187.6613215186856
 20
15.54329323723558
 30
0.0
 10
187.6732373719269
 20
15.59524438447529
 30
0.0
 10
187.6655677285693
 20
15.6407142496653
 30
0.0
 10
187.6732592225115
 20
15.68614453703707
 30
0.0
 10
187.6613141797762
 20
15.73802395984571
 30
0.0
 10
187.7283588305866
 20
15.72119143490265
 30
0.0
 10
187.8017375665677
 20
15.73335409092671
 30
0.0
 10
187.9379128305272
 20
15.7272723107496
 30
0.0
 10
188.0973811801512
 20
15.72954834315059
 30
0.0
 10
188.2789173085837
 20
15.72881233998963
 30
0.0
 10
188.465803486218
 20
15.72905954196134
 30
0.0
 10
188.6468012316836
 20
15.72886400799254
 30
0.0
 10
188.8080802578879
 20
15.7293223471484
 30
0.0
 10
188.9393882124887
 20
15.72812673751207
 30
0.0
 10
189.0225051322597
 20
15.73051347319743
 30
0.0
 10
189.1556236547814
 20
15.72230605725466
 30
0.0
 10
189.0645893502659
 20
15.97752868952654
 30
0.0
 10
188.9789633074418
 20
16.24164358328244
 30
0.0
 10
189.0990589003455
 20
16.22904442969163
 30
0.0
 10
189.1514264948544
 20
16.22694235763074
 30
0.0
 10
189.2214497569715
 20
16.22535399889656
 30
0.0
 10
189.2671922337817
 20
16.21602567538114
 30
0.0
 10
189.3220812646933
 20
16.22545966915427
 30
0.0
 10
189.2963574785681
 20
16.17733028655172
 30
0.0
 10
189.1825397571454
 20
16.18266829744155
 30
0.0
 10
189.3159346621135
 20
15.95449174576777
 30
0.0
 10
189.1943658735472
 20
15.72156856595923
 30
0.0
 10
189.3223188769414
 20
15.7308725888444
 30
0.0
 10
189.4049048406462
 20
15.72801001754681
 30
0.0
 10
189.5307214850825
 20
15.72923437412303
 30
0.0
 10
189.6741469838059
 20
15.72932431888965
 30
0.0
 10
189.8157420951729
 20
15.72746163183855
 30
0.0
 10
189.9459127249968
 20
15.73333075937163
 30
0.0
 10
190.0193452286191
 20
15.72070340823205
 30
0.0
 10
190.0891112922097
 20
15.73877563110414
 30
0.0
 10
190.0775772605397
 20
15.68612850546328
 30
0.0
 10
190.0833184346682
 20
15.64221317686548
 30
0.0
 10
190.0816615770912
 20
15.59089982676551
 30
0.0
 10
190.081775756167
 20
15.56158792021636
 30
0.0
 10
190.081811433329
 20
15.55242795125079
 30
0.0
 11
190.081811433329
 21
15.55242795125079
 31
0.0
 11
190.0472127192052
 21
15.55242795125079
 31
0.0
 11
189.9559979274242
 21
15.55242795125079
 31
0.0
 11
189.8270390838718
 21
15.55242795125079
 31
0.0
 11
189.6792082144337
 21
15.55242795125079
 31
0.0
 11
189.5313773449955
 21
15.55242795125079
 31
0.0
 11
189.4024185014431
 21
15.55242795125079
 31
0.0
 11
189.3112037096621
 21
15.55242795125079
 31
0.0
 11
189.2766049955383
 21
15.55242795125079
 31
0.0
 11
189.3083140497694
 21
15.23435864930123
 31
0.0
 11
189.3527866656866
 21
14.93509522788082
 31
0.0
 11
189.409238911832
 21
14.66191269512577
 31
0.0
 11
189.4768868567478
 21
14.42208605917227
 31
0.0
 11
189.5549465689761
 21
14.22289032815653
 31
0.0
 11
189.6426341170591
 21
14.07160051021475
 31
0.0
 11
189.7391655695388
 21
13.97549161348314
 31
0.0
 11
189.8437569949575
 21
13.94183864609789
 31
0.0
 11
189.8943077302786
 21
13.97177376978832
 31
0.0
 11
189.9310588991552
 21
14.06491619815045
 31
0.0
 11
189.9562640977528
 21
14.22627151712052
 31
0.0
 11
189.9721769222368
 21
14.4608453126348
 31
0.0
 11
190.0494082682584
 21
14.40202182306618
 31
0.0
 11
190.1327184184385
 21
14.3592188543269
 31
0.0
 11
190.1066365811217
 21
14.11528388661011
 31
0.0
 11
190.0673317805105
 21
13.94207902887564
 31
0.0
 11
190.0105702596765
 21
13.8301127244592
 31
0.0
 11
189.932118261691
 21
13.76989341669649
 31
0.0
 11
189.8277420296256
 21
13.7519295489232
 31
0.0
 11
189.6738595065097
 21
13.78957440012364
 31
0.0
 11
189.5388902376748
 21
13.89707348877406
 31
0.0
 11
189.4221739916163
 21
14.06627361744811
 31
0.0
 11
189.32305053683
 21
14.28902158871946
 31
0.0
 11
189.2408596418114
 21
14.55716420516174
 31
0.0
 11
189.174941075056
 21
14.86254826934863
 31
0.0
 11
189.1246346050593
 21
15.19702058385376
 31
0.0
 11
189.0892800003171
 21
15.55242795125079
 31
0.0
 11
189.0561935405844
 21
15.55242795125079
 31
0.0
 11
188.9654726026075
 21
15.55242795125079
 31
0.0
 11
188.8299248482185
 21
15.55242795125079
 31
0.0
 11
188.6623579392495
 21
15.55242795125079
 31
0.0
 11
188.4755795375324
 21
15.55242795125079
 31
0.0
 11
188.2823973048992
 21
15.55242795125079
 31
0.0
 11
188.0956189031822
 21
15.55242795125079
 31
0.0
 11
187.9280519942131
 21
15.55242795125079
 31
0.0
 11
187.7925042398241
 21
15.55242795125079
 31
0.0
 11
187.7017833018473
 21
15.55242795125079
 31
0.0
 11
187.6686968421145
 21
15.55242795125079
 31
0.0
 11
187.6686968421145
 21
15.58001489785848
 31
0.0
 11
187.6686968421145
 21
15.64070618039539
 31
0.0
 11
187.6686968421145
 21
15.7013974629323
 31
0.0
 11
187.6686968421145
 21
15.72898440953999
 31
0.0
 11
187.7014723087631
 21
15.72898440953999
 31
0.0
 11
187.7913405237673
 21
15.72898440953999
 31
0.0
 11
187.9256142097148
 21
15.72898440953999
 31
0.0
 11
188.0916060891932
 21
15.72898440953999
 31
0.0
 11
188.2766288847901
 21
15.72898440953999
 31
0.0
 11
188.4679953190933
 21
15.72898440953999
 31
0.0
 11
188.6530181146902
 21
15.72898440953999
 31
0.0
 11
188.8190099941685
 21
15.72898440953999
 31
0.0
 11
188.9532836801161
 21
15.72898440953999
 31
0.0
 11
189.0431518951203
 21
15.72898440953999
 31
0.0
 11
189.0759273617689
 21
15.72898440953999
 31
0.0
 11
189.0659183950103
 21
15.97947647544959
 31
0.0
 11
189.0599112510663
 21
16.23196614552529
 31
0.0
 11
189.0860575870659
 21
16.2305692160812
 31
0.0
 11
189.1484065421419
 21
16.2272380766376
 31
0.0
 11
189.2228230369099
 21
16.22326220052749
 31
0.0
 11
189.2851719919859
 21
16.21993106108389
 31
0.0
 11
189.3113183279855
 21
16.2185341316398
 31
0.0
 11
189.298293111304
 21
16.19016528616079
 31
0.0
 11
189.2551649266405
 21
16.17581274276159
 31
0.0
 11
189.2574991961822
 21
15.95136670115108
 31
0.0
 11
189.2658452735904
 21
15.72898440953999
 31
0.0
 11
189.3009063195167
 21
15.72898440953999
 31
0.0
 11
189.3933399860495
 21
15.72898440953999
 31
0.0
 11
189.5240220663202
 21
15.72898440953999
 31
0.0
 11
189.6738283534597
 21
15.72898440953999
 31
0.0
 11
189.8236346405992
 21
15.72898440953999
 31
0.0
 11
189.9543167208698
 21
15.72898440953999
 31
0.0
 11
190.0467503874027
 21
15.72898440953999
 31
0.0
 11
190.081811433329
 21
15.72898440953999
 31
0.0
 11
190.081811433329
 21
15.7013974629323
 31
0.0
 11
190.081811433329
 21
15.64070618039539
 31
0.0
 11
190.081811433329
 21
15.58001489785848
 31
0.0
 11
190.081811433329
 21
15.55242795125079
 31
0.0
  0
SPLINE
  5
B0
102
{ACAD_REACTORS
330
CD
102
}
330
48
100
AcDbEntity
  8
_U_30EC_U_30A4_U_30E4_U_30FC_1
  6
Continuous
 62
     2
100
AcDbSpline
210
0.0
220
0.0
230
1.0
 70
    11
 71
     3
 72
    75
 73
    71
 74
    69
 42
0.000000001
 43
0.0000000001
 44
0.00000001
 40
0.0
 40
0.0
 40
0.0
 40
0.0
 40
0.0342546099129638
 40
0.1245622414432222
 40
0.2522385480897252
 40
0.3985991922940236
 40
0.5449598364980217
 40
0.6726361431438088
 40
0.762943774673609
 40
0.7971983935297084
 40
1.101723623449556
 40
1.408591244036587
 40
1.433332471690282
 40
1.487763172450055
 40
1.542193873081862
 40
1.5669351005924
 40
1.923523931821721
 40
2.27175570495347
 40
2.590579755100713
 40
2.858943305580938
 40
2.889120339308969
 40
2.918305855190992
 40
2.941366645531119
 40
2.996357760973009
 40
3.061992318140566
 40
3.116983433626742
 40
3.140044223997436
 40
3.411273122936335
 40
3.732441619740941
 40
3.761068217532639
 40
3.837787499630198
 40
3.948858699125829
 40
4.0805410491042
 40
4.219093782625578
 40
4.350776132722121
 40
4.46184733240545
 40
4.53856661467818
 40
4.567193212544424
 40
4.594907573998682
 40
4.666381453557221
 40
4.764111044010832
 40
4.870592538125635
 40
4.968322128642086
 40
5.039796008286771
 40
5.06751036978423
 40
5.094263603185444
 40
5.153120716668079
 40
5.211977830150525
 40
5.238731063551532
 40
5.272290535138771
 40
5.363380529444632
 40
5.497618415781309
 40
5.660621563453551
 40
5.838007341749252
 40
6.015393119910604
 40
6.178396267038229
 40
6.312634151842181
 40
6.40372414305917
 40
6.437283612672266
 40
6.46403684626088
 40
6.522893960004499
 40
6.581751071483763
 40
6.60850430159071
 40
6.637253941280857
 40
6.711397748902709
 40
6.812778057283293
 40
6.923237199249012
 40
7.024617507623685
 40
7.098761315207309
 40
7.127510946007259
 40
7.127510946007259
 40
7.127510946007259
 40
7.127510946007259
 10
188.4418622390565
 20
14.9584912847326
 30
0.0
 10
188.4418622819707
 20
14.94707313408716
 30
0.0
 10
188.441862448113
 20
14.90555257842625
 30
0.0
 10
188.4418593081787
 20
14.82146922003769
 30
0.0
 10
188.4418788279802
 20
14.70004497322327
 30
0.0
 10
188.4417912187737
 20
14.55980494047448
 30
0.0
 10
188.4421116235231
 20
14.42006556794578
 30
0.0
 10
188.4411605909741
 20
14.29745038894933
 30
0.0
 10
188.4431978595968
 20
14.21587074438047
 30
0.0
 10
188.4349433178745
 20
14.06271267077703
 30
0.0
 10
188.7430797940904
 20
14.22560236054717
 30
0.0
 10
189.0350645173735
 20
14.39482938688
 30
0.0
 10
189.0408354448709
 20
14.2597323578191
 30
0.0
 10
189.0455471719891
 20
14.21617221160444
 30
0.0
 10
189.0482535411918
 20
14.17211249350546
 30
0.0
 10
189.0672545672957
 20
14.02272590363135
 30
0.0
 10
188.6583942247303
 20
14.08681172241261
 30
0.0
 10
188.3793710348832
 20
13.97296341411012
 30
0.0
 10
188.1018081587168
 20
13.87364095811142
 30
0.0
 10
187.80998371844
 20
13.91630687596347
 30
0.0
 10
187.7869144678659
 20
13.81321679744539
 30
0.0
 10
187.7537474383333
 20
13.78691091244461
 30
0.0
 10
187.7480653962739
 20
13.83455309036298
 30
0.0
 10
187.7284214559044
 20
13.87180336115066
 30
0.0
 10
187.7095089485623
 20
13.93007387847558
 30
0.0
 10
187.6942849867708
 20
13.97385201007804
 30
0.0
 10
187.6477246372936
 20
14.08759421046304
 30
0.0
 10
187.9890897312451
 20
14.05576301120055
 30
0.0
 10
188.2679649367383
 20
14.02161435106479
 30
0.0
 10
188.2617753034908
 20
14.16913976479652
 30
0.0
 10
188.2630935452773
 20
14.24013150908831
 30
0.0
 10
188.2624831689948
 20
14.3471976795866
 30
0.0
 10
188.2625871570725
 20
14.47398529785997
 30
0.0
 10
188.2629987964055
 20
14.60849243496047
 30
0.0
 10
188.2613907841968
 20
14.73395549951181
 30
0.0
 10
188.2659902567925
 20
14.84505246719114
 30
0.0
 10
188.2564186502211
 20
14.90761886800684
 30
0.0
 10
188.2704001783691
 20
14.96595388294997
 30
0.0
 10
188.2147384386705
 20
14.95289710582233
 30
0.0
 10
188.1575655197821
 20
14.96136307749495
 30
0.0
 10
188.0616048925648
 20
14.95729976080632
 30
0.0
 10
187.963376752282
 20
14.9597088985247
 30
0.0
 10
187.8672582457561
 20
14.95551600613384
 30
0.0
 10
187.810464852581
 20
14.96429346441158
 30
0.0
 10
187.7550356873384
 20
14.95094936850117
 30
0.0
 10
187.7670679427917
 20
15.00036910959253
 30
0.0
 10
187.7592003173938
 20
15.04393988030391
 30
0.0
 10
187.7666295563828
 20
15.08830469118521
 30
0.0
 10
187.7551930564144
 20
15.13902297763987
 30
0.0
 10
187.8232102370133
 20
15.12162460757739
 30
0.0
 10
187.8968496879747
 20
15.13417450237185
 30
0.0
 10
188.0325064058211
 20
15.12799677011093
 30
0.0
 10
188.1884909024525
 20
15.1302920309308
 30
0.0
 10
188.3615926358143
 20
15.12940968262525
 30
0.0
 10
188.5346942964181
 20
15.13029207142404
 30
0.0
 10
188.6906789811216
 20
15.12799662955546
 30
0.0
 10
188.8263351889797
 20
15.13417486262427
 30
0.0
 10
188.8999756705652
 20
15.12162394218331
 30
0.0
 10
188.9679914174724
 20
15.13902373012138
 30
0.0
 10
188.9565590885922
 20
15.08830130414551
 30
0.0
 10
188.9639539458298
 20
15.04397060811104
 30
0.0
 10
188.956203991227
 20
15.00028307550192
 30
0.0
 10
188.9681203741877
 20
14.95063590098473
 30
0.0
 10
188.9108170223617
 20
14.96461411338421
 30
0.0
 10
188.8520145789772
 20
14.95539755673251
 30
0.0
 10
188.75252936332
 20
14.95952268164925
 30
0.0
 10
188.6494280098349
 20
14.95822760025883
 30
0.0
 10
188.5537846354574
 20
14.95854077077637
 30
0.0
 10
188.4857467971617
 20
14.95848776697141
 30
0.0
 10
188.4514462213444
 20
14.95849051871652
 30
0.0
 10
188.4418622390565
 20
14.9584912847326
 30
0.0
 11
188.4418622390565
 21
14.9584912847326
 31
0.0
 11
188.4418622390565
 21
14.92423666587181
 31
0.0
 11
188.4418622390565
 21
14.83392903432972
 31
0.0
 11
188.4418622390565
 21
14.70625272766678
 31
0.0
 11
188.4418622390565
 21
14.5598920834434
 31
0.0
 11
188.4418622390565
 21
14.41353143922002
 31
0.0
 11
188.4418622390565
 21
14.28585513255707
 31
0.0
 11
188.4418622390565
 21
14.19554750101499
 31
0.0
 11
188.4418622390565
 21
14.1612928821542
 31
0.0
 11
188.7391932644568
 21
14.22709475713766
 31
0.0
 11
189.0384623627246
 21
14.29496038212069
 31
0.0
 11
189.0405487124978
 21
14.27030727882826
 31
0.0
 11
189.0451386819987
 21
14.2160704515849
 31
0.0
 11
189.0497286514996
 21
14.16183362434154
 31
0.0
 11
189.0518150012728
 21
14.1371805210491
 31
0.0
 11
188.705639688924
 21
14.05163370140897
 31
0.0
 11
188.3669653138838
 21
13.97060877629898
 31
0.0
 11
188.0563731516688
 21
13.89862764024926
 31
0.0
 11
187.7944444777956
 21
13.8402121877899
 31
0.0
 11
187.7817515029292
 21
13.81283442738012
 31
0.0
 11
187.7569794787513
 21
13.79740260446729
 31
0.0
 11
187.7491867589501
 21
13.81910683390631
 31
0.0
 11
187.7306041194242
 21
13.87086307333781
 31
0.0
 11
187.70842483999
 21
13.93263664943348
 31
0.0
 11
187.6898422004641
 21
13.98439288886498
 31
0.0
 11
187.6820494806629
 21
14.006097118304
 31
0.0
 11
187.9482776335932
 21
14.05794001759667
 31
0.0
 11
188.2626334936289
 21
14.1237396877191
 31
0.0
 11
188.2626334936289
 21
14.15236628569624
 31
0.0
 11
188.2626334936289
 21
14.22908556827499
 31
0.0
 11
188.2626334936289
 21
14.3401567684263
 31
0.0
 11
188.2626334936289
 21
14.47183911912116
 31
0.0
 11
188.2626334936289
 21
14.61039185333054
 31
0.0
 11
188.2626334936289
 21
14.7420742040254
 31
0.0
 11
188.2626334936289
 21
14.85314540417671
 31
0.0
 11
188.2626334936289
 21
14.92986468675546
 31
0.0
 11
188.2626334936289
 21
14.9584912847326
 31
0.0
 11
188.2349191321108
 21
14.9584912847326
 31
0.0
 11
188.1634452524063
 21
14.9584912847326
 31
0.0
 11
188.06571566179
 21
14.9584912847326
 31
0.0
 11
187.9592341675364
 21
14.9584912847326
 31
0.0
 11
187.8615045769201
 21
14.9584912847326
 31
0.0
 11
187.7900306972156
 21
14.9584912847326
 31
0.0
 11
187.7623163356975
 21
14.9584912847326
 31
0.0
 11
187.7623163356975
 21
14.98524451823285
 31
0.0
 11
187.7623163356975
 21
15.0441016319334
 31
0.0
 11
187.7623163356975
 21
15.10295874563395
 31
0.0
 11
187.7623163356975
 21
15.1297119791342
 31
0.0
 11
187.7958758072874
 21
15.1297119791342
 31
0.0
 11
187.8869658016031
 21
15.1297119791342
 31
0.0
 11
188.0212036879629
 21
15.1297119791342
 31
0.0
 11
188.1842068356856
 21
15.1297119791342
 31
0.0
 11
188.3615926140897
 21
15.1297119791342
 31
0.0
 11
188.5389783924938
 21
15.1297119791342
 31
0.0
 11
188.7019815402164
 21
15.1297119791342
 31
0.0
 11
188.8362194265763
 21
15.1297119791342
 31
0.0
 11
188.9273094208918
 21
15.1297119791342
 31
0.0
 11
188.9608688924818
 21
15.1297119791342
 31
0.0
 11
188.9608688924818
 21
15.10295874563395
 31
0.0
 11
188.9608688924818
 21
15.0441016319334
 31
0.0
 11
188.9608688924818
 21
14.98524451823285
 31
0.0
 11
188.9608688924818
 21
14.9584912847326
 31
0.0
 11
188.9321192527877
 21
14.9584912847326
 31
0.0
 11
188.8579754451555
 21
14.9584912847326
 31
0.0
 11
188.7565951367605
 21
14.9584912847326
 31
0.0
 11
188.6461359947778
 21
14.9584912847326
 31
0.0
 11
188.5447556863828
 21
14.9584912847326
 31
0.0
 11
188.4706118787506
 21
14.9584912847326
 31
0.0
 11
188.4418622390565
 21
14.9584912847326
 31
0.0
  0
SPLINE
  5
B1
102
{ACAD_REACTORS
330
CE
102
}
330
48
100
AcDbEntity
  8
_U_30EC_U_30A4_U_30E4_U_30FC_1
  6
Continuous
 62
     2
100
AcDbSpline
210
0.0
220
0.0
230
1.0
 70
    11
 71
     3
 72
    15
 73
    11
 74
     9
 42
0.000000001
 43
0.0000000001
 44
0.00000001
 40
0.0
 40
0.0
 40
0.0
 40
0.0
 40
0.2785535985097318
 40
0.5215624748199115
 40
0.6076917376040605
 40
0.6938210001741205
 40
0.9405019146454905
 40
1.221691403489117
 40
1.300471877081036
 40
1.379252341684804
 40
1.379252341684804
 40
1.379252341684804
 40
1.379252341684804
 10
189.5681493630999
 20
16.22930267330379
 30
0.0
 10
189.6296017794179
 20
16.17691646592717
 30
0.0
 10
189.7446649974114
 20
16.07882876798231
 30
0.0
 10
190.0397348497244
 20
15.92889785897215
 30
0.0
 10
189.9025147631857
 20
15.84343227515012
 30
0.0
 10
189.8041227843778
 20
15.71085785201556
 30
0.0
 10
189.713003359065
 20
16.01616985781418
 30
0.0
 10
189.3636839480654
 20
16.07967869465372
 30
0.0
 10
189.511925837657
 20
16.17896509880876
 30
0.0
 10
189.5494081874236
 20
16.2125234840238
 30
0.0
 10
189.5681493630999
 20
16.22930267330379
 30
0.0
 11
189.5681493630999
 21
16.22930267330379
 31
0.0
 11
189.7919222440597
 21
16.06341774278973
 31
0.0
 11
189.9695046306383
 21
15.8975328122756
 31
0.0
 11
189.9066308127979
 21
15.8386674303459
 31
0.0
 11
189.8437569949575
 21
15.7798020484162
 31
0.0
 11
189.6688535117725
 21
15.95375677059489
 31
0.0
 11
189.447825685614
 21
16.127579201107
 31
0.0
 11
189.507987524357
 21
16.17844093720539
 31
0.0
 11
189.5681493630999
 21
16.22930267330379
 31
0.0
  0
SPLINE
  5
B2
102
{ACAD_REACTORS
330
CF
102
}
330
48
100
AcDbEntity
  8
_U_30EC_U_30A4_U_30E4_U_30FC_1
  6
Continuous
 62
     2
100
AcDbSpline
210
0.0
220
0.0
230
1.0
 70
    11
 71
     3
 72
    35
 73
    31
 74
    29
 42
0.000000001
 43
0.0000000001
 44
0.00000001
 40
0.0
 40
0.0
 40
0.0
 40
0.0
 40
0.0335231036619709
 40
0.0713218571712052
 40
0.4278866681487511
 40
0.8116865841964829
 40
1.198190238000134
 40
1.561379546812768
 40
1.659983174622154
 40
1.759315573807371
 40
2.132719617231232
 40
2.525233363588947
 40
2.910815397779834
 40
3.265244364303431
 40
3.592606723582242
 40
3.964386154604238
 40
4.359942131738028
 40
4.75815411863955
 40
4.843846538700121
 40
4.936650065543494
 40
5.256616602537627
 40
5.581707404416326
 40
5.899719158308425
 40
6.198363494281024
 40
6.466301046616069
 40
6.493895311537391
 40
6.559697020197185
 40
6.638234543442762
 40
6.704036252154515
 40
6.731630508423322
 40
6.731630508423322
 40
6.731630508423322
 40
6.731630508423322
 10
191.9736010568669
 20
16.23463843719129
 30
0.0
 10
191.9676006097789
 20
16.22480690542318
 30
0.0
 10
191.9548344099158
 20
16.2038898857979
 30
0.0
 10
191.7949362006551
 20
16.17127126532724
 30
0.0
 10
192.2322025842338
 20
15.88206680336684
 30
0.0
 10
192.4345394828262
 20
15.6804113835844
 30
0.0
 10
192.6819564267973
 20
15.43749387603272
 30
0.0
 10
193.1831513624607
 20
15.36047662757776
 30
0.0
 10
193.012556219897
 20
15.21876939174657
 30
0.0
 10
192.9383299463202
 20
15.01710366209105
 30
0.0
 10
192.6131432248188
 20
15.36956287174719
 30
0.0
 10
192.3277741670664
 20
15.53175212559562
 30
0.0
 10
192.0337604077659
 20
15.73687130053048
 30
0.0
 10
191.8084452691135
 20
16.21827488595461
 30
0.0
 10
191.5993085055522
 20
15.75343046609222
 30
0.0
 10
191.3207873674833
 20
15.54350952252913
 30
0.0
 10
191.0371383177209
 20
15.37424456359984
 30
0.0
 10
190.7078639527832
 20
15.00142360907936
 30
0.0
 10
190.6277012318224
 20
15.19708014459006
 30
0.0
 10
190.4759724909744
 20
15.32491104190597
 30
0.0
 10
190.9083395826795
 20
15.40454031765932
 30
0.0
 10
191.0962565329766
 20
15.60026634915471
 30
0.0
 10
191.3468477420503
 20
15.81632996916753
 30
0.0
 10
191.5714350470162
 20
15.98190992300057
 30
0.0
 10
191.6259775409712
 20
16.26133964636832
 30
0.0
 10
191.7494661029012
 20
16.24737950408081
 30
0.0
 10
191.8060273344519
 20
16.24521268867646
 30
0.0
 10
191.8761870984945
 20
16.24046859881359
 30
0.0
 10
191.9333414022105
 20
16.23709429350536
 30
0.0
 10
191.9644190320839
 20
16.23519854711115
 30
0.0
 10
191.9736010568669
 20
16.23463843719129
 30
0.0
 11
191.9736010568669
 21
16.23463843719129
 31
0.0
 11
191.9525319069885
 21
16.20856374969783
 31
0.0
 11
191.9174464559425
 21
16.1945011455347
 31
0.0
 11
192.1512374769095
 21
15.92527961131379
 31
0.0
 11
192.4414585957567
 21
15.67413407969256
 31
0.0
 11
192.7612797483685
 21
15.45710987618781
 31
0.0
 11
193.083870870629
 21
15.29025232631639
 31
0.0
 11
193.0213299868077
 21
15.2140203558493
 31
0.0
 11
192.9688035818975
 21
15.1297119791342
 31
0.0
 11
192.6436279095814
 21
15.31326404831576
 31
0.0
 11
192.3237227768437
 21
15.54070139743426
 31
0.0
 11
192.0354200158609
 21
15.7967385512331
 31
0.0
 11
191.8050514588096
 21
16.0660900344557
 31
0.0
 11
191.5995531719516
 21
15.81126348721036
 31
0.0
 11
191.3288301341535
 21
15.55645182277754
 31
0.0
 11
191.0119538423247
 21
15.31969466354856
 31
0.0
 11
190.6679957933741
 21
15.11903163191469
 31
0.0
 11
190.6218855341338
 21
15.19126067703555
 31
0.0
 11
190.5636970460348
 21
15.2635558679897
 31
0.0
 11
190.8433040489016
 21
15.41911456961744
 31
0.0
 11
191.1093004621155
 21
15.60601009790402
 31
0.0
 11
191.3499997459747
 21
15.81384496285206
 31
0.0
 11
191.5537153607774
 21
16.03222167446415
 31
0.0
 11
191.7087607668218
 21
16.2507427427429
 31
0.0
 11
191.7363041569865
 21
16.24906789496553
 31
0.0
 11
191.8019845489177
 21
16.24507402718873
 31
0.0
 11
191.880377274771
 21
16.24030715274546
 31
0.0
 11
191.9460576667022
 21
16.23631328496866
 31
0.0
 11
191.9736010568669
 21
16.23463843719129
 31
0.0
  0
SPLINE
  5
B3
102
{ACAD_REACTORS
330
D0
102
}
330
48
100
AcDbEntity
  8
_U_30EC_U_30A4_U_30E4_U_30FC_1
  6
Continuous
 62
     2
100
AcDbSpline
210
0.0
220
0.0
230
1.0
 70
    11
 71
     3
 72
    91
 73
    87
 74
    85
 42
0.000000001
 43
0.0000000001
 44
0.00000001
 40
0.0
 40
0.0
 40
0.0
 40
0.0
 40
0.0267532254356666
 40
0.085610338646396
 40
0.1444674521996372
 40
0.171220685661823
 40
0.2039416005642252
 40
0.29556019716522
 40
0.4362601844616634
 40
0.6162252844506966
 40
0.8256392189704413
 40
1.054685709844382
 40
1.293548478893503
 40
1.532411247938275
 40
1.76145773879954
 40
1.970871673298508
 40
2.150836773256704
 40
2.291536760495565
 40
2.383155356836672
 40
2.415876284101292
 40
2.442629517487931
 40
2.501486630949052
 40
2.56034374442419
 40
2.587096977826458
 40
2.617068194440885
 40
2.699247336756026
 40
2.822032643466339
 40
2.973822353257868
 40
3.143014704823311
 40
3.31800793687989
 40
3.487200288186723
 40
3.638989997548204
 40
3.761775303794702
 40
3.843954445753037
 40
3.873925662229733
 40
3.890812773500428
 40
3.907699884771594
 40
3.937960767857223
 40
3.980983618142258
 40
4.199085915228387
 40
4.439444339237187
 40
4.677588241260802
 40
5.050698317837716
 40
5.448212454763045
 40
5.855291218044512
 40
6.138575438885164
 40
6.417434507583971
 40
6.444551104393631
 40
6.504207617362908
 40
6.563864130314235
 40
6.590980727103804
 40
6.848609460381198
 40
7.109611990668161
 40
7.352910904445821
 40
7.55783022070518
 40
7.587518925913101
 40
7.65283407737553
 40
7.718149228845475
 40
7.747837934061784
 40
7.85488019030077
 40
7.976511257403302
 40
8.369487896592046
 40
8.757514959223368
 40
9.126072419330859
 40
9.460639380391921
 40
9.74669559303566
 40
9.777569943118422
 40
9.807050320931486
 40
9.830377336128626
 40
9.886003295435724
 40
9.952395569429667
 40
10.00802152870605
 40
10.03134854388198
 40
10.21356951009569
 40
10.42203479292851
 40
10.66154556731045
 40
10.91693789564285
 40
11.15832906556544
 40
11.18982674596602
 40
11.27286608520386
 40
11.39026653033328
 40
11.52484752840864
 40
11.65942852648426
 40
11.77682897161462
 40
11.85986831085661
 40
11.89136598230407
 40
11.89136598230407
 40
11.89136598230407
 40
11.89136598230407
 10
190.7027885008196
 20
14.70699600701769
 30
0.0
 10
190.7028237765288
 20
14.71587847311982
 30
0.0
 10
190.7029366710796
 20
14.74430237047342
 30
0.0
 10
190.7012984568489
 20
14.79409639169798
 30
0.0
 10
190.7069750292911
 20
14.83657564478149
 30
0.0
 10
190.6956928731706
 20
14.88730154856841
 30
0.0
 10
190.7632296979032
 20
14.87012900740102
 30
0.0
 10
190.83880292107
 20
14.8829022716599
 30
0.0
 10
190.9828357056
 20
14.87629729457376
 30
0.0
 10
191.1569419185427
 20
14.8788846220646
 30
0.0
 10
191.3639599611003
 20
14.87800591955547
 30
0.0
 10
191.5894688172378
 20
14.87828207920022
 30
0.0
 10
191.8251162293406
 20
14.87818339658656
 30
0.0
 10
192.0607640531348
 20
14.87828184412761
 30
0.0
 10
192.2862717580626
 20
14.87800678190782
 30
0.0
 10
192.4932934632805
 20
14.87888186270729
 30
0.0
 10
192.6673888915288
 20
14.8763052267844
 30
0.0
 10
192.8114492071986
 20
14.88288290449208
 30
0.0
 10
192.8869691915293
 20
14.87016243405598
 30
0.0
 10
192.954577603703
 20
14.8872640019168
 30
0.0
 10
192.9430840140676
 20
14.83674785802935
 30
0.0
 10
192.9505104581733
 20
14.79253252226497
 30
0.0
 10
192.9428838927986
 20
14.74867966503606
 30
0.0
 10
192.9546489459425
 20
14.69878374479324
 30
0.0
 10
192.8930788491983
 20
14.71393227712509
 30
0.0
 10
192.8256791738671
 20
14.7031066535067
 30
0.0
 10
192.7013004056222
 20
14.70852031626233
 30
0.0
 10
192.555442823657
 20
14.70649205390782
 30
0.0
 10
192.3893576440086
 20
14.70715777578384
 30
0.0
 10
192.2188412621724
 20
14.70689643521239
 30
0.0
 10
192.0519790855388
 20
14.7072155339109
 30
0.0
 10
191.9087346827105
 20
14.70635302590759
 30
0.0
 10
191.7773313869834
 20
14.70863300482984
 30
0.0
 10
191.7239859134657
 20
14.704077043742
 30
0.0
 10
191.6485188456912
 20
14.70999914992872
 30
0.0
 10
191.6769075779233
 20
14.70094169343354
 30
0.0
 10
191.7033652409542
 20
14.69725912268935
 30
0.0
 10
191.6633522907702
 20
14.66654271968275
 30
0.0
 10
191.5713663691867
 20
14.67667591174634
 30
0.0
 10
191.5439396207071
 20
14.43032502247783
 30
0.0
 10
191.4478793967235
 20
14.27499558764375
 30
0.0
 10
191.1917277964474
 20
13.94525417931567
 30
0.0
 10
191.7627537732763
 20
14.08430022210449
 30
0.0
 10
192.0173656320517
 20
14.08291779973364
 30
0.0
 10
192.6279647048617
 20
13.99790569242082
 30
0.0
 10
192.3340698578084
 20
14.29685417558203
 30
0.0
 10
192.0133304286516
 20
14.44330856901772
 30
0.0
 10
192.1313543360435
 20
14.50025540818287
 30
0.0
 10
192.1724716466261
 20
14.52420099873347
 30
0.0
 10
192.2156812394411
 20
14.54599758811229
 30
0.0
 10
192.317457409445
 20
14.60928721253907
 30
0.0
 10
192.4328867625247
 20
14.35147151408776
 30
0.0
 10
192.6329591642277
 20
14.21616041113681
 30
0.0
 10
192.7269077387228
 20
14.03792795138879
 30
0.0
 10
192.9558829746393
 20
13.8799782102705
 30
0.0
 10
192.8596031846708
 20
13.82915972576299
 30
0.0
 10
192.8167959763779
 20
13.79881292523051
 30
0.0
 10
192.7718243528779
 20
13.77466130281455
 30
0.0
 10
192.7121720925214
 20
13.72552146747561
 30
0.0
 10
192.6789731061324
 20
13.85997475673607
 30
0.0
 10
192.5582013350796
 20
14.01594265286575
 30
0.0
 10
192.1970976005979
 20
13.88569928059553
 30
0.0
 10
191.8385061955541
 20
13.9022469440948
 30
0.0
 10
191.457092045008
 20
13.89331229351863
 30
0.0
 10
191.170345528289
 20
13.82882671672403
 30
0.0
 10
190.8592055599715
 20
13.94230668192831
 30
0.0
 10
190.8268737818788
 20
13.83122259927768
 30
0.0
 10
190.7896178253319
 20
13.81196313850006
 30
0.0
 10
190.7865737632754
 20
13.85874784087293
 30
0.0
 10
190.7679892860608
 20
13.8980685391913
 30
0.0
 10
190.7512436616778
 20
13.95765983478231
 30
0.0
 10
190.7383730915754
 20
14.00201969871282
 30
0.0
 10
190.7042327806428
 20
14.09106331120201
 30
0.0
 10
190.9482714457754
 20
14.02181042943769
 30
0.0
 10
191.1441394486671
 20
14.00030369057742
 30
0.0
 10
191.2395426381277
 20
14.28226484478462
 30
0.0
 10
191.2945135769596
 20
14.44363045421121
 30
0.0
 10
191.5159619357156
 20
14.71391177589736
 30
0.0
 10
191.3849239381216
 20
14.70548446853731
 30
0.0
 10
191.3110026555854
 20
14.70779008496967
 30
0.0
 10
191.1977459876244
 20
14.70671378321655
 30
0.0
 10
191.0694251807484
 20
14.70707639076507
 30
0.0
 10
190.9404252030415
 20
14.70697724466083
 30
0.0
 10
190.828784094629
 20
14.70699932712569
 30
0.0
 10
190.7514663970026
 20
14.70699579189667
 30
0.0
 10
190.713287653201
 20
14.70699595845078
 30
0.0
 10
190.7027885008196
 20
14.70699600701769
 30
0.0
 11
190.7027885008196
 21
14.70699600701769
 31
0.0
 11
190.7027885008196
 21
14.73374924051794
 31
0.0
 11
190.7027885008196
 21
14.79260635421849
 31
0.0
 11
190.7027885008196
 21
14.85146346791904
 31
0.0
 11
190.7027885008196
 21
14.87821670141929
 31
0.0
 11
190.7355094280989
 21
14.87821670141929
 31
0.0
 11
190.8271280244809
 21
14.87821670141929
 31
0.0
 11
190.9678280117818
 21
14.87821670141929
 31
0.0
 11
191.1477931118179
 21
14.87821670141929
 31
0.0
 11
191.3572070464054
 21
14.87821670141929
 31
0.0
 11
191.5862535373604
 21
14.87821670141929
 31
0.0
 11
191.8251163064992
 21
14.87821670141929
 31
0.0
 11
192.0639790756381
 21
14.87821670141929
 31
0.0
 11
192.2930255665931
 21
14.87821670141929
 31
0.0
 11
192.5024395011806
 21
14.87821670141929
 31
0.0
 11
192.6824046012167
 21
14.87821670141929
 31
0.0
 11
192.8231045885176
 21
14.87821670141929
 31
0.0
 11
192.9147231848996
 21
14.87821670141929
 31
0.0
 11
192.9474441121789
 21
14.87821670141929
 31
0.0
 11
192.9474441121789
 21
14.85146346791904
 31
0.0
 11
192.9474441121789
 21
14.79260635421849
 31
0.0
 11
192.9474441121789
 21
14.73374924051794
 31
0.0
 11
192.9474441121789
 21
14.70699600701769
 31
0.0
 11
192.9174728954758
 21
14.70699600701769
 31
0.0
 11
192.8352937529027
 21
14.70699600701769
 31
0.0
 11
192.7125084457639
 21
14.70699600701769
 31
0.0
 11
192.5607187353642
 21
14.70699600701769
 31
0.0
 11
192.3915263830077
 21
14.70699600701769
 31
0.0
 11
192.2165331499991
 21
14.70699600701769
 31
0.0
 11
192.0473407976426
 21
14.70699600701769
 31
0.0
 11
191.8955510872428
 21
14.70699600701769
 31
0.0
 11
191.7727657801042
 21
14.70699600701769
 31
0.0
 11
191.690586637531
 21
14.70699600701769
 31
0.0
 11
191.6606154208279
 21
14.70699600701769
 31
0.0
 11
191.6766359412525
 21
14.70165583340795
 31
0.0
 11
191.6926564616771
 21
14.6963156597982
 31
0.0
 11
191.670615568142
 21
14.67558114591444
 31
0.0
 11
191.6284861855363
 21
14.6668587153611
 31
0.0
 11
191.5365235541378
 21
14.46909247312656
 31
0.0
 11
191.4279078521764
 21
14.25467511978507
 31
0.0
 11
191.3127500824808
 21
14.0462255905162
 31
0.0
 11
191.6857366675021
 21
14.05582441253028
 31
0.0
 11
192.0830700036151
 21
14.06781232404994
 31
0.0
 11
192.4899342191145
 21
14.08102711828529
 31
0.0
 11
192.2983119496979
 21
14.28966761302478
 31
0.0
 11
192.0966752013699
 21
14.4822942015183
 31
0.0
 11
192.120494779475
 21
14.49525327269563
 31
0.0
 11
192.1728978513062
 21
14.52376322928575
 31
0.0
 11
192.2253009231374
 21
14.55227318587587
 31
0.0
 11
192.2491205012425
 21
14.5652322570532
 31
0.0
 11
192.4387101558627
 21
14.39079508370266
 31
0.0
 11
192.6200310940435
 21
14.20305846374089
 31
0.0
 11
192.7777729231147
 21
14.01782380992435
 31
0.0
 11
192.8966252504058
 21
13.85089253500949
 31
0.0
 11
192.8715408217923
 21
13.83501202286068
 31
0.0
 11
192.8163550788425
 21
13.80007489613329
 31
0.0
 11
192.7611693358928
 21
13.76513776940591
 31
0.0
 11
192.7360849072793
 21
13.7492572572571
 31
0.0
 11
192.6775518151612
 21
13.83887824681807
 31
0.0
 11
192.6050015078457
 21
13.93650288221029
 31
0.0
 11
192.2125412924095
 21
13.91636286943756
 31
0.0
 11
191.8249474069561
 21
13.8980330299977
 31
0.0
 11
191.4567378976213
 21
13.88202178722393
 31
0.0
 11
191.1224308105412
 21
13.86883756444946
 31
0.0
 11
190.8365441918518
 21
13.8589887850075
 31
0.0
 11
190.8211862321741
 21
13.83220523466694
 31
0.0
 11
190.7937434290547
 21
13.82143559057239
 31
0.0
 11
190.786792719232
 21
13.84370299445572
 31
0.0
 11
190.7702179496549
 21
13.89680218833135
 31
0.0
 11
190.7504351601596
 21
13.96017864553775
 31
0.0
 11
190.7338603905825
 21
14.01327783941337
 31
0.0
 11
190.7269096807598
 21
14.0355452432967
 31
0.0
 11
190.9091199859153
 21
14.03751638912951
 31
0.0
 11
191.1174975848588
 21
14.0435621182947
 31
0.0
 11
191.2303203127216
 21
14.25483550301553
 31
0.0
 11
191.3407936722035
 21
14.48509813155879
 31
0.0
 11
191.4358254265627
 21
14.70699600701769
 31
0.0
 11
191.4043277461597
 21
14.70699600701769
 31
0.0
 11
191.3212884069153
 21
14.70699600701769
 31
0.0
 11
191.2038879617768
 21
14.70699600701769
 31
0.0
 11
191.0693069636912
 21
14.70699600701769
 31
0.0
 11
190.9347259656055
 21
14.70699600701769
 31
0.0
 11
190.817325520467
 21
14.70699600701769
 31
0.0
 11
190.7342861812226
 21
14.70699600701769
 31
0.0
 11
190.7027885008196
 21
14.70699600701769
 31
0.0
  0
SPLINE
  5
B4
102
{ACAD_REACTORS
330
D1
102
}
330
48
100
AcDbEntity
  8
_U_30EC_U_30A4_U_30E4_U_30FC_1
  6
Continuous
 62
     2
100
AcDbSpline
210
0.0
220
0.0
230
1.0
 70
    11
 71
     3
 72
   131
 73
   127
 74
   125
 42
0.000000001
 43
0.0000000001
 44
0.00000001
 40
0.0
 40
0.0
 40
0.0
 40
0.0
 40
0.0195577029826771
 40
0.0426490537462413
 40
0.2863607575857697
 40
0.5344948436190377
 40
0.7842238845574216
 40
0.8737315789468576
 40
0.9803832810314073
 40
1.092842274517157
 40
1.199761146656922
 40
1.289788768186639
 40
1.351573580786324
 40
1.370727117561549
 40
1.416400936017957
 40
1.470914848356094
 40
1.516588666791882
 40
1.53574220355296
 40
1.634216592293266
 40
1.760283341175049
 40
1.897966686682189
 40
2.031216387368994
 40
2.049689751137989
 40
2.101115601646926
 40
2.179502577740047
 40
2.278859318314166
 40
2.393194462258827
 40
2.516516648383945
 40
2.642834515406077
 40
2.766156701983586
 40
2.880491846754702
 40
2.979848588358748
 40
3.058235565443927
 40
3.109661416669084
 40
3.128134780704261
 40
3.146783742386578
 40
3.191254343315467
 40
3.244332157316126
 40
3.288802758226058
 40
3.307451719895329
 40
3.327717853844941
 40
3.383747753580303
 40
3.468388665924697
 40
3.574487837699006
 40
3.694892515729117
 40
3.822449946852257
 40
3.950007377920652
 40
4.070412055800746
 40
4.176511227368303
 40
4.261152139501753
 40
4.317182039076947
 40
4.337448172964868
 40
4.620011002696484
 40
4.885096638397765
 40
4.945373043518601
 40
5.014107710488925
 40
5.070481727652331
 40
5.319246955636841
 40
5.584812164506329
 40
5.859000912057185
 40
6.13374693754238
 40
6.401732212969239
 40
6.420736683995858
 40
6.472845717451452
 40
6.550702743894436
 40
6.646951193874645
 40
6.754234497930969
 40
6.865196086587775
 40
6.972479390358234
 40
7.068727839772424
 40
7.146584865451433
 40
7.198693898189663
 40
7.217698368905803
 40
7.234950401631271
 40
7.276089864270285
 40
7.325191803516362
 40
7.366331266090721
 40
7.383583298770062
 40
7.402779163492439
 40
7.45338644325487
 40
7.524934666445872
 40
7.606953361406211
 40
7.688972056429363
 40
7.760520279784614
 40
7.811127559734856
 40
7.830323424546477
 40
7.847844055300107
 40
7.894799345667155
 40
7.96277939274485
 40
8.043374293560909
 40
8.128174145149826
 40
8.208769044817638
 40
8.276749090377349
 40
8.323704379669914
 40
8.341225010056649
 40
8.358497614800797
 40
8.401679126687002
 40
8.45781509218606
 40
8.513951057728464
 40
8.55713256970842
 40
8.574405174505463
 40
8.602340668616772
 40
8.643455660540317
 40
8.663225271966988
 40
8.71534515656464
 40
8.789031889628978
 40
8.873502045520716
 40
8.957972194324348
 40
9.031658925568246
 40
9.083778811234938
 40
9.103548423003403
 40
9.119550083123968
 40
9.160817522380242
 40
9.217244429110636
 40
9.278724491645121
 40
9.335151398295878
 40
9.376418837358173
 40
9.39242049730096
 40
9.401196302735208
 40
9.417494229384658
 40
9.42627002774996
 40
9.440875075477965
 40
9.475702496999162
 40
9.517270709866317
 40
9.552098131994478
 40
9.566703169884683
 40
9.566703169884683
 40
9.566703169884683
 40
9.566703169884683
 10
194.617025414848
 20
15.67015871511029
 30
0.0
 10
194.6134345093372
 20
15.66453690702159
 30
0.0
 10
194.6056039123625
 20
15.6522775441911
 30
0.0
 10
194.5129968974546
 20
15.61601916040995
 30
0.0
 10
194.4887622233247
 20
15.40148444212706
 30
0.0
 10
194.3858709845938
 20
15.22197284509711
 30
0.0
 10
194.1220492364305
 20
15.03615573798143
 30
0.0
 10
194.284547156918
 20
14.95959336566084
 30
0.0
 10
194.3607225760838
 20
14.89856693195443
 30
0.0
 10
194.4492171072758
 20
14.83515804544761
 30
0.0
 10
194.538993023311
 20
14.77525634219561
 30
0.0
 10
194.5883817636047
 20
14.72102154849208
 30
0.0
 10
194.6745708157382
 20
14.6928624054183
 30
0.0
 10
194.6411260674229
 20
14.65713309652807
 30
0.0
 10
194.6214671166311
 20
14.62550387991903
 30
0.0
 10
194.5919888217882
 20
14.58475872796066
 30
0.0
 10
194.5688989446031
 20
14.55504663489641
 30
0.0
 10
194.5380205968357
 20
14.50211422668493
 30
0.0
 10
194.4729193365741
 20
14.62740334938898
 30
0.0
 10
194.3796000122417
 20
14.68213900233939
 30
0.0
 10
194.295063628514
 20
14.73916423939338
 30
0.0
 10
194.1722498125742
 20
14.89675287427523
 30
0.0
 10
194.1764450847302
 20
14.82035806766838
 30
0.0
 10
194.1751478652678
 20
14.77361280161297
 30
0.0
 10
194.1758126448077
 20
14.69584785812602
 30
0.0
 10
194.1755549986958
 20
14.59902068324423
 30
0.0
 10
194.1756431239921
 20
14.48650279078809
 30
0.0
 10
194.1756077302282
 20
14.365240859457
 30
0.0
 10
194.175651175828
 20
14.24086897858961
 30
0.0
 10
194.1755199942406
 20
14.11967683631335
 30
0.0
 10
194.1759477562047
 20
14.00691148919742
 30
0.0
 10
194.1746678202312
 20
13.91082913768743
 30
0.0
 10
194.1779759851044
 20
13.83113826468698
 30
0.0
 10
194.1715197740088
 20
13.78815175788783
 30
0.0
 10
194.1806208705556
 20
13.7495543237204
 30
0.0
 10
194.1447910339936
 20
13.75810887724069
 30
0.0
 10
194.1115223815252
 20
13.75342519985445
 30
0.0
 10
194.0604562576041
 20
13.75351298759782
 30
0.0
 10
194.0269723972813
 20
13.75794430283819
 30
0.0
 10
193.9907585408754
 20
13.74960793842507
 30
0.0
 10
194.0009782568665
 20
13.79145277179282
 30
0.0
 10
193.9936487887774
 20
13.83778560820172
 30
0.0
 10
193.9973633136102
 20
13.92374831106012
 30
0.0
 10
193.9959480554897
 20
14.02605142704848
 30
0.0
 10
193.9964105554638
 20
14.14453223931511
 30
0.0
 10
193.996277368623
 20
14.26957683153355
 30
0.0
 10
193.9963015910045
 20
14.3947582810705
 30
0.0
 10
193.9963354925551
 20
14.51286645379058
 30
0.0
 10
193.9962060293132
 20
14.61628748709516
 30
0.0
 10
193.9965507549081
 20
14.69932036153667
 30
0.0
 10
193.9958698278689
 20
14.75143368521244
 30
0.0
 10
193.9994586600625
 20
14.87912907821362
 30
0.0
 10
193.7826171386436
 20
14.58048716819621
 30
0.0
 10
193.602135492195
 20
14.35263981511511
 30
0.0
 10
193.5490322295612
 20
14.49373443289814
 30
0.0
 10
193.5200429133148
 20
14.54325767560944
 30
0.0
 10
193.419664806282
 20
14.64641779790109
 30
0.0
 10
193.7405127723261
 20
14.72695035023779
 30
0.0
 10
193.868989700543
 20
14.91066283036434
 30
0.0
 10
194.0906454325358
 20
15.11931995771762
 30
0.0
 10
194.1770224894069
 20
15.29339211228348
 30
0.0
 10
194.4549394229075
 20
15.56967051342517
 30
0.0
 10
194.3346247839285
 20
15.56534559551119
 30
0.0
 10
194.286319735135
 20
15.56614856202557
 30
0.0
 10
194.2102377454905
 20
15.5657458214659
 30
0.0
 10
194.1167010009751
 20
15.56590275611614
 30
0.0
 10
194.0117594788557
 20
15.56582502576229
 30
0.0
 10
193.9033887738718
 20
15.56595464378559
 30
0.0
 10
193.7981454235897
 20
15.56554393490697
 30
0.0
 10
193.7056237819413
 20
15.56682073671596
 30
0.0
 10
193.6268130800707
 20
15.56340766534855
 30
0.0
 10
193.5839674565379
 20
15.57023350036325
 30
0.0
 10
193.5449499586516
 20
15.56065064201129
 30
0.0
 10
193.5526365271863
 20
15.59420779565545
 30
0.0
 10
193.5485464404311
 20
15.62523550322233
 30
0.0
 10
193.5485531368814
 20
15.67236529270898
 30
0.0
 10
193.5526239724911
 20
15.70340941646774
 30
0.0
 10
193.5449495574583
 20
15.73701861635895
 30
0.0
 10
193.5834819405495
 20
15.72748410420866
 30
0.0
 10
193.6241228014479
 20
15.73397435498065
 30
0.0
 10
193.6951471850463
 20
15.73100150650248
 30
0.0
 10
193.7729318149633
 20
15.73174761399151
 30
0.0
 10
193.8507292246474
 20
15.73247814044519
 30
0.0
 10
193.9217232089907
 20
15.72954235514154
 30
0.0
 10
193.962427979182
 20
15.73595468772946
 30
0.0
 10
194.000985348991
 20
15.72650524175998
 30
0.0
 10
193.9927342754927
 20
15.76264692158778
 30
0.0
 10
193.9982346669358
 20
15.80129837613222
 30
0.0
 10
193.9955754206163
 20
15.86913528561834
 30
0.0
 10
193.9965815471533
 20
15.94591641538736
 30
0.0
 10
193.9960178018319
 20
16.02849393582754
 30
0.0
 10
193.9970714526593
 20
16.10517329229877
 30
0.0
 10
193.9942675863129
 20
16.17331990776698
 30
0.0
 10
194.0000702721304
 20
16.21132399809347
 30
0.0
 10
193.9915654551158
 20
16.24758448077646
 30
0.0
 10
194.0255610233125
 20
16.23755723771852
 30
0.0
 10
194.05945756831
 20
16.24073266813706
 30
0.0
 10
194.1126669060346
 20
16.23508965640608
 30
0.0
 10
194.1660768574483
 20
16.23434774436424
 30
0.0
 10
194.1995914649491
 20
16.22819223482978
 30
0.0
 10
194.2388086183039
 20
16.23346029773591
 30
0.0
 10
194.2120263698493
 20
16.19253380793486
 30
0.0
 10
194.1708111001724
 20
16.20371204538108
 30
0.0
 10
194.1782641540875
 20
16.15867056192121
 30
0.0
 10
194.1742227952184
 20
16.11412278028141
 30
0.0
 10
194.1761714049641
 20
16.04223572621699
 30
0.0
 10
194.1752364849759
 20
15.96168630588766
 30
0.0
 10
194.176510719003
 20
15.8817399540499
 30
0.0
 10
194.1732043793864
 20
15.80841837083177
 30
0.0
 10
194.1802106179962
 20
15.76688643002562
 30
0.0
 10
194.1701440380126
 20
15.72752418568106
 30
0.0
 10
194.2029814803922
 20
15.73468063430975
 30
0.0
 10
194.2364577296482
 20
15.73027243137938
 30
0.0
 10
194.2915053476019
 20
15.73217943347891
 30
0.0
 10
194.3489502595316
 20
15.73185366407282
 30
0.0
 10
194.402302624831
 20
15.73106308733076
 30
0.0
 10
194.4398540896639
 20
15.73313959118068
 30
0.0
 10
194.4623172523238
 20
15.73022338167103
 30
0.0
 10
194.4751678073732
 20
15.73572552644049
 30
0.0
 10
194.485825568589
 20
15.73801118197786
 30
0.0
 10
194.4986635650144
 20
15.74494972588048
 30
0.0
 10
194.5145991033072
 20
15.72853046313667
 30
0.0
 10
194.5410623920892
 20
15.71709122319447
 30
0.0
 10
194.5726805253759
 20
15.6964468783519
 30
0.0
 10
194.5987255892153
 20
15.68116869628295
 30
0.0
 10
194.6128517723974
 20
15.67266976323185
 30
0.0
 10
194.617025414848
 20
15.67015871511029
 30
0.0
 11
194.617025414848
 21
15.67015871511029
 31
0.0
 11
194.6049990002244
 21
15.65473571164186
 31
0.0
 11
194.5848961795565
 21
15.64337406233919
 31
0.0
 11
194.4778986355813
 21
15.42440620231159
 31
0.0
 11
194.3477039934324
 21
15.21317201512161
 31
0.0
 11
194.1996540366071
 21
15.0120605902748
 31
0.0
 11
194.2734958253735
 21
14.96147384935381
 31
0.0
 11
194.36056643118
 21
14.89988411653741
 31
0.0
 11
194.4518003750405
 21
14.83413160594427
 31
0.0
 11
194.5381321779688
 21
14.77105653169305
 31
0.0
 11
194.6104963609787
 21
14.7174991079024
 31
0.0
 11
194.6598274450843
 21
14.680299548691
 31
0.0
 11
194.6486940702213
 21
14.6647141086949
 31
0.0
 11
194.6221452532403
 21
14.6275488287042
 31
0.0
 11
194.5904579555533
 21
14.5831902687153
 31
0.0
 11
194.5639091385723
 21
14.5460249887246
 31
0.0
 11
194.5527757637093
 21
14.5304395487285
 31
0.0
 11
194.4807013362948
 21
14.59754008690615
 31
0.0
 11
194.3852856985382
 21
14.67993354174669
 31
0.0
 11
194.279326415217
 21
14.76785017366917
 31
0.0
 11
194.1756210511091
 21
14.85152024309269
 31
0.0
 11
194.1756210511091
 21
14.83304687900865
 31
0.0
 11
194.1756210511091
 21
14.78162102763957
 31
0.0
 11
194.1756210511091
 21
14.70323405031
 31
0.0
 11
194.1756210511091
 21
14.6038773083445
 31
0.0
 11
194.1756210511091
 21
14.48954216306761
 31
0.0
 11
194.1756210511091
 21
14.36621997580389
 31
0.0
 11
194.1756210511091
 21
14.2399021078779
 31
0.0
 11
194.1756210511091
 21
14.11657992061418
 31
0.0
 11
194.1756210511091
 21
14.00224477533729
 31
0.0
 11
194.1756210511091
 21
13.90288803337179
 31
0.0
 11
194.1756210511091
 21
13.82450105604222
 31
0.0
 11
194.1756210511091
 21
13.77307520467314
 31
0.0
 11
194.1756210511091
 21
13.7546018405891
 31
0.0
 11
194.1569720893627
 21
13.7546018405891
 31
0.0
 11
194.112501488275
 21
13.7546018405891
 31
0.0
 11
194.0594236740736
 21
13.7546018405891
 31
0.0
 11
194.0149530729859
 21
13.7546018405891
 31
0.0
 11
193.9963041112395
 21
13.7546018405891
 31
0.0
 11
193.9963041112395
 21
13.77486797460217
 31
0.0
 11
193.9963041112395
 21
13.83089787452065
 31
0.0
 11
193.9963041112395
 21
13.91553878716346
 31
0.0
 11
193.9963041112395
 21
14.02163795934952
 31
0.0
 11
193.9963041112395
 21
14.14204263789775
 31
0.0
 11
193.9963041112395
 21
14.26960006962705
 31
0.0
 11
193.9963041112395
 21
14.39715750135636
 31
0.0
 11
193.9963041112395
 21
14.51756217990458
 31
0.0
 11
193.9963041112395
 21
14.62366135209064
 31
0.0
 11
193.9963041112395
 21
14.70830226473345
 31
0.0
 11
193.9963041112395
 21
14.76433216465193
 31
0.0
 11
193.9963041112395
 21
14.784598298665
 31
0.0
 11
193.7883272849481
 21
14.59331998274057
 31
0.0
 11
193.5763486358425
 21
14.43414885430809
 31
0.0
 11
193.5495629014482
 21
14.48814671952095
 31
0.0
 11
193.5138765415024
 21
14.54689140572028
 31
0.0
 11
193.4799697494124
 21
14.59192871537979
 31
0.0
 11
193.6830287742319
 21
14.73563387201054
 31
0.0
 11
193.881853195826
 21
14.91168423529988
 31
0.0
 11
194.0677041444178
 21
15.1132751452495
 31
0.0
 11
194.2318427502303
 21
15.33360194186111
 31
0.0
 11
194.3655301434865
 21
15.5658599651364
 31
0.0
 11
194.3465256724482
 21
15.5658599651364
 31
0.0
 11
194.2944166389563
 21
15.5658599651364
 31
0.0
 11
194.2165596124448
 21
15.5658599651364
 31
0.0
 11
194.1203111623479
 21
15.5658599651364
 31
0.0
 11
194.0130278580997
 21
15.5658599651364
 31
0.0
 11
193.9020662691345
 21
15.5658599651364
 31
0.0
 11
193.7947829648864
 21
15.5658599651364
 31
0.0
 11
193.6985345147895
 21
15.5658599651364
 31
0.0
 11
193.620677488278
 21
15.5658599651364
 31
0.0
 11
193.568568454786
 21
15.5658599651364
 31
0.0
 11
193.5495639837478
 21
15.5658599651364
 31
0.0
 11
193.5495639837478
 21
15.58311199790986
 31
0.0
 11
193.5495639837478
 21
15.62425146067732
 31
0.0
 11
193.5495639837478
 21
15.67335340010947
 31
0.0
 11
193.5495639837478
 21
15.71449286287693
 31
0.0
 11
193.5495639837478
 21
15.73174489565039
 31
0.0
 11
193.5687598486009
 21
15.73174489565039
 31
0.0
 11
193.6193671286684
 21
15.73174489565039
 31
0.0
 11
193.690915352212
 21
15.73174489565039
 31
0.0
 11
193.7729340474937
 21
15.73174489565039
 31
0.0
 11
193.8549527427753
 21
15.73174489565039
 31
0.0
 11
193.9265009663189
 21
15.73174489565039
 31
0.0
 11
193.9771082463864
 21
15.73174489565039
 31
0.0
 11
193.9963041112395
 21
15.73174489565039
 31
0.0
 11
193.9963041112395
 21
15.74926552655212
 31
0.0
 11
193.9963041112395
 21
15.79622081736876
 31
0.0
 11
193.9963041112395
 21
15.86420086526749
 31
0.0
 11
193.9963041112395
 21
15.94479576741545
 31
0.0
 11
193.9963041112395
 21
16.02959562097984
 31
0.0
 11
193.9963041112395
 21
16.11019052312781
 31
0.0
 11
193.9963041112395
 21
16.17817057102653
 31
0.0
 11
193.9963041112395
 21
16.22512586184317
 31
0.0
 11
193.9963041112395
 21
16.2426464927449
 31
0.0
 11
194.0135484112111
 21
16.24165806167519
 31
0.0
 11
194.0566591611401
 21
16.23918698400091
 31
0.0
 11
194.1127031360477
 21
16.23597458302434
 31
0.0
 11
194.1687471109553
 21
16.23276218204778
 31
0.0
 11
194.2118578608843
 21
16.2302911043735
 31
0.0
 11
194.2291021608559
 21
16.22930267330379
 31
0.0
 11
194.2143774674852
 21
16.20556293372639
 31
0.0
 11
194.1756210511091
 21
16.1918376733131
 31
0.0
 11
194.1756210511091
 21
16.1720680617729
 31
0.0
 11
194.1756210511091
 21
16.1199481768033
 31
0.0
 11
194.1756210511091
 21
16.04626144288076
 31
0.0
 11
194.1756210511091
 21
15.96179128448174
 31
0.0
 11
194.1756210511091
 21
15.87732112608273
 31
0.0
 11
194.1756210511091
 21
15.80363439216019
 31
0.0
 11
194.1756210511091
 21
15.75151450719058
 31
0.0
 11
194.1756210511091
 21
15.73174489565039
 31
0.0
 11
194.1916227112937
 21
15.73174489565039
 31
0.0
 11
194.2328901507171
 21
15.73174489565039
 31
0.0
 11
194.2893170576838
 21
15.73174489565039
 31
0.0
 11
194.3507971204982
 21
15.73174489565039
 31
0.0
 11
194.4072240274649
 21
15.73174489565039
 31
0.0
 11
194.4484914668883
 21
15.73174489565039
 31
0.0
 11
194.4644931270729
 21
15.73174489565039
 31
0.0
 11
194.4728206422926
 21
15.73451387455915
 31
0.0
 11
194.4882860277004
 21
15.73965626396114
 31
0.0
 11
194.4966135429201
 21
15.7424252428699
 31
0.0
 11
194.5091363776006
 21
15.7349095239829
 31
0.0
 11
194.5389985218387
 21
15.71698742509852
 31
0.0
 11
194.5746404359294
 21
15.69559653288167
 31
0.0
 11
194.6045025801675
 21
15.67767443399729
 31
0.0
 11
194.617025414848
 21
15.67015871511029
 31
0.0
  0
SPLINE
  5
B5
102
{ACAD_REACTORS
330
D2
102
}
330
48
100
AcDbEntity
  8
_U_30EC_U_30A4_U_30E4_U_30FC_1
  6
Continuous
 62
     2
100
AcDbSpline
210
0.0
220
0.0
230
1.0
 70
    11
 71
     3
 72
   124
 73
   120
 74
   118
 42
0.000000001
 43
0.0000000001
 44
0.00000001
 40
0.0
 40
0.0
 40
0.0
 40
0.0
 40
0.0278187229624226
 40
0.1011590162383985
 40
0.2048470170589954
 40
0.3237088716558677
 40
0.4425707262521431
 40
0.5462587270698694
 40
0.6195990203311229
 40
0.6474177522577808
 40
0.6750060736114389
 40
0.7357003855241906
 40
0.7963946998053604
 40
0.8239830245570914
 40
0.8540933811102007
 40
0.9373396629408688
 40
1.06309468734315
 40
1.220731268637988
 40
1.399622220914662
 40
1.589140358637647
 40
1.778658496423813
 40
1.957549448940423
 40
2.115186030873073
 40
2.240941056914378
 40
2.324187341760447
 40
2.354297700109297
 40
2.381886024671805
 40
2.44258033871039
 40
2.503274652750412
 40
2.530862977314521
 40
2.560983949278474
 40
2.640393784452848
 40
2.752662861759071
 40
2.88136156011806
 40
3.010060258455163
 40
3.122329335705339
 40
3.201739170817924
 40
3.231860142753313
 40
3.264298024030368
 40
3.352343701778236
 40
3.482095226868753
 40
3.639650650173007
 40
3.811108022565459
 40
3.982565394927961
 40
4.140120818152536
 40
4.26987234314124
 40
4.357918020802299
 40
4.390355902043926
 40
4.423256253992496
 40
4.508104530073045
 40
4.624121560636813
 40
4.75052817603157
 40
4.866545206602045
 40
4.951393482692031
 40
4.984293834645432
 40
5.011450833242347
 40
5.071196230152133
 40
5.130941627057209
 40
5.158098625648875
 40
5.190998977601565
 40
5.275847253689391
 40
5.391864284256882
 40
5.518270899648427
 40
5.634287930209466
 40
5.71913620628814
 40
5.752036558236056
 40
5.782130946283083
 40
5.86278390622926
 40
5.979550131775134
 40
6.117984316640544
 40
6.263641154588094
 40
6.402075339414307
 40
6.518841564908111
 40
6.599494524815696
 40
6.629588912848933
 40
6.65440302822651
 40
6.71357514948825
 40
6.784199939329568
 40
6.843372060493614
 40
6.86818617580286
 40
6.896246243201955
 40
6.939586233758281
 40
6.967846564564908
 40
7.043584251089843
 40
7.153234334451696
 40
7.28323185573444
 40
7.420011856035465
 40
7.55000937657981
 40
7.659659458835204
 40
7.735397144417195
 40
7.763657474851366
 40
7.796409728011023
 40
7.880876065096297
 40
7.996370852465683
 40
8.122208446418577
 40
8.237703224799171
 40
8.322169562010894
 40
8.354921815205879
 40
8.38207881330766
 40
8.441824209206967
 40
8.501569605240116
 40
8.528726603485694
 40
8.561478856695715
 40
8.645945193877765
 40
8.761439980865305
 40
8.887277580764447
 40
9.002772362000968
 40
9.08723869666116
 40
9.119990949235643
 40
9.15242883061334
 40
9.240474508638552
 40
9.370226034149498
 40
9.527781457984377
 40
9.69923883098136
 40
9.870696203978543
 40
10.02825162781396
 40
10.15800315332557
 40
10.24604883135112
 40
10.27848670378514
 40
10.27848670378514
 40
10.27848670378514
 40
10.27848670378514
 10
195.3821827564384
 20
14.0141051738576
 30
0.0
 10
195.3914554737524
 20
14.01410498511277
 30
0.0
 10
195.4251744536861
 20
14.01410430876717
 30
0.0
 10
195.4934706812466
 20
14.01411807243307
 30
0.0
 10
195.592014171158
 20
14.01403224219548
 30
0.0
 10
195.7062066464812
 20
14.01441755612253
 30
0.0
 10
195.8185894417071
 20
14.01300835897548
 30
0.0
 10
195.9214376600119
 20
14.01719117422246
 30
0.0
 10
195.9806839874849
 20
14.00823089251986
 30
0.0
 10
196.0371265937032
 20
14.02164434526063
 30
0.0
 10
196.0246255586955
 20
13.97087198613363
 30
0.0
 10
196.0329549635703
 20
13.92589320939069
 30
0.0
 10
196.024817084112
 20
13.88056752990491
 30
0.0
 10
196.0370529214457
 20
13.82931932408469
 30
0.0
 10
195.9747773490333
 20
13.84447955365279
 30
0.0
 10
195.9060513026868
 20
13.83359750710746
 30
0.0
 10
195.7782756749592
 20
13.83911304747975
 30
0.0
 10
195.6262984511643
 20
13.83700851253701
 30
0.0
 10
195.4502695972523
 20
13.83771002588476
 30
0.0
 10
195.2644431934287
 20
13.83745237531295
 30
0.0
 10
195.0786167437175
 20
13.83771005144606
 30
0.0
 10
194.9025880142168
 20
13.83700841847734
 30
0.0
 10
194.7506104154195
 20
13.83911332229992
 30
0.0
 10
194.6228357664554
 20
13.83359680767643
 30
0.0
 10
194.5541077836581
 20
13.84448077125945
 30
0.0
 10
194.4918349042883
 20
13.82931786684212
 30
0.0
 10
194.5040616290017
 20
13.88057510805175
 30
0.0
 10
194.4960004462597
 20
13.92582473272428
 30
0.0
 10
194.5040675809892
 20
13.97106357955326
 30
0.0
 10
194.4918238487084
 20
14.02234176909961
 30
0.0
 10
194.5525017120698
 20
14.00749577363137
 30
0.0
 10
194.6162810745737
 20
14.01756448170737
 30
0.0
 10
194.7277314353503
 20
14.01294644212003
 30
0.0
 10
194.8497533443823
 20
14.01413328905471
 30
0.0
 10
194.9719538137824
 20
14.01515863900638
 30
0.0
 10
195.0829794287393
 20
14.01092475623404
 30
0.0
 10
195.1476517413958
 20
14.02018584521742
 30
0.0
 10
195.2091162810502
 20
14.00604423049684
 30
0.0
 10
195.1930065601337
 20
14.07235527884519
 30
0.0
 10
195.2042980327359
 20
14.14447790121978
 30
0.0
 10
195.1987400822562
 20
14.27513760888288
 30
0.0
 10
195.2008035061691
 20
14.42607323708242
 30
0.0
 10
195.2000167127295
 20
14.59335873107887
 30
0.0
 10
195.2007845215628
 20
14.76061110332303
 30
0.0
 10
195.198803878563
 20
14.91163289269914
 30
0.0
 10
195.2041306156621
 20
15.04206069552994
 30
0.0
 10
195.1933101388425
 20
15.11465442605898
 30
0.0
 10
195.2090326429876
 20
15.18150469436797
 30
0.0
 10
195.1432708132491
 20
15.16580512490822
 30
0.0
 10
195.0756367830764
 20
15.17609243083995
 30
0.0
 10
194.961588529381
 20
15.1711378684712
 30
0.0
 10
194.8451242674903
 20
15.17414128030474
 30
0.0
 10
194.7306554121477
 20
15.16880303143388
 30
0.0
 10
194.6640324657812
 20
15.18001268074823
 30
0.0
 10
194.5990769715186
 20
15.1634913266501
 30
0.0
 10
194.6107989758707
 20
15.21473720477057
 30
0.0
 10
194.6032830189122
 20
15.2595033378409
 30
0.0
 10
194.6107989878835
 20
15.30426944897961
 30
0.0
 10
194.5990769505346
 20
15.3555153612974
 30
0.0
 10
194.66403263392
 20
15.33899381766814
 30
0.0
 10
194.7306533339821
 20
15.35020571373942
 30
0.0
 10
194.8451352858064
 20
15.34485436710663
 30
0.0
 10
194.9615454436963
 20
15.34791188771116
 30
0.0
 10
195.0757660174642
 20
15.34278499010707
 30
0.0
 10
195.1430150439227
 20
15.35345733355597
 30
0.0
 10
195.2083325941439
 20
15.33742082669075
 30
0.0
 10
195.1941391448553
 20
15.39949685750052
 30
0.0
 10
195.2036059462996
 20
15.46586761628762
 30
0.0
 10
195.1990269004085
 20
15.58239972741966
 30
0.0
 10
195.2007696555949
 20
15.71426685022376
 30
0.0
 10
195.1997551495392
 20
15.85615960150274
 30
0.0
 10
195.2017191344373
 20
15.98769050702581
 30
0.0
 10
195.1964668553852
 20
16.10524577283005
 30
0.0
 10
195.2073408763474
 20
16.16947789001586
 30
0.0
 10
195.1919536641855
 20
16.2310880254505
 30
0.0
 10
195.2407591537801
 20
16.21702407382114
 30
0.0
 10
195.2853995564727
 20
16.21954742075315
 30
0.0
 10
195.3538643946742
 20
16.21512797401711
 30
0.0
 10
195.3959106169103
 20
16.20613025544036
 30
0.0
 10
195.4487544758775
 20
16.21411714866511
 30
0.0
 10
195.4207035002014
 20
16.17113917611675
 30
0.0
 10
195.3749142248595
 20
16.18259552043828
 30
0.0
 10
195.3869539073266
 20
16.12173520005133
 30
0.0
 10
195.3796086070642
 20
16.05769299468768
 30
0.0
 10
195.3831195826162
 20
15.94909368863907
 30
0.0
 10
195.3819806760173
 20
15.82494319144748
 30
0.0
 10
195.3819174780264
 20
15.69189719829876
 30
0.0
 10
195.3832872966868
 20
15.56797381249553
 30
0.0
 10
195.3791638801315
 20
15.45868337849337
 30
0.0
 10
195.3877763103564
 20
15.39608580094169
 30
0.0
 10
195.3746757454403
 20
15.33740133296364
 30
0.0
 10
195.4393884328199
 20
15.35362113810901
 30
0.0
 10
195.5060405953157
 20
15.34270260383311
 30
0.0
 10
195.6198779541103
 20
15.34793740173755
 30
0.0
 10
195.7357259122097
 20
15.34485547516912
 30
0.0
 10
195.8496924263281
 20
15.35018259812512
 30
0.0
 10
195.91603410181
 20
15.33904208166541
 30
0.0
 10
195.980718852548
 20
15.35546979593176
 30
0.0
 10
195.9689820772724
 20
15.3042592521005
 30
0.0
 10
195.9765168063041
 20
15.25950334120999
 30
0.0
 10
195.968982099226
 20
15.21474739010026
 30
0.0
 10
195.9807188140737
 20
15.1635369087104
 30
0.0
 10
195.9160344075253
 20
15.17996427794218
 30
0.0
 10
195.8496886430826
 20
15.16882784447268
 30
0.0
 10
195.7357459487013
 20
15.17413115893119
 30
0.0
 10
195.6197995623055
 20
15.17114764593543
 30
0.0
 10
195.5062756882124
 20
15.17606892268393
 30
0.0
 10
195.4389231318804
 20
15.16585087513518
 30
0.0
 10
195.3734285122496
 20
15.18145996138815
 30
0.0
 10
195.3891713619218
 20
15.1146385182741
 30
0.0
 10
195.3783275998215
 20
15.04207057815877
 30
0.0
 10
195.3836581629792
 20
14.91162247614416
 30
0.0
 10
195.3817136151856
 20
14.76064558185226
 30
0.0
 10
195.3823133683215
 20
14.59322243934159
 30
0.0
 10
195.3821506559606
 20
14.42656176118373
 30
0.0
 10
195.3821895488136
 20
14.27360142921638
 30
0.0
 10
195.38218164131
 20
14.14849178985707
 30
0.0
 10
195.3821828382745
 20
14.06507890991423
 30
0.0
 10
195.382182771621
 20
14.02491778281979
 30
0.0
 10
195.3821827564384
 20
14.0141051738576
 30
0.0
 11
195.3821827564384
 21
14.0141051738576
 31
0.0
 11
195.4100014883675
 21
14.0141051738576
 31
0.0
 11
195.4833417816353
 21
14.0141051738576
 31
0.0
 11
195.5870297824623
 21
14.0141051738576
 31
0.0
 11
195.7058916370687
 21
14.0141051738576
 31
0.0
 11
195.8247534916752
 21
14.0141051738576
 31
0.0
 11
195.928441492502
 21
14.0141051738576
 31
0.0
 11
196.0017817857699
 21
14.0141051738576
 31
0.0
 11
196.029600517699
 21
14.0141051738576
 31
0.0
 11
196.029600517699
 21
13.98651684921172
 31
0.0
 11
196.029600517699
 21
13.9258225349908
 31
0.0
 11
196.029600517699
 21
13.86512822076988
 31
0.0
 11
196.029600517699
 21
13.837539896124
 31
0.0
 11
195.9994901593494
 21
13.837539896124
 31
0.0
 11
195.9162438745004
 21
13.837539896124
 31
0.0
 11
195.7904888484521
 21
13.837539896124
 31
0.0
 11
195.6328522665041
 21
13.837539896124
 31
0.0
 11
195.4539613139564
 21
13.837539896124
 31
0.0
 11
195.2644431761089
 21
13.837539896124
 31
0.0
 11
195.0749250382613
 21
13.837539896124
 31
0.0
 11
194.8960340857136
 21
13.837539896124
 31
0.0
 11
194.7383975037656
 21
13.837539896124
 31
0.0
 11
194.6126424777172
 21
13.837539896124
 31
0.0
 11
194.5293961928683
 21
13.837539896124
 31
0.0
 11
194.4992858345187
 21
13.837539896124
 31
0.0
 11
194.4992858345187
 21
13.86512822076988
 31
0.0
 11
194.4992858345187
 21
13.9258225349908
 31
0.0
 11
194.4992858345187
 21
13.98651684921172
 31
0.0
 11
194.4992858345187
 21
14.0141051738576
 31
0.0
 11
194.5294068064947
 21
14.0141051738576
 31
0.0
 11
194.608816641704
 21
14.0141051738576
 31
0.0
 11
194.721085719069
 21
14.0141051738576
 31
0.0
 11
194.8497844175118
 21
14.0141051738576
 31
0.0
 11
194.9784831159546
 21
14.0141051738576
 31
0.0
 11
195.0907521933196
 21
14.0141051738576
 31
0.0
 11
195.1701620285289
 21
14.0141051738576
 31
0.0
 11
195.2002830005049
 21
14.0141051738576
 31
0.0
 11
195.2002830005049
 21
14.04654305523838
 31
0.0
 11
195.2002830005049
 21
14.13458873327193
 31
0.0
 11
195.2002830005049
 21
14.26434025879504
 31
0.0
 11
195.2002830005049
 21
14.42189568264455
 31
0.0
 11
195.2002830005049
 21
14.59335305565724
 31
0.0
 11
195.2002830005049
 21
14.76481042866994
 31
0.0
 11
195.2002830005049
 21
14.92236585251944
 31
0.0
 11
195.2002830005049
 21
15.05211737804256
 31
0.0
 11
195.2002830005049
 21
15.14016305607611
 31
0.0
 11
195.2002830005049
 21
15.17260093745689
 31
0.0
 11
195.1673826485529
 21
15.17260093745689
 31
0.0
 11
195.0825343724663
 21
15.17260093745689
 31
0.0
 11
194.9665173418989
 21
15.17260093745689
 31
0.0
 11
194.8401107265045
 21
15.17260093745689
 31
0.0
 11
194.724093695937
 21
15.17260093745689
 31
0.0
 11
194.6392454198503
 21
15.17260093745689
 31
0.0
 11
194.6063450678984
 21
15.17260093745689
 31
0.0
 11
194.6063450678984
 21
15.19975793614801
 31
0.0
 11
194.6063450678984
 21
15.25950333326849
 31
0.0
 11
194.6063450678984
 21
15.31924873038897
 31
0.0
 11
194.6063450678984
 21
15.34640572908009
 31
0.0
 11
194.6392454198504
 21
15.34640572908009
 31
0.0
 11
194.724093695937
 21
15.34640572908009
 31
0.0
 11
194.8401107265045
 21
15.34640572908009
 31
0.0
 11
194.9665173418989
 21
15.34640572908009
 31
0.0
 11
195.0825343724663
 21
15.34640572908009
 31
0.0
 11
195.1673826485529
 21
15.34640572908009
 31
0.0
 11
195.2002830005049
 21
15.34640572908009
 31
0.0
 11
195.2002830005049
 21
15.37650011731369
 31
0.0
 11
195.2002830005049
 21
15.45715307777973
 31
0.0
 11
195.2002830005049
 21
15.57391930412609
 31
0.0
 11
195.2002830005049
 21
15.71235349000064
 31
0.0
 11
195.2002830005049
 21
15.85801032905125
 31
0.0
 11
195.2002830005049
 21
15.9964445149258
 31
0.0
 11
195.2002830005049
 21
16.11321074127216
 31
0.0
 11
195.2002830005049
 21
16.1938637017382
 31
0.0
 11
195.2002830005049
 21
16.2239580899718
 31
0.0
 11
195.2250405288619
 21
16.22228324219444
 31
0.0
 11
195.284077711867
 21
16.21828937441767
 31
0.0
 11
195.3545414464215
 21
16.21352249997442
 31
0.0
 11
195.4135786294265
 21
16.20952863219765
 31
0.0
 11
195.4383361577835
 21
16.20785378442029
 31
0.0
 11
195.423306722403
 21
16.18415814206508
 31
0.0
 11
195.3821827564384
 21
16.17047697887399
 31
0.0
 11
195.3821827564384
 21
16.14221664794827
 31
0.0
 11
195.3821827564384
 21
16.06647896106735
 31
0.0
 11
195.3821827564384
 21
15.95682887707557
 31
0.0
 11
195.3821827564384
 21
15.82683135481727
 31
0.0
 11
195.3821827564384
 21
15.6900513531368
 31
0.0
 11
195.3821827564384
 21
15.56005383087851
 31
0.0
 11
195.3821827564384
 21
15.45040374688673
 31
0.0
 11
195.3821827564384
 21
15.37466606000581
 31
0.0
 11
195.3821827564384
 21
15.34640572908009
 31
0.0
 11
195.4149350096116
 21
15.34640572908009
 31
0.0
 11
195.4994013467423
 21
15.34640572908009
 31
0.0
 11
195.6148961342477
 21
15.34640572908009
 31
0.0
 11
195.7407337385446
 21
15.34640572908009
 31
0.0
 11
195.8562285260499
 21
15.34640572908009
 31
0.0
 11
195.9406948631807
 21
15.34640572908009
 31
0.0
 11
195.9734471163539
 21
15.34640572908009
 31
0.0
 11
195.9734471163539
 21
15.31924873038897
 31
0.0
 11
195.9734471163539
 21
15.25950333326849
 31
0.0
 11
195.9734471163539
 21
15.19975793614801
 31
0.0
 11
195.9734471163539
 21
15.17260093745689
 31
0.0
 11
195.9406948631807
 21
15.17260093745689
 31
0.0
 11
195.85622852605
 21
15.17260093745689
 31
0.0
 11
195.7407337385446
 21
15.17260093745689
 31
0.0
 11
195.6148961342477
 21
15.17260093745689
 31
0.0
 11
195.4994013467423
 21
15.17260093745689
 31
0.0
 11
195.4149350096116
 21
15.17260093745689
 31
0.0
 11
195.3821827564384
 21
15.17260093745689
 31
0.0
 11
195.3821827564384
 21
15.14016305607611
 31
0.0
 11
195.3821827564384
 21
15.05211737804257
 31
0.0
 11
195.3821827564384
 21
14.92236585251944
 31
0.0
 11
195.3821827564384
 21
14.76481042866994
 31
0.0
 11
195.3821827564384
 21
14.59335305565724
 31
0.0
 11
195.3821827564384
 21
14.42189568264455
 31
0.0
 11
195.3821827564384
 21
14.26434025879505
 31
0.0
 11
195.3821827564384
 21
14.13458873327193
 31
0.0
 11
195.3821827564384
 21
14.04654305523838
 31
0.0
 11
195.3821827564384
 21
14.0141051738576
 31
0.0
  0
SPLINE
  5
B6
102
{ACAD_REACTORS
330
D3
102
}
330
48
100
AcDbEntity
  8
_U_30EC_U_30A4_U_30E4_U_30FC_1
  6
Continuous
 62
     2
100
AcDbSpline
210
0.0
220
0.0
230
1.0
 70
     8
 71
     3
 72
    62
 73
    58
 74
    56
 42
0.000000001
 43
0.0000000001
 44
0.00000001
 40
0.0
 40
0.0
 40
0.0
 40
0.0
 40
0.0598250028308485
 40
0.2024846486897331
 40
0.3727558389221031
 40
0.515415484793607
 40
0.5752404975785339
 40
0.9332326775487201
 40
1.290451762839478
 40
1.602077253145908
 40
1.699931634112189
 40
1.79935975642508
 40
2.270120149657208
 40
2.804661928461599
 40
2.882342287383312
 40
3.076543185719168
 40
3.329004354835635
 40
3.581465524568467
 40
3.775666424543753
 40
3.853346784558375
 40
3.899120679595149
 40
3.984129341792175
 40
4.029903236817552
 40
4.105797496059705
 40
4.295533144152659
 40
4.542189486611895
 40
4.788845828875835
 40
4.978581476410214
 40
5.054475735244455
 40
5.621734664339441
 40
6.130867242037389
 40
6.225249780948681
 40
6.318913039727388
 40
6.663579954559008
 40
7.047498900224888
 40
7.435230791575806
 40
7.498943906668218
 40
7.650875181210155
 40
7.832212509001637
 40
7.984143783697023
 40
8.04785689890315
 40
8.091554632732667
 40
8.172707566964345
 40
8.216405300768075
 40
8.289021782160932
 40
8.462184160757277
 40
8.668861838005386
 40
8.84202421526392
 40
8.914640695475116
 40
8.98988158086131
 40
9.155411528827194
 40
9.320941477743952
 40
9.396182352487195
 40
9.454709011143741
 40
9.583467660170676
 40
9.712226309012955
 40
9.770752957989409
 40
9.770752957989409
 40
9.770752957989409
 40
9.770752957989409
 10
187.1521871691833
 20
14.93980288195949
 30
0.0
 10
187.1322348171623
 20
14.93980875568671
 30
0.0
 10
187.0647037716466
 20
14.93982863806156
 30
0.0
 10
186.9410612161788
 20
14.93949362520325
 30
0.0
 10
186.7863180150056
 20
14.9410767375051
 30
0.0
 10
186.669734948248
 20
14.93686078860495
 30
0.0
 10
186.4550942634241
 20
14.95215205331625
 30
0.0
 10
186.8518948407228
 20
14.59198721286192
 30
0.0
 10
186.8945656069267
 20
14.37510503397164
 30
0.0
 10
187.3189162146612
 20
14.19325062511452
 30
0.0
 10
187.1439821496075
 20
14.08985196568072
 30
0.0
 10
187.0194523925084
 20
13.87831523212721
 30
0.0
 10
186.7666277235943
 20
14.34806081001554
 30
0.0
 10
186.4797602893627
 20
14.99511516984518
 30
0.0
 10
186.4906335926662
 20
14.68782672154693
 30
0.0
 10
186.488289277796
 20
14.52288616971777
 30
0.0
 10
186.4861096126411
 20
14.28879670711691
 30
0.0
 10
186.4980774396348
 20
14.04498072421781
 30
0.0
 10
186.4687984740631
 20
13.89855796860981
 30
0.0
 10
186.511452262547
 20
13.75113490174534
 30
0.0
 10
186.423981400564
 20
13.76685797306217
 30
0.0
 10
186.3768527606745
 20
13.76694303543452
 30
0.0
 10
186.2898973207712
 20
13.75109425482905
 30
0.0
 10
186.3313474021722
 20
13.89527771422758
 30
0.0
 10
186.3029875004286
 20
14.03855052698452
 30
0.0
 10
186.31459737753
 20
14.2767494736526
 30
0.0
 10
186.3124175648272
 20
14.50517235240341
 30
0.0
 10
186.3103111127993
 20
14.66705729375989
 30
0.0
 10
186.3208035438323
 20
14.98153709333745
 30
0.0
 10
186.0128963252893
 20
14.29229470872437
 30
0.0
 10
185.7055258267456
 20
13.8147675024305
 30
0.0
 10
185.5851367066275
 20
14.03741112637429
 30
0.0
 10
185.4074607910721
 20
14.15011034955557
 30
0.0
 10
185.8853326362895
 20
14.32548143465462
 30
0.0
 10
185.9353959057208
 20
14.56091929252027
 30
0.0
 10
186.3583799621718
 20
14.95322989344606
 30
0.0
 10
186.127675427354
 20
14.93655307029065
 30
0.0
 10
186.0049685859341
 20
14.94269518948769
 30
0.0
 10
185.8325483095662
 20
14.93312822699573
 30
0.0
 10
185.721322469445
 20
14.95448818489665
 30
0.0
 10
185.6025779627449
 20
14.92136265357419
 30
0.0
 10
185.6183169706686
 20
15.00203900606884
 30
0.0
 10
185.6178550933763
 20
15.04645414290855
 30
0.0
 10
185.6027881889932
 20
15.12967081778535
 30
0.0
 10
185.7372380935443
 20
15.09062651983886
 30
0.0
 10
185.8619755545747
 20
15.11739729328425
 30
0.0
 10
186.0628755237279
 20
15.10063949044055
 30
0.0
 10
186.1921540949354
 20
15.12204225913007
 30
0.0
 10
186.3328419928294
 20
15.08868778853423
 30
0.0
 10
186.2980927452615
 20
15.22651875785069
 30
0.0
 10
186.3222185666713
 20
15.3496325734948
 30
0.0
 10
186.2967086182392
 20
15.47024055670333
 30
0.0
 10
186.3333251146685
 20
15.60539865141491
 30
0.0
 10
186.2211417027769
 20
15.58094545781887
 30
0.0
 10
186.1280356457136
 20
15.59307749842018
 30
0.0
 10
186.0191547579819
 20
15.58957630069989
 30
0.0
 10
185.9569697640964
 20
15.58981755951599
 30
0.0
 10
185.9375369557246
 20
15.5898929512414
 30
0.0
 11
187.1521871691833
 21
14.93980288195949
 31
0.0
 11
187.0923621563982
 21
14.93980288195949
 31
0.0
 11
186.949702510526
 21
14.93980288195949
 31
0.0
 11
186.7794313202913
 21
14.93980288195949
 31
0.0
 11
186.6367716744191
 21
14.93980288195949
 31
0.0
 11
186.576946661634
 21
14.93980288195949
 31
0.0
 11
186.7679960754842
 21
14.6370512796689
 31
0.0
 11
186.994127278563
 21
14.36051890576685
 31
0.0
 11
187.2244526173372
 21
14.1506125349346
 31
0.0
 11
187.1521596330705
 21
14.08466403668715
 31
0.0
 11
187.0879364402644
 21
14.0087605905256
 31
0.0
 11
186.7732818215558
 21
14.35891458349365
 31
0.0
 11
186.4886640249977
 21
14.811382951436
 31
0.0
 11
186.4886640249977
 21
14.73370259137312
 31
0.0
 11
186.4886640249977
 21
14.53950169121591
 31
0.0
 11
186.4886640249977
 21
14.28704052101154
 31
0.0
 11
186.4886640249977
 21
14.03457935080718
 31
0.0
 11
186.4886640249977
 21
13.84037845064997
 31
0.0
 11
186.4886640249977
 21
13.76269809058709
 31
0.0
 11
186.4428901295606
 21
13.76269809058709
 31
0.0
 11
186.3578814666058
 21
13.76269809058709
 31
0.0
 11
186.3121075711687
 21
13.76269809058709
 31
0.0
 11
186.3121075711687
 21
13.83859234982737
 31
0.0
 11
186.3121075711687
 21
14.02832799792808
 31
0.0
 11
186.3121075711687
 21
14.27498434045899
 31
0.0
 11
186.3121075711687
 21
14.5216406829899
 31
0.0
 11
186.3121075711687
 21
14.71137633109061
 31
0.0
 11
186.3121075711687
 21
14.78727059033089
 31
0.0
 11
185.9987626399266
 21
14.31440946197691
 31
0.0
 11
185.6352328662149
 21
13.9579517710938
 31
0.0
 11
185.5773927461628
 21
14.03253450545024
 31
0.0
 11
185.5094852305341
 21
14.0970432293924
 31
0.0
 11
185.7750721898319
 21
14.31672219795887
 31
0.0
 11
186.0233764972061
 21
14.60953395971696
 31
0.0
 11
186.226498280526
 21
14.93980288195949
 31
0.0
 11
186.1627851652721
 21
14.93980288195949
 31
0.0
 11
186.0108538904359
 21
14.93980288195949
 31
0.0
 11
185.8295165624056
 21
14.93980288195949
 31
0.0
 11
185.6775852875694
 21
14.93980288195949
 31
0.0
 11
185.6138721723155
 21
14.93980288195949
 31
0.0
 11
185.6138721723155
 21
14.98350061600208
 31
0.0
 11
185.6138721723155
 21
15.06465355065261
 31
0.0
 11
185.6138721723155
 21
15.1083512846952
 31
0.0
 11
185.6864886537962
 21
15.1083512846952
 31
0.0
 11
185.8596510327118
 21
15.1083512846952
 31
0.0
 11
186.0663287107724
 21
15.1083512846952
 31
0.0
 11
186.239491089688
 21
15.1083512846952
 31
0.0
 11
186.3121075711687
 21
15.1083512846952
 31
0.0
 11
186.3121075711687
 21
15.18359217009304
 31
0.0
 11
186.3121075711687
 21
15.3491221179683
 31
0.0
 11
186.3121075711687
 21
15.51465206584355
 31
0.0
 11
186.3121075711687
 21
15.5898929512414
 31
0.0
 11
186.2535809125055
 21
15.5898929512414
 31
0.0
 11
186.1248222634467
 21
15.5898929512414
 31
0.0
 11
185.9960636143877
 21
15.5898929512414
 31
0.0
 11
185.9375369557246
 21
15.5898929512414
 31
0.0
  0
SPLINE
  5
B7
102
{ACAD_REACTORS
330
D3
102
}
330
48
100
AcDbEntity
  8
_U_30EC_U_30A4_U_30E4_U_30FC_1
  6
Continuous
 62
     2
100
AcDbSpline
210
0.0
220
0.0
230
1.0
 70
     8
 71
     3
 72
    70
 73
    66
 74
    64
 42
0.000000001
 43
0.0000000001
 44
0.00000001
 40
0.0
 40
0.0
 40
0.0
 40
0.0
 40
0.0241731073021472
 40
0.0846058988986729
 40
0.1631685280352999
 40
0.2417311571788903
 40
0.3021639488291898
 40
0.3263370654894688
 40
0.3533118254248082
 40
0.4228783438921436
 40
0.5179999095312958
 40
0.6216398239465853
 40
0.7167613891499635
 40
0.786327906964997
 40
0.8133026791761978
 40
0.8372943998771821
 40
0.8945054261373024
 40
0.9627895541963093
 40
1.020000580349177
 40
1.043992300975275
 40
1.071934345523029
 40
1.113121768772991
 40
1.145225199332315
 40
1.225483775412861
 40
1.32981992377158
 40
1.434156071994477
 40
1.514414647795908
 40
1.546518078208517
 40
1.578974764260319
 40
1.662678849314257
 40
1.777131373668506
 40
1.901833377474897
 40
2.016285900500687
 40
2.099989982528054
 40
2.132446666570412
 40
2.158782354486135
 40
2.216720867907914
 40
2.274659381334332
 40
2.300995069256263
 40
2.333451754066235
 40
2.417155836543916
 40
2.531608358985355
 40
2.65631036228385
 40
2.770762886388983
 40
2.854466971340148
 40
2.886923657363954
 40
2.913597976833385
 40
2.982389642875178
 40
3.07645171694703
 40
3.178937260458628
 40
3.272999334740019
 40
3.341791001059231
 40
3.368465320663538
 40
3.39697608073876
 40
3.472140811845967
 40
3.578408190308657
 40
3.700226892456065
 40
3.822045594634282
 40
3.92831297325636
 40
4.003477705314758
 40
4.031988456866824
 40
4.058324144797629
 40
4.116262658236803
 40
4.174201171400615
 40
4.200536849608554
 40
4.200536849608554
 40
4.200536849608554
 40
4.200536849608554
 10
185.985770496161
 20
15.75844135397699
 30
0.0
 10
185.993825954468
 20
15.7584435981168
 30
0.0
 10
186.0220200663241
 20
15.75845146032791
 30
0.0
 10
186.0765534803674
 20
15.75830754828365
 30
0.0
 10
186.1482891808604
 20
15.75909120499892
 30
0.0
 10
186.2236240137062
 20
15.75627570463805
 30
0.0
 10
186.2713052366439
 20
15.76298403400951
 30
0.0
 10
186.3195071245616
 20
15.75197563692426
 30
0.0
 10
186.3062571799873
 20
15.80546402997028
 30
0.0
 10
186.3151093964538
 20
15.86049583543087
 30
0.0
 10
186.3108698036285
 20
15.95419908726107
 30
0.0
 10
186.313348348128
 20
16.04959482218532
 30
0.0
 10
186.3090938706059
 20
16.14356821983388
 30
0.0
 10
186.3179818665846
 20
16.19795062438016
 30
0.0
 10
186.3046977409945
 20
16.25233997691464
 30
0.0
 10
186.3514119277109
 20
16.2384221633536
 30
0.0
 10
186.3943254545737
 20
16.24103877374046
 30
0.0
 10
186.4605443456686
 20
16.23648422450754
 30
0.0
 10
186.5013342271799
 20
16.22778162134162
 30
0.0
 10
186.5525145690819
 20
16.23531799890191
 30
0.0
 10
186.5253720487201
 20
16.19349970223288
 30
0.0
 10
186.4803096055708
 20
16.20284992072591
 30
0.0
 10
186.4942065045051
 20
16.13841207371836
 30
0.0
 10
186.4858414431654
 20
16.07378219627395
 30
0.0
 10
186.4903632178399
 20
15.97529141193884
 30
0.0
 10
186.4854741311167
 20
15.87595932842565
 30
0.0
 10
186.4950258992082
 20
15.81293115552963
 30
0.0
 10
186.4799761455201
 20
15.74964011499782
 30
0.0
 10
186.5449159457209
 20
15.76515072944263
 30
0.0
 10
186.6116246399498
 20
15.75499387697806
 30
0.0
 10
186.7241435470828
 20
15.75988800099361
 30
0.0
 10
186.8390235448954
 20
15.75691204732777
 30
0.0
 10
186.9519871999748
 20
15.76221664184985
 30
0.0
 10
187.0176267597678
 20
15.75107306472082
 30
0.0
 10
187.0816276691054
 20
15.76744532319852
 30
0.0
 10
187.070314288919
 20
15.71761689905269
 30
0.0
 10
187.0775339871511
 20
15.67416715212118
 30
0.0
 10
187.070314261127
 20
15.6307174558744
 30
0.0
 10
187.0816277175995
 20
15.58088895196873
 30
0.0
 10
187.0176263598972
 20
15.59726166091358
 30
0.0
 10
186.951992124046
 20
15.58611271661584
 30
0.0
 10
186.8389974317332
 20
15.5914485720685
 30
0.0
 10
186.7242456548644
 20
15.58834345663818
 30
0.0
 10
186.6113183686862
 20
15.59364894682584
 30
0.0
 10
186.5455220903585
 20
15.58257300019589
 30
0.0
 10
186.4816097975359
 20
15.59887597847614
 30
0.0
 10
186.4936015165127
 20
15.54423524395738
 30
0.0
 10
186.4862104613006
 20
15.48854295047839
 30
0.0
 10
186.4892684841984
 20
15.39649689140569
 30
0.0
 10
186.4893422785684
 20
15.30179109873101
 30
0.0
 10
186.4860313578361
 20
15.20952782902267
 30
0.0
 10
186.4939505989904
 20
15.15435768736141
 30
0.0
 10
186.4815076611618
 20
15.10058169100139
 30
0.0
 10
186.5389116551633
 20
15.11453768862784
 30
0.0
 10
186.5994708140383
 20
15.10511457884229
 30
0.0
 10
186.7048680855081
 20
15.10942885928707
 30
0.0
 10
186.8204294070623
 20
15.10835504612034
 30
0.0
 10
186.9359688877797
 20
15.10725965900998
 30
0.0
 10
187.0414181130841
 20
15.11162525770635
 30
0.0
 10
187.1018680471804
 20
15.10209426030674
 30
0.0
 10
187.159283773911
 20
15.11617289606382
 30
0.0
 10
187.1477773876709
 20
15.06707153265685
 30
0.0
 10
187.1537566781749
 20
15.0256465801865
 30
0.0
 10
187.1520311050801
 20
14.97651677966695
 30
0.0
 10
187.1521500122971
 20
14.94854428447607
 30
0.0
 10
187.1521871691833
 20
14.93980288195949
 30
0.0
 11
185.985770496161
 21
15.75844135397699
 31
0.0
 11
186.0099436128282
 21
15.75844135397699
 31
0.0
 11
186.0703764044963
 21
15.75844135397699
 31
0.0
 11
186.1489390336649
 21
15.75844135397699
 31
0.0
 11
186.2275016628334
 21
15.75844135397699
 31
0.0
 11
186.2879344545015
 21
15.75844135397699
 31
0.0
 11
186.3121075711687
 21
15.75844135397699
 31
0.0
 11
186.3121075711687
 21
15.78541612620057
 31
0.0
 11
186.3121075711687
 21
15.85498264404034
 31
0.0
 11
186.3121075711687
 21
15.95010420924983
 31
0.0
 11
186.3121075711687
 21
16.05374412358256
 31
0.0
 11
186.3121075711687
 21
16.14886568879204
 31
0.0
 11
186.3121075711687
 21
16.21843220663181
 31
0.0
 11
186.3121075711687
 21
16.2454069788554
 31
0.0
 11
186.3360407604892
 21
16.24373213107803
 31
0.0
 11
186.3931122119458
 21
16.23973826330123
 31
0.0
 11
186.4612297507811
 21
16.23497138885795
 31
0.0
 11
186.5183012022377
 21
16.23097752108116
 31
0.0
 11
186.5422343915582
 21
16.22930267330379
 31
0.0
 11
186.527497273123
 21
16.20556293372639
 31
0.0
 11
186.4886640249977
 21
16.1918376733131
 31
0.0
 11
186.4886640249977
 21
16.15973424225117
 31
0.0
 11
186.4886640249977
 21
16.07947566459633
 31
0.0
 11
186.4886640249977
 21
15.97513951364504
 31
0.0
 11
186.4886640249977
 21
15.87080336269376
 31
0.0
 11
186.4886640249977
 21
15.79054478503892
 31
0.0
 11
186.4886640249977
 21
15.75844135397699
 31
0.0
 11
186.5211207110825
 21
15.75844135397699
 31
0.0
 11
186.6048247962486
 21
15.75844135397699
 31
0.0
 11
186.7192773208635
 21
15.75844135397699
 31
0.0
 11
186.8439793252947
 21
15.75844135397699
 31
0.0
 11
186.9584318499095
 21
15.75844135397699
 31
0.0
 11
187.0421359350757
 21
15.75844135397699
 31
0.0
 11
187.0745926211605
 21
15.75844135397699
 31
0.0
 11
187.0745926211605
 21
15.73210566604955
 31
0.0
 11
187.0745926211605
 21
15.6741671526092
 31
0.0
 11
187.0745926211605
 21
15.61622863916883
 31
0.0
 11
187.0745926211605
 21
15.5898929512414
 31
0.0
 11
187.0421359350757
 21
15.5898929512414
 31
0.0
 11
186.9584318499095
 21
15.5898929512414
 31
0.0
 11
186.8439793252947
 21
15.5898929512414
 31
0.0
 11
186.7192773208635
 21
15.5898929512414
 31
0.0
 11
186.6048247962486
 21
15.5898929512414
 31
0.0
 11
186.5211207110825
 21
15.5898929512414
 31
0.0
 11
186.4886640249977
 21
15.5898929512414
 31
0.0
 11
186.4886640249977
 21
15.56321863152018
 31
0.0
 11
186.4886640249977
 21
15.49442696487072
 31
0.0
 11
186.4886640249977
 21
15.40036489006432
 31
0.0
 11
186.4886640249977
 21
15.29787934587227
 31
0.0
 11
186.4886640249977
 21
15.20381727106587
 31
0.0
 11
186.4886640249977
 21
15.13502560441642
 31
0.0
 11
186.4886640249977
 21
15.1083512846952
 31
0.0
 11
186.5171747850994
 21
15.1083512846952
 31
0.0
 11
186.5923395162767
 21
15.1083512846952
 31
0.0
 11
186.6986068948377
 21
15.1083512846952
 31
0.0
 11
186.8204255970905
 21
15.1083512846952
 31
0.0
 11
186.9422442993433
 21
15.1083512846952
 31
0.0
 11
187.0485116779043
 21
15.1083512846952
 31
0.0
 11
187.1236764090816
 21
15.1083512846952
 31
0.0
 11
187.1521871691833
 21
15.1083512846952
 31
0.0
 11
187.1521871691833
 21
15.08201559676774
 31
0.0
 11
187.1521871691833
 21
15.02407708332735
 31
0.0
 11
187.1521871691833
 21
14.96613856988695
 31
0.0
 11
187.1521871691833
 21
14.93980288195949
 31
0.0
  0
SPLINE
  5
B8
102
{ACAD_REACTORS
330
D3
102
}
330
48
100
AcDbEntity
  8
_U_30EC_U_30A4_U_30E4_U_30FC_1
  6
Continuous
 62
     2
100
AcDbSpline
210
0.0
220
0.0
230
1.0
 70
     8
 71
     3
 72
    24
 73
    20
 74
    18
 42
0.000000001
 43
0.0000000001
 44
0.00000001
 40
0.0
 40
0.0
 40
0.0
 40
0.0
 40
0.2211075008753792
 40
0.4273218586246031
 40
0.5080174679239905
 40
0.5914835907870326
 40
0.8143265690193185
 40
1.054651302686614
 40
1.295452694023189
 40
1.518109231328797
 40
1.540864321905383
 40
1.595126460622641
 40
1.65989094789595
 40
1.714153085187249
 40
1.736908174961547
 40
1.764951100735226
 40
1.801562291220781
 40
1.953914424543522
 40
2.126104167379622
 40
2.126104167379622
 40
2.126104167379622
 40
2.126104167379622
 10
185.9375369556889
 20
15.5898929511302
 30
0.0
 10
185.9112579081812
 20
15.53097628234377
 30
0.0
 10
185.8604698894426
 20
15.41711139679257
 30
0.0
 10
185.8131784839111
 20
15.14441958233109
 30
0.0
 10
185.7043482802618
 20
15.24445482575453
 30
0.0
 10
185.5514800279638
 20
15.27118593367336
 30
0.0
 10
185.7686155181201
 20
15.4851813501763
 30
0.0
 10
185.7838483674381
 20
15.7033211778249
 30
0.0
 10
185.8906889492002
 20
15.88451579066424
 30
0.0
 10
185.8305380947077
 20
16.16913226311397
 30
0.0
 10
185.9334317395403
 20
16.14114089222447
 30
0.0
 10
185.977993346815
 20
16.13243251602298
 30
0.0
 10
186.0380842395397
 20
16.12139654183357
 30
0.0
 10
186.0756619587438
 20
16.1076752305556
 30
0.0
 10
186.1252466928606
 20
16.10756076160228
 30
0.0
 10
186.0930158919326
 20
16.07306592398622
 30
0.0
 10
186.0171802221881
 20
16.08404104537972
 30
0.0
 10
186.0429447159693
 20
15.89858969582446
 30
0.0
 10
186.005589676385
 20
15.80702313549583
 30
0.0
 10
185.985770496161
 20
15.75844135397699
 30
0.0
 11
185.9375369556889
 21
15.5898929511302
 31
0.0
 11
185.8616471328552
 21
15.38221708318562
 31
0.0
 11
185.7717402238433
 21
15.19663392356189
 31
0.0
 11
185.701149392311
 21
15.2357327256355
 31
0.0
 11
185.6245525192652
 21
15.2688916318772
 31
0.0
 11
185.7214026947457
 21
15.4695880120354
 31
0.0
 11
185.7994641467472
 21
15.69688163177026
 31
0.0
 11
185.8589716929721
 21
15.93021436608691
 31
0.0
 11
185.9001601511227
 21
16.1490280899905
 31
0.0
 11
185.9224183822215
 21
16.14429889221391
 31
0.0
 11
185.975495702534
 21
16.13302157443898
 31
0.0
 11
186.0388460525845
 21
16.11956154999793
 31
0.0
 11
186.091923372897
 21
16.10828423222299
 31
0.0
 11
186.1141816039958
 21
16.1035550344464
 31
0.0
 11
186.0964097157461
 21
16.08186250841009
 31
0.0
 11
186.0606122998072
 21
16.0741862844537
 31
0.0
 11
186.028195330148
 21
15.92532288171311
 31
0.0
 11
185.985770496161
 21
15.75844135397699
 31
0.0
  0
LWPOLYLINE
  5
B9
102
{ACAD_REACTORS
330
D4
102
}
330
48
100
AcDbEntity
  8
_U_30EC_U_30A4_U_30E4_U_30FC_1
  6
Continuous
 62
     2
100
AcDbPolyline
 90
        5
 70
     1
 43
0.0
 10
191.1602971697032
 20
15.3972233679563
 10
192.4578138032672
 20
15.3972233679563
 10
192.4578138032672
 20
15.22875434022059
 10
191.1602971697032
 20
15.22875434022059
 10
191.1602971697032
 20
15.3972233679563
  0
MTEXT
  5
BB
330
48
100
AcDbEntity
  8
1
 62
   250
100
AcDbMText
 10
25.0
 20
5.0
 30
0.0
 40
3.5
 41
0.0
 71
     4
 72
     1
  1
備考欄の文字列 原点位置=4
  7
CONVERTER_11
 73
     1
 44
0.54545454545455
  0
MTEXT
  5
BC
330
48
100
AcDbEntity
  8
1
 62
     2
100
AcDbMText
 10
89.49999999999997
 20
24.0
 30
0.0
 40
3.5
 41
0.0
 71
     5
 72
     1
  1
尺度
  7
CONVERTER_11
 73
     1
 44
0.54545454545455
  0
MTEXT
  5
BD
330
48
100
AcDbEntity
  8
1
 62
     2
100
AcDbMText
 10
135.5
 20
25.00000000000001
 30
0.0
 40
3.0
 41
0.0
 71
     5
 72
     1
  1
製図
  7
CONVERTER_11
 73
     1
 44
0.59090909090909
  0
MTEXT
  5
BE
330
48
100
AcDbEntity
  8
1
 62
     2
100
AcDbMText
 10
152.5
 20
25.00000000000001
 30
0.0
 40
3.0
 41
0.0
 71
     5
 72
     1
  1
設計
  7
CONVERTER_11
 73
     1
 44
0.59090909090909
  0
MTEXT
  5
BF
330
48
100
AcDbEntity
  8
1
 62
     2
100
AcDbMText
 10
118.5
 20
25.00000000000001
 30
0.0
 40
3.0
 41
0.0
 71
     5
 72
     1
  1
検図
  7
CONVERTER_11
 73
     1
 44
0.59090909090909
  0
MTEXT
  5
C0
330
48
100
AcDbEntity
  8
1
 62
     2
100
AcDbMText
 10
175.0
 20
23.5
 30
0.0
 40
3.5
 41
0.0
 71
     5
 72
     1
  1
第三角法
  7
CONVERTER_11
 73
     1
 44
0.54545454545455
  0
MTEXT
  5
C1
330
48
100
AcDbEntity
  8
1
 62
     2
100
AcDbMText
 10
101.5
 20
25.00000000000001
 30
0.0
 40
3.0
 41
0.0
 71
     5
 72
     1
  1
承認
  7
CONVERTER_11
 73
     1
 44
0.59090909090909
  0
MTEXT
  5
C2
330
48
100
AcDbEntity
  8
1
 62
     2
100
AcDbMText
 10
29.0
 20
14.25
 30
0.0
 40
3.5
 41
0.0
 71
     5
 72
     1
  1
品番
  7
CONVERTER_11
 73
     1
 44
0.72727272727273
  0
MTEXT
  5
C3
330
48
100
AcDbEntity
  8
1
 62
     2
100
AcDbMText
 10
29.0
 20
22.75
 30
0.0
 40
3.5
 41
0.0
 71
     5
 72
     1
  1
品名
  7
CONVERTER_11
 73
     1
 44
0.72727272727273
  0
MTEXT
  5
C4
330
48
100
AcDbEntity
  8
1
 62
     2
100
AcDbMText
 10
29.0
 20
34.0
 30
0.0
 40
3.5
 41
0.0
 71
     5
 72
     1
  1
備考
  7
CONVERTER_11
 73
     1
 44
0.45454545454545
  0
MTEXT
  5
C5
330
48
100
AcDbEntity
  8
1
 62
     2
100
AcDbMText
 10
32.49999999999996
 20
282.0000000000003
 30
0.0
 40
5.0
 41
0.0
 71
     5
 72
     1
  1
図番
  7
CONVERTER_11
 73
     1
 44
0.45454545454545
  0
HATCH
  5
C6
330
48
100
AcDbEntity
  8
1
  6
Continuous
 62
     2
100
AcDbHatch
 10
0.0
 20
0.0
 30
0.0
210
0.0
220
0.0
230
1.0
  2
CUSTOM0
 70
     0
 71
     1
 91
        1
 92
        1
 93
        1
 72
     4
 94
        3
 73
     0
 74
     0
 95
       99
 96
       95
 40
0.0
 40
0.0
 40
0.0
 40
0.0
 40
0.079641717227247
 40
0.1621768542355659
 40
0.2486489160957121
 40
0.34049696685241
 40
0.4381912511164731
 40
0.5434463660244495
 40
0.6518115192846836
 40
0.7530190937887188
 40
0.8492196919725312
 40
0.9419290312998512
 40
1.034249663570018
 40
1.129078600620194
 40
1.226697027573252
 40
1.327220425421708
 40
1.470572134938002
 40
1.595489863371193
 40
1.719934125348435
 40
1.850576620127427
 40
1.989059629987346
 40
2.134139054226962
 40
2.280698007207222
 40
2.424529739039439
 40
2.565929576985826
 40
2.708239260773589
 40
2.861717887443632
 40
3.045168540347338
 40
3.183798301138593
 40
3.314813961455469
 40
3.442083470447322
 40
3.569912708372965
 40
3.702177512509366
 40
3.842307559659623
 40
3.992872223246017
 40
4.156750662218319
 40
4.310981861107539
 40
4.445859909322578
 40
4.572393936131575
 40
4.701656719782033
 40
4.76827908600854
 40
4.835960697898466
 40
4.91278891872942
 40
5.006285208481618
 40
5.026909478751666
 40
5.047533749021174
 40
5.101808031471229
 40
5.162325165538552
 40
5.226919745995867
 40
5.294231806596722
 40
5.364544852554839
 40
5.438319055467843
 40
5.517877651324176
 40
5.607647714861574
 40
5.70044964254439
 40
5.788251142364058
 40
5.872714706039733
 40
5.955167292575313
 40
6.037192395190353
 40
6.120669181469032
 40
6.206848616686301
 40
6.296680855416766
 40
6.442558392872612
 40
6.568190371608274
 40
6.69290456736034
 40
6.824220446557181
 40
6.963121850329353
 40
7.107843738851107
 40
7.253431663907241
 40
7.395187468036714
 40
7.533140753237701
 40
7.670550457175261
 40
7.816236511769254
 40
7.987691657359205
 40
8.142277421969249
 40
8.293662615414988
 40
8.442962460879256
 40
8.591598316185236
 40
8.743678992361751
 40
8.903725323699108
 40
9.076307008890483
 40
9.26557860468051
 40
9.459203795360743
 40
9.617619810273556
 40
9.753609671361902
 40
9.874873300004024
 40
9.9545201849777
 40
10.02416413719232
 40
10.09769764405434
 40
10.18909955924964
 40
10.20974586420125
 40
10.23039218263371
 40
10.30057101881258
 40
10.3763201298754
 40
10.3763201298754
 40
10.3763201298754
 40
10.3763201298754
 10
170.1465954835851
 20
14.1379566321599
 10
170.1632217851219
 20
14.11720608845311
 10
170.1970784206578
 20
14.07495111711906
 10
170.2599822541035
 20
14.02029811392069
 10
170.3332500940393
 20
13.97299025121055
 10
170.4175969238636
 20
13.93527231437936
 10
170.513224061546
 20
13.91040619731953
 10
170.6171853775346
 20
13.90309559345931
 10
170.7224020220405
 20
13.91142322794056
 10
170.8206626371335
 20
13.94149179651523
 10
170.9058986427548
 20
13.98848822971879
 10
170.9779220206104
 20
14.04952991250852
 10
171.0350917709096
 20
14.12412969578587
 10
171.0767868747441
 20
14.21002464660168
 10
171.1026952846291
 20
14.30485850432212
 10
171.1118037332653
 20
14.41854979038366
 10
171.0986864796487
 20
14.54332587770775
 10
171.0325330334415
 20
14.66014719171899
 10
170.9369370919569
 20
14.74512539577374
 10
170.8249681022368
 20
14.8141668445915
 10
170.699365958327
 20
14.87204142045893
 10
170.5656691620856
 20
14.92373723284338
 10
170.4313122818831
 20
14.97899092397179
 10
170.3051983986877
 20
15.04939770641649
 10
170.1926579987535
 20
15.13785540731248
 10
170.0969963064458
 20
15.2498106786847
 10
170.0334157151825
 20
15.3994991010138
 10
170.0200706505017
 20
15.55932794385137
 10
170.0320510987448
 20
15.71048405306842
 10
170.071229892884
 20
15.83809244591539
 10
170.135498775091
 20
15.95080874030846
 10
170.223820499974
 20
16.04648609268686
 10
170.3338091207628
 20
16.12354214985754
 10
170.4632284401265
 20
16.1815139693628
 10
170.6111838967794
 20
16.21739177588819
 10
170.7682069455486
 20
16.22746719050561
 10
170.917494046643
 20
16.21863637762588
 10
171.059625361417
 20
16.19074899340357
 10
171.1595922609625
 20
16.13413314701135
 10
171.3125074736186
 20
16.08674602105513
 10
171.2455131717169
 20
16.00197553001186
 10
171.2296479120269
 20
15.93438901873485
 10
171.1978750531298
 20
15.86926092793192
 10
171.215020220957
 20
15.76723453256956
 10
171.1666427208233
 20
15.77493211681904
 10
171.1315789440766
 20
15.76806771724811
 10
171.1296697985718
 20
15.83263831158197
 10
171.0985692931989
 20
15.87825639621395
 10
171.0664551628456
 20
15.93561036628455
 10
171.0208038475168
 20
15.98540462692556
 10
170.9658508218387
 20
16.0299481371899
 10
170.9010841173008
 20
16.0676398883655
 10
170.8232377310597
 20
16.0928337579135
 10
170.7355160553353
 20
16.09931230998108
 10
170.6452903277807
 20
16.09235709285608
 10
170.5594594694065
 20
16.06909190460925
 10
170.4828343638597
 20
16.03131644107544
 10
170.4165265636201
 20
15.98051641089575
 10
170.3622560536964
 20
15.91731143407208
 10
170.322492534546
 20
15.84276455710367
 10
170.2976775510588
 20
15.75917313997766
 10
170.2892124262869
 20
15.65192948382283
 10
170.3019697987104
 20
15.52965457267555
 10
170.3681548409274
 20
15.41149724291215
 10
170.4640977399833
 20
15.32606325709527
 10
170.5757914963182
 20
15.25583362306717
 10
170.7010863668703
 20
15.19659162305301
 10
170.8349823941447
 20
15.14616708086129
 10
170.968993033315
 20
15.09322516984381
 10
171.0950885316916
 20
15.0275017062518
 10
171.2076216638417
 20
14.94480352537316
 10
171.3031370284234
 20
14.83996006310077
 10
171.3672706486963
 20
14.69937117251567
 10
171.3811103725279
 20
14.54065409451592
 10
171.3673954712229
 20
14.38153155217874
 10
171.3244739153985
 20
14.23483828819211
 10
171.2545906329065
 20
14.10119796587145
 10
171.157459221383
 20
13.98532387699291
 10
171.0347806023657
 20
13.89089981770088
 10
170.8874408413168
 20
13.8217927065198
 10
170.7177132497125
 20
13.77953210858855
 10
170.5317404979597
 20
13.76781736230405
 10
170.3528955926184
 20
13.77809486683438
 10
170.1881733753743
 20
13.81966573769151
 10
170.0834410841057
 20
13.88797642883944
 10
169.9350960790367
 20
13.93675219032109
 10
169.9980378194729
 20
14.02976591290842
 10
170.007227443006
 20
14.10296536248279
 10
170.0303711301232
 20
14.16936294501343
 10
170.0034588335317
 20
14.26974809527582
 10
170.0521338956339
 20
14.26234033517379
 10
170.0916530580697
 20
14.26894063620895
 10
170.0996204944701
 20
14.1907870321893
 10
170.1305436967922
 20
14.15600927375853
 10
170.1465954835851
 20
14.1379566321599
 97
        1
330
A8
 75
     1
 76
     2
 52
45.0
 41
0.1
 77
     0
 78
     1
 53
45.0
 43
0.0
 44
0.0
 45
-0.282842712474619
 46
0.0
 79
     0
 98
        1
 10
0.0
 20
0.0
  0
HATCH
  5
C7
330
48
100
AcDbEntity
  8
1
  6
Continuous
 62
     2
100
AcDbHatch
 10
0.0
 20
0.0
 30
0.0
210
0.0
220
0.0
230
1.0
  2
CUSTOM1
 70
     0
 71
     1
 91
        2
 92
        1
 93
        1
 72
     4
 94
        3
 73
     0
 74
     0
 95
       57
 96
       53
 40
0.0
 40
0.0
 40
0.0
 40
0.0
 40
0.0471632082809507
 40
0.0914861054632982
 40
0.1357762519703218
 40
0.1826527001611512
 40
0.2295203288573421
 40
0.273775197222159
 40
0.3181310461543888
 40
0.3652607198399319
 40
0.4571007286314913
 40
0.5671851029165932
 40
0.6894623283868733
 40
0.8181758272546302
 40
0.9510087229274599
 40
1.085852229674158
 40
1.218126164475363
 40
1.343545131142446
 40
1.454537202956946
 40
1.567187607530955
 40
1.680710966642545
 40
1.794226869736853
 40
1.900009184247737
 40
2.004085860448017
 40
2.108162674451848
 40
2.214000150155448
 40
2.496038577352285
 40
2.76235074547942
 40
2.997275353279576
 40
3.185110082137884
 40
3.246407890064054
 40
3.31260755021284
 40
3.378877742711713
 40
3.440140399651595
 40
4.100501696006599
 40
4.754913085563643
 40
5.411331693424035
 40
6.077890432568815
 40
6.110575292671094
 40
6.143260152775874
 40
6.367989363395234
 40
6.610525374951642
 40
6.863389136467405
 40
7.119380025547637
 40
7.376036605091197
 40
7.631164770966386
 40
7.87672242545653
 40
8.104953735856036
 40
8.312916685924423
 40
8.497730294941361
 40
8.651018984313957
 40
8.764738853624694
 40
8.764738853624694
 40
8.764738853624694
 40
8.764738853624694
 10
174.7922649500514
 20
13.81626739612929
 10
174.7766616726931
 20
13.81826231079079
 10
174.7463947960303
 20
13.82213201360301
 10
174.7010994202253
 20
13.82341984967265
 10
174.6559553129349
 20
13.82308683554048
 10
174.6099017123399
 20
13.82314658674222
 10
174.5640496172096
 20
13.82325813649999
 10
174.5183711648165
 20
13.82277833456588
 10
174.4750811541608
 20
13.82461109618723
 10
174.4039947951513
 20
13.80049556814658
 10
174.4057477261442
 20
13.92184693977255
 10
174.3586196370569
 20
14.0072623975123
 10
174.3191478251763
 20
14.12486929345137
 10
174.2706635532646
 20
14.24232752540441
 10
174.2201017402522
 20
14.36405935761508
 10
174.1718634610477
 20
14.49075967862466
 10
174.1135232947595
 20
14.59933687784955
 10
174.0980892667262
 20
14.75620657134417
 10
173.9566586330636
 20
14.72373446548319
 10
173.8508397414903
 20
14.73512888682181
 10
173.7358569725222
 20
14.73392591514613
 10
173.6253142252141
 20
14.73506945347405
 10
173.5176583522783
 20
14.73418350037523
 10
173.4121322529242
 20
14.7341660239052
 10
173.3109192682013
 20
14.72714032472413
 10
173.1266804827753
 20
14.75135859859876
 10
173.1157393685412
 20
14.44741691121885
 10
173.0087691634751
 20
14.22353177253395
 10
172.9098148604347
 20
14.03895314292498
 10
172.9225090524008
 20
13.7953020480421
 10
172.8050091716397
 20
13.825080467532
 10
172.7422055868311
 20
13.82258089509599
 10
172.67858720934
 20
13.82344075102807
 10
172.3946014194076
 20
13.78098039941947
 10
173.0251638499381
 20
14.50081952444785
 10
173.1087645289073
 20
15.01276539435722
 10
173.4929252789339
 20
15.53353743550042
 10
173.4777208288565
 20
16.23519626253211
 10
173.7239265722697
 20
16.22345633081254
 10
173.8256346157561
 20
16.2322500445277
 10
173.8249752035818
 20
15.98059650730344
 10
173.942831715583
 20
15.79818020733963
 10
174.0315515260485
 20
15.55563740662867
 10
174.1322292485259
 20
15.32340030530129
 10
174.2311142712243
 20
15.08674644566915
 10
174.3299676990669
 20
14.8546173917009
 10
174.4256166390927
 20
14.63122222788791
 10
174.5159904573271
 20
14.42272549049313
 10
174.5989944568189
 20
14.23308448529322
 10
174.6726088582799
 20
14.06663106068099
 10
174.7342815895546
 20
13.92917699626097
 10
174.7749458885604
 20
13.84999239430035
 10
174.7922649500514
 20
13.81626739612929
 97
        1
330
A9
 92
       16
 93
        1
 72
     4
 94
        3
 73
     0
 74
     0
 95
       25
 96
       21
 40
0.0
 40
0.0
 40
0.0
 40
0.0
 40
0.0911479969064535
 40
0.1858117896203809
 40
0.2804128399734201
 40
0.3715889190713654
 40
0.4679080494217852
 40
0.5642683809229225
 40
0.66056832226447
 40
0.7569653015810248
 40
0.8561348172522699
 40
1.092615965104288
 40
1.374867658141874
 40
1.611348812011555
 40
1.710518328425211
 40
1.809403163726515
 40
2.04520546329403
 40
2.326646917622067
 40
2.562449217190532
 40
2.661334043833835
 40
2.661334043833835
 40
2.661334043833835
 40
2.661334043833835
 10
173.26837005672
 20
14.8861453819729
 10
173.2987525917924
 20
14.88598079714554
 10
173.3606895889111
 20
14.88564528689922
 10
173.4541356960331
 20
14.88269055452001
 10
173.5475095236357
 20
14.87977752877152
 10
173.6417760753476
 20
14.87894201643416
 10
173.7354964790967
 20
14.87996644658047
 10
173.8352040303205
 20
14.87916977470971
 10
173.9188949546313
 20
14.88921410235218
 10
174.0637996315046
 20
14.86234617674162
 10
173.9396132444802
 20
15.03665530280047
 10
173.8965867286283
 20
15.19651711006088
 10
173.7808922142209
 20
15.45518458550207
 10
173.7017565431258
 20
15.59231052861855
 10
173.6431576621816
 20
15.80937033134071
 10
173.586480393944
 20
15.59266134213421
 10
173.5052809900477
 20
15.45327012438234
 10
173.4063701281489
 20
15.20406969370189
 10
173.325362509426
 20
15.01925830226072
 10
173.2813683325839
 20
14.91650446856114
 10
173.26837005672
 20
14.8861453819729
 97
        1
330
AA
 75
     1
 76
     2
 52
45.0
 41
0.1
 77
     0
 78
     1
 53
45.0
 43
0.0
 44
0.0
 45
-0.282842712474619
 46
0.0
 79
     0
 98
        1
 10
0.0
 20
0.0
  0
HATCH
  5
C8
330
48
100
AcDbEntity
  8
1
  6
Continuous
 62
     2
100
AcDbHatch
 10
0.0
 20
0.0
 30
0.0
210
0.0
220
0.0
230
1.0
  2
CUSTOM2
 70
     0
 71
     1
 91
        1
 92
        1
 93
        1
 72
     4
 94
        3
 73
     0
 74
     0
 95
       95
 96
       91
 40
0.0
 40
0.0
 40
0.0
 40
0.0
 40
0.6550406656911574
 40
1.30808728903191
 40
1.420803739835755
 40
1.566130759770794
 40
1.757067341888441
 40
2.006513545026423
 40
2.087328263121511
 40
2.185328872295626
 40
2.294612454748367
 40
2.408936380534788
 40
2.526802767798542
 40
2.646360524615595
 40
2.76253572397157
 40
2.870057342870133
 40
2.966883448431624
 40
3.050803243518312
 40
3.115818222436594
 40
3.156030057150216
 40
3.213914225080202
 40
3.276689026450602
 40
3.342960320981321
 40
3.404230667150626
 40
3.453822809493418
 40
3.532499827188424
 40
3.634775188507199
 40
3.754909333008186
 40
3.889736761660712
 40
4.035769602175222
 40
4.187256681197677
 40
4.338733685675972
 40
4.488478734676169
 40
4.63470831783162
 40
4.771493189921289
 40
4.892686571561266
 40
5.199775528944488
 40
5.460353566929632
 40
5.667603142345548
 40
5.81472290540452
 40
5.828990806219847
 40
5.855488336304572
 40
5.869756237118932
 40
6.189796507762922
 40
6.531890469873059
 40
6.883053637017052
 40
7.23051202491151
 40
7.566966656764651
 40
7.885203559707422
 40
8.17288743971926
 40
8.41801159406285
 40
8.443926721190772
 40
8.510760470613258
 40
8.602145393795766
 40
8.701714041647204
 40
8.793098965075433
 40
8.859932715058005
 40
8.885847842603653
 40
9.242301256612857
 40
9.589275455016763
 40
9.921808543164225
 40
10.23479624298473
 40
10.29968150889184
 40
10.35323493887772
 40
10.40154625355159
 40
10.4648292247784
 40
10.55973900668419
 40
10.69239545985638
 40
10.84920353475688
 40
11.01626328594797
 40
11.18672024367457
 40
11.35372582577226
 40
11.50257442292443
 40
11.61866495023308
 40
11.71329869152893
 40
11.82511050573921
 40
11.94464880845732
 40
12.06929242642522
 40
12.19707290435195
 40
12.32562632860544
 40
12.45034565331298
 40
12.56646595170342
 40
12.67099007414648
 40
12.76077625936801
 40
12.8270323350671
 40
12.8742913278601
 40
12.89831990323349
 40
12.92234847860037
 40
13.53984767410344
 40
14.18294284359385
 40
14.18294284359385
 40
14.18294284359385
 40
14.18294284359385
 10
177.3067935648021
 20
14.7089803820172
 10
177.175201975855
 20
14.8226505860323
 10
176.9124193802729
 20
15.04964496316159
 10
176.3997393441023
 20
15.89214462956286
 10
176.4106654595363
 20
15.5342337757702
 10
176.4041226527991
 20
15.39267392272134
 10
176.4028026631773
 20
15.19421305299281
 10
176.4018117602538
 20
15.02150296045984
 10
176.4024101751975
 20
14.87865373257581
 10
176.4038994301884
 20
14.78265005413358
 10
176.4055683588472
 20
14.6754550326314
 10
176.4071934954618
 20
14.56164211517583
 10
176.4092429501686
 20
14.44441572604589
 10
176.4123165501928
 20
14.3265641123297
 10
176.4156339697043
 20
14.2122808732062
 10
176.419360534028
 20
14.10521401867277
 10
176.4217338161424
 20
14.0100740876692
 10
176.4278718888357
 20
13.92558557205695
 10
176.4239784495947
 20
13.8692308729814
 10
176.4455230443079
 20
13.79825022472355
 10
176.3680940058618
 20
13.82902677604485
 10
176.3116353240191
 20
13.82011242517609
 10
176.2540495896807
 20
13.82896218398276
 10
176.1690163478472
 20
13.79738225225945
 10
176.2009714146383
 20
13.88095155992187
 10
176.1990705282538
 20
13.94882608968307
 10
176.21079600473
 20
14.05233256764414
 10
176.2164241053
 20
14.17002125616693
 10
176.2237902178942
 20
14.3038860916442
 10
176.2320759701612
 20
14.4476415287263
 10
176.2398851897428
 20
14.59714022843442
 10
176.2457571222658
 20
14.74792549402077
 10
176.2503667817968
 20
14.89699943878436
 10
176.2542632117542
 20
15.0412291316302
 10
176.2570715126565
 20
15.17583905213015
 10
176.2576698755023
 20
15.36469614347352
 10
176.2616023867151
 20
15.58975494313152
 10
176.2442175378499
 20
15.86367091125704
 10
176.2850417342582
 20
16.02787112098593
 10
176.1995153256004
 20
16.22749661465095
 10
176.2660558907687
 20
16.22385458403975
 10
176.2838724273231
 20
16.22413447160851
 10
176.4056801797502
 20
16.22632927398611
 10
176.5080770335464
 20
15.94675118721512
 10
176.7580021509356
 20
15.74563008535998
 10
176.987003533111
 20
15.47792614987915
 10
177.2245151213108
 20
15.22646413862374
 10
177.4486090740773
 20
14.98969974061363
 10
177.6750716283009
 20
14.7321869258308
 10
177.8325687886514
 20
14.6164933505692
 10
178.0472129612675
 20
14.27997152538795
 10
178.0422645974619
 20
14.40464754091604
 10
178.0433931602547
 20
14.46327691935738
 10
178.0428877841517
 20
14.55043662371978
 10
178.0430475158114
 20
14.64416143182872
 10
178.0430054891319
 20
14.73018971297035
 10
178.0430202040374
 20
14.79153891945495
 10
178.0429706255983
 20
14.94135231520992
 10
178.0458811522812
 20
15.17989612510102
 10
178.0259521041161
 20
15.54486509868698
 10
178.0750433936247
 20
15.80799631993409
 10
177.9177951509182
 20
16.21928904947751
 10
178.076211287242
 20
16.16398282551748
 10
178.1311680478629
 20
16.1619968650018
 10
178.182788776674
 20
16.16264778248253
 10
178.2713198965367
 20
16.20369527738245
 10
178.2204898303168
 20
16.05696326622987
 10
178.2313389930283
 20
15.95019971954432
 10
178.2166036994847
 20
15.7908570541411
 10
178.2099976446204
 20
15.62853061652873
 10
178.2014961399915
 20
15.45992521892396
 10
178.1943227202199
 20
15.29814814703541
 10
178.1889063215389
 20
15.15422331457932
 10
178.1871713967649
 20
15.03437493466923
 10
178.1875440672319
 20
14.92686101590514
 10
178.1873656126264
 20
14.81820024645586
 10
178.1877010863139
 20
14.69953570165531
 10
178.1890040622184
 20
14.5755516351274
 10
178.1908887351574
 20
14.44858294171103
 10
178.1925004454851
 20
14.3215386155103
 10
178.194140313743
 20
14.19854884492177
 10
178.1962570745753
 20
14.08300931383759
 10
178.1963848422364
 20
13.98090903955837
 10
178.2006514396555
 20
13.89009848838156
 10
178.190844008529
 20
13.83213621208785
 10
178.211847477169
 20
13.76517130132027
 10
178.1725639739898
 20
13.77291153966686
 10
177.9595307117744
 20
13.75755254145193
 10
177.7636297943188
 20
14.31403058094466
 10
177.4611197631543
 20
14.57556035348507
 10
177.3067935648021
 20
14.7089803820172
 97
        1
330
AB
 75
     1
 76
     2
 52
45.0
 41
0.1
 77
     0
 78
     1
 53
45.0
 43
0.0
 44
0.0
 45
-0.282842712474619
 46
0.0
 79
     0
 98
        1
 10
0.0
 20
0.0
  0
HATCH
  5
C9
330
48
100
AcDbEntity
  8
1
  6
Continuous
 62
     2
100
AcDbHatch
 10
0.0
 20
0.0
 30
0.0
210
0.0
220
0.0
230
1.0
  2
CUSTOM3
 70
     0
 71
     1
 91
        1
 92
        1
 93
        1
 72
     4
 94
        3
 73
     0
 74
     0
 95
      110
 96
      106
 40
0.0
 40
0.0
 40
0.0
 40
0.0
 40
0.2203406257277696
 40
0.4407808782838196
 40
0.5952494494614611
 40
0.7488431659393195
 40
0.9023581831308599
 40
1.056801968670415
 40
1.21073644909983
 40
1.363041386539707
 40
1.51531572968308
 40
1.669377239148088
 40
1.721611652756592
 40
1.773199502942994
 40
1.824933793210003
 40
1.877110426488023
 40
1.982682281206818
 40
2.078781667087685
 40
2.172809640822376
 40
2.271937807378973
 40
2.37834993337945
 40
2.494131557736637
 40
2.626681683943772
 40
2.783145050796199
 40
2.890701232941039
 40
2.993130312454979
 40
3.099869730691925
 40
3.22023781669141
 40
3.352695482737688
 40
3.481732806390009
 40
3.593499473690493
 40
3.674323013332036
 40
3.817951711952928
 40
3.946167120793898
 40
4.061405053453611
 40
4.166480796003225
 40
4.262478775059318
 40
4.350736673551219
 40
4.433071991254101
 40
4.511216293814701
 40
4.564262454117976
 40
4.618474415571573
 40
4.670128488754198
 40
4.722296879126395
 40
4.819540945314265
 40
4.931194984128121
 40
5.049996040257736
 40
5.168643755415309
 40
5.283970811762464
 40
5.392260784910348
 40
5.486512254876394
 40
5.559178233949736
 40
5.591425852853389
 40
5.626215969637782
 40
5.667155838674319
 40
5.717449290214161
 40
5.738402360944776
 40
5.784499116553746
 40
5.830595872164721
 40
5.851548942897579
 40
5.87301928066169
 40
5.924217778408228
 40
5.985325662817602
 40
6.03652416056761
 40
6.057994498334138
 40
6.236847789607389
 40
6.381409928945581
 40
6.49319042417858
 40
6.574067534230351
 40
6.691018086205474
 40
6.814881554220363
 40
6.944307823240315
 40
7.071266716065938
 40
7.193488604461839
 40
7.309042773128095
 40
7.414007203170664
 40
7.505140441886391
 40
7.531150360599525
 40
7.559221645322118
 40
7.587202218920766
 40
7.612569159498999
 40
7.66255080948085
 40
7.702878875763957
 40
7.857328205230772
 40
8.010799568088418
 40
8.165256399657368
 40
8.322232698713707
 40
8.479564855016365
 40
8.635216230290512
 40
8.790882550925486
 40
8.948305154946995
 40
9.168271839032684
 40
9.387358980986928
 40
9.608047961033153
 40
9.83291423479232
 40
9.858338694962656
 40
9.925366817229671
 40
10.02013071422726
 40
10.12876249858966
 40
10.23739428295218
 40
10.3321581799516
 40
10.39918630222364
 40
10.42461076239754
 40
10.64992019336911
 40
10.87188524531157
 40
10.87188524531157
 40
10.87188524531157
 40
10.87188524531157
 10
179.9057788376619
 20
15.73923260398189
 10
179.9092864933542
 20
15.80616462073802
 10
179.9163033987662
 20
15.94005891915857
 10
179.8198027599073
 20
16.22548554971468
 10
180.0510134726109
 20
16.16284386190283
 10
180.1919290057156
 20
16.17001554055984
 10
180.3490417757588
 20
16.16235883078245
 10
180.5025913427288
 20
16.16252752283044
 10
180.6545104935081
 20
16.16182040535434
 10
180.8142214813231
 20
16.17210158351632
 10
180.9408972601118
 20
16.1549651108075
 10
181.1370821122081
 20
16.22727260107148
 10
181.1034395279079
 20
16.12640699080114
 10
181.1052011317185
 20
16.07619253947668
 10
181.1027342073459
 20
16.02712335586464
 10
181.1347076966012
 20
15.94063490846992
 10
181.0010399903256
 20
15.98997438608339
 10
180.9172208688057
 20
15.98430634314171
 10
180.8173861139324
 20
15.99465516706298
 10
180.7186576720146
 20
16.00086450411088
 10
180.612153277111
 20
16.00697763816775
 10
180.491051169806
 20
16.0158888348458
 10
180.3703381502453
 20
16.00521605912385
 10
180.1812553843437
 20
16.06468503080365
 10
180.2129028505311
 20
15.90558320077537
 10
180.1995563316833
 20
15.80839128339903
 10
180.197495842645
 20
15.69634065110101
 10
180.1958188044671
 20
15.5769968562935
 10
180.1973336794235
 20
15.45032592155109
 10
180.1956582478669
 20
15.32301588016114
 10
180.2058844271659
 20
15.2245156640446
 10
180.1779006596583
 20
15.08388702625628
 10
180.3508029999306
 20
15.13989551134094
 10
180.4645020202771
 20
15.12719951478502
 10
180.584015167224
 20
15.1344837705125
 10
180.6888491425071
 20
15.13878017056762
 10
180.7843084898612
 20
15.14330568258973
 10
180.8763823507032
 20
15.15149201146205
 10
180.9476551782439
 20
15.14643850638108
 10
181.0544931705684
 20
15.18536425031669
 10
181.0226603598036
 20
15.10517122005878
 10
181.0266164503931
 20
15.05562936846033
 10
181.0234502392013
 20
15.00557478039819
 10
181.0550791490585
 20
14.92128847612019
 10
180.9210133677691
 20
14.97425365495158
 10
180.82923227932
 20
14.96540080890437
 10
180.7079729189602
 20
14.9757004996516
 10
180.5914113119772
 20
14.97748911767499
 10
180.4783375745878
 20
14.97787017109695
 10
180.3679246308472
 20
14.98415449472183
 10
180.2898124067841
 20
14.97189133255363
 10
180.1913625833645
 20
15.00453887616126
 10
180.2012355173562
 20
14.94769748054207
 10
180.1973923244402
 20
14.91392130557986
 10
180.1966789884269
 20
14.87119604709411
 10
180.1963369642976
 20
14.83401607262153
 10
180.1963834255346
 20
14.79487237370769
 10
180.1963649429928
 20
14.75716849497684
 10
180.1963703431807
 20
14.719449552324
 10
180.1963697214202
 20
14.68994324745148
 10
180.1963698151547
 20
14.658735776993
 10
180.1963704287921
 20
14.61414424908083
 10
180.1963671499338
 20
14.55963956508851
 10
180.1963759623482
 20
14.51505540201447
 10
180.1963359653419
 20
14.43117808585741
 10
180.1976024270257
 20
14.31737520677678
 10
180.1950274117841
 20
14.16830395933708
 10
180.206500938172
 20
14.06597203813906
 10
180.1823506222263
 20
13.93338903885837
 10
180.3332993946476
 20
13.97895732272026
 10
180.4428436671555
 20
13.96427012162355
 10
180.573397047392
 20
13.96920435125064
 10
180.6990312209513
 20
13.97257705323358
 10
180.8188730625601
 20
13.97711497498771
 10
180.9391362611427
 20
13.99048536182002
 10
181.0222761663516
 20
13.98068712782595
 10
181.1456080421074
 20
14.04126214623317
 10
181.1244269203957
 20
13.98532460134018
 10
181.1235950270116
 20
13.95939249372345
 10
181.1218963707558
 20
13.93197256190936
 10
181.1217974888829
 20
13.89738195206384
 10
181.120365930133
 20
13.86050408220767
 10
181.153280419219
 20
13.76846841021809
 10
180.9551306988108
 20
13.84132015974834
 10
180.830054829489
 20
13.81825726508602
 10
180.6673071295156
 20
13.82454021985784
 10
180.5129366450001
 20
13.82260943909924
 10
180.3566670436944
 20
13.82393762599266
 10
180.1970544465282
 20
13.82059872487859
 10
180.0540326342237
 20
13.83265795728243
 10
179.8197144881629
 20
13.76952001976922
 10
179.9173810751197
 20
14.05620527466319
 10
179.900686878006
 20
14.2498830814266
 10
179.9146296709685
 20
14.47848242880292
 10
179.9142987846631
 20
14.63384593955043
 10
179.9143078119264
 20
14.7396633644412
 10
179.9143055876316
 20
14.8020578412421
 10
179.9143065551887
 20
14.89220425248322
 10
179.9143065473262
 20
14.99621167157435
 10
179.9143053861101
 20
15.10022131375293
 10
179.9143090971502
 20
15.19036243688767
 10
179.9143011051051
 20
15.25276803097214
 10
179.9143334275019
 20
15.35868835961119
 10
179.9131440788319
 20
15.51626716544738
 10
179.9082216489257
 20
15.66528219822064
 10
179.9057788376619
 20
15.73923260398189
 97
        1
330
AC
 75
     1
 76
     2
 52
45.0
 41
0.1
 77
     0
 78
     1
 53
45.0
 43
0.0
 44
0.0
 45
-0.282842712474619
 46
0.0
 79
     0
 98
        1
 10
0.0
 20
0.0
  0
HATCH
  5
CA
330
48
100
AcDbEntity
  8
1
  6
Continuous
 62
     2
100
AcDbHatch
 10
0.0
 20
0.0
 30
0.0
210
0.0
220
0.0
230
1.0
  2
CUSTOM4
 70
     0
 71
     1
 91
        1
 92
        1
 93
        1
 72
     4
 94
        3
 73
     0
 74
     0
 95
       47
 96
       43
 40
0.0
 40
0.0
 40
0.0
 40
0.0
 40
0.2207912809957301
 40
0.4459404186303237
 40
0.4902387190459749
 40
0.5327473892722467
 40
0.5742260451226029
 40
0.6155432630561881
 40
0.6568164066316222
 40
0.6982511618781666
 40
0.7407663929317658
 40
0.7851366743175453
 40
1.010288833836353
 40
1.231080507002214
 40
1.451765243652434
 40
1.676638205891677
 40
1.720461045359648
 40
1.830018144043512
 40
1.972442372353144
 40
2.114866600677512
 40
2.224423699395137
 40
2.268246538883378
 40
2.493628801207256
 40
2.715602830286649
 40
2.934211330706404
 40
3.149502369855365
 40
3.231387784850925
 40
3.31823187385396
 40
3.405143198198033
 40
3.486970301720469
 40
3.702258172493881
 40
3.920866283534111
 40
4.142839325931899
 40
4.368221903865407
 40
4.412044743359886
 40
4.5216018420959
 40
4.664026070452381
 40
4.80645029880909
 40
4.916007397546784
 40
4.959830237043106
 40
5.184703515847096
 40
5.405387250767467
 40
5.405387250767467
 40
5.405387250767467
 40
5.405387250767467
 10
182.6507427258645
 20
15.7340644095387
 10
182.6568139420002
 20
15.79758482501209
 10
182.6690762107243
 20
15.92587938689627
 10
182.5604706879411
 20
16.20166220174075
 10
182.6761985896604
 20
16.17188133432054
 10
182.7171842509016
 20
16.16765556262813
 10
182.7591205797518
 20
16.16310446389608
 10
182.800419662571
 20
16.16201982929488
 10
182.8417032115556
 20
16.16310338195229
 10
182.8836148270648
 20
16.16766112711336
 10
182.9245983549019
 20
16.17187430209729
 10
183.0404922843488
 20
16.20177611317533
 10
182.9295652727457
 20
15.92339806609888
 10
182.9574856365266
 20
15.74283140824951
 10
182.940426734697
 20
15.50961042346471
 10
182.9414637282103
 20
15.34906622543148
 10
182.9414099399404
 20
15.22284817558724
 10
182.9414277372481
 20
15.12428963336244
 10
182.941418858108
 20
14.99280702442966
 10
182.9414263928033
 20
14.86132844968652
 10
182.9414129405129
 20
14.76276222694094
 10
182.9414531717492
 20
14.63639735624153
 10
182.9406746403818
 20
14.4748206882287
 10
182.9565958319266
 20
14.24361821892912
 10
182.9333468885408
 20
14.05874351972003
 10
183.0360183444366
 20
13.78935602770058
 10
182.8820238362837
 20
13.82660112685819
 10
182.8004129802833
 20
13.8213799468053
 10
182.7188192292583
 20
13.82660620378353
 10
182.5648513666842
 20
13.78937069885388
 10
182.6674183421917
 20
14.0587512986288
 10
182.6442045316088
 20
14.24361585325414
 10
182.6600444655139
 20
14.47482218565638
 10
182.6593296313428
 20
14.63639712308504
 10
182.6593664569907
 20
14.76276231210524
 10
182.6593549000271
 20
14.86132756635984
 10
182.6593575019215
 20
14.99281127417223
 10
182.659364853178
 20
15.12427548031202
 10
182.6593442541352
 20
15.22287786275329
 10
182.6594082192029
 20
15.34896149354428
 10
182.6581733947591
 20
15.51210091383772
 10
182.6532040396745
 20
15.66054183777548
 10
182.6507427258645
 20
15.7340644095387
 97
        1
330
AD
 75
     1
 76
     2
 52
45.0
 41
0.1
 77
     0
 78
     1
 53
45.0
 43
0.0
 44
0.0
 45
-0.282842712474619
 46
0.0
 79
     0
 98
        1
 10
0.0
 20
0.0
  0
HATCH
  5
CB
330
48
100
AcDbEntity
  8
1
  6
Continuous
 62
     2
100
AcDbHatch
 10
0.0
 20
0.0
 30
0.0
210
0.0
220
0.0
230
1.0
  2
CUSTOM5
 70
     0
 71
     1
 91
        1
 92
        1
 93
        1
 72
     4
 94
        3
 73
     0
 74
     0
 95
      118
 96
      114
 40
0.0
 40
0.0
 40
0.0
 40
0.0
 40
0.1054708162973368
 40
0.2466098270052035
 40
0.3965912874591567
 40
0.528552506975453
 40
0.6156245055642771
 40
0.6431434105798068
 40
0.7036850037986898
 40
0.7642265984505435
 40
0.7917455052355907
 40
0.9287404319990448
 40
1.106572819088073
 40
1.287544879681106
 40
1.317578308030623
 40
1.399928030857259
 40
1.522968204800036
 40
1.675072986590657
 40
1.844616533180736
 40
2.019973001638798
 40
2.189516548880111
 40
2.341621331585449
 40
2.464661506320584
 40
2.547011229647149
 40
2.577044658168113
 40
2.603797890893184
 40
2.662655002908871
 40
2.721512114949683
 40
2.748265347702862
 40
2.774215307344937
 40
2.845959313407267
 40
2.954338556588465
 40
3.090194227585638
 40
3.2443675171006
 40
3.407699615844355
 40
3.571031714539498
 40
3.725205003920172
 40
3.86106067472967
 40
3.96943991771636
 40
4.041183923629029
 40
4.067133883213023
 40
4.311886746012179
 40
4.547897258335514
 40
4.764747083043954
 40
4.952749679951744
 40
5.045772974195919
 40
5.13786201964495
 40
5.330543169792978
 40
5.553448265243967
 40
5.795083855888144
 40
6.043293412177195
 40
6.285761695541093
 40
6.313902908752577
 40
6.384255941793167
 40
6.475714884766727
 40
6.567173827758761
 40
6.637526860839539
 40
6.665668074073873
 40
6.692018920327851
 40
6.749990782070932
 40
6.807962643790311
 40
6.834313490017789
 40
6.856393084245068
 40
6.913335195649691
 40
6.991194817302326
 40
7.076026942283588
 40
7.15388656372505
 40
7.210828674844604
 40
7.232908268930939
 40
7.258199334923463
 40
7.324875781592119
 40
7.419142481924784
 40
7.527204308841736
 40
7.635266135230325
 40
7.729532834168322
 40
7.796209279292648
 40
7.821500344594598
 40
7.844652988850669
 40
7.899863140541449
 40
7.965759128053616
 40
8.0209692797709
 40
8.044121924046367
 40
8.069356610160439
 40
8.109134395441227
 40
8.132238100190943
 40
8.193147867786308
 40
8.279261678876487
 40
8.377977512673706
 40
8.476693347146497
 40
8.562807160411554
 40
8.623716930826342
 40
8.646820636853297
 40
8.67198879377411
 40
8.73490918582805
 40
8.816705695188764
 40
8.898502204815363
 40
8.961422597377853
 40
8.986590754550965
 40
9.012941600733125
 40
9.07091346238022
 40
9.128885324081724
 40
9.15523617032505
 40
9.180404327929093
 40
9.243324721948195
 40
9.325121234211988
 40
9.40691774663767
 40
9.469838141978155
 40
9.495006288270929
 40
9.517811184379065
 40
9.57219209048705
 40
9.63709833328126
 40
9.691479239515449
 40
9.71428412564348
 40
9.71428412564348
 40
9.71428412564348
 40
9.71428412564348
 10
185.2874469028653
 20
15.2688916318772
 10
185.3090990569037
 20
15.24111869242812
 10
185.3597257109474
 20
15.17618054561236
 10
185.4349383202591
 20
15.06891060312899
 10
185.5248482274347
 20
14.95377438266626
 10
185.5709169676674
 20
14.85357045748321
 10
185.6655825294656
 20
14.78434006814942
 10
185.6204439320413
 20
14.73771639678273
 10
185.594704778579
 20
14.6966030886604
 10
185.5645196708013
 20
14.6606597172794
 10
185.5193684730561
 20
14.58579782596097
 10
185.4710504458563
 20
14.80782524253603
 10
185.3968539713073
 20
14.84510677337709
 10
185.2836047324607
 20
15.11610202130599
 10
185.2885133578169
 20
15.00095328446226
 10
185.2868486556306
 20
14.92836675781624
 10
185.2876830076713
 20
14.80625588483983
 10
185.2873609540264
 20
14.65913800810457
 10
185.2875076912456
 20
14.49307063956554
 10
185.2872950092722
 20
14.32187554608599
 10
185.2879497252034
 20
14.15552828635495
 10
185.2859192461139
 20
14.0093517305569
 10
185.291346039993
 20
13.88471047474608
 10
185.2804930868708
 20
13.81718656540623
 10
185.2956739155555
 20
13.7554906141702
 10
185.2457895108134
 20
13.76727503896998
 10
185.2017150342521
 20
13.75943822779966
 10
185.1582371630201
 20
13.767604413727
 10
185.1092346786488
 20
13.75538056738465
 10
185.1218731234824
 20
13.80960667249309
 10
185.113018296845
 20
13.86936918907555
 10
185.1175058770314
 20
13.97922029044367
 10
185.115796013599
 20
14.11029975405675
 10
185.1163550915987
 20
14.26198011444324
 10
185.1161928768693
 20
14.42211074929948
 10
185.1162269924674
 20
14.58236865674561
 10
185.1162514960127
 20
14.73370247520434
 10
185.1161453543224
 20
14.86582156338595
 10
185.1164299141931
 20
14.97294802533187
 10
185.1158675547568
 20
15.03808619579468
 10
185.1180765083689
 20
15.16618957858667
 10
185.0319435998602
 20
14.79097610391574
 10
184.95551408185
 20
14.63918193123392
 10
184.8660040767834
 20
14.47766206446304
 10
184.7640413217326
 20
14.2047184882017
 10
184.7187976491039
 20
14.36717346596507
 10
184.6102355941671
 20
14.4560543205812
 10
184.7995791751753
 20
14.60549794961409
 10
184.85653405457
 20
14.79749136974927
 10
184.9717520993353
 20
15.02899622906755
 10
184.9940151630133
 20
15.2179725975906
 10
185.177190515214
 20
15.49454089325926
 10
185.0538033597552
 20
15.48698978832089
 10
184.9925684166834
 20
15.48856772366113
 10
184.9081999617064
 20
15.48882592573668
 10
184.8204235085967
 20
15.48544845751201
 10
184.7656768696123
 20
15.49394814982015
 10
184.7104703026025
 20
15.48048561049784
 10
184.7222823035536
 20
15.52931442126759
 10
184.7142496151795
 20
15.57269004896705
 10
184.722818610468
 20
15.61509438309571
 10
184.7102943409157
 20
15.66267796552116
 10
184.7555101538736
 20
15.65267212995107
 10
184.8014815562724
 20
15.65894105174059
 10
184.8777222047711
 20
15.6559356140587
 10
184.9561296131994
 20
15.65770448278539
 10
185.0323992648933
 20
15.65464793981658
 10
185.0783009459475
 20
15.66103971376175
 10
185.12317339654
 20
15.65093822978895
 10
185.1105552275634
 20
15.70157201581897
 10
185.1191936582707
 20
15.75501261882069
 10
185.1152361595442
 20
15.8486325513168
 10
185.1162325068335
 20
15.95112606688925
 10
185.1171927413073
 20
16.05353270248165
 10
185.1133211458006
 20
16.14735929609324
 10
185.1217789814364
 20
16.20036542840356
 10
185.1093075932835
 20
16.25211435651192
 10
185.154210638985
 20
16.2385074722676
 10
185.1955083836772
 20
16.24100480320587
 10
185.2595344281051
 20
16.23648060574488
 10
185.2986111148786
 20
16.22781003043307
 10
185.3476543498742
 20
16.23515102070685
 10
185.322508003059
 20
16.19602896051754
 10
185.2815901333723
 20
16.2056384245581
 10
185.2910109616604
 20
16.15540148169779
 10
185.2855647318746
 20
16.1038594563949
 10
185.2881699601803
 20
16.0195970758452
 10
185.2870102202154
 20
15.92559135583408
 10
185.2883591064231
 20
15.83196865395524
 10
185.284997010151
 20
15.74679517552222
 10
185.2920959917768
 20
15.69716856072042
 10
185.2812569154546
 20
15.64993694969987
 10
185.3304010225245
 20
15.6620167493685
 10
185.3794877630147
 20
15.65447393363009
 10
185.4573714280642
 20
15.65686070361431
 10
185.5350365172896
 20
15.65899381905413
 10
185.5845393931356
 20
15.65193391922452
 10
185.6344594750639
 20
15.66360151936212
 10
185.6223198516882
 20
15.6154023537139
 10
185.6305838229144
 20
15.57249219801232
 10
185.6223198650785
 20
15.5295820185138
 10
185.6344594549855
 20
15.48138288754859
 10
185.5845395158747
 20
15.49305034471506
 10
185.5350350651203
 20
15.48599202435041
 10
185.4573784382973
 20
15.48811665228598
 10
185.3794643865761
 20
15.49053389365756
 10
185.3304500352716
 20
15.4829184819448
 10
185.2813246108943
 20
15.49507952557587
 10
185.2915559988571
 20
15.45073013424154
 10
185.2856677678053
 20
15.40925436202909
 10
185.2878788305569
 20
15.34915394315301
 10
185.2874109346146
 20
15.30225782762889
 10
185.2874386992913
 20
15.27650146418196
 10
185.2874469028653
 20
15.2688916318772
 97
        1
330
AE
 75
     1
 76
     2
 52
45.0
 41
0.1
 77
     0
 78
     1
 53
45.0
 43
0.0
 44
0.0
 45
-0.282842712474619
 46
0.0
 79
     0
 98
        1
 10
0.0
 20
0.0
  0
HATCH
  5
CC
330
48
100
AcDbEntity
  8
1
  6
Continuous
 62
     2
100
AcDbHatch
 10
0.0
 20
0.0
 30
0.0
210
0.0
220
0.0
230
1.0
  2
CUSTOM6
 70
     0
 71
     1
 91
        1
 92
        1
 93
        1
 72
     4
 94
        3
 73
     0
 74
     0
 95
       91
 96
       87
 40
0.0
 40
0.0
 40
0.0
 40
0.0
 40
0.0345987051695434
 40
0.1258134969461085
 40
0.2547723404888703
 40
0.4026032099153841
 40
0.5504340793416704
 40
0.679392922883608
 40
0.770607714657132
 40
0.8052064287780925
 40
1.124852390615277
 40
1.427402236308871
 40
1.706356627453517
 40
1.955541417875203
 40
2.169485938566358
 40
2.34435078666482
 40
2.480568411561975
 40
2.590440557428997
 40
2.6491899271512
 40
2.749320643306406
 40
2.912632739880104
 40
3.147745656000307
 40
3.244827496385231
 40
3.338490056946773
 40
3.583815413207183
 40
3.761423943238534
 40
3.886956104362679
 40
3.985855451886884
 40
4.091766255337768
 40
4.250186473811934
 40
4.422734315084556
 40
4.628285684838633
 40
4.872093227758473
 40
5.152549652145582
 40
5.464967135837562
 40
5.803201477852486
 40
6.160362988813959
 40
6.193449448276014
 40
6.284170385501668
 40
6.419718138764538
 40
6.587285046385788
 40
6.774063446723702
 40
6.967245678113685
 40
7.154024078817671
 40
7.321590987026057
 40
7.457138740890415
 40
7.547859678556152
 40
7.580946138182711
 40
7.608533084714764
 40
7.669224367077738
 40
7.729915649429956
 40
7.757502595950007
 40
7.790278062553461
 40
7.880146277430959
 40
8.014419963180423
 40
8.180411842397952
 40
8.36543463767942
 40
8.55680107162275
 40
8.741823866830835
 40
8.907815745916373
 40
9.042089431507556
 40
9.131957646249681
 40
9.164733112797258
 40
9.415425063140175
 40
9.66798618095862
 40
9.694169807462787
 40
9.756607686047746
 40
9.831130315322552
 40
9.893568193900016
 40
9.919751820398833
 40
9.950967964690683
 40
9.996421631210808
 40
10.22087981037464
 40
10.44341866197551
 40
10.47847970788864
 40
10.57091337438762
 40
10.70159545461242
 40
10.85140174170367
 40
11.00120802880487
 40
11.13189010907389
 40
11.22432377583014
 40
11.25938480938963
 40
11.28697175596152
 40
11.34766303835926
 40
11.40835432042076
 40
11.4359412589211
 40
11.4359412589211
 40
11.4359412589211
 40
11.4359412589211
 10
190.081811433329
 20
15.55242795125079
 10
190.0702785844942
 20
15.55242790287918
 10
190.0283409444999
 20
15.55242773704166
 10
189.9434129719027
 20
15.55243125800911
 10
189.8207688553129
 20
15.5524092643588
 10
189.6791206916994
 20
15.55250801177056
 10
189.537975369849
 20
15.55214686232423
 10
189.4141351317905
 20
15.55321883609091
 10
189.3317217825382
 20
15.5509224909127
 10
189.1727791229693
 20
15.56048569373423
 10
189.3503402353376
 20
15.19785394311371
 10
189.3379739205453
 20
14.95243127723116
 10
189.4064519473865
 20
14.66862501324836
 10
189.469302432097
 20
14.43250999939035
 10
189.5452253431728
 20
14.23326740396129
 10
189.6303189577017
 20
14.07745347451372
 10
189.7244607592935
 20
13.97657857781389
 10
189.8282648207727
 20
13.92465852638963
 10
189.9125872030775
 20
13.97606484379611
 10
189.9351322179452
 20
14.09144544037515
 10
189.9745730975371
 20
14.2188514970238
 10
189.9202919734943
 20
14.53622328086751
 10
190.0451218072473
 20
14.38982180140909
 10
190.2019291513603
 20
14.35795300331166
 10
190.0947720007056
 20
14.12421357767629
 10
190.0808711209867
 20
13.9597277658366
 10
190.0234709467225
 20
13.83130869122482
 10
189.9335020145008
 20
13.76018802352831
 10
189.8095274657877
 20
13.74432324142256
 10
189.6634273196861
 20
13.77993797554175
 10
189.5243894320284
 20
13.9000057050028
 10
189.4102003962145
 20
14.07435682550324
 10
189.3146141301486
 20
14.29946603111242
 10
189.2318652572626
 20
14.56388246006445
 10
189.1807179256413
 20
14.88187933098546
 10
189.0770189207338
 20
15.15543728488914
 10
189.2042841208521
 20
15.56005818612869
 10
189.0357890623018
 20
15.5511236784968
 10
188.9511995787077
 20
15.55315961418365
 10
188.8189876387627
 20
15.55213937388408
 10
188.6560505094104
 20
15.55253230318431
 10
188.4733759170532
 20
15.5523569631337
 10
188.2847057373383
 20
15.5526010530747
 10
188.1014469020189
 20
15.55185657906238
 10
187.9404746832718
 20
15.55416360522428
 10
187.8029808335276
 20
15.54799804883664
 10
187.728959037231
 20
15.56032838458213
 10
187.6613215186856
 20
15.54329323723558
 10
187.6732373719269
 20
15.59524438447529
 10
187.6655677285693
 20
15.6407142496653
 10
187.6732592225115
 20
15.68614453703707
 10
187.6613141797762
 20
15.73802395984571
 10
187.7283588305866
 20
15.72119143490265
 10
187.8017375665677
 20
15.73335409092671
 10
187.9379128305272
 20
15.7272723107496
 10
188.0973811801512
 20
15.72954834315059
 10
188.2789173085837
 20
15.72881233998963
 10
188.465803486218
 20
15.72905954196134
 10
188.6468012316836
 20
15.72886400799254
 10
188.8080802578879
 20
15.7293223471484
 10
188.9393882124887
 20
15.72812673751207
 10
189.0225051322597
 20
15.73051347319743
 10
189.1556236547814
 20
15.72230605725466
 10
189.0645893502659
 20
15.97752868952654
 10
188.9789633074418
 20
16.24164358328244
 10
189.0990589003455
 20
16.22904442969163
 10
189.1514264948544
 20
16.22694235763074
 10
189.2214497569715
 20
16.22535399889656
 10
189.2671922337817
 20
16.21602567538114
 10
189.3220812646933
 20
16.22545966915427
 10
189.2963574785681
 20
16.17733028655172
 10
189.1825397571454
 20
16.18266829744155
 10
189.3159346621135
 20
15.95449174576777
 10
189.1943658735472
 20
15.72156856595923
 10
189.3223188769414
 20
15.7308725888444
 10
189.4049048406462
 20
15.72801001754681
 10
189.5307214850825
 20
15.72923437412303
 10
189.6741469838059
 20
15.72932431888965
 10
189.8157420951729
 20
15.72746163183855
 10
189.9459127249968
 20
15.73333075937163
 10
190.0193452286191
 20
15.72070340823205
 10
190.0891112922097
 20
15.73877563110414
 10
190.0775772605397
 20
15.68612850546328
 10
190.0833184346682
 20
15.64221317686548
 10
190.0816615770912
 20
15.59089982676551
 10
190.081775756167
 20
15.56158792021636
 10
190.081811433329
 20
15.55242795125079
 97
        1
330
AF
 75
     1
 76
     2
 52
45.0
 41
0.1
 77
     0
 78
     1
 53
45.0
 43
0.0
 44
0.0
 45
-0.282842712474619
 46
0.0
 79
     0
 98
        1
 10
0.0
 20
0.0
  0
HATCH
  5
CD
330
48
100
AcDbEntity
  8
1
  6
Continuous
 62
     2
100
AcDbHatch
 10
0.0
 20
0.0
 30
0.0
210
0.0
220
0.0
230
1.0
  2
CUSTOM7
 70
     0
 71
     1
 91
        1
 92
        1
 93
        1
 72
     4
 94
        3
 73
     0
 74
     0
 95
       75
 96
       71
 40
0.0
 40
0.0
 40
0.0
 40
0.0
 40
0.0342546099129638
 40
0.1245622414432222
 40
0.2522385480897252
 40
0.3985991922940236
 40
0.5449598364980217
 40
0.6726361431438088
 40
0.762943774673609
 40
0.7971983935297084
 40
1.101723623449556
 40
1.408591244036587
 40
1.433332471690282
 40
1.487763172450055
 40
1.542193873081862
 40
1.5669351005924
 40
1.923523931821721
 40
2.27175570495347
 40
2.590579755100713
 40
2.858943305580938
 40
2.889120339308969
 40
2.918305855190992
 40
2.941366645531119
 40
2.996357760973009
 40
3.061992318140566
 40
3.116983433626742
 40
3.140044223997436
 40
3.411273122936335
 40
3.732441619740941
 40
3.761068217532639
 40
3.837787499630198
 40
3.948858699125829
 40
4.0805410491042
 40
4.219093782625578
 40
4.350776132722121
 40
4.46184733240545
 40
4.53856661467818
 40
4.567193212544424
 40
4.594907573998682
 40
4.666381453557221
 40
4.764111044010832
 40
4.870592538125635
 40
4.968322128642086
 40
5.039796008286771
 40
5.06751036978423
 40
5.094263603185444
 40
5.153120716668079
 40
5.211977830150525
 40
5.238731063551532
 40
5.272290535138771
 40
5.363380529444632
 40
5.497618415781309
 40
5.660621563453551
 40
5.838007341749252
 40
6.015393119910604
 40
6.178396267038229
 40
6.312634151842181
 40
6.40372414305917
 40
6.437283612672266
 40
6.46403684626088
 40
6.522893960004499
 40
6.581751071483763
 40
6.60850430159071
 40
6.637253941280857
 40
6.711397748902709
 40
6.812778057283293
 40
6.923237199249012
 40
7.024617507623685
 40
7.098761315207309
 40
7.127510946007259
 40
7.127510946007259
 40
7.127510946007259
 40
7.127510946007259
 10
188.4418622390565
 20
14.9584912847326
 10
188.4418622819707
 20
14.94707313408716
 10
188.441862448113
 20
14.90555257842625
 10
188.4418593081787
 20
14.82146922003769
 10
188.4418788279802
 20
14.70004497322327
 10
188.4417912187737
 20
14.55980494047448
 10
188.4421116235231
 20
14.42006556794578
 10
188.4411605909741
 20
14.29745038894933
 10
188.4431978595968
 20
14.21587074438047
 10
188.4349433178745
 20
14.06271267077703
 10
188.7430797940904
 20
14.22560236054717
 10
189.0350645173735
 20
14.39482938688
 10
189.0408354448709
 20
14.2597323578191
 10
189.0455471719891
 20
14.21617221160444
 10
189.0482535411918
 20
14.17211249350546
 10
189.0672545672957
 20
14.02272590363135
 10
188.6583942247303
 20
14.08681172241261
 10
188.3793710348832
 20
13.97296341411012
 10
188.1018081587168
 20
13.87364095811142
 10
187.80998371844
 20
13.91630687596347
 10
187.7869144678659
 20
13.81321679744539
 10
187.7537474383333
 20
13.78691091244461
 10
187.7480653962739
 20
13.83455309036298
 10
187.7284214559044
 20
13.87180336115066
 10
187.7095089485623
 20
13.93007387847558
 10
187.6942849867708
 20
13.97385201007804
 10
187.6477246372936
 20
14.08759421046304
 10
187.9890897312451
 20
14.05576301120055
 10
188.2679649367383
 20
14.02161435106479
 10
188.2617753034908
 20
14.16913976479652
 10
188.2630935452773
 20
14.24013150908831
 10
188.2624831689948
 20
14.3471976795866
 10
188.2625871570725
 20
14.47398529785997
 10
188.2629987964055
 20
14.60849243496047
 10
188.2613907841968
 20
14.73395549951181
 10
188.2659902567925
 20
14.84505246719114
 10
188.2564186502211
 20
14.90761886800684
 10
188.2704001783691
 20
14.96595388294997
 10
188.2147384386705
 20
14.95289710582233
 10
188.1575655197821
 20
14.96136307749495
 10
188.0616048925648
 20
14.95729976080632
 10
187.963376752282
 20
14.9597088985247
 10
187.8672582457561
 20
14.95551600613384
 10
187.810464852581
 20
14.96429346441158
 10
187.7550356873384
 20
14.95094936850117
 10
187.7670679427917
 20
15.00036910959253
 10
187.7592003173938
 20
15.04393988030391
 10
187.7666295563828
 20
15.08830469118521
 10
187.7551930564144
 20
15.13902297763987
 10
187.8232102370133
 20
15.12162460757739
 10
187.8968496879747
 20
15.13417450237185
 10
188.0325064058211
 20
15.12799677011093
 10
188.1884909024525
 20
15.1302920309308
 10
188.3615926358143
 20
15.12940968262525
 10
188.5346942964181
 20
15.13029207142404
 10
188.6906789811216
 20
15.12799662955546
 10
188.8263351889797
 20
15.13417486262427
 10
188.8999756705652
 20
15.12162394218331
 10
188.9679914174724
 20
15.13902373012138
 10
188.9565590885922
 20
15.08830130414551
 10
188.9639539458298
 20
15.04397060811104
 10
188.956203991227
 20
15.00028307550192
 10
188.9681203741877
 20
14.95063590098473
 10
188.9108170223617
 20
14.96461411338421
 10
188.8520145789772
 20
14.95539755673251
 10
188.75252936332
 20
14.95952268164925
 10
188.6494280098349
 20
14.95822760025883
 10
188.5537846354574
 20
14.95854077077637
 10
188.4857467971617
 20
14.95848776697141
 10
188.4514462213444
 20
14.95849051871652
 10
188.4418622390565
 20
14.9584912847326
 97
        1
330
B0
 75
     1
 76
     2
 52
45.0
 41
0.1
 77
     0
 78
     1
 53
45.0
 43
0.0
 44
0.0
 45
-0.282842712474619
 46
0.0
 79
     0
 98
        1
 10
0.0
 20
0.0
  0
HATCH
  5
CE
330
48
100
AcDbEntity
  8
1
  6
Continuous
 62
     2
100
AcDbHatch
 10
0.0
 20
0.0
 30
0.0
210
0.0
220
0.0
230
1.0
  2
CUSTOM8
 70
     0
 71
     1
 91
        1
 92
        1
 93
        1
 72
     4
 94
        3
 73
     0
 74
     0
 95
       15
 96
       11
 40
0.0
 40
0.0
 40
0.0
 40
0.0
 40
0.2785535985097318
 40
0.5215624748199115
 40
0.6076917376040605
 40
0.6938210001741205
 40
0.9405019146454905
 40
1.221691403489117
 40
1.300471877081036
 40
1.379252341684804
 40
1.379252341684804
 40
1.379252341684804
 40
1.379252341684804
 10
189.5681493630999
 20
16.22930267330379
 10
189.6296017794179
 20
16.17691646592717
 10
189.7446649974114
 20
16.07882876798231
 10
190.0397348497244
 20
15.92889785897215
 10
189.9025147631857
 20
15.84343227515012
 10
189.8041227843778
 20
15.71085785201556
 10
189.713003359065
 20
16.01616985781418
 10
189.3636839480654
 20
16.07967869465372
 10
189.511925837657
 20
16.17896509880876
 10
189.5494081874236
 20
16.2125234840238
 10
189.5681493630999
 20
16.22930267330379
 97
        1
330
B1
 75
     1
 76
     2
 52
45.0
 41
0.1
 77
     0
 78
     1
 53
45.0
 43
0.0
 44
0.0
 45
-0.282842712474619
 46
0.0
 79
     0
 98
        1
 10
0.0
 20
0.0
  0
HATCH
  5
CF
330
48
100
AcDbEntity
  8
1
  6
Continuous
 62
     2
100
AcDbHatch
 10
0.0
 20
0.0
 30
0.0
210
0.0
220
0.0
230
1.0
  2
CUSTOM9
 70
     0
 71
     1
 91
        1
 92
        1
 93
        1
 72
     4
 94
        3
 73
     0
 74
     0
 95
       35
 96
       31
 40
0.0
 40
0.0
 40
0.0
 40
0.0
 40
0.0335231036619709
 40
0.0713218571712052
 40
0.4278866681487511
 40
0.8116865841964829
 40
1.198190238000134
 40
1.561379546812768
 40
1.659983174622154
 40
1.759315573807371
 40
2.132719617231232
 40
2.525233363588947
 40
2.910815397779834
 40
3.265244364303431
 40
3.592606723582242
 40
3.964386154604238
 40
4.359942131738028
 40
4.75815411863955
 40
4.843846538700121
 40
4.936650065543494
 40
5.256616602537627
 40
5.581707404416326
 40
5.899719158308425
 40
6.198363494281024
 40
6.466301046616069
 40
6.493895311537391
 40
6.559697020197185
 40
6.638234543442762
 40
6.704036252154515
 40
6.731630508423322
 40
6.731630508423322
 40
6.731630508423322
 40
6.731630508423322
 10
191.9736010568669
 20
16.23463843719129
 10
191.9676006097789
 20
16.22480690542318
 10
191.9548344099158
 20
16.2038898857979
 10
191.7949362006551
 20
16.17127126532724
 10
192.2322025842338
 20
15.88206680336684
 10
192.4345394828262
 20
15.6804113835844
 10
192.6819564267973
 20
15.43749387603272
 10
193.1831513624607
 20
15.36047662757776
 10
193.012556219897
 20
15.21876939174657
 10
192.9383299463202
 20
15.01710366209105
 10
192.6131432248188
 20
15.36956287174719
 10
192.3277741670664
 20
15.53175212559562
 10
192.0337604077659
 20
15.73687130053048
 10
191.8084452691135
 20
16.21827488595461
 10
191.5993085055522
 20
15.75343046609222
 10
191.3207873674833
 20
15.54350952252913
 10
191.0371383177209
 20
15.37424456359984
 10
190.7078639527832
 20
15.00142360907936
 10
190.6277012318224
 20
15.19708014459006
 10
190.4759724909744
 20
15.32491104190597
 10
190.9083395826795
 20
15.40454031765932
 10
191.0962565329766
 20
15.60026634915471
 10
191.3468477420503
 20
15.81632996916753
 10
191.5714350470162
 20
15.98190992300057
 10
191.6259775409712
 20
16.26133964636832
 10
191.7494661029012
 20
16.24737950408081
 10
191.8060273344519
 20
16.24521268867646
 10
191.8761870984945
 20
16.24046859881359
 10
191.9333414022105
 20
16.23709429350536
 10
191.9644190320839
 20
16.23519854711115
 10
191.9736010568669
 20
16.23463843719129
 97
        1
330
B2
 75
     1
 76
     2
 52
45.0
 41
0.1
 77
     0
 78
     1
 53
45.0
 43
0.0
 44
0.0
 45
-0.282842712474619
 46
0.0
 79
     0
 98
        1
 10
0.0
 20
0.0
  0
HATCH
  5
D0
330
48
100
AcDbEntity
  8
1
  6
Continuous
 62
     2
100
AcDbHatch
 10
0.0
 20
0.0
 30
0.0
210
0.0
220
0.0
230
1.0
  2
CUSTOM10
 70
     0
 71
     1
 91
        1
 92
        1
 93
        1
 72
     4
 94
        3
 73
     0
 74
     0
 95
       91
 96
       87
 40
0.0
 40
0.0
 40
0.0
 40
0.0
 40
0.0267532254356666
 40
0.085610338646396
 40
0.1444674521996372
 40
0.171220685661823
 40
0.2039416005642252
 40
0.29556019716522
 40
0.4362601844616634
 40
0.6162252844506966
 40
0.8256392189704413
 40
1.054685709844382
 40
1.293548478893503
 40
1.532411247938275
 40
1.76145773879954
 40
1.970871673298508
 40
2.150836773256704
 40
2.291536760495565
 40
2.383155356836672
 40
2.415876284101292
 40
2.442629517487931
 40
2.501486630949052
 40
2.56034374442419
 40
2.587096977826458
 40
2.617068194440885
 40
2.699247336756026
 40
2.822032643466339
 40
2.973822353257868
 40
3.143014704823311
 40
3.31800793687989
 40
3.487200288186723
 40
3.638989997548204
 40
3.761775303794702
 40
3.843954445753037
 40
3.873925662229733
 40
3.890812773500428
 40
3.907699884771594
 40
3.937960767857223
 40
3.980983618142258
 40
4.199085915228387
 40
4.439444339237187
 40
4.677588241260802
 40
5.050698317837716
 40
5.448212454763045
 40
5.855291218044512
 40
6.138575438885164
 40
6.417434507583971
 40
6.444551104393631
 40
6.504207617362908
 40
6.563864130314235
 40
6.590980727103804
 40
6.848609460381198
 40
7.109611990668161
 40
7.352910904445821
 40
7.55783022070518
 40
7.587518925913101
 40
7.65283407737553
 40
7.718149228845475
 40
7.747837934061784
 40
7.85488019030077
 40
7.976511257403302
 40
8.369487896592046
 40
8.757514959223368
 40
9.126072419330859
 40
9.460639380391921
 40
9.74669559303566
 40
9.777569943118422
 40
9.807050320931486
 40
9.830377336128626
 40
9.886003295435724
 40
9.952395569429667
 40
10.00802152870605
 40
10.03134854388198
 40
10.21356951009569
 40
10.42203479292851
 40
10.66154556731045
 40
10.91693789564285
 40
11.15832906556544
 40
11.18982674596602
 40
11.27286608520386
 40
11.39026653033328
 40
11.52484752840864
 40
11.65942852648426
 40
11.77682897161462
 40
11.85986831085661
 40
11.89136598230407
 40
11.89136598230407
 40
11.89136598230407
 40
11.89136598230407
 10
190.7027885008196
 20
14.70699600701769
 10
190.7028237765288
 20
14.71587847311982
 10
190.7029366710796
 20
14.74430237047342
 10
190.7012984568489
 20
14.79409639169798
 10
190.7069750292911
 20
14.83657564478149
 10
190.6956928731706
 20
14.88730154856841
 10
190.7632296979032
 20
14.87012900740102
 10
190.83880292107
 20
14.8829022716599
 10
190.9828357056
 20
14.87629729457376
 10
191.1569419185427
 20
14.8788846220646
 10
191.3639599611003
 20
14.87800591955547
 10
191.5894688172378
 20
14.87828207920022
 10
191.8251162293406
 20
14.87818339658656
 10
192.0607640531348
 20
14.87828184412761
 10
192.2862717580626
 20
14.87800678190782
 10
192.4932934632805
 20
14.87888186270729
 10
192.6673888915288
 20
14.8763052267844
 10
192.8114492071986
 20
14.88288290449208
 10
192.8869691915293
 20
14.87016243405598
 10
192.954577603703
 20
14.8872640019168
 10
192.9430840140676
 20
14.83674785802935
 10
192.9505104581733
 20
14.79253252226497
 10
192.9428838927986
 20
14.74867966503606
 10
192.9546489459425
 20
14.69878374479324
 10
192.8930788491983
 20
14.71393227712509
 10
192.8256791738671
 20
14.7031066535067
 10
192.7013004056222
 20
14.70852031626233
 10
192.555442823657
 20
14.70649205390782
 10
192.3893576440086
 20
14.70715777578384
 10
192.2188412621724
 20
14.70689643521239
 10
192.0519790855388
 20
14.7072155339109
 10
191.9087346827105
 20
14.70635302590759
 10
191.7773313869834
 20
14.70863300482984
 10
191.7239859134657
 20
14.704077043742
 10
191.6485188456912
 20
14.70999914992872
 10
191.6769075779233
 20
14.70094169343354
 10
191.7033652409542
 20
14.69725912268935
 10
191.6633522907702
 20
14.66654271968275
 10
191.5713663691867
 20
14.67667591174634
 10
191.5439396207071
 20
14.43032502247783
 10
191.4478793967235
 20
14.27499558764375
 10
191.1917277964474
 20
13.94525417931567
 10
191.7627537732763
 20
14.08430022210449
 10
192.0173656320517
 20
14.08291779973364
 10
192.6279647048617
 20
13.99790569242082
 10
192.3340698578084
 20
14.29685417558203
 10
192.0133304286516
 20
14.44330856901772
 10
192.1313543360435
 20
14.50025540818287
 10
192.1724716466261
 20
14.52420099873347
 10
192.2156812394411
 20
14.54599758811229
 10
192.317457409445
 20
14.60928721253907
 10
192.4328867625247
 20
14.35147151408776
 10
192.6329591642277
 20
14.21616041113681
 10
192.7269077387228
 20
14.03792795138879
 10
192.9558829746393
 20
13.8799782102705
 10
192.8596031846708
 20
13.82915972576299
 10
192.8167959763779
 20
13.79881292523051
 10
192.7718243528779
 20
13.77466130281455
 10
192.7121720925214
 20
13.72552146747561
 10
192.6789731061324
 20
13.85997475673607
 10
192.5582013350796
 20
14.01594265286575
 10
192.1970976005979
 20
13.88569928059553
 10
191.8385061955541
 20
13.9022469440948
 10
191.457092045008
 20
13.89331229351863
 10
191.170345528289
 20
13.82882671672403
 10
190.8592055599715
 20
13.94230668192831
 10
190.8268737818788
 20
13.83122259927768
 10
190.7896178253319
 20
13.81196313850006
 10
190.7865737632754
 20
13.85874784087293
 10
190.7679892860608
 20
13.8980685391913
 10
190.7512436616778
 20
13.95765983478231
 10
190.7383730915754
 20
14.00201969871282
 10
190.7042327806428
 20
14.09106331120201
 10
190.9482714457754
 20
14.02181042943769
 10
191.1441394486671
 20
14.00030369057742
 10
191.2395426381277
 20
14.28226484478462
 10
191.2945135769596
 20
14.44363045421121
 10
191.5159619357156
 20
14.71391177589736
 10
191.3849239381216
 20
14.70548446853731
 10
191.3110026555854
 20
14.70779008496967
 10
191.1977459876244
 20
14.70671378321655
 10
191.0694251807484
 20
14.70707639076507
 10
190.9404252030415
 20
14.70697724466083
 10
190.828784094629
 20
14.70699932712569
 10
190.7514663970026
 20
14.70699579189667
 10
190.713287653201
 20
14.70699595845078
 10
190.7027885008196
 20
14.70699600701769
 97
        1
330
B3
 75
     1
 76
     2
 52
45.0
 41
0.1
 77
     0
 78
     1
 53
45.0
 43
0.0
 44
0.0
 45
-0.282842712474619
 46
0.0
 79
     0
 98
        1
 10
0.0
 20
0.0
  0
HATCH
  5
D1
330
48
100
AcDbEntity
  8
1
  6
Continuous
 62
     2
100
AcDbHatch
 10
0.0
 20
0.0
 30
0.0
210
0.0
220
0.0
230
1.0
  2
CUSTOM11
 70
     0
 71
     1
 91
        1
 92
        1
 93
        1
 72
     4
 94
        3
 73
     0
 74
     0
 95
      131
 96
      127
 40
0.0
 40
0.0
 40
0.0
 40
0.0
 40
0.0195577029826771
 40
0.0426490537462413
 40
0.2863607575857697
 40
0.5344948436190377
 40
0.7842238845574216
 40
0.8737315789468576
 40
0.9803832810314073
 40
1.092842274517157
 40
1.199761146656922
 40
1.289788768186639
 40
1.351573580786324
 40
1.370727117561549
 40
1.416400936017957
 40
1.470914848356094
 40
1.516588666791882
 40
1.53574220355296
 40
1.634216592293266
 40
1.760283341175049
 40
1.897966686682189
 40
2.031216387368994
 40
2.049689751137989
 40
2.101115601646926
 40
2.179502577740047
 40
2.278859318314166
 40
2.393194462258827
 40
2.516516648383945
 40
2.642834515406077
 40
2.766156701983586
 40
2.880491846754702
 40
2.979848588358748
 40
3.058235565443927
 40
3.109661416669084
 40
3.128134780704261
 40
3.146783742386578
 40
3.191254343315467
 40
3.244332157316126
 40
3.288802758226058
 40
3.307451719895329
 40
3.327717853844941
 40
3.383747753580303
 40
3.468388665924697
 40
3.574487837699006
 40
3.694892515729117
 40
3.822449946852257
 40
3.950007377920652
 40
4.070412055800746
 40
4.176511227368303
 40
4.261152139501753
 40
4.317182039076947
 40
4.337448172964868
 40
4.620011002696484
 40
4.885096638397765
 40
4.945373043518601
 40
5.014107710488925
 40
5.070481727652331
 40
5.319246955636841
 40
5.584812164506329
 40
5.859000912057185
 40
6.13374693754238
 40
6.401732212969239
 40
6.420736683995858
 40
6.472845717451452
 40
6.550702743894436
 40
6.646951193874645
 40
6.754234497930969
 40
6.865196086587775
 40
6.972479390358234
 40
7.068727839772424
 40
7.146584865451433
 40
7.198693898189663
 40
7.217698368905803
 40
7.234950401631271
 40
7.276089864270285
 40
7.325191803516362
 40
7.366331266090721
 40
7.383583298770062
 40
7.402779163492439
 40
7.45338644325487
 40
7.524934666445872
 40
7.606953361406211
 40
7.688972056429363
 40
7.760520279784614
 40
7.811127559734856
 40
7.830323424546477
 40
7.847844055300107
 40
7.894799345667155
 40
7.96277939274485
 40
8.043374293560909
 40
8.128174145149826
 40
8.208769044817638
 40
8.276749090377349
 40
8.323704379669914
 40
8.341225010056649
 40
8.358497614800797
 40
8.401679126687002
 40
8.45781509218606
 40
8.513951057728464
 40
8.55713256970842
 40
8.574405174505463
 40
8.602340668616772
 40
8.643455660540317
 40
8.663225271966988
 40
8.71534515656464
 40
8.789031889628978
 40
8.873502045520716
 40
8.957972194324348
 40
9.031658925568246
 40
9.083778811234938
 40
9.103548423003403
 40
9.119550083123968
 40
9.160817522380242
 40
9.217244429110636
 40
9.278724491645121
 40
9.335151398295878
 40
9.376418837358173
 40
9.39242049730096
 40
9.401196302735208
 40
9.417494229384658
 40
9.42627002774996
 40
9.440875075477965
 40
9.475702496999162
 40
9.517270709866317
 40
9.552098131994478
 40
9.566703169884683
 40
9.566703169884683
 40
9.566703169884683
 40
9.566703169884683
 10
194.617025414848
 20
15.67015871511029
 10
194.6134345093372
 20
15.66453690702159
 10
194.6056039123625
 20
15.6522775441911
 10
194.5129968974546
 20
15.61601916040995
 10
194.4887622233247
 20
15.40148444212706
 10
194.3858709845938
 20
15.22197284509711
 10
194.1220492364305
 20
15.03615573798143
 10
194.284547156918
 20
14.95959336566084
 10
194.3607225760838
 20
14.89856693195443
 10
194.4492171072758
 20
14.83515804544761
 10
194.538993023311
 20
14.77525634219561
 10
194.5883817636047
 20
14.72102154849208
 10
194.6745708157382
 20
14.6928624054183
 10
194.6411260674229
 20
14.65713309652807
 10
194.6214671166311
 20
14.62550387991903
 10
194.5919888217882
 20
14.58475872796066
 10
194.5688989446031
 20
14.55504663489641
 10
194.5380205968357
 20
14.50211422668493
 10
194.4729193365741
 20
14.62740334938898
 10
194.3796000122417
 20
14.68213900233939
 10
194.295063628514
 20
14.73916423939338
 10
194.1722498125742
 20
14.89675287427523
 10
194.1764450847302
 20
14.82035806766838
 10
194.1751478652678
 20
14.77361280161297
 10
194.1758126448077
 20
14.69584785812602
 10
194.1755549986958
 20
14.59902068324423
 10
194.1756431239921
 20
14.48650279078809
 10
194.1756077302282
 20
14.365240859457
 10
194.175651175828
 20
14.24086897858961
 10
194.1755199942406
 20
14.11967683631335
 10
194.1759477562047
 20
14.00691148919742
 10
194.1746678202312
 20
13.91082913768743
 10
194.1779759851044
 20
13.83113826468698
 10
194.1715197740088
 20
13.78815175788783
 10
194.1806208705556
 20
13.7495543237204
 10
194.1447910339936
 20
13.75810887724069
 10
194.1115223815252
 20
13.75342519985445
 10
194.0604562576041
 20
13.75351298759782
 10
194.0269723972813
 20
13.75794430283819
 10
193.9907585408754
 20
13.74960793842507
 10
194.0009782568665
 20
13.79145277179282
 10
193.9936487887774
 20
13.83778560820172
 10
193.9973633136102
 20
13.92374831106012
 10
193.9959480554897
 20
14.02605142704848
 10
193.9964105554638
 20
14.14453223931511
 10
193.996277368623
 20
14.26957683153355
 10
193.9963015910045
 20
14.3947582810705
 10
193.9963354925551
 20
14.51286645379058
 10
193.9962060293132
 20
14.61628748709516
 10
193.9965507549081
 20
14.69932036153667
 10
193.9958698278689
 20
14.75143368521244
 10
193.9994586600625
 20
14.87912907821362
 10
193.7826171386436
 20
14.58048716819621
 10
193.602135492195
 20
14.35263981511511
 10
193.5490322295612
 20
14.49373443289814
 10
193.5200429133148
 20
14.54325767560944
 10
193.419664806282
 20
14.64641779790109
 10
193.7405127723261
 20
14.72695035023779
 10
193.868989700543
 20
14.91066283036434
 10
194.0906454325358
 20
15.11931995771762
 10
194.1770224894069
 20
15.29339211228348
 10
194.4549394229075
 20
15.56967051342517
 10
194.3346247839285
 20
15.56534559551119
 10
194.286319735135
 20
15.56614856202557
 10
194.2102377454905
 20
15.5657458214659
 10
194.1167010009751
 20
15.56590275611614
 10
194.0117594788557
 20
15.56582502576229
 10
193.9033887738718
 20
15.56595464378559
 10
193.7981454235897
 20
15.56554393490697
 10
193.7056237819413
 20
15.56682073671596
 10
193.6268130800707
 20
15.56340766534855
 10
193.5839674565379
 20
15.57023350036325
 10
193.5449499586516
 20
15.56065064201129
 10
193.5526365271863
 20
15.59420779565545
 10
193.5485464404311
 20
15.62523550322233
 10
193.5485531368814
 20
15.67236529270898
 10
193.5526239724911
 20
15.70340941646774
 10
193.5449495574583
 20
15.73701861635895
 10
193.5834819405495
 20
15.72748410420866
 10
193.6241228014479
 20
15.73397435498065
 10
193.6951471850463
 20
15.73100150650248
 10
193.7729318149633
 20
15.73174761399151
 10
193.8507292246474
 20
15.73247814044519
 10
193.9217232089907
 20
15.72954235514154
 10
193.962427979182
 20
15.73595468772946
 10
194.000985348991
 20
15.72650524175998
 10
193.9927342754927
 20
15.76264692158778
 10
193.9982346669358
 20
15.80129837613222
 10
193.9955754206163
 20
15.86913528561834
 10
193.9965815471533
 20
15.94591641538736
 10
193.9960178018319
 20
16.02849393582754
 10
193.9970714526593
 20
16.10517329229877
 10
193.9942675863129
 20
16.17331990776698
 10
194.0000702721304
 20
16.21132399809347
 10
193.9915654551158
 20
16.24758448077646
 10
194.0255610233125
 20
16.23755723771852
 10
194.05945756831
 20
16.24073266813706
 10
194.1126669060346
 20
16.23508965640608
 10
194.1660768574483
 20
16.23434774436424
 10
194.1995914649491
 20
16.22819223482978
 10
194.2388086183039
 20
16.23346029773591
 10
194.2120263698493
 20
16.19253380793486
 10
194.1708111001724
 20
16.20371204538108
 10
194.1782641540875
 20
16.15867056192121
 10
194.1742227952184
 20
16.11412278028141
 10
194.1761714049641
 20
16.04223572621699
 10
194.1752364849759
 20
15.96168630588766
 10
194.176510719003
 20
15.8817399540499
 10
194.1732043793864
 20
15.80841837083177
 10
194.1802106179962
 20
15.76688643002562
 10
194.1701440380126
 20
15.72752418568106
 10
194.2029814803922
 20
15.73468063430975
 10
194.2364577296482
 20
15.73027243137938
 10
194.2915053476019
 20
15.73217943347891
 10
194.3489502595316
 20
15.73185366407282
 10
194.402302624831
 20
15.73106308733076
 10
194.4398540896639
 20
15.73313959118068
 10
194.4623172523238
 20
15.73022338167103
 10
194.4751678073732
 20
15.73572552644049
 10
194.485825568589
 20
15.73801118197786
 10
194.4986635650144
 20
15.74494972588048
 10
194.5145991033072
 20
15.72853046313667
 10
194.5410623920892
 20
15.71709122319447
 10
194.5726805253759
 20
15.6964468783519
 10
194.5987255892153
 20
15.68116869628295
 10
194.6128517723974
 20
15.67266976323185
 10
194.617025414848
 20
15.67015871511029
 97
        1
330
B4
 75
     1
 76
     2
 52
45.0
 41
0.1
 77
     0
 78
     1
 53
45.0
 43
0.0
 44
0.0
 45
-0.282842712474619
 46
0.0
 79
     0
 98
        1
 10
0.0
 20
0.0
  0
HATCH
  5
D2
330
48
100
AcDbEntity
  8
1
  6
Continuous
 62
     2
100
AcDbHatch
 10
0.0
 20
0.0
 30
0.0
210
0.0
220
0.0
230
1.0
  2
CUSTOM12
 70
     0
 71
     1
 91
        1
 92
        1
 93
        1
 72
     4
 94
        3
 73
     0
 74
     0
 95
      124
 96
      120
 40
0.0
 40
0.0
 40
0.0
 40
0.0
 40
0.0278187229624226
 40
0.1011590162383985
 40
0.2048470170589954
 40
0.3237088716558677
 40
0.4425707262521431
 40
0.5462587270698694
 40
0.6195990203311229
 40
0.6474177522577808
 40
0.6750060736114389
 40
0.7357003855241906
 40
0.7963946998053604
 40
0.8239830245570914
 40
0.8540933811102007
 40
0.9373396629408688
 40
1.06309468734315
 40
1.220731268637988
 40
1.399622220914662
 40
1.589140358637647
 40
1.778658496423813
 40
1.957549448940423
 40
2.115186030873073
 40
2.240941056914378
 40
2.324187341760447
 40
2.354297700109297
 40
2.381886024671805
 40
2.44258033871039
 40
2.503274652750412
 40
2.530862977314521
 40
2.560983949278474
 40
2.640393784452848
 40
2.752662861759071
 40
2.88136156011806
 40
3.010060258455163
 40
3.122329335705339
 40
3.201739170817924
 40
3.231860142753313
 40
3.264298024030368
 40
3.352343701778236
 40
3.482095226868753
 40
3.639650650173007
 40
3.811108022565459
 40
3.982565394927961
 40
4.140120818152536
 40
4.26987234314124
 40
4.357918020802299
 40
4.390355902043926
 40
4.423256253992496
 40
4.508104530073045
 40
4.624121560636813
 40
4.75052817603157
 40
4.866545206602045
 40
4.951393482692031
 40
4.984293834645432
 40
5.011450833242347
 40
5.071196230152133
 40
5.130941627057209
 40
5.158098625648875
 40
5.190998977601565
 40
5.275847253689391
 40
5.391864284256882
 40
5.518270899648427
 40
5.634287930209466
 40
5.71913620628814
 40
5.752036558236056
 40
5.782130946283083
 40
5.86278390622926
 40
5.979550131775134
 40
6.117984316640544
 40
6.263641154588094
 40
6.402075339414307
 40
6.518841564908111
 40
6.599494524815696
 40
6.629588912848933
 40
6.65440302822651
 40
6.71357514948825
 40
6.784199939329568
 40
6.843372060493614
 40
6.86818617580286
 40
6.896246243201955
 40
6.939586233758281
 40
6.967846564564908
 40
7.043584251089843
 40
7.153234334451696
 40
7.28323185573444
 40
7.420011856035465
 40
7.55000937657981
 40
7.659659458835204
 40
7.735397144417195
 40
7.763657474851366
 40
7.796409728011023
 40
7.880876065096297
 40
7.996370852465683
 40
8.122208446418577
 40
8.237703224799171
 40
8.322169562010894
 40
8.354921815205879
 40
8.38207881330766
 40
8.441824209206967
 40
8.501569605240116
 40
8.528726603485694
 40
8.561478856695715
 40
8.645945193877765
 40
8.761439980865305
 40
8.887277580764447
 40
9.002772362000968
 40
9.08723869666116
 40
9.119990949235643
 40
9.15242883061334
 40
9.240474508638552
 40
9.370226034149498
 40
9.527781457984377
 40
9.69923883098136
 40
9.870696203978543
 40
10.02825162781396
 40
10.15800315332557
 40
10.24604883135112
 40
10.27848670378514
 40
10.27848670378514
 40
10.27848670378514
 40
10.27848670378514
 10
195.3821827564384
 20
14.0141051738576
 10
195.3914554737524
 20
14.01410498511277
 10
195.4251744536861
 20
14.01410430876717
 10
195.4934706812466
 20
14.01411807243307
 10
195.592014171158
 20
14.01403224219548
 10
195.7062066464812
 20
14.01441755612253
 10
195.8185894417071
 20
14.01300835897548
 10
195.9214376600119
 20
14.01719117422246
 10
195.9806839874849
 20
14.00823089251986
 10
196.0371265937032
 20
14.02164434526063
 10
196.0246255586955
 20
13.97087198613363
 10
196.0329549635703
 20
13.92589320939069
 10
196.024817084112
 20
13.88056752990491
 10
196.0370529214457
 20
13.82931932408469
 10
195.9747773490333
 20
13.84447955365279
 10
195.9060513026868
 20
13.83359750710746
 10
195.7782756749592
 20
13.83911304747975
 10
195.6262984511643
 20
13.83700851253701
 10
195.4502695972523
 20
13.83771002588476
 10
195.2644431934287
 20
13.83745237531295
 10
195.0786167437175
 20
13.83771005144606
 10
194.9025880142168
 20
13.83700841847734
 10
194.7506104154195
 20
13.83911332229992
 10
194.6228357664554
 20
13.83359680767643
 10
194.5541077836581
 20
13.84448077125945
 10
194.4918349042883
 20
13.82931786684212
 10
194.5040616290017
 20
13.88057510805175
 10
194.4960004462597
 20
13.92582473272428
 10
194.5040675809892
 20
13.97106357955326
 10
194.4918238487084
 20
14.02234176909961
 10
194.5525017120698
 20
14.00749577363137
 10
194.6162810745737
 20
14.01756448170737
 10
194.7277314353503
 20
14.01294644212003
 10
194.8497533443823
 20
14.01413328905471
 10
194.9719538137824
 20
14.01515863900638
 10
195.0829794287393
 20
14.01092475623404
 10
195.1476517413958
 20
14.02018584521742
 10
195.2091162810502
 20
14.00604423049684
 10
195.1930065601337
 20
14.07235527884519
 10
195.2042980327359
 20
14.14447790121978
 10
195.1987400822562
 20
14.27513760888288
 10
195.2008035061691
 20
14.42607323708242
 10
195.2000167127295
 20
14.59335873107887
 10
195.2007845215628
 20
14.76061110332303
 10
195.198803878563
 20
14.91163289269914
 10
195.2041306156621
 20
15.04206069552994
 10
195.1933101388425
 20
15.11465442605898
 10
195.2090326429876
 20
15.18150469436797
 10
195.1432708132491
 20
15.16580512490822
 10
195.0756367830764
 20
15.17609243083995
 10
194.961588529381
 20
15.1711378684712
 10
194.8451242674903
 20
15.17414128030474
 10
194.7306554121477
 20
15.16880303143388
 10
194.6640324657812
 20
15.18001268074823
 10
194.5990769715186
 20
15.1634913266501
 10
194.6107989758707
 20
15.21473720477057
 10
194.6032830189122
 20
15.2595033378409
 10
194.6107989878835
 20
15.30426944897961
 10
194.5990769505346
 20
15.3555153612974
 10
194.66403263392
 20
15.33899381766814
 10
194.7306533339821
 20
15.35020571373942
 10
194.8451352858064
 20
15.34485436710663
 10
194.9615454436963
 20
15.34791188771116
 10
195.0757660174642
 20
15.34278499010707
 10
195.1430150439227
 20
15.35345733355597
 10
195.2083325941439
 20
15.33742082669075
 10
195.1941391448553
 20
15.39949685750052
 10
195.2036059462996
 20
15.46586761628762
 10
195.1990269004085
 20
15.58239972741966
 10
195.2007696555949
 20
15.71426685022376
 10
195.1997551495392
 20
15.85615960150274
 10
195.2017191344373
 20
15.98769050702581
 10
195.1964668553852
 20
16.10524577283005
 10
195.2073408763474
 20
16.16947789001586
 10
195.1919536641855
 20
16.2310880254505
 10
195.2407591537801
 20
16.21702407382114
 10
195.2853995564727
 20
16.21954742075315
 10
195.3538643946742
 20
16.21512797401711
 10
195.3959106169103
 20
16.20613025544036
 10
195.4487544758775
 20
16.21411714866511
 10
195.4207035002014
 20
16.17113917611675
 10
195.3749142248595
 20
16.18259552043828
 10
195.3869539073266
 20
16.12173520005133
 10
195.3796086070642
 20
16.05769299468768
 10
195.3831195826162
 20
15.94909368863907
 10
195.3819806760173
 20
15.82494319144748
 10
195.3819174780264
 20
15.69189719829876
 10
195.3832872966868
 20
15.56797381249553
 10
195.3791638801315
 20
15.45868337849337
 10
195.3877763103564
 20
15.39608580094169
 10
195.3746757454403
 20
15.33740133296364
 10
195.4393884328199
 20
15.35362113810901
 10
195.5060405953157
 20
15.34270260383311
 10
195.6198779541103
 20
15.34793740173755
 10
195.7357259122097
 20
15.34485547516912
 10
195.8496924263281
 20
15.35018259812512
 10
195.91603410181
 20
15.33904208166541
 10
195.980718852548
 20
15.35546979593176
 10
195.9689820772724
 20
15.3042592521005
 10
195.9765168063041
 20
15.25950334120999
 10
195.968982099226
 20
15.21474739010026
 10
195.9807188140737
 20
15.1635369087104
 10
195.9160344075253
 20
15.17996427794218
 10
195.8496886430826
 20
15.16882784447268
 10
195.7357459487013
 20
15.17413115893119
 10
195.6197995623055
 20
15.17114764593543
 10
195.5062756882124
 20
15.17606892268393
 10
195.4389231318804
 20
15.16585087513518
 10
195.3734285122496
 20
15.18145996138815
 10
195.3891713619218
 20
15.1146385182741
 10
195.3783275998215
 20
15.04207057815877
 10
195.3836581629792
 20
14.91162247614416
 10
195.3817136151856
 20
14.76064558185226
 10
195.3823133683215
 20
14.59322243934159
 10
195.3821506559606
 20
14.42656176118373
 10
195.3821895488136
 20
14.27360142921638
 10
195.38218164131
 20
14.14849178985707
 10
195.3821828382745
 20
14.06507890991423
 10
195.382182771621
 20
14.02491778281979
 10
195.3821827564384
 20
14.0141051738576
 97
        1
330
B5
 75
     1
 76
     2
 52
45.0
 41
0.1
 77
     0
 78
     1
 53
45.0
 43
0.0
 44
0.0
 45
-0.282842712474619
 46
0.0
 79
     0
 98
        1
 10
0.0
 20
0.0
  0
HATCH
  5
D3
330
48
100
AcDbEntity
  8
1
  6
Continuous
 62
     2
100
AcDbHatch
 10
0.0
 20
0.0
 30
0.0
210
0.0
220
0.0
230
1.0
  2
CUSTOM13
 70
     0
 71
     1
 91
        1
 92
        1
 93
        3
 72
     4
 94
        3
 73
     0
 74
     0
 95
       24
 96
       20
 40
0.0
 40
0.0
 40
0.0
 40
0.0
 40
0.2211075008753792
 40
0.4273218586246031
 40
0.5080174679239905
 40
0.5914835907870326
 40
0.8143265690193185
 40
1.054651302686614
 40
1.295452694023189
 40
1.518109231328797
 40
1.540864321905383
 40
1.595126460622641
 40
1.65989094789595
 40
1.714153085187249
 40
1.736908174961547
 40
1.764951100735226
 40
1.801562291220781
 40
1.953914424543522
 40
2.126104167379622
 40
2.126104167379622
 40
2.126104167379622
 40
2.126104167379622
 10
185.9375369556889
 20
15.5898929511302
 10
185.9112579081812
 20
15.53097628234377
 10
185.8604698894426
 20
15.41711139679257
 10
185.8131784839111
 20
15.14441958233109
 10
185.7043482802618
 20
15.24445482575453
 10
185.5514800279638
 20
15.27118593367336
 10
185.7686155181201
 20
15.4851813501763
 10
185.7838483674381
 20
15.7033211778249
 10
185.8906889492002
 20
15.88451579066424
 10
185.8305380947077
 20
16.16913226311397
 10
185.9334317395403
 20
16.14114089222447
 10
185.977993346815
 20
16.13243251602298
 10
186.0380842395397
 20
16.12139654183357
 10
186.0756619587438
 20
16.1076752305556
 10
186.1252466928606
 20
16.10756076160228
 10
186.0930158919326
 20
16.07306592398622
 10
186.0171802221881
 20
16.08404104537972
 10
186.0429447159693
 20
15.89858969582446
 10
186.005589676385
 20
15.80702313549583
 10
185.985770496161
 20
15.75844135397699
 72
     4
 94
        3
 73
     0
 74
     0
 95
       70
 96
       66
 40
0.0
 40
0.0
 40
0.0
 40
0.0
 40
0.0241731073021472
 40
0.0846058988986729
 40
0.1631685280352999
 40
0.2417311571788903
 40
0.3021639488291898
 40
0.3263370654894688
 40
0.3533118254248082
 40
0.4228783438921436
 40
0.5179999095312958
 40
0.6216398239465853
 40
0.7167613891499635
 40
0.786327906964997
 40
0.8133026791761978
 40
0.8372943998771821
 40
0.8945054261373024
 40
0.9627895541963093
 40
1.020000580349177
 40
1.043992300975275
 40
1.071934345523029
 40
1.113121768772991
 40
1.145225199332315
 40
1.225483775412861
 40
1.32981992377158
 40
1.434156071994477
 40
1.514414647795908
 40
1.546518078208517
 40
1.578974764260319
 40
1.662678849314257
 40
1.777131373668506
 40
1.901833377474897
 40
2.016285900500687
 40
2.099989982528054
 40
2.132446666570412
 40
2.158782354486135
 40
2.216720867907914
 40
2.274659381334332
 40
2.300995069256263
 40
2.333451754066235
 40
2.417155836543916
 40
2.531608358985355
 40
2.65631036228385
 40
2.770762886388983
 40
2.854466971340148
 40
2.886923657363954
 40
2.913597976833385
 40
2.982389642875178
 40
3.07645171694703
 40
3.178937260458628
 40
3.272999334740019
 40
3.341791001059231
 40
3.368465320663538
 40
3.39697608073876
 40
3.472140811845967
 40
3.578408190308657
 40
3.700226892456065
 40
3.822045594634282
 40
3.92831297325636
 40
4.003477705314758
 40
4.031988456866824
 40
4.058324144797629
 40
4.116262658236803
 40
4.174201171400615
 40
4.200536849608554
 40
4.200536849608554
 40
4.200536849608554
 40
4.200536849608554
 10
185.985770496161
 20
15.75844135397699
 10
185.993825954468
 20
15.7584435981168
 10
186.0220200663241
 20
15.75845146032791
 10
186.0765534803674
 20
15.75830754828365
 10
186.1482891808604
 20
15.75909120499892
 10
186.2236240137062
 20
15.75627570463805
 10
186.2713052366439
 20
15.76298403400951
 10
186.3195071245616
 20
15.75197563692426
 10
186.3062571799873
 20
15.80546402997028
 10
186.3151093964538
 20
15.86049583543087
 10
186.3108698036285
 20
15.95419908726107
 10
186.313348348128
 20
16.04959482218532
 10
186.3090938706059
 20
16.14356821983388
 10
186.3179818665846
 20
16.19795062438016
 10
186.3046977409945
 20
16.25233997691464
 10
186.3514119277109
 20
16.2384221633536
 10
186.3943254545737
 20
16.24103877374046
 10
186.4605443456686
 20
16.23648422450754
 10
186.5013342271799
 20
16.22778162134162
 10
186.5525145690819
 20
16.23531799890191
 10
186.5253720487201
 20
16.19349970223288
 10
186.4803096055708
 20
16.20284992072591
 10
186.4942065045051
 20
16.13841207371836
 10
186.4858414431654
 20
16.07378219627395
 10
186.4903632178399
 20
15.97529141193884
 10
186.4854741311167
 20
15.87595932842565
 10
186.4950258992082
 20
15.81293115552963
 10
186.4799761455201
 20
15.74964011499782
 10
186.5449159457209
 20
15.76515072944263
 10
186.6116246399498
 20
15.75499387697806
 10
186.7241435470828
 20
15.75988800099361
 10
186.8390235448954
 20
15.75691204732777
 10
186.9519871999748
 20
15.76221664184985
 10
187.0176267597678
 20
15.75107306472082
 10
187.0816276691054
 20
15.76744532319852
 10
187.070314288919
 20
15.71761689905269
 10
187.0775339871511
 20
15.67416715212118
 10
187.070314261127
 20
15.6307174558744
 10
187.0816277175995
 20
15.58088895196873
 10
187.0176263598972
 20
15.59726166091358
 10
186.951992124046
 20
15.58611271661584
 10
186.8389974317332
 20
15.5914485720685
 10
186.7242456548644
 20
15.58834345663818
 10
186.6113183686862
 20
15.59364894682584
 10
186.5455220903585
 20
15.58257300019589
 10
186.4816097975359
 20
15.59887597847614
 10
186.4936015165127
 20
15.54423524395738
 10
186.4862104613006
 20
15.48854295047839
 10
186.4892684841984
 20
15.39649689140569
 10
186.4893422785684
 20
15.30179109873101
 10
186.4860313578361
 20
15.20952782902267
 10
186.4939505989904
 20
15.15435768736141
 10
186.4815076611618
 20
15.10058169100139
 10
186.5389116551633
 20
15.11453768862784
 10
186.5994708140383
 20
15.10511457884229
 10
186.7048680855081
 20
15.10942885928707
 10
186.8204294070623
 20
15.10835504612034
 10
186.9359688877797
 20
15.10725965900998
 10
187.0414181130841
 20
15.11162525770635
 10
187.1018680471804
 20
15.10209426030674
 10
187.159283773911
 20
15.11617289606382
 10
187.1477773876709
 20
15.06707153265685
 10
187.1537566781749
 20
15.0256465801865
 10
187.1520311050801
 20
14.97651677966695
 10
187.1521500122971
 20
14.94854428447607
 10
187.1521871691833
 20
14.93980288195949
 72
     4
 94
        3
 73
     0
 74
     0
 95
       62
 96
       58
 40
0.0
 40
0.0
 40
0.0
 40
0.0
 40
0.0598250028308485
 40
0.2024846486897331
 40
0.3727558389221031
 40
0.515415484793607
 40
0.5752404975785339
 40
0.9332326775487201
 40
1.290451762839478
 40
1.602077253145908
 40
1.699931634112189
 40
1.79935975642508
 40
2.270120149657208
 40
2.804661928461599
 40
2.882342287383312
 40
3.076543185719168
 40
3.329004354835635
 40
3.581465524568467
 40
3.775666424543753
 40
3.853346784558375
 40
3.899120679595149
 40
3.984129341792175
 40
4.029903236817552
 40
4.105797496059705
 40
4.295533144152659
 40
4.542189486611895
 40
4.788845828875835
 40
4.978581476410214
 40
5.054475735244455
 40
5.621734664339441
 40
6.130867242037389
 40
6.225249780948681
 40
6.318913039727388
 40
6.663579954559008
 40
7.047498900224888
 40
7.435230791575806
 40
7.498943906668218
 40
7.650875181210155
 40
7.832212509001637
 40
7.984143783697023
 40
8.04785689890315
 40
8.091554632732667
 40
8.172707566964345
 40
8.216405300768075
 40
8.289021782160932
 40
8.462184160757277
 40
8.668861838005386
 40
8.84202421526392
 40
8.914640695475116
 40
8.98988158086131
 40
9.155411528827194
 40
9.320941477743952
 40
9.396182352487195
 40
9.454709011143741
 40
9.583467660170676
 40
9.712226309012955
 40
9.770752957989409
 40
9.770752957989409
 40
9.770752957989409
 40
9.770752957989409
 10
187.1521871691833
 20
14.93980288195949
 10
187.1322348171623
 20
14.93980875568671
 10
187.0647037716466
 20
14.93982863806156
 10
186.9410612161788
 20
14.93949362520325
 10
186.7863180150056
 20
14.9410767375051
 10
186.669734948248
 20
14.93686078860495
 10
186.4550942634241
 20
14.95215205331625
 10
186.8518948407228
 20
14.59198721286192
 10
186.8945656069267
 20
14.37510503397164
 10
187.3189162146612
 20
14.19325062511452
 10
187.1439821496075
 20
14.08985196568072
 10
187.0194523925084
 20
13.87831523212721
 10
186.7666277235943
 20
14.34806081001554
 10
186.4797602893627
 20
14.99511516984518
 10
186.4906335926662
 20
14.68782672154693
 10
186.488289277796
 20
14.52288616971777
 10
186.4861096126411
 20
14.28879670711691
 10
186.4980774396348
 20
14.04498072421781
 10
186.4687984740631
 20
13.89855796860981
 10
186.511452262547
 20
13.75113490174534
 10
186.423981400564
 20
13.76685797306217
 10
186.3768527606745
 20
13.76694303543452
 10
186.2898973207712
 20
13.75109425482905
 10
186.3313474021722
 20
13.89527771422758
 10
186.3029875004286
 20
14.03855052698452
 10
186.31459737753
 20
14.2767494736526
 10
186.3124175648272
 20
14.50517235240341
 10
186.3103111127993
 20
14.66705729375989
 10
186.3208035438323
 20
14.98153709333745
 10
186.0128963252893
 20
14.29229470872437
 10
185.7055258267456
 20
13.8147675024305
 10
185.5851367066275
 20
14.03741112637429
 10
185.4074607910721
 20
14.15011034955557
 10
185.8853326362895
 20
14.32548143465462
 10
185.9353959057208
 20
14.56091929252027
 10
186.3583799621718
 20
14.95322989344606
 10
186.127675427354
 20
14.93655307029065
 10
186.0049685859341
 20
14.94269518948769
 10
185.8325483095662
 20
14.93312822699573
 10
185.721322469445
 20
14.95448818489665
 10
185.6025779627449
 20
14.92136265357419
 10
185.6183169706686
 20
15.00203900606884
 10
185.6178550933763
 20
15.04645414290855
 10
185.6027881889932
 20
15.12967081778535
 10
185.7372380935443
 20
15.09062651983886
 10
185.8619755545747
 20
15.11739729328425
 10
186.0628755237279
 20
15.10063949044055
 10
186.1921540949354
 20
15.12204225913007
 10
186.3328419928294
 20
15.08868778853423
 10
186.2980927452615
 20
15.22651875785069
 10
186.3222185666713
 20
15.3496325734948
 10
186.2967086182392
 20
15.47024055670333
 10
186.3333251146685
 20
15.60539865141491
 10
186.2211417027769
 20
15.58094545781887
 10
186.1280356457136
 20
15.59307749842018
 10
186.0191547579819
 20
15.58957630069989
 10
185.9569697640964
 20
15.58981755951599
 10
185.9375369557246
 20
15.5898929512414
 97
        3
330
B7
330
B8
330
B6
 75
     1
 76
     2
 52
45.0
 41
0.1
 77
     0
 78
     1
 53
45.0
 43
0.0
 44
0.0
 45
-0.282842712474619
 46
0.0
 79
     0
 98
        1
 10
0.0
 20
0.0
  0
HATCH
  5
D4
330
48
100
AcDbEntity
  8
1
  6
Continuous
 62
     2
100
AcDbHatch
 10
0.0
 20
0.0
 30
0.0
210
0.0
220
0.0
230
1.0
  2
CUSTOM14
 70
     0
 71
     1
 91
        1
 92
        1
 93
        4
 72
     1
 10
192.4578138032672
 20
15.22875434022059
 11
191.1602971697032
 21
15.22875434022059
 72
     1
 10
191.1602971697032
 20
15.22875434022059
 11
191.1602971697032
 21
15.3972233679563
 72
     1
 10
191.1602971697032
 20
15.3972233679563
 11
192.4578138032672
 21
15.3972233679563
 72
     1
 10
192.4578138032672
 20
15.3972233679563
 11
192.4578138032672
 21
15.22875434022059
 97
        1
330
B9
 75
     1
 76
     2
 52
45.0
 41
0.1
 77
     0
 78
     1
 53
45.0
 43
0.0
 44
0.0
 45
-0.282842712474619
 46
0.0
 79
     0
 98
        1
 10
0.0
 20
0.0
  0
ENDBLK
  5
4A
330
48
100
AcDbEntity
  8
0
100
AcDbBlockEnd
  0
BLOCK
  5
4D
330
4B
100
AcDbEntity
  8
0
100
AcDbBlockBegin
  2
開示A4枠
 70
     0
 10
0.0
 20
0.0
 30
0.0
  3
開示A4枠
  1

  0
INSERT
  5
4C
330
4B
100
AcDbEntity
  8
1
100
AcDbBlockReference
  2
開示A4
 10
0.0
 20
0.0
 30
0.0
  0
ENDBLK
  5
4E
330
4B
100
AcDbEntity
  8
0
100
AcDbBlockEnd
  0
BLOCK
  5
50
330
4F
100
AcDbEntity
  8
0
100
AcDbBlockBegin
  2
35-160
 70
     0
 10
115.2192528174037
 20
137.57558487686
 30
0.0
  3
35-160
  1

  0
LINE
  5
D5
330
4F
100
AcDbEntity
  8
1
  6
Continuous
 62
     7
100
AcDbLine
 10
91.23301132245263
 20
121.8082230714087
 30
0.0
 11
101.2349262160697
 21
121.8082230714087
 31
0.0
  0
LINE
  5
D6
330
4F
100
AcDbEntity
  8
1
  6
Continuous
 62
     7
100
AcDbLine
 10
92.43301132245264
 20
123.0082230714087
 30
0.0
 11
91.23301132245263
 21
121.8082230714087
 31
0.0
  0
LINE
  5
D7
330
4F
100
AcDbEntity
  8
0
  6
Continuous
 62
     7
100
AcDbLine
 10
91.23301132245263
 20
121.8082230714087
 30
0.0
 11
91.23301132245263
 21
116.8082230714087
 31
0.0
  0
LINE
  5
D8
330
4F
100
AcDbEntity
  8
1
  6
Continuous
 62
     7
100
AcDbLine
 10
92.73301132245263
 20
123.3082230714087
 30
0.0
 11
92.43301132245264
 21
123.0082230714087
 31
0.0
  0
LINE
  5
D9
330
4F
100
AcDbEntity
  8
1
  6
Continuous
 62
     7
100
AcDbLine
 10
92.18933457604433
 20
105.3082230714087
 30
0.0
 11
95.94342359394045
 21
105.3082230714087
 31
0.0
  0
LINE
  5
DA
330
4F
100
AcDbEntity
  8
1
  6
Continuous
 62
     7
100
AcDbLine
 10
92.18933457604433
 20
114.3518175105658
 30
0.0
 11
92.18933457604433
 21
105.3082230714087
 31
0.0
  0
LINE
  5
DB
330
4F
100
AcDbEntity
  8
0
  6
Continuous
 62
     7
100
AcDbLine
 10
101.2349262160697
 20
104.8082230714087
 30
0.0
 11
96.2261323397826
 21
104.8082230714087
 31
0.0
  0
LINE
  5
DC
330
4F
100
AcDbEntity
  8
0
  6
Continuous
 62
     7
100
AcDbLine
 10
90.21974909179986
 20
104.8082230714087
 30
0.0
 11
87.6009516198541
 21
104.8082230714087
 31
0.0
  0
LINE
  5
DD
330
4F
100
AcDbEntity
  8
0
  6
Continuous
 62
     7
100
AcDbLine
 10
96.2261323397826
 20
104.8082230714087
 30
0.0
 11
93.96896876926112
 21
104.8082230714087
 31
0.0
  0
LINE
  5
DE
330
4F
100
AcDbEntity
  8
0
  6
Continuous
 62
     7
100
AcDbLine
 10
93.96896876926112
 20
104.8082230714087
 30
0.0
 11
90.21974909179986
 21
104.8082230714087
 31
0.0
  0
LINE
  5
DF
330
4F
100
AcDbEntity
  8
1
  6
Continuous
 62
     7
100
AcDbLine
 10
92.18933457604433
 20
114.3518175105658
 30
0.0
 11
95.94342359394045
 21
114.3518175105658
 31
0.0
  0
LINE
  5
E0
330
4F
100
AcDbEntity
  8
1
  6
Continuous
 62
     7
100
AcDbLine
 10
95.94342359394045
 20
114.3050794924224
 30
0.0
 11
95.94342359394045
 21
105.3082230714087
 31
0.0
  0
LINE
  5
E1
330
4F
100
AcDbEntity
  8
1
  6
Continuous
 62
     7
100
AcDbLine
 10
86.73492621606965
 20
114.3518175105658
 30
0.0
 11
87.52544383630655
 21
114.8082230714087
 31
0.0
  0
LINE
  5
E2
330
4F
100
AcDbEntity
  8
1
  6
Continuous
 62
     7
100
AcDbLine
 10
86.73492621606965
 20
105.3082230714087
 30
0.0
 11
87.6009516198541
 21
104.8082230714087
 31
0.0
  0
LINE
  5
E3
330
4F
100
AcDbEntity
  8
0
  6
Continuous
 62
     7
100
AcDbLine
 10
92.43301132245264
 20
116.8082230714087
 30
0.0
 11
92.43492621606964
 21
116.8082230714087
 31
0.0
  0
LINE
  5
E4
330
4F
100
AcDbEntity
  8
1
  6
Continuous
 62
     2
100
AcDbLine
 10
92.43301132245264
 20
123.0082230714087
 30
0.0
 11
92.43301132245264
 21
116.8082230714087
 31
0.0
  0
LINE
  5
E5
330
4F
100
AcDbEntity
  8
0
  6
Continuous
 62
     7
100
AcDbLine
 10
92.43492621606964
 20
116.8082230714087
 30
0.0
 11
92.43492621606964
 21
114.8082230714087
 31
0.0
  0
LINE
  5
E6
330
4F
100
AcDbEntity
  8
0
  6
Continuous
 62
     7
100
AcDbLine
 10
92.43492621606964
 20
116.8082230714087
 30
0.0
 11
101.2030113224526
 21
116.8082230714087
 31
0.0
  0
LINE
  5
E7
330
4F
100
AcDbEntity
  8
0
  6
Continuous
 62
     7
100
AcDbLine
 10
92.43492621606964
 20
114.8082230714087
 30
0.0
 11
87.52544383630655
 21
114.8082230714087
 31
0.0
  0
LINE
  5
E8
330
4F
100
AcDbEntity
  8
0
  6
Continuous
 62
     7
100
AcDbLine
 10
93.96896876926112
 20
114.8082230714087
 30
0.0
 11
92.43492621606964
 21
114.8082230714087
 31
0.0
  0
LINE
  5
E9
330
4F
100
AcDbEntity
  8
0
  6
Continuous
 62
     7
100
AcDbLine
 10
86.73492621606965
 20
114.3518175105658
 30
0.0
 11
86.73492621606965
 21
111.3082230714087
 31
0.0
  0
LINE
  5
EA
330
4F
100
AcDbEntity
  8
0
  6
Continuous
 62
     7
100
AcDbLine
 10
86.73492621606965
 20
111.3082230714087
 30
0.0
 11
86.73492621606965
 21
105.3082230714087
 31
0.0
  0
LINE
  5
EB
330
4F
100
AcDbEntity
  8
0
  6
Continuous
 62
     7
100
AcDbLine
 10
91.23301132245263
 20
116.8082230714087
 30
0.0
 11
92.43301132245264
 21
116.8082230714087
 31
0.0
  0
LINE
  5
EC
330
4F
100
AcDbEntity
  8
1
  6
Continuous
 62
     7
100
AcDbLine
 10
106.5264288381989
 20
188.2745086135139
 30
0.0
 11
95.94342359394048
 21
188.2745086135139
 31
0.0
  0
LINE
  5
ED
330
4F
100
AcDbEntity
  8
1
  6
Continuous
 62
     7
100
AcDbLine
 10
115.5720204782242
 20
176.9419329185581
 30
0.0
 11
110.280517856095
 21
186.1070843084698
 31
0.0
  0
LINE
  5
EE
330
4F
100
AcDbEntity
  8
1
  6
Continuous
 62
     7
100
AcDbLine
 10
110.280517856095
 20
163.4419329185581
 30
0.0
 11
115.5720204782242
 21
172.6070843084698
 31
0.0
  0
LINE
  5
EF
330
4F
100
AcDbEntity
  8
1
  6
Continuous
 62
     7
100
AcDbLine
 10
95.94342359394045
 20
161.2745086135139
 30
0.0
 11
106.5264288381989
 21
161.2745086135139
 31
0.0
  0
LINE
  5
F0
330
4F
100
AcDbEntity
  8
1
  6
Continuous
 62
     7
100
AcDbLine
 10
86.89783195391513
 20
172.6070843084698
 30
0.0
 11
92.18933457604433
 21
163.4419329185581
 31
0.0
  0
LINE
  5
F1
330
4F
100
AcDbEntity
  8
1
  6
Continuous
 62
     7
100
AcDbLine
 10
92.1893345760443
 20
186.1070843084698
 30
0.0
 11
86.89783195391513
 21
176.9419329185581
 31
0.0
  0
LINE
  5
F2
330
4F
100
AcDbEntity
  8
1
  6
Continuous
 62
     7
100
AcDbLine
 10
95.94342359394045
 20
105.3082230714087
 30
0.0
 11
95.94342359394045
 21
105.2614850532653
 31
0.0
  0
LINE
  5
F3
330
4F
100
AcDbEntity
  8
0
  6
Continuous
 62
     7
100
AcDbLine
 10
101.2030113224526
 20
114.8082230714087
 30
0.0
 11
93.96896876926112
 21
114.8082230714087
 31
0.0
  0
LINE
  5
F4
330
4F
100
AcDbEntity
  8
0
  6
Continuous
 62
     7
100
AcDbLine
 10
101.2349262160697
 20
123.3082230714087
 30
0.0
 11
92.73301132245263
 21
123.3082230714087
 31
0.0
  0
LINE
  5
F5
330
4F
100
AcDbEntity
  8
1
  6
Continuous
 62
     7
100
AcDbLine
 10
101.2349262160697
 20
121.8082230714087
 30
0.0
 11
111.2368411096867
 21
121.8082230714087
 31
0.0
  0
LINE
  5
F6
330
4F
100
AcDbEntity
  8
1
  6
Continuous
 62
     7
100
AcDbLine
 10
111.2368411096867
 20
121.8082230714087
 30
0.0
 11
110.0368411096867
 21
123.0082230714087
 31
0.0
  0
LINE
  5
F7
330
4F
100
AcDbEntity
  8
0
  6
Continuous
 62
     7
100
AcDbLine
 10
111.2368411096867
 20
116.8082230714087
 30
0.0
 11
111.2368411096867
 21
121.8082230714087
 31
0.0
  0
LINE
  5
F8
330
4F
100
AcDbEntity
  8
1
  6
Continuous
 62
     7
100
AcDbLine
 10
110.0368411096867
 20
123.0082230714087
 30
0.0
 11
109.7368411096867
 21
123.3082230714087
 31
0.0
  0
LINE
  5
F9
330
4F
100
AcDbEntity
  8
1
  6
Continuous
 62
     7
100
AcDbLine
 10
106.5264288381989
 20
105.3082230714087
 30
0.0
 11
110.280517856095
 21
105.3082230714087
 31
0.0
  0
LINE
  5
FA
330
4F
100
AcDbEntity
  8
1
  6
Continuous
 62
     7
100
AcDbLine
 10
110.280517856095
 20
105.3082230714087
 30
0.0
 11
110.280517856095
 21
114.3518175105658
 31
0.0
  0
LINE
  5
FB
330
4F
100
AcDbEntity
  8
0
  6
Continuous
 62
     7
100
AcDbLine
 10
106.2437200923568
 20
104.8082230714087
 30
0.0
 11
101.2349262160697
 21
104.8082230714087
 31
0.0
  0
LINE
  5
FC
330
4F
100
AcDbEntity
  8
0
  6
Continuous
 62
     7
100
AcDbLine
 10
114.8689008122853
 20
104.8082230714087
 30
0.0
 11
112.2501033403395
 21
104.8082230714087
 31
0.0
  0
LINE
  5
FD
330
4F
100
AcDbEntity
  8
0
  6
Continuous
 62
     7
100
AcDbLine
 10
108.5008836628783
 20
104.8082230714087
 30
0.0
 11
106.2437200923568
 21
104.8082230714087
 31
0.0
  0
LINE
  5
FE
330
4F
100
AcDbEntity
  8
0
  6
Continuous
 62
     7
100
AcDbLine
 10
112.2501033403395
 20
104.8082230714087
 30
0.0
 11
108.5008836628783
 21
104.8082230714087
 31
0.0
  0
LINE
  5
FF
330
4F
100
AcDbEntity
  8
1
  6
Continuous
 62
     7
100
AcDbLine
 10
106.5264288381989
 20
114.3518175105658
 30
0.0
 11
110.280517856095
 21
114.3518175105658
 31
0.0
  0
LINE
  5
100
330
4F
100
AcDbEntity
  8
1
  6
Continuous
 62
     7
100
AcDbLine
 10
106.5264288381989
 20
105.3082230714087
 30
0.0
 11
106.5264288381989
 21
114.3050794924224
 31
0.0
  0
LINE
  5
101
330
4F
100
AcDbEntity
  8
1
  6
Continuous
 62
     7
100
AcDbLine
 10
114.9444085958328
 20
114.8082230714087
 30
0.0
 11
115.7349262160697
 21
114.3518175105658
 31
0.0
  0
LINE
  5
102
330
4F
100
AcDbEntity
  8
1
  6
Continuous
 62
     7
100
AcDbLine
 10
114.8689008122853
 20
104.8082230714087
 30
0.0
 11
115.7349262160697
 21
105.3082230714087
 31
0.0
  0
LINE
  5
103
330
4F
100
AcDbEntity
  8
0
  6
Continuous
 62
     7
100
AcDbLine
 10
110.0349262160697
 20
116.8082230714087
 30
0.0
 11
110.0368411096867
 21
116.8082230714087
 31
0.0
  0
LINE
  5
104
330
4F
100
AcDbEntity
  8
1
  6
Continuous
 62
     2
100
AcDbLine
 10
110.0368411096867
 20
116.8082230714087
 30
0.0
 11
110.0368411096867
 21
123.0082230714087
 31
0.0
  0
LINE
  5
105
330
4F
100
AcDbEntity
  8
0
  6
Continuous
 62
     7
100
AcDbLine
 10
110.0349262160697
 20
114.8082230714087
 30
0.0
 11
110.0349262160697
 21
116.8082230714087
 31
0.0
  0
LINE
  5
106
330
4F
100
AcDbEntity
  8
0
  6
Continuous
 62
     7
100
AcDbLine
 10
101.2668411096867
 20
116.8082230714087
 30
0.0
 11
110.0349262160697
 21
116.8082230714087
 31
0.0
  0
LINE
  5
107
330
4F
100
AcDbEntity
  8
0
  6
Continuous
 62
     7
100
AcDbLine
 10
114.9444085958328
 20
114.8082230714087
 30
0.0
 11
110.0349262160697
 21
114.8082230714087
 31
0.0
  0
LINE
  5
108
330
4F
100
AcDbEntity
  8
0
  6
Continuous
 62
     7
100
AcDbLine
 10
110.0349262160697
 20
114.8082230714087
 30
0.0
 11
108.5008836628783
 21
114.8082230714087
 31
0.0
  0
LINE
  5
109
330
4F
100
AcDbEntity
  8
0
  6
Continuous
 62
     7
100
AcDbLine
 10
115.7349262160697
 20
111.3082230714087
 30
0.0
 11
115.7349262160697
 21
114.3518175105658
 31
0.0
  0
LINE
  5
10A
330
4F
100
AcDbEntity
  8
0
  6
Continuous
 62
     7
100
AcDbLine
 10
115.7349262160697
 20
105.3082230714087
 30
0.0
 11
115.7349262160697
 21
111.3082230714087
 31
0.0
  0
LINE
  5
10B
330
4F
100
AcDbEntity
  8
0
  6
Continuous
 62
     7
100
AcDbLine
 10
110.0368411096867
 20
116.8082230714087
 30
0.0
 11
111.2368411096867
 21
116.8082230714087
 31
0.0
  0
LINE
  5
10C
330
4F
100
AcDbEntity
  8
1
  6
Continuous
 62
     7
100
AcDbLine
 10
106.5264288381989
 20
105.2614850532653
 30
0.0
 11
106.5264288381989
 21
105.3082230714087
 31
0.0
  0
LINE
  5
10D
330
4F
100
AcDbEntity
  8
0
  6
Continuous
 62
     7
100
AcDbLine
 10
108.5008836628783
 20
114.8082230714087
 30
0.0
 11
101.2668411096867
 21
114.8082230714087
 31
0.0
  0
LINE
  5
10E
330
4F
100
AcDbEntity
  8
0
  6
Continuous
 62
     7
100
AcDbLine
 10
109.7368411096867
 20
123.3082230714087
 30
0.0
 11
101.2349262160697
 21
123.3082230714087
 31
0.0
  0
ARC
  5
10F
330
4F
100
AcDbEntity
  8
1
  6
Continuous
 62
     7
100
AcDbCircle
 10
89.74476203084353
 20
108.2300613485298
 30
0.0
 40
6.591800469991121
100
AcDbArc
 50
68.23192019853731
 51
89.32948535275305
  0
ARC
  5
110
330
4F
100
AcDbEntity
  8
1
  6
Continuous
 62
     7
100
AcDbCircle
 10
89.57961138623503
 20
111.8688781988371
 30
0.0
 40
7.06065512742839
100
AcDbArc
 50
270.0
 51
291.6918678327856
  0
ARC
  5
111
330
4F
100
AcDbEntity
  8
1
  6
Continuous
 62
     7
100
AcDbCircle
 10
90.74138519236536
 20
113.8249144261446
 30
0.0
 40
9.031767667958595
100
AcDbArc
 50
266.6889994092859
 51
273.3110005907142
  0
ARC
  5
112
330
4F
100
AcDbEntity
  8
1
  6
Continuous
 62
     7
100
AcDbCircle
 10
101.2349262160697
 20
174.7745086135139
 30
0.0
 40
14.49999999999998
100
AcDbArc
 50
351.403349639407
 51
0.0
  0
ARC
  5
113
330
4F
100
AcDbEntity
  8
1
  6
Continuous
 62
     7
100
AcDbCircle
 10
101.2349262160697
 20
174.7745086135139
 30
0.0
 40
14.5
100
AcDbArc
 50
0.0
 51
8.59665036059359
  0
ARC
  5
114
330
4F
100
AcDbEntity
  8
1
  6
Continuous
 62
     7
100
AcDbCircle
 10
101.2349262160697
 20
174.7745086135139
 30
0.0
 40
14.50000000000001
100
AcDbArc
 50
291.4033496394067
 51
308.5966503605934
  0
ARC
  5
115
330
4F
100
AcDbEntity
  8
1
  6
Continuous
 62
     7
100
AcDbCircle
 10
101.2349262160697
 20
174.7745086135139
 30
0.0
 40
14.49999999999997
100
AcDbArc
 50
231.4033496394064
 51
248.5966503605931
  0
ARC
  5
116
330
4F
100
AcDbEntity
  8
1
  6
Continuous
 62
     7
100
AcDbCircle
 10
101.2349262160697
 20
174.7745086135139
 30
0.0
 40
14.50000000000004
100
AcDbArc
 50
180.0
 51
188.596650360593
  0
ARC
  5
117
330
4F
100
AcDbEntity
  8
1
  6
Continuous
 62
     7
100
AcDbCircle
 10
101.2349262160697
 20
174.7745086135139
 30
0.0
 40
14.50000000000005
100
AcDbArc
 50
51.40334963940693
 51
68.59665036059329
  0
ARC
  5
118
330
4F
100
AcDbEntity
  8
1
  6
Continuous
 62
     7
100
AcDbCircle
 10
101.2349262160697
 20
174.7745086135139
 30
0.0
 40
14.50000000000001
100
AcDbArc
 50
111.4033496394068
 51
128.5966503605933
  0
ARC
  5
119
330
4F
100
AcDbEntity
  8
1
  6
Continuous
 62
     7
100
AcDbCircle
 10
101.2030113224526
 20
87.06622486164139
 30
0.0
 40
27.74199820976732
100
AcDbArc
 50
90.0
 51
100.928820784445
  0
ARC
  5
11A
330
4F
100
AcDbEntity
  8
1
  6
Continuous
 62
     7
100
AcDbCircle
 10
101.2349262160697
 20
133.0582230714088
 30
0.0
 40
28.25000000000011
100
AcDbArc
 50
259.2041697471859
 51
270.0
  0
ARC
  5
11B
330
4F
100
AcDbEntity
  8
1
  6
Continuous
 62
     7
100
AcDbCircle
 10
101.2349262160697
 20
174.7745086135139
 30
0.0
 40
14.50000000000006
100
AcDbArc
 50
171.4033496394065
 51
180.0
  0
ARC
  5
11C
330
4F
100
AcDbEntity
  8
1
  6
Continuous
 62
     7
100
AcDbCircle
 10
112.7250904012958
 20
108.2300613485298
 30
0.0
 40
6.591800469991171
100
AcDbArc
 50
90.67051464724645
 51
111.7680798014627
  0
ARC
  5
11D
330
4F
100
AcDbEntity
  8
1
  6
Continuous
 62
     7
100
AcDbCircle
 10
112.8902410459043
 20
111.8688781988371
 30
0.0
 40
7.060655127428394
100
AcDbArc
 50
248.3081321672144
 51
270.0
  0
ARC
  5
11E
330
4F
100
AcDbEntity
  8
1
  6
Continuous
 62
     7
100
AcDbCircle
 10
111.728467239774
 20
113.8249144261446
 30
0.0
 40
9.031767667958595
100
AcDbArc
 50
266.6889994092859
 51
273.311000590714
  0
ARC
  5
11F
330
4F
100
AcDbEntity
  8
1
  6
Continuous
 62
     7
100
AcDbCircle
 10
101.2668411096867
 20
87.06622486164139
 30
0.0
 40
27.74199820976737
100
AcDbArc
 50
79.07117921555484
 51
90.0
  0
ARC
  5
120
330
4F
100
AcDbEntity
  8
1
  6
Continuous
 62
     7
100
AcDbCircle
 10
101.2349262160697
 20
133.0582230714088
 30
0.0
 40
28.2500000000001
100
AcDbArc
 50
270.0
 51
280.795830252814
  0
CIRCLE
  5
121
330
4F
100
AcDbEntity
  8
1
  6
Continuous
 62
     2
100
AcDbCircle
 10
101.2349262160697
 20
174.7745086135139
 30
0.0
 40
8.798085106382999
  0
CIRCLE
  5
122
330
4F
100
AcDbEntity
  8
1
  6
Continuous
 62
     7
100
AcDbCircle
 10
101.2349262160697
 20
174.7745086135139
 30
0.0
 40
8.498085106383002
  0
CIRCLE
  5
123
330
4F
100
AcDbEntity
  8
1
  6
Continuous
 62
     7
100
AcDbCircle
 10
101.2349262160697
 20
174.7829151206808
 30
0.0
 40
6.998090155574005
  0
CIRCLE
  5
124
330
4F
100
AcDbEntity
  8
0
  6
Continuous
 62
     7
100
AcDbCircle
 10
101.2349262160697
 20
174.7829151206808
 30
0.0
 40
10.0
  0
CIRCLE
  5
125
330
4F
100
AcDbEntity
  8
0
  6
Continuous
 62
     7
100
AcDbCircle
 10
101.2349262160697
 20
174.7829151206808
 30
0.0
 40
6.468085106383
  0
CIRCLE
  5
126
330
4F
100
AcDbEntity
  8
1
  6
Continuous
 62
     7
100
AcDbCircle
 10
101.2349262160697
 20
174.7745086135139
 30
0.0
 40
13.5
  0
ENDBLK
  5
51
330
4F
100
AcDbEntity
  8
0
100
AcDbBlockEnd
  0
BLOCK
  5
54
330
52
100
AcDbEntity
  8
0
100
AcDbBlockBegin
  2
T25-11-WL
 70
     0
 10
8.82993250243625
 20
-199.869681349954
 30
0.0
  3
T25-11-WL
  1

  0
INSERT
  5
53
330
52
100
AcDbEntity
  8
0
100
AcDbBlockReference
  2
35-160
 10
115.2192528174037
 20
137.57558487686
 30
0.0
  0
ENDBLK
  5
55
330
52
100
AcDbEntity
  8
0
100
AcDbBlockEnd
  0
BLOCK
  5
147
330
13E
100
AcDbEntity
  8
0
100
AcDbBlockBegin
  2
*D5
 70
     1
 10
0.0
 20
0.0
 30
0.0
  3
*D5
  1

  0
LINE
  5
13F
330
13E
100
AcDbEntity
  8
1
  6
Continuous
 62
     2
100
AcDbLine
 10
79.40792353216946
 20
114.8082230714087
 30
0.0
 11
79.40792353216946
 21
107.8082230714087
 31
0.0
  0
LINE
  5
140
330
13E
100
AcDbEntity
  8
1
  6
Continuous
 62
     2
100
AcDbLine
 10
79.40792353216946
 20
123.3082230714087
 30
0.0
 11
79.40792353216946
 21
114.8082230714087
 31
0.0
  0
LINE
  5
141
330
13E
100
AcDbEntity
  8
1
  6
Continuous
 62
     2
100
AcDbLine
 10
79.40792353216946
 20
130.3082230714087
 30
0.0
 11
79.40792353216946
 21
123.3082230714087
 31
0.0
  0
LINE
  5
142
330
13E
100
AcDbEntity
  8
1
  6
Continuous
 62
     2
100
AcDbLine
 10
93.96896876926112
 20
114.8082230714087
 30
0.0
 11
78.40792353216946
 21
114.8082230714087
 31
0.0
  0
LINE
  5
143
330
13E
100
AcDbEntity
  8
1
  6
Continuous
 62
     2
100
AcDbLine
 10
92.73301132245263
 20
123.3082230714087
 30
0.0
 11
78.40792353216946
 21
123.3082230714087
 31
0.0
  0
SOLID
  5
144
330
13E
100
AcDbEntity
  8
1
 62
     2
100
AcDbTrace
 10
78.94713979061358
 20
126.8082230714087
 30
0.0
 11
79.86870727372535
 21
126.8082230714087
 31
0.0
 12
79.40792353216946
 22
123.3082230714087
 32
0.0
 13
79.40792353216946
 23
123.3082230714087
 33
0.0
  0
SOLID
  5
145
330
13E
100
AcDbEntity
  8
1
 62
     2
100
AcDbTrace
 10
79.86870727372535
 20
111.3082230714087
 30
0.0
 11
78.94713979061358
 21
111.3082230714087
 31
0.0
 12
79.40792353216946
 22
114.8082230714087
 32
0.0
 13
79.40792353216946
 23
114.8082230714087
 33
0.0
  0
MTEXT
  5
146
330
13E
100
AcDbEntity
  8
1
 62
     7
100
AcDbMText
 10
78.40792353216946
 20
117.9804830707254
 30
0.0
 40
3.5
 41
0.0
 71
     7
 72
     1
  1
9
  7
CONVERTER_12
 11
0.0
 21
1.0
 31
0.0
 73
     1
 44
0.60024009603842
  0
ENDBLK
  5
148
330
13E
100
AcDbEntity
  8
0
100
AcDbBlockEnd
  0
BLOCK
  5
152
330
14B
100
AcDbEntity
  8
0
100
AcDbBlockBegin
  2
*D6
 70
     1
 10
0.0
 20
0.0
 30
0.0
  3
*D6
  1

  0
LINE
  5
14C
330
14B
100
AcDbEntity
  8
1
  6
Continuous
 62
     2
100
AcDbLine
 10
72.19747450565896
 20
123.3082230714087
 30
0.0
 11
72.19747450565896
 21
104.8082230714087
 31
0.0
  0
LINE
  5
14D
330
14B
100
AcDbEntity
  8
1
  6
Continuous
 62
     2
100
AcDbLine
 10
93.96896876926112
 20
104.8082230714087
 30
0.0
 11
71.19747450565896
 21
104.8082230714087
 31
0.0
  0
LINE
  5
14E
330
14B
100
AcDbEntity
  8
1
  6
Continuous
 62
     2
100
AcDbLine
 10
92.73301132245263
 20
123.3082230714087
 30
0.0
 11
71.19747450565896
 21
123.3082230714087
 31
0.0
  0
SOLID
  5
14F
330
14B
100
AcDbEntity
  8
1
 62
     2
100
AcDbTrace
 10
72.65825824721485
 20
119.8082230714087
 30
0.0
 11
71.73669076410307
 21
119.8082230714087
 31
0.0
 12
72.19747450565896
 22
123.3082230714087
 32
0.0
 13
72.19747450565896
 23
123.3082230714087
 33
0.0
  0
SOLID
  5
150
330
14B
100
AcDbEntity
  8
1
 62
     2
100
AcDbTrace
 10
71.73669076410307
 20
108.3082230714087
 30
0.0
 11
72.65825824721485
 21
108.3082230714087
 31
0.0
 12
72.19747450565896
 22
104.8082230714087
 32
0.0
 13
72.19747450565896
 23
104.8082230714087
 33
0.0
  0
MTEXT
  5
151
330
14B
100
AcDbEntity
  8
1
 62
     7
100
AcDbMText
 10
71.19747450565896
 20
112.1020573833299
 30
0.0
 40
3.5
 41
0.0
 71
     7
 72
     1
  1
19
  7
CONVERTER_12
 11
0.0
 21
1.0
 31
0.0
 73
     1
 44
0.60024009603842
  0
ENDBLK
  5
153
330
14B
100
AcDbEntity
  8
0
100
AcDbBlockEnd
  0
BLOCK
  5
15D
330
156
100
AcDbEntity
  8
0
100
AcDbBlockBegin
  2
*D7
 70
     1
 10
0.0
 20
0.0
 30
0.0
  3
*D7
  1

  0
LINE
  5
157
330
156
100
AcDbEntity
  8
1
  6
Continuous
 62
     2
100
AcDbLine
 10
124.8309331607641
 20
188.274508613514
 30
0.0
 11
124.8309331607641
 21
161.274508613514
 31
0.0
  0
LINE
  5
158
330
156
100
AcDbEntity
  8
1
  6
Continuous
 62
     2
100
AcDbLine
 10
106.5264288381989
 20
161.274508613514
 30
0.0
 11
125.8309331607641
 21
161.274508613514
 31
0.0
  0
LINE
  5
159
330
156
100
AcDbEntity
  8
1
  6
Continuous
 62
     2
100
AcDbLine
 10
106.5264288381989
 20
188.274508613514
 30
0.0
 11
125.8309331607641
 21
188.274508613514
 31
0.0
  0
SOLID
  5
15A
330
156
100
AcDbEntity
  8
1
 62
     2
100
AcDbTrace
 10
125.29171690232
 20
184.774508613514
 30
0.0
 11
124.3701494192082
 21
184.774508613514
 31
0.0
 12
124.8309331607641
 22
188.274508613514
 32
0.0
 13
124.8309331607641
 23
188.274508613514
 33
0.0
  0
SOLID
  5
15B
330
156
100
AcDbEntity
  8
1
 62
     2
100
AcDbTrace
 10
124.3701494192082
 20
164.774508613514
 30
0.0
 11
125.29171690232
 21
164.774508613514
 31
0.0
 12
124.8309331607641
 22
161.274508613514
 32
0.0
 13
124.8309331607641
 23
161.274508613514
 33
0.0
  0
MTEXT
  5
15C
330
156
100
AcDbEntity
  8
1
 62
     7
100
AcDbMText
 10
123.8309331607641
 20
172.0332580838847
 30
0.0
 40
3.5
 41
0.0
 71
     7
 72
     1
  1
27
  7
CONVERTER_12
 11
0.0
 21
1.0
 31
0.0
 73
     1
 44
0.60024009603842
  0
ENDBLK
  5
15E
330
156
100
AcDbEntity
  8
0
100
AcDbBlockEnd
  0
BLOCK
  5
168
330
161
100
AcDbEntity
  8
0
100
AcDbBlockBegin
  2
*D8
 70
     1
 10
0.0
 20
0.0
 30
0.0
  3
*D8
  1

  0
LINE
  5
162
330
161
100
AcDbEntity
  8
1
  6
Continuous
 62
     2
100
AcDbLine
 10
86.7349262160697
 20
199.2577972543916
 30
0.0
 11
115.7349262160697
 21
199.2577972543916
 31
0.0
  0
LINE
  5
163
330
161
100
AcDbEntity
  8
1
  6
Continuous
 62
     2
100
AcDbLine
 10
115.7349262160697
 20
174.7745086135139
 30
0.0
 11
115.7349262160697
 21
200.2577972543916
 31
0.0
  0
LINE
  5
164
330
161
100
AcDbEntity
  8
1
  6
Continuous
 62
     2
100
AcDbLine
 10
86.7349262160697
 20
174.7745086135139
 30
0.0
 11
86.7349262160697
 21
200.2577972543916
 31
0.0
  0
SOLID
  5
165
330
161
100
AcDbEntity
  8
1
 62
     2
100
AcDbTrace
 10
90.2349262160697
 20
199.7185809959475
 30
0.0
 11
90.2349262160697
 21
198.7970135128357
 31
0.0
 12
86.7349262160697
 22
199.2577972543916
 32
0.0
 13
86.7349262160697
 23
199.2577972543916
 33
0.0
  0
SOLID
  5
166
330
161
100
AcDbEntity
  8
1
 62
     2
100
AcDbTrace
 10
112.2349262160697
 20
198.7970135128357
 30
0.0
 11
112.2349262160697
 21
199.7185809959475
 31
0.0
 12
115.7349262160697
 22
199.2577972543916
 32
0.0
 13
115.7349262160697
 23
199.2577972543916
 33
0.0
  0
MTEXT
  5
167
330
161
100
AcDbEntity
  8
1
 62
     7
100
AcDbMText
 10
98.20263493825773
 20
200.2577902973153
 30
0.0
 40
3.5
 41
0.0
 71
     7
 72
     1
  1
\C7;{\Fgdt;n}\C7;29
  7
CONVERTER_12
 11
0.9999999999970619
 21
2.424068405545306E-6
 31
0.0
 73
     1
 44
0.60024009603842
  0
ENDBLK
  5
169
330
161
100
AcDbEntity
  8
0
100
AcDbBlockEnd
  0
ENDSEC
  0
SECTION
  2
ENTITIES
  0
INSERT
  5
56
330
1F
100
AcDbEntity
  8
0
100
AcDbBlockReference
  2
開示A4枠
 10
0.0
 20
0.0
 30
0.0
  0
INSERT
  5
57
330
1F
100
AcDbEntity
  8
0
100
AcDbBlockReference
  2
T25-11-WL
 10
8.82993250243625
 20
-199.869681349954
 30
0.0
  0
LINE
  5
127
330
1F
100
AcDbEntity
  8
0
  6
DASH_CENTER
 62
     2
100
AcDbLine
 10
101.2349262160697
 20
126.2829151206808
 30
0.0
 11
101.2349262160697
 21
101.7829151206808
 31
0.0
  0
LINE
  5
128
330
1F
100
AcDbEntity
  8
0
  6
DASH_CENTER
 62
     2
100
AcDbLine
 10
101.2349262160697
 20
190.3126443669237
 30
0.0
 11
101.2349262160697
 21
159.2531858744379
 31
0.0
  0
LINE
  5
129
330
1F
100
AcDbEntity
  8
0
  6
DASH_CENTER
 62
     2
100
AcDbLine
 10
84.73492835756562
 20
174.7745086135139
 30
0.0
 11
117.7349240745737
 21
174.7745086135139
 31
0.0
  0
SOLID
  5
12A
330
1F
100
AcDbEntity
  8
1
 62
     2
100
AcDbTrace
 10
115.6320617482909
 20
102.0075260289411
 30
0.0
 11
114.8339608966145
 21
101.5467422873852
 31
0.0
 12
113.4830113224527
 22
104.8082230714087
 32
0.0
 13
113.4830113224527
 23
104.8082230714087
 33
0.0
  0
LEADER
  5
12B
330
1F
100
AcDbEntity
  8
1
  6
Continuous
 62
     2
100
AcDbLeader
  3
Standard
 71
     0
 76
     3
 10
113.4830113224527
 20
104.8082230714087
 30
0.0
 10
125.0125216562991
 20
84.8385253867963
 30
0.0
 10
145.7035772772419
 20
84.8385253867963
 30
0.0
  0
SOLID
  5
12C
330
1F
100
AcDbEntity
  8
1
 62
     2
100
AcDbTrace
 10
112.585035877233
 20
123.6592143428755
 30
0.0
 11
113.3829848013497
 21
123.1981675551958
 31
0.0
 12
111.2330113224527
 22
120.3981790379833
 32
0.0
 13
111.2330113224527
 23
120.3981790379833
 33
0.0
  0
LEADER
  5
12D
330
1F
100
AcDbEntity
  8
1
  6
Continuous
 62
     2
100
AcDbLeader
  3
Standard
 71
     0
 76
     3
 10
111.2330113224527
 20
120.3981790379833
 30
0.0
 10
122.1493178275023
 20
139.291391752619
 30
0.0
 10
139.747101303925
 20
139.291391752619
 30
0.0
  0
MTEXT
  5
12F
330
1F
100
AcDbEntity
  8
1
 62
     7
100
AcDbMText
 10
157.5
 20
12.5
 30
0.0
 40
2.5
 41
0.0
 71
     5
 72
     1
  1
9
  7
CONVERTER_12
 73
     1
 44
0.7202881152461
  0
MTEXT
  5
130
330
1F
100
AcDbEntity
  8
1
 62
     7
100
AcDbMText
 10
151.75
 20
12.5
 30
0.0
 40
2.5
 41
0.0
 71
     5
 72
     1
  1
03
  7
CONVERTER_12
 73
     1
 44
0.7202881152461
  0
MTEXT
  5
131
330
1F
100
AcDbEntity
  8
1
 62
     7
100
AcDbMText
 10
140.5
 20
12.5
 30
0.0
 40
2.5
 41
0.0
 71
     5
 72
     1
  1
9
  7
CONVERTER_12
 73
     1
 44
0.7202881152461
  0
MTEXT
  5
132
330
1F
100
AcDbEntity
  8
1
 62
     7
100
AcDbMText
 10
134.75
 20
12.5
 30
0.0
 40
2.5
 41
0.0
 71
     5
 72
     1
  1
03
  7
CONVERTER_12
 73
     1
 44
0.7202881152461
  0
MTEXT
  5
133
330
1F
100
AcDbEntity
  8
1
 62
     7
100
AcDbMText
 10
123.5
 20
12.5
 30
0.0
 40
2.5
 41
0.0
 71
     5
 72
     1
  1
9
  7
CONVERTER_12
 73
     1
 44
0.7202881152461
  0
MTEXT
  5
134
330
1F
100
AcDbEntity
  8
1
 62
     7
100
AcDbMText
 10
117.75
 20
12.5
 30
0.0
 40
2.5
 41
0.0
 71
     5
 72
     1
  1
03
  7
CONVERTER_12
 73
     1
 44
0.7202881152461
  0
MTEXT
  5
135
330
1F
100
AcDbEntity
  8
1
 62
     7
100
AcDbMText
 10
100.75
 20
12.5
 30
0.0
 40
2.5
 41
0.0
 71
     5
 72
     1
  1
03
  7
CONVERTER_12
 73
     1
 44
0.7202881152461
  0
MTEXT
  5
136
330
1F
100
AcDbEntity
  8
1
 62
     7
100
AcDbMText
 10
106.5
 20
12.5
 30
0.0
 40
2.5
 41
0.0
 71
     5
 72
     1
  1
9
  7
CONVERTER_12
 73
     1
 44
0.7202881152461
  0
MTEXT
  5
137
330
1F
100
AcDbEntity
  8
1
 62
     7
100
AcDbMText
 10
135.425116156618
 20
87.7953644016606
 30
0.0
 40
3.5
 41
0.0
 71
     5
 72
     1
  1
M24×1,5
  7
CONVERTER_11
 73
     1
 44
0.54545454545455
  0
MTEXT
  5
138
330
1F
100
AcDbEntity
  8
1
 62
     7
100
AcDbMText
 10
130.6932943081336
 20
141.4396276117252
 30
0.0
 40
3.5
 41
0.0
 71
     5
 72
     1
  1
G1/2
  7
CONVERTER_12
 73
     1
 44
0.7202881152461
  0
MTEXT
  5
139
330
1F
100
AcDbEntity
  8
0
 62
     7
100
AcDbMText
 10
33.99999999999996
 20
34.00000000000001
 30
0.0
 40
3.5
 41
0.0
 71
     4
 72
     1
  1
TOTO社製混合栓用
  7
CONVERTER_11
 73
     1
 44
0.63636363636364
  0
MTEXT
  5
13A
330
1F
100
AcDbEntity
  8
1
 62
     7
100
AcDbMText
 10
85.24999999999997
 20
17.0
 30
0.0
 40
3.5
 41
0.0
 71
     5
 72
     1
  1
1
  7
CONVERTER_12
 73
     1
 44
0.7202881152461
  0
MTEXT
  5
13B
330
1F
100
AcDbEntity
  8
1
 62
     7
100
AcDbMText
 10
56.99999999999997
 20
22.75
 30
0.0
 40
3.5
 41
0.0
 71
     5
 72
     1
  1
シャワアダプター
  7
CONVERTER_11
 73
     1
 44
0.54545454545455
  0
MTEXT
  5
13C
330
1F
100
AcDbEntity
  8
1
 62
     7
100
AcDbMText
 10
56.99999999999997
 20
14.25
 30
0.0
 40
3.5
 41
0.0
 71
     5
 72
     1
  1
T25-11
  7
CONVERTER_12
 73
     1
 44
0.7202881152461
  0
MTEXT
  5
13D
330
1F
100
AcDbEntity
  8
1
 62
     7
100
AcDbMText
 10
93.74999999999997
 20
17.0
 30
0.0
 40
3.5
 41
0.0
 71
     5
 72
     1
  1
1
  7
CONVERTER_12
 73
     1
 44
0.7202881152461
  0
DIMENSION
  5
14A
330
1F
100
AcDbEntity
  8
1
100
AcDbDimension
  2
*D5
 10
79.40792353216946
 20
123.3082230714087
 30
0.0
 11
76.65792353216946
 21
119.0304830707254
 31
0.0
 70
    32
  1
9
 71
     5
 42
-1.0
 53
90.0
  3
ME10_DIM_10
100
AcDbAlignedDimension
 13
93.96896876926112
 23
114.8082230714087
 33
0.0
 14
92.73301132245263
 24
123.3082230714087
 34
0.0
 50
90.0
100
AcDbRotatedDimension
  0
DIMENSION
  5
155
330
1F
100
AcDbEntity
  8
1
100
AcDbDimension
  2
*D6
 10
72.19747450565896
 20
123.3082230714087
 30
0.0
 11
69.44747450565896
 21
114.2020573833299
 31
0.0
 70
    32
  1
19
 71
     5
 42
-1.0
 53
90.0
  3
ME10_DIM_11
100
AcDbAlignedDimension
 13
93.96896876926112
 23
104.8082230714087
 33
0.0
 14
92.73301132245263
 24
123.3082230714087
 34
0.0
 50
90.0
100
AcDbRotatedDimension
  0
DIMENSION
  5
160
330
1F
100
AcDbEntity
  8
1
100
AcDbDimension
  2
*D7
 10
124.8309331607641
 20
188.274508613514
 30
0.0
 11
122.0809331607641
 21
174.6582580838847
 31
0.0
 70
    32
  1
<>
 71
     5
 42
-1.0
 53
90.0
  3
ME10_DIM_12
100
AcDbAlignedDimension
 13
106.5264288381989
 23
161.2745086135139
 33
0.0
 14
106.5264288381989
 24
188.2745086135139
 34
0.0
 50
90.0
100
AcDbRotatedDimension
  0
DIMENSION
  5
16B
330
1F
100
AcDbEntity
  8
1
100
AcDbDimension
  2
*D8
 10
86.7349262160697
 20
199.2577972543916
 30
0.0
 11
101.5976349382493
 21
202.0077972543916
 31
0.0
 70
    32
  1
<>
 71
     5
 42
-1.0
 53
0.00013888888889
  3
ME10_DIM_13
100
AcDbAlignedDimension
 13
115.7349262160697
 23
174.7745086135139
 33
0.0
 14
86.73492621606965
 24
174.7745086135139
 34
0.0
100
AcDbRotatedDimension
  0
ENDSEC
  0
SECTION
  2
OBJECTS
  0
DICTIONARY
  5
C
330
0
100
AcDbDictionary
281
     1
  3
ACAD_GROUP
350
D
  3
ACAD_LAYOUT
350
1A
  3
ACAD_MATERIAL
350
3B
  3
ACAD_MLEADERSTYLE
350
16E
  3
ACAD_MLINESTYLE
350
17
  3
ACAD_PLOTSETTINGS
350
19
  3
ACAD_PLOTSTYLENAME
350
E
  3
ACAD_VISUALSTYLE
350
2A
  3
AcDbVariableDictionary
350
16C
  0
DICTIONARY
  5
D
102
{ACAD_REACTORS
330
C
102
}
330
C
100
AcDbDictionary
281
     1
  0
DICTIONARY
  5
1A
102
{ACAD_REACTORS
330
C
102
}
330
C
100
AcDbDictionary
281
     1
  3
Layout1
350
1E
  3
Layout2
350
26
  3
Model
350
22
  0
DICTIONARY
  5
3B
102
{ACAD_REACTORS
330
C
102
}
330
C
100
AcDbDictionary
281
     1
  3
ByBlock
350
3D
  3
ByLayer
350
3C
  3
Global
350
3E
  0
DICTIONARY
  5
16E
102
{ACAD_REACTORS
330
C
102
}
330
C
100
AcDbDictionary
281
     1
  0
DICTIONARY
  5
17
102
{ACAD_REACTORS
330
C
102
}
330
C
100
AcDbDictionary
281
     1
  3
Standard
350
18
  0
DICTIONARY
  5
19
102
{ACAD_REACTORS
330
C
102
}
330
C
100
AcDbDictionary
281
     1
  0
ACDBDICTIONARYWDFLT
  5
E
102
{ACAD_REACTORS
330
C
102
}
330
C
100
AcDbDictionary
281
     1
  3
Normal
350
F
100
AcDbDictionaryWithDefault
340
F
  0
DICTIONARY
  5
2A
102
{ACAD_REACTORS
330
C
102
}
330
C
100
AcDbDictionary
281
     1
  3
2dWireframe
350
2F
  3
3D Hidden
350
31
  3
3dWireframe
350
30
  3
Basic
350
32
  3
Brighten
350
36
  3
ColorChange
350
3A
  3
Conceptual
350
34
  3
Dim
350
35
  3
Facepattern
350
39
  3
Flat
350
2B
  3
FlatWithEdges
350
2C
  3
Gouraud
350
2D
  3
GouraudWithEdges
350
2E
  3
Linepattern
350
38
  3
Realistic
350
33
  3
Thicken
350
37
  0
DICTIONARY
  5
16C
102
{ACAD_REACTORS
330
C
102
}
330
C
100
AcDbDictionary
281
     1
  3
DIMASSOC
350
16F
  3
HIDETEXT
350
170
  0
LAYOUT
  5
1E
102
{ACAD_REACTORS
330
1A
102
}
330
1A
100
AcDbPlotSettings
  1

  2
none_device
  4

  6

 40
0.0
 41
0.0
 42
0.0
 43
0.0
 44
0.0
 45
0.0
 46
0.0
 47
0.0
 48
0.0
 49
0.0
140
0.0
141
0.0
142
1.0
143
1.0
 70
   688
 72
     0
 73
     0
 74
     5
  7

 75
    16
147
1.0
148
0.0
149
0.0
100
AcDbLayout
  1
Layout1
 70
     1
 71
     1
 10
0.0
 20
0.0
 11
12.0
 21
9.0
 12
0.0
 22
0.0
 32
0.0
 14
1.00000000000000E+20
 24
1.00000000000000E+20
 34
1.00000000000000E+20
 15
-1.00000000000000E+20
 25
-1.00000000000000E+20
 35
-1.00000000000000E+20
146
0.0
 13
0.0
 23
0.0
 33
0.0
 16
1.0
 26
0.0
 36
0.0
 17
0.0
 27
1.0
 37
0.0
 76
     0
330
1B
  0
LAYOUT
  5
26
102
{ACAD_REACTORS
330
1A
102
}
330
1A
100
AcDbPlotSettings
  1

  2
none_device
  4

  6

 40
0.0
 41
0.0
 42
0.0
 43
0.0
 44
0.0
 45
0.0
 46
0.0
 47
0.0
 48
0.0
 49
0.0
140
0.0
141
0.0
142
1.0
143
1.0
 70
   688
 72
     0
 73
     0
 74
     5
  7

 75
    16
147
1.0
148
0.0
149
0.0
100
AcDbLayout
  1
Layout2
 70
     1
 71
     2
 10
0.0
 20
0.0
 11
0.0
 21
0.0
 12
0.0
 22
0.0
 32
0.0
 14
0.0
 24
0.0
 34
0.0
 15
0.0
 25
0.0
 35
0.0
146
0.0
 13
0.0
 23
0.0
 33
0.0
 16
1.0
 26
0.0
 36
0.0
 17
0.0
 27
1.0
 37
0.0
 76
     0
330
23
  0
LAYOUT
  5
22
102
{ACAD_REACTORS
330
1A
102
}
330
1A
100
AcDbPlotSettings
  1

  2
none_device
  4

  6

 40
0.0
 41
0.0
 42
0.0
 43
0.0
 44
0.0
 45
0.0
 46
0.0
 47
0.0
 48
0.0
 49
0.0
140
0.0
141
0.0
142
1.0
143
1.0
 70
  1712
 72
     0
 73
     0
 74
     0
  7

 75
     0
147
1.0
148
0.0
149
0.0
100
AcDbLayout
  1
Model
 70
     1
 71
     0
 10
0.0
 20
0.0
 11
12.0
 21
9.0
 12
0.0
 22
0.0
 32
0.0
 14
0.0
 24
0.0
 34
0.0
 15
210.0
 25
297.0
 35
0.0
146
0.0
 13
0.0
 23
0.0
 33
0.0
 16
1.0
 26
0.0
 36
0.0
 17
0.0
 27
1.0
 37
0.0
 76
     0
330
1F
331
29
  0
MATERIAL
  5
3D
102
{ACAD_REACTORS
330
3B
102
}
102
{ACAD_XDICTIONARY
360
193
102
}
330
3B
100
AcDbMaterial
  1
ByBlock
  0
MATERIAL
  5
3C
102
{ACAD_REACTORS
330
3B
102
}
102
{ACAD_XDICTIONARY
360
191
102
}
330
3B
100
AcDbMaterial
  1
ByLayer
  0
MATERIAL
  5
3E
102
{ACAD_REACTORS
330
3B
102
}
102
{ACAD_XDICTIONARY
360
195
102
}
330
3B
100
AcDbMaterial
  1
Global
  0
MLINESTYLE
  5
18
102
{ACAD_REACTORS
330
17
102
}
330
17
100
AcDbMlineStyle
  2
Standard
 70
     0
  3

 62
   256
 51
90.0
 52
90.0
 71
     2
 49
0.5
 62
   256
  6
BYLAYER
 49
-0.5
 62
   256
  6
BYLAYER
  0
ACDBPLACEHOLDER
  5
F
102
{ACAD_REACTORS
330
E
102
}
330
E
  0
VISUALSTYLE
  5
2F
102
{ACAD_REACTORS
330
2A
102
}
102
{ACAD_XDICTIONARY
360
179
102
}
330
2A
100
AcDbVisualStyle
  2
2dWireframe
 70
     4
 71
     0
 72
     2
 73
     0
 90
        0
 40
-0.6
 41
-30.0
 62
     5
 63
     7
 74
     1
 91
        4
 64
     7
 65
   257
 75
     1
175
     1
 42
1.0
 92
        0
 66
   257
 43
1.0
 76
     1
 77
     6
 78
     2
 67
     7
 79
     5
170
     0
171
     0
290
     0
174
     0
 93
        1
 44
0.0
173
     0
291
     0
 45
0.0
1001
ACAD
1000
AcDbSavedByObjectVersion
1070
     0
  0
VISUALSTYLE
  5
31
102
{ACAD_REACTORS
330
2A
102
}
102
{ACAD_XDICTIONARY
360
17D
102
}
330
2A
100
AcDbVisualStyle
  2
3D Hidden
 70
     6
 71
     1
 72
     2
 73
     2
 90
        0
 40
-0.6
 41
-30.0
 62
     5
 63
     7
 74
     2
 91
        2
 64
     7
 65
   257
 75
     2
175
     1
 42
40.0
 92
        0
 66
   257
 43
1.0
 76
     1
 77
     6
 78
     2
 67
     7
 79
     3
170
     0
171
     0
290
     0
174
     0
 93
        1
 44
0.0
173
     0
291
     0
 45
0.0
1001
ACAD
1000
AcDbSavedByObjectVersion
1070
     0
  0
VISUALSTYLE
  5
30
102
{ACAD_REACTORS
330
2A
102
}
102
{ACAD_XDICTIONARY
360
17B
102
}
330
2A
100
AcDbVisualStyle
  2
3dWireframe
 70
     5
 71
     0
 72
     2
 73
     0
 90
        0
 40
-0.6
 41
-30.0
 62
     5
 63
     7
 74
     1
 91
        4
 64
     7
 65
   257
 75
     1
175
     1
 42
1.0
 92
        0
 66
   257
 43
1.0
 76
     1
 77
     6
 78
     2
 67
     7
 79
     5
170
     0
171
     0
290
     0
174
     0
 93
        1
 44
0.0
173
     0
291
     0
 45
0.0
1001
ACAD
1000
AcDbSavedByObjectVersion
1070
     0
  0
VISUALSTYLE
  5
32
102
{ACAD_REACTORS
330
2A
102
}
102
{ACAD_XDICTIONARY
360
17F
102
}
330
2A
100
AcDbVisualStyle
  2
Basic
 70
     7
 71
     1
 72
     0
 73
     1
 90
        0
 40
-0.6
 41
-30.0
 62
     5
 63
     7
 74
     0
 91
        4
 64
     7
 65
   257
 75
     1
175
     1
 42
1.0
 92
        8
 66
     7
 43
1.0
 76
     1
 77
     6
 78
     2
 67
     7
 79
     5
170
     0
171
     0
290
     0
174
     0
 93
        1
 44
0.0
173
     0
291
     1
 45
0.0
1001
ACAD
1000
AcDbSavedByObjectVersion
1070
     0
  0
VISUALSTYLE
  5
36
102
{ACAD_REACTORS
330
2A
102
}
102
{ACAD_XDICTIONARY
360
187
102
}
330
2A
100
AcDbVisualStyle
  2
Brighten
 70
    12
 71
     2
 72
     2
 73
     0
 90
        0
 40
-0.6
 41
-30.0
 62
     5
 63
     7
 74
     1
 91
        4
 64
     7
 65
   257
 75
     1
175
     1
 42
1.0
 92
        8
 66
     7
 43
1.0
 76
     1
 77
     6
 78
     2
 67
     7
 79
     5
170
     0
171
     0
290
     0
174
     0
 93
        1
 44
50.0
173
     0
291
     1
 45
0.0
1001
ACAD
1000
AcDbSavedByObjectVersion
1070
     0
  0
VISUALSTYLE
  5
3A
102
{ACAD_REACTORS
330
2A
102
}
102
{ACAD_XDICTIONARY
360
18F
102
}
330
2A
100
AcDbVisualStyle
  2
ColorChange
 70
    16
 71
     2
 72
     2
 73
     3
 90
        0
 40
-0.6
 41
-30.0
 62
     5
 63
     8
 74
     1
 91
        4
 64
     7
 65
   257
 75
     1
175
     1
 42
1.0
 92
        8
 66
     8
 43
1.0
 76
     1
 77
     6
 78
     2
 67
     7
 79
     5
170
     0
171
     0
290
     0
174
     0
 93
        1
 44
0.0
173
     0
291
     1
 45
0.0
1001
ACAD
1000
AcDbSavedByObjectVersion
1070
     0
  0
VISUALSTYLE
  5
34
102
{ACAD_REACTORS
330
2A
102
}
102
{ACAD_XDICTIONARY
360
183
102
}
330
2A
100
AcDbVisualStyle
  2
Conceptual
 70
     9
 71
     3
 72
     2
 73
     0
 90
        0
 40
-0.6
 41
-30.0
 62
     5
 63
     7
 74
     2
 91
        2
 64
     7
 65
   257
 75
     1
175
     1
 42
40.0
 92
        8
 66
     7
 43
1.0
 76
     1
 77
     6
 78
     2
 67
     7
 79
     3
170
     0
171
     0
290
     0
174
     0
 93
        1
 44
0.0
173
     0
291
     0
 45
0.0
1001
ACAD
1000
AcDbSavedByObjectVersion
1070
     0
  0
VISUALSTYLE
  5
35
102
{ACAD_REACTORS
330
2A
102
}
102
{ACAD_XDICTIONARY
360
185
102
}
330
2A
100
AcDbVisualStyle
  2
Dim
 70
    11
 71
     2
 72
     2
 73
     0
 90
        0
 40
-0.6
 41
-30.0
 62
     5
 63
     7
 74
     1
 91
        4
 64
     7
 65
   257
 75
     1
175
     1
 42
1.0
 92
        8
 66
     7
 43
1.0
 76
     1
 77
     6
 78
     2
 67
     7
 79
     5
170
     0
171
     0
290
     0
174
     0
 93
        1
 44
-50.0
173
     0
291
     1
 45
0.0
1001
ACAD
1000
AcDbSavedByObjectVersion
1070
     0
  0
VISUALSTYLE
  5
39
102
{ACAD_REACTORS
330
2A
102
}
102
{ACAD_XDICTIONARY
360
18D
102
}
330
2A
100
AcDbVisualStyle
  2
Facepattern
 70
    15
 71
     2
 72
     2
 73
     0
 90
        0
 40
-0.6
 41
-30.0
 62
     5
 63
     7
 74
     1
 91
        4
 64
     7
 65
   257
 75
     1
175
     1
 42
1.0
 92
        8
 66
     7
 43
1.0
 76
     1
 77
     6
 78
     2
 67
     7
 79
     5
170
     0
171
     0
290
     0
174
     0
 93
        1
 44
0.0
173
     0
291
     1
 45
0.0
1001
ACAD
1000
AcDbSavedByObjectVersion
1070
     0
  0
VISUALSTYLE
  5
2B
102
{ACAD_REACTORS
330
2A
102
}
102
{ACAD_XDICTIONARY
360
171
102
}
330
2A
100
AcDbVisualStyle
  2
Flat
 70
     0
 71
     2
 72
     1
 73
     1
 90
        2
 40
-0.6
 41
30.0
 62
     5
 63
     7
 74
     0
 91
        4
 64
     7
 65
   257
 75
     1
175
     1
 42
1.0
 92
        8
 66
     7
 43
1.0
 76
     1
 77
     6
 78
     2
 67
     7
 79
     5
170
     0
171
     0
290
     0
174
     0
 93
       13
 44
0.0
173
     0
291
     1
 45
0.0
1001
ACAD
1000
AcDbSavedByObjectVersion
1070
     0
  0
VISUALSTYLE
  5
2C
102
{ACAD_REACTORS
330
2A
102
}
102
{ACAD_XDICTIONARY
360
173
102
}
330
2A
100
AcDbVisualStyle
  2
FlatWithEdges
 70
     1
 71
     2
 72
     1
 73
     1
 90
        2
 40
-0.6
 41
30.0
 62
     5
 63
     7
 74
     1
 91
        4
 64
     7
 65
   257
 75
     1
175
     1
 42
1.0
 92
        0
 66
   257
 43
1.0
 76
     1
 77
     6
 78
     2
 67
     7
 79
     5
170
     0
171
     0
290
     0
174
     0
 93
       13
 44
0.0
173
     0
291
     1
 45
0.0
1001
ACAD
1000
AcDbSavedByObjectVersion
1070
     0
  0
VISUALSTYLE
  5
2D
102
{ACAD_REACTORS
330
2A
102
}
102
{ACAD_XDICTIONARY
360
175
102
}
330
2A
100
AcDbVisualStyle
  2
Gouraud
 70
     2
 71
     2
 72
     2
 73
     1
 90
        2
 40
-0.6
 41
30.0
 62
     5
 63
     7
 74
     0
 91
        4
 64
     7
 65
   257
 75
     1
175
     1
 42
1.0
 92
        0
 66
     7
 43
1.0
 76
     1
 77
     6
 78
     2
 67
     7
 79
     5
170
     0
171
     0
290
     0
174
     0
 93
       13
 44
0.0
173
     0
291
     1
 45
0.0
1001
ACAD
1000
AcDbSavedByObjectVersion
1070
     0
  0
VISUALSTYLE
  5
2E
102
{ACAD_REACTORS
330
2A
102
}
102
{ACAD_XDICTIONARY
360
177
102
}
330
2A
100
AcDbVisualStyle
  2
GouraudWithEdges
 70
     3
 71
     2
 72
     2
 73
     1
 90
        2
 40
-0.6
 41
30.0
 62
     5
 63
     7
 74
     1
 91
        4
 64
     7
 65
   257
 75
     1
175
     1
 42
1.0
 92
        0
 66
   257
 43
1.0
 76
     1
 77
     6
 78
     2
 67
     7
 79
     5
170
     0
171
     0
290
     0
174
     0
 93
       13
 44
0.0
173
     0
291
     1
 45
0.0
1001
ACAD
1000
AcDbSavedByObjectVersion
1070
     0
  0
VISUALSTYLE
  5
38
102
{ACAD_REACTORS
330
2A
102
}
102
{ACAD_XDICTIONARY
360
18B
102
}
330
2A
100
AcDbVisualStyle
  2
Linepattern
 70
    14
 71
     2
 72
     2
 73
     0
 90
        0
 40
-0.6
 41
-30.0
 62
     5
 63
     7
 74
     1
 91
        4
 64
     7
 65
   257
 75
     7
175
     7
 42
1.0
 92
        8
 66
     7
 43
1.0
 76
     1
 77
     6
 78
     2
 67
     7
 79
     5
170
     0
171
     0
290
     0
174
     0
 93
        1
 44
0.0
173
     0
291
     1
 45
0.0
1001
ACAD
1000
AcDbSavedByObjectVersion
1070
     0
  0
VISUALSTYLE
  5
33
102
{ACAD_REACTORS
330
2A
102
}
102
{ACAD_XDICTIONARY
360
181
102
}
330
2A
100
AcDbVisualStyle
  2
Realistic
 70
     8
 71
     2
 72
     2
 73
     0
 90
        0
 40
-0.6
 41
-30.0
 62
     5
 63
     7
 74
     1
 91
        0
 64
     7
 65
   257
 75
     1
175
     1
 42
1.0
 92
        8
 66
     8
 43
1.0
 76
     1
 77
     6
 78
     2
 67
     7
 79
     5
170
     0
171
     0
290
     0
174
     0
 93
       13
 44
0.0
173
     0
291
     0
 45
0.0
1001
ACAD
1000
AcDbSavedByObjectVersion
1070
     0
  0
VISUALSTYLE
  5
37
102
{ACAD_REACTORS
330
2A
102
}
102
{ACAD_XDICTIONARY
360
189
102
}
330
2A
100
AcDbVisualStyle
  2
Thicken
 70
    13
 71
     2
 72
     2
 73
     0
 90
        0
 40
-0.6
 41
-30.0
 62
     5
 63
     7
 74
     1
 91
        4
 64
     7
 65
   257
 75
     1
175
     1
 42
1.0
 92
       12
 66
     7
 43
1.0
 76
     1
 77
     6
 78
     2
 67
     7
 79
     5
170
     0
171
     0
290
     0
174
     0
 93
        1
 44
0.0
173
     0
291
     1
 45
0.0
1001
ACAD
1000
AcDbSavedByObjectVersion
1070
     0
  0
DICTIONARYVAR
  5
16F
102
{ACAD_REACTORS
330
16C
102
}
330
16C
100
DictionaryVariables
280
     0
  1
2
  0
DICTIONARYVAR
  5
170
102
{ACAD_REACTORS
330
16C
102
}
330
16C
100
DictionaryVariables
280
     0
  1
1
  0
DICTIONARY
  5
193
330
3D
100
AcDbDictionary
280
     1
281
     1
  3
ACAD_XREC_ROUNDTRIP
360
194
  0
DICTIONARY
  5
191
330
3C
100
AcDbDictionary
280
     1
281
     1
  3
ACAD_XREC_ROUNDTRIP
360
192
  0
DICTIONARY
  5
195
330
3E
100
AcDbDictionary
280
     1
281
     1
  3
ACAD_XREC_ROUNDTRIP
360
196
  0
DICTIONARY
  5
179
330
2F
100
AcDbDictionary
280
     1
281
     1
  3
ACAD_XREC_ROUNDTRIP
360
17A
  0
DICTIONARY
  5
17D
330
31
100
AcDbDictionary
280
     1
281
     1
  3
ACAD_XREC_ROUNDTRIP
360
17E
  0
DICTIONARY
  5
17B
330
30
100
AcDbDictionary
280
     1
281
     1
  3
ACAD_XREC_ROUNDTRIP
360
17C
  0
DICTIONARY
  5
17F
330
32
100
AcDbDictionary
280
     1
281
     1
  3
ACAD_XREC_ROUNDTRIP
360
180
  0
DICTIONARY
  5
187
330
36
100
AcDbDictionary
280
     1
281
     1
  3
ACAD_XREC_ROUNDTRIP
360
188
  0
DICTIONARY
  5
18F
330
3A
100
AcDbDictionary
280
     1
281
     1
  3
ACAD_XREC_ROUNDTRIP
360
190
  0
DICTIONARY
  5
183
330
34
100
AcDbDictionary
280
     1
281
     1
  3
ACAD_XREC_ROUNDTRIP
360
184
  0
DICTIONARY
  5
185
330
35
100
AcDbDictionary
280
     1
281
     1
  3
ACAD_XREC_ROUNDTRIP
360
186
  0
DICTIONARY
  5
18D
330
39
100
AcDbDictionary
280
     1
281
     1
  3
ACAD_XREC_ROUNDTRIP
360
18E
  0
DICTIONARY
  5
171
330
2B
100
AcDbDictionary
280
     1
281
     1
  3
ACAD_XREC_ROUNDTRIP
360
172
  0
DICTIONARY
  5
173
330
2C
100
AcDbDictionary
280
     1
281
     1
  3
ACAD_XREC_ROUNDTRIP
360
174
  0
DICTIONARY
  5
175
330
2D
100
AcDbDictionary
280
     1
281
     1
  3
ACAD_XREC_ROUNDTRIP
360
176
  0
DICTIONARY
  5
177
330
2E
100
AcDbDictionary
280
     1
281
     1
  3
ACAD_XREC_ROUNDTRIP
360
178
  0
DICTIONARY
  5
18B
330
38
100
AcDbDictionary
280
     1
281
     1
  3
ACAD_XREC_ROUNDTRIP
360
18C
  0
DICTIONARY
  5
181
330
33
100
AcDbDictionary
280
     1
281
     1
  3
ACAD_XREC_ROUNDTRIP
360
182
  0
DICTIONARY
  5
189
330
37
100
AcDbDictionary
280
     1
281
     1
  3
ACAD_XREC_ROUNDTRIP
360
18A
  0
XRECORD
  5
194
102
{ACAD_REACTORS
330
193
102
}
330
193
100
AcDbXrecord
280
     1
102
MATERIAL
148
0.0
149
0.0
149
0.0
 93
        0
 94
      127
282
     0
 72
     1
 77
     1
171
     1
175
     1
179
     1
273
     0
  0
XRECORD
  5
192
102
{ACAD_REACTORS
330
191
102
}
330
191
100
AcDbXrecord
280
     1
102
MATERIAL
148
0.0
149
0.0
149
0.0
 93
        0
 94
      127
282
     0
 72
     1
 77
     1
171
     1
175
     1
179
     1
273
     0
  0
XRECORD
  5
196
102
{ACAD_REACTORS
330
195
102
}
330
195
100
AcDbXrecord
280
     1
102
MATERIAL
148
0.0
149
0.0
149
0.0
 93
        0
 94
      127
282
     0
 72
     1
 77
     1
171
     1
175
     1
179
     1
273
     0
  0
XRECORD
  5
17A
102
{ACAD_REACTORS
330
179
102
}
330
179
100
AcDbXrecord
280
     1
102
RTVSPropertyOp0
 70
     1
102
RTVSPropertyOp1
 70
     1
102
RTVSPropertyOp2
 70
     1
102
RTVSPropertyOp3
 70
     1
102
RTVSPropertyOp4
 70
     1
102
RTVSPropertyOp5
 70
     1
102
RTVSPropertyOp6
 70
     1
102
RTVSPropertyOp7
 70
     1
102
RTVSPropertyOp8
 70
     1
102
RTVSPropertyOp9
 70
     1
102
RTVSPropertyOp10
 70
     1
102
RTVSPropertyOp11
 70
     1
102
RTVSPropertyOp12
 70
     1
102
RTVSPropertyOp13
 70
     1
102
RTVSPropertyOp14
 70
     1
102
RTVSPropertyOp15
 70
     1
102
RTVSPropertyOp16
 70
     1
102
RTVSPropertyOp17
 70
     1
102
RTVSPropertyOp18
 70
     1
102
RTVSPropertyOp19
 70
     1
102
RTVSPropertyOp20
 70
     1
102
RTVSPropertyOp21
 70
     1
102
RTVSPropertyOp22
 70
     1
102
RTVSPropertyOp23
 70
     1
102
RTVSPropertyOp24
 70
     1
102
RTVSPropertyOp25
 70
     1
102
RTVSPropertyOp26
 70
     1
102
RTVSPropertyOp27
 70
     1
102
RTVSPropertyOp28
 70
     1
102
RTVSPropertyOp29
 70
     1
102
RTVSPropertyOp30
 70
     1
102
RTVSPropertyOp31
 70
     1
102
RTVSPropertyOp32
 70
     1
  0
XRECORD
  5
17E
102
{ACAD_REACTORS
330
17D
102
}
330
17D
100
AcDbXrecord
280
     1
102
RTVSPropertyOp0
 70
     1
102
RTVSPropertyOp1
 70
     1
102
RTVSPropertyOp2
 70
     1
102
RTVSPropertyOp3
 70
     1
102
RTVSPropertyOp4
 70
     1
102
RTVSPropertyOp5
 70
     1
102
RTVSPropertyOp6
 70
     1
102
RTVSPropertyOp7
 70
     1
102
RTVSPropertyOp8
 70
     1
102
RTVSPropertyOp9
 70
     1
102
RTVSPropertyOp10
 70
     1
102
RTVSPropertyOp11
 70
     1
102
RTVSPropertyOp12
 70
     1
102
RTVSPropertyOp13
 70
     1
102
RTVSPropertyOp14
 70
     1
102
RTVSPropertyOp15
 70
     1
102
RTVSPropertyOp16
 70
     1
102
RTVSPropertyOp17
 70
     1
102
RTVSPropertyOp18
 70
     1
102
RTVSPropertyOp19
 70
     1
102
RTVSPropertyOp20
 70
     1
102
RTVSPropertyOp21
 70
     1
102
RTVSPropertyOp22
 70
     1
102
RTVSPropertyOp23
 70
     1
102
RTVSPropertyOp24
 70
     1
102
RTVSPropertyOp25
 70
     1
102
RTVSPropertyOp26
 70
     1
102
RTVSPropertyOp27
 70
     1
102
RTVSPropertyOp28
 70
     1
102
RTVSPropertyOp29
 70
     1
102
RTVSPropertyOp30
 70
     1
102
RTVSPropertyOp31
 70
     1
102
RTVSPropertyOp32
 70
     1
  0
XRECORD
  5
17C
102
{ACAD_REACTORS
330
17B
102
}
330
17B
100
AcDbXrecord
280
     1
102
RTVSPropertyOp0
 70
     1
102
RTVSPropertyOp1
 70
     1
102
RTVSPropertyOp2
 70
     1
102
RTVSPropertyOp3
 70
     1
102
RTVSPropertyOp4
 70
     1
102
RTVSPropertyOp5
 70
     1
102
RTVSPropertyOp6
 70
     1
102
RTVSPropertyOp7
 70
     1
102
RTVSPropertyOp8
 70
     1
102
RTVSPropertyOp9
 70
     1
102
RTVSPropertyOp10
 70
     1
102
RTVSPropertyOp11
 70
     1
102
RTVSPropertyOp12
 70
     1
102
RTVSPropertyOp13
 70
     1
102
RTVSPropertyOp14
 70
     1
102
RTVSPropertyOp15
 70
     1
102
RTVSPropertyOp16
 70
     1
102
RTVSPropertyOp17
 70
     1
102
RTVSPropertyOp18
 70
     1
102
RTVSPropertyOp19
 70
     1
102
RTVSPropertyOp20
 70
     1
102
RTVSPropertyOp21
 70
     1
102
RTVSPropertyOp22
 70
     1
102
RTVSPropertyOp23
 70
     1
102
RTVSPropertyOp24
 70
     1
102
RTVSPropertyOp25
 70
     1
102
RTVSPropertyOp26
 70
     1
102
RTVSPropertyOp27
 70
     1
102
RTVSPropertyOp28
 70
     1
102
RTVSPropertyOp29
 70
     1
102
RTVSPropertyOp30
 70
     1
102
RTVSPropertyOp31
 70
     1
102
RTVSPropertyOp32
 70
     1
  0
XRECORD
  5
180
102
{ACAD_REACTORS
330
17F
102
}
330
17F
100
AcDbXrecord
280
     1
102
RTVSPropertyOp0
 70
     1
102
RTVSPropertyOp1
 70
     1
102
RTVSPropertyOp2
 70
     1
102
RTVSPropertyOp3
 70
     1
102
RTVSPropertyOp4
 70
     1
102
RTVSPropertyOp5
 70
     1
102
RTVSPropertyOp6
 70
     1
102
RTVSPropertyOp7
 70
     1
102
RTVSPropertyOp8
 70
     1
102
RTVSPropertyOp9
 70
     1
102
RTVSPropertyOp10
 70
     1
102
RTVSPropertyOp11
 70
     1
102
RTVSPropertyOp12
 70
     1
102
RTVSPropertyOp13
 70
     1
102
RTVSPropertyOp14
 70
     1
102
RTVSPropertyOp15
 70
     1
102
RTVSPropertyOp16
 70
     1
102
RTVSPropertyOp17
 70
     1
102
RTVSPropertyOp18
 70
     1
102
RTVSPropertyOp19
 70
     1
102
RTVSPropertyOp20
 70
     1
102
RTVSPropertyOp21
 70
     1
102
RTVSPropertyOp22
 70
     1
102
RTVSPropertyOp23
 70
     1
102
RTVSPropertyOp24
 70
     1
102
RTVSPropertyOp25
 70
     1
102
RTVSPropertyOp26
 70
     1
102
RTVSPropertyOp27
 70
     1
102
RTVSPropertyOp28
 70
     1
102
RTVSPropertyOp29
 70
     1
102
RTVSPropertyOp30
 70
     1
102
RTVSPropertyOp31
 70
     1
102
RTVSPropertyOp32
 70
     1
  0
XRECORD
  5
188
102
{ACAD_REACTORS
330
187
102
}
330
187
100
AcDbXrecord
280
     1
102
RTVSPropertyOp0
 70
     1
102
RTVSPropertyOp1
 70
     1
102
RTVSPropertyOp2
 70
     1
102
RTVSPropertyOp3
 70
     1
102
RTVSPropertyOp4
 70
     1
102
RTVSPropertyOp5
 70
     1
102
RTVSPropertyOp6
 70
     1
102
RTVSPropertyOp7
 70
     1
102
RTVSPropertyOp8
 70
     1
102
RTVSPropertyOp9
 70
     1
102
RTVSPropertyOp10
 70
     1
102
RTVSPropertyOp11
 70
     1
102
RTVSPropertyOp12
 70
     1
102
RTVSPropertyOp13
 70
     1
102
RTVSPropertyOp14
 70
     1
102
RTVSPropertyOp15
 70
     1
102
RTVSPropertyOp16
 70
     1
102
RTVSPropertyOp17
 70
     1
102
RTVSPropertyOp18
 70
     1
102
RTVSPropertyOp19
 70
     1
102
RTVSPropertyOp20
 70
     1
102
RTVSPropertyOp21
 70
     1
102
RTVSPropertyOp22
 70
     1
102
RTVSPropertyOp23
 70
     1
102
RTVSPropertyOp24
 70
     1
102
RTVSPropertyOp25
 70
     1
102
RTVSPropertyOp26
 70
     1
102
RTVSPropertyOp27
 70
     1
102
RTVSPropertyOp28
 70
     1
102
RTVSPropertyOp29
 70
     1
102
RTVSPropertyOp30
 70
     1
102
RTVSPropertyOp31
 70
     1
102
RTVSPropertyOp32
 70
     1
  0
XRECORD
  5
190
102
{ACAD_REACTORS
330
18F
102
}
330
18F
100
AcDbXrecord
280
     1
102
RTVSPropertyOp0
 70
     1
102
RTVSPropertyOp1
 70
     1
102
RTVSPropertyOp2
 70
     1
102
RTVSPropertyOp3
 70
     1
102
RTVSPropertyOp4
 70
     1
102
RTVSPropertyOp5
 70
     1
102
RTVSPropertyOp6
 70
     1
102
RTVSPropertyOp7
 70
     1
102
RTVSPropertyOp8
 70
     1
102
RTVSPropertyOp9
 70
     1
102
RTVSPropertyOp10
 70
     1
102
RTVSPropertyOp11
 70
     1
102
RTVSPropertyOp12
 70
     1
102
RTVSPropertyOp13
 70
     1
102
RTVSPropertyOp14
 70
     1
102
RTVSPropertyOp15
 70
     1
102
RTVSPropertyOp16
 70
     1
102
RTVSPropertyOp17
 70
     1
102
RTVSPropertyOp18
 70
     1
102
RTVSPropertyOp19
 70
     1
102
RTVSPropertyOp20
 70
     1
102
RTVSPropertyOp21
 70
     1
102
RTVSPropertyOp22
 70
     1
102
RTVSPropertyOp23
 70
     1
102
RTVSPropertyOp24
 70
     1
102
RTVSPropertyOp25
 70
     1
102
RTVSPropertyOp26
 70
     1
102
RTVSPropertyOp27
 70
     1
102
RTVSPropertyOp28
 70
     1
102
RTVSPropertyOp29
 70
     1
102
RTVSPropertyOp30
 70
     1
102
RTVSPropertyOp31
 70
     1
102
RTVSPropertyOp32
 70
     1
  0
XRECORD
  5
184
102
{ACAD_REACTORS
330
183
102
}
330
183
100
AcDbXrecord
280
     1
102
RTVSPropertyOp0
 70
     1
102
RTVSPropertyOp1
 70
     1
102
RTVSPropertyOp2
 70
     1
102
RTVSPropertyOp3
 70
     1
102
RTVSPropertyOp4
 70
     1
102
RTVSPropertyOp5
 70
     1
102
RTVSPropertyOp6
 70
     1
102
RTVSPropertyOp7
 70
     1
102
RTVSPropertyOp8
 70
     1
102
RTVSPropertyOp9
 70
     1
102
RTVSPropertyOp10
 70
     1
102
RTVSPropertyOp11
 70
     1
102
RTVSPropertyOp12
 70
     1
102
RTVSPropertyOp13
 70
     1
102
RTVSPropertyOp14
 70
     1
102
RTVSPropertyOp15
 70
     1
102
RTVSPropertyOp16
 70
     1
102
RTVSPropertyOp17
 70
     1
102
RTVSPropertyOp18
 70
     1
102
RTVSPropertyOp19
 70
     1
102
RTVSPropertyOp20
 70
     1
102
RTVSPropertyOp21
 70
     1
102
RTVSPropertyOp22
 70
     1
102
RTVSPropertyOp23
 70
     1
102
RTVSPropertyOp24
 70
     1
102
RTVSPropertyOp25
 70
     1
102
RTVSPropertyOp26
 70
     1
102
RTVSPropertyOp27
 70
     1
102
RTVSPropertyOp28
 70
     1
102
RTVSPropertyOp29
 70
     1
102
RTVSPropertyOp30
 70
     1
102
RTVSPropertyOp31
 70
     1
102
RTVSPropertyOp32
 70
     1
  0
XRECORD
  5
186
102
{ACAD_REACTORS
330
185
102
}
330
185
100
AcDbXrecord
280
     1
102
RTVSPropertyOp0
 70
     1
102
RTVSPropertyOp1
 70
     1
102
RTVSPropertyOp2
 70
     1
102
RTVSPropertyOp3
 70
     1
102
RTVSPropertyOp4
 70
     1
102
RTVSPropertyOp5
 70
     1
102
RTVSPropertyOp6
 70
     1
102
RTVSPropertyOp7
 70
     1
102
RTVSPropertyOp8
 70
     1
102
RTVSPropertyOp9
 70
     1
102
RTVSPropertyOp10
 70
     1
102
RTVSPropertyOp11
 70
     1
102
RTVSPropertyOp12
 70
     1
102
RTVSPropertyOp13
 70
     1
102
RTVSPropertyOp14
 70
     1
102
RTVSPropertyOp15
 70
     1
102
RTVSPropertyOp16
 70
     1
102
RTVSPropertyOp17
 70
     1
102
RTVSPropertyOp18
 70
     1
102
RTVSPropertyOp19
 70
     1
102
RTVSPropertyOp20
 70
     1
102
RTVSPropertyOp21
 70
     1
102
RTVSPropertyOp22
 70
     1
102
RTVSPropertyOp23
 70
     1
102
RTVSPropertyOp24
 70
     1
102
RTVSPropertyOp25
 70
     1
102
RTVSPropertyOp26
 70
     1
102
RTVSPropertyOp27
 70
     1
102
RTVSPropertyOp28
 70
     1
102
RTVSPropertyOp29
 70
     1
102
RTVSPropertyOp30
 70
     1
102
RTVSPropertyOp31
 70
     1
102
RTVSPropertyOp32
 70
     1
  0
XRECORD
  5
18E
102
{ACAD_REACTORS
330
18D
102
}
330
18D
100
AcDbXrecord
280
     1
102
RTVSPropertyOp0
 70
     1
102
RTVSPropertyOp1
 70
     1
102
RTVSPropertyOp2
 70
     1
102
RTVSPropertyOp3
 70
     1
102
RTVSPropertyOp4
 70
     1
102
RTVSPropertyOp5
 70
     1
102
RTVSPropertyOp6
 70
     1
102
RTVSPropertyOp7
 70
     1
102
RTVSPropertyOp8
 70
     1
102
RTVSPropertyOp9
 70
     1
102
RTVSPropertyOp10
 70
     1
102
RTVSPropertyOp11
 70
     1
102
RTVSPropertyOp12
 70
     1
102
RTVSPropertyOp13
 70
     1
102
RTVSPropertyOp14
 70
     1
102
RTVSPropertyOp15
 70
     1
102
RTVSPropertyOp16
 70
     1
102
RTVSPropertyOp17
 70
     1
102
RTVSPropertyOp18
 70
     1
102
RTVSPropertyOp19
 70
     1
102
RTVSPropertyOp20
 70
     1
102
RTVSPropertyOp21
 70
     1
102
RTVSPropertyOp22
 70
     1
102
RTVSPropertyOp23
 70
     1
102
RTVSPropertyOp24
 70
     1
102
RTVSPropertyOp25
 70
     1
102
RTVSPropertyOp26
 70
     1
102
RTVSPropertyOp27
 70
     1
102
RTVSPropertyOp28
 70
     1
102
RTVSPropertyOp29
 70
     1
102
RTVSPropertyOp30
 70
     1
102
RTVSPropertyOp31
 70
     1
102
RTVSPropertyOp32
 70
     1
  0
XRECORD
  5
172
102
{ACAD_REACTORS
330
171
102
}
330
171
100
AcDbXrecord
280
     1
102
RTVSPropertyOp0
 70
     1
102
RTVSPropertyOp1
 70
     1
102
RTVSPropertyOp2
 70
     1
102
RTVSPropertyOp3
 70
     1
102
RTVSPropertyOp4
 70
     1
102
RTVSPropertyOp5
 70
     1
102
RTVSPropertyOp6
 70
     1
102
RTVSPropertyOp7
 70
     1
102
RTVSPropertyOp8
 70
     1
102
RTVSPropertyOp9
 70
     1
102
RTVSPropertyOp10
 70
     1
102
RTVSPropertyOp11
 70
     1
102
RTVSPropertyOp12
 70
     1
102
RTVSPropertyOp13
 70
     1
102
RTVSPropertyOp14
 70
     1
102
RTVSPropertyOp15
 70
     1
102
RTVSPropertyOp16
 70
     1
102
RTVSPropertyOp17
 70
     1
102
RTVSPropertyOp18
 70
     1
102
RTVSPropertyOp19
 70
     1
102
RTVSPropertyOp20
 70
     1
102
RTVSPropertyOp21
 70
     1
102
RTVSPropertyOp22
 70
     1
102
RTVSPropertyOp23
 70
     1
102
RTVSPropertyOp24
 70
     1
102
RTVSPropertyOp25
 70
     1
102
RTVSPropertyOp26
 70
     1
102
RTVSPropertyOp27
 70
     1
102
RTVSPropertyOp28
 70
     1
102
RTVSPropertyOp29
 70
     1
102
RTVSPropertyOp30
 70
     1
102
RTVSPropertyOp31
 70
     1
102
RTVSPropertyOp32
 70
     1
  0
XRECORD
  5
174
102
{ACAD_REACTORS
330
173
102
}
330
173
100
AcDbXrecord
280
     1
102
RTVSPropertyOp0
 70
     1
102
RTVSPropertyOp1
 70
     1
102
RTVSPropertyOp2
 70
     1
102
RTVSPropertyOp3
 70
     1
102
RTVSPropertyOp4
 70
     1
102
RTVSPropertyOp5
 70
     1
102
RTVSPropertyOp6
 70
     1
102
RTVSPropertyOp7
 70
     1
102
RTVSPropertyOp8
 70
     1
102
RTVSPropertyOp9
 70
     1
102
RTVSPropertyOp10
 70
     1
102
RTVSPropertyOp11
 70
     1
102
RTVSPropertyOp12
 70
     1
102
RTVSPropertyOp13
 70
     1
102
RTVSPropertyOp14
 70
     1
102
RTVSPropertyOp15
 70
     1
102
RTVSPropertyOp16
 70
     1
102
RTVSPropertyOp17
 70
     1
102
RTVSPropertyOp18
 70
     1
102
RTVSPropertyOp19
 70
     1
102
RTVSPropertyOp20
 70
     1
102
RTVSPropertyOp21
 70
     1
102
RTVSPropertyOp22
 70
     1
102
RTVSPropertyOp23
 70
     1
102
RTVSPropertyOp24
 70
     1
102
RTVSPropertyOp25
 70
     1
102
RTVSPropertyOp26
 70
     1
102
RTVSPropertyOp27
 70
     1
102
RTVSPropertyOp28
 70
     1
102
RTVSPropertyOp29
 70
     1
102
RTVSPropertyOp30
 70
     1
102
RTVSPropertyOp31
 70
     1
102
RTVSPropertyOp32
 70
     1
  0
XRECORD
  5
176
102
{ACAD_REACTORS
330
175
102
}
330
175
100
AcDbXrecord
280
     1
102
RTVSPropertyOp0
 70
     1
102
RTVSPropertyOp1
 70
     1
102
RTVSPropertyOp2
 70
     1
102
RTVSPropertyOp3
 70
     1
102
RTVSPropertyOp4
 70
     1
102
RTVSPropertyOp5
 70
     1
102
RTVSPropertyOp6
 70
     1
102
RTVSPropertyOp7
 70
     1
102
RTVSPropertyOp8
 70
     1
102
RTVSPropertyOp9
 70
     1
102
RTVSPropertyOp10
 70
     1
102
RTVSPropertyOp11
 70
     1
102
RTVSPropertyOp12
 70
     1
102
RTVSPropertyOp13
 70
     1
102
RTVSPropertyOp14
 70
     1
102
RTVSPropertyOp15
 70
     1
102
RTVSPropertyOp16
 70
     1
102
RTVSPropertyOp17
 70
     1
102
RTVSPropertyOp18
 70
     1
102
RTVSPropertyOp19
 70
     1
102
RTVSPropertyOp20
 70
     1
102
RTVSPropertyOp21
 70
     1
102
RTVSPropertyOp22
 70
     1
102
RTVSPropertyOp23
 70
     1
102
RTVSPropertyOp24
 70
     1
102
RTVSPropertyOp25
 70
     1
102
RTVSPropertyOp26
 70
     1
102
RTVSPropertyOp27
 70
     1
102
RTVSPropertyOp28
 70
     1
102
RTVSPropertyOp29
 70
     1
102
RTVSPropertyOp30
 70
     1
102
RTVSPropertyOp31
 70
     1
102
RTVSPropertyOp32
 70
     1
  0
XRECORD
  5
178
102
{ACAD_REACTORS
330
177
102
}
330
177
100
AcDbXrecord
280
     1
102
RTVSPropertyOp0
 70
     1
102
RTVSPropertyOp1
 70
     1
102
RTVSPropertyOp2
 70
     1
102
RTVSPropertyOp3
 70
     1
102
RTVSPropertyOp4
 70
     1
102
RTVSPropertyOp5
 70
     1
102
RTVSPropertyOp6
 70
     1
102
RTVSPropertyOp7
 70
     1
102
RTVSPropertyOp8
 70
     1
102
RTVSPropertyOp9
 70
     1
102
RTVSPropertyOp10
 70
     1
102
RTVSPropertyOp11
 70
     1
102
RTVSPropertyOp12
 70
     1
102
RTVSPropertyOp13
 70
     1
102
RTVSPropertyOp14
 70
     1
102
RTVSPropertyOp15
 70
     1
102
RTVSPropertyOp16
 70
     1
102
RTVSPropertyOp17
 70
     1
102
RTVSPropertyOp18
 70
     1
102
RTVSPropertyOp19
 70
     1
102
RTVSPropertyOp20
 70
     1
102
RTVSPropertyOp21
 70
     1
102
RTVSPropertyOp22
 70
     1
102
RTVSPropertyOp23
 70
     1
102
RTVSPropertyOp24
 70
     1
102
RTVSPropertyOp25
 70
     1
102
RTVSPropertyOp26
 70
     1
102
RTVSPropertyOp27
 70
     1
102
RTVSPropertyOp28
 70
     1
102
RTVSPropertyOp29
 70
     1
102
RTVSPropertyOp30
 70
     1
102
RTVSPropertyOp31
 70
     1
102
RTVSPropertyOp32
 70
     1
  0
XRECORD
  5
18C
102
{ACAD_REACTORS
330
18B
102
}
330
18B
100
AcDbXrecord
280
     1
102
RTVSPropertyOp0
 70
     1
102
RTVSPropertyOp1
 70
     1
102
RTVSPropertyOp2
 70
     1
102
RTVSPropertyOp3
 70
     1
102
RTVSPropertyOp4
 70
     1
102
RTVSPropertyOp5
 70
     1
102
RTVSPropertyOp6
 70
     1
102
RTVSPropertyOp7
 70
     1
102
RTVSPropertyOp8
 70
     1
102
RTVSPropertyOp9
 70
     1
102
RTVSPropertyOp10
 70
     1
102
RTVSPropertyOp11
 70
     1
102
RTVSPropertyOp12
 70
     1
102
RTVSPropertyOp13
 70
     1
102
RTVSPropertyOp14
 70
     1
102
RTVSPropertyOp15
 70
     1
102
RTVSPropertyOp16
 70
     1
102
RTVSPropertyOp17
 70
     1
102
RTVSPropertyOp18
 70
     1
102
RTVSPropertyOp19
 70
     1
102
RTVSPropertyOp20
 70
     1
102
RTVSPropertyOp21
 70
     1
102
RTVSPropertyOp22
 70
     1
102
RTVSPropertyOp23
 70
     1
102
RTVSPropertyOp24
 70
     1
102
RTVSPropertyOp25
 70
     1
102
RTVSPropertyOp26
 70
     1
102
RTVSPropertyOp27
 70
     1
102
RTVSPropertyOp28
 70
     1
102
RTVSPropertyOp29
 70
     1
102
RTVSPropertyOp30
 70
     1
102
RTVSPropertyOp31
 70
     1
102
RTVSPropertyOp32
 70
     1
  0
XRECORD
  5
182
102
{ACAD_REACTORS
330
181
102
}
330
181
100
AcDbXrecord
280
     1
102
RTVSPropertyOp0
 70
     1
102
RTVSPropertyOp1
 70
     1
102
RTVSPropertyOp2
 70
     1
102
RTVSPropertyOp3
 70
     1
102
RTVSPropertyOp4
 70
     1
102
RTVSPropertyOp5
 70
     1
102
RTVSPropertyOp6
 70
     1
102
RTVSPropertyOp7
 70
     1
102
RTVSPropertyOp8
 70
     1
102
RTVSPropertyOp9
 70
     1
102
RTVSPropertyOp10
 70
     1
102
RTVSPropertyOp11
 70
     1
102
RTVSPropertyOp12
 70
     1
102
RTVSPropertyOp13
 70
     1
102
RTVSPropertyOp14
 70
     1
102
RTVSPropertyOp15
 70
     1
102
RTVSPropertyOp16
 70
     1
102
RTVSPropertyOp17
 70
     1
102
RTVSPropertyOp18
 70
     1
102
RTVSPropertyOp19
 70
     1
102
RTVSPropertyOp20
 70
     1
102
RTVSPropertyOp21
 70
     1
102
RTVSPropertyOp22
 70
     1
102
RTVSPropertyOp23
 70
     1
102
RTVSPropertyOp24
 70
     1
102
RTVSPropertyOp25
 70
     1
102
RTVSPropertyOp26
 70
     1
102
RTVSPropertyOp27
 70
     1
102
RTVSPropertyOp28
 70
     1
102
RTVSPropertyOp29
 70
     1
102
RTVSPropertyOp30
 70
     1
102
RTVSPropertyOp31
 70
     1
102
RTVSPropertyOp32
 70
     1
  0
XRECORD
  5
18A
102
{ACAD_REACTORS
330
189
102
}
330
189
100
AcDbXrecord
280
     1
102
RTVSPropertyOp0
 70
     1
102
RTVSPropertyOp1
 70
     1
102
RTVSPropertyOp2
 70
     1
102
RTVSPropertyOp3
 70
     1
102
RTVSPropertyOp4
 70
     1
102
RTVSPropertyOp5
 70
     1
102
RTVSPropertyOp6
 70
     1
102
RTVSPropertyOp7
 70
     1
102
RTVSPropertyOp8
 70
     1
102
RTVSPropertyOp9
 70
     1
102
RTVSPropertyOp10
 70
     1
102
RTVSPropertyOp11
 70
     1
102
RTVSPropertyOp12
 70
     1
102
RTVSPropertyOp13
 70
     1
102
RTVSPropertyOp14
 70
     1
102
RTVSPropertyOp15
 70
     1
102
RTVSPropertyOp16
 70
     1
102
RTVSPropertyOp17
 70
     1
102
RTVSPropertyOp18
 70
     1
102
RTVSPropertyOp19
 70
     1
102
RTVSPropertyOp20
 70
     1
102
RTVSPropertyOp21
 70
     1
102
RTVSPropertyOp22
 70
     1
102
RTVSPropertyOp23
 70
     1
102
RTVSPropertyOp24
 70
     1
102
RTVSPropertyOp25
 70
     1
102
RTVSPropertyOp26
 70
     1
102
RTVSPropertyOp27
 70
     1
102
RTVSPropertyOp28
 70
     1
102
RTVSPropertyOp29
 70
     1
102
RTVSPropertyOp30
 70
     1
102
RTVSPropertyOp31
 70
     1
102
RTVSPropertyOp32
 70
     1
  0
ENDSEC
  0
EOF
