  0
SECTION
  2
HEADER
  9
$ACADVER
  1
AC1015
  9
$ACADMAINTVER
 70
     6
  9
$DWGCODEPAGE
  3
ANSI_932
  9
$INSBASE
 10
0.0
 20
0.0
 30
0.0
  9
$EXTMIN
 10
0.0
 20
0.0
 30
0.0
  9
$EXTMAX
 10
210.0
 20
297.0
 30
0.0
  9
$LIMMIN
 10
0.0
 20
0.0
  9
$LIMMAX
 10
12.0
 20
9.0
  9
$ORTHOMODE
 70
     0
  9
$REGENMODE
 70
     1
  9
$FILLMODE
 70
     1
  9
$QTEXTMODE
 70
     0
  9
$MIRRTEXT
 70
     1
  9
$LTSCALE
 40
1.0
  9
$ATTMODE
 70
     1
  9
$TEXTSIZE
 40
0.2
  9
$TRACEWID
 40
0.05
  9
$TEXTSTYLE
  7
Standard
  9
$CLAYER
  8
0
  9
$CELTYPE
  6
ByLayer
  9
$CECOLOR
 62
   256
  9
$CELTSCALE
 40
1.0
  9
$DISPSILH
 70
     0
  9
$DIMSCALE
 40
1.0
  9
$DIMASZ
 40
0.18
  9
$DIMEXO
 40
0.0625
  9
$DIMDLI
 40
0.38
  9
$DIMRND
 40
0.0
  9
$DIMDLE
 40
0.0
  9
$DIMEXE
 40
0.18
  9
$DIMTP
 40
0.0
  9
$DIMTM
 40
0.0
  9
$DIMTXT
 40
0.18
  9
$DIMCEN
 40
0.09
  9
$DIMTSZ
 40
0.0
  9
$DIMTOL
 70
     0
  9
$DIMLIM
 70
     0
  9
$DIMTIH
 70
     1
  9
$DIMTOH
 70
     1
  9
$DIMSE1
 70
     0
  9
$DIMSE2
 70
     0
  9
$DIMTAD
 70
     0
  9
$DIMZIN
 70
     0
  9
$DIMBLK
  1

  9
$DIMASO
 70
     1
  9
$DIMSHO
 70
     1
  9
$DIMPOST
  1

  9
$DIMAPOST
  1

  9
$DIMALT
 70
     0
  9
$DIMALTD
 70
     2
  9
$DIMALTF
 40
25.4
  9
$DIMLFAC
 40
1.0
  9
$DIMTOFL
 70
     0
  9
$DIMTVP
 40
0.0
  9
$DIMTIX
 70
     0
  9
$DIMSOXD
 70
     0
  9
$DIMSAH
 70
     0
  9
$DIMBLK1
  1

  9
$DIMBLK2
  1

  9
$DIMSTYLE
  2
Standard
  9
$DIMCLRD
 70
     0
  9
$DIMCLRE
 70
     0
  9
$DIMCLRT
 70
     0
  9
$DIMTFAC
 40
1.0
  9
$DIMGAP
 40
0.09
  9
$DIMJUST
 70
     0
  9
$DIMSD1
 70
     0
  9
$DIMSD2
 70
     0
  9
$DIMTOLJ
 70
     1
  9
$DIMTZIN
 70
     0
  9
$DIMALTZ
 70
     0
  9
$DIMALTTZ
 70
     0
  9
$DIMUPT
 70
     0
  9
$DIMDEC
 70
     4
  9
$DIMTDEC
 70
     4
  9
$DIMALTU
 70
     2
  9
$DIMALTTD
 70
     2
  9
$DIMTXSTY
  7
Standard
  9
$DIMAUNIT
 70
     0
  9
$DIMADEC
 70
     0
  9
$DIMALTRND
 40
0.0
  9
$DIMAZIN
 70
     0
  9
$DIMDSEP
 70
    46
  9
$DIMATFIT
 70
     3
  9
$DIMFRAC
 70
     0
  9
$DIMLDRBLK
  1

  9
$DIMLUNIT
 70
     2
  9
$DIMLWD
 70
    -2
  9
$DIMLWE
 70
    -2
  9
$DIMTMOVE
 70
     0
  9
$LUNITS
 70
     2
  9
$LUPREC
 70
     4
  9
$SKETCHINC
 40
0.1
  9
$FILLETRAD
 40
0.5
  9
$AUNITS
 70
     0
  9
$AUPREC
 70
     0
  9
$MENU
  1
.
  9
$ELEVATION
 40
0.0
  9
$PELEVATION
 40
0.0
  9
$THICKNESS
 40
0.0
  9
$LIMCHECK
 70
     0
  9
$CHAMFERA
 40
0.5
  9
$CHAMFERB
 40
0.5
  9
$CHAMFERC
 40
1.0
  9
$CHAMFERD
 40
0.0
  9
$SKPOLY
 70
     0
  9
$TDCREATE
 40
2460376.579288102
  9
$TDUCREATE
 40
2460376.204288102
  9
$TDUPDATE
 40
2460376.579289549
  9
$TDUUPDATE
 40
2460376.204289549
  9
$TDINDWG
 40
0.0000000116
  9
$TDUSRTIMER
 40
0.0000000116
  9
$USRTIMER
 70
     1
  9
$ANGBASE
 50
0.0
  9
$ANGDIR
 70
     0
  9
$PDMODE
 70
     0
  9
$PDSIZE
 40
0.0
  9
$PLINEWID
 40
0.0
  9
$SPLFRAME
 70
     0
  9
$SPLINETYPE
 70
     6
  9
$SPLINESEGS
 70
     8
  9
$HANDSEED
  5
19C
  9
$SURFTAB1
 70
     6
  9
$SURFTAB2
 70
     6
  9
$SURFTYPE
 70
     6
  9
$SURFU
 70
     6
  9
$SURFV
 70
     6
  9
$UCSBASE
  2

  9
$UCSNAME
  2

  9
$UCSORG
 10
0.0
 20
0.0
 30
0.0
  9
$UCSXDIR
 10
1.0
 20
0.0
 30
0.0
  9
$UCSYDIR
 10
0.0
 20
1.0
 30
0.0
  9
$UCSORTHOREF
  2

  9
$UCSORTHOVIEW
 70
     0
  9
$UCSORGTOP
 10
0.0
 20
0.0
 30
0.0
  9
$UCSORGBOTTOM
 10
0.0
 20
0.0
 30
0.0
  9
$UCSORGLEFT
 10
0.0
 20
0.0
 30
0.0
  9
$UCSORGRIGHT
 10
0.0
 20
0.0
 30
0.0
  9
$UCSORGFRONT
 10
0.0
 20
0.0
 30
0.0
  9
$UCSORGBACK
 10
0.0
 20
0.0
 30
0.0
  9
$PUCSBASE
  2

  9
$PUCSNAME
  2

  9
$PUCSORG
 10
0.0
 20
0.0
 30
0.0
  9
$PUCSXDIR
 10
1.0
 20
0.0
 30
0.0
  9
$PUCSYDIR
 10
0.0
 20
1.0
 30
0.0
  9
$PUCSORTHOREF
  2

  9
$PUCSORTHOVIEW
 70
     0
  9
$PUCSORGTOP
 10
0.0
 20
0.0
 30
0.0
  9
$PUCSORGBOTTOM
 10
0.0
 20
0.0
 30
0.0
  9
$PUCSORGLEFT
 10
0.0
 20
0.0
 30
0.0
  9
$PUCSORGRIGHT
 10
0.0
 20
0.0
 30
0.0
  9
$PUCSORGFRONT
 10
0.0
 20
0.0
 30
0.0
  9
$PUCSORGBACK
 10
0.0
 20
0.0
 30
0.0
  9
$USERI1
 70
     0
  9
$USERI2
 70
     0
  9
$USERI3
 70
     0
  9
$USERI4
 70
     0
  9
$USERI5
 70
     0
  9
$USERR1
 40
18.1
  9
$USERR2
 40
0.0
  9
$USERR3
 40
0.0
  9
$USERR4
 40
0.0
  9
$USERR5
 40
0.0
  9
$WORLDVIEW
 70
     1
  9
$SHADEDGE
 70
     3
  9
$SHADEDIF
 70
    70
  9
$TILEMODE
 70
     1
  9
$MAXACTVP
 70
    64
  9
$PINSBASE
 10
0.0
 20
0.0
 30
0.0
  9
$PLIMCHECK
 70
     0
  9
$PEXTMIN
 10
1.00000000000000E+20
 20
1.00000000000000E+20
 30
1.00000000000000E+20
  9
$PEXTMAX
 10
-1.00000000000000E+20
 20
-1.00000000000000E+20
 30
-1.00000000000000E+20
  9
$PLIMMIN
 10
0.0
 20
0.0
  9
$PLIMMAX
 10
12.0
 20
9.0
  9
$UNITMODE
 70
     0
  9
$VISRETAIN
 70
     1
  9
$PLINEGEN
 70
     0
  9
$PSLTSCALE
 70
     1
  9
$TREEDEPTH
 70
  3020
  9
$CMLSTYLE
  2
Standard
  9
$CMLJUST
 70
     0
  9
$CMLSCALE
 40
1.0
  9
$PROXYGRAPHICS
 70
     1
  9
$MEASUREMENT
 70
     1
  9
$CELWEIGHT
370
    -1
  9
$ENDCAPS
280
     0
  9
$JOINSTYLE
280
     0
  9
$LWDISPLAY
290
     0
  9
$INSUNITS
 70
     4
  9
$HYPERLINKBASE
  1

  9
$STYLESHEET
  1

  9
$XEDIT
290
     1
  9
$CEPSNTYPE
380
     0
  9
$PSTYLEMODE
290
     1
  9
$FINGERPRINTGUID
  2
{24BE2C3C-BDAC-4707-BD5B-3389F9B19B6D}
  9
$VERSIONGUID
  2
{FAEB1C32-E019-11D5-929B-00C0DF256EC4}
  9
$EXTNAMES
290
     1
  9
$PSVPSCALE
 40
0.0
  9
$OLESTARTUP
290
     0
  0
ENDSEC
  0
SECTION
  2
CLASSES
  0
CLASS
  1
ACDBDICTIONARYWDFLT
  2
AcDbDictionaryWithDefault
  3
ObjectDBX Classes
 90
        0
280
     0
281
     0
  0
CLASS
  1
VISUALSTYLE
  2
AcDbVisualStyle
  3
ObjectDBX Classes
 90
     4095
280
     0
281
     0
  0
CLASS
  1
MATERIAL
  2
AcDbMaterial
  3
ObjectDBX Classes
 90
     1153
280
     0
281
     0
  0
CLASS
  1
DICTIONARYVAR
  2
AcDbDictionaryVar
  3
ObjectDBX Classes
 90
        0
280
     0
281
     0
  0
CLASS
  1
ACDBPLACEHOLDER
  2
AcDbPlaceHolder
  3
ObjectDBX Classes
 90
        0
280
     0
281
     0
  0
CLASS
  1
LAYOUT
  2
AcDbLayout
  3
ObjectDBX Classes
 90
        0
280
     0
281
     0
  0
ENDSEC
  0
SECTION
  2
TABLES
  0
TABLE
  2
VPORT
  5
8
330
0
100
AcDbSymbolTable
 70
     1
  0
VPORT
  5
29
330
8
100
AcDbSymbolTableRecord
100
AcDbViewportTableRecord
  2
*Active
 70
     0
 10
0.0
 20
0.0
 11
1.0
 21
1.0
 12
105.0
 22
148.5
 13
0.0
 23
0.0
 14
0.5
 24
0.5
 15
0.5
 25
0.5
 16
0.0
 26
0.0
 36
1.0
 17
0.0
 27
0.0
 37
0.0
 40
326.7
 41
1.60267857142857
 42
50.0
 43
0.0
 44
0.0
 50
0.0
 51
0.0
 71
     0
 72
   100
 73
     1
 74
     3
 75
     0
 76
     0
 77
     0
 78
     0
281
     0
 65
     1
110
0.0
120
0.0
130
0.0
111
1.0
121
0.0
131
0.0
112
0.0
122
1.0
132
0.0
 79
     0
146
0.0
  0
ENDTAB
  0
TABLE
  2
LTYPE
  5
5
330
0
100
AcDbSymbolTable
 70
     8
  0
LTYPE
  5
14
330
5
100
AcDbSymbolTableRecord
100
AcDbLinetypeTableRecord
  2
ByBlock
 70
     0
  3

 72
    65
 73
     0
 40
0.0
  0
LTYPE
  5
15
330
5
100
AcDbSymbolTableRecord
100
AcDbLinetypeTableRecord
  2
ByLayer
 70
     0
  3

 72
    65
 73
     0
 40
0.0
  0
LTYPE
  5
16
330
5
100
AcDbSymbolTableRecord
100
AcDbLinetypeTableRecord
  2
Continuous
 70
     0
  3
Solid line
 72
    65
 73
     0
 40
0.0
  0
LTYPE
  5
3F
330
5
100
AcDbSymbolTableRecord
100
AcDbLinetypeTableRecord
  2
DASHED
 70
     0
  3
Dashed
 72
    65
 73
     2
 40
15.0
 49
7.0
 74
     0
 49
-8.0
 74
     0
  0
LTYPE
  5
40
330
5
100
AcDbSymbolTableRecord
100
AcDbLinetypeTableRecord
  2
DOTTED
 70
     0
  3
Dotted
 72
    65
 73
     2
 40
1.0
 49
0.0
 74
     0
 49
-1.0
 74
     0
  0
LTYPE
  5
41
330
5
100
AcDbSymbolTableRecord
100
AcDbLinetypeTableRecord
  2
DOT_CENTER
 70
     0
  3
Dot_Center
 72
    65
 73
     4
 40
14.0
 49
12.0
 74
     0
 49
-1.0
 74
     0
 49
0.0
 74
     0
 49
-1.0
 74
     0
  0
LTYPE
  5
42
330
5
100
AcDbSymbolTableRecord
100
AcDbLinetypeTableRecord
  2
LONG_DASHED
 70
     0
  3
Long_Dashed
 72
    65
 73
     2
 40
15.0
 49
10.0
 74
     0
 49
-5.0
 74
     0
  0
LTYPE
  5
43
330
5
100
AcDbSymbolTableRecord
100
AcDbLinetypeTableRecord
  2
DASH_CENTER
 70
     0
  3
Dash_Center
 72
    65
 73
     4
 40
14.0
 49
11.0
 74
     0
 49
-1.0
 74
     0
 49
1.0
 74
     0
 49
-1.0
 74
     0
  0
LTYPE
  5
44
330
5
100
AcDbSymbolTableRecord
100
AcDbLinetypeTableRecord
  2
PHANTOM
 70
     0
  3
Phantom
 72
    65
 73
     6
 40
13.0
 49
10.0
 74
     0
 49
-1.0
 74
     0
 49
0.0
 74
     0
 49
-1.0
 74
     0
 49
0.0
 74
     0
 49
-1.0
 74
     0
  0
LTYPE
  5
45
330
5
100
AcDbSymbolTableRecord
100
AcDbLinetypeTableRecord
  2
CENTER_DASH_DASH
 70
     0
  3
Center_Dash_Dash
 72
    65
 73
     6
 40
14.0
 49
9.0
 74
     0
 49
-1.0
 74
     0
 49
1.0
 74
     0
 49
-1.0
 74
     0
 49
1.0
 74
     0
 49
-1.0
 74
     0
  0
ENDTAB
  0
TABLE
  2
LAYER
  5
2
330
0
100
AcDbSymbolTable
 70
     3
  0
LAYER
  5
10
330
2
100
AcDbSymbolTableRecord
100
AcDbLayerTableRecord
  2
0
 70
     0
 62
     7
  6
Continuous
370
    -3
390
F
  0
LAYER
  5
46
330
2
100
AcDbSymbolTableRecord
100
AcDbLayerTableRecord
  2
1
 70
     0
 62
     7
  6
Continuous
370
    -3
390
F
  0
LAYER
  5
47
330
2
100
AcDbSymbolTableRecord
100
AcDbLayerTableRecord
  2
_U_30EC_U_30A4_U_30E4_U_30FC_1
 70
     0
 62
     7
  6
Continuous
370
    -3
390
F
  0
ENDTAB
  0
TABLE
  2
STYLE
  5
3
330
0
100
AcDbSymbolTable
 70
     3
  0
STYLE
  5
11
330
3
100
AcDbSymbolTableRecord
100
AcDbTextStyleTableRecord
  2
Standard
 70
     0
 40
0.0
 41
1.0
 50
0.0
 71
     0
 42
0.2
  3
txt
  4

  0
STYLE
  5
B6
330
3
100
AcDbSymbolTableRecord
100
AcDbTextStyleTableRecord
  2
CONVERTER_11
 70
     0
 40
0.0
 41
0.89
 50
0.0
 71
     0
 42
0.2
  3
MS Mincho.ttf
  4

1001
ACAD
1000
MS Mincho
1071
    32785
  0
STYLE
  5
133
330
3
100
AcDbSymbolTableRecord
100
AcDbTextStyleTableRecord
  2
CONVERTER_12
 70
     0
 40
0.0
 41
0.9
 50
0.0
 71
     0
 42
0.2
  3
txt.shx
  4

  0
ENDTAB
  0
TABLE
  2
VIEW
  5
6
330
0
100
AcDbSymbolTable
 70
     0
  0
ENDTAB
  0
TABLE
  2
UCS
  5
7
330
0
100
AcDbSymbolTable
 70
     0
  0
ENDTAB
  0
TABLE
  2
APPID
  5
9
330
0
100
AcDbSymbolTable
 70
     1
  0
APPID
  5
12
330
9
100
AcDbSymbolTableRecord
100
AcDbRegAppTableRecord
  2
ACAD
 70
     0
  0
ENDTAB
  0
TABLE
  2
DIMSTYLE
  5
A
330
0
100
AcDbSymbolTable
 70
     5
100
AcDbDimStyleTable
  0
DIMSTYLE
105
27
330
A
100
AcDbSymbolTableRecord
100
AcDbDimStyleTableRecord
  2
Standard
 70
     0
178
     0
340
11
  0
DIMSTYLE
105
14C
102
{ACAD_REACTORS
330
14D
102
}
330
A
100
AcDbSymbolTableRecord
100
AcDbDimStyleTableRecord
  2
ME10_DIM_10
 70
     0
  3
{\Fgdt;n}<>
 41
3.5
 42
0.0
 44
1.0
 73
     0
 74
     0
 77
     1
 78
     8
140
3.5
147
1.0
172
     1
173
     1
174
     1
175
     1
176
     2
177
     2
271
     2
178
     7
271
     2
340
133
  0
DIMSTYLE
105
157
102
{ACAD_REACTORS
330
158
102
}
330
A
100
AcDbSymbolTableRecord
100
AcDbDimStyleTableRecord
  2
ME10_DIM_11
 70
     0
 41
3.5
 42
0.0
 44
1.0
 73
     0
 74
     0
 77
     1
 78
     8
140
3.5
147
1.0
172
     1
173
     1
174
     1
175
     1
176
     2
177
     2
271
     2
178
     7
271
     2
340
133
  0
DIMSTYLE
105
164
102
{ACAD_REACTORS
330
165
102
}
330
A
100
AcDbSymbolTableRecord
100
AcDbDimStyleTableRecord
  2
ME10_DIM_12
 70
     0
 41
3.5
 42
0.0
 44
1.0
 73
     0
 74
     0
 77
     1
 78
     8
140
3.5
147
1.0
172
     1
173
     1
174
     1
175
     1
176
     2
177
     2
271
     2
178
     7
271
     2
340
133
  0
DIMSTYLE
105
16F
102
{ACAD_REACTORS
330
170
102
}
330
A
100
AcDbSymbolTableRecord
100
AcDbDimStyleTableRecord
  2
ME10_DIM_13
 70
     0
 41
3.5
 42
0.0
 44
1.0
 73
     0
 74
     0
 77
     1
 78
     8
140
3.5
147
1.0
172
     1
173
     1
174
     1
175
     1
176
     2
177
     2
271
     2
178
     7
271
     2
340
133
  0
ENDTAB
  0
TABLE
  2
BLOCK_RECORD
  5
1
330
0
100
AcDbSymbolTable
 70
     8
  0
BLOCK_RECORD
  5
1F
330
1
100
AcDbSymbolTableRecord
100
AcDbBlockTableRecord
  2
*Model_Space
340
22
  0
BLOCK_RECORD
  5
1B
330
1
100
AcDbSymbolTableRecord
100
AcDbBlockTableRecord
  2
*Paper_Space
340
1E
  0
BLOCK_RECORD
  5
23
330
1
100
AcDbSymbolTableRecord
100
AcDbBlockTableRecord
  2
*Paper_Space0
340
26
  0
BLOCK_RECORD
  5
48
330
1
100
AcDbSymbolTableRecord
100
AcDbBlockTableRecord
  2
開示A4
340
0
102
{BLKREFS
331
4C
102
}
  0
BLOCK_RECORD
  5
4B
330
1
100
AcDbSymbolTableRecord
100
AcDbBlockTableRecord
  2
開示A4枠
340
0
102
{BLKREFS
331
52
102
}
  0
BLOCK_RECORD
  5
4F
330
1
100
AcDbSymbolTableRecord
100
AcDbBlockTableRecord
  2
35-23
340
0
102
{BLKREFS
331
53
102
}
  0
BLOCK_RECORD
  5
143
330
1
100
AcDbSymbolTableRecord
100
AcDbBlockTableRecord
  2
*D4
340
0
  0
BLOCK_RECORD
  5
14E
330
1
100
AcDbSymbolTableRecord
100
AcDbBlockTableRecord
  2
*D5
340
0
  0
BLOCK_RECORD
  5
159
330
1
100
AcDbSymbolTableRecord
100
AcDbBlockTableRecord
  2
*D6
340
0
  0
BLOCK_RECORD
  5
166
330
1
100
AcDbSymbolTableRecord
100
AcDbBlockTableRecord
  2
*D7
340
0
  0
ENDTAB
  0
ENDSEC
  0
SECTION
  2
BLOCKS
  0
BLOCK
  5
20
330
1F
100
AcDbEntity
  8
0
100
AcDbBlockBegin
  2
*Model_Space
 70
     0
 10
0.0
 20
0.0
 30
0.0
  3
*Model_Space
  1

  0
ENDBLK
  5
21
330
1F
100
AcDbEntity
  8
0
100
AcDbBlockEnd
  0
BLOCK
  5
1C
330
1B
100
AcDbEntity
 67
     1
  8
0
100
AcDbBlockBegin
  2
*Paper_Space
 70
     0
 10
0.0
 20
0.0
 30
0.0
  3
*Paper_Space
  1

  0
ENDBLK
  5
1D
330
1B
100
AcDbEntity
 67
     1
  8
0
100
AcDbBlockEnd
  0
BLOCK
  5
24
330
23
100
AcDbEntity
  8
0
100
AcDbBlockBegin
  2
*Paper_Space0
 70
     0
 10
0.0
 20
0.0
 30
0.0
  3
*Paper_Space0
  1

  0
ENDBLK
  5
25
330
23
100
AcDbEntity
  8
0
100
AcDbBlockEnd
  0
BLOCK
  5
49
330
48
100
AcDbEntity
  8
0
100
AcDbBlockBegin
  2
開示A4
 70
     0
 10
0.0
 20
0.0
 30
0.0
  3
開示A4
  1

  0
POINT
  5
54
330
48
100
AcDbEntity
  8
1
 62
     4
100
AcDbPoint
 10
34.0
 20
34.00000000000001
 30
0.0
  0
POINT
  5
55
330
48
100
AcDbEntity
  8
1
 62
     4
100
AcDbPoint
 10
57.0
 20
12.25
 30
0.0
  0
POINT
  5
56
330
48
100
AcDbEntity
  8
1
 62
     4
100
AcDbPoint
 10
57.0
 20
20.75000000000001
 30
0.0
  0
POINT
  5
57
330
48
100
AcDbEntity
  8
1
 62
     4
100
AcDbPoint
 10
57.0
 20
24.75000000000001
 30
0.0
  0
POINT
  5
58
330
48
100
AcDbEntity
  8
1
 62
     4
100
AcDbPoint
 10
57.0
 20
16.25
 30
0.0
  0
POINT
  5
59
330
48
100
AcDbEntity
  8
1
 62
     4
100
AcDbPoint
 10
157.5
 20
19.00000000000001
 30
0.0
  0
POINT
  5
5A
330
48
100
AcDbEntity
  8
1
 62
     4
100
AcDbPoint
 10
47.5
 20
282.0000000000003
 30
0.0
  0
POINT
  5
5B
330
48
100
AcDbEntity
  8
1
 62
     4
100
AcDbPoint
 10
57.0
 20
22.75000000000001
 30
0.0
  0
POINT
  5
5C
330
48
100
AcDbEntity
  8
1
 62
     4
100
AcDbPoint
 10
57.0
 20
14.25
 30
0.0
  0
POINT
  5
5D
330
48
100
AcDbEntity
  8
1
 62
     4
100
AcDbPoint
 10
157.5
 20
12.5
 30
0.0
  0
POINT
  5
5E
330
48
100
AcDbEntity
  8
1
 62
     4
100
AcDbPoint
 10
163.25
 20
12.5
 30
0.0
  0
POINT
  5
5F
330
48
100
AcDbEntity
  8
1
 62
     4
100
AcDbPoint
 10
151.75
 20
12.5
 30
0.0
  0
POINT
  5
60
330
48
100
AcDbEntity
  8
1
 62
     4
100
AcDbPoint
 10
134.75
 20
12.5
 30
0.0
  0
POINT
  5
61
330
48
100
AcDbEntity
  8
1
 62
     4
100
AcDbPoint
 10
146.25
 20
12.5
 30
0.0
  0
POINT
  5
62
330
48
100
AcDbEntity
  8
1
 62
     4
100
AcDbPoint
 10
140.5
 20
12.5
 30
0.0
  0
POINT
  5
63
330
48
100
AcDbEntity
  8
1
 62
     4
100
AcDbPoint
 10
140.5
 20
19.00000000000001
 30
0.0
  0
POINT
  5
64
330
48
100
AcDbEntity
  8
1
 62
     4
100
AcDbPoint
 10
117.75
 20
12.5
 30
0.0
  0
POINT
  5
65
330
48
100
AcDbEntity
  8
1
 62
     4
100
AcDbPoint
 10
129.25
 20
12.5
 30
0.0
  0
POINT
  5
66
330
48
100
AcDbEntity
  8
1
 62
     4
100
AcDbPoint
 10
123.5
 20
12.5
 30
0.0
  0
POINT
  5
67
330
48
100
AcDbEntity
  8
1
 62
     4
100
AcDbPoint
 10
123.5
 20
19.00000000000001
 30
0.0
  0
POINT
  5
68
330
48
100
AcDbEntity
  8
1
 62
     4
100
AcDbPoint
 10
100.75
 20
12.5
 30
0.0
  0
POINT
  5
69
330
48
100
AcDbEntity
  8
1
 62
     4
100
AcDbPoint
 10
112.25
 20
12.5
 30
0.0
  0
POINT
  5
6A
330
48
100
AcDbEntity
  8
1
 62
     4
100
AcDbPoint
 10
106.5
 20
12.5
 30
0.0
  0
POINT
  5
6B
330
48
100
AcDbEntity
  8
1
 62
     4
100
AcDbPoint
 10
106.5
 20
19.00000000000001
 30
0.0
  0
POINT
  5
6C
330
48
100
AcDbEntity
  8
1
 62
     4
100
AcDbPoint
 10
85.25
 20
17.0
 30
0.0
  0
POINT
  5
6D
330
48
100
AcDbEntity
  8
1
 62
     4
100
AcDbPoint
 10
93.75
 20
17.0
 30
0.0
  0
POINT
  5
6E
330
48
100
AcDbEntity
  8
1
 62
     4
100
AcDbPoint
 10
183.0
 20
15.00000000000001
 30
0.0
  0
LINE
  5
6F
330
48
100
AcDbEntity
  8
1
  6
Continuous
 62
     2
100
AcDbLine
 10
81.0
 20
27.00000000000001
 30
0.0
 11
81.0
 21
10.0
 31
0.0
  0
LINE
  5
70
330
48
100
AcDbEntity
  8
1
  6
DOT_CENTER
 62
     2
100
AcDbLine
 10
187.0
 20
26.50000000000001
 30
0.0
 11
187.0
 21
20.50000000000001
 31
0.0
  0
LINE
  5
71
330
48
100
AcDbEntity
  8
1
  6
DOT_CENTER
 62
     2
100
AcDbLine
 10
184.0
 20
23.50000000000001
 30
0.0
 11
197.0
 21
23.50000000000001
 31
0.0
  0
LINE
  5
72
330
48
100
AcDbEntity
  8
1
  6
Continuous
 62
     7
100
AcDbLine
 10
196.0
 20
21.50000000000001
 30
0.0
 11
191.0
 21
22.30000000000001
 31
0.0
  0
LINE
  5
73
330
48
100
AcDbEntity
  8
1
  6
Continuous
 62
     7
100
AcDbLine
 10
196.0
 20
25.50000000000001
 30
0.0
 11
196.0
 21
21.50000000000001
 31
0.0
  0
LINE
  5
74
330
48
100
AcDbEntity
  8
1
  6
Continuous
 62
     7
100
AcDbLine
 10
191.0
 20
24.7
 30
0.0
 11
196.0
 21
25.50000000000001
 31
0.0
  0
LINE
  5
75
330
48
100
AcDbEntity
  8
1
  6
Continuous
 62
     7
100
AcDbLine
 10
191.0
 20
24.7
 30
0.0
 11
191.0
 21
22.30000000000001
 31
0.0
  0
LINE
  5
76
330
48
100
AcDbEntity
  8
1
  6
Continuous
 62
     2
100
AcDbLine
 10
33.0
 20
27.0
 30
0.0
 11
33.0
 21
10.0
 31
0.0
  0
LINE
  5
77
330
48
100
AcDbEntity
  8
1
  6
Continuous
 62
     2
100
AcDbLine
 10
25.0
 20
18.50000000000001
 30
0.0
 11
81.0
 21
18.50000000000001
 31
0.0
  0
LINE
  5
78
330
48
100
AcDbEntity
  8
1
  6
Continuous
 62
     7
100
AcDbLine
 10
200.0
 20
287.0000000000003
 30
0.0
 11
105.0
 21
287.0000000000003
 31
0.0
  0
LINE
  5
79
330
48
100
AcDbEntity
  8
1
  6
Continuous
 62
     7
100
AcDbLine
 10
200.0
 20
10.0
 30
0.0
 11
200.0
 21
148.5
 31
0.0
  0
LINE
  5
7A
330
48
100
AcDbEntity
  8
1
  6
Continuous
 62
     7
100
AcDbLine
 10
25.0
 20
10.0
 30
0.0
 11
105.0
 21
10.0
 31
0.0
  0
LINE
  5
7B
330
48
100
AcDbEntity
  8
1
  6
PHANTOM
 62
     4
100
AcDbLine
 10
0.0
 20
297.0
 30
0.0
 11
0.0
 21
0.0
 31
0.0
  0
LINE
  5
7C
330
48
100
AcDbEntity
  8
1
  6
PHANTOM
 62
     4
100
AcDbLine
 10
210.0
 20
297.0
 30
0.0
 11
0.0
 21
297.0
 31
0.0
  0
LINE
  5
7D
330
48
100
AcDbEntity
  8
1
  6
PHANTOM
 62
     4
100
AcDbLine
 10
210.0
 20
0.0
 30
0.0
 11
210.0
 21
297.0
 31
0.0
  0
LINE
  5
7E
330
48
100
AcDbEntity
  8
1
  6
PHANTOM
 62
     4
100
AcDbLine
 10
0.0
 20
0.0
 30
0.0
 11
210.0
 21
0.0
 31
0.0
  0
LINE
  5
7F
330
48
100
AcDbEntity
  8
1
  6
Continuous
 62
     7
100
AcDbLine
 10
25.0
 20
41.0
 30
0.0
 11
200.0
 21
41.0
 31
0.0
  0
LINE
  5
80
330
48
100
AcDbEntity
  8
1
  6
Continuous
 62
     7
100
AcDbLine
 10
200.0
 20
27.00000000000001
 30
0.0
 11
25.0
 21
27.00000000000001
 31
0.0
  0
LINE
  5
81
330
48
100
AcDbEntity
  8
1
  6
Continuous
 62
     2
100
AcDbLine
 10
33.0
 20
41.00000000000001
 30
0.0
 11
33.0
 21
27.0
 31
0.0
  0
LINE
  5
82
330
48
100
AcDbEntity
  8
1
  6
Continuous
 62
     2
100
AcDbLine
 10
55.0
 20
287.0000000000003
 30
0.0
 11
55.0
 21
277.0000000000003
 31
0.0
  0
LINE
  5
83
330
48
100
AcDbEntity
  8
1
  6
Continuous
 62
     2
100
AcDbLine
 10
40.0
 20
287.0000000000003
 30
0.0
 11
40.0
 21
277.0000000000003
 31
0.0
  0
LINE
  5
84
330
48
100
AcDbEntity
  8
1
  6
Continuous
 62
     7
100
AcDbLine
 10
25.0
 20
10.0
 30
0.0
 11
25.0
 21
148.5
 31
0.0
  0
LINE
  5
85
330
48
100
AcDbEntity
  8
1
  6
Continuous
 62
     2
100
AcDbLine
 10
55.0
 20
277.0000000000003
 30
0.0
 11
25.0
 21
277.0000000000003
 31
0.0
  0
LINE
  5
86
330
48
100
AcDbEntity
  8
1
  6
Continuous
 62
     2
100
AcDbLine
 10
166.0
 20
27.00000000000001
 30
0.0
 11
166.0
 21
10.0
 31
0.0
  0
LINE
  5
87
330
48
100
AcDbEntity
  8
1
  6
Continuous
 62
     2
100
AcDbLine
 10
132.0
 20
27.00000000000001
 30
0.0
 11
132.0
 21
10.0
 31
0.0
  0
LINE
  5
88
330
48
100
AcDbEntity
  8
1
  6
Continuous
 62
     2
100
AcDbLine
 10
149.0
 20
27.00000000000001
 30
0.0
 11
149.0
 21
10.0
 31
0.0
  0
LINE
  5
89
330
48
100
AcDbEntity
  8
1
  6
Continuous
 62
     2
100
AcDbLine
 10
115.0
 20
27.00000000000001
 30
0.0
 11
115.0
 21
10.0
 31
0.0
  0
LINE
  5
8A
330
48
100
AcDbEntity
  8
1
  6
Continuous
 62
     2
100
AcDbLine
 10
98.0
 20
27.00000000000001
 30
0.0
 11
98.0
 21
10.0
 31
0.0
  0
LINE
  5
8B
330
48
100
AcDbEntity
  8
1
  6
Continuous
 62
     2
100
AcDbLine
 10
166.0
 20
20.00000000000001
 30
0.0
 11
200.0
 21
20.00000000000001
 31
0.0
  0
LINE
  5
8C
330
48
100
AcDbEntity
  8
1
  6
Continuous
 62
     2
100
AcDbLine
 10
105.0
 20
287.0000000000003
 30
0.0
 11
105.0
 21
292.0000000000003
 31
0.0
  0
LINE
  5
8D
330
48
100
AcDbEntity
  8
1
  6
Continuous
 62
     7
100
AcDbLine
 10
105.0
 20
287.0000000000003
 30
0.0
 11
25.0
 21
287.0000000000003
 31
0.0
  0
LINE
  5
8E
330
48
100
AcDbEntity
  8
1
  6
Continuous
 62
     2
100
AcDbLine
 10
25.0
 20
148.5
 30
0.0
 11
20.0
 21
148.5
 31
0.0
  0
LINE
  5
8F
330
48
100
AcDbEntity
  8
1
  6
Continuous
 62
     7
100
AcDbLine
 10
25.0
 20
148.5
 30
0.0
 11
25.0
 21
287.0000000000003
 31
0.0
  0
LINE
  5
90
330
48
100
AcDbEntity
  8
1
  6
Continuous
 62
     2
100
AcDbLine
 10
200.0
 20
148.5
 30
0.0
 11
205.0
 21
148.5
 31
0.0
  0
LINE
  5
91
330
48
100
AcDbEntity
  8
1
  6
Continuous
 62
     7
100
AcDbLine
 10
200.0
 20
148.5
 30
0.0
 11
200.0
 21
287.0000000000003
 31
0.0
  0
LINE
  5
92
330
48
100
AcDbEntity
  8
1
  6
Continuous
 62
     2
100
AcDbLine
 10
105.0
 20
10.0
 30
0.0
 11
105.0
 21
5.0
 31
0.0
  0
LINE
  5
93
330
48
100
AcDbEntity
  8
1
  6
Continuous
 62
     7
100
AcDbLine
 10
105.0
 20
10.0
 30
0.0
 11
200.0
 21
10.0
 31
0.0
  0
CIRCLE
  5
98
330
48
100
AcDbEntity
  8
1
  6
DOT_CENTER
 62
     7
100
AcDbCircle
 10
89.5
 20
18.0
 30
0.0
 40
0.1000000000000227
  0
CIRCLE
  5
99
330
48
100
AcDbEntity
  8
1
  6
DOT_CENTER
 62
     7
100
AcDbCircle
 10
89.5
 20
16.0
 30
0.0
 40
0.1000000000000227
  0
CIRCLE
  5
9A
330
48
100
AcDbEntity
  8
1
  6
Continuous
 62
     7
100
AcDbCircle
 10
187.0
 20
23.50000000000001
 30
0.0
 40
2.0
  0
CIRCLE
  5
9B
330
48
100
AcDbEntity
  8
1
  6
Continuous
 62
     7
100
AcDbCircle
 10
187.0
 20
23.50000000000001
 30
0.0
 40
1.200000000000102
  0
CIRCLE
  5
9C
330
48
100
AcDbEntity
  8
1
  6
Continuous
 62
     7
100
AcDbCircle
 10
154.5
 20
12.5
 30
0.0
 40
0.3000000000000114
  0
CIRCLE
  5
9D
330
48
100
AcDbEntity
  8
1
  6
Continuous
 62
     7
100
AcDbCircle
 10
160.5
 20
12.5
 30
0.0
 40
0.3000000000000114
  0
CIRCLE
  5
9E
330
48
100
AcDbEntity
  8
1
  6
Continuous
 62
     7
100
AcDbCircle
 10
143.5
 20
12.5
 30
0.0
 40
0.3000000000000114
  0
CIRCLE
  5
9F
330
48
100
AcDbEntity
  8
1
  6
Continuous
 62
     7
100
AcDbCircle
 10
137.5
 20
12.5
 30
0.0
 40
0.3000000000000114
  0
CIRCLE
  5
A0
330
48
100
AcDbEntity
  8
1
  6
Continuous
 62
     7
100
AcDbCircle
 10
126.5
 20
12.5
 30
0.0
 40
0.2999999999999972
  0
CIRCLE
  5
A1
330
48
100
AcDbEntity
  8
1
  6
Continuous
 62
     7
100
AcDbCircle
 10
120.5
 20
12.5
 30
0.0
 40
0.2999999999999972
  0
CIRCLE
  5
A2
330
48
100
AcDbEntity
  8
1
  6
Continuous
 62
     7
100
AcDbCircle
 10
109.5
 20
12.5
 30
0.0
 40
0.2999999999999972
  0
CIRCLE
  5
A3
330
48
100
AcDbEntity
  8
1
  6
Continuous
 62
     7
100
AcDbCircle
 10
103.5
 20
12.5
 30
0.0
 40
0.2999999999999972
  0
SPLINE
  5
A4
102
{ACAD_REACTORS
330
C2
102
}
330
48
100
AcDbEntity
  8
_U_30EC_U_30A4_U_30E4_U_30FC_1
  6
Continuous
 62
     2
100
AcDbSpline
210
0.0
220
0.0
230
1.0
 70
    11
 71
     3
 72
    99
 73
    95
 74
    93
 42
0.000000001
 43
0.0000000001
 44
0.00000001
 40
0.0
 40
0.0
 40
0.0
 40
0.0
 40
0.079641717227248
 40
0.1621768542355956
 40
0.2486489160957677
 40
0.3404969668524627
 40
0.4381912511165209
 40
0.5434463660244941
 40
0.6518115192847262
 40
0.7530190937886829
 40
0.8492196919725084
 40
0.9419290312998102
 40
1.034249663570042
 40
1.129078600620193
 40
1.226697027573253
 40
1.327220425421711
 40
1.47057213493803
 40
1.595489863371235
 40
1.719934125348387
 40
1.850576620127338
 40
1.989059629987322
 40
2.134139054226941
 40
2.280698007207205
 40
2.424529739039505
 40
2.565929576985871
 40
2.708239260773567
 40
2.861717887443677
 40
3.045168540347397
 40
3.183798301138627
 40
3.314813961455483
 40
3.442083470447338
 40
3.569912708373049
 40
3.702177512509406
 40
3.842307559659523
 40
3.99287222324598
 40
4.156750662218313
 40
4.310981861107535
 40
4.44585990932258
 40
4.57239393613157
 40
4.701656719781973
 40
4.768279086008464
 40
4.835960697898414
 40
4.912788918729332
 40
5.006285208481527
 40
5.026909478751575
 40
5.047533749021083
 40
5.101808031471164
 40
5.162325165538467
 40
5.226919745995747
 40
5.294231806596679
 40
5.364544852554823
 40
5.438319055467867
 40
5.517877651324175
 40
5.607647714861517
 40
5.700449642544336
 40
5.788251142364014
 40
5.872714706039723
 40
5.955167292575235
 40
6.037192395190331
 40
6.120669181469057
 40
6.206848616686298
 40
6.296680855416728
 40
6.44255839287255
 40
6.568190371608276
 40
6.692904567360307
 40
6.824220446557058
 40
6.963121850329293
 40
7.107843738851082
 40
7.253431663907192
 40
7.395187468036616
 40
7.533140753237669
 40
7.670550457175159
 40
7.816236511769173
 40
7.98769165735914
 40
8.142277421969181
 40
8.29366261541494
 40
8.442962460879205
 40
8.591598316185257
 40
8.743678992361724
 40
8.903725323699108
 40
9.076307008890456
 40
9.26557860468051
 40
9.459203795360684
 40
9.617619810273473
 40
9.753609671361804
 40
9.874873300004003
 40
9.954520184977715
 40
10.02416413719238
 40
10.09769764405438
 40
10.18909955924966
 40
10.20974586420128
 40
10.23039218263373
 40
10.30057101881259
 40
10.3763201298754
 40
10.3763201298754
 40
10.3763201298754
 40
10.3763201298754
 10
170.1465954835851
 20
14.13795663215994
 30
0.0
 10
170.1632217851219
 20
14.11720608845312
 30
0.0
 10
170.1970784206577
 20
14.07495111711902
 30
0.0
 10
170.2599822541035
 20
14.02029811392073
 30
0.0
 10
170.3332500940393
 20
13.9729902512105
 30
0.0
 10
170.4175969238636
 20
13.93527231437934
 30
0.0
 10
170.513224061546
 20
13.91040619731951
 30
0.0
 10
170.6171853775346
 20
13.90309559345937
 30
0.0
 10
170.7224020220405
 20
13.91142322794053
 30
0.0
 10
170.8206626371334
 20
13.94149179651528
 30
0.0
 10
170.9058986427548
 20
13.98848822971875
 30
0.0
 10
170.9779220206103
 20
14.04952991250856
 30
0.0
 10
171.0350917709096
 20
14.12412969578583
 30
0.0
 10
171.0767868747439
 20
14.21002464660175
 30
0.0
 10
171.1026952846293
 20
14.30485850432209
 30
0.0
 10
171.1118037332653
 20
14.41854979038368
 30
0.0
 10
171.0986864796486
 20
14.54332587770778
 30
0.0
 10
171.0325330334415
 20
14.66014719171894
 30
0.0
 10
170.9369370919569
 20
14.7451253957737
 30
0.0
 10
170.824968102237
 20
14.81416684459169
 30
0.0
 10
170.699365958327
 20
14.87204142045885
 30
0.0
 10
170.5656691620856
 20
14.92373723284339
 30
0.0
 10
170.4313122818831
 20
14.97899092397182
 30
0.0
 10
170.3051983986876
 20
15.0493977064165
 30
0.0
 10
170.1926579987535
 20
15.1378554073125
 30
0.0
 10
170.0969963064458
 20
15.24981067868473
 30
0.0
 10
170.0334157151826
 20
15.39949910101383
 30
0.0
 10
170.0200706505016
 20
15.55932794385143
 30
0.0
 10
170.0320510987448
 20
15.71048405306845
 30
0.0
 10
170.0712298928841
 20
15.8380924459154
 30
0.0
 10
170.135498775091
 20
15.95080874030847
 30
0.0
 10
170.2238204999742
 20
16.04648609268681
 30
0.0
 10
170.3338091207628
 20
16.12354214985753
 30
0.0
 10
170.4632284401266
 20
16.18151396936281
 30
0.0
 10
170.6111838967793
 20
16.2173917758882
 30
0.0
 10
170.7682069455487
 20
16.22746719050564
 30
0.0
 10
170.917494046643
 20
16.21863637762591
 30
0.0
 10
171.059625361417
 20
16.19074899340352
 30
0.0
 10
171.1595922609625
 20
16.13413314701139
 30
0.0
 10
171.3125074736185
 20
16.08674602105507
 30
0.0
 10
171.2455131717169
 20
16.00197553001184
 30
0.0
 10
171.2296479120269
 20
15.93438901873484
 30
0.0
 10
171.1978750531297
 20
15.86926092793189
 30
0.0
 10
171.2150202209571
 20
15.76723453256954
 30
0.0
 10
171.1666427208232
 20
15.77493211681902
 30
0.0
 10
171.1315789440767
 20
15.7680677172481
 30
0.0
 10
171.1296697985718
 20
15.83263831158195
 30
0.0
 10
171.0985692931989
 20
15.87825639621392
 30
0.0
 10
171.0664551628457
 20
15.93561036628461
 30
0.0
 10
171.0208038475167
 20
15.98540462692556
 30
0.0
 10
170.9658508218387
 20
16.02994813718996
 30
0.0
 10
170.9010841173007
 20
16.06763988836549
 30
0.0
 10
170.8232377310597
 20
16.09283375791353
 30
0.0
 10
170.7355160553352
 20
16.09931230998112
 30
0.0
 10
170.6452903277807
 20
16.09235709285608
 30
0.0
 10
170.5594594694065
 20
16.06909190460918
 30
0.0
 10
170.4828343638596
 20
16.03131644107547
 30
0.0
 10
170.4165265636201
 20
15.98051641089573
 30
0.0
 10
170.3622560536964
 20
15.91731143407209
 30
0.0
 10
170.3224925345459
 20
15.84276455710367
 30
0.0
 10
170.2976775510588
 20
15.75917313997762
 30
0.0
 10
170.289212426287
 20
15.65192948382284
 30
0.0
 10
170.3019697987104
 20
15.52965457267556
 30
0.0
 10
170.3681548409274
 20
15.41149724291213
 30
0.0
 10
170.4640977399832
 20
15.32606325709525
 30
0.0
 10
170.5757914963182
 20
15.25583362306722
 30
0.0
 10
170.7010863668702
 20
15.19659162305304
 30
0.0
 10
170.8349823941447
 20
15.14616708086131
 30
0.0
 10
170.9689930333149
 20
15.09322516984382
 30
0.0
 10
171.0950885316915
 20
15.02750170625175
 30
0.0
 10
171.2076216638417
 20
14.94480352537321
 30
0.0
 10
171.3031370284233
 20
14.83996006310074
 30
0.0
 10
171.3672706486963
 20
14.6993711725157
 30
0.0
 10
171.3811103725279
 20
14.54065409451592
 30
0.0
 10
171.367395471223
 20
14.38153155217874
 30
0.0
 10
171.3244739153984
 20
14.23483828819209
 30
0.0
 10
171.2545906329066
 20
14.10119796587141
 30
0.0
 10
171.1574592213829
 20
13.9853238769929
 30
0.0
 10
171.0347806023657
 20
13.89089981770087
 30
0.0
 10
170.8874408413168
 20
13.82179270651982
 30
0.0
 10
170.7177132497125
 20
13.77953210858852
 30
0.0
 10
170.5317404979596
 20
13.76781736230408
 30
0.0
 10
170.3528955926184
 20
13.77809486683436
 30
0.0
 10
170.1881733753744
 20
13.81966573769153
 30
0.0
 10
170.0834410841056
 20
13.88797642883942
 30
0.0
 10
169.9350960790365
 20
13.93675219032106
 30
0.0
 10
169.998037819473
 20
14.0297659129084
 30
0.0
 10
170.0072274430059
 20
14.1029653624828
 30
0.0
 10
170.0303711301232
 20
14.16936294501346
 30
0.0
 10
170.0034588335317
 20
14.26974809527582
 30
0.0
 10
170.0521338956339
 20
14.26234033517379
 30
0.0
 10
170.0916530580697
 20
14.26894063620896
 30
0.0
 10
170.0996204944702
 20
14.19078703218932
 30
0.0
 10
170.1305436967922
 20
14.15600927375857
 30
0.0
 10
170.1465954835851
 20
14.13795663215994
 30
0.0
 11
170.1465954835851
 21
14.13795663215994
 31
0.0
 11
170.1982038075864
 21
14.07729869814736
 31
0.0
 11
170.2601105501335
 21
14.02271295163321
 31
0.0
 11
170.3327764009802
 21
13.97583980928383
 31
0.0
 11
170.4166468655843
 21
13.93839906276537
 31
0.0
 11
170.511221073241
 21
13.91390636311877
 31
0.0
 11
170.6161603327165
 21
13.90575829888472
 31
0.0
 11
170.7240739497552
 21
13.91564048638223
 31
0.0
 11
170.8208419941616
 21
13.94528704887482
 31
0.0
 11
170.9050776083319
 21
13.99175118948818
 31
0.0
 11
170.9756144207686
 21
14.05191413218149
 31
0.0
 11
171.031944210998
 21
14.1250581946632
 31
0.0
 11
171.0736690016003
 21
14.21021434047522
 31
0.0
 11
171.0994680808033
 21
14.30436190989612
 31
0.0
 11
171.1080824729446
 21
14.4045155209822
 31
0.0
 11
171.0878517703357
 21
14.54643250879398
 31
0.0
 11
171.0272522666731
 21
14.65566684036388
 31
0.0
 11
170.9364971286286
 21
14.74081306430094
 31
0.0
 11
170.8260101884741
 21
14.81052746532517
 31
0.0
 11
170.7008523531254
 21
14.86979854169921
 31
0.0
 11
170.5662951950998
 21
14.92404253474119
 31
0.0
 11
170.4316884277007
 21
14.98201274306003
 31
0.0
 11
170.3065802017258
 21
15.05297399304233
 31
0.0
 11
170.196027609828
 21
15.14113315968695
 31
0.0
 11
170.1053381235265
 21
15.25080295132618
 31
0.0
 11
170.0447055469484
 21
15.39179720476315
 31
0.0
 11
170.0245079172553
 21
15.57413260402315
 31
0.0
 11
170.0374030471347
 21
15.71216131926642
 31
0.0
 11
170.0761016659391
 21
15.8373312845129
 31
0.0
 11
170.1393141731507
 21
15.94779262129084
 31
0.0
 11
170.2257499954546
 21
16.0419688539062
 31
0.0
 11
170.3336492808963
 21
16.11846540770651
 31
0.0
 11
170.4613526283328
 21
16.17615670109488
 31
0.0
 11
170.6075393259923
 21
16.21220066809973
 31
0.0
 11
170.770976856545
 21
16.22421385386062
 31
0.0
 11
170.9248918431289
 21
16.21434269066864
 31
0.0
 11
171.0564887242607
 21
16.18477329831497
 31
0.0
 11
171.172563634494
 21
16.13439993895253
 31
0.0
 11
171.2800792741122
 21
16.06264163167877
 31
0.0
 11
171.2516994050444
 21
16.00236624106886
 31
0.0
 11
171.2284855254283
 21
15.93879017337646
 31
0.0
 11
171.2078381040801
 21
15.86478841992269
 31
0.0
 11
171.1871840681487
 21
15.77360197897328
 31
0.0
 11
171.1665597978415
 21
15.77360197897328
 31
0.0
 11
171.1459355275344
 21
15.77360197897328
 31
0.0
 11
171.1256706495791
 21
15.82395108486346
 31
0.0
 11
171.0994658759421
 21
15.87850045116929
 31
0.0
 11
171.0650468924452
 21
15.93316116296115
 31
0.0
 11
171.0203554612937
 21
15.98349593725412
 31
0.0
 11
170.9657333359511
 21
16.02777175321529
 31
0.0
 11
170.9016722004326
 21
16.06436142334501
 31
0.0
 11
170.8259682961141
 21
16.08882545979727
 31
0.0
 11
170.7365722046449
 21
16.09701100667023
 31
0.0
 11
170.6440937174208
 21
16.08926973931102
 31
0.0
 11
170.5594072091646
 21
16.06609003445566
 31
0.0
 11
170.483702448884
 21
16.02863495634008
 31
0.0
 11
170.4183754766516
 21
15.97832774281102
 31
0.0
 11
170.3650487887664
 21
15.91600293379879
 31
0.0
 11
170.3254809233901
 21
15.84249947895607
 31
0.0
 11
170.3009523754711
 21
15.75988443557391
 31
0.0
 11
170.2927954104108
 21
15.67042329844351
 31
0.0
 11
170.3130095765618
 21
15.52595308146573
 31
0.0
 11
170.3736256166821
 21
15.41591177072935
 31
0.0
 11
170.4643479320758
 21
15.33033670130631
 31
0.0
 11
170.5748676948813
 21
15.25941954854625
 31
0.0
 11
170.7000089937719
 21
15.19914305550579
 31
0.0
 11
170.8345826882553
 21
15.14590447913021
 31
0.0
 11
170.9691729191968
 21
15.09039489581074
 31
0.0
 11
171.0942976816297
 21
15.0237728124941
 31
0.0
 11
171.204800907977
 21
14.9411886371675
 31
0.0
 11
171.2955397598288
 21
14.83800003476272
 31
0.0
 11
171.3561557999489
 21
14.70552315979585
 31
0.0
 11
171.3763699660998
 21
14.53526378483839
 31
0.0
 11
171.3621839747998
 21
14.38133030397411
 31
0.0
 11
171.3196087009193
 21
14.23605531269097
 31
0.0
 11
171.2499752884265
 21
14.10398854189067
 31
0.0
 11
171.1544992078713
 21
13.99007218775246
 31
0.0
 11
171.0341060772624
 21
13.89715272597017
 31
0.0
 11
170.8896160201846
 21
13.8283235766818
 31
0.0
 11
170.7223519532713
 21
13.78581275203966
 31
0.0
 11
170.5336103348226
 21
13.77165864614041
 31
0.0
 11
170.3405031726387
 21
13.78581275203966
 31
0.0
 11
170.1878975900911
 21
13.8283235766818
 31
0.0
 11
170.0661897942203
 21
13.88899033013889
 31
0.0
 11
169.9660261826363
 21
13.95734322942737
 31
0.0
 11
169.9922320587039
 21
14.03255545163076
 31
0.0
 11
170.0090121537618
 21
14.10014767383612
 31
0.0
 11
170.0206196447852
 21
14.17275926235962
 31
0.0
 11
170.0313606254139
 21
14.2635278821286
 31
0.0
 11
170.0520069443315
 21
14.2635278821286
 31
0.0
 11
170.0726532632492
 21
14.2635278821286
 31
0.0
 11
170.1048916391629
 21
14.20119204881084
 31
0.0
 11
170.1465954835851
 21
14.13795663215994
 31
0.0
  0
SPLINE
  5
A5
102
{ACAD_REACTORS
330
C3
102
}
330
48
100
AcDbEntity
  8
_U_30EC_U_30A4_U_30E4_U_30FC_1
  6
Continuous
 62
     2
100
AcDbSpline
210
0.0
220
0.0
230
1.0
 70
    11
 71
     3
 72
    57
 73
    53
 74
    51
 42
0.000000001
 43
0.0000000001
 44
0.00000001
 40
0.0
 40
0.0
 40
0.0
 40
0.0
 40
0.047163208280894
 40
0.0914861054632146
 40
0.1357762519702382
 40
0.1826527001610677
 40
0.2295203288572301
 40
0.2737751972219619
 40
0.3181310461542783
 40
0.3652607198398497
 40
0.4571007286314229
 40
0.5671851029165002
 40
0.6894623283868136
 40
0.8181758272545779
 40
0.951008722927395
 40
1.085852229674046
 40
1.218126164475303
 40
1.343545131142373
 40
1.45453720295679
 40
1.567187607530799
 40
1.680710966642389
 40
1.794226869736696
 40
1.900009184247553
 40
2.004085860447775
 40
2.10816267445172
 40
2.214000150155293
 40
2.496038577352108
 40
2.762350745479267
 40
2.997275353279396
 40
3.185110082137712
 40
3.246407890063909
 40
3.312607550212669
 40
3.378877742711571
 40
3.440140399651424
 40
4.100501696006447
 40
4.754913085563536
 40
5.411331693423893
 40
6.077890432568678
 40
6.110575292670957
 40
6.143260152775737
 40
6.367989363395126
 40
6.610525374951526
 40
6.863389136467286
 40
7.119380025547581
 40
7.376036605091074
 40
7.631164770966275
 40
7.876722425456405
 40
8.10495373585597
 40
8.312916685924284
 40
8.497730294941277
 40
8.651018984313838
 40
8.764738853624552
 40
8.764738853624552
 40
8.764738853624552
 40
8.764738853624552
 10
174.7922649500513
 20
13.81626739612928
 30
0.0
 10
174.7766616726931
 20
13.81826231079078
 30
0.0
 10
174.7463947960302
 20
13.82213201360298
 30
0.0
 10
174.7010994202252
 20
13.82341984967269
 30
0.0
 10
174.6559553129349
 20
13.82308683554051
 30
0.0
 10
174.60990171234
 20
13.82314658674225
 30
0.0
 10
174.5640496172096
 20
13.82325813650001
 30
0.0
 10
174.5183711648165
 20
13.82277833456592
 30
0.0
 10
174.4750811541609
 20
13.82461109618722
 30
0.0
 10
174.4039947951514
 20
13.80049556814658
 30
0.0
 10
174.4057477261441
 20
13.92184693977252
 30
0.0
 10
174.3586196370569
 20
14.00726239751231
 30
0.0
 10
174.3191478251762
 20
14.12486929345136
 30
0.0
 10
174.2706635532645
 20
14.24232752540438
 30
0.0
 10
174.2201017402522
 20
14.3640593576151
 30
0.0
 10
174.1718634610477
 20
14.49075967862466
 30
0.0
 10
174.1135232947595
 20
14.59933687784952
 30
0.0
 10
174.0980892667261
 20
14.75620657134409
 30
0.0
 10
173.9566586330635
 20
14.72373446548323
 30
0.0
 10
173.8508397414904
 20
14.7351288868218
 30
0.0
 10
173.7358569725222
 20
14.73392591514616
 30
0.0
 10
173.6253142252141
 20
14.73506945347408
 30
0.0
 10
173.5176583522783
 20
14.73418350037526
 30
0.0
 10
173.4121322529243
 20
14.73416602390518
 30
0.0
 10
173.3109192682013
 20
14.72714032472415
 30
0.0
 10
173.1266804827752
 20
14.75135859859867
 30
0.0
 10
173.1157393685413
 20
14.44741691121883
 30
0.0
 10
173.0087691634749
 20
14.22353177253398
 30
0.0
 10
172.9098148604347
 20
14.03895314292497
 30
0.0
 10
172.9225090524007
 20
13.7953020480421
 30
0.0
 10
172.8050091716397
 20
13.82508046753196
 30
0.0
 10
172.7422055868311
 20
13.82258089509605
 30
0.0
 10
172.67858720934
 20
13.82344075102804
 30
0.0
 10
172.3946014194076
 20
13.78098039941953
 30
0.0
 10
173.0251638499381
 20
14.50081952444785
 30
0.0
 10
173.1087645289072
 20
15.01276539435727
 30
0.0
 10
173.4929252789338
 20
15.53353743550046
 30
0.0
 10
173.4777208288567
 20
16.23519626253214
 30
0.0
 10
173.7239265722696
 20
16.22345633081256
 30
0.0
 10
173.8256346157562
 20
16.23225004452773
 30
0.0
 10
173.8249752035818
 20
15.98059650730347
 30
0.0
 10
173.9428317155828
 20
15.79818020733958
 30
0.0
 10
174.0315515260485
 20
15.55563740662866
 30
0.0
 10
174.1322292485259
 20
15.32340030530126
 30
0.0
 10
174.2311142712243
 20
15.08674644566914
 30
0.0
 10
174.3299676990669
 20
14.85461739170092
 30
0.0
 10
174.4256166390925
 20
14.63122222788786
 30
0.0
 10
174.5159904573273
 20
14.42272549049321
 30
0.0
 10
174.5989944568189
 20
14.23308448529319
 30
0.0
 10
174.6726088582799
 20
14.06663106068098
 30
0.0
 10
174.7342815895546
 20
13.92917699626099
 30
0.0
 10
174.7749458885604
 20
13.84999239430034
 30
0.0
 10
174.7922649500513
 20
13.81626739612928
 30
0.0
 11
174.7922649500513
 21
13.81626739612928
 31
0.0
 11
174.7453878317448
 21
13.82145433189185
 31
0.0
 11
174.7010975896125
 21
13.82315538223863
 31
0.0
 11
174.6568074431729
 21
13.82315538223863
 31
0.0
 11
174.6099309947159
 21
13.82315538223863
 31
0.0
 11
174.5630633657034
 21
13.82315538223863
 31
0.0
 11
174.5188084970409
 21
13.82315538223863
 31
0.0
 11
174.4744852776854
 21
13.82145433189185
 31
0.0
 11
174.4276419021443
 21
13.81626739612928
 31
0.0
 11
174.3992532136325
 21
13.90360966173244
 31
0.0
 11
174.3622721815898
 21
14.00729656274818
 31
0.0
 11
174.3188386236701
 21
14.12159987001127
 31
0.0
 11
174.2711055866936
 21
14.24113531268968
 31
0.0
 11
174.2208160133237
 21
14.36408057307566
 31
0.0
 11
174.1696467003932
 21
14.48883822929446
 31
0.0
 11
174.1197531801326
 21
14.61134141502772
 31
0.0
 11
174.0733119111841
 21
14.72784517367917
 31
0.0
 11
173.9623611907589
 21
14.73087465284506
 31
0.0
 11
173.8497309225089
 21
14.7330045486779
 31
0.0
 11
173.7362152069449
 21
14.7343219531914
 31
0.0
 11
173.6227000476801
 21
14.73473315978852
 31
0.0
 11
173.5169185312816
 21
14.7343219531914
 31
0.0
 11
173.4128501919226
 21
14.7330045486779
 31
0.0
 11
173.3087951724045
 21
14.73087465284506
 31
0.0
 11
173.2030010615596
 21
14.72784517367917
 31
0.0
 11
173.0980914750139
 21
14.4660443751335
 31
0.0
 11
173.0034868690331
 21
14.2171023265846
 31
0.0
 11
172.9252231210298
 21
13.99559756969557
 31
0.0
 11
172.8693431224555
 21
13.81626739612928
 31
0.0
 11
172.8082651639442
 21
13.82145433189185
 31
0.0
 11
172.742087361813
 21
13.82315538223863
 31
0.0
 11
172.6758390041282
 21
13.82145433189185
 31
0.0
 11
172.6147963233938
 21
13.81626739612928
 31
0.0
 11
172.889968495193
 21
14.41656508695142
 31
0.0
 11
173.1582945734171
 21
15.01343642360776
 31
0.0
 11
173.4240277350405
 21
15.61366245644381
 31
0.0
 11
173.6914740737033
 21
16.22421385386062
 31
0.0
 11
173.7241589339806
 21
16.22421385386062
 31
0.0
 11
173.7568437942579
 21
16.22421385386062
 31
0.0
 11
173.8428300681057
 21
16.01658539037084
 31
0.0
 11
173.9357285813609
 21
15.79254614563517
 31
0.0
 11
174.0328714521463
 21
15.55908663180468
 31
0.0
 11
174.1317936458031
 21
15.32298128464144
 31
0.0
 11
174.2315341249927
 21
15.08649780379784
 31
0.0
 11
174.3313071129353
 21
14.85168781253709
 31
0.0
 11
174.4280608257449
 21
14.6259949219685
 31
0.0
 11
174.5188084970409
 21
14.4165805209792
 31
0.0
 11
174.6022150834546
 21
14.22607611130461
 31
0.0
 11
174.6770293263377
 21
14.05708232662467
 31
0.0
 11
174.7410729186603
 21
13.91781337700668
 31
0.0
 11
174.7922649500513
 21
13.81626739612928
 31
0.0
  0
SPLINE
  5
A6
102
{ACAD_REACTORS
330
C3
102
}
330
48
100
AcDbEntity
  8
_U_30EC_U_30A4_U_30E4_U_30FC_1
  6
Continuous
 62
     2
100
AcDbSpline
210
0.0
220
0.0
230
1.0
 70
    11
 71
     3
 72
    25
 73
    21
 74
    19
 42
0.000000001
 43
0.0000000001
 44
0.00000001
 40
0.0
 40
0.0
 40
0.0
 40
0.0
 40
0.091147996906539
 40
0.1858117896204667
 40
0.280412839973449
 40
0.3715889190714509
 40
0.4679080494218708
 40
0.564268380922923
 40
0.6605683222644991
 40
0.7569653015810255
 40
0.8561348172522738
 40
1.092615965104292
 40
1.374867658141875
 40
1.611348812011601
 40
1.710518328425249
 40
1.809403163726568
 40
2.04520546329407
 40
2.32664691762213
 40
2.562449217190592
 40
2.661334043833911
 40
2.661334043833911
 40
2.661334043833911
 40
2.661334043833911
 10
173.2683700567199
 20
14.88614538197292
 30
0.0
 10
173.2987525917923
 20
14.88598079714554
 30
0.0
 10
173.3606895889112
 20
14.88564528689921
 30
0.0
 10
173.454135696033
 20
14.88269055451999
 30
0.0
 10
173.5475095236358
 20
14.87977752877151
 30
0.0
 10
173.6417760753476
 20
14.87894201643416
 30
0.0
 10
173.7354964790967
 20
14.87996644658048
 30
0.0
 10
173.8352040303205
 20
14.87916977470971
 30
0.0
 10
173.9188949546312
 20
14.8892141023522
 30
0.0
 10
174.0637996315045
 20
14.86234617674165
 30
0.0
 10
173.93961324448
 20
15.03665530280049
 30
0.0
 10
173.8965867286282
 20
15.19651711006091
 30
0.0
 10
173.7808922142209
 20
15.45518458550216
 30
0.0
 10
173.7017565431257
 20
15.59231052861858
 30
0.0
 10
173.6431576621816
 20
15.80937033134077
 30
0.0
 10
173.5864803939438
 20
15.59266134213428
 30
0.0
 10
173.5052809900478
 20
15.45327012438237
 30
0.0
 10
173.4063701281487
 20
15.20406969370194
 30
0.0
 10
173.325362509426
 20
15.01925830226074
 30
0.0
 10
173.2813683325838
 20
14.91650446856116
 30
0.0
 10
173.2683700567199
 20
14.88614538197292
 30
0.0
 11
173.2683700567199
 21
14.88614538197292
 31
0.0
 11
173.3595137737821
 21
14.88526123266759
 31
0.0
 11
173.4541428297581
 21
14.88269697919598
 31
0.0
 11
173.5487082179706
 21
14.88009965280777
 31
0.0
 11
173.6398803250196
 21
14.8792485764191
 31
0.0
 11
173.7361985777706
 21
14.87965978301622
 31
0.0
 11
173.8325499034376
 21
14.88097718752971
 31
0.0
 11
173.9288262638286
 21
14.88310818579313
 31
0.0
 11
174.0251753846343
 21
14.88614538197292
 31
0.0
 11
173.9854633323141
 21
14.9770164219502
 31
0.0
 11
173.8907653613968
 21
15.19370890189602
 31
0.0
 11
173.7777387509471
 21
15.45234186183135
 31
0.0
 11
173.6830407800297
 21
15.66903434177717
 31
0.0
 11
173.6433287277095
 21
15.75990538175445
 31
0.0
 11
173.6043330259266
 21
15.66903434177717
 31
0.0
 11
173.5113432755212
 21
15.45234186183135
 31
0.0
 11
173.4003555089082
 21
15.19370890189602
 31
0.0
 11
173.3073657585028
 21
14.9770164219502
 31
0.0
 11
173.2683700567199
 21
14.88614538197292
 31
0.0
  0
SPLINE
  5
A7
102
{ACAD_REACTORS
330
C4
102
}
330
48
100
AcDbEntity
  8
_U_30EC_U_30A4_U_30E4_U_30FC_1
  6
Continuous
 62
     2
100
AcDbSpline
210
0.0
220
0.0
230
1.0
 70
    11
 71
     3
 72
    95
 73
    91
 74
    89
 42
0.000000001
 43
0.0000000001
 44
0.00000001
 40
0.0
 40
0.0
 40
0.0
 40
0.0
 40
0.6550406656911197
 40
1.308087289031888
 40
1.420803739835767
 40
1.566130759770772
 40
1.757067341888428
 40
2.006513545026431
 40
2.087328263121519
 40
2.185328872295592
 40
2.294612454748326
 40
2.408936380534767
 40
2.526802767798531
 40
2.646360524615574
 40
2.762535723971558
 40
2.870057342870131
 40
2.966883448431612
 40
3.050803243518261
 40
3.115818222436579
 40
3.156030057150198
 40
3.213914225080099
 40
3.2766890264505
 40
3.342960320981277
 40
3.404230667150526
 40
3.453822809493325
 40
3.53249982718839
 40
3.634775188507119
 40
3.754909333008116
 40
3.889736761660612
 40
4.03576960217518
 40
4.18725668119756
 40
4.338733685675915
 40
4.48847873467607
 40
4.634708317831541
 40
4.771493189921229
 40
4.892686571561167
 40
5.19977552894441
 40
5.460353566929593
 40
5.667603142345464
 40
5.814722905404448
 40
5.828990806219746
 40
5.855488336304443
 40
5.869756237118775
 40
6.189796507762781
 40
6.531890469872975
 40
6.88305363701698
 40
7.230512024911431
 40
7.566966656764532
 40
7.885203559707366
 40
8.17288743971916
 40
8.418011594062714
 40
8.443926721190635
 40
8.510760470613121
 40
8.60214539379563
 40
8.701714041647067
 40
8.793098965075297
 40
8.859932715057868
 40
8.885847842603516
 40
9.242301256612738
 40
9.589275455016685
 40
9.921808543164085
 40
10.23479624298459
 40
10.29968150889164
 40
10.35323493887747
 40
10.40154625355131
 40
10.46482922477816
 40
10.55973900668396
 40
10.6923954598561
 40
10.84920353475663
 40
11.0162632859477
 40
11.18672024367435
 40
11.35372582577202
 40
11.50257442292417
 40
11.61866495023282
 40
11.71329869152866
 40
11.82511050573898
 40
11.94464880845707
 40
12.06929242642499
 40
12.19707290435168
 40
12.3256263286052
 40
12.45034565331271
 40
12.56646595170319
 40
12.67099007414626
 40
12.76077625936774
 40
12.82703233506686
 40
12.87429132785984
 40
12.89831990323323
 40
12.92234847860012
 40
13.53984767410311
 40
14.18294284359356
 40
14.18294284359356
 40
14.18294284359356
 40
14.18294284359356
 10
177.3067935648021
 20
14.70898038201723
 30
0.0
 10
177.175201975855
 20
14.82265058603231
 30
0.0
 10
176.9124193802728
 20
15.04964496316158
 30
0.0
 10
176.3997393441023
 20
15.89214462956287
 30
0.0
 10
176.4106654595362
 20
15.53423377577019
 30
0.0
 10
176.4041226527991
 20
15.39267392272132
 30
0.0
 10
176.4028026631772
 20
15.1942130529928
 30
0.0
 10
176.4018117602537
 20
15.02150296045982
 30
0.0
 10
176.4024101751975
 20
14.87865373257579
 30
0.0
 10
176.4038994301882
 20
14.78265005413358
 30
0.0
 10
176.4055683588473
 20
14.67545503263142
 30
0.0
 10
176.4071934954618
 20
14.56164211517582
 30
0.0
 10
176.4092429501685
 20
14.44441572604589
 30
0.0
 10
176.4123165501928
 20
14.3265641123297
 30
0.0
 10
176.4156339697042
 20
14.21228087320619
 30
0.0
 10
176.419360534028
 20
14.10521401867276
 30
0.0
 10
176.4217338161424
 20
14.01007408766921
 30
0.0
 10
176.4278718888357
 20
13.92558557205695
 30
0.0
 10
176.4239784495946
 20
13.86923087298141
 30
0.0
 10
176.4455230443077
 20
13.79825022472357
 30
0.0
 10
176.3680940058618
 20
13.82902677604482
 30
0.0
 10
176.3116353240191
 20
13.82011242517615
 30
0.0
 10
176.2540495896807
 20
13.82896218398274
 30
0.0
 10
176.1690163478473
 20
13.79738225225946
 30
0.0
 10
176.2009714146382
 20
13.8809515599219
 30
0.0
 10
176.1990705282539
 20
13.9488260896831
 30
0.0
 10
176.21079600473
 20
14.05233256764419
 30
0.0
 10
176.2164241053
 20
14.17002125616694
 30
0.0
 10
176.2237902178941
 20
14.30388609164423
 30
0.0
 10
176.232075970161
 20
14.44764152872631
 30
0.0
 10
176.2398851897427
 20
14.59714022843445
 30
0.0
 10
176.2457571222658
 20
14.74792549402078
 30
0.0
 10
176.2503667817969
 20
14.89699943878438
 30
0.0
 10
176.2542632117542
 20
15.04122913163022
 30
0.0
 10
176.2570715126564
 20
15.17583905213018
 30
0.0
 10
176.2576698755022
 20
15.36469614347354
 30
0.0
 10
176.261602386715
 20
15.58975494313154
 30
0.0
 10
176.2442175378498
 20
15.86367091125707
 30
0.0
 10
176.2850417342582
 20
16.02787112098597
 30
0.0
 10
176.1995153256004
 20
16.22749661465095
 30
0.0
 10
176.2660558907687
 20
16.22385458403978
 30
0.0
 10
176.283872427323
 20
16.22413447160854
 30
0.0
 10
176.4056801797503
 20
16.22632927398613
 30
0.0
 10
176.5080770335462
 20
15.94675118721515
 30
0.0
 10
176.7580021509356
 20
15.74563008536
 30
0.0
 10
176.9870035331111
 20
15.47792614987919
 30
0.0
 10
177.2245151213108
 20
15.22646413862375
 30
0.0
 10
177.4486090740771
 20
14.98969974061359
 30
0.0
 10
177.675071628301
 20
14.7321869258308
 30
0.0
 10
177.8325687886513
 20
14.61649335056922
 30
0.0
 10
178.0472129612676
 20
14.27997152538794
 30
0.0
 10
178.0422645974618
 20
14.40464754091604
 30
0.0
 10
178.0433931602546
 20
14.46327691935738
 30
0.0
 10
178.0428877841517
 20
14.55043662371978
 30
0.0
 10
178.0430475158113
 20
14.64416143182872
 30
0.0
 10
178.0430054891318
 20
14.73018971297035
 30
0.0
 10
178.0430202040372
 20
14.79153891945496
 30
0.0
 10
178.0429706255985
 20
14.94135231520992
 30
0.0
 10
178.045881152281
 20
15.17989612510104
 30
0.0
 10
178.0259521041162
 20
15.54486509868701
 30
0.0
 10
178.0750433936247
 20
15.8079963199341
 30
0.0
 10
177.9177951509182
 20
16.21928904947753
 30
0.0
 10
178.0762112872422
 20
16.16398282551748
 30
0.0
 10
178.1311680478628
 20
16.16199686500175
 30
0.0
 10
178.1827887766741
 20
16.16264778248253
 30
0.0
 10
178.2713198965366
 20
16.20369527738247
 30
0.0
 10
178.2204898303169
 20
16.05696326622986
 30
0.0
 10
178.2313389930283
 20
15.95019971954433
 30
0.0
 10
178.2166036994848
 20
15.79085705414111
 30
0.0
 10
178.2099976446204
 20
15.62853061652874
 30
0.0
 10
178.2014961399915
 20
15.45992521892396
 30
0.0
 10
178.1943227202198
 20
15.29814814703541
 30
0.0
 10
178.1889063215389
 20
15.15422331457933
 30
0.0
 10
178.1871713967648
 20
15.03437493466925
 30
0.0
 10
178.1875440672318
 20
14.92686101590515
 30
0.0
 10
178.1873656126263
 20
14.81820024645586
 30
0.0
 10
178.187701086314
 20
14.6995357016553
 30
0.0
 10
178.1890040622186
 20
14.57555163512741
 30
0.0
 10
178.1908887351574
 20
14.44858294171104
 30
0.0
 10
178.192500445485
 20
14.32153861551031
 30
0.0
 10
178.194140313743
 20
14.19854884492177
 30
0.0
 10
178.1962570745752
 20
14.08300931383759
 30
0.0
 10
178.1963848422363
 20
13.98090903955837
 30
0.0
 10
178.2006514396554
 20
13.89009848838156
 30
0.0
 10
178.1908440085289
 20
13.83213621208786
 30
0.0
 10
178.2118474771689
 20
13.76517130132029
 30
0.0
 10
178.1725639739897
 20
13.77291153966688
 30
0.0
 10
177.9595307117747
 20
13.75755254145192
 30
0.0
 10
177.7636297943186
 20
14.3140305809447
 30
0.0
 10
177.4611197631544
 20
14.57556035348509
 30
0.0
 10
177.3067935648021
 20
14.70898038201723
 30
0.0
 11
177.3067935648021
 21
14.70898038201723
 31
0.0
 11
176.8595529338511
 21
15.18757635411977
 31
0.0
 11
176.4124049070644
 21
15.6635264928897
 31
0.0
 11
176.4089664262494
 21
15.55086249986232
 31
0.0
 11
176.40556101835
 21
15.40557538184309
 31
0.0
 11
176.4029636920274
 21
15.21465645827967
 31
0.0
 11
176.4021126156603
 21
14.96521170139756
 31
0.0
 11
176.4025239230289
 21
14.88439802954279
 31
0.0
 11
176.4038420329817
 21
14.78640628477561
 31
0.0
 11
176.4055192267718
 21
14.6771355729974
 31
0.0
 11
176.4072367127518
 21
14.5628245487204
 31
0.0
 11
176.4094007838772
 21
14.44497802965265
 31
0.0
 11
176.4124049070644
 21
14.32545802100199
 31
0.0
 11
176.4158359733138
 21
14.20933349846155
 31
0.0
 11
176.4192928929998
 21
14.10186746550228
 31
0.0
 11
176.4227085253088
 21
14.00510162351264
 31
0.0
 11
176.4261896983793
 21
13.92125406276972
 31
0.0
 11
176.4296006184313
 21
13.85632862007759
 31
0.0
 11
176.4330776843148
 21
13.81626739612928
 31
0.0
 11
176.3754263821571
 21
13.82145433189185
 31
0.0
 11
176.3126746318309
 21
13.82315538223863
 31
0.0
 11
176.2464251717157
 21
13.82145433189185
 31
0.0
 11
176.1853747739675
 21
13.81626739612928
 31
0.0
 11
176.1926772737812
 21
13.8653189412559
 31
0.0
 11
176.2008793569054
 21
13.94356725720856
 31
0.0
 11
176.2090098822348
 21
14.04551893253029
 31
0.0
 11
176.2163406441397
 21
14.16542920159752
 31
0.0
 11
176.2236358280421
 21
14.30005912343889
 31
0.0
 11
176.2318444255596
 21
14.44586107652745
 31
0.0
 11
176.2395504149466
 21
14.59715203135072
 31
0.0
 11
176.2455763002094
 21
14.74850913200734
 31
0.0
 11
176.2503046247416
 21
14.89817951391435
 31
0.0
 11
176.254192897212
 21
15.04435739582222
 31
0.0
 11
176.2567527408965
 21
15.18111831592696
 31
0.0
 11
176.2576324804574
 21
15.3023085068689
 31
0.0
 11
176.257192610677
 21
15.60939715262545
 31
0.0
 11
176.2559126888347
 21
15.86997204839365
 31
0.0
 11
176.2528658717893
 21
16.07719922716125
 31
0.0
 11
176.2473049112763
 21
16.22421385386062
 31
0.0
 11
176.2615728121469
 21
16.22421385386062
 31
0.0
 11
176.2880703423352
 21
16.22421385386062
 31
0.0
 11
176.3023382432058
 21
16.22421385386062
 31
0.0
 11
176.5194743650277
 21
15.98910179662773
 31
0.0
 11
176.7512744123079
 21
15.73751281231561
 31
0.0
 11
176.989481601884
 21
15.4794955554357
 31
0.0
 11
177.2260074557521
 21
15.22497079855489
 31
0.0
 11
177.4555698717705
 21
14.97899759549138
 31
0.0
 11
177.6731797360103
 21
14.74678934034107
 31
0.0
 11
177.8713724913707
 21
14.53826680567101
 31
0.0
 11
178.0430143099086
 21
14.3632669793259
 31
0.0
 11
178.0430143099086
 21
14.38918210687044
 31
0.0
 11
178.0430143099086
 21
14.45601585685372
 31
0.0
 11
178.0430143099086
 21
14.54740078030025
 31
0.0
 11
178.0430143099086
 21
14.64696942823454
 31
0.0
 11
178.0430143099086
 21
14.73835435168107
 31
0.0
 11
178.0430143099086
 21
14.80518810166435
 31
0.0
 11
178.0430143099086
 21
14.83110322920889
 31
0.0
 11
178.0417233637609
 21
15.18755430550868
 31
0.0
 11
178.0378461155958
 21
15.53450684014415
 31
0.0
 11
178.0296197790002
 21
15.86693815950551
 31
0.0
 11
178.0154535467229
 21
16.17960510387179
 31
0.0
 11
178.0790351249619
 21
16.16666367158334
 31
0.0
 11
178.1324170159611
 21
16.16238072887607
 31
0.0
 11
178.1805381084833
 21
16.16666367158334
 31
0.0
 11
178.2424836798198
 21
16.17960510387179
 31
0.0
 11
178.2351216487575
 21
16.084981284451
 31
0.0
 11
178.2269790968818
 21
15.95257496503963
 31
0.0
 11
178.2183705364005
 21
15.79600336785655
 31
0.0
 11
178.2097547223215
 21
15.62916593734271
 31
0.0
 11
178.2016187850288
 21
15.4589032550936
 31
0.0
 11
178.1942501393835
 21
15.292060312427
 31
0.0
 11
178.1891406931522
 21
15.1432994357281
 31
0.0
 11
178.1874503478904
 21
15.02722121527101
 31
0.0
 11
178.1874503478904
 21
14.93258747397519
 31
0.0
 11
178.1874503478904
 21
14.82077565976708
 31
0.0
 11
178.1878461204497
 21
14.70123801222749
 31
0.0
 11
178.1890819450709
 21
14.57660052093918
 31
0.0
 11
178.1908392193318
 21
14.44883212687391
 31
0.0
 11
178.1925303477608
 21
14.32028982655879
 31
0.0
 11
178.1942876220215
 21
14.19558288214555
 31
0.0
 11
178.1959787504506
 21
14.07947489606349
 31
0.0
 11
178.1972884379172
 21
13.97495896727017
 31
0.0
 11
178.1976985420735
 21
13.88517371555652
 31
0.0
 11
178.1976985420735
 21
13.81891763918415
 31
0.0
 11
178.1976985420735
 21
13.77165864614041
 31
0.0
 11
178.1736699662976
 21
13.77165864614041
 31
0.0
 11
178.1496413905217
 21
13.77165864614041
 31
0.0
 11
177.7410729200423
 21
14.2346673526219
 31
0.0
 11
177.3067935648021
 21
14.70898038201723
 31
0.0
  0
SPLINE
  5
A8
102
{ACAD_REACTORS
330
C5
102
}
330
48
100
AcDbEntity
  8
_U_30EC_U_30A4_U_30E4_U_30FC_1
  6
Continuous
 62
     2
100
AcDbSpline
210
0.0
220
0.0
230
1.0
 70
    11
 71
     3
 72
   110
 73
   106
 74
   104
 42
0.000000001
 43
0.0000000001
 44
0.00000001
 40
0.0
 40
0.0
 40
0.0
 40
0.0
 40
0.2203406257277767
 40
0.4407808782838128
 40
0.5952494494615959
 40
0.7488431659393109
 40
0.9023581831309094
 40
1.056801968670408
 40
1.210736449099965
 40
1.363041386539787
 40
1.515315729683158
 40
1.669377239148165
 40
1.72161165275666
 40
1.77319950294305
 40
1.8249337932101
 40
1.877110426488088
 40
1.982682281206881
 40
2.078781667087632
 40
2.172809640822467
 40
2.271937807379122
 40
2.378349933379457
 40
2.494131557736702
 40
2.626681683943836
 40
2.783145050796264
 40
2.890701232941136
 40
2.993130312455036
 40
3.099869730692007
 40
3.220237816691503
 40
3.352695482737791
 40
3.481732806390033
 40
3.593499473690572
 40
3.674323013332089
 40
3.817951711952982
 40
3.946167120793952
 40
4.061405053453637
 40
4.166480796003277
 40
4.262478775059315
 40
4.350736673551271
 40
4.433071991254214
 40
4.511216293814759
 40
4.564262454118083
 40
4.618474415571712
 40
4.67012848875429
 40
4.722296879126494
 40
4.819540945314363
 40
4.931194984128219
 40
5.049996040257804
 40
5.168643755415292
 40
5.28397081176259
 40
5.392260784910444
 40
5.48651225487649
 40
5.559178233949832
 40
5.59142585285349
 40
5.626215969637886
 40
5.667155838674414
 40
5.717449290214219
 40
5.738402360944834
 40
5.784499116553803
 40
5.830595872164777
 40
5.851548942897635
 40
5.873019280661749
 40
5.924217778408291
 40
5.985325662817671
 40
6.036524160567687
 40
6.057994498334216
 40
6.236847789607472
 40
6.38140992894564
 40
6.493190424178674
 40
6.57406753423048
 40
6.691018086205574
 40
6.814881554220491
 40
6.944307823240529
 40
7.071266716066068
 40
7.193488604461913
 40
7.30904277312814
 40
7.414007203170822
 40
7.505140441886523
 40
7.531150360599669
 40
7.559221645322261
 40
7.587202218920927
 40
7.612569159499132
 40
7.662550809481011
 40
7.702878875764129
 40
7.857328205230943
 40
8.01079956808859
 40
8.16525639965754
 40
8.322232698713766
 40
8.479564855016537
 40
8.635216230290684
 40
8.790882550925659
 40
8.948305154947253
 40
9.168271839032927
 40
9.38735898098722
 40
9.608047961033455
 40
9.832914234792648
 40
9.858338694962983
 40
9.92536681722999
 40
10.02013071422757
 40
10.12876249858996
 40
10.23739428295247
 40
10.33215817995188
 40
10.39918630222392
 40
10.42461076239781
 40
10.64992019336941
 40
10.87188524531185
 40
10.87188524531185
 40
10.87188524531185
 40
10.87188524531185
 10
179.9057788376619
 20
15.7392326039819
 30
0.0
 10
179.9092864933542
 20
15.80616462073804
 30
0.0
 10
179.9163033987663
 20
15.94005891915859
 30
0.0
 10
179.8198027599073
 20
16.22548554971472
 30
0.0
 10
180.0510134726109
 20
16.16284386190284
 30
0.0
 10
180.1919290057156
 20
16.17001554055991
 30
0.0
 10
180.3490417757588
 20
16.16235883078244
 30
0.0
 10
180.5025913427287
 20
16.1625275228304
 30
0.0
 10
180.6545104935082
 20
16.16182040535432
 30
0.0
 10
180.814221481323
 20
16.17210158351639
 30
0.0
 10
180.9408972601118
 20
16.15496511080751
 30
0.0
 10
181.1370821122082
 20
16.22727260107147
 30
0.0
 10
181.1034395279079
 20
16.12640699080117
 30
0.0
 10
181.1052011317183
 20
16.07619253947669
 30
0.0
 10
181.1027342073459
 20
16.02712335586465
 30
0.0
 10
181.1347076966012
 20
15.94063490846996
 30
0.0
 10
181.0010399903257
 20
15.98997438608335
 30
0.0
 10
180.9172208688057
 20
15.98430634314169
 30
0.0
 10
180.8173861139323
 20
15.99465516706296
 30
0.0
 10
180.7186576720146
 20
16.00086450411088
 30
0.0
 10
180.612153277111
 20
16.00697763816779
 30
0.0
 10
180.4910511698059
 20
16.01588883484583
 30
0.0
 10
180.3703381502453
 20
16.00521605912385
 30
0.0
 10
180.1812553843437
 20
16.06468503080368
 30
0.0
 10
180.2129028505311
 20
15.9055832007754
 30
0.0
 10
180.1995563316836
 20
15.80839128339903
 30
0.0
 10
180.1974958426449
 20
15.69634065110102
 30
0.0
 10
180.1958188044671
 20
15.5769968562935
 30
0.0
 10
180.1973336794233
 20
15.45032592155111
 30
0.0
 10
180.195658247867
 20
15.32301588016117
 30
0.0
 10
180.2058844271658
 20
15.22451566404465
 30
0.0
 10
180.1779006596583
 20
15.08388702625632
 30
0.0
 10
180.3508029999306
 20
15.13989551134094
 30
0.0
 10
180.4645020202772
 20
15.127199514785
 30
0.0
 10
180.5840151672239
 20
15.13448377051255
 30
0.0
 10
180.6888491425071
 20
15.13878017056755
 30
0.0
 10
180.7843084898612
 20
15.14330568258977
 30
0.0
 10
180.8763823507032
 20
15.151492011462
 30
0.0
 10
180.9476551782439
 20
15.14643850638111
 30
0.0
 10
181.0544931705685
 20
15.18536425031672
 30
0.0
 10
181.0226603598035
 20
15.10517122005878
 30
0.0
 10
181.026616450393
 20
15.05562936846033
 30
0.0
 10
181.0234502392012
 20
15.00557478039818
 30
0.0
 10
181.0550791490585
 20
14.92128847612022
 30
0.0
 10
180.9210133677691
 20
14.97425365495157
 30
0.0
 10
180.82923227932
 20
14.96540080890441
 30
0.0
 10
180.7079729189603
 20
14.97570049965155
 30
0.0
 10
180.5914113119772
 20
14.97748911767502
 30
0.0
 10
180.4783375745879
 20
14.97787017109695
 30
0.0
 10
180.3679246308472
 20
14.98415449472181
 30
0.0
 10
180.289812406784
 20
14.97189133255364
 30
0.0
 10
180.1913625833646
 20
15.00453887616124
 30
0.0
 10
180.2012355173561
 20
14.94769748054204
 30
0.0
 10
180.1973923244402
 20
14.91392130557984
 30
0.0
 10
180.1966789884268
 20
14.87119604709411
 30
0.0
 10
180.1963369642975
 20
14.83401607262153
 30
0.0
 10
180.1963834255346
 20
14.79487237370771
 30
0.0
 10
180.1963649429927
 20
14.75716849497686
 30
0.0
 10
180.1963703431806
 20
14.71944955232402
 30
0.0
 10
180.1963697214201
 20
14.6899432474515
 30
0.0
 10
180.1963698151545
 20
14.65873577699301
 30
0.0
 10
180.1963704287921
 20
14.61414424908085
 30
0.0
 10
180.1963671499336
 20
14.5596395650885
 30
0.0
 10
180.1963759623481
 20
14.51505540201448
 30
0.0
 10
180.1963359653416
 20
14.43117808585739
 30
0.0
 10
180.1976024270256
 20
14.31737520677678
 30
0.0
 10
180.1950274117841
 20
14.16830395933709
 30
0.0
 10
180.206500938172
 20
14.06597203813905
 30
0.0
 10
180.1823506222264
 20
13.93338903885834
 30
0.0
 10
180.3332993946476
 20
13.9789573227202
 30
0.0
 10
180.4428436671556
 20
13.96427012162349
 30
0.0
 10
180.573397047392
 20
13.96920435125062
 30
0.0
 10
180.6990312209513
 20
13.97257705323363
 30
0.0
 10
180.8188730625601
 20
13.97711497498772
 30
0.0
 10
180.9391362611426
 20
13.99048536182006
 30
0.0
 10
181.0222761663516
 20
13.98068712782593
 30
0.0
 10
181.1456080421073
 20
14.04126214623319
 30
0.0
 10
181.1244269203958
 20
13.9853246013402
 30
0.0
 10
181.1235950270116
 20
13.95939249372346
 30
0.0
 10
181.1218963707558
 20
13.93197256190939
 30
0.0
 10
181.1217974888829
 20
13.89738195206385
 30
0.0
 10
181.1203659301329
 20
13.86050408220768
 30
0.0
 10
181.153280419219
 20
13.76846841021807
 30
0.0
 10
180.9551306988107
 20
13.84132015974831
 30
0.0
 10
180.8300548294891
 20
13.81825726508607
 30
0.0
 10
180.6673071295156
 20
13.82454021985786
 30
0.0
 10
180.5129366450001
 20
13.82260943909927
 30
0.0
 10
180.3566670436945
 20
13.82393762599269
 30
0.0
 10
180.1970544465282
 20
13.82059872487863
 30
0.0
 10
180.0540326342237
 20
13.8326579572824
 30
0.0
 10
179.8197144881628
 20
13.76952001976919
 30
0.0
 10
179.9173810751197
 20
14.05620527466318
 30
0.0
 10
179.900686878006
 20
14.24988308142661
 30
0.0
 10
179.9146296709683
 20
14.47848242880295
 30
0.0
 10
179.9142987846632
 20
14.63384593955049
 30
0.0
 10
179.9143078119263
 20
14.73966336444125
 30
0.0
 10
179.9143055876316
 20
14.80205784124214
 30
0.0
 10
179.9143065551888
 20
14.89220425248327
 30
0.0
 10
179.9143065473261
 20
14.99621167157438
 30
0.0
 10
179.9143053861102
 20
15.10022131375296
 30
0.0
 10
179.9143090971502
 20
15.19036243688768
 30
0.0
 10
179.9143011051051
 20
15.25276803097215
 30
0.0
 10
179.9143334275018
 20
15.35868835961119
 30
0.0
 10
179.913144078832
 20
15.5162671654474
 30
0.0
 10
179.9082216489256
 20
15.66528219822065
 30
0.0
 10
179.9057788376619
 20
15.7392326039819
 30
0.0
 11
179.9057788376619
 21
15.7392326039819
 31
0.0
 11
179.8966918223741
 21
15.95938578101018
 31
0.0
 11
179.8868249573133
 21
16.17960510387179
 31
0.0
 11
180.0411575141401
 21
16.17312391463728
 31
0.0
 11
180.1946500189046
 21
16.16754892331925
 31
0.0
 11
180.3481160653366
 21
16.16367167505631
 31
0.0
 11
180.5025544554939
 21
16.16238072887607
 31
0.0
 11
180.6564835227474
 21
16.16367167505631
 31
0.0
 11
180.80873910046
 21
16.16754892331925
 31
0.0
 11
180.9609113551074
 21
16.17312391463728
 31
0.0
 11
181.1148364762484
 21
16.17960510387179
 31
0.0
 11
181.1070811703124
 21
16.12794961777358
 31
0.0
 11
181.1044991623591
 21
16.07642642334203
 31
0.0
 11
181.1070811703124
 21
16.02475660564659
 31
0.0
 11
181.1148364762484
 21
15.97315954836783
 31
0.0
 11
181.0094874054411
 21
15.98001446156057
 31
0.0
 11
180.9136375700061
 21
15.98693552058657
 31
0.0
 11
180.8198593171903
 21
15.99378381919599
 31
0.0
 11
180.7209679915881
 21
16.00063211780541
 31
0.0
 11
180.6147532199924
 21
16.00710999974824
 31
0.0
 11
180.4991060528038
 21
16.01268829835793
 31
0.0
 11
180.3666126447258
 21
16.01656554662088
 31
0.0
 11
180.2101546018423
 21
16.01785649280113
 31
0.0
 11
180.2062663293721
 21
15.91037061609186
 31
0.0
 11
180.2015380048401
 21
15.80805072896463
 31
0.0
 11
180.1976607566749
 21
15.70138175329687
 31
0.0
 11
180.1963698105272
 21
15.5810205901325
 31
0.0
 11
180.1967799146836
 21
15.44856355891565
 31
0.0
 11
180.1980896021502
 21
15.31953288186456
 31
0.0
 11
180.199407457705
 21
15.20777398432309
 31
0.0
 11
180.1998191153661
 21
15.12695149302384
 31
0.0
 11
180.3434452935875
 21
15.1278025694125
 31
0.0
 11
180.4716343930758
 21
15.13039989580078
 31
0.0
 11
180.5868078221795
 21
15.13425509545254
 31
0.0
 11
180.691775631222
 21
15.13901649302076
 31
0.0
 11
180.7876346289421
 21
15.14418027774175
 31
0.0
 11
180.8757413374193
 21
15.14934406246267
 31
0.0
 11
180.9578881438497
 21
15.15491243919739
 31
0.0
 11
181.0357692335571
 21
15.16132086801524
 31
0.0
 11
181.0280180445186
 21
15.10884407115336
 31
0.0
 11
181.0254328449317
 21
15.05469378470856
 31
0.0
 11
181.0280180445186
 21
15.00310444444367
 31
0.0
 11
181.0357692335571
 21
14.95151510417882
 31
0.0
 11
180.9389813454014
 21
14.96092324653756
 31
0.0
 11
180.8275950722015
 21
14.96865128473012
 31
0.0
 11
180.7089261429373
 21
14.97425273438146
 31
0.0
 11
180.5903167449214
 21
14.97726788195011
 31
0.0
 11
180.4750025117521
 21
14.97898767361639
 31
0.0
 11
180.36672619507
 21
14.98070746528258
 31
0.0
 11
180.2724839317708
 21
14.98202486979617
 31
0.0
 11
180.1998191153661
 21
14.98243607639328
 31
0.0
 11
180.199407457705
 21
14.95019108508191
 31
0.0
 11
180.1980896021502
 21
14.91542593752116
 31
0.0
 11
180.1967799146836
 21
14.87450702260085
 31
0.0
 11
180.1963698105272
 21
14.82421524309952
 31
0.0
 11
180.1963698105272
 21
14.80326217235822
 31
0.0
 11
180.1963698105272
 21
14.75716541672736
 31
0.0
 11
180.1963698105272
 21
14.71106866109651
 31
0.0
 11
180.1963698105272
 21
14.69011559035521
 31
0.0
 11
180.1963698105272
 21
14.6686452525828
 31
0.0
 11
180.1963698105272
 21
14.61744675481784
 31
0.0
 11
180.1963698105272
 21
14.55633887038868
 31
0.0
 11
180.1963698105272
 21
14.50514037262371
 31
0.0
 11
180.1963698105272
 21
14.4836700348513
 31
0.0
 11
180.1967799146836
 21
14.30481721371547
 31
0.0
 11
180.1980896021502
 21
14.16026100715442
 31
0.0
 11
180.2002868589709
 21
14.04850210961289
 31
0.0
 11
180.2032586986985
 21
13.96767961831365
 31
0.0
 11
180.3202092517447
 21
13.96767961831365
 31
0.0
 11
180.4440727208746
 21
13.96767961831365
 31
0.0
 11
180.5734925526423
 21
13.96897056449389
 31
0.0
 11
180.7003922282244
 21
13.97284781275683
 31
0.0
 11
180.8224658067973
 21
13.97886708358865
 31
0.0
 11
180.9377587499463
 21
13.98663260442002
 31
0.0
 11
181.0421754573519
 21
13.99734161483402
 31
0.0
 11
181.1320599255448
 21
14.01237656274692
 31
0.0
 11
181.1264254031191
 21
13.98698427976715
 31
0.0
 11
181.1234433285423
 21
13.95907184053802
 31
0.0
 11
181.12213398812
 21
13.93112191867001
 31
0.0
 11
181.1217235369195
 21
13.90575829888472
 31
0.0
 11
181.1243087365064
 21
13.85584355063325
 31
0.0
 11
181.1320599255448
 21
13.81626739612928
 31
0.0
 11
180.9776977178344
 21
13.82145433189185
 31
0.0
 11
180.8242357818765
 21
13.82315538223863
 31
0.0
 11
180.6697789496483
 21
13.82315538223863
 31
0.0
 11
180.5128026496769
 21
13.82315538223863
 31
0.0
 11
180.3554704921536
 21
13.82315538223863
 31
0.0
 11
180.1998191153661
 21
13.82315538223863
 31
0.0
 11
180.0441620874242
 21
13.82145433189185
 31
0.0
 11
179.8868249573133
 21
13.81626739612928
 31
0.0
 11
179.896691822374
 21
14.03601267385209
 31
0.0
 11
179.9057788376619
 21
14.25491128490852
 31
0.0
 11
179.91217215184
 21
14.47550763902003
 31
0.0
 11
179.9143063455009
 21
14.70036378479715
 31
0.0
 11
179.9143063455009
 21
14.72578824496874
 31
0.0
 11
179.9143063455009
 21
14.79281636723931
 31
0.0
 11
179.9143063455009
 21
14.88758026424253
 31
0.0
 11
179.9143063455009
 21
14.99621204861207
 31
0.0
 11
179.9143063455009
 21
15.10484383298162
 31
0.0
 11
179.9143063455009
 21
15.19960772998484
 31
0.0
 11
179.9143063455009
 21
15.2666358522554
 31
0.0
 11
179.9143063455009
 21
15.292060312427
 31
0.0
 11
179.9121721518401
 21
15.51735963528735
 31
0.0
 11
179.9057788376619
 21
15.7392326039819
 31
0.0
  0
SPLINE
  5
A9
102
{ACAD_REACTORS
330
C6
102
}
330
48
100
AcDbEntity
  8
_U_30EC_U_30A4_U_30E4_U_30FC_1
  6
Continuous
 62
     2
100
AcDbSpline
210
0.0
220
0.0
230
1.0
 70
    11
 71
     3
 72
    47
 73
    43
 74
    41
 42
0.000000001
 43
0.0000000001
 44
0.00000001
 40
0.0
 40
0.0
 40
0.0
 40
0.0
 40
0.2207912809957177
 40
0.4459404186303042
 40
0.4902387190459256
 40
0.5327473892722205
 40
0.5742260451225817
 40
0.6155432630561678
 40
0.6568164066316312
 40
0.6982511618780674
 40
0.7407663929317178
 40
0.7851366743175238
 40
1.010288833836326
 40
1.231080507002173
 40
1.451765243652402
 40
1.676638205891686
 40
1.720461045359655
 40
1.830018144043521
 40
1.972442372353151
 40
2.114866600677521
 40
2.224423699395146
 40
2.268246538883387
 40
2.493628801207224
 40
2.715602830286628
 40
2.93421133070637
 40
3.149502369855353
 40
3.23138778485097
 40
3.318231873853948
 40
3.405143198197965
 40
3.486970301720457
 40
3.702258172493892
 40
3.920866283534109
 40
4.142839325931905
 40
4.368221903865372
 40
4.412044743359852
 40
4.521601842095867
 40
4.664026070452348
 40
4.806450298809056
 40
4.916007397546748
 40
4.959830237043072
 40
5.184703515847103
 40
5.40538725076748
 40
5.40538725076748
 40
5.40538725076748
 40
5.40538725076748
 10
182.6507427258645
 20
15.73406440953872
 30
0.0
 10
182.6568139420002
 20
15.7975848250121
 30
0.0
 10
182.6690762107243
 20
15.92587938689627
 30
0.0
 10
182.5604706879411
 20
16.20166220174076
 30
0.0
 10
182.6761985896604
 20
16.17188133432053
 30
0.0
 10
182.7171842509015
 20
16.1676555626282
 30
0.0
 10
182.7591205797519
 20
16.16310446389607
 30
0.0
 10
182.8004196625711
 20
16.16201982929485
 30
0.0
 10
182.8417032115555
 20
16.16310338195226
 30
0.0
 10
182.8836148270648
 20
16.16766112711345
 30
0.0
 10
182.9245983549018
 20
16.17187430209727
 30
0.0
 10
183.040492284349
 20
16.20177611317536
 30
0.0
 10
182.9295652727456
 20
15.92339806609888
 30
0.0
 10
182.9574856365267
 20
15.74283140824953
 30
0.0
 10
182.940426734697
 20
15.50961042346471
 30
0.0
 10
182.9414637282103
 20
15.34906622543146
 30
0.0
 10
182.9414099399404
 20
15.22284817558722
 30
0.0
 10
182.9414277372481
 20
15.12428963336241
 30
0.0
 10
182.941418858108
 20
14.99280702442963
 30
0.0
 10
182.9414263928033
 20
14.8613284496865
 30
0.0
 10
182.9414129405128
 20
14.7627622269409
 30
0.0
 10
182.9414531717492
 20
14.63639735624152
 30
0.0
 10
182.9406746403818
 20
14.47482068822869
 30
0.0
 10
182.9565958319266
 20
14.24361821892914
 30
0.0
 10
182.9333468885407
 20
14.05874351972001
 30
0.0
 10
183.0360183444367
 20
13.78935602770058
 30
0.0
 10
182.8820238362836
 20
13.82660112685816
 30
0.0
 10
182.8004129802832
 20
13.82137994680536
 30
0.0
 10
182.7188192292583
 20
13.82660620378351
 30
0.0
 10
182.5648513666843
 20
13.78937069885387
 30
0.0
 10
182.6674183421917
 20
14.05875129862879
 30
0.0
 10
182.6442045316088
 20
14.24361585325414
 30
0.0
 10
182.6600444655139
 20
14.47482218565638
 30
0.0
 10
182.6593296313427
 20
14.63639712308502
 30
0.0
 10
182.6593664569907
 20
14.76276231210521
 30
0.0
 10
182.659354900027
 20
14.86132756635981
 30
0.0
 10
182.6593575019214
 20
14.9928112741722
 30
0.0
 10
182.6593648531779
 20
15.124275480312
 30
0.0
 10
182.6593442541351
 20
15.22287786275325
 30
0.0
 10
182.6594082192028
 20
15.34896149354427
 30
0.0
 10
182.6581733947591
 20
15.51210091383771
 30
0.0
 10
182.6532040396745
 20
15.66054183777549
 30
0.0
 10
182.6507427258645
 20
15.73406440953872
 30
0.0
 11
182.6507427258645
 21
15.73406440953872
 31
0.0
 11
182.6417328200379
 21
15.95467178795577
 31
0.0
 11
182.6318769706146
 21
16.17960510387179
 31
0.0
 11
182.6756985840801
 21
16.17312391463728
 31
0.0
 11
182.7178400934215
 21
16.16754892331925
 31
0.0
 11
182.7591371409791
 21
16.16367167505631
 31
0.0
 11
182.8004341885366
 21
16.16238072887607
 31
0.0
 11
182.8416871388731
 21
16.16367167505631
 31
0.0
 11
182.8829400892097
 21
16.16754892331925
 31
0.0
 11
182.9250882131343
 21
16.17312391463728
 31
0.0
 11
182.9689825870145
 21
16.17960510387179
 31
0.0
 11
182.9590577693891
 21
15.95467178795577
 31
0.0
 11
182.950038420831
 21
15.73406440953872
 31
0.0
 11
182.9435638463435
 21
15.51347467001054
 31
0.0
 11
182.9414218238286
 21
15.28861190965007
 31
0.0
 11
182.9414218238286
 21
15.24478907015486
 31
0.0
 11
182.9414218238286
 21
15.13523197141682
 31
0.0
 11
182.9414218238286
 21
14.99280774305737
 31
0.0
 11
182.9414218238286
 21
14.85038351469792
 31
0.0
 11
182.9414218238286
 21
14.74082641595989
 31
0.0
 11
182.9414218238286
 21
14.69700357646467
 31
0.0
 11
182.9435638463435
 21
14.47163149318766
 31
0.0
 11
182.950038420831
 21
14.24975190990979
 31
0.0
 11
182.9590577693891
 21
14.03132954885329
 31
0.0
 11
182.9689825870145
 21
13.81626739612928
 31
0.0
 11
182.887261616877
 21
13.82145433189185
 31
0.0
 11
182.8004341885366
 21
13.82315538223863
 31
0.0
 11
182.713539511934
 21
13.82145433189185
 31
0.0
 11
182.6318769706146
 21
13.81626739612928
 31
0.0
 11
182.6417328200379
 21
14.03132954885329
 31
0.0
 11
182.6507427258645
 21
14.24975190990979
 31
0.0
 11
182.6571833838798
 21
14.47163149318766
 31
0.0
 11
182.6593583588023
 21
14.69700357646467
 31
0.0
 11
182.6593583588023
 21
14.74082641595988
 31
0.0
 11
182.6593583588023
 21
14.85038351469792
 31
0.0
 11
182.6593583588023
 21
14.99280774305737
 31
0.0
 11
182.6593583588023
 21
15.13523197141682
 31
0.0
 11
182.6593583588023
 21
15.24478907015486
 31
0.0
 11
182.6593583588023
 21
15.28861190965007
 31
0.0
 11
182.6571833838798
 21
15.51347467001054
 31
0.0
 11
182.6507427258645
 21
15.73406440953872
 31
0.0
  0
SPLINE
  5
AA
102
{ACAD_REACTORS
330
C7
102
}
330
48
100
AcDbEntity
  8
_U_30EC_U_30A4_U_30E4_U_30FC_1
  6
Continuous
 62
     2
100
AcDbSpline
210
0.0
220
0.0
230
1.0
 70
    11
 71
     3
 72
   118
 73
   114
 74
   112
 42
0.000000001
 43
0.0000000001
 44
0.00000001
 40
0.0
 40
0.0
 40
0.0
 40
0.0
 40
0.1054708162973078
 40
0.2466098270051425
 40
0.3965912874590612
 40
0.528552506975337
 40
0.6156245055641596
 40
0.6431434105796923
 40
0.7036850037985641
 40
0.7642265984504067
 40
0.7917455052354385
 40
0.92874043199894
 40
1.106572819087978
 40
1.287544879680933
 40
1.31757830803045
 40
1.399928030857088
 40
1.522968204799863
 40
1.675072986590484
 40
1.844616533180561
 40
2.019973001638625
 40
2.189516548879938
 40
2.341621331585276
 40
2.464661506320412
 40
2.547011229646976
 40
2.57704465816794
 40
2.603797890893011
 40
2.662655002908755
 40
2.721512114949623
 40
2.748265347702803
 40
2.77421530734488
 40
2.84595931340721
 40
2.954338556588409
 40
3.090194227585586
 40
3.244367517100549
 40
3.407699615844309
 40
3.57103171453946
 40
3.725205003920136
 40
3.861060674729635
 40
3.969439917716329
 40
4.041183923629001
 40
4.067133883212994
 40
4.31188674601218
 40
4.547897258335547
 40
4.764747083043991
 40
4.952749679951798
 40
5.045772974195931
 40
5.137862019645016
 40
5.330543169793065
 40
5.553448265244056
 40
5.795083855888237
 40
6.043293412177302
 40
6.285761695541241
 40
6.313902908752725
 40
6.384255941793315
 40
6.475714884766903
 40
6.567173827758966
 40
6.637526860839744
 40
6.665668074074107
 40
6.69201892032808
 40
6.749990782071144
 40
6.807962643790512
 40
6.834313490017983
 40
6.856393084245262
 40
6.913335195649886
 40
6.991194817302549
 40
7.076026942283811
 40
7.153886563725301
 40
7.210828674844883
 40
7.232908268931219
 40
7.25819933492374
 40
7.324875781592391
 40
7.419142481925048
 40
7.527204308841991
 40
7.635266135230575
 40
7.729532834168561
 40
7.796209279292883
 40
7.821500344594829
 40
7.8446529888509
 40
7.899863140541679
 40
7.965759128053845
 40
8.02096927977113
 40
8.044121924046596
 40
8.069356610160675
 40
8.109134395441368
 40
8.13223810019108
 40
8.193147867786445
 40
8.279261678876617
 40
8.377977512673832
 40
8.476693347146615
 40
8.56280716041167
 40
8.623716930826456
 40
8.646820636853407
 40
8.67198879377422
 40
8.734909185828075
 40
8.816705695188789
 40
8.898502204815331
 40
8.961422597377764
 40
8.986590754550877
 40
9.01294160073303
 40
9.070913462380112
 40
9.128885324081601
 40
9.155236170324923
 40
9.180404327928965
 40
9.24332472194801
 40
9.325121234211746
 40
9.4069177466374
 40
9.469838141977856
 40
9.495006288270602
 40
9.517811184378743
 40
9.572192090486743
 40
9.637098333280974
 40
9.691479239515173
 40
9.714284125643212
 40
9.714284125643212
 40
9.714284125643212
 40
9.714284125643212
 10
185.2874469028654
 20
15.2688916318772
 30
0.0
 10
185.3090990569039
 20
15.24111869242812
 30
0.0
 10
185.3597257109474
 20
15.17618054561235
 30
0.0
 10
185.4349383202592
 20
15.06891060312898
 30
0.0
 10
185.5248482274347
 20
14.95377438266625
 30
0.0
 10
185.5709169676673
 20
14.85357045748319
 30
0.0
 10
185.6655825294655
 20
14.78434006814943
 30
0.0
 10
185.6204439320412
 20
14.73771639678274
 30
0.0
 10
185.594704778579
 20
14.69660308866038
 30
0.0
 10
185.5645196708012
 20
14.66065971727939
 30
0.0
 10
185.5193684730562
 20
14.58579782596092
 30
0.0
 10
185.4710504458562
 20
14.80782524253604
 30
0.0
 10
185.3968539713073
 20
14.84510677337708
 30
0.0
 10
185.2836047324608
 20
15.11610202130599
 30
0.0
 10
185.288513357817
 20
15.00095328446229
 30
0.0
 10
185.2868486556307
 20
14.92836675781628
 30
0.0
 10
185.2876830076715
 20
14.80625588483986
 30
0.0
 10
185.2873609540265
 20
14.6591380081046
 30
0.0
 10
185.2875076912457
 20
14.49307063956557
 30
0.0
 10
185.2872950092723
 20
14.32187554608602
 30
0.0
 10
185.2879497252034
 20
14.15552828635498
 30
0.0
 10
185.285919246114
 20
14.00935173055693
 30
0.0
 10
185.2913460399931
 20
13.8847104747461
 30
0.0
 10
185.2804930868709
 20
13.81718656540626
 30
0.0
 10
185.2956739155556
 20
13.75549061417022
 30
0.0
 10
185.2457895108134
 20
13.76727503897003
 30
0.0
 10
185.2017150342523
 20
13.75943822779969
 30
0.0
 10
185.1582371630201
 20
13.76760441372703
 30
0.0
 10
185.1092346786488
 20
13.75538056738468
 30
0.0
 10
185.1218731234824
 20
13.80960667249313
 30
0.0
 10
185.113018296845
 20
13.86936918907558
 30
0.0
 10
185.1175058770314
 20
13.9792202904437
 30
0.0
 10
185.1157960135991
 20
14.11029975405679
 30
0.0
 10
185.1163550915986
 20
14.26198011444328
 30
0.0
 10
185.1161928768694
 20
14.42211074929953
 30
0.0
 10
185.1162269924675
 20
14.58236865674566
 30
0.0
 10
185.1162514960127
 20
14.73370247520439
 30
0.0
 10
185.1161453543224
 20
14.86582156338601
 30
0.0
 10
185.1164299141931
 20
14.97294802533193
 30
0.0
 10
185.1158675547567
 20
15.03808619579473
 30
0.0
 10
185.118076508369
 20
15.16618957858676
 30
0.0
 10
185.0319435998602
 20
14.79097610391575
 30
0.0
 10
184.95551408185
 20
14.63918193123395
 30
0.0
 10
184.8660040767834
 20
14.47766206446305
 30
0.0
 10
184.7640413217326
 20
14.2047184882017
 30
0.0
 10
184.7187976491039
 20
14.3671734659651
 30
0.0
 10
184.610235594167
 20
14.4560543205812
 30
0.0
 10
184.7995791751752
 20
14.60549794961408
 30
0.0
 10
184.85653405457
 20
14.79749136974927
 30
0.0
 10
184.9717520993353
 20
15.02899622906755
 30
0.0
 10
184.9940151630133
 20
15.21797259759062
 30
0.0
 10
185.177190515214
 20
15.49454089325932
 30
0.0
 10
185.0538033597552
 20
15.48698978832094
 30
0.0
 10
184.9925684166834
 20
15.48856772366119
 30
0.0
 10
184.9081999617064
 20
15.48882592573673
 30
0.0
 10
184.8204235085965
 20
15.48544845751206
 30
0.0
 10
184.7656768696123
 20
15.49394814982021
 30
0.0
 10
184.7104703026024
 20
15.48048561049788
 30
0.0
 10
184.7222823035537
 20
15.52931442126764
 30
0.0
 10
184.7142496151793
 20
15.57269004896709
 30
0.0
 10
184.7228186104679
 20
15.61509438309573
 30
0.0
 10
184.7102943409157
 20
15.66267796552118
 30
0.0
 10
184.7555101538735
 20
15.65267212995109
 30
0.0
 10
184.8014815562723
 20
15.65894105174061
 30
0.0
 10
184.877722204771
 20
15.65593561405872
 30
0.0
 10
184.9561296131993
 20
15.65770448278541
 30
0.0
 10
185.0323992648932
 20
15.65464793981659
 30
0.0
 10
185.0783009459475
 20
15.66103971376177
 30
0.0
 10
185.12317339654
 20
15.65093822978896
 30
0.0
 10
185.1105552275634
 20
15.70157201581899
 30
0.0
 10
185.1191936582707
 20
15.7550126188207
 30
0.0
 10
185.1152361595443
 20
15.84863255131681
 30
0.0
 10
185.1162325068335
 20
15.95112606688924
 30
0.0
 10
185.1171927413073
 20
16.05353270248164
 30
0.0
 10
185.1133211458005
 20
16.14735929609322
 30
0.0
 10
185.1217789814365
 20
16.20036542840353
 30
0.0
 10
185.1093075932835
 20
16.25211435651189
 30
0.0
 10
185.154210638985
 20
16.23850747226758
 30
0.0
 10
185.1955083836772
 20
16.24100480320587
 30
0.0
 10
185.259534428105
 20
16.23648060574489
 30
0.0
 10
185.2986111148786
 20
16.22781003043308
 30
0.0
 10
185.3476543498742
 20
16.23515102070688
 30
0.0
 10
185.3225080030591
 20
16.19602896051762
 30
0.0
 10
185.2815901333724
 20
16.20563842455805
 30
0.0
 10
185.2910109616604
 20
16.15540148169778
 30
0.0
 10
185.2855647318747
 20
16.1038594563949
 30
0.0
 10
185.2881699601805
 20
16.0195970758452
 30
0.0
 10
185.2870102202155
 20
15.92559135583408
 30
0.0
 10
185.2883591064232
 20
15.83196865395525
 30
0.0
 10
185.2849970101508
 20
15.74679517552223
 30
0.0
 10
185.292095991777
 20
15.69716856072044
 30
0.0
 10
185.2812569154547
 20
15.64993694969989
 30
0.0
 10
185.3304010225246
 20
15.66201674936851
 30
0.0
 10
185.3794877630147
 20
15.65447393363011
 30
0.0
 10
185.4573714280641
 20
15.65686070361432
 30
0.0
 10
185.5350365172897
 20
15.65899381905415
 30
0.0
 10
185.5845393931354
 20
15.65193391922454
 30
0.0
 10
185.6344594750639
 20
15.66360151936214
 30
0.0
 10
185.622319851688
 20
15.61540235371393
 30
0.0
 10
185.6305838229144
 20
15.57249219801236
 30
0.0
 10
185.6223198650783
 20
15.52958201851385
 30
0.0
 10
185.6344594549855
 20
15.48138288754865
 30
0.0
 10
185.5845395158746
 20
15.49305034471511
 30
0.0
 10
185.5350350651204
 20
15.48599202435047
 30
0.0
 10
185.4573784382973
 20
15.48811665228604
 30
0.0
 10
185.379464386576
 20
15.49053389365761
 30
0.0
 10
185.3304500352718
 20
15.48291848194487
 30
0.0
 10
185.2813246108944
 20
15.49507952557592
 30
0.0
 10
185.2915559988572
 20
15.45073013424159
 30
0.0
 10
185.2856677678054
 20
15.40925436202912
 30
0.0
 10
185.287878830557
 20
15.34915394315304
 30
0.0
 10
185.2874109346147
 20
15.3022578276289
 30
0.0
 10
185.2874386992914
 20
15.27650146418197
 30
0.0
 10
185.2874469028654
 20
15.2688916318772
 30
0.0
 11
185.2874469028654
 21
15.2688916318772
 31
0.0
 11
185.3516977534485
 21
15.18524999634257
 31
0.0
 11
185.4348258835499
 21
15.07118889748221
 31
0.0
 11
185.5216831568896
 21
14.94891767195723
 31
0.0
 11
185.5971214371872
 21
14.84064565642876
 31
0.0
 11
185.6459925881626
 21
14.7685821875579
 31
0.0
 11
185.6296821285093
 21
14.74641782124399
 31
0.0
 11
185.5937991172719
 21
14.69765621535339
 31
0.0
 11
185.5579161060346
 21
14.64889460946279
 31
0.0
 11
185.5416056463813
 21
14.62673024314888
 31
0.0
 11
185.4763067109446
 21
14.74716139023813
 31
0.0
 11
185.3848434243235
 21
14.89966983670207
 31
0.0
 11
185.2874469028654
 21
15.05219788193142
 31
0.0
 11
185.2874469028654
 21
15.02216445328253
 31
0.0
 11
185.2874469028654
 21
14.93981472956783
 31
0.0
 11
185.2874469028654
 21
14.81677455413528
 31
0.0
 11
185.2874469028654
 21
14.66466977033283
 31
0.0
 11
185.2874469028654
 21
14.49512622150845
 31
0.0
 11
185.2874469028654
 21
14.31976975101009
 31
0.0
 11
185.2874469028654
 21
14.15022620218571
 31
0.0
 11
185.2874469028654
 21
13.99812141838326
 31
0.0
 11
185.2874469028654
 21
13.87508124295071
 31
0.0
 11
185.2874469028654
 21
13.79273151923601
 31
0.0
 11
185.2874469028654
 21
13.76269809058712
 31
0.0
 11
185.260693670041
 21
13.76269809058712
 31
0.0
 11
185.2018365578272
 21
13.76269809058712
 31
0.0
 11
185.1429794456134
 21
13.76269809058712
 31
0.0
 11
185.116226212789
 21
13.76269809058712
 31
0.0
 11
185.116226212789
 21
13.7886480503125
 31
0.0
 11
185.116226212789
 21
13.86039205661208
 31
0.0
 11
185.116226212789
 21
13.96877130017102
 31
0.0
 11
185.116226212789
 21
14.10462697167447
 31
0.0
 11
185.116226212789
 21
14.25880026180761
 31
0.0
 11
185.116226212789
 21
14.42213236125558
 31
0.0
 11
185.116226212789
 21
14.58546446070356
 31
0.0
 11
185.116226212789
 21
14.7396377508367
 31
0.0
 11
185.116226212789
 21
14.87549342234015
 31
0.0
 11
185.116226212789
 21
14.98387266589909
 31
0.0
 11
185.116226212789
 21
15.05561667219867
 31
0.0
 11
185.116226212789
 21
15.08156663192405
 31
0.0
 11
185.0379865861721
 21
14.84965603302372
 31
0.0
 11
184.9497110789303
 21
14.63077616328678
 31
0.0
 11
184.8544106930045
 21
14.43598991333546
 31
0.0
 11
184.7550964303356
 21
14.27636017379201
 31
0.0
 11
184.7109198342406
 21
14.35822446196599
 31
0.0
 11
184.658805738348
 21
14.43414885430811
 31
0.0
 11
184.7627302590299
 21
14.59640087926757
 31
0.0
 11
184.8629319864735
 21
14.7955146542178
 31
0.0
 11
184.9550446607902
 21
15.01890447916196
 31
0.0
 11
185.0347020220912
 21
15.2539846541032
 31
0.0
 11
185.097537810488
 21
15.48816947904466
 31
0.0
 11
185.0693965972142
 21
15.48816947904466
 31
0.0
 11
184.9990435640297
 21
15.48816947904466
 31
0.0
 11
184.9075846208898
 21
15.48816947904466
 31
0.0
 11
184.8161256777499
 21
15.48816947904466
 31
0.0
 11
184.7457726445654
 21
15.48816947904466
 31
0.0
 11
184.7176314312916
 21
15.48816947904466
 31
0.0
 11
184.7176314312916
 21
15.51452032539223
 31
0.0
 11
184.7176314312916
 21
15.57249218735689
 31
0.0
 11
184.7176314312916
 21
15.63046404932155
 31
0.0
 11
184.7176314312916
 21
15.65681489566912
 31
0.0
 11
184.739711025602
 21
15.65681489566912
 31
0.0
 11
184.7966531372444
 21
15.65681489566912
 31
0.0
 11
184.8745127592862
 21
15.65681489566912
 31
0.0
 11
184.9593448847944
 21
15.65681489566912
 31
0.0
 11
185.0372045068361
 21
15.65681489566912
 31
0.0
 11
185.0941466184786
 21
15.65681489566912
 31
0.0
 11
185.116226212789
 21
15.65681489566912
 31
0.0
 11
185.116226212789
 21
15.68210596174353
 31
0.0
 11
185.116226212789
 21
15.74878240866697
 31
0.0
 11
185.116226212789
 21
15.84304910948977
 31
0.0
 11
185.116226212789
 21
15.95111093726224
 31
0.0
 11
185.116226212789
 21
16.05917276503472
 31
0.0
 11
185.116226212789
 21
16.15343946585752
 31
0.0
 11
185.116226212789
 21
16.22011591278096
 31
0.0
 11
185.116226212789
 21
16.24540697885537
 31
0.0
 11
185.1393181988665
 21
16.24373213107801
 31
0.0
 11
185.1943837041284
 21
16.23973826330123
 31
0.0
 11
185.2601070491184
 21
16.23497138885797
 31
0.0
 11
185.3151725543802
 21
16.23097752108118
 31
0.0
 11
185.3382645404578
 21
16.22930267330382
 31
0.0
 11
185.3249012644362
 21
16.20789677921192
 31
0.0
 11
185.2874469028654
 21
16.19450114553469
 31
0.0
 11
185.2874469028654
 21
16.17139743948578
 31
0.0
 11
185.2874469028654
 21
16.11048766899319
 31
0.0
 11
185.2874469028654
 21
16.02437385553816
 31
0.0
 11
185.2874469028654
 21
15.9256580206019
 31
0.0
 11
185.2874469028654
 21
15.82694218566565
 31
0.0
 11
185.2874469028654
 21
15.74082837221061
 31
0.0
 11
185.2874469028654
 21
15.67991860171803
 31
0.0
 11
185.2874469028654
 21
15.65681489566912
 31
0.0
 11
185.312615060481
 21
15.65681489566912
 31
0.0
 11
185.3755354545199
 21
15.65681489566912
 31
0.0
 11
185.4573319667706
 21
15.65681489566912
 31
0.0
 11
185.5391284790213
 21
15.65681489566912
 31
0.0
 11
185.6020488730602
 21
15.65681489566912
 31
0.0
 11
185.6272170306758
 21
15.65681489566912
 31
0.0
 11
185.6272170306758
 21
15.63046404932155
 31
0.0
 11
185.6272170306758
 21
15.57249218735689
 31
0.0
 11
185.6272170306758
 21
15.51452032539223
 31
0.0
 11
185.6272170306758
 21
15.48816947904466
 31
0.0
 11
185.6020488730602
 21
15.48816947904466
 31
0.0
 11
185.5391284790213
 21
15.48816947904466
 31
0.0
 11
185.4573319667706
 21
15.48816947904466
 31
0.0
 11
185.37553545452
 21
15.48816947904466
 31
0.0
 11
185.312615060481
 21
15.48816947904466
 31
0.0
 11
185.2874469028654
 21
15.48816947904466
 31
0.0
 11
185.2874469028654
 21
15.46536458293924
 31
0.0
 11
185.2874469028654
 21
15.41098367684171
 31
0.0
 11
185.2874469028654
 21
15.34607743408014
 31
0.0
 11
185.2874469028654
 21
15.29169652798262
 31
0.0
 11
185.2874469028654
 21
15.2688916318772
 31
0.0
  0
SPLINE
  5
AB
102
{ACAD_REACTORS
330
C8
102
}
330
48
100
AcDbEntity
  8
_U_30EC_U_30A4_U_30E4_U_30FC_1
  6
Continuous
 62
     2
100
AcDbSpline
210
0.0
220
0.0
230
1.0
 70
    11
 71
     3
 72
    91
 73
    87
 74
    85
 42
0.000000001
 43
0.0000000001
 44
0.00000001
 40
0.0
 40
0.0
 40
0.0
 40
0.0
 40
0.0345987051695718
 40
0.1258134969461369
 40
0.2547723404888987
 40
0.4026032099154125
 40
0.5504340793416704
 40
0.679392922883608
 40
0.7706077146571035
 40
0.8052064287780925
 40
1.124852390615281
 40
1.427402236308877
 40
1.706356627453519
 40
1.955541417875212
 40
2.169485938566357
 40
2.344350786664827
 40
2.480568411561997
 40
2.590440557429046
 40
2.649189927151149
 40
2.749320643306349
 40
2.912632739880051
 40
3.14774565600026
 40
3.244827496385061
 40
3.338490056946653
 40
3.58381541320708
 40
3.76142394323844
 40
3.886956104362604
 40
3.985855451886764
 40
4.091766255337649
 40
4.250186473811842
 40
4.422734315084487
 40
4.62828568483858
 40
4.872093227758412
 40
5.152549652145523
 40
5.464967135837506
 40
5.803201477852425
 40
6.160362988813905
 40
6.19344944827596
 40
6.284170385501614
 40
6.419718138764456
 40
6.587285046385706
 40
6.77406344672362
 40
6.967245678113574
 40
7.154024078817589
 40
7.321590987025946
 40
7.457138740890276
 40
7.547859678556012
 40
7.580946138182572
 40
7.608533084714622
 40
7.669224367077589
 40
7.729915649429801
 40
7.757502595949848
 40
7.79027806255333
 40
7.8801462774308
 40
8.014419963180234
 40
8.180411842397735
 40
8.365434637679204
 40
8.556801071622477
 40
8.741823866830561
 40
8.907815745916128
 40
9.042089431507225
 40
9.13195764624935
 40
9.164733112796927
 40
9.415425063139864
 40
9.667986180958332
 40
9.6941698074625
 40
9.756607686047458
 40
9.83113031532235
 40
9.893568193899785
 40
9.91975182039863
 40
9.950967964690474
 40
9.996421631210584
 40
10.22087981037447
 40
10.44341866197537
 40
10.47847970788849
 40
10.5709133743875
 40
10.70159545461224
 40
10.85140174170355
 40
11.00120802880472
 40
11.13189010907377
 40
11.22432377583005
 40
11.25938480938951
 40
11.28697175596139
 40
11.34766303835913
 40
11.40835432042062
 40
11.43594125892097
 40
11.43594125892097
 40
11.43594125892097
 40
11.43594125892097
 10
190.0818114333289
 20
15.55242795125078
 30
0.0
 10
190.0702785844941
 20
15.55242790287916
 30
0.0
 10
190.0283409444998
 20
15.55242773704165
 30
0.0
 10
189.9434129719026
 20
15.5524312580091
 30
0.0
 10
189.8207688553128
 20
15.55240926435879
 30
0.0
 10
189.6791206916993
 20
15.55250801177055
 30
0.0
 10
189.537975369849
 20
15.55214686232421
 30
0.0
 10
189.4141351317904
 20
15.5532188360909
 30
0.0
 10
189.3317217825382
 20
15.55092249091269
 30
0.0
 10
189.1727791229692
 20
15.56048569373422
 30
0.0
 10
189.3503402353375
 20
15.19785394311371
 30
0.0
 10
189.3379739205452
 20
14.95243127723115
 30
0.0
 10
189.4064519473864
 20
14.66862501324834
 30
0.0
 10
189.469302432097
 20
14.43250999939036
 30
0.0
 10
189.5452253431729
 20
14.23326740396129
 30
0.0
 10
189.6303189577016
 20
14.07745347451372
 30
0.0
 10
189.7244607592937
 20
13.97657857781394
 30
0.0
 10
189.8282648207728
 20
13.92465852638963
 30
0.0
 10
189.9125872030774
 20
13.97606484379619
 30
0.0
 10
189.9351322179452
 20
14.09144544037516
 30
0.0
 10
189.9745730975371
 20
14.21885149702379
 30
0.0
 10
189.9202919734944
 20
14.53622328086758
 30
0.0
 10
190.0451218072473
 20
14.38982180140904
 30
0.0
 10
190.2019291513603
 20
14.35795300331172
 30
0.0
 10
190.0947720007057
 20
14.12421357767628
 30
0.0
 10
190.0808711209867
 20
13.95972776583656
 30
0.0
 10
190.0234709467225
 20
13.83130869122483
 30
0.0
 10
189.9335020145008
 20
13.76018802352826
 30
0.0
 10
189.8095274657877
 20
13.74432324142254
 30
0.0
 10
189.663427319686
 20
13.77993797554171
 30
0.0
 10
189.5243894320284
 20
13.90000570500277
 30
0.0
 10
189.4102003962144
 20
14.0743568255032
 30
0.0
 10
189.3146141301486
 20
14.2994660311124
 30
0.0
 10
189.2318652572625
 20
14.56388246006442
 30
0.0
 10
189.1807179256411
 20
14.88187933098543
 30
0.0
 10
189.0770189207339
 20
15.15543728488912
 30
0.0
 10
189.204284120852
 20
15.56005818612869
 30
0.0
 10
189.0357890623018
 20
15.55112367849679
 30
0.0
 10
188.9511995787077
 20
15.55315961418365
 30
0.0
 10
188.8189876387628
 20
15.55213937388407
 30
0.0
 10
188.6560505094104
 20
15.5525323031843
 30
0.0
 10
188.4733759170533
 20
15.5523569631337
 30
0.0
 10
188.2847057373383
 20
15.55260105307469
 30
0.0
 10
188.1014469020189
 20
15.55185657906237
 30
0.0
 10
187.9404746832719
 20
15.55416360522427
 30
0.0
 10
187.8029808335276
 20
15.54799804883663
 30
0.0
 10
187.7289590372311
 20
15.56032838458212
 30
0.0
 10
187.6613215186858
 20
15.54329323723557
 30
0.0
 10
187.673237371927
 20
15.59524438447528
 30
0.0
 10
187.6655677285694
 20
15.64071424966529
 30
0.0
 10
187.6732592225116
 20
15.68614453703704
 30
0.0
 10
187.6613141797762
 20
15.73802395984569
 30
0.0
 10
187.7283588305868
 20
15.72119143490262
 30
0.0
 10
187.8017375665677
 20
15.73335409092669
 30
0.0
 10
187.9379128305273
 20
15.72727231074956
 30
0.0
 10
188.0973811801513
 20
15.72954834315056
 30
0.0
 10
188.2789173085837
 20
15.72881233998961
 30
0.0
 10
188.4658034862179
 20
15.72905954196131
 30
0.0
 10
188.6468012316836
 20
15.72886400799252
 30
0.0
 10
188.8080802578879
 20
15.72932234714837
 30
0.0
 10
188.9393882124887
 20
15.72812673751204
 30
0.0
 10
189.0225051322597
 20
15.73051347319741
 30
0.0
 10
189.1556236547813
 20
15.72230605725461
 30
0.0
 10
189.0645893502659
 20
15.97752868952654
 30
0.0
 10
188.9789633074418
 20
16.24164358328247
 30
0.0
 10
189.0990589003455
 20
16.22904442969165
 30
0.0
 10
189.1514264948543
 20
16.22694235763075
 30
0.0
 10
189.2214497569716
 20
16.22535399889658
 30
0.0
 10
189.2671922337818
 20
16.21602567538113
 30
0.0
 10
189.3220812646934
 20
16.22545966915428
 30
0.0
 10
189.2963574785682
 20
16.17733028655173
 30
0.0
 10
189.1825397571453
 20
16.18266829744167
 30
0.0
 10
189.3159346621137
 20
15.95449174576776
 30
0.0
 10
189.1943658735472
 20
15.72156856595921
 30
0.0
 10
189.3223188769413
 20
15.73087258884437
 30
0.0
 10
189.4049048406461
 20
15.72801001754678
 30
0.0
 10
189.5307214850824
 20
15.729234374123
 30
0.0
 10
189.6741469838058
 20
15.72932431888962
 30
0.0
 10
189.8157420951728
 20
15.72746163183851
 30
0.0
 10
189.9459127249968
 20
15.73333075937161
 30
0.0
 10
190.019345228619
 20
15.72070340823201
 30
0.0
 10
190.0891112922097
 20
15.7387756311041
 30
0.0
 10
190.0775772605396
 20
15.68612850546325
 30
0.0
 10
190.0833184346683
 20
15.64221317686548
 30
0.0
 10
190.081661577091
 20
15.59089982676548
 30
0.0
 10
190.081775756167
 20
15.56158792021635
 30
0.0
 10
190.0818114333289
 20
15.55242795125078
 30
0.0
 11
190.0818114333289
 21
15.55242795125078
 31
0.0
 11
190.0472127192051
 21
15.55242795125078
 31
0.0
 11
189.9559979274241
 21
15.55242795125078
 31
0.0
 11
189.8270390838717
 21
15.55242795125078
 31
0.0
 11
189.6792082144335
 21
15.55242795125078
 31
0.0
 11
189.5313773449954
 21
15.55242795125078
 31
0.0
 11
189.402418501443
 21
15.55242795125078
 31
0.0
 11
189.311203709662
 21
15.55242795125078
 31
0.0
 11
189.2766049955382
 21
15.55242795125078
 31
0.0
 11
189.3083140497693
 21
15.23435864930121
 31
0.0
 11
189.3527866656865
 21
14.93509522788081
 31
0.0
 11
189.4092389118319
 21
14.66191269512576
 31
0.0
 11
189.4768868567478
 21
14.42208605917227
 31
0.0
 11
189.5549465689762
 21
14.22289032815655
 31
0.0
 11
189.6426341170592
 21
14.07160051021478
 31
0.0
 11
189.7391655695389
 21
13.97549161348317
 31
0.0
 11
189.8437569949576
 21
13.94183864609792
 31
0.0
 11
189.8943077302786
 21
13.97177376978835
 31
0.0
 11
189.9310588991552
 21
14.06491619815047
 31
0.0
 11
189.9562640977528
 21
14.22627151712054
 31
0.0
 11
189.9721769222369
 21
14.46084531263482
 31
0.0
 11
190.0494082682583
 21
14.40202182306618
 31
0.0
 11
190.1327184184385
 21
14.3592188543269
 31
0.0
 11
190.1066365811217
 21
14.1152838866101
 31
0.0
 11
190.0673317805105
 21
13.94207902887562
 31
0.0
 11
190.0105702596765
 21
13.83011272445917
 31
0.0
 11
189.932118261691
 21
13.76989341669645
 31
0.0
 11
189.8277420296256
 21
13.75192954892317
 31
0.0
 11
189.6738595065097
 21
13.78957440012361
 31
0.0
 11
189.5388902376747
 21
13.89707348877403
 31
0.0
 11
189.4221739916163
 21
14.06627361744808
 31
0.0
 11
189.32305053683
 21
14.28902158871943
 31
0.0
 11
189.2408596418113
 21
14.55716420516172
 31
0.0
 11
189.1749410750559
 21
14.8625482693486
 31
0.0
 11
189.1246346050593
 21
15.19702058385374
 31
0.0
 11
189.0892800003171
 21
15.55242795125078
 31
0.0
 11
189.0561935405844
 21
15.55242795125078
 31
0.0
 11
188.9654726026075
 21
15.55242795125078
 31
0.0
 11
188.8299248482185
 21
15.55242795125078
 31
0.0
 11
188.6623579392495
 21
15.55242795125078
 31
0.0
 11
188.4755795375324
 21
15.55242795125078
 31
0.0
 11
188.2823973048993
 21
15.55242795125078
 31
0.0
 11
188.0956189031822
 21
15.55242795125078
 31
0.0
 11
187.9280519942131
 21
15.55242795125078
 31
0.0
 11
187.7925042398242
 21
15.55242795125078
 31
0.0
 11
187.7017833018473
 21
15.55242795125078
 31
0.0
 11
187.6686968421146
 21
15.55242795125078
 31
0.0
 11
187.6686968421146
 21
15.58001489785847
 31
0.0
 11
187.6686968421146
 21
15.64070618039537
 31
0.0
 11
187.6686968421146
 21
15.70139746293228
 31
0.0
 11
187.6686968421146
 21
15.72898440953996
 31
0.0
 11
187.7014723087632
 21
15.72898440953996
 31
0.0
 11
187.7913405237674
 21
15.72898440953996
 31
0.0
 11
187.9256142097149
 21
15.72898440953996
 31
0.0
 11
188.0916060891932
 21
15.72898440953996
 31
0.0
 11
188.2766288847902
 21
15.72898440953996
 31
0.0
 11
188.4679953190932
 21
15.72898440953996
 31
0.0
 11
188.6530181146902
 21
15.72898440953996
 31
0.0
 11
188.8190099941685
 21
15.72898440953996
 31
0.0
 11
188.953283680116
 21
15.72898440953996
 31
0.0
 11
189.0431518951202
 21
15.72898440953996
 31
0.0
 11
189.0759273617688
 21
15.72898440953996
 31
0.0
 11
189.0659183950103
 21
15.97947647544958
 31
0.0
 11
189.0599112510663
 21
16.23196614552531
 31
0.0
 11
189.0860575870659
 21
16.23056921608122
 31
0.0
 11
189.1484065421419
 21
16.22723807663761
 31
0.0
 11
189.22282303691
 21
16.2232622005275
 31
0.0
 11
189.285171991986
 21
16.21993106108389
 31
0.0
 11
189.3113183279856
 21
16.2185341316398
 31
0.0
 11
189.2982931113041
 21
16.19016528616079
 31
0.0
 11
189.2551649266406
 21
16.17581274276164
 31
0.0
 11
189.2574991961822
 21
15.95136670115108
 31
0.0
 11
189.2658452735903
 21
15.72898440953996
 31
0.0
 11
189.3009063195165
 21
15.72898440953996
 31
0.0
 11
189.3933399860495
 21
15.72898440953996
 31
0.0
 11
189.5240220663201
 21
15.72898440953996
 31
0.0
 11
189.6738283534596
 21
15.72898440953996
 31
0.0
 11
189.8236346405991
 21
15.72898440953996
 31
0.0
 11
189.9543167208697
 21
15.72898440953996
 31
0.0
 11
190.0467503874027
 21
15.72898440953996
 31
0.0
 11
190.0818114333289
 21
15.72898440953996
 31
0.0
 11
190.0818114333289
 21
15.70139746293228
 31
0.0
 11
190.0818114333289
 21
15.64070618039537
 31
0.0
 11
190.0818114333289
 21
15.58001489785847
 31
0.0
 11
190.0818114333289
 21
15.55242795125078
 31
0.0
  0
SPLINE
  5
AC
102
{ACAD_REACTORS
330
C9
102
}
330
48
100
AcDbEntity
  8
_U_30EC_U_30A4_U_30E4_U_30FC_1
  6
Continuous
 62
     2
100
AcDbSpline
210
0.0
220
0.0
230
1.0
 70
    11
 71
     3
 72
    75
 73
    71
 74
    69
 42
0.000000001
 43
0.0000000001
 44
0.00000001
 40
0.0
 40
0.0
 40
0.0
 40
0.0
 40
0.0342546099129691
 40
0.1245622414432346
 40
0.2522385480897536
 40
0.398599192294068
 40
0.5449598364980839
 40
0.6726361431438834
 40
0.7629437746736978
 40
0.797198393529799
 40
1.101723623449721
 40
1.40859124403667
 40
1.433332471690374
 40
1.487763172450169
 40
1.542193873081994
 40
1.566935100592542
 40
1.923523931821855
 40
2.271755704953628
 40
2.590579755100844
 40
2.858943305581075
 40
2.889120339309106
 40
2.918305855191096
 40
2.941366645531219
 40
2.996357760973104
 40
3.061992318140653
 40
3.116983433626824
 40
3.140044223997513
 40
3.411273122936348
 40
3.732441619741012
 40
3.76106821753271
 40
3.837787499630272
 40
3.948858699125909
 40
4.080541049104284
 40
4.219093782625666
 40
4.350776132722215
 40
4.461847332405549
 40
4.538566614678279
 40
4.567193212544526
 40
4.594907573998784
 40
4.666381453557323
 40
4.764111044010933
 40
4.870592538125736
 40
4.968322128642187
 40
5.039796008286872
 40
5.067510369784332
 40
5.094263603185546
 40
5.153120716668187
 40
5.211977830150637
 40
5.238731063551644
 40
5.272290535138882
 40
5.363380529444743
 40
5.497618415781421
 40
5.660621563453663
 40
5.838007341749364
 40
6.015393119910716
 40
6.178396267038341
 40
6.312634151842293
 40
6.403724143059282
 40
6.437283612672378
 40
6.464036846260996
 40
6.522893960004616
 40
6.581751071483884
 40
6.608504301590832
 40
6.63725394128098
 40
6.711397748902831
 40
6.812778057283444
 40
6.92323719924922
 40
7.024617507623864
 40
7.098761315207517
 40
7.127510946007467
 40
7.127510946007467
 40
7.127510946007467
 40
7.127510946007467
 10
188.4418622390564
 20
14.95849128473263
 30
0.0
 10
188.4418622819707
 20
14.94707313408719
 30
0.0
 10
188.4418624481129
 20
14.90555257842628
 30
0.0
 10
188.4418593081786
 20
14.8214692200377
 30
0.0
 10
188.4418788279801
 20
14.70004497322327
 30
0.0
 10
188.4417912187737
 20
14.55980494047446
 30
0.0
 10
188.442111623523
 20
14.42006556794575
 30
0.0
 10
188.441160590974
 20
14.29745038894928
 30
0.0
 10
188.4431978595967
 20
14.21587074438041
 30
0.0
 10
188.4349433178746
 20
14.06271267077694
 30
0.0
 10
188.7430797940901
 20
14.22560236054718
 30
0.0
 10
189.0350645173737
 20
14.39482938688001
 30
0.0
 10
189.0408354448707
 20
14.25973235781911
 30
0.0
 10
189.0455471719891
 20
14.21617221160444
 30
0.0
 10
189.0482535411917
 20
14.17211249350545
 30
0.0
 10
189.0672545672961
 20
14.02272590363135
 30
0.0
 10
188.6583942247302
 20
14.08681172241262
 30
0.0
 10
188.3793710348832
 20
13.97296341411016
 30
0.0
 10
188.1018081587167
 20
13.87364095811142
 30
0.0
 10
187.80998371844
 20
13.91630687596352
 30
0.0
 10
187.7869144678659
 20
13.81321679744538
 30
0.0
 10
187.7537474383333
 20
13.78691091244469
 30
0.0
 10
187.7480653962738
 20
13.83455309036303
 30
0.0
 10
187.7284214559045
 20
13.87180336115071
 30
0.0
 10
187.7095089485623
 20
13.93007387847562
 30
0.0
 10
187.6942849867708
 20
13.97385201007807
 30
0.0
 10
187.6477246372935
 20
14.08759421046305
 30
0.0
 10
187.9890897312451
 20
14.05576301120049
 30
0.0
 10
188.2679649367386
 20
14.02161435106479
 30
0.0
 10
188.2617753034907
 20
14.16913976479652
 30
0.0
 10
188.2630935452773
 20
14.24013150908832
 30
0.0
 10
188.2624831689948
 20
14.34719767958661
 30
0.0
 10
188.2625871570725
 20
14.47398529785997
 30
0.0
 10
188.2629987964055
 20
14.6084924349605
 30
0.0
 10
188.2613907841969
 20
14.73395549951183
 30
0.0
 10
188.2659902567925
 20
14.84505246719117
 30
0.0
 10
188.256418650221
 20
14.90761886800687
 30
0.0
 10
188.2704001783691
 20
14.96595388295
 30
0.0
 10
188.2147384386704
 20
14.95289710582236
 30
0.0
 10
188.1575655197821
 20
14.96136307749497
 30
0.0
 10
188.0616048925648
 20
14.95729976080635
 30
0.0
 10
187.963376752282
 20
14.95970889852473
 30
0.0
 10
187.8672582457561
 20
14.95551600613387
 30
0.0
 10
187.810464852581
 20
14.96429346441162
 30
0.0
 10
187.7550356873384
 20
14.9509493685012
 30
0.0
 10
187.7670679427916
 20
15.00036910959256
 30
0.0
 10
187.7592003173938
 20
15.04393988030395
 30
0.0
 10
187.7666295563829
 20
15.08830469118525
 30
0.0
 10
187.7551930564143
 20
15.13902297763991
 30
0.0
 10
187.8232102370133
 20
15.12162460757743
 30
0.0
 10
187.8968496879747
 20
15.13417450237189
 30
0.0
 10
188.0325064058211
 20
15.12799677011097
 30
0.0
 10
188.1884909024525
 20
15.13029203093084
 30
0.0
 10
188.3615926358143
 20
15.1294096826253
 30
0.0
 10
188.5346942964181
 20
15.13029207142408
 30
0.0
 10
188.6906789811216
 20
15.1279966295555
 30
0.0
 10
188.8263351889797
 20
15.13417486262432
 30
0.0
 10
188.8999756705652
 20
15.12162394218334
 30
0.0
 10
188.9679914174724
 20
15.13902373012143
 30
0.0
 10
188.9565590885922
 20
15.08830130414555
 30
0.0
 10
188.9639539458297
 20
15.04397060811107
 30
0.0
 10
188.956203991227
 20
15.00028307550195
 30
0.0
 10
188.9681203741877
 20
14.95063590098476
 30
0.0
 10
188.9108170223616
 20
14.96461411338424
 30
0.0
 10
188.8520145789772
 20
14.95539755673252
 30
0.0
 10
188.7525293633199
 20
14.95952268164928
 30
0.0
 10
188.649428009835
 20
14.95822760025887
 30
0.0
 10
188.5537846354573
 20
14.95854077077639
 30
0.0
 10
188.4857467971617
 20
14.95848776697144
 30
0.0
 10
188.4514462213443
 20
14.95849051871655
 30
0.0
 10
188.4418622390564
 20
14.95849128473263
 30
0.0
 11
188.4418622390564
 21
14.95849128473263
 31
0.0
 11
188.4418622390564
 21
14.92423666587184
 31
0.0
 11
188.4418622390564
 21
14.83392903432974
 31
0.0
 11
188.4418622390564
 21
14.70625272766678
 31
0.0
 11
188.4418622390564
 21
14.55989208344339
 31
0.0
 11
188.4418622390564
 21
14.41353143921999
 31
0.0
 11
188.4418622390564
 21
14.28585513255703
 31
0.0
 11
188.4418622390564
 21
14.19554750101493
 31
0.0
 11
188.4418622390564
 21
14.16129288215414
 31
0.0
 11
188.7391932644568
 21
14.22709475713769
 31
0.0
 11
189.0384623627245
 21
14.29496038212072
 31
0.0
 11
189.0405487124976
 21
14.27030727882828
 31
0.0
 11
189.0451386819987
 21
14.2160704515849
 31
0.0
 11
189.0497286514996
 21
14.16183362434152
 31
0.0
 11
189.0518150012728
 21
14.13718052104908
 31
0.0
 11
188.705639688924
 21
14.05163370140898
 31
0.0
 11
188.3669653138838
 21
13.97060877629901
 31
0.0
 11
188.0563731516688
 21
13.89862764024928
 31
0.0
 11
187.7944444777956
 21
13.8402121877899
 31
0.0
 11
187.7817515029292
 21
13.81283442738012
 31
0.0
 11
187.7569794787513
 21
13.79740260446735
 31
0.0
 11
187.7491867589501
 21
13.81910683390636
 31
0.0
 11
187.7306041194242
 21
13.87086307333786
 31
0.0
 11
187.70842483999
 21
13.93263664943352
 31
0.0
 11
187.6898422004641
 21
13.98439288886502
 31
0.0
 11
187.6820494806629
 21
14.00609711830403
 31
0.0
 11
187.9482776335931
 21
14.05794001759666
 31
0.0
 11
188.2626334936289
 21
14.1237396877191
 31
0.0
 11
188.2626334936289
 21
14.15236628569624
 31
0.0
 11
188.2626334936289
 21
14.22908556827499
 31
0.0
 11
188.2626334936289
 21
14.34015676842631
 31
0.0
 11
188.2626334936289
 21
14.47183911912117
 31
0.0
 11
188.2626334936289
 21
14.61039185333055
 31
0.0
 11
188.2626334936289
 21
14.74207420402542
 31
0.0
 11
188.2626334936289
 21
14.85314540417674
 31
0.0
 11
188.2626334936289
 21
14.92986468675549
 31
0.0
 11
188.2626334936289
 21
14.95849128473263
 31
0.0
 11
188.2349191321108
 21
14.95849128473263
 31
0.0
 11
188.1634452524063
 21
14.95849128473263
 31
0.0
 11
188.06571566179
 21
14.95849128473263
 31
0.0
 11
187.9592341675364
 21
14.95849128473263
 31
0.0
 11
187.8615045769201
 21
14.95849128473263
 31
0.0
 11
187.7900306972156
 21
14.95849128473263
 31
0.0
 11
187.7623163356975
 21
14.95849128473263
 31
0.0
 11
187.7623163356975
 21
14.98524451823288
 31
0.0
 11
187.7623163356975
 21
15.04410163193344
 31
0.0
 11
187.7623163356975
 21
15.10295874563399
 31
0.0
 11
187.7623163356975
 21
15.12971197913424
 31
0.0
 11
187.7958758072874
 21
15.12971197913424
 31
0.0
 11
187.8869658016031
 21
15.12971197913424
 31
0.0
 11
188.0212036879629
 21
15.12971197913424
 31
0.0
 11
188.1842068356856
 21
15.12971197913424
 31
0.0
 11
188.3615926140897
 21
15.12971197913424
 31
0.0
 11
188.5389783924938
 21
15.12971197913424
 31
0.0
 11
188.7019815402164
 21
15.12971197913424
 31
0.0
 11
188.8362194265763
 21
15.12971197913424
 31
0.0
 11
188.9273094208918
 21
15.12971197913424
 31
0.0
 11
188.9608688924818
 21
15.12971197913424
 31
0.0
 11
188.9608688924818
 21
15.10295874563399
 31
0.0
 11
188.9608688924818
 21
15.04410163193343
 31
0.0
 11
188.9608688924818
 21
14.98524451823288
 31
0.0
 11
188.9608688924818
 21
14.95849128473263
 31
0.0
 11
188.9321192527877
 21
14.95849128473263
 31
0.0
 11
188.8579754451555
 21
14.95849128473263
 31
0.0
 11
188.7565951367604
 21
14.95849128473263
 31
0.0
 11
188.6461359947778
 21
14.95849128473263
 31
0.0
 11
188.5447556863827
 21
14.95849128473263
 31
0.0
 11
188.4706118787505
 21
14.95849128473263
 31
0.0
 11
188.4418622390564
 21
14.95849128473263
 31
0.0
  0
SPLINE
  5
AD
102
{ACAD_REACTORS
330
CA
102
}
330
48
100
AcDbEntity
  8
_U_30EC_U_30A4_U_30E4_U_30FC_1
  6
Continuous
 62
     2
100
AcDbSpline
210
0.0
220
0.0
230
1.0
 70
    11
 71
     3
 72
    15
 73
    11
 74
     9
 42
0.000000001
 43
0.0000000001
 44
0.00000001
 40
0.0
 40
0.0
 40
0.0
 40
0.0
 40
0.2785535985096595
 40
0.5215624748198944
 40
0.6076917376040164
 40
0.6938210001740484
 40
0.94050191464549
 40
1.221691403489058
 40
1.300471877080933
 40
1.379252341684659
 40
1.379252341684659
 40
1.379252341684659
 40
1.379252341684659
 10
189.5681493630999
 20
16.22930267330382
 30
0.0
 10
189.6296017794178
 20
16.17691646592716
 30
0.0
 10
189.7446649974114
 20
16.07882876798222
 30
0.0
 10
190.0397348497243
 20
15.92889785897225
 30
0.0
 10
189.9025147631857
 20
15.84343227515013
 30
0.0
 10
189.8041227843779
 20
15.71085785201552
 30
0.0
 10
189.7130033590651
 20
16.01616985781415
 30
0.0
 10
189.3636839480657
 20
16.07967869465373
 30
0.0
 10
189.5119258376571
 20
16.17896509880878
 30
0.0
 10
189.5494081874236
 20
16.21252348402383
 30
0.0
 10
189.5681493630999
 20
16.22930267330382
 30
0.0
 11
189.5681493630999
 21
16.22930267330382
 31
0.0
 11
189.7919222440596
 21
16.06341774278973
 31
0.0
 11
189.9695046306383
 21
15.89753281227564
 31
0.0
 11
189.9066308127979
 21
15.83866743034592
 31
0.0
 11
189.8437569949576
 21
15.7798020484162
 31
0.0
 11
189.6688535117725
 21
15.95375677059491
 31
0.0
 11
189.4478256856141
 21
16.12757920110703
 31
0.0
 11
189.507987524357
 21
16.17844093720542
 31
0.0
 11
189.5681493630999
 21
16.22930267330382
 31
0.0
  0
SPLINE
  5
AE
102
{ACAD_REACTORS
330
CB
102
}
330
48
100
AcDbEntity
  8
_U_30EC_U_30A4_U_30E4_U_30FC_1
  6
Continuous
 62
     2
100
AcDbSpline
210
0.0
220
0.0
230
1.0
 70
    11
 71
     3
 72
    35
 73
    31
 74
    29
 42
0.000000001
 43
0.0000000001
 44
0.00000001
 40
0.0
 40
0.0
 40
0.0
 40
0.0
 40
0.0335231036620315
 40
0.0713218571712275
 40
0.427886668148744
 40
0.8116865841964247
 40
1.198190238000129
 40
1.561379546812781
 40
1.659983174622193
 40
1.759315573807299
 40
2.132719617231234
 40
2.525233363588985
 40
2.910815397779871
 40
3.265244364303463
 40
3.5926067235822
 40
3.964386154604146
 40
4.359942131737965
 40
4.758154118639475
 40
4.843846538700086
 40
4.936650065543406
 40
5.256616602537485
 40
5.581707404416218
 40
5.899719158308313
 40
6.198363494280919
 40
6.466301046615949
 40
6.493895311537271
 40
6.559697020197063
 40
6.638234543442639
 40
6.704036252154391
 40
6.731630508423197
 40
6.731630508423197
 40
6.731630508423197
 40
6.731630508423197
 10
191.9736010568669
 20
16.23463843719135
 30
0.0
 10
191.9676006097789
 20
16.22480690542323
 30
0.0
 10
191.9548344099157
 20
16.20388988579796
 30
0.0
 10
191.7949362006553
 20
16.17127126532699
 30
0.0
 10
192.2322025842338
 20
15.88206680336701
 30
0.0
 10
192.4345394828262
 20
15.68041138358436
 30
0.0
 10
192.6819564267974
 20
15.4374938760328
 30
0.0
 10
193.1831513624608
 20
15.36047662757772
 30
0.0
 10
193.012556219897
 20
15.2187693917466
 30
0.0
 10
192.9383299463202
 20
15.01710366209102
 30
0.0
 10
192.6131432248188
 20
15.36956287174726
 30
0.0
 10
192.3277741670665
 20
15.53175212559562
 30
0.0
 10
192.0337604077658
 20
15.73687130053047
 30
0.0
 10
191.8084452691134
 20
16.21827488595455
 30
0.0
 10
191.5993085055521
 20
15.75343046609223
 30
0.0
 10
191.3207873674834
 20
15.54350952252912
 30
0.0
 10
191.0371383177209
 20
15.37424456359986
 30
0.0
 10
190.7078639527831
 20
15.00142360907937
 30
0.0
 10
190.6277012318224
 20
15.19708014459002
 30
0.0
 10
190.4759724909745
 20
15.32491104190596
 30
0.0
 10
190.9083395826794
 20
15.40454031765936
 30
0.0
 10
191.0962565329766
 20
15.60026634915473
 30
0.0
 10
191.3468477420502
 20
15.81632996916755
 30
0.0
 10
191.5714350470162
 20
15.98190992300059
 30
0.0
 10
191.6259775409711
 20
16.26133964636826
 30
0.0
 10
191.7494661029011
 20
16.24737950408079
 30
0.0
 10
191.806027334452
 20
16.24521268867648
 30
0.0
 10
191.8761870984944
 20
16.24046859881361
 30
0.0
 10
191.9333414022105
 20
16.23709429350541
 30
0.0
 10
191.9644190320839
 20
16.2351985471112
 30
0.0
 10
191.9736010568669
 20
16.23463843719135
 30
0.0
 11
191.9736010568669
 21
16.23463843719135
 31
0.0
 11
191.9525319069885
 21
16.20856374969786
 31
0.0
 11
191.9174464559425
 21
16.19450114553469
 31
0.0
 11
192.1512374769095
 21
15.92527961131382
 31
0.0
 11
192.4414585957566
 21
15.6741340796926
 31
0.0
 11
192.7612797483685
 21
15.45710987618784
 31
0.0
 11
193.083870870629
 21
15.29025232631638
 31
0.0
 11
193.0213299868076
 21
15.21402035584928
 31
0.0
 11
192.9688035818976
 21
15.12971197913424
 31
0.0
 11
192.6436279095814
 21
15.3132640483158
 31
0.0
 11
192.3237227768436
 21
15.54070139743428
 31
0.0
 11
192.0354200158608
 21
15.79673855123309
 31
0.0
 11
191.8050514588095
 21
16.06609003445566
 31
0.0
 11
191.5995531719516
 21
15.81126348721036
 31
0.0
 11
191.3288301341535
 21
15.55645182277756
 31
0.0
 11
191.0119538423246
 21
15.31969466354857
 31
0.0
 11
190.6679957933741
 21
15.11903163191467
 31
0.0
 11
190.6218855341338
 21
15.19126067703554
 31
0.0
 11
190.5636970460348
 21
15.26355586798967
 31
0.0
 11
190.8433040489015
 21
15.41911456961745
 31
0.0
 11
191.1093004621154
 21
15.60601009790405
 31
0.0
 11
191.3499997459746
 21
15.81384496285209
 31
0.0
 11
191.5537153607774
 21
16.03222167446416
 31
0.0
 11
191.7087607668218
 21
16.25074274274287
 31
0.0
 11
191.7363041569865
 21
16.24906789496551
 31
0.0
 11
191.8019845489177
 21
16.24507402718874
 31
0.0
 11
191.880377274771
 21
16.24030715274548
 31
0.0
 11
191.9460576667022
 21
16.23631328496871
 31
0.0
 11
191.9736010568669
 21
16.23463843719135
 31
0.0
  0
SPLINE
  5
AF
102
{ACAD_REACTORS
330
CC
102
}
330
48
100
AcDbEntity
  8
_U_30EC_U_30A4_U_30E4_U_30FC_1
  6
Continuous
 62
     2
100
AcDbSpline
210
0.0
220
0.0
230
1.0
 70
    11
 71
     3
 72
    91
 73
    87
 74
    85
 42
0.000000001
 43
0.0000000001
 44
0.00000001
 40
0.0
 40
0.0
 40
0.0
 40
0.0
 40
0.0267532254356701
 40
0.0856103386464102
 40
0.1444674521996621
 40
0.1712206856618514
 40
0.2039416005642536
 40
0.2955601971652484
 40
0.4362601844617202
 40
0.6162252844507534
 40
0.8256392189704982
 40
1.054685709844468
 40
1.293548478893588
 40
1.532411247938332
 40
1.761457738799596
 40
1.970871673298593
 40
2.150836773256818
 40
2.291536760495679
 40
2.383155356836757
 40
2.415876284101405
 40
2.44262951748805
 40
2.50148663094918
 40
2.560343744424327
 40
2.5870969778266
 40
2.617068194441027
 40
2.699247336756197
 40
2.822032643466481
 40
2.973822353258039
 40
3.143014704823481
 40
3.31800793688006
 40
3.487200288186894
 40
3.638989997548431
 40
3.76177530379493
 40
3.843954445753265
 40
3.87392566222996
 40
3.890812773500668
 40
3.907699884771846
 40
3.937960767857411
 40
3.980983618142499
 40
4.199085915228644
 40
4.439444339237435
 40
4.677588241261079
 40
5.050698317837993
 40
5.448212454763407
 40
5.855291218044876
 40
6.138575438885532
 40
6.417434507584381
 40
6.444551104394065
 40
6.504207617363368
 40
6.563864130314695
 40
6.590980727104289
 40
6.848609460381717
 40
7.109611990668679
 40
7.352910904446344
 40
7.557830220705682
 40
7.587518925913599
 40
7.652834077376017
 40
7.718149228845952
 40
7.747837934062255
 40
7.854880190301206
 40
7.976511257403696
 40
8.369487896592526
 40
8.757514959223847
 40
9.126072419331281
 40
9.460639380392372
 40
9.746695593036142
 40
9.777569943118923
 40
9.80705032093202
 40
9.830377336129146
 40
9.886003295436234
 40
9.952395569430134
 40
10.00802152870649
 40
10.03134854388241
 40
10.21356951009606
 40
10.42203479292897
 40
10.66154556731086
 40
10.91693789564324
 40
11.15832906556585
 40
11.18982674596642
 40
11.27286608520427
 40
11.39026653033369
 40
11.52484752840905
 40
11.65942852648467
 40
11.77682897161503
 40
11.85986831085702
 40
11.89136598230447
 40
11.89136598230447
 40
11.89136598230447
 40
11.89136598230447
 10
190.7027885008196
 20
14.70699600701772
 30
0.0
 10
190.7028237765288
 20
14.71587847311985
 30
0.0
 10
190.7029366710796
 20
14.74430237047346
 30
0.0
 10
190.7012984568489
 20
14.79409639169803
 30
0.0
 10
190.7069750292911
 20
14.83657564478154
 30
0.0
 10
190.6956928731706
 20
14.88730154856847
 30
0.0
 10
190.7632296979031
 20
14.87012900740109
 30
0.0
 10
190.8388029210701
 20
14.88290227165996
 30
0.0
 10
190.9828357056001
 20
14.87629729457382
 30
0.0
 10
191.1569419185427
 20
14.87888462206466
 30
0.0
 10
191.3639599611003
 20
14.87800591955553
 30
0.0
 10
191.5894688172378
 20
14.87828207920027
 30
0.0
 10
191.8251162293406
 20
14.87818339658662
 30
0.0
 10
192.0607640531349
 20
14.87828184412767
 30
0.0
 10
192.2862717580626
 20
14.87800678190789
 30
0.0
 10
192.4932934632805
 20
14.87888186270734
 30
0.0
 10
192.667388891529
 20
14.87630522678446
 30
0.0
 10
192.8114492071986
 20
14.88288290449213
 30
0.0
 10
192.8869691915294
 20
14.87016243405604
 30
0.0
 10
192.954577603703
 20
14.88726400191687
 30
0.0
 10
192.9430840140677
 20
14.83674785802941
 30
0.0
 10
192.9505104581733
 20
14.79253252226501
 30
0.0
 10
192.9428838927986
 20
14.7486796650361
 30
0.0
 10
192.9546489459426
 20
14.69878374479327
 30
0.0
 10
192.8930788491983
 20
14.71393227712512
 30
0.0
 10
192.8256791738672
 20
14.70310665350673
 30
0.0
 10
192.7013004056222
 20
14.70852031626237
 30
0.0
 10
192.5554428236572
 20
14.70649205390785
 30
0.0
 10
192.3893576440086
 20
14.70715777578387
 30
0.0
 10
192.2188412621725
 20
14.70689643521242
 30
0.0
 10
192.0519790855389
 20
14.70721553391094
 30
0.0
 10
191.9087346827105
 20
14.70635302590762
 30
0.0
 10
191.7773313869833
 20
14.70863300482988
 30
0.0
 10
191.7239859134657
 20
14.70407704374202
 30
0.0
 10
191.6485188456912
 20
14.70999914992877
 30
0.0
 10
191.6769075779233
 20
14.70094169343353
 30
0.0
 10
191.7033652409542
 20
14.6972591226893
 30
0.0
 10
191.6633522907701
 20
14.66654271968271
 30
0.0
 10
191.5713663691868
 20
14.67667591174643
 30
0.0
 10
191.5439396207069
 20
14.43032502247782
 30
0.0
 10
191.4478793967235
 20
14.27499558764376
 30
0.0
 10
191.1917277964473
 20
13.94525417931567
 30
0.0
 10
191.7627537732762
 20
14.08430022210452
 30
0.0
 10
192.0173656320517
 20
14.08291779973364
 30
0.0
 10
192.6279647048617
 20
13.99790569242085
 30
0.0
 10
192.3340698578083
 20
14.29685417558207
 30
0.0
 10
192.0133304286518
 20
14.4433085690178
 30
0.0
 10
192.1313543360433
 20
14.50025540818286
 30
0.0
 10
192.1724716466261
 20
14.52420099873348
 30
0.0
 10
192.2156812394412
 20
14.54599758811231
 30
0.0
 10
192.3174574094449
 20
14.60928721253904
 30
0.0
 10
192.4328867625248
 20
14.35147151408783
 30
0.0
 10
192.6329591642278
 20
14.21616041113682
 30
0.0
 10
192.7269077387228
 20
14.03792795138884
 30
0.0
 10
192.9558829746392
 20
13.87997821027047
 30
0.0
 10
192.8596031846708
 20
13.829159725763
 30
0.0
 10
192.8167959763779
 20
13.79881292523054
 30
0.0
 10
192.7718243528779
 20
13.77466130281459
 30
0.0
 10
192.7121720925214
 20
13.72552146747569
 30
0.0
 10
192.6789731061324
 20
13.85997475673606
 30
0.0
 10
192.5582013350797
 20
14.01594265286587
 30
0.0
 10
192.1970976005979
 20
13.88569928059554
 30
0.0
 10
191.8385061955541
 20
13.90224694409484
 30
0.0
 10
191.457092045008
 20
13.89331229351864
 30
0.0
 10
191.1703455282891
 20
13.82882671672407
 30
0.0
 10
190.8592055599715
 20
13.94230668192827
 30
0.0
 10
190.8268737818788
 20
13.83122259927767
 30
0.0
 10
190.7896178253317
 20
13.81196313850013
 30
0.0
 10
190.7865737632754
 20
13.85874784087298
 30
0.0
 10
190.7679892860606
 20
13.89806853919134
 30
0.0
 10
190.7512436616778
 20
13.95765983478235
 30
0.0
 10
190.7383730915754
 20
14.00201969871284
 30
0.0
 10
190.7042327806429
 20
14.09106331120202
 30
0.0
 10
190.9482714457755
 20
14.02181042943768
 30
0.0
 10
191.1441394486672
 20
14.00030369057743
 30
0.0
 10
191.2395426381277
 20
14.28226484478463
 30
0.0
 10
191.2945135769597
 20
14.44363045421126
 30
0.0
 10
191.5159619357156
 20
14.71391177589737
 30
0.0
 10
191.3849239381216
 20
14.70548446853735
 30
0.0
 10
191.3110026555854
 20
14.70779008496969
 30
0.0
 10
191.1977459876244
 20
14.70671378321658
 30
0.0
 10
191.0694251807484
 20
14.7070763907651
 30
0.0
 10
190.9404252030415
 20
14.70697724466086
 30
0.0
 10
190.828784094629
 20
14.70699932712572
 30
0.0
 10
190.7514663970026
 20
14.7069957918967
 30
0.0
 10
190.713287653201
 20
14.70699595845081
 30
0.0
 10
190.7027885008196
 20
14.70699600701772
 30
0.0
 11
190.7027885008196
 21
14.70699600701772
 31
0.0
 11
190.7027885008196
 21
14.73374924051797
 31
0.0
 11
190.7027885008196
 21
14.79260635421853
 31
0.0
 11
190.7027885008196
 21
14.85146346791909
 31
0.0
 11
190.7027885008196
 21
14.87821670141935
 31
0.0
 11
190.7355094280989
 21
14.87821670141935
 31
0.0
 11
190.8271280244809
 21
14.87821670141935
 31
0.0
 11
190.9678280117819
 21
14.87821670141935
 31
0.0
 11
191.147793111818
 21
14.87821670141935
 31
0.0
 11
191.3572070464054
 21
14.87821670141935
 31
0.0
 11
191.5862535373604
 21
14.87821670141935
 31
0.0
 11
191.8251163064993
 21
14.87821670141935
 31
0.0
 11
192.0639790756381
 21
14.87821670141935
 31
0.0
 11
192.2930255665931
 21
14.87821670141935
 31
0.0
 11
192.5024395011806
 21
14.87821670141935
 31
0.0
 11
192.6824046012168
 21
14.87821670141935
 31
0.0
 11
192.8231045885177
 21
14.87821670141935
 31
0.0
 11
192.9147231848997
 21
14.87821670141935
 31
0.0
 11
192.947444112179
 21
14.87821670141935
 31
0.0
 11
192.947444112179
 21
14.85146346791909
 31
0.0
 11
192.947444112179
 21
14.79260635421853
 31
0.0
 11
192.947444112179
 21
14.73374924051797
 31
0.0
 11
192.947444112179
 21
14.70699600701772
 31
0.0
 11
192.9174728954758
 21
14.70699600701772
 31
0.0
 11
192.8352937529027
 21
14.70699600701772
 31
0.0
 11
192.712508445764
 21
14.70699600701772
 31
0.0
 11
192.5607187353642
 21
14.70699600701772
 31
0.0
 11
192.3915263830078
 21
14.70699600701772
 31
0.0
 11
192.2165331499991
 21
14.70699600701772
 31
0.0
 11
192.0473407976427
 21
14.70699600701772
 31
0.0
 11
191.8955510872428
 21
14.70699600701772
 31
0.0
 11
191.7727657801042
 21
14.70699600701772
 31
0.0
 11
191.690586637531
 21
14.70699600701772
 31
0.0
 11
191.6606154208279
 21
14.70699600701772
 31
0.0
 11
191.6766359412525
 21
14.70165583340794
 31
0.0
 11
191.6926564616771
 21
14.69631565979815
 31
0.0
 11
191.6706155681421
 21
14.67558114591443
 31
0.0
 11
191.6284861855363
 21
14.6668587153611
 31
0.0
 11
191.5365235541377
 21
14.46909247312657
 31
0.0
 11
191.4279078521763
 21
14.25467511978509
 31
0.0
 11
191.3127500824807
 21
14.0462255905162
 31
0.0
 11
191.685736667502
 21
14.05582441253029
 31
0.0
 11
192.0830700036151
 21
14.06781232404995
 31
0.0
 11
192.4899342191145
 21
14.08102711828532
 31
0.0
 11
192.2983119496979
 21
14.28966761302481
 31
0.0
 11
192.0966752013698
 21
14.48229420151831
 31
0.0
 11
192.1204947794749
 21
14.49525327269564
 31
0.0
 11
192.1728978513061
 21
14.52376322928576
 31
0.0
 11
192.2253009231374
 21
14.55227318587588
 31
0.0
 11
192.2491205012425
 21
14.56523225705321
 31
0.0
 11
192.4387101558627
 21
14.39079508370268
 31
0.0
 11
192.6200310940436
 21
14.20305846374091
 31
0.0
 11
192.7777729231148
 21
14.01782380992436
 31
0.0
 11
192.8966252504058
 21
13.85089253500949
 31
0.0
 11
192.8715408217923
 21
13.83501202286069
 31
0.0
 11
192.8163550788425
 21
13.80007489613332
 31
0.0
 11
192.7611693358928
 21
13.76513776940596
 31
0.0
 11
192.7360849072793
 21
13.74925725725716
 31
0.0
 11
192.6775518151612
 21
13.83887824681809
 31
0.0
 11
192.6050015078458
 21
13.93650288221032
 31
0.0
 11
192.2125412924095
 21
13.91636286943759
 31
0.0
 11
191.8249474069561
 21
13.89803302999773
 31
0.0
 11
191.4567378976213
 21
13.88202178722395
 31
0.0
 11
191.1224308105413
 21
13.86883756444947
 31
0.0
 11
190.8365441918518
 21
13.8589887850075
 31
0.0
 11
190.821186232174
 21
13.83220523466695
 31
0.0
 11
190.7937434290546
 21
13.82143559057245
 31
0.0
 11
190.786792719232
 21
13.84370299445577
 31
0.0
 11
190.7702179496548
 21
13.89680218833139
 31
0.0
 11
190.7504351601596
 21
13.96017864553777
 31
0.0
 11
190.7338603905825
 21
14.01327783941339
 31
0.0
 11
190.7269096807599
 21
14.03554524329671
 31
0.0
 11
190.9091199859153
 21
14.03751638912953
 31
0.0
 11
191.1174975848589
 21
14.04356211829473
 31
0.0
 11
191.2303203127216
 21
14.25483550301554
 31
0.0
 11
191.3407936722035
 21
14.48509813155879
 31
0.0
 11
191.4358254265627
 21
14.70699600701772
 31
0.0
 11
191.4043277461597
 21
14.70699600701772
 31
0.0
 11
191.3212884069153
 21
14.70699600701772
 31
0.0
 11
191.2038879617768
 21
14.70699600701772
 31
0.0
 11
191.0693069636912
 21
14.70699600701772
 31
0.0
 11
190.9347259656055
 21
14.70699600701772
 31
0.0
 11
190.817325520467
 21
14.70699600701772
 31
0.0
 11
190.7342861812226
 21
14.70699600701772
 31
0.0
 11
190.7027885008196
 21
14.70699600701772
 31
0.0
  0
SPLINE
  5
B0
102
{ACAD_REACTORS
330
CD
102
}
330
48
100
AcDbEntity
  8
_U_30EC_U_30A4_U_30E4_U_30FC_1
  6
Continuous
 62
     2
100
AcDbSpline
210
0.0
220
0.0
230
1.0
 70
    11
 71
     3
 72
   131
 73
   127
 74
   125
 42
0.000000001
 43
0.0000000001
 44
0.00000001
 40
0.0
 40
0.0
 40
0.0
 40
0.0
 40
0.019557702982617
 40
0.042649053746157
 40
0.2863607575856474
 40
0.5344948436188959
 40
0.7842238845573165
 40
0.873731578946738
 40
0.9803832810312907
 40
1.092842274517039
 40
1.199761146656799
 40
1.289788768186503
 40
1.351573580786193
 40
1.370727117561422
 40
1.416400936017832
 40
1.470914848355976
 40
1.516588666791765
 40
1.535742203552846
 40
1.634216592293193
 40
1.760283341175008
 40
1.897966686682073
 40
2.031216387368858
 40
2.049689751137851
 40
2.101115601646788
 40
2.179502577739907
 40
2.278859318314021
 40
2.39319446225868
 40
2.516516648383796
 40
2.642834515405925
 40
2.766156701983427
 40
2.880491846754543
 40
2.979848588358585
 40
3.058235565443765
 40
3.109661416668919
 40
3.128134780704094
 40
3.146783742386411
 40
3.1912543433153
 40
3.244332157315959
 40
3.288802758225891
 40
3.307451719895163
 40
3.327717853844776
 40
3.383747753580135
 40
3.468388665924525
 40
3.574487837698834
 40
3.694892515728938
 40
3.822449946852077
 40
3.950007377920466
 40
4.070412055800558
 40
4.176511227368113
 40
4.26115213950156
 40
4.317182039076753
 40
4.337448172964672
 40
4.62001100269624
 40
4.885096638397556
 40
4.94537304351838
 40
5.014107710488688
 40
5.070481727652072
 40
5.319246955636596
 40
5.584812164506068
 40
5.859000912056921
 40
6.133746937542101
 40
6.401732212968906
 40
6.420736683995496
 40
6.472845717451118
 40
6.550702743894046
 40
6.646951193874198
 40
6.75423449793055
 40
6.865196086587328
 40
6.972479390357758
 40
7.068727839771892
 40
7.146584865450901
 40
7.198693898189131
 40
7.217698368905271
 40
7.23495040163075
 40
7.276089864269796
 40
7.32519180351591
 40
7.366331266090299
 40
7.383583298769651
 40
7.402779163492028
 40
7.453386443254431
 40
7.524934666445432
 40
7.606953361405743
 40
7.688972056428867
 40
7.760520279784089
 40
7.811127559734331
 40
7.830323424545952
 40
7.847844055299582
 40
7.894799345666623
 40
7.962779392744311
 40
8.043374293560358
 40
8.128174145149265
 40
8.20876904481707
 40
8.27674909037677
 40
8.323704379669328
 40
8.341225010056062
 40
8.35849761480021
 40
8.401679126686416
 40
8.457815092185474
 40
8.513951057727878
 40
8.557132569707834
 40
8.574405174504877
 40
8.602340668616229
 40
8.643455660539718
 40
8.663225271966386
 40
8.715345156564034
 40
8.789031889628369
 40
8.873502045520098
 40
8.957972194323721
 40
9.031658925567612
 40
9.083778811234303
 40
9.103548423002765
 40
9.11955008312333
 40
9.160817522379604
 40
9.217244429109998
 40
9.278724491644484
 40
9.33515139829524
 40
9.376418837357535
 40
9.392420497300323
 40
9.401196302734515
 40
9.417494229383937
 40
9.42627002774921
 40
9.440875075477242
 40
9.475702496998421
 40
9.517270709865583
 40
9.55209813199375
 40
9.566703169883958
 40
9.566703169883958
 40
9.566703169883958
 40
9.566703169883958
 10
194.6170254148479
 20
15.67015871511028
 30
0.0
 10
194.6134345093371
 20
15.6645369070216
 30
0.0
 10
194.6056039123625
 20
15.65227754419112
 30
0.0
 10
194.5129968974547
 20
15.61601916040967
 30
0.0
 10
194.4887622233248
 20
15.40148444212717
 30
0.0
 10
194.3858709845939
 20
15.22197284509705
 30
0.0
 10
194.1220492364305
 20
15.03615573798148
 30
0.0
 10
194.284547156918
 20
14.95959336566081
 30
0.0
 10
194.3607225760838
 20
14.89856693195442
 30
0.0
 10
194.4492171072758
 20
14.83515804544759
 30
0.0
 10
194.538993023311
 20
14.7752563421956
 30
0.0
 10
194.5883817636046
 20
14.72102154849206
 30
0.0
 10
194.6745708157382
 20
14.69286240541834
 30
0.0
 10
194.6411260674229
 20
14.65713309652811
 30
0.0
 10
194.621467116631
 20
14.62550387991906
 30
0.0
 10
194.5919888217882
 20
14.58475872796069
 30
0.0
 10
194.5688989446032
 20
14.55504663489644
 30
0.0
 10
194.5380205968356
 20
14.50211422668493
 30
0.0
 10
194.472919336574
 20
14.627403349389
 30
0.0
 10
194.3796000122416
 20
14.68213900233934
 30
0.0
 10
194.2950636285138
 20
14.73916423939341
 30
0.0
 10
194.1722498125743
 20
14.89675287427523
 30
0.0
 10
194.1764450847302
 20
14.82035806766837
 30
0.0
 10
194.1751478652679
 20
14.77361280161297
 30
0.0
 10
194.1758126448078
 20
14.69584785812602
 30
0.0
 10
194.1755549986958
 20
14.59902068324423
 30
0.0
 10
194.1756431239923
 20
14.4865027907881
 30
0.0
 10
194.175607730228
 20
14.36524085945699
 30
0.0
 10
194.1756511758281
 20
14.24086897858962
 30
0.0
 10
194.1755199942406
 20
14.11967683631336
 30
0.0
 10
194.1759477562048
 20
14.00691148919744
 30
0.0
 10
194.174667820231
 20
13.91082913768744
 30
0.0
 10
194.1779759851044
 20
13.831138264687
 30
0.0
 10
194.1715197740087
 20
13.78815175788784
 30
0.0
 10
194.1806208705557
 20
13.74955432372042
 30
0.0
 10
194.1447910339936
 20
13.75810887724071
 30
0.0
 10
194.1115223815253
 20
13.75342519985446
 30
0.0
 10
194.0604562576041
 20
13.75351298759784
 30
0.0
 10
194.0269723972813
 20
13.75794430283821
 30
0.0
 10
193.9907585408754
 20
13.74960793842509
 30
0.0
 10
194.0009782568665
 20
13.79145277179284
 30
0.0
 10
193.9936487887773
 20
13.83778560820173
 30
0.0
 10
193.9973633136103
 20
13.92374831106014
 30
0.0
 10
193.9959480554896
 20
14.02605142704849
 30
0.0
 10
193.9964105554638
 20
14.14453223931512
 30
0.0
 10
193.996277368623
 20
14.26957683153356
 30
0.0
 10
193.9963015910045
 20
14.3947582810705
 30
0.0
 10
193.9963354925551
 20
14.51286645379058
 30
0.0
 10
193.9962060293132
 20
14.61628748709516
 30
0.0
 10
193.9965507549081
 20
14.69932036153667
 30
0.0
 10
193.9958698278689
 20
14.75143368521243
 30
0.0
 10
193.9994586600625
 20
14.87912907821361
 30
0.0
 10
193.7826171386435
 20
14.58048716819613
 30
0.0
 10
193.6021354921952
 20
14.35263981511514
 30
0.0
 10
193.5490322295611
 20
14.49373443289814
 30
0.0
 10
193.5200429133149
 20
14.54325767560944
 30
0.0
 10
193.4196648062819
 20
14.64641779790103
 30
0.0
 10
193.7405127723261
 20
14.72695035023778
 30
0.0
 10
193.8689897005429
 20
14.91066283036433
 30
0.0
 10
194.090645432536
 20
15.11931995771762
 30
0.0
 10
194.1770224894068
 20
15.29339211228342
 30
0.0
 10
194.4549394229075
 20
15.5696705134251
 30
0.0
 10
194.3346247839284
 20
15.56534559551113
 30
0.0
 10
194.2863197351349
 20
15.56614856202552
 30
0.0
 10
194.2102377454905
 20
15.56574582146583
 30
0.0
 10
194.1167010009751
 20
15.56590275611609
 30
0.0
 10
194.0117594788557
 20
15.56582502576223
 30
0.0
 10
193.9033887738718
 20
15.56595464378553
 30
0.0
 10
193.7981454235898
 20
15.5655439349069
 30
0.0
 10
193.7056237819414
 20
15.5668207367159
 30
0.0
 10
193.6268130800709
 20
15.56340766534849
 30
0.0
 10
193.5839674565381
 20
15.57023350036318
 30
0.0
 10
193.5449499586516
 20
15.56065064201123
 30
0.0
 10
193.5526365271866
 20
15.59420779565542
 30
0.0
 10
193.5485464404313
 20
15.62523550322232
 30
0.0
 10
193.5485531368815
 20
15.672365292709
 30
0.0
 10
193.5526239724913
 20
15.70340941646779
 30
0.0
 10
193.5449495574583
 20
15.73701861635901
 30
0.0
 10
193.5834819405495
 20
15.72748410420872
 30
0.0
 10
193.624122801448
 20
15.73397435498071
 30
0.0
 10
193.6951471850464
 20
15.73100150650254
 30
0.0
 10
193.7729318149634
 20
15.73174761399158
 30
0.0
 10
193.8507292246474
 20
15.73247814044525
 30
0.0
 10
193.9217232089908
 20
15.72954235514161
 30
0.0
 10
193.962427979182
 20
15.73595468772951
 30
0.0
 10
194.000985348991
 20
15.72650524176004
 30
0.0
 10
193.9927342754927
 20
15.76264692158784
 30
0.0
 10
193.9982346669359
 20
15.80129837613227
 30
0.0
 10
193.9955754206163
 20
15.86913528561839
 30
0.0
 10
193.9965815471533
 20
15.9459164153874
 30
0.0
 10
193.9960178018319
 20
16.02849393582757
 30
0.0
 10
193.9970714526592
 20
16.10517329229878
 30
0.0
 10
193.994267586313
 20
16.173319907767
 30
0.0
 10
194.0000702721304
 20
16.21132399809346
 30
0.0
 10
193.9915654551158
 20
16.24758448077646
 30
0.0
 10
194.0255610233125
 20
16.23755723771853
 30
0.0
 10
194.05945756831
 20
16.24073266813707
 30
0.0
 10
194.1126669060346
 20
16.2350896564061
 30
0.0
 10
194.1660768574482
 20
16.23434774436426
 30
0.0
 10
194.1995914649491
 20
16.22819223482981
 30
0.0
 10
194.2388086183039
 20
16.23346029773594
 30
0.0
 10
194.2120263698492
 20
16.19253380793491
 30
0.0
 10
194.1708111001724
 20
16.20371204538109
 30
0.0
 10
194.1782641540875
 20
16.15867056192124
 30
0.0
 10
194.1742227952185
 20
16.11412278028144
 30
0.0
 10
194.176171404964
 20
16.04223572621703
 30
0.0
 10
194.1752364849759
 20
15.96168630588771
 30
0.0
 10
194.176510719003
 20
15.88173995404994
 30
0.0
 10
194.1732043793865
 20
15.80841837083183
 30
0.0
 10
194.1802106179961
 20
15.76688643002568
 30
0.0
 10
194.1701440380127
 20
15.72752418568112
 30
0.0
 10
194.2029814803922
 20
15.73468063430981
 30
0.0
 10
194.2364577296482
 20
15.73027243137944
 30
0.0
 10
194.2915053476019
 20
15.73217943347897
 30
0.0
 10
194.3489502595316
 20
15.73185366407289
 30
0.0
 10
194.402302624831
 20
15.73106308733081
 30
0.0
 10
194.4398540896639
 20
15.73313959118074
 30
0.0
 10
194.4623172523238
 20
15.73022338167108
 30
0.0
 10
194.4751678073731
 20
15.73572552644056
 30
0.0
 10
194.4858255685888
 20
15.73801118197791
 30
0.0
 10
194.4986635650144
 20
15.74494972588053
 30
0.0
 10
194.514599103307
 20
15.72853046313672
 30
0.0
 10
194.5410623920892
 20
15.71709122319449
 30
0.0
 10
194.5726805253757
 20
15.6964468783519
 30
0.0
 10
194.5987255892151
 20
15.68116869628295
 30
0.0
 10
194.6128517723973
 20
15.67266976323184
 30
0.0
 10
194.6170254148479
 20
15.67015871511028
 30
0.0
 11
194.6170254148479
 21
15.67015871511028
 31
0.0
 11
194.6049990002243
 21
15.65473571164188
 31
0.0
 11
194.5848961795565
 21
15.64337406233916
 31
0.0
 11
194.4778986355813
 21
15.42440620231159
 31
0.0
 11
194.3477039934325
 21
15.21317201512161
 31
0.0
 11
194.1996540366071
 21
15.0120605902748
 31
0.0
 11
194.2734958253735
 21
14.96147384935379
 31
0.0
 11
194.36056643118
 21
14.89988411653739
 31
0.0
 11
194.4518003750404
 21
14.83413160594425
 31
0.0
 11
194.5381321779687
 21
14.77105653169304
 31
0.0
 11
194.6104963609787
 21
14.71749910790241
 31
0.0
 11
194.6598274450843
 21
14.68029954869104
 31
0.0
 11
194.6486940702213
 21
14.66471410869494
 31
0.0
 11
194.6221452532403
 21
14.62754882870424
 31
0.0
 11
194.5904579555533
 21
14.58319026871533
 31
0.0
 11
194.5639091385723
 21
14.54602498872462
 31
0.0
 11
194.5527757637093
 21
14.53043954872852
 31
0.0
 11
194.4807013362947
 21
14.59754008690617
 31
0.0
 11
194.3852856985381
 21
14.67993354174669
 31
0.0
 11
194.279326415217
 21
14.76785017366916
 31
0.0
 11
194.1756210511091
 21
14.85152024309268
 31
0.0
 11
194.1756210511091
 21
14.83304687900864
 31
0.0
 11
194.1756210511091
 21
14.78162102763956
 31
0.0
 11
194.1756210511091
 21
14.70323405030999
 31
0.0
 11
194.1756210511091
 21
14.60387730834449
 31
0.0
 11
194.1756210511091
 21
14.48954216306761
 31
0.0
 11
194.1756210511091
 21
14.36621997580389
 31
0.0
 11
194.1756210511091
 21
14.2399021078779
 31
0.0
 11
194.1756210511091
 21
14.11657992061419
 31
0.0
 11
194.1756210511091
 21
14.0022447753373
 31
0.0
 11
194.1756210511091
 21
13.9028880333718
 31
0.0
 11
194.1756210511091
 21
13.82450105604223
 31
0.0
 11
194.1756210511091
 21
13.77307520467316
 31
0.0
 11
194.1756210511091
 21
13.75460184058912
 31
0.0
 11
194.1569720893627
 21
13.75460184058912
 31
0.0
 11
194.112501488275
 21
13.75460184058912
 31
0.0
 11
194.0594236740736
 21
13.75460184058912
 31
0.0
 11
194.0149530729859
 21
13.75460184058912
 31
0.0
 11
193.9963041112395
 21
13.75460184058912
 31
0.0
 11
193.9963041112395
 21
13.77486797460219
 31
0.0
 11
193.9963041112395
 21
13.83089787452066
 31
0.0
 11
193.9963041112395
 21
13.91553878716347
 31
0.0
 11
193.9963041112395
 21
14.02163795934953
 31
0.0
 11
193.9963041112395
 21
14.14204263789775
 31
0.0
 11
193.9963041112395
 21
14.26960006962705
 31
0.0
 11
193.9963041112395
 21
14.39715750135636
 31
0.0
 11
193.9963041112395
 21
14.51756217990458
 31
0.0
 11
193.9963041112395
 21
14.62366135209064
 31
0.0
 11
193.9963041112395
 21
14.70830226473344
 31
0.0
 11
193.9963041112395
 21
14.76433216465193
 31
0.0
 11
193.9963041112395
 21
14.78459829866499
 31
0.0
 11
193.7883272849482
 21
14.59331998274057
 31
0.0
 11
193.5763486358425
 21
14.43414885430811
 31
0.0
 11
193.5495629014482
 21
14.48814671952096
 31
0.0
 11
193.5138765415024
 21
14.54689140572026
 31
0.0
 11
193.4799697494124
 21
14.59192871537975
 31
0.0
 11
193.6830287742319
 21
14.73563387201052
 31
0.0
 11
193.881853195826
 21
14.91168423529987
 31
0.0
 11
194.0677041444178
 21
15.11327514524949
 31
0.0
 11
194.2318427502303
 21
15.33360194186108
 31
0.0
 11
194.3655301434864
 21
15.56585996513634
 31
0.0
 11
194.3465256724482
 21
15.56585996513634
 31
0.0
 11
194.2944166389562
 21
15.56585996513634
 31
0.0
 11
194.2165596124447
 21
15.56585996513634
 31
0.0
 11
194.1203111623479
 21
15.56585996513634
 31
0.0
 11
194.0130278580997
 21
15.56585996513634
 31
0.0
 11
193.9020662691345
 21
15.56585996513634
 31
0.0
 11
193.7947829648865
 21
15.56585996513634
 31
0.0
 11
193.6985345147896
 21
15.56585996513634
 31
0.0
 11
193.6206774882781
 21
15.56585996513634
 31
0.0
 11
193.5685684547861
 21
15.56585996513634
 31
0.0
 11
193.5495639837479
 21
15.56585996513634
 31
0.0
 11
193.5495639837479
 21
15.58311199790981
 31
0.0
 11
193.5495639837479
 21
15.62425146067731
 31
0.0
 11
193.5495639837479
 21
15.67335340010949
 31
0.0
 11
193.5495639837479
 21
15.71449286287698
 31
0.0
 11
193.5495639837479
 21
15.73174489565045
 31
0.0
 11
193.568759848601
 21
15.73174489565045
 31
0.0
 11
193.6193671286684
 21
15.73174489565045
 31
0.0
 11
193.690915352212
 21
15.73174489565045
 31
0.0
 11
193.7729340474937
 21
15.73174489565045
 31
0.0
 11
193.8549527427754
 21
15.73174489565045
 31
0.0
 11
193.9265009663189
 21
15.73174489565045
 31
0.0
 11
193.9771082463864
 21
15.73174489565045
 31
0.0
 11
193.9963041112395
 21
15.73174489565045
 31
0.0
 11
193.9963041112395
 21
15.74926552655218
 31
0.0
 11
193.9963041112395
 21
15.79622081736882
 31
0.0
 11
193.9963041112395
 21
15.86420086526753
 31
0.0
 11
193.9963041112395
 21
15.94479576741549
 31
0.0
 11
193.9963041112395
 21
16.02959562097986
 31
0.0
 11
193.9963041112395
 21
16.11019052312782
 31
0.0
 11
193.9963041112395
 21
16.17817057102653
 31
0.0
 11
193.9963041112395
 21
16.22512586184317
 31
0.0
 11
193.9963041112395
 21
16.2426464927449
 31
0.0
 11
194.0135484112111
 21
16.24165806167519
 31
0.0
 11
194.0566591611401
 21
16.23918698400092
 31
0.0
 11
194.1127031360477
 21
16.23597458302436
 31
0.0
 11
194.1687471109553
 21
16.2327621820478
 31
0.0
 11
194.2118578608843
 21
16.23029110437353
 31
0.0
 11
194.2291021608559
 21
16.22930267330382
 31
0.0
 11
194.2143774674851
 21
16.20556293372641
 31
0.0
 11
194.1756210511091
 21
16.19183767331312
 31
0.0
 11
194.1756210511091
 21
16.17206806177293
 31
0.0
 11
194.1756210511091
 21
16.11994817680333
 31
0.0
 11
194.1756210511091
 21
16.04626144288079
 31
0.0
 11
194.1756210511091
 21
15.96179128448179
 31
0.0
 11
194.1756210511091
 21
15.87732112608278
 31
0.0
 11
194.1756210511091
 21
15.80363439216024
 31
0.0
 11
194.1756210511091
 21
15.75151450719064
 31
0.0
 11
194.1756210511091
 21
15.73174489565045
 31
0.0
 11
194.1916227112937
 21
15.73174489565045
 31
0.0
 11
194.2328901507171
 21
15.73174489565045
 31
0.0
 11
194.2893170576838
 21
15.73174489565045
 31
0.0
 11
194.3507971204982
 21
15.73174489565045
 31
0.0
 11
194.4072240274649
 21
15.73174489565045
 31
0.0
 11
194.4484914668883
 21
15.73174489565045
 31
0.0
 11
194.4644931270729
 21
15.73174489565045
 31
0.0
 11
194.4728206422925
 21
15.73451387455921
 31
0.0
 11
194.4882860277004
 21
15.73965626396118
 31
0.0
 11
194.49661354292
 21
15.74242524286994
 31
0.0
 11
194.5091363776005
 21
15.73490952398294
 31
0.0
 11
194.5389985218386
 21
15.71698742509854
 31
0.0
 11
194.5746404359293
 21
15.69559653288168
 31
0.0
 11
194.6045025801674
 21
15.67767443399729
 31
0.0
 11
194.6170254148479
 21
15.67015871511028
 31
0.0
  0
SPLINE
  5
B1
102
{ACAD_REACTORS
330
CE
102
}
330
48
100
AcDbEntity
  8
_U_30EC_U_30A4_U_30E4_U_30FC_1
  6
Continuous
 62
     2
100
AcDbSpline
210
0.0
220
0.0
230
1.0
 70
    11
 71
     3
 72
   124
 73
   120
 74
   118
 42
0.000000001
 43
0.0000000001
 44
0.00000001
 40
0.0
 40
0.0
 40
0.0
 40
0.0
 40
0.027818722962451
 40
0.1011590162384269
 40
0.2048470170590239
 40
0.3237088716559245
 40
0.4425707262522
 40
0.5462587270699547
 40
0.6195990203311798
 40
0.647417752257866
 40
0.6750060736115224
 40
0.7357003855242759
 40
0.7963946998054492
 40
0.8239830245571784
 40
0.8540933811102878
 40
0.9373396629409558
 40
1.063094687343237
 40
1.220731268638075
 40
1.399622220914749
 40
1.589140358637734
 40
1.7786584964239
 40
1.957549448940511
 40
2.11518603087316
 40
2.240941056914465
 40
2.324187341760534
 40
2.354297700109384
 40
2.38188602467189
 40
2.442580338710479
 40
2.503274652750503
 40
2.53086297731461
 40
2.560983949278563
 40
2.640393784452908
 40
2.752662861759132
 40
2.881361560118148
 40
3.010060258455195
 40
3.122329335705342
 40
3.201739170817956
 40
3.231860142753317
 40
3.264298024030372
 40
3.352343701778243
 40
3.482095226868764
 40
3.639650650173022
 40
3.811108022565477
 40
3.982565394927982
 40
4.140120818152561
 40
4.269872343141269
 40
4.357918020802329
 40
4.390355902043958
 40
4.423256253992528
 40
4.508104530073049
 40
4.624121560636817
 40
4.750528176031573
 40
4.86654520660202
 40
4.951393482691977
 40
4.984293834645379
 40
5.011450833242296
 40
5.071196230152085
 40
5.130941627057164
 40
5.158098625648832
 40
5.190998977601523
 40
5.275847253689348
 40
5.391864284256783
 40
5.518270899648328
 40
5.634287930209367
 40
5.719136206288041
 40
5.752036558235928
 40
5.782130946282954
 40
5.862783906229127
 40
5.979550131774993
 40
6.117984316640396
 40
6.26364115458794
 40
6.402075339414144
 40
6.518841564907937
 40
6.599494524815518
 40
6.629588912848756
 40
6.654403028226332
 40
6.713575149488099
 40
6.784199939329416
 40
6.843372060493518
 40
6.868186175802764
 40
6.896246243201814
 40
6.939586233758261
 40
6.967846564564889
 40
7.043584251089827
 40
7.153234334451689
 40
7.283231855734442
 40
7.420011856035476
 40
7.550009376579828
 40
7.659659458835227
 40
7.735397144417224
 40
7.763657474851396
 40
7.796409728011053
 40
7.880876065096327
 40
7.996370852465713
 40
8.122208446418608
 40
8.237703224799201
 40
8.322169562010895
 40
8.354921815205909
 40
8.382078813307691
 40
8.441824209207
 40
8.501569605240155
 40
8.528726603485735
 40
8.561478856695784
 40
8.645945193877834
 40
8.761439980865346
 40
8.887277580764488
 40
9.002772362001009
 40
9.08723869666123
 40
9.119990949235683
 40
9.152428830613381
 40
9.240474508638597
 40
9.370226034149544
 40
9.527781457984426
 40
9.699238830981415
 40
9.870696203978603
 40
10.02825162781402
 40
10.15800315332564
 40
10.24604883135119
 40
10.27848670378521
 40
10.27848670378521
 40
10.27848670378521
 40
10.27848670378521
 10
195.3821827564383
 20
14.01410517385757
 30
0.0
 10
195.3914554737523
 20
14.01410498511274
 30
0.0
 10
195.4251744536861
 20
14.01410430876714
 30
0.0
 10
195.4934706812465
 20
14.01411807243305
 30
0.0
 10
195.592014171158
 20
14.01403224219544
 30
0.0
 10
195.7062066464812
 20
14.01441755612251
 30
0.0
 10
195.818589441707
 20
14.01300835897545
 30
0.0
 10
195.9214376600118
 20
14.01719117422243
 30
0.0
 10
195.9806839874849
 20
14.00823089251983
 30
0.0
 10
196.0371265937032
 20
14.02164434526061
 30
0.0
 10
196.0246255586955
 20
13.97087198613361
 30
0.0
 10
196.0329549635704
 20
13.92589320939067
 30
0.0
 10
196.0248170841119
 20
13.88056752990488
 30
0.0
 10
196.0370529214457
 20
13.82931932408466
 30
0.0
 10
195.9747773490333
 20
13.84447955365276
 30
0.0
 10
195.9060513026868
 20
13.83359750710742
 30
0.0
 10
195.7782756749592
 20
13.83911304747972
 30
0.0
 10
195.6262984511643
 20
13.83700851253698
 30
0.0
 10
195.4502695972523
 20
13.83771002588473
 30
0.0
 10
195.2644431934287
 20
13.83745237531291
 30
0.0
 10
195.0786167437175
 20
13.83771005144602
 30
0.0
 10
194.9025880142168
 20
13.83700841847731
 30
0.0
 10
194.7506104154195
 20
13.83911332229989
 30
0.0
 10
194.6228357664554
 20
13.8335968076764
 30
0.0
 10
194.554107783658
 20
13.84448077125942
 30
0.0
 10
194.4918349042883
 20
13.82931786684209
 30
0.0
 10
194.5040616290017
 20
13.88057510805171
 30
0.0
 10
194.4960004462597
 20
13.92582473272425
 30
0.0
 10
194.5040675809892
 20
13.97106357955323
 30
0.0
 10
194.4918238487083
 20
14.02234176909958
 30
0.0
 10
194.5525017120697
 20
14.00749577363134
 30
0.0
 10
194.6162810745736
 20
14.01756448170735
 30
0.0
 10
194.7277314353502
 20
14.01294644211999
 30
0.0
 10
194.8497533443824
 20
14.01413328905469
 30
0.0
 10
194.9719538137823
 20
14.01515863900634
 30
0.0
 10
195.0829794287392
 20
14.01092475623401
 30
0.0
 10
195.1476517413958
 20
14.02018584521739
 30
0.0
 10
195.2091162810501
 20
14.00604423049682
 30
0.0
 10
195.1930065601337
 20
14.07235527884517
 30
0.0
 10
195.2042980327358
 20
14.14447790121975
 30
0.0
 10
195.198740082256
 20
14.27513760888285
 30
0.0
 10
195.200803506169
 20
14.42607323708241
 30
0.0
 10
195.2000167127295
 20
14.59335873107885
 30
0.0
 10
195.2007845215628
 20
14.76061110332302
 30
0.0
 10
195.1988038785628
 20
14.91163289269912
 30
0.0
 10
195.2041306156621
 20
15.04206069552994
 30
0.0
 10
195.1933101388425
 20
15.11465442605898
 30
0.0
 10
195.2090326429875
 20
15.18150469436797
 30
0.0
 10
195.143270813249
 20
15.16580512490823
 30
0.0
 10
195.0756367830764
 20
15.17609243083994
 30
0.0
 10
194.9615885293809
 20
15.17113786847121
 30
0.0
 10
194.8451242674902
 20
15.17414128030474
 30
0.0
 10
194.7306554121477
 20
15.16880303143387
 30
0.0
 10
194.6640324657812
 20
15.18001268074824
 30
0.0
 10
194.5990769715185
 20
15.1634913266501
 30
0.0
 10
194.6107989758708
 20
15.21473720477058
 30
0.0
 10
194.6032830189121
 20
15.25950333784091
 30
0.0
 10
194.6107989878835
 20
15.30426944897961
 30
0.0
 10
194.5990769505346
 20
15.35551536129741
 30
0.0
 10
194.66403263392
 20
15.33899381766816
 30
0.0
 10
194.7306533339822
 20
15.35020571373943
 30
0.0
 10
194.8451352858063
 20
15.34485436710665
 30
0.0
 10
194.9615454436962
 20
15.34791188771117
 30
0.0
 10
195.0757660174641
 20
15.34278499010708
 30
0.0
 10
195.1430150439226
 20
15.35345733355599
 30
0.0
 10
195.2083325941438
 20
15.33742082669077
 30
0.0
 10
195.1941391448552
 20
15.39949685750054
 30
0.0
 10
195.2036059462994
 20
15.46586761628762
 30
0.0
 10
195.1990269004085
 20
15.58239972741966
 30
0.0
 10
195.2007696555947
 20
15.71426685022375
 30
0.0
 10
195.1997551495392
 20
15.85615960150273
 30
0.0
 10
195.2017191344372
 20
15.98769050702579
 30
0.0
 10
195.1964668553852
 20
16.10524577283001
 30
0.0
 10
195.2073408763474
 20
16.16947789001583
 30
0.0
 10
195.1919536641853
 20
16.23108802545046
 30
0.0
 10
195.24075915378
 20
16.2170240738211
 30
0.0
 10
195.2853995564726
 20
16.21954742075313
 30
0.0
 10
195.3538643946742
 20
16.2151279740171
 30
0.0
 10
195.3959106169102
 20
16.20613025544034
 30
0.0
 10
195.4487544758775
 20
16.21411714866512
 30
0.0
 10
195.4207035002014
 20
16.17113917611669
 30
0.0
 10
195.3749142248594
 20
16.1825955204384
 30
0.0
 10
195.3869539073265
 20
16.12173520005138
 30
0.0
 10
195.3796086070641
 20
16.05769299468774
 30
0.0
 10
195.3831195826161
 20
15.94909368863911
 30
0.0
 10
195.3819806760173
 20
15.82494319144753
 30
0.0
 10
195.3819174780262
 20
15.69189719829878
 30
0.0
 10
195.3832872966868
 20
15.56797381249556
 30
0.0
 10
195.3791638801313
 20
15.45868337849338
 30
0.0
 10
195.3877763103564
 20
15.39608580094169
 30
0.0
 10
195.3746757454402
 20
15.33740133296365
 30
0.0
 10
195.4393884328198
 20
15.35362113810902
 30
0.0
 10
195.5060405953156
 20
15.34270260383311
 30
0.0
 10
195.6198779541102
 20
15.34793740173756
 30
0.0
 10
195.7357259122097
 20
15.34485547516913
 30
0.0
 10
195.849692426328
 20
15.35018259812512
 30
0.0
 10
195.9160341018099
 20
15.33904208166543
 30
0.0
 10
195.980718852548
 20
15.35546979593178
 30
0.0
 10
195.9689820772722
 20
15.3042592521005
 30
0.0
 10
195.976516806304
 20
15.25950334121
 30
0.0
 10
195.9689820992258
 20
15.21474739010026
 30
0.0
 10
195.9807188140736
 20
15.16353690871039
 30
0.0
 10
195.9160344075252
 20
15.17996427794219
 30
0.0
 10
195.8496886430824
 20
15.16882784447268
 30
0.0
 10
195.7357459487012
 20
15.17413115893119
 30
0.0
 10
195.6197995623054
 20
15.17114764593543
 30
0.0
 10
195.5062756882122
 20
15.17606892268392
 30
0.0
 10
195.4389231318804
 20
15.16585087513518
 30
0.0
 10
195.3734285122495
 20
15.18145996138814
 30
0.0
 10
195.3891713619218
 20
15.1146385182741
 30
0.0
 10
195.3783275998213
 20
15.04207057815878
 30
0.0
 10
195.3836581629793
 20
14.91162247614415
 30
0.0
 10
195.3817136151855
 20
14.76064558185225
 30
0.0
 10
195.3823133683215
 20
14.59322243934158
 30
0.0
 10
195.3821506559604
 20
14.42656176118371
 30
0.0
 10
195.3821895488136
 20
14.27360142921636
 30
0.0
 10
195.3821816413099
 20
14.14849178985705
 30
0.0
 10
195.3821828382744
 20
14.06507890991419
 30
0.0
 10
195.3821827716208
 20
14.02491778281976
 30
0.0
 10
195.3821827564383
 20
14.01410517385757
 30
0.0
 11
195.3821827564383
 21
14.01410517385757
 31
0.0
 11
195.4100014883675
 21
14.01410517385757
 31
0.0
 11
195.4833417816353
 21
14.01410517385757
 31
0.0
 11
195.5870297824622
 21
14.01410517385757
 31
0.0
 11
195.7058916370687
 21
14.01410517385757
 31
0.0
 11
195.8247534916751
 21
14.01410517385757
 31
0.0
 11
195.928441492502
 21
14.01410517385757
 31
0.0
 11
196.0017817857698
 21
14.01410517385757
 31
0.0
 11
196.029600517699
 21
14.01410517385757
 31
0.0
 11
196.029600517699
 21
13.9865168492117
 31
0.0
 11
196.029600517699
 21
13.92582253499077
 31
0.0
 11
196.029600517699
 21
13.86512822076984
 31
0.0
 11
196.029600517699
 21
13.83753989612397
 31
0.0
 11
195.9994901593494
 21
13.83753989612397
 31
0.0
 11
195.9162438745004
 21
13.83753989612397
 31
0.0
 11
195.7904888484521
 21
13.83753989612397
 31
0.0
 11
195.6328522665041
 21
13.83753989612397
 31
0.0
 11
195.4539613139564
 21
13.83753989612397
 31
0.0
 11
195.2644431761089
 21
13.83753989612397
 31
0.0
 11
195.0749250382613
 21
13.83753989612397
 31
0.0
 11
194.8960340857136
 21
13.83753989612397
 31
0.0
 11
194.7383975037656
 21
13.83753989612397
 31
0.0
 11
194.6126424777172
 21
13.83753989612397
 31
0.0
 11
194.5293961928683
 21
13.83753989612397
 31
0.0
 11
194.4992858345187
 21
13.83753989612397
 31
0.0
 11
194.4992858345187
 21
13.86512822076984
 31
0.0
 11
194.4992858345187
 21
13.92582253499077
 31
0.0
 11
194.4992858345187
 21
13.9865168492117
 31
0.0
 11
194.4992858345187
 21
14.01410517385757
 31
0.0
 11
194.5294068064947
 21
14.01410517385757
 31
0.0
 11
194.608816641704
 21
14.01410517385757
 31
0.0
 11
194.721085719069
 21
14.01410517385757
 31
0.0
 11
194.8497844175118
 21
14.01410517385757
 31
0.0
 11
194.9784831159545
 21
14.01410517385757
 31
0.0
 11
195.0907521933195
 21
14.01410517385757
 31
0.0
 11
195.1701620285289
 21
14.01410517385757
 31
0.0
 11
195.2002830005048
 21
14.01410517385757
 31
0.0
 11
195.2002830005048
 21
14.04654305523835
 31
0.0
 11
195.2002830005048
 21
14.1345887332719
 31
0.0
 11
195.2002830005048
 21
14.26434025879502
 31
0.0
 11
195.2002830005048
 21
14.42189568264453
 31
0.0
 11
195.2002830005048
 21
14.59335305565723
 31
0.0
 11
195.2002830005048
 21
14.76481042866993
 31
0.0
 11
195.2002830005048
 21
14.92236585251944
 31
0.0
 11
195.2002830005048
 21
15.05211737804256
 31
0.0
 11
195.2002830005048
 21
15.14016305607611
 31
0.0
 11
195.2002830005048
 21
15.17260093745689
 31
0.0
 11
195.1673826485529
 21
15.17260093745689
 31
0.0
 11
195.0825343724662
 21
15.17260093745689
 31
0.0
 11
194.9665173418988
 21
15.17260093745689
 31
0.0
 11
194.8401107265044
 21
15.17260093745689
 31
0.0
 11
194.724093695937
 21
15.17260093745689
 31
0.0
 11
194.6392454198503
 21
15.17260093745689
 31
0.0
 11
194.6063450678984
 21
15.17260093745689
 31
0.0
 11
194.6063450678984
 21
15.19975793614802
 31
0.0
 11
194.6063450678984
 21
15.2595033332685
 31
0.0
 11
194.6063450678984
 21
15.31924873038897
 31
0.0
 11
194.6063450678984
 21
15.3464057290801
 31
0.0
 11
194.6392454198504
 21
15.3464057290801
 31
0.0
 11
194.724093695937
 21
15.3464057290801
 31
0.0
 11
194.8401107265044
 21
15.3464057290801
 31
0.0
 11
194.9665173418988
 21
15.3464057290801
 31
0.0
 11
195.0825343724662
 21
15.3464057290801
 31
0.0
 11
195.1673826485529
 21
15.3464057290801
 31
0.0
 11
195.2002830005048
 21
15.3464057290801
 31
0.0
 11
195.2002830005048
 21
15.3765001173137
 31
0.0
 11
195.2002830005048
 21
15.45715307777973
 31
0.0
 11
195.2002830005048
 21
15.57391930412609
 31
0.0
 11
195.2002830005048
 21
15.71235349000063
 31
0.0
 11
195.2002830005048
 21
15.85801032905123
 31
0.0
 11
195.2002830005048
 21
15.99644451492577
 31
0.0
 11
195.2002830005048
 21
16.11321074127213
 31
0.0
 11
195.2002830005048
 21
16.19386370173816
 31
0.0
 11
195.2002830005048
 21
16.22395808997176
 31
0.0
 11
195.2250405288618
 21
16.22228324219441
 31
0.0
 11
195.2840777118669
 21
16.21828937441764
 31
0.0
 11
195.3545414464214
 21
16.21352249997441
 31
0.0
 11
195.4135786294265
 21
16.20952863219764
 31
0.0
 11
195.4383361577835
 21
16.20785378442029
 31
0.0
 11
195.4233067224031
 21
16.1841581420651
 31
0.0
 11
195.3821827564383
 21
16.17047697887405
 31
0.0
 11
195.3821827564383
 21
16.14221664794833
 31
0.0
 11
195.3821827564383
 21
16.06647896106741
 31
0.0
 11
195.3821827564383
 21
15.95682887707562
 31
0.0
 11
195.3821827564383
 21
15.82683135481731
 31
0.0
 11
195.3821827564383
 21
15.69005135313683
 31
0.0
 11
195.3821827564383
 21
15.56005383087853
 31
0.0
 11
195.3821827564383
 21
15.45040374688675
 31
0.0
 11
195.3821827564383
 21
15.37466606000582
 31
0.0
 11
195.3821827564383
 21
15.3464057290801
 31
0.0
 11
195.4149350096115
 21
15.3464057290801
 31
0.0
 11
195.4994013467422
 21
15.3464057290801
 31
0.0
 11
195.6148961342476
 21
15.3464057290801
 31
0.0
 11
195.7407337385445
 21
15.3464057290801
 31
0.0
 11
195.8562285260498
 21
15.3464057290801
 31
0.0
 11
195.9406948631806
 21
15.3464057290801
 31
0.0
 11
195.9734471163538
 21
15.3464057290801
 31
0.0
 11
195.9734471163538
 21
15.31924873038897
 31
0.0
 11
195.9734471163538
 21
15.2595033332685
 31
0.0
 11
195.9734471163538
 21
15.19975793614802
 31
0.0
 11
195.9734471163538
 21
15.17260093745689
 31
0.0
 11
195.9406948631806
 21
15.17260093745689
 31
0.0
 11
195.8562285260498
 21
15.17260093745689
 31
0.0
 11
195.7407337385445
 21
15.17260093745689
 31
0.0
 11
195.6148961342476
 21
15.17260093745689
 31
0.0
 11
195.4994013467422
 21
15.17260093745689
 31
0.0
 11
195.4149350096114
 21
15.17260093745689
 31
0.0
 11
195.3821827564383
 21
15.17260093745689
 31
0.0
 11
195.3821827564383
 21
15.14016305607611
 31
0.0
 11
195.3821827564383
 21
15.05211737804256
 31
0.0
 11
195.3821827564383
 21
14.92236585251944
 31
0.0
 11
195.3821827564383
 21
14.76481042866993
 31
0.0
 11
195.3821827564383
 21
14.59335305565723
 31
0.0
 11
195.3821827564383
 21
14.42189568264453
 31
0.0
 11
195.3821827564383
 21
14.26434025879503
 31
0.0
 11
195.3821827564383
 21
14.1345887332719
 31
0.0
 11
195.3821827564383
 21
14.04654305523835
 31
0.0
 11
195.3821827564383
 21
14.01410517385757
 31
0.0
  0
SPLINE
  5
B2
102
{ACAD_REACTORS
330
CF
102
}
330
48
100
AcDbEntity
  8
_U_30EC_U_30A4_U_30E4_U_30FC_1
  6
Continuous
 62
     2
100
AcDbSpline
210
0.0
220
0.0
230
1.0
 70
     8
 71
     3
 72
    62
 73
    58
 74
    56
 42
0.000000001
 43
0.0000000001
 44
0.00000001
 40
0.0
 40
0.0
 40
0.0
 40
0.0
 40
0.0598250028308769
 40
0.20248464868979
 40
0.3727558389221599
 40
0.5154154847936923
 40
0.5752404975786476
 40
0.9332326775488383
 40
1.290451762839583
 40
1.602077253145976
 40
1.699931634112233
 40
1.799359756425155
 40
2.270120149657195
 40
2.804661928461663
 40
2.882342287383376
 40
3.076543185719226
 40
3.329004354835693
 40
3.58146552456852
 40
3.775666424543808
 40
3.853346784558428
 40
3.899120679595173
 40
3.984129341792171
 40
4.029903236817519
 40
4.105797496059676
 40
4.295533144152635
 40
4.542189486611877
 40
4.788845828875823
 40
4.978581476410209
 40
5.054475735244452
 40
5.62173466433947
 40
6.13086724203748
 40
6.225249780948725
 40
6.318913039727411
 40
6.663579954559037
 40
7.047498900224906
 40
7.435230791575878
 40
7.49894390666829
 40
7.650875181210313
 40
7.832212509001852
 40
7.984143783697266
 40
8.047856898903422
 40
8.091554632732928
 40
8.172707566964586
 40
8.216405300768308
 40
8.289021782161193
 40
8.462184160757566
 40
8.668861838005647
 40
8.842024215264239
 40
8.914640695475434
 40
8.989881580861642
 40
9.155411528827551
 40
9.32094147774434
 40
9.396182352487592
 40
9.45470901114414
 40
9.583467660171074
 40
9.712226309013353
 40
9.770752957989806
 40
9.770752957989806
 40
9.770752957989806
 40
9.770752957989806
 10
187.1521871691834
 20
14.93980288195949
 30
0.0
 10
187.1322348171624
 20
14.93980875568671
 30
0.0
 10
187.0647037716466
 20
14.93982863806156
 30
0.0
 10
186.9410612161789
 20
14.93949362520325
 30
0.0
 10
186.7863180150056
 20
14.9410767375051
 30
0.0
 10
186.669734948248
 20
14.93686078860494
 30
0.0
 10
186.4550942634241
 20
14.95215205331626
 30
0.0
 10
186.8518948407228
 20
14.59198721286192
 30
0.0
 10
186.8945656069267
 20
14.37510503397165
 30
0.0
 10
187.318916214661
 20
14.19325062511447
 30
0.0
 10
187.1439821496074
 20
14.08985196568073
 30
0.0
 10
187.0194523925083
 20
13.87831523212723
 30
0.0
 10
186.7666277235943
 20
14.34806081001563
 30
0.0
 10
186.4797602893627
 20
14.99511516984523
 30
0.0
 10
186.490633592666
 20
14.68782672154695
 30
0.0
 10
186.488289277796
 20
14.5228861697178
 30
0.0
 10
186.4861096126411
 20
14.28879670711694
 30
0.0
 10
186.4980774396346
 20
14.04498072421784
 30
0.0
 10
186.4687984740631
 20
13.89855796860985
 30
0.0
 10
186.511452262547
 20
13.75113490174538
 30
0.0
 10
186.4239814005639
 20
13.7668579730622
 30
0.0
 10
186.3768527606744
 20
13.76694303543455
 30
0.0
 10
186.2898973207713
 20
13.75109425482909
 30
0.0
 10
186.3313474021723
 20
13.89527771422763
 30
0.0
 10
186.3029875004285
 20
14.03855052698455
 30
0.0
 10
186.3145973775299
 20
14.27674947365265
 30
0.0
 10
186.3124175648272
 20
14.50517235240346
 30
0.0
 10
186.3103111127993
 20
14.66705729375994
 30
0.0
 10
186.3208035438324
 20
14.98153709333752
 30
0.0
 10
186.0128963252892
 20
14.29229470872436
 30
0.0
 10
185.7055258267457
 20
13.81476750243053
 30
0.0
 10
185.5851367066274
 20
14.03741112637426
 30
0.0
 10
185.4074607910722
 20
14.15011034955565
 30
0.0
 10
185.8853326362894
 20
14.32548143465461
 30
0.0
 10
185.9353959057208
 20
14.56091929252031
 30
0.0
 10
186.3583799621718
 20
14.95322989344607
 30
0.0
 10
186.1276754273541
 20
14.93655307029064
 30
0.0
 10
186.0049685859343
 20
14.9426951894877
 30
0.0
 10
185.8325483095661
 20
14.93312822699573
 30
0.0
 10
185.7213224694449
 20
14.95448818489665
 30
0.0
 10
185.6025779627448
 20
14.92136265357418
 30
0.0
 10
185.6183169706686
 20
15.00203900606882
 30
0.0
 10
185.6178550933763
 20
15.04645414290853
 30
0.0
 10
185.6027881889931
 20
15.12967081778532
 30
0.0
 10
185.7372380935443
 20
15.09062651983881
 30
0.0
 10
185.8619755545747
 20
15.11739729328421
 30
0.0
 10
186.062875523728
 20
15.10063949044051
 30
0.0
 10
186.1921540949353
 20
15.12204225913003
 30
0.0
 10
186.3328419928294
 20
15.08868778853419
 30
0.0
 10
186.2980927452614
 20
15.22651875785067
 30
0.0
 10
186.3222185666713
 20
15.3496325734948
 30
0.0
 10
186.2967086182391
 20
15.47024055670335
 30
0.0
 10
186.3333251146686
 20
15.60539865141495
 30
0.0
 10
186.2211417027769
 20
15.58094545781891
 30
0.0
 10
186.1280356457137
 20
15.59307749842022
 30
0.0
 10
186.0191547579819
 20
15.58957630069994
 30
0.0
 10
185.9569697640964
 20
15.58981755951603
 30
0.0
 10
185.9375369557246
 20
15.58989295124144
 30
0.0
 11
187.1521871691834
 21
14.93980288195949
 31
0.0
 11
187.0923621563983
 21
14.93980288195949
 31
0.0
 11
186.949702510526
 21
14.93980288195949
 31
0.0
 11
186.7794313202914
 21
14.93980288195949
 31
0.0
 11
186.6367716744192
 21
14.93980288195949
 31
0.0
 11
186.576946661634
 21
14.93980288195949
 31
0.0
 11
186.7679960754842
 21
14.6370512796689
 31
0.0
 11
186.994127278563
 21
14.36051890576684
 31
0.0
 11
187.2244526173371
 21
14.15061253493458
 31
0.0
 11
187.1521596330704
 21
14.08466403668717
 31
0.0
 11
187.0879364402643
 21
14.0087605905256
 31
0.0
 11
186.7732818215558
 21
14.35891458349363
 31
0.0
 11
186.4886640249976
 21
14.81138295143602
 31
0.0
 11
186.4886640249976
 21
14.73370259137314
 31
0.0
 11
186.4886640249976
 21
14.53950169121594
 31
0.0
 11
186.4886640249976
 21
14.28704052101157
 31
0.0
 11
186.4886640249976
 21
14.03457935080721
 31
0.0
 11
186.4886640249976
 21
13.84037845065
 31
0.0
 11
186.4886640249976
 21
13.76269809058712
 31
0.0
 11
186.4428901295605
 21
13.76269809058712
 31
0.0
 11
186.3578814666058
 21
13.76269809058712
 31
0.0
 11
186.3121075711687
 21
13.76269809058712
 31
0.0
 11
186.3121075711687
 21
13.8385923498274
 31
0.0
 11
186.3121075711687
 21
14.02832799792811
 31
0.0
 11
186.3121075711687
 21
14.27498434045904
 31
0.0
 11
186.3121075711687
 21
14.52164068298996
 31
0.0
 11
186.3121075711687
 21
14.71137633109067
 31
0.0
 11
186.3121075711687
 21
14.78727059033095
 31
0.0
 11
185.9987626399266
 21
14.31440946197693
 31
0.0
 11
185.6352328662148
 21
13.95795177109382
 31
0.0
 11
185.5773927461627
 21
14.03253450545022
 31
0.0
 11
185.5094852305341
 21
14.09704322939241
 31
0.0
 11
185.7750721898319
 21
14.31672219795889
 31
0.0
 11
186.0233764972061
 21
14.60953395971697
 31
0.0
 11
186.2264982805261
 21
14.93980288195949
 31
0.0
 11
186.1627851652722
 21
14.93980288195949
 31
0.0
 11
186.010853890436
 21
14.93980288195949
 31
0.0
 11
185.8295165624056
 21
14.93980288195949
 31
0.0
 11
185.6775852875693
 21
14.93980288195949
 31
0.0
 11
185.6138721723154
 21
14.93980288195949
 31
0.0
 11
185.6138721723154
 21
14.98350061600207
 31
0.0
 11
185.6138721723154
 21
15.06465355065258
 31
0.0
 11
185.6138721723154
 21
15.10835128469516
 31
0.0
 11
185.6864886537961
 21
15.10835128469516
 31
0.0
 11
185.8596510327118
 21
15.10835128469516
 31
0.0
 11
186.0663287107723
 21
15.10835128469516
 31
0.0
 11
186.239491089688
 21
15.10835128469516
 31
0.0
 11
186.3121075711687
 21
15.10835128469516
 31
0.0
 11
186.3121075711687
 21
15.18359217009302
 31
0.0
 11
186.3121075711687
 21
15.3491221179683
 31
0.0
 11
186.3121075711687
 21
15.51465206584358
 31
0.0
 11
186.3121075711687
 21
15.58989295124144
 31
0.0
 11
186.2535809125055
 21
15.58989295124144
 31
0.0
 11
186.1248222634467
 21
15.58989295124144
 31
0.0
 11
185.9960636143877
 21
15.58989295124144
 31
0.0
 11
185.9375369557246
 21
15.58989295124144
 31
0.0
  0
SPLINE
  5
B3
102
{ACAD_REACTORS
330
CF
102
}
330
48
100
AcDbEntity
  8
_U_30EC_U_30A4_U_30E4_U_30FC_1
  6
Continuous
 62
     2
100
AcDbSpline
210
0.0
220
0.0
230
1.0
 70
     8
 71
     3
 72
    70
 73
    66
 74
    64
 42
0.000000001
 43
0.0000000001
 44
0.00000001
 40
0.0
 40
0.0
 40
0.0
 40
0.0
 40
0.0241731073021472
 40
0.0846058988987013
 40
0.1631685280353284
 40
0.2417311571789756
 40
0.3021639488292751
 40
0.3263370654895541
 40
0.3533118254248899
 40
0.4228783438922129
 40
0.5179999095313438
 40
0.6216398239466173
 40
0.7167613891499777
 40
0.786327906964997
 40
0.8133026791761943
 40
0.837294399877178
 40
0.8945054261372976
 40
0.9627895541962745
 40
1.020000580349085
 40
1.043992300975183
 40
1.071934345522919
 40
1.113121768772933
 40
1.145225199332257
 40
1.225483775412792
 40
1.329819923771501
 40
1.434156071994391
 40
1.514414647795812
 40
1.54651807820842
 40
1.578974764260193
 40
1.662678849314188
 40
1.777131373668409
 40
1.9018333774748
 40
2.01628590050059
 40
2.099989982527957
 40
2.132446666570315
 40
2.158782354486037
 40
2.216720867907828
 40
2.274659381334251
 40
2.300995069256185
 40
2.333451754066157
 40
2.417155836543838
 40
2.531608358985277
 40
2.656310362283772
 40
2.770762886388905
 40
2.85446697134007
 40
2.886923657363877
 40
2.91359797683331
 40
2.982389642875118
 40
3.076451716946982
 40
3.178937260458598
 40
3.272999334740003
 40
3.341791001059228
 40
3.368465320663541
 40
3.39697608073879
 40
3.472140811846026
 40
3.578408190308716
 40
3.700226892456181
 40
3.822045594634426
 40
3.928312973256562
 40
4.003477705314959
 40
4.031988456867024
 40
4.058324144797822
 40
4.116262658236984
 40
4.174201171400782
 40
4.200536849608715
 40
4.200536849608715
 40
4.200536849608715
 40
4.200536849608715
 10
185.9857704961609
 20
15.75844135397705
 30
0.0
 10
185.9938259544679
 20
15.75844359811686
 30
0.0
 10
186.0220200663241
 20
15.75845146032798
 30
0.0
 10
186.0765534803672
 20
15.75830754828372
 30
0.0
 10
186.1482891808604
 20
15.75909120499898
 30
0.0
 10
186.2236240137062
 20
15.75627570463811
 30
0.0
 10
186.2713052366439
 20
15.76298403400957
 30
0.0
 10
186.3195071245616
 20
15.75197563692432
 30
0.0
 10
186.3062571799873
 20
15.80546402997033
 30
0.0
 10
186.3151093964539
 20
15.86049583543092
 30
0.0
 10
186.3108698036285
 20
15.95419908726109
 30
0.0
 10
186.313348348128
 20
16.04959482218533
 30
0.0
 10
186.309093870606
 20
16.14356821983388
 30
0.0
 10
186.3179818665846
 20
16.19795062438012
 30
0.0
 10
186.3046977409945
 20
16.25233997691462
 30
0.0
 10
186.3514119277108
 20
16.23842216335358
 30
0.0
 10
186.3943254545736
 20
16.24103877374044
 30
0.0
 10
186.4605443456685
 20
16.23648422450756
 30
0.0
 10
186.5013342271799
 20
16.22778162134162
 30
0.0
 10
186.5525145690818
 20
16.23531799890196
 30
0.0
 10
186.52537204872
 20
16.19349970223285
 30
0.0
 10
186.4803096055707
 20
16.20284992072597
 30
0.0
 10
186.4942065045051
 20
16.13841207371837
 30
0.0
 10
186.4858414431654
 20
16.07378219627399
 30
0.0
 10
186.4903632178398
 20
15.97529141193887
 30
0.0
 10
186.4854741311167
 20
15.8759593284257
 30
0.0
 10
186.4950258992082
 20
15.81293115552969
 30
0.0
 10
186.47997614552
 20
15.74964011499788
 30
0.0
 10
186.5449159457208
 20
15.76515072944269
 30
0.0
 10
186.6116246399496
 20
15.75499387697812
 30
0.0
 10
186.7241435470828
 20
15.75988800099367
 30
0.0
 10
186.8390235448953
 20
15.75691204732783
 30
0.0
 10
186.9519871999747
 20
15.76221664184991
 30
0.0
 10
187.0176267597677
 20
15.75107306472089
 30
0.0
 10
187.0816276691053
 20
15.76744532319857
 30
0.0
 10
187.0703142889189
 20
15.71761689905274
 30
0.0
 10
187.077533987151
 20
15.67416715212123
 30
0.0
 10
187.0703142611268
 20
15.63071745587445
 30
0.0
 10
187.0816277175994
 20
15.58088895196876
 30
0.0
 10
187.0176263598971
 20
15.59726166091362
 30
0.0
 10
186.951992124046
 20
15.58611271661588
 30
0.0
 10
186.838997431733
 20
15.59144857206854
 30
0.0
 10
186.7242456548644
 20
15.58834345663822
 30
0.0
 10
186.611318368686
 20
15.59364894682588
 30
0.0
 10
186.5455220903585
 20
15.58257300019593
 30
0.0
 10
186.4816097975358
 20
15.59887597847618
 30
0.0
 10
186.4936015165126
 20
15.54423524395742
 30
0.0
 10
186.4862104613005
 20
15.48854295047841
 30
0.0
 10
186.4892684841983
 20
15.3964968914057
 30
0.0
 10
186.4893422785682
 20
15.301791098731
 30
0.0
 10
186.4860313578361
 20
15.20952782902265
 30
0.0
 10
186.4939505989904
 20
15.15435768736138
 30
0.0
 10
186.4815076611617
 20
15.10058169100134
 30
0.0
 10
186.5389116551632
 20
15.1145376886278
 30
0.0
 10
186.5994708140383
 20
15.10511457884225
 30
0.0
 10
186.7048680855081
 20
15.10942885928704
 30
0.0
 10
186.8204294070623
 20
15.10835504612031
 30
0.0
 10
186.9359688877797
 20
15.10725965900993
 30
0.0
 10
187.0414181130843
 20
15.11162525770632
 30
0.0
 10
187.1018680471805
 20
15.10209426030669
 30
0.0
 10
187.1592837739111
 20
15.11617289606379
 30
0.0
 10
187.1477773876711
 20
15.06707153265681
 30
0.0
 10
187.1537566781749
 20
15.02564658018648
 30
0.0
 10
187.1520311050804
 20
14.97651677966694
 30
0.0
 10
187.1521500122972
 20
14.94854428447607
 30
0.0
 10
187.1521871691834
 20
14.93980288195949
 30
0.0
 11
185.9857704961609
 21
15.75844135397705
 31
0.0
 11
186.0099436128282
 21
15.75844135397705
 31
0.0
 11
186.0703764044962
 21
15.75844135397705
 31
0.0
 11
186.1489390336648
 21
15.75844135397705
 31
0.0
 11
186.2275016628334
 21
15.75844135397705
 31
0.0
 11
186.2879344545015
 21
15.75844135397705
 31
0.0
 11
186.3121075711687
 21
15.75844135397705
 31
0.0
 11
186.3121075711687
 21
15.78541612620063
 31
0.0
 11
186.3121075711687
 21
15.85498264404039
 31
0.0
 11
186.3121075711687
 21
15.95010420924986
 31
0.0
 11
186.3121075711687
 21
16.05374412358256
 31
0.0
 11
186.3121075711687
 21
16.14886568879203
 31
0.0
 11
186.3121075711687
 21
16.21843220663179
 31
0.0
 11
186.3121075711687
 21
16.24540697885537
 31
0.0
 11
186.3360407604892
 21
16.24373213107801
 31
0.0
 11
186.3931122119458
 21
16.23973826330122
 31
0.0
 11
186.461229750781
 21
16.23497138885796
 31
0.0
 11
186.5183012022376
 21
16.23097752108118
 31
0.0
 11
186.5422343915581
 21
16.22930267330382
 31
0.0
 11
186.5274972731229
 21
16.20556293372641
 31
0.0
 11
186.4886640249976
 21
16.19183767331312
 31
0.0
 11
186.4886640249976
 21
16.15973424225119
 31
0.0
 11
186.4886640249976
 21
16.07947566459636
 31
0.0
 11
186.4886640249976
 21
15.97513951364509
 31
0.0
 11
186.4886640249976
 21
15.87080336269381
 31
0.0
 11
186.4886640249976
 21
15.79054478503898
 31
0.0
 11
186.4886640249976
 21
15.75844135397705
 31
0.0
 11
186.5211207110824
 21
15.75844135397705
 31
0.0
 11
186.6048247962486
 21
15.75844135397705
 31
0.0
 11
186.7192773208634
 21
15.75844135397705
 31
0.0
 11
186.8439793252946
 21
15.75844135397705
 31
0.0
 11
186.9584318499095
 21
15.75844135397705
 31
0.0
 11
187.0421359350756
 21
15.75844135397705
 31
0.0
 11
187.0745926211604
 21
15.75844135397705
 31
0.0
 11
187.0745926211604
 21
15.73210566604961
 31
0.0
 11
187.0745926211604
 21
15.67416715260924
 31
0.0
 11
187.0745926211604
 21
15.61622863916888
 31
0.0
 11
187.0745926211604
 21
15.58989295124144
 31
0.0
 11
187.0421359350756
 21
15.58989295124144
 31
0.0
 11
186.9584318499095
 21
15.58989295124144
 31
0.0
 11
186.8439793252946
 21
15.58989295124144
 31
0.0
 11
186.7192773208634
 21
15.58989295124144
 31
0.0
 11
186.6048247962485
 21
15.58989295124144
 31
0.0
 11
186.5211207110824
 21
15.58989295124144
 31
0.0
 11
186.4886640249976
 21
15.58989295124144
 31
0.0
 11
186.4886640249976
 21
15.56321863152022
 31
0.0
 11
186.4886640249976
 21
15.49442696487075
 31
0.0
 11
186.4886640249976
 21
15.40036489006433
 31
0.0
 11
186.4886640249976
 21
15.29787934587227
 31
0.0
 11
186.4886640249976
 21
15.20381727106585
 31
0.0
 11
186.4886640249976
 21
15.13502560441638
 31
0.0
 11
186.4886640249976
 21
15.10835128469516
 31
0.0
 11
186.5171747850993
 21
15.10835128469516
 31
0.0
 11
186.5923395162767
 21
15.10835128469516
 31
0.0
 11
186.6986068948376
 21
15.10835128469516
 31
0.0
 11
186.8204255970905
 21
15.10835128469516
 31
0.0
 11
186.9422442993434
 21
15.10835128469516
 31
0.0
 11
187.0485116779044
 21
15.10835128469516
 31
0.0
 11
187.1236764090817
 21
15.10835128469516
 31
0.0
 11
187.1521871691834
 21
15.10835128469516
 31
0.0
 11
187.1521871691834
 21
15.08201559676771
 31
0.0
 11
187.1521871691834
 21
15.02407708332733
 31
0.0
 11
187.1521871691834
 21
14.96613856988694
 31
0.0
 11
187.1521871691834
 21
14.93980288195949
 31
0.0
  0
SPLINE
  5
B4
102
{ACAD_REACTORS
330
CF
102
}
330
48
100
AcDbEntity
  8
_U_30EC_U_30A4_U_30E4_U_30FC_1
  6
Continuous
 62
     2
100
AcDbSpline
210
0.0
220
0.0
230
1.0
 70
     8
 71
     3
 72
    24
 73
    20
 74
    18
 42
0.000000001
 43
0.0000000001
 44
0.00000001
 40
0.0
 40
0.0
 40
0.0
 40
0.0
 40
0.221107500875372
 40
0.4273218586245248
 40
0.5080174679239258
 40
0.5914835907870173
 40
0.8143265690192609
 40
1.054651302686572
 40
1.295452694023165
 40
1.518109231328824
 40
1.540864321905439
 40
1.595126460622702
 40
1.659890947896017
 40
1.714153085187376
 40
1.736908174961677
 40
1.764951100735322
 40
1.801562291220969
 40
1.953914424543629
 40
2.126104167379716
 40
2.126104167379716
 40
2.126104167379716
 40
2.126104167379716
 10
185.9375369556889
 20
15.58989295113015
 30
0.0
 10
185.9112579081812
 20
15.53097628234373
 30
0.0
 10
185.8604698894426
 20
15.41711139679257
 30
0.0
 10
185.8131784839111
 20
15.14441958233115
 30
0.0
 10
185.7043482802618
 20
15.24445482575454
 30
0.0
 10
185.5514800279638
 20
15.27118593367332
 30
0.0
 10
185.7686155181199
 20
15.48518135017632
 30
0.0
 10
185.7838483674381
 20
15.70332117782487
 30
0.0
 10
185.8906889491999
 20
15.88451579066425
 30
0.0
 10
185.8305380947079
 20
16.16913226311404
 30
0.0
 10
185.9334317395401
 20
16.14114089222451
 30
0.0
 10
185.9779933468151
 20
16.132432516023
 30
0.0
 10
186.0380842395396
 20
16.12139654183354
 30
0.0
 10
186.0756619587438
 20
16.10767523055559
 30
0.0
 10
186.1252466928605
 20
16.10756076160222
 30
0.0
 10
186.0930158919325
 20
16.0730659239862
 30
0.0
 10
186.0171802221881
 20
16.08404104537968
 30
0.0
 10
186.0429447159694
 20
15.89858969582447
 30
0.0
 10
186.005589676385
 20
15.80702313549589
 30
0.0
 10
185.9857704961609
 20
15.75844135397705
 30
0.0
 11
185.9375369556889
 21
15.58989295113015
 31
0.0
 11
185.8616471328552
 21
15.3822170831856
 31
0.0
 11
185.7717402238433
 21
15.19663392356192
 31
0.0
 11
185.701149392311
 21
15.23573272563551
 31
0.0
 11
185.6245525192651
 21
15.2688916318772
 31
0.0
 11
185.7214026947455
 21
15.46958801203538
 31
0.0
 11
185.7994641467471
 21
15.69688163177024
 31
0.0
 11
185.858971692972
 21
15.93021436608692
 31
0.0
 11
185.9001601511226
 21
16.14902808999055
 31
0.0
 11
185.9224183822214
 21
16.14429889221396
 31
0.0
 11
185.975495702534
 21
16.133021574439
 31
0.0
 11
186.0388460525844
 21
16.11956154999791
 31
0.0
 11
186.091923372897
 21
16.10828423222296
 31
0.0
 11
186.1141816039958
 21
16.10355503444636
 31
0.0
 11
186.0964097157461
 21
16.08186250841009
 31
0.0
 11
186.0606122998071
 21
16.07418628445366
 31
0.0
 11
186.028195330148
 21
15.92532288171313
 31
0.0
 11
185.9857704961609
 21
15.75844135397705
 31
0.0
  0
LWPOLYLINE
  5
B5
102
{ACAD_REACTORS
330
D0
102
}
330
48
100
AcDbEntity
  8
_U_30EC_U_30A4_U_30E4_U_30FC_1
  6
Continuous
 62
     2
100
AcDbPolyline
 90
        5
 70
     1
 43
0.0
 10
191.1602971697031
 20
15.39722336795624
 10
192.4578138032672
 20
15.39722336795624
 10
192.4578138032672
 20
15.22875434022056
 10
191.1602971697031
 20
15.22875434022056
 10
191.1602971697031
 20
15.39722336795624
  0
MTEXT
  5
B7
330
48
100
AcDbEntity
  8
1
 62
   250
100
AcDbMText
 10
25.0
 20
5.0
 30
0.0
 40
3.5
 41
0.0
 71
     4
 72
     1
  1
備考欄の文字列 原点位置=4
  7
CONVERTER_11
 73
     1
 44
0.54545454545455
  0
MTEXT
  5
B8
330
48
100
AcDbEntity
  8
1
 62
     2
100
AcDbMText
 10
89.5
 20
24.00000000000001
 30
0.0
 40
3.5
 41
0.0
 71
     5
 72
     1
  1
尺度
  7
CONVERTER_11
 73
     1
 44
0.54545454545455
  0
MTEXT
  5
B9
330
48
100
AcDbEntity
  8
1
 62
     2
100
AcDbMText
 10
135.5
 20
25.00000000000001
 30
0.0
 40
3.0
 41
0.0
 71
     5
 72
     1
  1
製図
  7
CONVERTER_11
 73
     1
 44
0.59090909090909
  0
MTEXT
  5
BA
330
48
100
AcDbEntity
  8
1
 62
     2
100
AcDbMText
 10
152.5
 20
25.00000000000001
 30
0.0
 40
3.0
 41
0.0
 71
     5
 72
     1
  1
設計
  7
CONVERTER_11
 73
     1
 44
0.59090909090909
  0
MTEXT
  5
BB
330
48
100
AcDbEntity
  8
1
 62
     2
100
AcDbMText
 10
118.5
 20
25.00000000000001
 30
0.0
 40
3.0
 41
0.0
 71
     5
 72
     1
  1
検図
  7
CONVERTER_11
 73
     1
 44
0.59090909090909
  0
MTEXT
  5
BC
330
48
100
AcDbEntity
  8
1
 62
     2
100
AcDbMText
 10
175.0
 20
23.50000000000001
 30
0.0
 40
3.5
 41
0.0
 71
     5
 72
     1
  1
第三角法
  7
CONVERTER_11
 73
     1
 44
0.54545454545455
  0
MTEXT
  5
BD
330
48
100
AcDbEntity
  8
1
 62
     2
100
AcDbMText
 10
101.5
 20
25.00000000000001
 30
0.0
 40
3.0
 41
0.0
 71
     5
 72
     1
  1
承認
  7
CONVERTER_11
 73
     1
 44
0.59090909090909
  0
MTEXT
  5
BE
330
48
100
AcDbEntity
  8
1
 62
     2
100
AcDbMText
 10
29.0
 20
14.25
 30
0.0
 40
3.5
 41
0.0
 71
     5
 72
     1
  1
品番
  7
CONVERTER_11
 73
     1
 44
0.72727272727273
  0
MTEXT
  5
BF
330
48
100
AcDbEntity
  8
1
 62
     2
100
AcDbMText
 10
29.0
 20
22.75
 30
0.0
 40
3.5
 41
0.0
 71
     5
 72
     1
  1
品名
  7
CONVERTER_11
 73
     1
 44
0.72727272727273
  0
MTEXT
  5
C0
330
48
100
AcDbEntity
  8
1
 62
     2
100
AcDbMText
 10
29.0
 20
34.00000000000001
 30
0.0
 40
3.5
 41
0.0
 71
     5
 72
     1
  1
備考
  7
CONVERTER_11
 73
     1
 44
0.45454545454545
  0
MTEXT
  5
C1
330
48
100
AcDbEntity
  8
1
 62
     2
100
AcDbMText
 10
32.5
 20
282.0000000000003
 30
0.0
 40
5.0
 41
0.0
 71
     5
 72
     1
  1
図番
  7
CONVERTER_11
 73
     1
 44
0.45454545454545
  0
HATCH
  5
C2
330
48
100
AcDbEntity
  8
1
  6
Continuous
 62
     2
100
AcDbHatch
 10
0.0
 20
0.0
 30
0.0
210
0.0
220
0.0
230
1.0
  2
CUSTOM0
 70
     0
 71
     1
 91
        1
 92
        1
 93
        1
 72
     4
 94
        3
 73
     0
 74
     0
 95
       99
 96
       95
 40
0.0
 40
0.0
 40
0.0
 40
0.0
 40
0.079641717227248
 40
0.1621768542355956
 40
0.2486489160957677
 40
0.3404969668524627
 40
0.4381912511165209
 40
0.5434463660244941
 40
0.6518115192847262
 40
0.7530190937886829
 40
0.8492196919725084
 40
0.9419290312998102
 40
1.034249663570042
 40
1.129078600620193
 40
1.226697027573253
 40
1.327220425421711
 40
1.47057213493803
 40
1.595489863371235
 40
1.719934125348387
 40
1.850576620127338
 40
1.989059629987322
 40
2.134139054226941
 40
2.280698007207205
 40
2.424529739039505
 40
2.565929576985871
 40
2.708239260773567
 40
2.861717887443677
 40
3.045168540347397
 40
3.183798301138627
 40
3.314813961455483
 40
3.442083470447338
 40
3.569912708373049
 40
3.702177512509406
 40
3.842307559659523
 40
3.99287222324598
 40
4.156750662218313
 40
4.310981861107535
 40
4.44585990932258
 40
4.57239393613157
 40
4.701656719781973
 40
4.768279086008464
 40
4.835960697898414
 40
4.912788918729332
 40
5.006285208481527
 40
5.026909478751575
 40
5.047533749021083
 40
5.101808031471164
 40
5.162325165538467
 40
5.226919745995747
 40
5.294231806596679
 40
5.364544852554823
 40
5.438319055467867
 40
5.517877651324175
 40
5.607647714861517
 40
5.700449642544336
 40
5.788251142364014
 40
5.872714706039723
 40
5.955167292575235
 40
6.037192395190331
 40
6.120669181469057
 40
6.206848616686298
 40
6.296680855416728
 40
6.44255839287255
 40
6.568190371608276
 40
6.692904567360307
 40
6.824220446557058
 40
6.963121850329293
 40
7.107843738851082
 40
7.253431663907192
 40
7.395187468036616
 40
7.533140753237669
 40
7.670550457175159
 40
7.816236511769173
 40
7.98769165735914
 40
8.142277421969181
 40
8.29366261541494
 40
8.442962460879205
 40
8.591598316185257
 40
8.743678992361724
 40
8.903725323699108
 40
9.076307008890456
 40
9.26557860468051
 40
9.459203795360684
 40
9.617619810273473
 40
9.753609671361804
 40
9.874873300004003
 40
9.954520184977715
 40
10.02416413719238
 40
10.09769764405438
 40
10.18909955924966
 40
10.20974586420128
 40
10.23039218263373
 40
10.30057101881259
 40
10.3763201298754
 40
10.3763201298754
 40
10.3763201298754
 40
10.3763201298754
 10
170.1465954835851
 20
14.13795663215994
 10
170.1632217851219
 20
14.11720608845312
 10
170.1970784206577
 20
14.07495111711902
 10
170.2599822541035
 20
14.02029811392073
 10
170.3332500940393
 20
13.9729902512105
 10
170.4175969238636
 20
13.93527231437934
 10
170.513224061546
 20
13.91040619731951
 10
170.6171853775346
 20
13.90309559345937
 10
170.7224020220405
 20
13.91142322794053
 10
170.8206626371334
 20
13.94149179651528
 10
170.9058986427548
 20
13.98848822971875
 10
170.9779220206103
 20
14.04952991250856
 10
171.0350917709096
 20
14.12412969578583
 10
171.0767868747439
 20
14.21002464660175
 10
171.1026952846293
 20
14.30485850432209
 10
171.1118037332653
 20
14.41854979038368
 10
171.0986864796486
 20
14.54332587770778
 10
171.0325330334415
 20
14.66014719171894
 10
170.9369370919569
 20
14.7451253957737
 10
170.824968102237
 20
14.81416684459169
 10
170.699365958327
 20
14.87204142045885
 10
170.5656691620856
 20
14.92373723284339
 10
170.4313122818831
 20
14.97899092397182
 10
170.3051983986876
 20
15.0493977064165
 10
170.1926579987535
 20
15.1378554073125
 10
170.0969963064458
 20
15.24981067868473
 10
170.0334157151826
 20
15.39949910101383
 10
170.0200706505016
 20
15.55932794385143
 10
170.0320510987448
 20
15.71048405306845
 10
170.0712298928841
 20
15.8380924459154
 10
170.135498775091
 20
15.95080874030847
 10
170.2238204999742
 20
16.04648609268681
 10
170.3338091207628
 20
16.12354214985753
 10
170.4632284401266
 20
16.18151396936281
 10
170.6111838967793
 20
16.2173917758882
 10
170.7682069455487
 20
16.22746719050564
 10
170.917494046643
 20
16.21863637762591
 10
171.059625361417
 20
16.19074899340352
 10
171.1595922609625
 20
16.13413314701139
 10
171.3125074736185
 20
16.08674602105507
 10
171.2455131717169
 20
16.00197553001184
 10
171.2296479120269
 20
15.93438901873484
 10
171.1978750531297
 20
15.86926092793189
 10
171.2150202209571
 20
15.76723453256954
 10
171.1666427208232
 20
15.77493211681902
 10
171.1315789440767
 20
15.7680677172481
 10
171.1296697985718
 20
15.83263831158195
 10
171.0985692931989
 20
15.87825639621392
 10
171.0664551628457
 20
15.93561036628461
 10
171.0208038475167
 20
15.98540462692556
 10
170.9658508218387
 20
16.02994813718996
 10
170.9010841173007
 20
16.06763988836549
 10
170.8232377310597
 20
16.09283375791353
 10
170.7355160553352
 20
16.09931230998112
 10
170.6452903277807
 20
16.09235709285608
 10
170.5594594694065
 20
16.06909190460918
 10
170.4828343638596
 20
16.03131644107547
 10
170.4165265636201
 20
15.98051641089573
 10
170.3622560536964
 20
15.91731143407209
 10
170.3224925345459
 20
15.84276455710367
 10
170.2976775510588
 20
15.75917313997762
 10
170.289212426287
 20
15.65192948382284
 10
170.3019697987104
 20
15.52965457267556
 10
170.3681548409274
 20
15.41149724291213
 10
170.4640977399832
 20
15.32606325709525
 10
170.5757914963182
 20
15.25583362306722
 10
170.7010863668702
 20
15.19659162305304
 10
170.8349823941447
 20
15.14616708086131
 10
170.9689930333149
 20
15.09322516984382
 10
171.0950885316915
 20
15.02750170625175
 10
171.2076216638417
 20
14.94480352537321
 10
171.3031370284233
 20
14.83996006310074
 10
171.3672706486963
 20
14.6993711725157
 10
171.3811103725279
 20
14.54065409451592
 10
171.367395471223
 20
14.38153155217874
 10
171.3244739153984
 20
14.23483828819209
 10
171.2545906329066
 20
14.10119796587141
 10
171.1574592213829
 20
13.9853238769929
 10
171.0347806023657
 20
13.89089981770087
 10
170.8874408413168
 20
13.82179270651982
 10
170.7177132497125
 20
13.77953210858852
 10
170.5317404979596
 20
13.76781736230408
 10
170.3528955926184
 20
13.77809486683436
 10
170.1881733753744
 20
13.81966573769153
 10
170.0834410841056
 20
13.88797642883942
 10
169.9350960790365
 20
13.93675219032106
 10
169.998037819473
 20
14.0297659129084
 10
170.0072274430059
 20
14.1029653624828
 10
170.0303711301232
 20
14.16936294501346
 10
170.0034588335317
 20
14.26974809527582
 10
170.0521338956339
 20
14.26234033517379
 10
170.0916530580697
 20
14.26894063620896
 10
170.0996204944702
 20
14.19078703218932
 10
170.1305436967922
 20
14.15600927375857
 10
170.1465954835851
 20
14.13795663215994
 97
        1
330
A4
 75
     1
 76
     2
 52
45.0
 41
0.1
 77
     0
 78
     1
 53
45.0
 43
0.0
 44
0.0
 45
-0.282842712474619
 46
0.0
 79
     0
 98
        1
 10
0.0
 20
0.0
  0
HATCH
  5
C3
330
48
100
AcDbEntity
  8
1
  6
Continuous
 62
     2
100
AcDbHatch
 10
0.0
 20
0.0
 30
0.0
210
0.0
220
0.0
230
1.0
  2
CUSTOM1
 70
     0
 71
     1
 91
        2
 92
        1
 93
        1
 72
     4
 94
        3
 73
     0
 74
     0
 95
       57
 96
       53
 40
0.0
 40
0.0
 40
0.0
 40
0.0
 40
0.047163208280894
 40
0.0914861054632146
 40
0.1357762519702382
 40
0.1826527001610677
 40
0.2295203288572301
 40
0.2737751972219619
 40
0.3181310461542783
 40
0.3652607198398497
 40
0.4571007286314229
 40
0.5671851029165002
 40
0.6894623283868136
 40
0.8181758272545779
 40
0.951008722927395
 40
1.085852229674046
 40
1.218126164475303
 40
1.343545131142373
 40
1.45453720295679
 40
1.567187607530799
 40
1.680710966642389
 40
1.794226869736696
 40
1.900009184247553
 40
2.004085860447775
 40
2.10816267445172
 40
2.214000150155293
 40
2.496038577352108
 40
2.762350745479267
 40
2.997275353279396
 40
3.185110082137712
 40
3.246407890063909
 40
3.312607550212669
 40
3.378877742711571
 40
3.440140399651424
 40
4.100501696006447
 40
4.754913085563536
 40
5.411331693423893
 40
6.077890432568678
 40
6.110575292670957
 40
6.143260152775737
 40
6.367989363395126
 40
6.610525374951526
 40
6.863389136467286
 40
7.119380025547581
 40
7.376036605091074
 40
7.631164770966275
 40
7.876722425456405
 40
8.10495373585597
 40
8.312916685924284
 40
8.497730294941277
 40
8.651018984313838
 40
8.764738853624552
 40
8.764738853624552
 40
8.764738853624552
 40
8.764738853624552
 10
174.7922649500513
 20
13.81626739612928
 10
174.7766616726931
 20
13.81826231079078
 10
174.7463947960302
 20
13.82213201360298
 10
174.7010994202252
 20
13.82341984967269
 10
174.6559553129349
 20
13.82308683554051
 10
174.60990171234
 20
13.82314658674225
 10
174.5640496172096
 20
13.82325813650001
 10
174.5183711648165
 20
13.82277833456592
 10
174.4750811541609
 20
13.82461109618722
 10
174.4039947951514
 20
13.80049556814658
 10
174.4057477261441
 20
13.92184693977252
 10
174.3586196370569
 20
14.00726239751231
 10
174.3191478251762
 20
14.12486929345136
 10
174.2706635532645
 20
14.24232752540438
 10
174.2201017402522
 20
14.3640593576151
 10
174.1718634610477
 20
14.49075967862466
 10
174.1135232947595
 20
14.59933687784952
 10
174.0980892667261
 20
14.75620657134409
 10
173.9566586330635
 20
14.72373446548323
 10
173.8508397414904
 20
14.7351288868218
 10
173.7358569725222
 20
14.73392591514616
 10
173.6253142252141
 20
14.73506945347408
 10
173.5176583522783
 20
14.73418350037526
 10
173.4121322529243
 20
14.73416602390518
 10
173.3109192682013
 20
14.72714032472415
 10
173.1266804827752
 20
14.75135859859867
 10
173.1157393685413
 20
14.44741691121883
 10
173.0087691634749
 20
14.22353177253398
 10
172.9098148604347
 20
14.03895314292497
 10
172.9225090524007
 20
13.7953020480421
 10
172.8050091716397
 20
13.82508046753196
 10
172.7422055868311
 20
13.82258089509605
 10
172.67858720934
 20
13.82344075102804
 10
172.3946014194076
 20
13.78098039941953
 10
173.0251638499381
 20
14.50081952444785
 10
173.1087645289072
 20
15.01276539435727
 10
173.4929252789338
 20
15.53353743550046
 10
173.4777208288567
 20
16.23519626253214
 10
173.7239265722696
 20
16.22345633081256
 10
173.8256346157562
 20
16.23225004452773
 10
173.8249752035818
 20
15.98059650730347
 10
173.9428317155828
 20
15.79818020733958
 10
174.0315515260485
 20
15.55563740662866
 10
174.1322292485259
 20
15.32340030530126
 10
174.2311142712243
 20
15.08674644566914
 10
174.3299676990669
 20
14.85461739170092
 10
174.4256166390925
 20
14.63122222788786
 10
174.5159904573273
 20
14.42272549049321
 10
174.5989944568189
 20
14.23308448529319
 10
174.6726088582799
 20
14.06663106068098
 10
174.7342815895546
 20
13.92917699626099
 10
174.7749458885604
 20
13.84999239430034
 10
174.7922649500513
 20
13.81626739612928
 97
        1
330
A5
 92
       16
 93
        1
 72
     4
 94
        3
 73
     0
 74
     0
 95
       25
 96
       21
 40
0.0
 40
0.0
 40
0.0
 40
0.0
 40
0.091147996906539
 40
0.1858117896204667
 40
0.280412839973449
 40
0.3715889190714509
 40
0.4679080494218708
 40
0.564268380922923
 40
0.6605683222644991
 40
0.7569653015810255
 40
0.8561348172522738
 40
1.092615965104292
 40
1.374867658141875
 40
1.611348812011601
 40
1.710518328425249
 40
1.809403163726568
 40
2.04520546329407
 40
2.32664691762213
 40
2.562449217190592
 40
2.661334043833911
 40
2.661334043833911
 40
2.661334043833911
 40
2.661334043833911
 10
173.2683700567199
 20
14.88614538197292
 10
173.2987525917923
 20
14.88598079714554
 10
173.3606895889112
 20
14.88564528689921
 10
173.454135696033
 20
14.88269055451999
 10
173.5475095236358
 20
14.87977752877151
 10
173.6417760753476
 20
14.87894201643416
 10
173.7354964790967
 20
14.87996644658048
 10
173.8352040303205
 20
14.87916977470971
 10
173.9188949546312
 20
14.8892141023522
 10
174.0637996315045
 20
14.86234617674165
 10
173.93961324448
 20
15.03665530280049
 10
173.8965867286282
 20
15.19651711006091
 10
173.7808922142209
 20
15.45518458550216
 10
173.7017565431257
 20
15.59231052861858
 10
173.6431576621816
 20
15.80937033134077
 10
173.5864803939438
 20
15.59266134213428
 10
173.5052809900478
 20
15.45327012438237
 10
173.4063701281487
 20
15.20406969370194
 10
173.325362509426
 20
15.01925830226074
 10
173.2813683325838
 20
14.91650446856116
 10
173.2683700567199
 20
14.88614538197292
 97
        1
330
A6
 75
     1
 76
     2
 52
45.0
 41
0.1
 77
     0
 78
     1
 53
45.0
 43
0.0
 44
0.0
 45
-0.282842712474619
 46
0.0
 79
     0
 98
        1
 10
0.0
 20
0.0
  0
HATCH
  5
C4
330
48
100
AcDbEntity
  8
1
  6
Continuous
 62
     2
100
AcDbHatch
 10
0.0
 20
0.0
 30
0.0
210
0.0
220
0.0
230
1.0
  2
CUSTOM2
 70
     0
 71
     1
 91
        1
 92
        1
 93
        1
 72
     4
 94
        3
 73
     0
 74
     0
 95
       95
 96
       91
 40
0.0
 40
0.0
 40
0.0
 40
0.0
 40
0.6550406656911197
 40
1.308087289031888
 40
1.420803739835767
 40
1.566130759770772
 40
1.757067341888428
 40
2.006513545026431
 40
2.087328263121519
 40
2.185328872295592
 40
2.294612454748326
 40
2.408936380534767
 40
2.526802767798531
 40
2.646360524615574
 40
2.762535723971558
 40
2.870057342870131
 40
2.966883448431612
 40
3.050803243518261
 40
3.115818222436579
 40
3.156030057150198
 40
3.213914225080099
 40
3.2766890264505
 40
3.342960320981277
 40
3.404230667150526
 40
3.453822809493325
 40
3.53249982718839
 40
3.634775188507119
 40
3.754909333008116
 40
3.889736761660612
 40
4.03576960217518
 40
4.18725668119756
 40
4.338733685675915
 40
4.48847873467607
 40
4.634708317831541
 40
4.771493189921229
 40
4.892686571561167
 40
5.19977552894441
 40
5.460353566929593
 40
5.667603142345464
 40
5.814722905404448
 40
5.828990806219746
 40
5.855488336304443
 40
5.869756237118775
 40
6.189796507762781
 40
6.531890469872975
 40
6.88305363701698
 40
7.230512024911431
 40
7.566966656764532
 40
7.885203559707366
 40
8.17288743971916
 40
8.418011594062714
 40
8.443926721190635
 40
8.510760470613121
 40
8.60214539379563
 40
8.701714041647067
 40
8.793098965075297
 40
8.859932715057868
 40
8.885847842603516
 40
9.242301256612738
 40
9.589275455016685
 40
9.921808543164085
 40
10.23479624298459
 40
10.29968150889164
 40
10.35323493887747
 40
10.40154625355131
 40
10.46482922477816
 40
10.55973900668396
 40
10.6923954598561
 40
10.84920353475663
 40
11.0162632859477
 40
11.18672024367435
 40
11.35372582577202
 40
11.50257442292417
 40
11.61866495023282
 40
11.71329869152866
 40
11.82511050573898
 40
11.94464880845707
 40
12.06929242642499
 40
12.19707290435168
 40
12.3256263286052
 40
12.45034565331271
 40
12.56646595170319
 40
12.67099007414626
 40
12.76077625936774
 40
12.82703233506686
 40
12.87429132785984
 40
12.89831990323323
 40
12.92234847860012
 40
13.53984767410311
 40
14.18294284359356
 40
14.18294284359356
 40
14.18294284359356
 40
14.18294284359356
 10
177.3067935648021
 20
14.70898038201723
 10
177.175201975855
 20
14.82265058603231
 10
176.9124193802728
 20
15.04964496316158
 10
176.3997393441023
 20
15.89214462956287
 10
176.4106654595362
 20
15.53423377577019
 10
176.4041226527991
 20
15.39267392272132
 10
176.4028026631772
 20
15.1942130529928
 10
176.4018117602537
 20
15.02150296045982
 10
176.4024101751975
 20
14.87865373257579
 10
176.4038994301882
 20
14.78265005413358
 10
176.4055683588473
 20
14.67545503263142
 10
176.4071934954618
 20
14.56164211517582
 10
176.4092429501685
 20
14.44441572604589
 10
176.4123165501928
 20
14.3265641123297
 10
176.4156339697042
 20
14.21228087320619
 10
176.419360534028
 20
14.10521401867276
 10
176.4217338161424
 20
14.01007408766921
 10
176.4278718888357
 20
13.92558557205695
 10
176.4239784495946
 20
13.86923087298141
 10
176.4455230443077
 20
13.79825022472357
 10
176.3680940058618
 20
13.82902677604482
 10
176.3116353240191
 20
13.82011242517615
 10
176.2540495896807
 20
13.82896218398274
 10
176.1690163478473
 20
13.79738225225946
 10
176.2009714146382
 20
13.8809515599219
 10
176.1990705282539
 20
13.9488260896831
 10
176.21079600473
 20
14.05233256764419
 10
176.2164241053
 20
14.17002125616694
 10
176.2237902178941
 20
14.30388609164423
 10
176.232075970161
 20
14.44764152872631
 10
176.2398851897427
 20
14.59714022843445
 10
176.2457571222658
 20
14.74792549402078
 10
176.2503667817969
 20
14.89699943878438
 10
176.2542632117542
 20
15.04122913163022
 10
176.2570715126564
 20
15.17583905213018
 10
176.2576698755022
 20
15.36469614347354
 10
176.261602386715
 20
15.58975494313154
 10
176.2442175378498
 20
15.86367091125707
 10
176.2850417342582
 20
16.02787112098597
 10
176.1995153256004
 20
16.22749661465095
 10
176.2660558907687
 20
16.22385458403978
 10
176.283872427323
 20
16.22413447160854
 10
176.4056801797503
 20
16.22632927398613
 10
176.5080770335462
 20
15.94675118721515
 10
176.7580021509356
 20
15.74563008536
 10
176.9870035331111
 20
15.47792614987919
 10
177.2245151213108
 20
15.22646413862375
 10
177.4486090740771
 20
14.98969974061359
 10
177.675071628301
 20
14.7321869258308
 10
177.8325687886513
 20
14.61649335056922
 10
178.0472129612676
 20
14.27997152538794
 10
178.0422645974618
 20
14.40464754091604
 10
178.0433931602546
 20
14.46327691935738
 10
178.0428877841517
 20
14.55043662371978
 10
178.0430475158113
 20
14.64416143182872
 10
178.0430054891318
 20
14.73018971297035
 10
178.0430202040372
 20
14.79153891945496
 10
178.0429706255985
 20
14.94135231520992
 10
178.045881152281
 20
15.17989612510104
 10
178.0259521041162
 20
15.54486509868701
 10
178.0750433936247
 20
15.8079963199341
 10
177.9177951509182
 20
16.21928904947753
 10
178.0762112872422
 20
16.16398282551748
 10
178.1311680478628
 20
16.16199686500175
 10
178.1827887766741
 20
16.16264778248253
 10
178.2713198965366
 20
16.20369527738247
 10
178.2204898303169
 20
16.05696326622986
 10
178.2313389930283
 20
15.95019971954433
 10
178.2166036994848
 20
15.79085705414111
 10
178.2099976446204
 20
15.62853061652874
 10
178.2014961399915
 20
15.45992521892396
 10
178.1943227202198
 20
15.29814814703541
 10
178.1889063215389
 20
15.15422331457933
 10
178.1871713967648
 20
15.03437493466925
 10
178.1875440672318
 20
14.92686101590515
 10
178.1873656126263
 20
14.81820024645586
 10
178.187701086314
 20
14.6995357016553
 10
178.1890040622186
 20
14.57555163512741
 10
178.1908887351574
 20
14.44858294171104
 10
178.192500445485
 20
14.32153861551031
 10
178.194140313743
 20
14.19854884492177
 10
178.1962570745752
 20
14.08300931383759
 10
178.1963848422363
 20
13.98090903955837
 10
178.2006514396554
 20
13.89009848838156
 10
178.1908440085289
 20
13.83213621208786
 10
178.2118474771689
 20
13.76517130132029
 10
178.1725639739897
 20
13.77291153966688
 10
177.9595307117747
 20
13.75755254145192
 10
177.7636297943186
 20
14.3140305809447
 10
177.4611197631544
 20
14.57556035348509
 10
177.3067935648021
 20
14.70898038201723
 97
        1
330
A7
 75
     1
 76
     2
 52
45.0
 41
0.1
 77
     0
 78
     1
 53
45.0
 43
0.0
 44
0.0
 45
-0.282842712474619
 46
0.0
 79
     0
 98
        1
 10
0.0
 20
0.0
  0
HATCH
  5
C5
330
48
100
AcDbEntity
  8
1
  6
Continuous
 62
     2
100
AcDbHatch
 10
0.0
 20
0.0
 30
0.0
210
0.0
220
0.0
230
1.0
  2
CUSTOM3
 70
     0
 71
     1
 91
        1
 92
        1
 93
        1
 72
     4
 94
        3
 73
     0
 74
     0
 95
      110
 96
      106
 40
0.0
 40
0.0
 40
0.0
 40
0.0
 40
0.2203406257277767
 40
0.4407808782838128
 40
0.5952494494615959
 40
0.7488431659393109
 40
0.9023581831309094
 40
1.056801968670408
 40
1.210736449099965
 40
1.363041386539787
 40
1.515315729683158
 40
1.669377239148165
 40
1.72161165275666
 40
1.77319950294305
 40
1.8249337932101
 40
1.877110426488088
 40
1.982682281206881
 40
2.078781667087632
 40
2.172809640822467
 40
2.271937807379122
 40
2.378349933379457
 40
2.494131557736702
 40
2.626681683943836
 40
2.783145050796264
 40
2.890701232941136
 40
2.993130312455036
 40
3.099869730692007
 40
3.220237816691503
 40
3.352695482737791
 40
3.481732806390033
 40
3.593499473690572
 40
3.674323013332089
 40
3.817951711952982
 40
3.946167120793952
 40
4.061405053453637
 40
4.166480796003277
 40
4.262478775059315
 40
4.350736673551271
 40
4.433071991254214
 40
4.511216293814759
 40
4.564262454118083
 40
4.618474415571712
 40
4.67012848875429
 40
4.722296879126494
 40
4.819540945314363
 40
4.931194984128219
 40
5.049996040257804
 40
5.168643755415292
 40
5.28397081176259
 40
5.392260784910444
 40
5.48651225487649
 40
5.559178233949832
 40
5.59142585285349
 40
5.626215969637886
 40
5.667155838674414
 40
5.717449290214219
 40
5.738402360944834
 40
5.784499116553803
 40
5.830595872164777
 40
5.851548942897635
 40
5.873019280661749
 40
5.924217778408291
 40
5.985325662817671
 40
6.036524160567687
 40
6.057994498334216
 40
6.236847789607472
 40
6.38140992894564
 40
6.493190424178674
 40
6.57406753423048
 40
6.691018086205574
 40
6.814881554220491
 40
6.944307823240529
 40
7.071266716066068
 40
7.193488604461913
 40
7.30904277312814
 40
7.414007203170822
 40
7.505140441886523
 40
7.531150360599669
 40
7.559221645322261
 40
7.587202218920927
 40
7.612569159499132
 40
7.662550809481011
 40
7.702878875764129
 40
7.857328205230943
 40
8.01079956808859
 40
8.16525639965754
 40
8.322232698713766
 40
8.479564855016537
 40
8.635216230290684
 40
8.790882550925659
 40
8.948305154947253
 40
9.168271839032927
 40
9.38735898098722
 40
9.608047961033455
 40
9.832914234792648
 40
9.858338694962983
 40
9.92536681722999
 40
10.02013071422757
 40
10.12876249858996
 40
10.23739428295247
 40
10.33215817995188
 40
10.39918630222392
 40
10.42461076239781
 40
10.64992019336941
 40
10.87188524531185
 40
10.87188524531185
 40
10.87188524531185
 40
10.87188524531185
 10
179.9057788376619
 20
15.7392326039819
 10
179.9092864933542
 20
15.80616462073804
 10
179.9163033987663
 20
15.94005891915859
 10
179.8198027599073
 20
16.22548554971472
 10
180.0510134726109
 20
16.16284386190284
 10
180.1919290057156
 20
16.17001554055991
 10
180.3490417757588
 20
16.16235883078244
 10
180.5025913427287
 20
16.1625275228304
 10
180.6545104935082
 20
16.16182040535432
 10
180.814221481323
 20
16.17210158351639
 10
180.9408972601118
 20
16.15496511080751
 10
181.1370821122082
 20
16.22727260107147
 10
181.1034395279079
 20
16.12640699080117
 10
181.1052011317183
 20
16.07619253947669
 10
181.1027342073459
 20
16.02712335586465
 10
181.1347076966012
 20
15.94063490846996
 10
181.0010399903257
 20
15.98997438608335
 10
180.9172208688057
 20
15.98430634314169
 10
180.8173861139323
 20
15.99465516706296
 10
180.7186576720146
 20
16.00086450411088
 10
180.612153277111
 20
16.00697763816779
 10
180.4910511698059
 20
16.01588883484583
 10
180.3703381502453
 20
16.00521605912385
 10
180.1812553843437
 20
16.06468503080368
 10
180.2129028505311
 20
15.9055832007754
 10
180.1995563316836
 20
15.80839128339903
 10
180.1974958426449
 20
15.69634065110102
 10
180.1958188044671
 20
15.5769968562935
 10
180.1973336794233
 20
15.45032592155111
 10
180.195658247867
 20
15.32301588016117
 10
180.2058844271658
 20
15.22451566404465
 10
180.1779006596583
 20
15.08388702625632
 10
180.3508029999306
 20
15.13989551134094
 10
180.4645020202772
 20
15.127199514785
 10
180.5840151672239
 20
15.13448377051255
 10
180.6888491425071
 20
15.13878017056755
 10
180.7843084898612
 20
15.14330568258977
 10
180.8763823507032
 20
15.151492011462
 10
180.9476551782439
 20
15.14643850638111
 10
181.0544931705685
 20
15.18536425031672
 10
181.0226603598035
 20
15.10517122005878
 10
181.026616450393
 20
15.05562936846033
 10
181.0234502392012
 20
15.00557478039818
 10
181.0550791490585
 20
14.92128847612022
 10
180.9210133677691
 20
14.97425365495157
 10
180.82923227932
 20
14.96540080890441
 10
180.7079729189603
 20
14.97570049965155
 10
180.5914113119772
 20
14.97748911767502
 10
180.4783375745879
 20
14.97787017109695
 10
180.3679246308472
 20
14.98415449472181
 10
180.289812406784
 20
14.97189133255364
 10
180.1913625833646
 20
15.00453887616124
 10
180.2012355173561
 20
14.94769748054204
 10
180.1973923244402
 20
14.91392130557984
 10
180.1966789884268
 20
14.87119604709411
 10
180.1963369642975
 20
14.83401607262153
 10
180.1963834255346
 20
14.79487237370771
 10
180.1963649429927
 20
14.75716849497686
 10
180.1963703431806
 20
14.71944955232402
 10
180.1963697214201
 20
14.6899432474515
 10
180.1963698151545
 20
14.65873577699301
 10
180.1963704287921
 20
14.61414424908085
 10
180.1963671499336
 20
14.5596395650885
 10
180.1963759623481
 20
14.51505540201448
 10
180.1963359653416
 20
14.43117808585739
 10
180.1976024270256
 20
14.31737520677678
 10
180.1950274117841
 20
14.16830395933709
 10
180.206500938172
 20
14.06597203813905
 10
180.1823506222264
 20
13.93338903885834
 10
180.3332993946476
 20
13.9789573227202
 10
180.4428436671556
 20
13.96427012162349
 10
180.573397047392
 20
13.96920435125062
 10
180.6990312209513
 20
13.97257705323363
 10
180.8188730625601
 20
13.97711497498772
 10
180.9391362611426
 20
13.99048536182006
 10
181.0222761663516
 20
13.98068712782593
 10
181.1456080421073
 20
14.04126214623319
 10
181.1244269203958
 20
13.9853246013402
 10
181.1235950270116
 20
13.95939249372346
 10
181.1218963707558
 20
13.93197256190939
 10
181.1217974888829
 20
13.89738195206385
 10
181.1203659301329
 20
13.86050408220768
 10
181.153280419219
 20
13.76846841021807
 10
180.9551306988107
 20
13.84132015974831
 10
180.8300548294891
 20
13.81825726508607
 10
180.6673071295156
 20
13.82454021985786
 10
180.5129366450001
 20
13.82260943909927
 10
180.3566670436945
 20
13.82393762599269
 10
180.1970544465282
 20
13.82059872487863
 10
180.0540326342237
 20
13.8326579572824
 10
179.8197144881628
 20
13.76952001976919
 10
179.9173810751197
 20
14.05620527466318
 10
179.900686878006
 20
14.24988308142661
 10
179.9146296709683
 20
14.47848242880295
 10
179.9142987846632
 20
14.63384593955049
 10
179.9143078119263
 20
14.73966336444125
 10
179.9143055876316
 20
14.80205784124214
 10
179.9143065551888
 20
14.89220425248327
 10
179.9143065473261
 20
14.99621167157438
 10
179.9143053861102
 20
15.10022131375296
 10
179.9143090971502
 20
15.19036243688768
 10
179.9143011051051
 20
15.25276803097215
 10
179.9143334275018
 20
15.35868835961119
 10
179.913144078832
 20
15.5162671654474
 10
179.9082216489256
 20
15.66528219822065
 10
179.9057788376619
 20
15.7392326039819
 97
        1
330
A8
 75
     1
 76
     2
 52
45.0
 41
0.1
 77
     0
 78
     1
 53
45.0
 43
0.0
 44
0.0
 45
-0.282842712474619
 46
0.0
 79
     0
 98
        1
 10
0.0
 20
0.0
  0
HATCH
  5
C6
330
48
100
AcDbEntity
  8
1
  6
Continuous
 62
     2
100
AcDbHatch
 10
0.0
 20
0.0
 30
0.0
210
0.0
220
0.0
230
1.0
  2
CUSTOM4
 70
     0
 71
     1
 91
        1
 92
        1
 93
        1
 72
     4
 94
        3
 73
     0
 74
     0
 95
       47
 96
       43
 40
0.0
 40
0.0
 40
0.0
 40
0.0
 40
0.2207912809957177
 40
0.4459404186303042
 40
0.4902387190459256
 40
0.5327473892722205
 40
0.5742260451225817
 40
0.6155432630561678
 40
0.6568164066316312
 40
0.6982511618780674
 40
0.7407663929317178
 40
0.7851366743175238
 40
1.010288833836326
 40
1.231080507002173
 40
1.451765243652402
 40
1.676638205891686
 40
1.720461045359655
 40
1.830018144043521
 40
1.972442372353151
 40
2.114866600677521
 40
2.224423699395146
 40
2.268246538883387
 40
2.493628801207224
 40
2.715602830286628
 40
2.93421133070637
 40
3.149502369855353
 40
3.23138778485097
 40
3.318231873853948
 40
3.405143198197965
 40
3.486970301720457
 40
3.702258172493892
 40
3.920866283534109
 40
4.142839325931905
 40
4.368221903865372
 40
4.412044743359852
 40
4.521601842095867
 40
4.664026070452348
 40
4.806450298809056
 40
4.916007397546748
 40
4.959830237043072
 40
5.184703515847103
 40
5.40538725076748
 40
5.40538725076748
 40
5.40538725076748
 40
5.40538725076748
 10
182.6507427258645
 20
15.73406440953872
 10
182.6568139420002
 20
15.7975848250121
 10
182.6690762107243
 20
15.92587938689627
 10
182.5604706879411
 20
16.20166220174076
 10
182.6761985896604
 20
16.17188133432053
 10
182.7171842509015
 20
16.1676555626282
 10
182.7591205797519
 20
16.16310446389607
 10
182.8004196625711
 20
16.16201982929485
 10
182.8417032115555
 20
16.16310338195226
 10
182.8836148270648
 20
16.16766112711345
 10
182.9245983549018
 20
16.17187430209727
 10
183.040492284349
 20
16.20177611317536
 10
182.9295652727456
 20
15.92339806609888
 10
182.9574856365267
 20
15.74283140824953
 10
182.940426734697
 20
15.50961042346471
 10
182.9414637282103
 20
15.34906622543146
 10
182.9414099399404
 20
15.22284817558722
 10
182.9414277372481
 20
15.12428963336241
 10
182.941418858108
 20
14.99280702442963
 10
182.9414263928033
 20
14.8613284496865
 10
182.9414129405128
 20
14.7627622269409
 10
182.9414531717492
 20
14.63639735624152
 10
182.9406746403818
 20
14.47482068822869
 10
182.9565958319266
 20
14.24361821892914
 10
182.9333468885407
 20
14.05874351972001
 10
183.0360183444367
 20
13.78935602770058
 10
182.8820238362836
 20
13.82660112685816
 10
182.8004129802832
 20
13.82137994680536
 10
182.7188192292583
 20
13.82660620378351
 10
182.5648513666843
 20
13.78937069885387
 10
182.6674183421917
 20
14.05875129862879
 10
182.6442045316088
 20
14.24361585325414
 10
182.6600444655139
 20
14.47482218565638
 10
182.6593296313427
 20
14.63639712308502
 10
182.6593664569907
 20
14.76276231210521
 10
182.659354900027
 20
14.86132756635981
 10
182.6593575019214
 20
14.9928112741722
 10
182.6593648531779
 20
15.124275480312
 10
182.6593442541351
 20
15.22287786275325
 10
182.6594082192028
 20
15.34896149354427
 10
182.6581733947591
 20
15.51210091383771
 10
182.6532040396745
 20
15.66054183777549
 10
182.6507427258645
 20
15.73406440953872
 97
        1
330
A9
 75
     1
 76
     2
 52
45.0
 41
0.1
 77
     0
 78
     1
 53
45.0
 43
0.0
 44
0.0
 45
-0.282842712474619
 46
0.0
 79
     0
 98
        1
 10
0.0
 20
0.0
  0
HATCH
  5
C7
330
48
100
AcDbEntity
  8
1
  6
Continuous
 62
     2
100
AcDbHatch
 10
0.0
 20
0.0
 30
0.0
210
0.0
220
0.0
230
1.0
  2
CUSTOM5
 70
     0
 71
     1
 91
        1
 92
        1
 93
        1
 72
     4
 94
        3
 73
     0
 74
     0
 95
      118
 96
      114
 40
0.0
 40
0.0
 40
0.0
 40
0.0
 40
0.1054708162973078
 40
0.2466098270051425
 40
0.3965912874590612
 40
0.528552506975337
 40
0.6156245055641596
 40
0.6431434105796923
 40
0.7036850037985641
 40
0.7642265984504067
 40
0.7917455052354385
 40
0.92874043199894
 40
1.106572819087978
 40
1.287544879680933
 40
1.31757830803045
 40
1.399928030857088
 40
1.522968204799863
 40
1.675072986590484
 40
1.844616533180561
 40
2.019973001638625
 40
2.189516548879938
 40
2.341621331585276
 40
2.464661506320412
 40
2.547011229646976
 40
2.57704465816794
 40
2.603797890893011
 40
2.662655002908755
 40
2.721512114949623
 40
2.748265347702803
 40
2.77421530734488
 40
2.84595931340721
 40
2.954338556588409
 40
3.090194227585586
 40
3.244367517100549
 40
3.407699615844309
 40
3.57103171453946
 40
3.725205003920136
 40
3.861060674729635
 40
3.969439917716329
 40
4.041183923629001
 40
4.067133883212994
 40
4.31188674601218
 40
4.547897258335547
 40
4.764747083043991
 40
4.952749679951798
 40
5.045772974195931
 40
5.137862019645016
 40
5.330543169793065
 40
5.553448265244056
 40
5.795083855888237
 40
6.043293412177302
 40
6.285761695541241
 40
6.313902908752725
 40
6.384255941793315
 40
6.475714884766903
 40
6.567173827758966
 40
6.637526860839744
 40
6.665668074074107
 40
6.69201892032808
 40
6.749990782071144
 40
6.807962643790512
 40
6.834313490017983
 40
6.856393084245262
 40
6.913335195649886
 40
6.991194817302549
 40
7.076026942283811
 40
7.153886563725301
 40
7.210828674844883
 40
7.232908268931219
 40
7.25819933492374
 40
7.324875781592391
 40
7.419142481925048
 40
7.527204308841991
 40
7.635266135230575
 40
7.729532834168561
 40
7.796209279292883
 40
7.821500344594829
 40
7.8446529888509
 40
7.899863140541679
 40
7.965759128053845
 40
8.02096927977113
 40
8.044121924046596
 40
8.069356610160675
 40
8.109134395441368
 40
8.13223810019108
 40
8.193147867786445
 40
8.279261678876617
 40
8.377977512673832
 40
8.476693347146615
 40
8.56280716041167
 40
8.623716930826456
 40
8.646820636853407
 40
8.67198879377422
 40
8.734909185828075
 40
8.816705695188789
 40
8.898502204815331
 40
8.961422597377764
 40
8.986590754550877
 40
9.01294160073303
 40
9.070913462380112
 40
9.128885324081601
 40
9.155236170324923
 40
9.180404327928965
 40
9.24332472194801
 40
9.325121234211746
 40
9.4069177466374
 40
9.469838141977856
 40
9.495006288270602
 40
9.517811184378743
 40
9.572192090486743
 40
9.637098333280974
 40
9.691479239515173
 40
9.714284125643212
 40
9.714284125643212
 40
9.714284125643212
 40
9.714284125643212
 10
185.2874469028654
 20
15.2688916318772
 10
185.3090990569039
 20
15.24111869242812
 10
185.3597257109474
 20
15.17618054561235
 10
185.4349383202592
 20
15.06891060312898
 10
185.5248482274347
 20
14.95377438266625
 10
185.5709169676673
 20
14.85357045748319
 10
185.6655825294655
 20
14.78434006814943
 10
185.6204439320412
 20
14.73771639678274
 10
185.594704778579
 20
14.69660308866038
 10
185.5645196708012
 20
14.66065971727939
 10
185.5193684730562
 20
14.58579782596092
 10
185.4710504458562
 20
14.80782524253604
 10
185.3968539713073
 20
14.84510677337708
 10
185.2836047324608
 20
15.11610202130599
 10
185.288513357817
 20
15.00095328446229
 10
185.2868486556307
 20
14.92836675781628
 10
185.2876830076715
 20
14.80625588483986
 10
185.2873609540265
 20
14.6591380081046
 10
185.2875076912457
 20
14.49307063956557
 10
185.2872950092723
 20
14.32187554608602
 10
185.2879497252034
 20
14.15552828635498
 10
185.285919246114
 20
14.00935173055693
 10
185.2913460399931
 20
13.8847104747461
 10
185.2804930868709
 20
13.81718656540626
 10
185.2956739155556
 20
13.75549061417022
 10
185.2457895108134
 20
13.76727503897003
 10
185.2017150342523
 20
13.75943822779969
 10
185.1582371630201
 20
13.76760441372703
 10
185.1092346786488
 20
13.75538056738468
 10
185.1218731234824
 20
13.80960667249313
 10
185.113018296845
 20
13.86936918907558
 10
185.1175058770314
 20
13.9792202904437
 10
185.1157960135991
 20
14.11029975405679
 10
185.1163550915986
 20
14.26198011444328
 10
185.1161928768694
 20
14.42211074929953
 10
185.1162269924675
 20
14.58236865674566
 10
185.1162514960127
 20
14.73370247520439
 10
185.1161453543224
 20
14.86582156338601
 10
185.1164299141931
 20
14.97294802533193
 10
185.1158675547567
 20
15.03808619579473
 10
185.118076508369
 20
15.16618957858676
 10
185.0319435998602
 20
14.79097610391575
 10
184.95551408185
 20
14.63918193123395
 10
184.8660040767834
 20
14.47766206446305
 10
184.7640413217326
 20
14.2047184882017
 10
184.7187976491039
 20
14.3671734659651
 10
184.610235594167
 20
14.4560543205812
 10
184.7995791751752
 20
14.60549794961408
 10
184.85653405457
 20
14.79749136974927
 10
184.9717520993353
 20
15.02899622906755
 10
184.9940151630133
 20
15.21797259759062
 10
185.177190515214
 20
15.49454089325932
 10
185.0538033597552
 20
15.48698978832094
 10
184.9925684166834
 20
15.48856772366119
 10
184.9081999617064
 20
15.48882592573673
 10
184.8204235085965
 20
15.48544845751206
 10
184.7656768696123
 20
15.49394814982021
 10
184.7104703026024
 20
15.48048561049788
 10
184.7222823035537
 20
15.52931442126764
 10
184.7142496151793
 20
15.57269004896709
 10
184.7228186104679
 20
15.61509438309573
 10
184.7102943409157
 20
15.66267796552118
 10
184.7555101538735
 20
15.65267212995109
 10
184.8014815562723
 20
15.65894105174061
 10
184.877722204771
 20
15.65593561405872
 10
184.9561296131993
 20
15.65770448278541
 10
185.0323992648932
 20
15.65464793981659
 10
185.0783009459475
 20
15.66103971376177
 10
185.12317339654
 20
15.65093822978896
 10
185.1105552275634
 20
15.70157201581899
 10
185.1191936582707
 20
15.7550126188207
 10
185.1152361595443
 20
15.84863255131681
 10
185.1162325068335
 20
15.95112606688924
 10
185.1171927413073
 20
16.05353270248164
 10
185.1133211458005
 20
16.14735929609322
 10
185.1217789814365
 20
16.20036542840353
 10
185.1093075932835
 20
16.25211435651189
 10
185.154210638985
 20
16.23850747226758
 10
185.1955083836772
 20
16.24100480320587
 10
185.259534428105
 20
16.23648060574489
 10
185.2986111148786
 20
16.22781003043308
 10
185.3476543498742
 20
16.23515102070688
 10
185.3225080030591
 20
16.19602896051762
 10
185.2815901333724
 20
16.20563842455805
 10
185.2910109616604
 20
16.15540148169778
 10
185.2855647318747
 20
16.1038594563949
 10
185.2881699601805
 20
16.0195970758452
 10
185.2870102202155
 20
15.92559135583408
 10
185.2883591064232
 20
15.83196865395525
 10
185.2849970101508
 20
15.74679517552223
 10
185.292095991777
 20
15.69716856072044
 10
185.2812569154547
 20
15.64993694969989
 10
185.3304010225246
 20
15.66201674936851
 10
185.3794877630147
 20
15.65447393363011
 10
185.4573714280641
 20
15.65686070361432
 10
185.5350365172897
 20
15.65899381905415
 10
185.5845393931354
 20
15.65193391922454
 10
185.6344594750639
 20
15.66360151936214
 10
185.622319851688
 20
15.61540235371393
 10
185.6305838229144
 20
15.57249219801236
 10
185.6223198650783
 20
15.52958201851385
 10
185.6344594549855
 20
15.48138288754865
 10
185.5845395158746
 20
15.49305034471511
 10
185.5350350651204
 20
15.48599202435047
 10
185.4573784382973
 20
15.48811665228604
 10
185.379464386576
 20
15.49053389365761
 10
185.3304500352718
 20
15.48291848194487
 10
185.2813246108944
 20
15.49507952557592
 10
185.2915559988572
 20
15.45073013424159
 10
185.2856677678054
 20
15.40925436202912
 10
185.287878830557
 20
15.34915394315304
 10
185.2874109346147
 20
15.3022578276289
 10
185.2874386992914
 20
15.27650146418197
 10
185.2874469028654
 20
15.2688916318772
 97
        1
330
AA
 75
     1
 76
     2
 52
45.0
 41
0.1
 77
     0
 78
     1
 53
45.0
 43
0.0
 44
0.0
 45
-0.282842712474619
 46
0.0
 79
     0
 98
        1
 10
0.0
 20
0.0
  0
HATCH
  5
C8
330
48
100
AcDbEntity
  8
1
  6
Continuous
 62
     2
100
AcDbHatch
 10
0.0
 20
0.0
 30
0.0
210
0.0
220
0.0
230
1.0
  2
CUSTOM6
 70
     0
 71
     1
 91
        1
 92
        1
 93
        1
 72
     4
 94
        3
 73
     0
 74
     0
 95
       91
 96
       87
 40
0.0
 40
0.0
 40
0.0
 40
0.0
 40
0.0345987051695718
 40
0.1258134969461369
 40
0.2547723404888987
 40
0.4026032099154125
 40
0.5504340793416704
 40
0.679392922883608
 40
0.7706077146571035
 40
0.8052064287780925
 40
1.124852390615281
 40
1.427402236308877
 40
1.706356627453519
 40
1.955541417875212
 40
2.169485938566357
 40
2.344350786664827
 40
2.480568411561997
 40
2.590440557429046
 40
2.649189927151149
 40
2.749320643306349
 40
2.912632739880051
 40
3.14774565600026
 40
3.244827496385061
 40
3.338490056946653
 40
3.58381541320708
 40
3.76142394323844
 40
3.886956104362604
 40
3.985855451886764
 40
4.091766255337649
 40
4.250186473811842
 40
4.422734315084487
 40
4.62828568483858
 40
4.872093227758412
 40
5.152549652145523
 40
5.464967135837506
 40
5.803201477852425
 40
6.160362988813905
 40
6.19344944827596
 40
6.284170385501614
 40
6.419718138764456
 40
6.587285046385706
 40
6.77406344672362
 40
6.967245678113574
 40
7.154024078817589
 40
7.321590987025946
 40
7.457138740890276
 40
7.547859678556012
 40
7.580946138182572
 40
7.608533084714622
 40
7.669224367077589
 40
7.729915649429801
 40
7.757502595949848
 40
7.79027806255333
 40
7.8801462774308
 40
8.014419963180234
 40
8.180411842397735
 40
8.365434637679204
 40
8.556801071622477
 40
8.741823866830561
 40
8.907815745916128
 40
9.042089431507225
 40
9.13195764624935
 40
9.164733112796927
 40
9.415425063139864
 40
9.667986180958332
 40
9.6941698074625
 40
9.756607686047458
 40
9.83113031532235
 40
9.893568193899785
 40
9.91975182039863
 40
9.950967964690474
 40
9.996421631210584
 40
10.22087981037447
 40
10.44341866197537
 40
10.47847970788849
 40
10.5709133743875
 40
10.70159545461224
 40
10.85140174170355
 40
11.00120802880472
 40
11.13189010907377
 40
11.22432377583005
 40
11.25938480938951
 40
11.28697175596139
 40
11.34766303835913
 40
11.40835432042062
 40
11.43594125892097
 40
11.43594125892097
 40
11.43594125892097
 40
11.43594125892097
 10
190.0818114333289
 20
15.55242795125078
 10
190.0702785844941
 20
15.55242790287916
 10
190.0283409444998
 20
15.55242773704165
 10
189.9434129719026
 20
15.5524312580091
 10
189.8207688553128
 20
15.55240926435879
 10
189.6791206916993
 20
15.55250801177055
 10
189.537975369849
 20
15.55214686232421
 10
189.4141351317904
 20
15.5532188360909
 10
189.3317217825382
 20
15.55092249091269
 10
189.1727791229692
 20
15.56048569373422
 10
189.3503402353375
 20
15.19785394311371
 10
189.3379739205452
 20
14.95243127723115
 10
189.4064519473864
 20
14.66862501324834
 10
189.469302432097
 20
14.43250999939036
 10
189.5452253431729
 20
14.23326740396129
 10
189.6303189577016
 20
14.07745347451372
 10
189.7244607592937
 20
13.97657857781394
 10
189.8282648207728
 20
13.92465852638963
 10
189.9125872030774
 20
13.97606484379619
 10
189.9351322179452
 20
14.09144544037516
 10
189.9745730975371
 20
14.21885149702379
 10
189.9202919734944
 20
14.53622328086758
 10
190.0451218072473
 20
14.38982180140904
 10
190.2019291513603
 20
14.35795300331172
 10
190.0947720007057
 20
14.12421357767628
 10
190.0808711209867
 20
13.95972776583656
 10
190.0234709467225
 20
13.83130869122483
 10
189.9335020145008
 20
13.76018802352826
 10
189.8095274657877
 20
13.74432324142254
 10
189.663427319686
 20
13.77993797554171
 10
189.5243894320284
 20
13.90000570500277
 10
189.4102003962144
 20
14.0743568255032
 10
189.3146141301486
 20
14.2994660311124
 10
189.2318652572625
 20
14.56388246006442
 10
189.1807179256411
 20
14.88187933098543
 10
189.0770189207339
 20
15.15543728488912
 10
189.204284120852
 20
15.56005818612869
 10
189.0357890623018
 20
15.55112367849679
 10
188.9511995787077
 20
15.55315961418365
 10
188.8189876387628
 20
15.55213937388407
 10
188.6560505094104
 20
15.5525323031843
 10
188.4733759170533
 20
15.5523569631337
 10
188.2847057373383
 20
15.55260105307469
 10
188.1014469020189
 20
15.55185657906237
 10
187.9404746832719
 20
15.55416360522427
 10
187.8029808335276
 20
15.54799804883663
 10
187.7289590372311
 20
15.56032838458212
 10
187.6613215186858
 20
15.54329323723557
 10
187.673237371927
 20
15.59524438447528
 10
187.6655677285694
 20
15.64071424966529
 10
187.6732592225116
 20
15.68614453703704
 10
187.6613141797762
 20
15.73802395984569
 10
187.7283588305868
 20
15.72119143490262
 10
187.8017375665677
 20
15.73335409092669
 10
187.9379128305273
 20
15.72727231074956
 10
188.0973811801513
 20
15.72954834315056
 10
188.2789173085837
 20
15.72881233998961
 10
188.4658034862179
 20
15.72905954196131
 10
188.6468012316836
 20
15.72886400799252
 10
188.8080802578879
 20
15.72932234714837
 10
188.9393882124887
 20
15.72812673751204
 10
189.0225051322597
 20
15.73051347319741
 10
189.1556236547813
 20
15.72230605725461
 10
189.0645893502659
 20
15.97752868952654
 10
188.9789633074418
 20
16.24164358328247
 10
189.0990589003455
 20
16.22904442969165
 10
189.1514264948543
 20
16.22694235763075
 10
189.2214497569716
 20
16.22535399889658
 10
189.2671922337818
 20
16.21602567538113
 10
189.3220812646934
 20
16.22545966915428
 10
189.2963574785682
 20
16.17733028655173
 10
189.1825397571453
 20
16.18266829744167
 10
189.3159346621137
 20
15.95449174576776
 10
189.1943658735472
 20
15.72156856595921
 10
189.3223188769413
 20
15.73087258884437
 10
189.4049048406461
 20
15.72801001754678
 10
189.5307214850824
 20
15.729234374123
 10
189.6741469838058
 20
15.72932431888962
 10
189.8157420951728
 20
15.72746163183851
 10
189.9459127249968
 20
15.73333075937161
 10
190.019345228619
 20
15.72070340823201
 10
190.0891112922097
 20
15.7387756311041
 10
190.0775772605396
 20
15.68612850546325
 10
190.0833184346683
 20
15.64221317686548
 10
190.081661577091
 20
15.59089982676548
 10
190.081775756167
 20
15.56158792021635
 10
190.0818114333289
 20
15.55242795125078
 97
        1
330
AB
 75
     1
 76
     2
 52
45.0
 41
0.1
 77
     0
 78
     1
 53
45.0
 43
0.0
 44
0.0
 45
-0.282842712474619
 46
0.0
 79
     0
 98
        1
 10
0.0
 20
0.0
  0
HATCH
  5
C9
330
48
100
AcDbEntity
  8
1
  6
Continuous
 62
     2
100
AcDbHatch
 10
0.0
 20
0.0
 30
0.0
210
0.0
220
0.0
230
1.0
  2
CUSTOM7
 70
     0
 71
     1
 91
        1
 92
        1
 93
        1
 72
     4
 94
        3
 73
     0
 74
     0
 95
       75
 96
       71
 40
0.0
 40
0.0
 40
0.0
 40
0.0
 40
0.0342546099129691
 40
0.1245622414432346
 40
0.2522385480897536
 40
0.398599192294068
 40
0.5449598364980839
 40
0.6726361431438834
 40
0.7629437746736978
 40
0.797198393529799
 40
1.101723623449721
 40
1.40859124403667
 40
1.433332471690374
 40
1.487763172450169
 40
1.542193873081994
 40
1.566935100592542
 40
1.923523931821855
 40
2.271755704953628
 40
2.590579755100844
 40
2.858943305581075
 40
2.889120339309106
 40
2.918305855191096
 40
2.941366645531219
 40
2.996357760973104
 40
3.061992318140653
 40
3.116983433626824
 40
3.140044223997513
 40
3.411273122936348
 40
3.732441619741012
 40
3.76106821753271
 40
3.837787499630272
 40
3.948858699125909
 40
4.080541049104284
 40
4.219093782625666
 40
4.350776132722215
 40
4.461847332405549
 40
4.538566614678279
 40
4.567193212544526
 40
4.594907573998784
 40
4.666381453557323
 40
4.764111044010933
 40
4.870592538125736
 40
4.968322128642187
 40
5.039796008286872
 40
5.067510369784332
 40
5.094263603185546
 40
5.153120716668187
 40
5.211977830150637
 40
5.238731063551644
 40
5.272290535138882
 40
5.363380529444743
 40
5.497618415781421
 40
5.660621563453663
 40
5.838007341749364
 40
6.015393119910716
 40
6.178396267038341
 40
6.312634151842293
 40
6.403724143059282
 40
6.437283612672378
 40
6.464036846260996
 40
6.522893960004616
 40
6.581751071483884
 40
6.608504301590832
 40
6.63725394128098
 40
6.711397748902831
 40
6.812778057283444
 40
6.92323719924922
 40
7.024617507623864
 40
7.098761315207517
 40
7.127510946007467
 40
7.127510946007467
 40
7.127510946007467
 40
7.127510946007467
 10
188.4418622390564
 20
14.95849128473263
 10
188.4418622819707
 20
14.94707313408719
 10
188.4418624481129
 20
14.90555257842628
 10
188.4418593081786
 20
14.8214692200377
 10
188.4418788279801
 20
14.70004497322327
 10
188.4417912187737
 20
14.55980494047446
 10
188.442111623523
 20
14.42006556794575
 10
188.441160590974
 20
14.29745038894928
 10
188.4431978595967
 20
14.21587074438041
 10
188.4349433178746
 20
14.06271267077694
 10
188.7430797940901
 20
14.22560236054718
 10
189.0350645173737
 20
14.39482938688001
 10
189.0408354448707
 20
14.25973235781911
 10
189.0455471719891
 20
14.21617221160444
 10
189.0482535411917
 20
14.17211249350545
 10
189.0672545672961
 20
14.02272590363135
 10
188.6583942247302
 20
14.08681172241262
 10
188.3793710348832
 20
13.97296341411016
 10
188.1018081587167
 20
13.87364095811142
 10
187.80998371844
 20
13.91630687596352
 10
187.7869144678659
 20
13.81321679744538
 10
187.7537474383333
 20
13.78691091244469
 10
187.7480653962738
 20
13.83455309036303
 10
187.7284214559045
 20
13.87180336115071
 10
187.7095089485623
 20
13.93007387847562
 10
187.6942849867708
 20
13.97385201007807
 10
187.6477246372935
 20
14.08759421046305
 10
187.9890897312451
 20
14.05576301120049
 10
188.2679649367386
 20
14.02161435106479
 10
188.2617753034907
 20
14.16913976479652
 10
188.2630935452773
 20
14.24013150908832
 10
188.2624831689948
 20
14.34719767958661
 10
188.2625871570725
 20
14.47398529785997
 10
188.2629987964055
 20
14.6084924349605
 10
188.2613907841969
 20
14.73395549951183
 10
188.2659902567925
 20
14.84505246719117
 10
188.256418650221
 20
14.90761886800687
 10
188.2704001783691
 20
14.96595388295
 10
188.2147384386704
 20
14.95289710582236
 10
188.1575655197821
 20
14.96136307749497
 10
188.0616048925648
 20
14.95729976080635
 10
187.963376752282
 20
14.95970889852473
 10
187.8672582457561
 20
14.95551600613387
 10
187.810464852581
 20
14.96429346441162
 10
187.7550356873384
 20
14.9509493685012
 10
187.7670679427916
 20
15.00036910959256
 10
187.7592003173938
 20
15.04393988030395
 10
187.7666295563829
 20
15.08830469118525
 10
187.7551930564143
 20
15.13902297763991
 10
187.8232102370133
 20
15.12162460757743
 10
187.8968496879747
 20
15.13417450237189
 10
188.0325064058211
 20
15.12799677011097
 10
188.1884909024525
 20
15.13029203093084
 10
188.3615926358143
 20
15.1294096826253
 10
188.5346942964181
 20
15.13029207142408
 10
188.6906789811216
 20
15.1279966295555
 10
188.8263351889797
 20
15.13417486262432
 10
188.8999756705652
 20
15.12162394218334
 10
188.9679914174724
 20
15.13902373012143
 10
188.9565590885922
 20
15.08830130414555
 10
188.9639539458297
 20
15.04397060811107
 10
188.956203991227
 20
15.00028307550195
 10
188.9681203741877
 20
14.95063590098476
 10
188.9108170223616
 20
14.96461411338424
 10
188.8520145789772
 20
14.95539755673252
 10
188.7525293633199
 20
14.95952268164928
 10
188.649428009835
 20
14.95822760025887
 10
188.5537846354573
 20
14.95854077077639
 10
188.4857467971617
 20
14.95848776697144
 10
188.4514462213443
 20
14.95849051871655
 10
188.4418622390564
 20
14.95849128473263
 97
        1
330
AC
 75
     1
 76
     2
 52
45.0
 41
0.1
 77
     0
 78
     1
 53
45.0
 43
0.0
 44
0.0
 45
-0.282842712474619
 46
0.0
 79
     0
 98
        1
 10
0.0
 20
0.0
  0
HATCH
  5
CA
330
48
100
AcDbEntity
  8
1
  6
Continuous
 62
     2
100
AcDbHatch
 10
0.0
 20
0.0
 30
0.0
210
0.0
220
0.0
230
1.0
  2
CUSTOM8
 70
     0
 71
     1
 91
        1
 92
        1
 93
        1
 72
     4
 94
        3
 73
     0
 74
     0
 95
       15
 96
       11
 40
0.0
 40
0.0
 40
0.0
 40
0.0
 40
0.2785535985096595
 40
0.5215624748198944
 40
0.6076917376040164
 40
0.6938210001740484
 40
0.94050191464549
 40
1.221691403489058
 40
1.300471877080933
 40
1.379252341684659
 40
1.379252341684659
 40
1.379252341684659
 40
1.379252341684659
 10
189.5681493630999
 20
16.22930267330382
 10
189.6296017794178
 20
16.17691646592716
 10
189.7446649974114
 20
16.07882876798222
 10
190.0397348497243
 20
15.92889785897225
 10
189.9025147631857
 20
15.84343227515013
 10
189.8041227843779
 20
15.71085785201552
 10
189.7130033590651
 20
16.01616985781415
 10
189.3636839480657
 20
16.07967869465373
 10
189.5119258376571
 20
16.17896509880878
 10
189.5494081874236
 20
16.21252348402383
 10
189.5681493630999
 20
16.22930267330382
 97
        1
330
AD
 75
     1
 76
     2
 52
45.0
 41
0.1
 77
     0
 78
     1
 53
45.0
 43
0.0
 44
0.0
 45
-0.282842712474619
 46
0.0
 79
     0
 98
        1
 10
0.0
 20
0.0
  0
HATCH
  5
CB
330
48
100
AcDbEntity
  8
1
  6
Continuous
 62
     2
100
AcDbHatch
 10
0.0
 20
0.0
 30
0.0
210
0.0
220
0.0
230
1.0
  2
CUSTOM9
 70
     0
 71
     1
 91
        1
 92
        1
 93
        1
 72
     4
 94
        3
 73
     0
 74
     0
 95
       35
 96
       31
 40
0.0
 40
0.0
 40
0.0
 40
0.0
 40
0.0335231036620315
 40
0.0713218571712275
 40
0.427886668148744
 40
0.8116865841964247
 40
1.198190238000129
 40
1.561379546812781
 40
1.659983174622193
 40
1.759315573807299
 40
2.132719617231234
 40
2.525233363588985
 40
2.910815397779871
 40
3.265244364303463
 40
3.5926067235822
 40
3.964386154604146
 40
4.359942131737965
 40
4.758154118639475
 40
4.843846538700086
 40
4.936650065543406
 40
5.256616602537485
 40
5.581707404416218
 40
5.899719158308313
 40
6.198363494280919
 40
6.466301046615949
 40
6.493895311537271
 40
6.559697020197063
 40
6.638234543442639
 40
6.704036252154391
 40
6.731630508423197
 40
6.731630508423197
 40
6.731630508423197
 40
6.731630508423197
 10
191.9736010568669
 20
16.23463843719135
 10
191.9676006097789
 20
16.22480690542323
 10
191.9548344099157
 20
16.20388988579796
 10
191.7949362006553
 20
16.17127126532699
 10
192.2322025842338
 20
15.88206680336701
 10
192.4345394828262
 20
15.68041138358436
 10
192.6819564267974
 20
15.4374938760328
 10
193.1831513624608
 20
15.36047662757772
 10
193.012556219897
 20
15.2187693917466
 10
192.9383299463202
 20
15.01710366209102
 10
192.6131432248188
 20
15.36956287174726
 10
192.3277741670665
 20
15.53175212559562
 10
192.0337604077658
 20
15.73687130053047
 10
191.8084452691134
 20
16.21827488595455
 10
191.5993085055521
 20
15.75343046609223
 10
191.3207873674834
 20
15.54350952252912
 10
191.0371383177209
 20
15.37424456359986
 10
190.7078639527831
 20
15.00142360907937
 10
190.6277012318224
 20
15.19708014459002
 10
190.4759724909745
 20
15.32491104190596
 10
190.9083395826794
 20
15.40454031765936
 10
191.0962565329766
 20
15.60026634915473
 10
191.3468477420502
 20
15.81632996916755
 10
191.5714350470162
 20
15.98190992300059
 10
191.6259775409711
 20
16.26133964636826
 10
191.7494661029011
 20
16.24737950408079
 10
191.806027334452
 20
16.24521268867648
 10
191.8761870984944
 20
16.24046859881361
 10
191.9333414022105
 20
16.23709429350541
 10
191.9644190320839
 20
16.2351985471112
 10
191.9736010568669
 20
16.23463843719135
 97
        1
330
AE
 75
     1
 76
     2
 52
45.0
 41
0.1
 77
     0
 78
     1
 53
45.0
 43
0.0
 44
0.0
 45
-0.282842712474619
 46
0.0
 79
     0
 98
        1
 10
0.0
 20
0.0
  0
HATCH
  5
CC
330
48
100
AcDbEntity
  8
1
  6
Continuous
 62
     2
100
AcDbHatch
 10
0.0
 20
0.0
 30
0.0
210
0.0
220
0.0
230
1.0
  2
CUSTOM10
 70
     0
 71
     1
 91
        1
 92
        1
 93
        1
 72
     4
 94
        3
 73
     0
 74
     0
 95
       91
 96
       87
 40
0.0
 40
0.0
 40
0.0
 40
0.0
 40
0.0267532254356701
 40
0.0856103386464102
 40
0.1444674521996621
 40
0.1712206856618514
 40
0.2039416005642536
 40
0.2955601971652484
 40
0.4362601844617202
 40
0.6162252844507534
 40
0.8256392189704982
 40
1.054685709844468
 40
1.293548478893588
 40
1.532411247938332
 40
1.761457738799596
 40
1.970871673298593
 40
2.150836773256818
 40
2.291536760495679
 40
2.383155356836757
 40
2.415876284101405
 40
2.44262951748805
 40
2.50148663094918
 40
2.560343744424327
 40
2.5870969778266
 40
2.617068194441027
 40
2.699247336756197
 40
2.822032643466481
 40
2.973822353258039
 40
3.143014704823481
 40
3.31800793688006
 40
3.487200288186894
 40
3.638989997548431
 40
3.76177530379493
 40
3.843954445753265
 40
3.87392566222996
 40
3.890812773500668
 40
3.907699884771846
 40
3.937960767857411
 40
3.980983618142499
 40
4.199085915228644
 40
4.439444339237435
 40
4.677588241261079
 40
5.050698317837993
 40
5.448212454763407
 40
5.855291218044876
 40
6.138575438885532
 40
6.417434507584381
 40
6.444551104394065
 40
6.504207617363368
 40
6.563864130314695
 40
6.590980727104289
 40
6.848609460381717
 40
7.109611990668679
 40
7.352910904446344
 40
7.557830220705682
 40
7.587518925913599
 40
7.652834077376017
 40
7.718149228845952
 40
7.747837934062255
 40
7.854880190301206
 40
7.976511257403696
 40
8.369487896592526
 40
8.757514959223847
 40
9.126072419331281
 40
9.460639380392372
 40
9.746695593036142
 40
9.777569943118923
 40
9.80705032093202
 40
9.830377336129146
 40
9.886003295436234
 40
9.952395569430134
 40
10.00802152870649
 40
10.03134854388241
 40
10.21356951009606
 40
10.42203479292897
 40
10.66154556731086
 40
10.91693789564324
 40
11.15832906556585
 40
11.18982674596642
 40
11.27286608520427
 40
11.39026653033369
 40
11.52484752840905
 40
11.65942852648467
 40
11.77682897161503
 40
11.85986831085702
 40
11.89136598230447
 40
11.89136598230447
 40
11.89136598230447
 40
11.89136598230447
 10
190.7027885008196
 20
14.70699600701772
 10
190.7028237765288
 20
14.71587847311985
 10
190.7029366710796
 20
14.74430237047346
 10
190.7012984568489
 20
14.79409639169803
 10
190.7069750292911
 20
14.83657564478154
 10
190.6956928731706
 20
14.88730154856847
 10
190.7632296979031
 20
14.87012900740109
 10
190.8388029210701
 20
14.88290227165996
 10
190.9828357056001
 20
14.87629729457382
 10
191.1569419185427
 20
14.87888462206466
 10
191.3639599611003
 20
14.87800591955553
 10
191.5894688172378
 20
14.87828207920027
 10
191.8251162293406
 20
14.87818339658662
 10
192.0607640531349
 20
14.87828184412767
 10
192.2862717580626
 20
14.87800678190789
 10
192.4932934632805
 20
14.87888186270734
 10
192.667388891529
 20
14.87630522678446
 10
192.8114492071986
 20
14.88288290449213
 10
192.8869691915294
 20
14.87016243405604
 10
192.954577603703
 20
14.88726400191687
 10
192.9430840140677
 20
14.83674785802941
 10
192.9505104581733
 20
14.79253252226501
 10
192.9428838927986
 20
14.7486796650361
 10
192.9546489459426
 20
14.69878374479327
 10
192.8930788491983
 20
14.71393227712512
 10
192.8256791738672
 20
14.70310665350673
 10
192.7013004056222
 20
14.70852031626237
 10
192.5554428236572
 20
14.70649205390785
 10
192.3893576440086
 20
14.70715777578387
 10
192.2188412621725
 20
14.70689643521242
 10
192.0519790855389
 20
14.70721553391094
 10
191.9087346827105
 20
14.70635302590762
 10
191.7773313869833
 20
14.70863300482988
 10
191.7239859134657
 20
14.70407704374202
 10
191.6485188456912
 20
14.70999914992877
 10
191.6769075779233
 20
14.70094169343353
 10
191.7033652409542
 20
14.6972591226893
 10
191.6633522907701
 20
14.66654271968271
 10
191.5713663691868
 20
14.67667591174643
 10
191.5439396207069
 20
14.43032502247782
 10
191.4478793967235
 20
14.27499558764376
 10
191.1917277964473
 20
13.94525417931567
 10
191.7627537732762
 20
14.08430022210452
 10
192.0173656320517
 20
14.08291779973364
 10
192.6279647048617
 20
13.99790569242085
 10
192.3340698578083
 20
14.29685417558207
 10
192.0133304286518
 20
14.4433085690178
 10
192.1313543360433
 20
14.50025540818286
 10
192.1724716466261
 20
14.52420099873348
 10
192.2156812394412
 20
14.54599758811231
 10
192.3174574094449
 20
14.60928721253904
 10
192.4328867625248
 20
14.35147151408783
 10
192.6329591642278
 20
14.21616041113682
 10
192.7269077387228
 20
14.03792795138884
 10
192.9558829746392
 20
13.87997821027047
 10
192.8596031846708
 20
13.829159725763
 10
192.8167959763779
 20
13.79881292523054
 10
192.7718243528779
 20
13.77466130281459
 10
192.7121720925214
 20
13.72552146747569
 10
192.6789731061324
 20
13.85997475673606
 10
192.5582013350797
 20
14.01594265286587
 10
192.1970976005979
 20
13.88569928059554
 10
191.8385061955541
 20
13.90224694409484
 10
191.457092045008
 20
13.89331229351864
 10
191.1703455282891
 20
13.82882671672407
 10
190.8592055599715
 20
13.94230668192827
 10
190.8268737818788
 20
13.83122259927767
 10
190.7896178253317
 20
13.81196313850013
 10
190.7865737632754
 20
13.85874784087298
 10
190.7679892860606
 20
13.89806853919134
 10
190.7512436616778
 20
13.95765983478235
 10
190.7383730915754
 20
14.00201969871284
 10
190.7042327806429
 20
14.09106331120202
 10
190.9482714457755
 20
14.02181042943768
 10
191.1441394486672
 20
14.00030369057743
 10
191.2395426381277
 20
14.28226484478463
 10
191.2945135769597
 20
14.44363045421126
 10
191.5159619357156
 20
14.71391177589737
 10
191.3849239381216
 20
14.70548446853735
 10
191.3110026555854
 20
14.70779008496969
 10
191.1977459876244
 20
14.70671378321658
 10
191.0694251807484
 20
14.7070763907651
 10
190.9404252030415
 20
14.70697724466086
 10
190.828784094629
 20
14.70699932712572
 10
190.7514663970026
 20
14.7069957918967
 10
190.713287653201
 20
14.70699595845081
 10
190.7027885008196
 20
14.70699600701772
 97
        1
330
AF
 75
     1
 76
     2
 52
45.0
 41
0.1
 77
     0
 78
     1
 53
45.0
 43
0.0
 44
0.0
 45
-0.282842712474619
 46
0.0
 79
     0
 98
        1
 10
0.0
 20
0.0
  0
HATCH
  5
CD
330
48
100
AcDbEntity
  8
1
  6
Continuous
 62
     2
100
AcDbHatch
 10
0.0
 20
0.0
 30
0.0
210
0.0
220
0.0
230
1.0
  2
CUSTOM11
 70
     0
 71
     1
 91
        1
 92
        1
 93
        1
 72
     4
 94
        3
 73
     0
 74
     0
 95
      131
 96
      127
 40
0.0
 40
0.0
 40
0.0
 40
0.0
 40
0.019557702982617
 40
0.042649053746157
 40
0.2863607575856474
 40
0.5344948436188959
 40
0.7842238845573165
 40
0.873731578946738
 40
0.9803832810312907
 40
1.092842274517039
 40
1.199761146656799
 40
1.289788768186503
 40
1.351573580786193
 40
1.370727117561422
 40
1.416400936017832
 40
1.470914848355976
 40
1.516588666791765
 40
1.535742203552846
 40
1.634216592293193
 40
1.760283341175008
 40
1.897966686682073
 40
2.031216387368858
 40
2.049689751137851
 40
2.101115601646788
 40
2.179502577739907
 40
2.278859318314021
 40
2.39319446225868
 40
2.516516648383796
 40
2.642834515405925
 40
2.766156701983427
 40
2.880491846754543
 40
2.979848588358585
 40
3.058235565443765
 40
3.109661416668919
 40
3.128134780704094
 40
3.146783742386411
 40
3.1912543433153
 40
3.244332157315959
 40
3.288802758225891
 40
3.307451719895163
 40
3.327717853844776
 40
3.383747753580135
 40
3.468388665924525
 40
3.574487837698834
 40
3.694892515728938
 40
3.822449946852077
 40
3.950007377920466
 40
4.070412055800558
 40
4.176511227368113
 40
4.26115213950156
 40
4.317182039076753
 40
4.337448172964672
 40
4.62001100269624
 40
4.885096638397556
 40
4.94537304351838
 40
5.014107710488688
 40
5.070481727652072
 40
5.319246955636596
 40
5.584812164506068
 40
5.859000912056921
 40
6.133746937542101
 40
6.401732212968906
 40
6.420736683995496
 40
6.472845717451118
 40
6.550702743894046
 40
6.646951193874198
 40
6.75423449793055
 40
6.865196086587328
 40
6.972479390357758
 40
7.068727839771892
 40
7.146584865450901
 40
7.198693898189131
 40
7.217698368905271
 40
7.23495040163075
 40
7.276089864269796
 40
7.32519180351591
 40
7.366331266090299
 40
7.383583298769651
 40
7.402779163492028
 40
7.453386443254431
 40
7.524934666445432
 40
7.606953361405743
 40
7.688972056428867
 40
7.760520279784089
 40
7.811127559734331
 40
7.830323424545952
 40
7.847844055299582
 40
7.894799345666623
 40
7.962779392744311
 40
8.043374293560358
 40
8.128174145149265
 40
8.20876904481707
 40
8.27674909037677
 40
8.323704379669328
 40
8.341225010056062
 40
8.35849761480021
 40
8.401679126686416
 40
8.457815092185474
 40
8.513951057727878
 40
8.557132569707834
 40
8.574405174504877
 40
8.602340668616229
 40
8.643455660539718
 40
8.663225271966386
 40
8.715345156564034
 40
8.789031889628369
 40
8.873502045520098
 40
8.957972194323721
 40
9.031658925567612
 40
9.083778811234303
 40
9.103548423002765
 40
9.11955008312333
 40
9.160817522379604
 40
9.217244429109998
 40
9.278724491644484
 40
9.33515139829524
 40
9.376418837357535
 40
9.392420497300323
 40
9.401196302734515
 40
9.417494229383937
 40
9.42627002774921
 40
9.440875075477242
 40
9.475702496998421
 40
9.517270709865583
 40
9.55209813199375
 40
9.566703169883958
 40
9.566703169883958
 40
9.566703169883958
 40
9.566703169883958
 10
194.6170254148479
 20
15.67015871511028
 10
194.6134345093371
 20
15.6645369070216
 10
194.6056039123625
 20
15.65227754419112
 10
194.5129968974547
 20
15.61601916040967
 10
194.4887622233248
 20
15.40148444212717
 10
194.3858709845939
 20
15.22197284509705
 10
194.1220492364305
 20
15.03615573798148
 10
194.284547156918
 20
14.95959336566081
 10
194.3607225760838
 20
14.89856693195442
 10
194.4492171072758
 20
14.83515804544759
 10
194.538993023311
 20
14.7752563421956
 10
194.5883817636046
 20
14.72102154849206
 10
194.6745708157382
 20
14.69286240541834
 10
194.6411260674229
 20
14.65713309652811
 10
194.621467116631
 20
14.62550387991906
 10
194.5919888217882
 20
14.58475872796069
 10
194.5688989446032
 20
14.55504663489644
 10
194.5380205968356
 20
14.50211422668493
 10
194.472919336574
 20
14.627403349389
 10
194.3796000122416
 20
14.68213900233934
 10
194.2950636285138
 20
14.73916423939341
 10
194.1722498125743
 20
14.89675287427523
 10
194.1764450847302
 20
14.82035806766837
 10
194.1751478652679
 20
14.77361280161297
 10
194.1758126448078
 20
14.69584785812602
 10
194.1755549986958
 20
14.59902068324423
 10
194.1756431239923
 20
14.4865027907881
 10
194.175607730228
 20
14.36524085945699
 10
194.1756511758281
 20
14.24086897858962
 10
194.1755199942406
 20
14.11967683631336
 10
194.1759477562048
 20
14.00691148919744
 10
194.174667820231
 20
13.91082913768744
 10
194.1779759851044
 20
13.831138264687
 10
194.1715197740087
 20
13.78815175788784
 10
194.1806208705557
 20
13.74955432372042
 10
194.1447910339936
 20
13.75810887724071
 10
194.1115223815253
 20
13.75342519985446
 10
194.0604562576041
 20
13.75351298759784
 10
194.0269723972813
 20
13.75794430283821
 10
193.9907585408754
 20
13.74960793842509
 10
194.0009782568665
 20
13.79145277179284
 10
193.9936487887773
 20
13.83778560820173
 10
193.9973633136103
 20
13.92374831106014
 10
193.9959480554896
 20
14.02605142704849
 10
193.9964105554638
 20
14.14453223931512
 10
193.996277368623
 20
14.26957683153356
 10
193.9963015910045
 20
14.3947582810705
 10
193.9963354925551
 20
14.51286645379058
 10
193.9962060293132
 20
14.61628748709516
 10
193.9965507549081
 20
14.69932036153667
 10
193.9958698278689
 20
14.75143368521243
 10
193.9994586600625
 20
14.87912907821361
 10
193.7826171386435
 20
14.58048716819613
 10
193.6021354921952
 20
14.35263981511514
 10
193.5490322295611
 20
14.49373443289814
 10
193.5200429133149
 20
14.54325767560944
 10
193.4196648062819
 20
14.64641779790103
 10
193.7405127723261
 20
14.72695035023778
 10
193.8689897005429
 20
14.91066283036433
 10
194.090645432536
 20
15.11931995771762
 10
194.1770224894068
 20
15.29339211228342
 10
194.4549394229075
 20
15.5696705134251
 10
194.3346247839284
 20
15.56534559551113
 10
194.2863197351349
 20
15.56614856202552
 10
194.2102377454905
 20
15.56574582146583
 10
194.1167010009751
 20
15.56590275611609
 10
194.0117594788557
 20
15.56582502576223
 10
193.9033887738718
 20
15.56595464378553
 10
193.7981454235898
 20
15.5655439349069
 10
193.7056237819414
 20
15.5668207367159
 10
193.6268130800709
 20
15.56340766534849
 10
193.5839674565381
 20
15.57023350036318
 10
193.5449499586516
 20
15.56065064201123
 10
193.5526365271866
 20
15.59420779565542
 10
193.5485464404313
 20
15.62523550322232
 10
193.5485531368815
 20
15.672365292709
 10
193.5526239724913
 20
15.70340941646779
 10
193.5449495574583
 20
15.73701861635901
 10
193.5834819405495
 20
15.72748410420872
 10
193.624122801448
 20
15.73397435498071
 10
193.6951471850464
 20
15.73100150650254
 10
193.7729318149634
 20
15.73174761399158
 10
193.8507292246474
 20
15.73247814044525
 10
193.9217232089908
 20
15.72954235514161
 10
193.962427979182
 20
15.73595468772951
 10
194.000985348991
 20
15.72650524176004
 10
193.9927342754927
 20
15.76264692158784
 10
193.9982346669359
 20
15.80129837613227
 10
193.9955754206163
 20
15.86913528561839
 10
193.9965815471533
 20
15.9459164153874
 10
193.9960178018319
 20
16.02849393582757
 10
193.9970714526592
 20
16.10517329229878
 10
193.994267586313
 20
16.173319907767
 10
194.0000702721304
 20
16.21132399809346
 10
193.9915654551158
 20
16.24758448077646
 10
194.0255610233125
 20
16.23755723771853
 10
194.05945756831
 20
16.24073266813707
 10
194.1126669060346
 20
16.2350896564061
 10
194.1660768574482
 20
16.23434774436426
 10
194.1995914649491
 20
16.22819223482981
 10
194.2388086183039
 20
16.23346029773594
 10
194.2120263698492
 20
16.19253380793491
 10
194.1708111001724
 20
16.20371204538109
 10
194.1782641540875
 20
16.15867056192124
 10
194.1742227952185
 20
16.11412278028144
 10
194.176171404964
 20
16.04223572621703
 10
194.1752364849759
 20
15.96168630588771
 10
194.176510719003
 20
15.88173995404994
 10
194.1732043793865
 20
15.80841837083183
 10
194.1802106179961
 20
15.76688643002568
 10
194.1701440380127
 20
15.72752418568112
 10
194.2029814803922
 20
15.73468063430981
 10
194.2364577296482
 20
15.73027243137944
 10
194.2915053476019
 20
15.73217943347897
 10
194.3489502595316
 20
15.73185366407289
 10
194.402302624831
 20
15.73106308733081
 10
194.4398540896639
 20
15.73313959118074
 10
194.4623172523238
 20
15.73022338167108
 10
194.4751678073731
 20
15.73572552644056
 10
194.4858255685888
 20
15.73801118197791
 10
194.4986635650144
 20
15.74494972588053
 10
194.514599103307
 20
15.72853046313672
 10
194.5410623920892
 20
15.71709122319449
 10
194.5726805253757
 20
15.6964468783519
 10
194.5987255892151
 20
15.68116869628295
 10
194.6128517723973
 20
15.67266976323184
 10
194.6170254148479
 20
15.67015871511028
 97
        1
330
B0
 75
     1
 76
     2
 52
45.0
 41
0.1
 77
     0
 78
     1
 53
45.0
 43
0.0
 44
0.0
 45
-0.282842712474619
 46
0.0
 79
     0
 98
        1
 10
0.0
 20
0.0
  0
HATCH
  5
CE
330
48
100
AcDbEntity
  8
1
  6
Continuous
 62
     2
100
AcDbHatch
 10
0.0
 20
0.0
 30
0.0
210
0.0
220
0.0
230
1.0
  2
CUSTOM12
 70
     0
 71
     1
 91
        1
 92
        1
 93
        1
 72
     4
 94
        3
 73
     0
 74
     0
 95
      124
 96
      120
 40
0.0
 40
0.0
 40
0.0
 40
0.0
 40
0.027818722962451
 40
0.1011590162384269
 40
0.2048470170590239
 40
0.3237088716559245
 40
0.4425707262522
 40
0.5462587270699547
 40
0.6195990203311798
 40
0.647417752257866
 40
0.6750060736115224
 40
0.7357003855242759
 40
0.7963946998054492
 40
0.8239830245571784
 40
0.8540933811102878
 40
0.9373396629409558
 40
1.063094687343237
 40
1.220731268638075
 40
1.399622220914749
 40
1.589140358637734
 40
1.7786584964239
 40
1.957549448940511
 40
2.11518603087316
 40
2.240941056914465
 40
2.324187341760534
 40
2.354297700109384
 40
2.38188602467189
 40
2.442580338710479
 40
2.503274652750503
 40
2.53086297731461
 40
2.560983949278563
 40
2.640393784452908
 40
2.752662861759132
 40
2.881361560118148
 40
3.010060258455195
 40
3.122329335705342
 40
3.201739170817956
 40
3.231860142753317
 40
3.264298024030372
 40
3.352343701778243
 40
3.482095226868764
 40
3.639650650173022
 40
3.811108022565477
 40
3.982565394927982
 40
4.140120818152561
 40
4.269872343141269
 40
4.357918020802329
 40
4.390355902043958
 40
4.423256253992528
 40
4.508104530073049
 40
4.624121560636817
 40
4.750528176031573
 40
4.86654520660202
 40
4.951393482691977
 40
4.984293834645379
 40
5.011450833242296
 40
5.071196230152085
 40
5.130941627057164
 40
5.158098625648832
 40
5.190998977601523
 40
5.275847253689348
 40
5.391864284256783
 40
5.518270899648328
 40
5.634287930209367
 40
5.719136206288041
 40
5.752036558235928
 40
5.782130946282954
 40
5.862783906229127
 40
5.979550131774993
 40
6.117984316640396
 40
6.26364115458794
 40
6.402075339414144
 40
6.518841564907937
 40
6.599494524815518
 40
6.629588912848756
 40
6.654403028226332
 40
6.713575149488099
 40
6.784199939329416
 40
6.843372060493518
 40
6.868186175802764
 40
6.896246243201814
 40
6.939586233758261
 40
6.967846564564889
 40
7.043584251089827
 40
7.153234334451689
 40
7.283231855734442
 40
7.420011856035476
 40
7.550009376579828
 40
7.659659458835227
 40
7.735397144417224
 40
7.763657474851396
 40
7.796409728011053
 40
7.880876065096327
 40
7.996370852465713
 40
8.122208446418608
 40
8.237703224799201
 40
8.322169562010895
 40
8.354921815205909
 40
8.382078813307691
 40
8.441824209207
 40
8.501569605240155
 40
8.528726603485735
 40
8.561478856695784
 40
8.645945193877834
 40
8.761439980865346
 40
8.887277580764488
 40
9.002772362001009
 40
9.08723869666123
 40
9.119990949235683
 40
9.152428830613381
 40
9.240474508638597
 40
9.370226034149544
 40
9.527781457984426
 40
9.699238830981415
 40
9.870696203978603
 40
10.02825162781402
 40
10.15800315332564
 40
10.24604883135119
 40
10.27848670378521
 40
10.27848670378521
 40
10.27848670378521
 40
10.27848670378521
 10
195.3821827564383
 20
14.01410517385757
 10
195.3914554737523
 20
14.01410498511274
 10
195.4251744536861
 20
14.01410430876714
 10
195.4934706812465
 20
14.01411807243305
 10
195.592014171158
 20
14.01403224219544
 10
195.7062066464812
 20
14.01441755612251
 10
195.818589441707
 20
14.01300835897545
 10
195.9214376600118
 20
14.01719117422243
 10
195.9806839874849
 20
14.00823089251983
 10
196.0371265937032
 20
14.02164434526061
 10
196.0246255586955
 20
13.97087198613361
 10
196.0329549635704
 20
13.92589320939067
 10
196.0248170841119
 20
13.88056752990488
 10
196.0370529214457
 20
13.82931932408466
 10
195.9747773490333
 20
13.84447955365276
 10
195.9060513026868
 20
13.83359750710742
 10
195.7782756749592
 20
13.83911304747972
 10
195.6262984511643
 20
13.83700851253698
 10
195.4502695972523
 20
13.83771002588473
 10
195.2644431934287
 20
13.83745237531291
 10
195.0786167437175
 20
13.83771005144602
 10
194.9025880142168
 20
13.83700841847731
 10
194.7506104154195
 20
13.83911332229989
 10
194.6228357664554
 20
13.8335968076764
 10
194.554107783658
 20
13.84448077125942
 10
194.4918349042883
 20
13.82931786684209
 10
194.5040616290017
 20
13.88057510805171
 10
194.4960004462597
 20
13.92582473272425
 10
194.5040675809892
 20
13.97106357955323
 10
194.4918238487083
 20
14.02234176909958
 10
194.5525017120697
 20
14.00749577363134
 10
194.6162810745736
 20
14.01756448170735
 10
194.7277314353502
 20
14.01294644211999
 10
194.8497533443824
 20
14.01413328905469
 10
194.9719538137823
 20
14.01515863900634
 10
195.0829794287392
 20
14.01092475623401
 10
195.1476517413958
 20
14.02018584521739
 10
195.2091162810501
 20
14.00604423049682
 10
195.1930065601337
 20
14.07235527884517
 10
195.2042980327358
 20
14.14447790121975
 10
195.198740082256
 20
14.27513760888285
 10
195.200803506169
 20
14.42607323708241
 10
195.2000167127295
 20
14.59335873107885
 10
195.2007845215628
 20
14.76061110332302
 10
195.1988038785628
 20
14.91163289269912
 10
195.2041306156621
 20
15.04206069552994
 10
195.1933101388425
 20
15.11465442605898
 10
195.2090326429875
 20
15.18150469436797
 10
195.143270813249
 20
15.16580512490823
 10
195.0756367830764
 20
15.17609243083994
 10
194.9615885293809
 20
15.17113786847121
 10
194.8451242674902
 20
15.17414128030474
 10
194.7306554121477
 20
15.16880303143387
 10
194.6640324657812
 20
15.18001268074824
 10
194.5990769715185
 20
15.1634913266501
 10
194.6107989758708
 20
15.21473720477058
 10
194.6032830189121
 20
15.25950333784091
 10
194.6107989878835
 20
15.30426944897961
 10
194.5990769505346
 20
15.35551536129741
 10
194.66403263392
 20
15.33899381766816
 10
194.7306533339822
 20
15.35020571373943
 10
194.8451352858063
 20
15.34485436710665
 10
194.9615454436962
 20
15.34791188771117
 10
195.0757660174641
 20
15.34278499010708
 10
195.1430150439226
 20
15.35345733355599
 10
195.2083325941438
 20
15.33742082669077
 10
195.1941391448552
 20
15.39949685750054
 10
195.2036059462994
 20
15.46586761628762
 10
195.1990269004085
 20
15.58239972741966
 10
195.2007696555947
 20
15.71426685022375
 10
195.1997551495392
 20
15.85615960150273
 10
195.2017191344372
 20
15.98769050702579
 10
195.1964668553852
 20
16.10524577283001
 10
195.2073408763474
 20
16.16947789001583
 10
195.1919536641853
 20
16.23108802545046
 10
195.24075915378
 20
16.2170240738211
 10
195.2853995564726
 20
16.21954742075313
 10
195.3538643946742
 20
16.2151279740171
 10
195.3959106169102
 20
16.20613025544034
 10
195.4487544758775
 20
16.21411714866512
 10
195.4207035002014
 20
16.17113917611669
 10
195.3749142248594
 20
16.1825955204384
 10
195.3869539073265
 20
16.12173520005138
 10
195.3796086070641
 20
16.05769299468774
 10
195.3831195826161
 20
15.94909368863911
 10
195.3819806760173
 20
15.82494319144753
 10
195.3819174780262
 20
15.69189719829878
 10
195.3832872966868
 20
15.56797381249556
 10
195.3791638801313
 20
15.45868337849338
 10
195.3877763103564
 20
15.39608580094169
 10
195.3746757454402
 20
15.33740133296365
 10
195.4393884328198
 20
15.35362113810902
 10
195.5060405953156
 20
15.34270260383311
 10
195.6198779541102
 20
15.34793740173756
 10
195.7357259122097
 20
15.34485547516913
 10
195.849692426328
 20
15.35018259812512
 10
195.9160341018099
 20
15.33904208166543
 10
195.980718852548
 20
15.35546979593178
 10
195.9689820772722
 20
15.3042592521005
 10
195.976516806304
 20
15.25950334121
 10
195.9689820992258
 20
15.21474739010026
 10
195.9807188140736
 20
15.16353690871039
 10
195.9160344075252
 20
15.17996427794219
 10
195.8496886430824
 20
15.16882784447268
 10
195.7357459487012
 20
15.17413115893119
 10
195.6197995623054
 20
15.17114764593543
 10
195.5062756882122
 20
15.17606892268392
 10
195.4389231318804
 20
15.16585087513518
 10
195.3734285122495
 20
15.18145996138814
 10
195.3891713619218
 20
15.1146385182741
 10
195.3783275998213
 20
15.04207057815878
 10
195.3836581629793
 20
14.91162247614415
 10
195.3817136151855
 20
14.76064558185225
 10
195.3823133683215
 20
14.59322243934158
 10
195.3821506559604
 20
14.42656176118371
 10
195.3821895488136
 20
14.27360142921636
 10
195.3821816413099
 20
14.14849178985705
 10
195.3821828382744
 20
14.06507890991419
 10
195.3821827716208
 20
14.02491778281976
 10
195.3821827564383
 20
14.01410517385757
 97
        1
330
B1
 75
     1
 76
     2
 52
45.0
 41
0.1
 77
     0
 78
     1
 53
45.0
 43
0.0
 44
0.0
 45
-0.282842712474619
 46
0.0
 79
     0
 98
        1
 10
0.0
 20
0.0
  0
HATCH
  5
CF
330
48
100
AcDbEntity
  8
1
  6
Continuous
 62
     2
100
AcDbHatch
 10
0.0
 20
0.0
 30
0.0
210
0.0
220
0.0
230
1.0
  2
CUSTOM13
 70
     0
 71
     1
 91
        1
 92
        1
 93
        3
 72
     4
 94
        3
 73
     0
 74
     0
 95
       24
 96
       20
 40
0.0
 40
0.0
 40
0.0
 40
0.0
 40
0.221107500875372
 40
0.4273218586245248
 40
0.5080174679239258
 40
0.5914835907870173
 40
0.8143265690192609
 40
1.054651302686572
 40
1.295452694023165
 40
1.518109231328824
 40
1.540864321905439
 40
1.595126460622702
 40
1.659890947896017
 40
1.714153085187376
 40
1.736908174961677
 40
1.764951100735322
 40
1.801562291220969
 40
1.953914424543629
 40
2.126104167379716
 40
2.126104167379716
 40
2.126104167379716
 40
2.126104167379716
 10
185.9375369556889
 20
15.58989295113015
 10
185.9112579081812
 20
15.53097628234373
 10
185.8604698894426
 20
15.41711139679257
 10
185.8131784839111
 20
15.14441958233115
 10
185.7043482802618
 20
15.24445482575454
 10
185.5514800279638
 20
15.27118593367332
 10
185.7686155181199
 20
15.48518135017632
 10
185.7838483674381
 20
15.70332117782487
 10
185.8906889491999
 20
15.88451579066425
 10
185.8305380947079
 20
16.16913226311404
 10
185.9334317395401
 20
16.14114089222451
 10
185.9779933468151
 20
16.132432516023
 10
186.0380842395396
 20
16.12139654183354
 10
186.0756619587438
 20
16.10767523055559
 10
186.1252466928605
 20
16.10756076160222
 10
186.0930158919325
 20
16.0730659239862
 10
186.0171802221881
 20
16.08404104537968
 10
186.0429447159694
 20
15.89858969582447
 10
186.005589676385
 20
15.80702313549589
 10
185.9857704961609
 20
15.75844135397705
 72
     4
 94
        3
 73
     0
 74
     0
 95
       70
 96
       66
 40
0.0
 40
0.0
 40
0.0
 40
0.0
 40
0.0241731073021472
 40
0.0846058988987013
 40
0.1631685280353284
 40
0.2417311571789756
 40
0.3021639488292751
 40
0.3263370654895541
 40
0.3533118254248899
 40
0.4228783438922129
 40
0.5179999095313438
 40
0.6216398239466173
 40
0.7167613891499777
 40
0.786327906964997
 40
0.8133026791761943
 40
0.837294399877178
 40
0.8945054261372976
 40
0.9627895541962745
 40
1.020000580349085
 40
1.043992300975183
 40
1.071934345522919
 40
1.113121768772933
 40
1.145225199332257
 40
1.225483775412792
 40
1.329819923771501
 40
1.434156071994391
 40
1.514414647795812
 40
1.54651807820842
 40
1.578974764260193
 40
1.662678849314188
 40
1.777131373668409
 40
1.9018333774748
 40
2.01628590050059
 40
2.099989982527957
 40
2.132446666570315
 40
2.158782354486037
 40
2.216720867907828
 40
2.274659381334251
 40
2.300995069256185
 40
2.333451754066157
 40
2.417155836543838
 40
2.531608358985277
 40
2.656310362283772
 40
2.770762886388905
 40
2.85446697134007
 40
2.886923657363877
 40
2.91359797683331
 40
2.982389642875118
 40
3.076451716946982
 40
3.178937260458598
 40
3.272999334740003
 40
3.341791001059228
 40
3.368465320663541
 40
3.39697608073879
 40
3.472140811846026
 40
3.578408190308716
 40
3.700226892456181
 40
3.822045594634426
 40
3.928312973256562
 40
4.003477705314959
 40
4.031988456867024
 40
4.058324144797822
 40
4.116262658236984
 40
4.174201171400782
 40
4.200536849608715
 40
4.200536849608715
 40
4.200536849608715
 40
4.200536849608715
 10
185.9857704961609
 20
15.75844135397705
 10
185.9938259544679
 20
15.75844359811686
 10
186.0220200663241
 20
15.75845146032798
 10
186.0765534803672
 20
15.75830754828372
 10
186.1482891808604
 20
15.75909120499898
 10
186.2236240137062
 20
15.75627570463811
 10
186.2713052366439
 20
15.76298403400957
 10
186.3195071245616
 20
15.75197563692432
 10
186.3062571799873
 20
15.80546402997033
 10
186.3151093964539
 20
15.86049583543092
 10
186.3108698036285
 20
15.95419908726109
 10
186.313348348128
 20
16.04959482218533
 10
186.309093870606
 20
16.14356821983388
 10
186.3179818665846
 20
16.19795062438012
 10
186.3046977409945
 20
16.25233997691462
 10
186.3514119277108
 20
16.23842216335358
 10
186.3943254545736
 20
16.24103877374044
 10
186.4605443456685
 20
16.23648422450756
 10
186.5013342271799
 20
16.22778162134162
 10
186.5525145690818
 20
16.23531799890196
 10
186.52537204872
 20
16.19349970223285
 10
186.4803096055707
 20
16.20284992072597
 10
186.4942065045051
 20
16.13841207371837
 10
186.4858414431654
 20
16.07378219627399
 10
186.4903632178398
 20
15.97529141193887
 10
186.4854741311167
 20
15.8759593284257
 10
186.4950258992082
 20
15.81293115552969
 10
186.47997614552
 20
15.74964011499788
 10
186.5449159457208
 20
15.76515072944269
 10
186.6116246399496
 20
15.75499387697812
 10
186.7241435470828
 20
15.75988800099367
 10
186.8390235448953
 20
15.75691204732783
 10
186.9519871999747
 20
15.76221664184991
 10
187.0176267597677
 20
15.75107306472089
 10
187.0816276691053
 20
15.76744532319857
 10
187.0703142889189
 20
15.71761689905274
 10
187.077533987151
 20
15.67416715212123
 10
187.0703142611268
 20
15.63071745587445
 10
187.0816277175994
 20
15.58088895196876
 10
187.0176263598971
 20
15.59726166091362
 10
186.951992124046
 20
15.58611271661588
 10
186.838997431733
 20
15.59144857206854
 10
186.7242456548644
 20
15.58834345663822
 10
186.611318368686
 20
15.59364894682588
 10
186.5455220903585
 20
15.58257300019593
 10
186.4816097975358
 20
15.59887597847618
 10
186.4936015165126
 20
15.54423524395742
 10
186.4862104613005
 20
15.48854295047841
 10
186.4892684841983
 20
15.3964968914057
 10
186.4893422785682
 20
15.301791098731
 10
186.4860313578361
 20
15.20952782902265
 10
186.4939505989904
 20
15.15435768736138
 10
186.4815076611617
 20
15.10058169100134
 10
186.5389116551632
 20
15.1145376886278
 10
186.5994708140383
 20
15.10511457884225
 10
186.7048680855081
 20
15.10942885928704
 10
186.8204294070623
 20
15.10835504612031
 10
186.9359688877797
 20
15.10725965900993
 10
187.0414181130843
 20
15.11162525770632
 10
187.1018680471805
 20
15.10209426030669
 10
187.1592837739111
 20
15.11617289606379
 10
187.1477773876711
 20
15.06707153265681
 10
187.1537566781749
 20
15.02564658018648
 10
187.1520311050804
 20
14.97651677966694
 10
187.1521500122972
 20
14.94854428447607
 10
187.1521871691834
 20
14.93980288195949
 72
     4
 94
        3
 73
     0
 74
     0
 95
       62
 96
       58
 40
0.0
 40
0.0
 40
0.0
 40
0.0
 40
0.0598250028308769
 40
0.20248464868979
 40
0.3727558389221599
 40
0.5154154847936923
 40
0.5752404975786476
 40
0.9332326775488383
 40
1.290451762839583
 40
1.602077253145976
 40
1.699931634112233
 40
1.799359756425155
 40
2.270120149657195
 40
2.804661928461663
 40
2.882342287383376
 40
3.076543185719226
 40
3.329004354835693
 40
3.58146552456852
 40
3.775666424543808
 40
3.853346784558428
 40
3.899120679595173
 40
3.984129341792171
 40
4.029903236817519
 40
4.105797496059676
 40
4.295533144152635
 40
4.542189486611877
 40
4.788845828875823
 40
4.978581476410209
 40
5.054475735244452
 40
5.62173466433947
 40
6.13086724203748
 40
6.225249780948725
 40
6.318913039727411
 40
6.663579954559037
 40
7.047498900224906
 40
7.435230791575878
 40
7.49894390666829
 40
7.650875181210313
 40
7.832212509001852
 40
7.984143783697266
 40
8.047856898903422
 40
8.091554632732928
 40
8.172707566964586
 40
8.216405300768308
 40
8.289021782161193
 40
8.462184160757566
 40
8.668861838005647
 40
8.842024215264239
 40
8.914640695475434
 40
8.989881580861642
 40
9.155411528827551
 40
9.32094147774434
 40
9.396182352487592
 40
9.45470901114414
 40
9.583467660171074
 40
9.712226309013353
 40
9.770752957989806
 40
9.770752957989806
 40
9.770752957989806
 40
9.770752957989806
 10
187.1521871691834
 20
14.93980288195949
 10
187.1322348171624
 20
14.93980875568671
 10
187.0647037716466
 20
14.93982863806156
 10
186.9410612161789
 20
14.93949362520325
 10
186.7863180150056
 20
14.9410767375051
 10
186.669734948248
 20
14.93686078860494
 10
186.4550942634241
 20
14.95215205331626
 10
186.8518948407228
 20
14.59198721286192
 10
186.8945656069267
 20
14.37510503397165
 10
187.318916214661
 20
14.19325062511447
 10
187.1439821496074
 20
14.08985196568073
 10
187.0194523925083
 20
13.87831523212723
 10
186.7666277235943
 20
14.34806081001563
 10
186.4797602893627
 20
14.99511516984523
 10
186.490633592666
 20
14.68782672154695
 10
186.488289277796
 20
14.5228861697178
 10
186.4861096126411
 20
14.28879670711694
 10
186.4980774396346
 20
14.04498072421784
 10
186.4687984740631
 20
13.89855796860985
 10
186.511452262547
 20
13.75113490174538
 10
186.4239814005639
 20
13.7668579730622
 10
186.3768527606744
 20
13.76694303543455
 10
186.2898973207713
 20
13.75109425482909
 10
186.3313474021723
 20
13.89527771422763
 10
186.3029875004285
 20
14.03855052698455
 10
186.3145973775299
 20
14.27674947365265
 10
186.3124175648272
 20
14.50517235240346
 10
186.3103111127993
 20
14.66705729375994
 10
186.3208035438324
 20
14.98153709333752
 10
186.0128963252892
 20
14.29229470872436
 10
185.7055258267457
 20
13.81476750243053
 10
185.5851367066274
 20
14.03741112637426
 10
185.4074607910722
 20
14.15011034955565
 10
185.8853326362894
 20
14.32548143465461
 10
185.9353959057208
 20
14.56091929252031
 10
186.3583799621718
 20
14.95322989344607
 10
186.1276754273541
 20
14.93655307029064
 10
186.0049685859343
 20
14.9426951894877
 10
185.8325483095661
 20
14.93312822699573
 10
185.7213224694449
 20
14.95448818489665
 10
185.6025779627448
 20
14.92136265357418
 10
185.6183169706686
 20
15.00203900606882
 10
185.6178550933763
 20
15.04645414290853
 10
185.6027881889931
 20
15.12967081778532
 10
185.7372380935443
 20
15.09062651983881
 10
185.8619755545747
 20
15.11739729328421
 10
186.062875523728
 20
15.10063949044051
 10
186.1921540949353
 20
15.12204225913003
 10
186.3328419928294
 20
15.08868778853419
 10
186.2980927452614
 20
15.22651875785067
 10
186.3222185666713
 20
15.3496325734948
 10
186.2967086182391
 20
15.47024055670335
 10
186.3333251146686
 20
15.60539865141495
 10
186.2211417027769
 20
15.58094545781891
 10
186.1280356457137
 20
15.59307749842022
 10
186.0191547579819
 20
15.58957630069994
 10
185.9569697640964
 20
15.58981755951603
 10
185.9375369557246
 20
15.58989295124144
 97
        3
330
B3
330
B4
330
B2
 75
     1
 76
     2
 52
45.0
 41
0.1
 77
     0
 78
     1
 53
45.0
 43
0.0
 44
0.0
 45
-0.282842712474619
 46
0.0
 79
     0
 98
        1
 10
0.0
 20
0.0
  0
HATCH
  5
D0
330
48
100
AcDbEntity
  8
1
  6
Continuous
 62
     2
100
AcDbHatch
 10
0.0
 20
0.0
 30
0.0
210
0.0
220
0.0
230
1.0
  2
CUSTOM14
 70
     0
 71
     1
 91
        1
 92
        1
 93
        4
 72
     1
 10
192.4578138032672
 20
15.22875434022056
 11
191.1602971697031
 21
15.22875434022056
 72
     1
 10
191.1602971697031
 20
15.22875434022056
 11
191.1602971697031
 21
15.39722336795624
 72
     1
 10
191.1602971697031
 20
15.39722336795624
 11
192.4578138032672
 21
15.39722336795624
 72
     1
 10
192.4578138032672
 20
15.39722336795624
 11
192.4578138032672
 21
15.22875434022056
 97
        1
330
B5
 75
     1
 76
     2
 52
45.0
 41
0.1
 77
     0
 78
     1
 53
45.0
 43
0.0
 44
0.0
 45
-0.282842712474619
 46
0.0
 79
     0
 98
        1
 10
0.0
 20
0.0
  0
ENDBLK
  5
4A
330
48
100
AcDbEntity
  8
0
100
AcDbBlockEnd
  0
BLOCK
  5
4D
330
4B
100
AcDbEntity
  8
0
100
AcDbBlockBegin
  2
開示A4枠
 70
     0
 10
0.0
 20
0.0
 30
0.0
  3
開示A4枠
  1

  0
INSERT
  5
4C
330
4B
100
AcDbEntity
  8
1
100
AcDbBlockReference
  2
開示A4
 10
0.0
 20
0.0
 30
0.0
  0
ENDBLK
  5
4E
330
4B
100
AcDbEntity
  8
0
100
AcDbBlockEnd
  0
BLOCK
  5
50
330
4F
100
AcDbEntity
  8
0
100
AcDbBlockBegin
  2
35-23
 70
     0
 10
-70.49510022271753
 20
150.6702672605796
 30
0.0
  3
35-23
  1

  0
LINE
  5
D1
330
4F
100
AcDbEntity
  8
1
  6
Continuous
 62
     7
100
AcDbLine
 10
97.35859360978445
 20
189.3736801565573
 30
0.0
 11
102.4576131233772
 21
198.2054410228852
 31
0.0
  0
LINE
  5
D2
330
4F
100
AcDbEntity
  8
1
  6
Continuous
 62
     7
100
AcDbLine
 10
105.6344014002935
 20
200.0395605897213
 30
0.0
 11
115.8324404274791
 21
200.0395605897213
 31
0.0
  0
LINE
  5
D3
330
4F
100
AcDbEntity
  8
1
  6
Continuous
 62
     7
100
AcDbLine
 10
119.0092287043954
 20
198.2054410228852
 30
0.0
 11
124.1082482179882
 21
189.3736801565573
 31
0.0
  0
LINE
  5
D4
330
4F
100
AcDbEntity
  8
1
  6
Continuous
 62
     7
100
AcDbLine
 10
124.1082482179882
 20
185.7054410228852
 30
0.0
 11
119.0092287043954
 21
176.8736801565573
 31
0.0
  0
LINE
  5
D5
330
4F
100
AcDbEntity
  8
1
  6
Continuous
 62
     7
100
AcDbLine
 10
115.8324404274791
 20
175.0395605897213
 30
0.0
 11
105.6344014002935
 21
175.0395605897213
 31
0.0
  0
LINE
  5
D6
330
4F
100
AcDbEntity
  8
1
  6
Continuous
 62
     7
100
AcDbLine
 10
102.4576131233772
 20
176.8736801565573
 30
0.0
 11
97.35859360978445
 21
185.7054410228852
 31
0.0
  0
LINE
  5
D7
330
4F
100
AcDbEntity
  8
1
  6
Continuous
 62
     2
100
AcDbLine
 10
101.5454209138863
 20
135.3775605897212
 30
0.0
 11
101.5454209138863
 21
136.5395605897212
 31
0.0
  0
LINE
  5
D8
330
4F
100
AcDbEntity
  8
1
  6
Continuous
 62
     2
100
AcDbLine
 10
101.5454209138863
 20
131.7015605897212
 30
0.0
 11
101.5454209138863
 21
135.3775605897212
 31
0.0
  0
LINE
  5
D9
330
4F
100
AcDbEntity
  8
1
  6
Continuous
 62
     2
100
AcDbLine
 10
101.5454209138863
 20
130.5395605897212
 30
0.0
 11
101.5454209138863
 21
131.7015605897212
 31
0.0
  0
LINE
  5
DA
330
4F
100
AcDbEntity
  8
1
  6
Continuous
 62
     7
100
AcDbLine
 10
101.7334209138863
 20
130.5395605897212
 30
0.0
 11
101.5454209138863
 21
130.5395605897212
 31
0.0
  0
LINE
  5
DB
330
4F
100
AcDbEntity
  8
1
  6
Continuous
 62
     7
100
AcDbLine
 10
101.7334209138863
 20
128.0395605897212
 30
0.0
 11
101.7334209138863
 21
130.5395605897212
 31
0.0
  0
LINE
  5
DC
330
4F
100
AcDbEntity
  8
1
  6
Continuous
 62
     7
100
AcDbLine
 10
101.7334209138863
 20
128.0395605897212
 30
0.0
 11
98.70714147225752
 21
128.0395605897212
 31
0.0
  0
LINE
  5
DD
330
4F
100
AcDbEntity
  8
1
  6
Continuous
 62
     7
100
AcDbLine
 10
101.5454209138863
 20
131.7015605897212
 30
0.0
 11
100.3834209138863
 21
131.7015605897212
 31
0.0
  0
LINE
  5
DE
330
4F
100
AcDbEntity
  8
1
  6
Continuous
 62
     7
100
AcDbLine
 10
101.5454209138863
 20
135.3775605897212
 30
0.0
 11
100.3834209138863
 21
135.3775605897212
 31
0.0
  0
LINE
  5
DF
330
4F
100
AcDbEntity
  8
1
  6
Continuous
 62
     7
100
AcDbLine
 10
100.3834209138863
 20
135.3775605897212
 30
0.0
 11
101.5454209138863
 21
136.5395605897212
 31
0.0
  0
LINE
  5
E0
330
4F
100
AcDbEntity
  8
1
  6
Continuous
 62
     7
100
AcDbLine
 10
100.3834209138863
 20
131.7015605897212
 30
0.0
 11
101.5454209138863
 21
130.5395605897212
 31
0.0
  0
LINE
  5
E1
330
4F
100
AcDbEntity
  8
1
  6
Continuous
 62
     7
100
AcDbLine
 10
100.3834209138863
 20
135.3775605897212
 30
0.0
 11
100.3834209138863
 21
131.7015605897212
 31
0.0
  0
LINE
  5
E2
330
4F
100
AcDbEntity
  8
1
  6
Continuous
 62
     7
100
AcDbLine
 10
110.7334209138863
 20
136.5395605897212
 30
0.0
 11
104.2334209138863
 21
136.5395605897212
 31
0.0
  0
LINE
  5
E3
330
4F
100
AcDbEntity
  8
1
  6
Continuous
 62
     7
100
AcDbLine
 10
101.7334209138863
 20
130.5395605897212
 30
0.0
 11
110.7334209138863
 21
130.5395605897212
 31
0.0
  0
LINE
  5
E4
330
4F
100
AcDbEntity
  8
1
  6
Continuous
 62
     7
100
AcDbLine
 10
101.5454209138863
 20
131.7015605897212
 30
0.0
 11
110.7334209138863
 21
131.7015605897212
 31
0.0
  0
LINE
  5
E5
330
4F
100
AcDbEntity
  8
1
  6
Continuous
 62
     7
100
AcDbLine
 10
101.5454209138863
 20
135.3775605897212
 30
0.0
 11
110.7334209138863
 21
135.3775605897212
 31
0.0
  0
LINE
  5
E6
330
4F
100
AcDbEntity
  8
1
  6
Continuous
 62
     7
100
AcDbLine
 10
101.7334209138863
 20
128.0395605897212
 30
0.0
 11
110.7334209138863
 21
128.0395605897212
 31
0.0
  0
LINE
  5
E7
330
4F
100
AcDbEntity
  8
1
  6
Continuous
 62
     7
100
AcDbLine
 10
104.2334209138863
 20
136.5395605897212
 30
0.0
 11
101.5454209138863
 21
136.5395605897212
 31
0.0
  0
LINE
  5
E8
330
4F
100
AcDbEntity
  8
1
  6
Continuous
 62
     2
100
AcDbLine
 10
119.9214209138864
 20
136.5395605897212
 30
0.0
 11
119.9214209138864
 21
135.3775605897212
 31
0.0
  0
LINE
  5
E9
330
4F
100
AcDbEntity
  8
1
  6
Continuous
 62
     2
100
AcDbLine
 10
119.9214209138864
 20
135.3775605897212
 30
0.0
 11
119.9214209138864
 21
131.7015605897212
 31
0.0
  0
LINE
  5
EA
330
4F
100
AcDbEntity
  8
1
  6
Continuous
 62
     2
100
AcDbLine
 10
119.9214209138864
 20
131.7015605897212
 30
0.0
 11
119.9214209138864
 21
130.5395605897212
 31
0.0
  0
LINE
  5
EB
330
4F
100
AcDbEntity
  8
1
  6
Continuous
 62
     7
100
AcDbLine
 10
119.9214209138864
 20
130.5395605897212
 30
0.0
 11
119.7334209138863
 21
130.5395605897212
 31
0.0
  0
LINE
  5
EC
330
4F
100
AcDbEntity
  8
1
  6
Continuous
 62
     7
100
AcDbLine
 10
119.7334209138863
 20
130.5395605897212
 30
0.0
 11
119.7334209138863
 21
128.0395605897212
 31
0.0
  0
LINE
  5
ED
330
4F
100
AcDbEntity
  8
1
  6
Continuous
 62
     7
100
AcDbLine
 10
122.7597003555151
 20
128.0395605897212
 30
0.0
 11
119.7334209138863
 21
128.0395605897212
 31
0.0
  0
LINE
  5
EE
330
4F
100
AcDbEntity
  8
1
  6
Continuous
 62
     7
100
AcDbLine
 10
121.0834209138863
 20
131.7015605897212
 30
0.0
 11
119.9214209138864
 21
131.7015605897212
 31
0.0
  0
LINE
  5
EF
330
4F
100
AcDbEntity
  8
1
  6
Continuous
 62
     7
100
AcDbLine
 10
121.0834209138863
 20
135.3775605897212
 30
0.0
 11
119.9214209138864
 21
135.3775605897212
 31
0.0
  0
LINE
  5
F0
330
4F
100
AcDbEntity
  8
1
  6
Continuous
 62
     7
100
AcDbLine
 10
119.9214209138864
 20
136.5395605897212
 30
0.0
 11
121.0834209138863
 21
135.3775605897212
 31
0.0
  0
LINE
  5
F1
330
4F
100
AcDbEntity
  8
1
  6
Continuous
 62
     7
100
AcDbLine
 10
119.9214209138864
 20
130.5395605897212
 30
0.0
 11
121.0834209138863
 21
131.7015605897212
 31
0.0
  0
LINE
  5
F2
330
4F
100
AcDbEntity
  8
1
  6
Continuous
 62
     7
100
AcDbLine
 10
121.0834209138863
 20
131.7015605897212
 30
0.0
 11
121.0834209138863
 21
135.3775605897212
 31
0.0
  0
LINE
  5
F3
330
4F
100
AcDbEntity
  8
1
  6
Continuous
 62
     7
100
AcDbLine
 10
117.2334209138863
 20
136.5395605897212
 30
0.0
 11
110.7334209138863
 21
136.5395605897212
 31
0.0
  0
LINE
  5
F4
330
4F
100
AcDbEntity
  8
1
  6
Continuous
 62
     7
100
AcDbLine
 10
110.7334209138863
 20
130.5395605897212
 30
0.0
 11
119.7334209138863
 21
130.5395605897212
 31
0.0
  0
LINE
  5
F5
330
4F
100
AcDbEntity
  8
1
  6
Continuous
 62
     7
100
AcDbLine
 10
110.7334209138863
 20
131.7015605897212
 30
0.0
 11
119.9214209138864
 21
131.7015605897212
 31
0.0
  0
LINE
  5
F6
330
4F
100
AcDbEntity
  8
1
  6
Continuous
 62
     7
100
AcDbLine
 10
110.7334209138863
 20
135.3775605897212
 30
0.0
 11
119.9214209138864
 21
135.3775605897212
 31
0.0
  0
LINE
  5
F7
330
4F
100
AcDbEntity
  8
1
  6
Continuous
 62
     7
100
AcDbLine
 10
110.7334209138863
 20
128.0395605897212
 30
0.0
 11
119.7334209138863
 21
128.0395605897212
 31
0.0
  0
LINE
  5
F8
330
4F
100
AcDbEntity
  8
1
  6
Continuous
 62
     7
100
AcDbLine
 10
119.9214209138864
 20
136.5395605897212
 30
0.0
 11
117.2334209138863
 21
136.5395605897212
 31
0.0
  0
LINE
  5
F9
330
4F
100
AcDbEntity
  8
1
  6
Continuous
 62
     7
100
AcDbLine
 10
98.70714147225752
 20
117.0395605897212
 30
0.0
 11
122.7597003555152
 21
117.0395605897212
 31
0.0
  0
ARC
  5
FA
330
4F
100
AcDbEntity
  8
1
  6
Continuous
 62
     7
100
AcDbCircle
 10
110.7334209138863
 20
187.5395605897213
 30
0.0
 40
13.50000000000001
100
AcDbArc
 50
112.1916065662729
 51
127.8083934337273
  0
ARC
  5
FB
330
4F
100
AcDbEntity
  8
1
  6
Continuous
 62
     7
100
AcDbCircle
 10
110.7334209138863
 20
187.5395605897213
 30
0.0
 40
13.49999999999998
100
AcDbArc
 50
52.1916065662727
 51
67.80839343372718
  0
ARC
  5
FC
330
4F
100
AcDbEntity
  8
1
  6
Continuous
 62
     7
100
AcDbCircle
 10
110.7334209138863
 20
187.5395605897213
 30
0.0
 40
13.5
100
AcDbArc
 50
0.0
 51
7.80839343372686
  0
ARC
  5
FD
330
4F
100
AcDbEntity
  8
1
  6
Continuous
 62
     7
100
AcDbCircle
 10
110.7334209138863
 20
187.5395605897213
 30
0.0
 40
13.5
100
AcDbArc
 50
292.1916065662728
 51
307.808393433727
  0
ARC
  5
FE
330
4F
100
AcDbEntity
  8
1
  6
Continuous
 62
     7
100
AcDbCircle
 10
110.7334209138863
 20
187.5395605897213
 30
0.0
 40
13.50000000000007
100
AcDbArc
 50
232.1916065662729
 51
247.8083934337271
  0
ARC
  5
FF
330
4F
100
AcDbEntity
  8
1
  6
Continuous
 62
     7
100
AcDbCircle
 10
110.7334209138863
 20
187.5395605897213
 30
0.0
 40
13.49999999999999
100
AcDbArc
 50
180.0
 51
187.8083934337274
  0
ARC
  5
100
330
4F
100
AcDbEntity
  8
1
  6
Continuous
 62
     7
100
AcDbCircle
 10
108.2334209138863
 20
122.5395605897212
 30
0.0
 40
10.99999999999996
100
AcDbArc
 50
150.0
 51
210.0000000000001
  0
ARC
  5
101
330
4F
100
AcDbEntity
  8
1
  6
Continuous
 62
     7
100
AcDbCircle
 10
109.7779002615637
 20
122.5397745858736
 30
0.0
 40
4.143498866796252
100
AcDbArc
 50
180.0029591117951
 51
199.9970750189803
  0
ARC
  5
102
330
4F
100
AcDbEntity
  8
1
  6
Continuous
 62
     7
100
AcDbCircle
 10
110.0286061756726
 20
122.6310095822626
 30
0.0
 40
4.410289571160711
100
AcDbArc
 50
199.9970750189812
 51
209.5196198211284
  0
ARC
  5
103
330
4F
100
AcDbEntity
  8
1
  6
Continuous
 62
     7
100
AcDbCircle
 10
110.0494406754287
 20
122.6428065949676
 30
0.0
 40
4.434232125093977
100
AcDbArc
 50
209.5196198211282
 51
218.0522678450383
  0
ARC
  5
104
330
4F
100
AcDbEntity
  8
1
  6
Continuous
 62
     7
100
AcDbCircle
 10
110.3419481050438
 20
122.8717684710005
 30
0.0
 40
4.805694286096359
100
AcDbArc
 50
218.0522678450379
 51
226.0296747253312
  0
ARC
  5
105
330
4F
100
AcDbEntity
  8
1
  6
Continuous
 62
     7
100
AcDbCircle
 10
110.3635126950311
 20
122.8941224153546
 30
0.0
 40
4.836754395070842
100
AcDbArc
 50
226.0296747253309
 51
234.0658826879957
  0
ARC
  5
106
330
4F
100
AcDbEntity
  8
1
  6
Continuous
 62
     7
100
AcDbCircle
 10
110.6125812366578
 20
123.2377661209346
 30
0.0
 40
5.261167089052508
100
AcDbArc
 50
234.0658826879958
 51
240.6311690086213
  0
ARC
  5
107
330
4F
100
AcDbEntity
  8
1
  6
Continuous
 62
     7
100
AcDbCircle
 10
110.5812609472027
 20
123.1821107911486
 30
0.0
 40
5.197304139972914
100
AcDbArc
 50
240.6311690086223
 51
248.3138777151142
  0
ARC
  5
108
330
4F
100
AcDbEntity
  8
1
  6
Continuous
 62
     7
100
AcDbCircle
 10
110.7298087155761
 20
123.5556581894372
 30
0.0
 40
5.599304262183013
100
AcDbArc
 50
248.3138777151143
 51
257.3198616947903
  0
ARC
  5
109
330
4F
100
AcDbEntity
  8
1
  6
Continuous
 62
     7
100
AcDbCircle
 10
110.7444895743381
 20
121.594665465147
 30
0.0
 40
5.527788940756904
100
AcDbArc
 50
90.11472723711812
 51
132.5639468915144
  0
ARC
  5
10A
330
4F
100
AcDbEntity
  8
1
  6
Continuous
 62
     7
100
AcDbCircle
 10
109.410299213476
 20
123.0474202350815
 30
0.0
 40
3.555338601563383
100
AcDbArc
 50
132.563946891514
 51
143.3541105381168
  0
ARC
  5
10B
330
4F
100
AcDbEntity
  8
1
  6
Continuous
 62
     7
100
AcDbCircle
 10
112.2428340749423
 20
120.940272189311
 30
0.0
 40
7.085682299876112
100
AcDbArc
 50
143.354110538116
 51
148.0313235374891
  0
ARC
  5
10C
330
4F
100
AcDbEntity
  8
1
  6
Continuous
 62
     7
100
AcDbCircle
 10
109.0657942178639
 20
122.9230927794995
 30
0.0
 40
3.340664309753652
100
AcDbArc
 50
148.0313235374897
 51
159.245715918127
  0
ARC
  5
10D
330
4F
100
AcDbEntity
  8
1
  6
Continuous
 62
     7
100
AcDbCircle
 10
110.7745885716182
 20
122.275542399281
 30
0.0
 40
5.168039377533663
100
AcDbArc
 50
159.2457159181266
 51
170.8386389832463
  0
ARC
  5
10E
330
4F
100
AcDbEntity
  8
1
  6
Continuous
 62
     7
100
AcDbCircle
 10
108.6861728564435
 20
122.6123467683
 30
0.0
 40
3.052639324971772
100
AcDbArc
 50
170.8386389832462
 51
181.3662721505151
  0
ARC
  5
10F
330
4F
100
AcDbEntity
  8
1
  6
Continuous
 62
     7
100
AcDbCircle
 10
110.7129049204371
 20
123.4805287098046
 30
0.0
 40
5.522296619705365
100
AcDbArc
 50
257.3198616947905
 51
270.2128611739177
  0
ARC
  5
110
330
4F
100
AcDbEntity
  8
1
  6
Continuous
 62
     7
100
AcDbCircle
 10
110.7334209138863
 20
187.5395605897213
 30
0.0
 40
13.50000000000003
100
AcDbArc
 50
352.1916065662727
 51
0.0
  0
ARC
  5
111
330
4F
100
AcDbEntity
  8
1
  6
Continuous
 62
     7
100
AcDbCircle
 10
110.7334209138863
 20
187.5395605897213
 30
0.0
 40
13.49999999999997
100
AcDbArc
 50
172.1916065662731
 51
180.0
  0
ARC
  5
112
330
4F
100
AcDbEntity
  8
1
  6
Continuous
 62
     7
100
AcDbCircle
 10
113.2334209138863
 20
122.5395605897212
 30
0.0
 40
11.00000000000007
100
AcDbArc
 50
330.0000000000002
 51
30.00000000000004
  0
ARC
  5
113
330
4F
100
AcDbEntity
  8
1
  6
Continuous
 62
     7
100
AcDbCircle
 10
111.688941566209
 20
122.5397745858736
 30
0.0
 40
4.143498866796159
100
AcDbArc
 50
340.0029249810192
 51
359.9970408882048
  0
ARC
  5
114
330
4F
100
AcDbEntity
  8
1
  6
Continuous
 62
     7
100
AcDbCircle
 10
111.4382356521
 20
122.6310095822626
 30
0.0
 40
4.410289571160766
100
AcDbArc
 50
330.4803801788721
 51
340.0029249810187
  0
ARC
  5
115
330
4F
100
AcDbEntity
  8
1
  6
Continuous
 62
     7
100
AcDbCircle
 10
111.4174011523439
 20
122.6428065949676
 30
0.0
 40
4.434232125094008
100
AcDbArc
 50
321.9477321549617
 51
330.4803801788725
  0
ARC
  5
116
330
4F
100
AcDbEntity
  8
1
  6
Continuous
 62
     7
100
AcDbCircle
 10
111.1248937227289
 20
122.8717684710005
 30
0.0
 40
4.805694286096352
100
AcDbArc
 50
313.9703252746687
 51
321.9477321549614
  0
ARC
  5
117
330
4F
100
AcDbEntity
  8
1
  6
Continuous
 62
     7
100
AcDbCircle
 10
111.1033291327416
 20
122.8941224153546
 30
0.0
 40
4.836754395070747
100
AcDbArc
 50
305.9341173120033
 51
313.970325274669
  0
ARC
  5
118
330
4F
100
AcDbEntity
  8
1
  6
Continuous
 62
     7
100
AcDbCircle
 10
110.8542605911149
 20
123.2377661209346
 30
0.0
 40
5.261167089052432
100
AcDbArc
 50
299.3688309913777
 51
305.9341173120033
  0
ARC
  5
119
330
4F
100
AcDbEntity
  8
1
  6
Continuous
 62
     7
100
AcDbCircle
 10
110.8855808805699
 20
123.1821107911486
 30
0.0
 40
5.197304139972998
100
AcDbArc
 50
291.6861222848868
 51
299.3688309913778
  0
ARC
  5
11A
330
4F
100
AcDbEntity
  8
1
  6
Continuous
 62
     7
100
AcDbCircle
 10
110.7370331121965
 20
123.5556581894372
 30
0.0
 40
5.599304262183037
100
AcDbArc
 50
282.6801383052107
 51
291.6861222848867
  0
ARC
  5
11B
330
4F
100
AcDbEntity
  8
1
  6
Continuous
 62
     7
100
AcDbCircle
 10
110.7223522534346
 20
121.594665465147
 30
0.0
 40
5.527788940756947
100
AcDbArc
 50
47.43605310848558
 51
89.88527276288279
  0
ARC
  5
11C
330
4F
100
AcDbEntity
  8
1
  6
Continuous
 62
     7
100
AcDbCircle
 10
112.0565426142967
 20
123.0474202350815
 30
0.0
 40
3.555338601563309
100
AcDbArc
 50
36.64588946188412
 51
47.43605310848598
  0
ARC
  5
11D
330
4F
100
AcDbEntity
  8
1
  6
Continuous
 62
     7
100
AcDbCircle
 10
109.2240077528303
 20
120.940272189311
 30
0.0
 40
7.085682299876106
100
AcDbArc
 50
31.96867646251044
 51
36.645889461884
  0
ARC
  5
11E
330
4F
100
AcDbEntity
  8
1
  6
Continuous
 62
     7
100
AcDbCircle
 10
112.4010476099088
 20
122.9230927794995
 30
0.0
 40
3.34066430975364
100
AcDbArc
 50
20.75428408187365
 51
31.96867646251032
  0
ARC
  5
11F
330
4F
100
AcDbEntity
  8
1
  6
Continuous
 62
     7
100
AcDbCircle
 10
110.6922532561545
 20
122.275542399281
 30
0.0
 40
5.168039377533591
100
AcDbArc
 50
9.16136101675388
 51
20.75428408187378
  0
ARC
  5
120
330
4F
100
AcDbEntity
  8
1
  6
Continuous
 62
     7
100
AcDbCircle
 10
112.7806689713292
 20
122.6123467683
 30
0.0
 40
3.052639324971646
100
AcDbArc
 50
358.6337278494849
 51
9.16136101675408
  0
ARC
  5
121
330
4F
100
AcDbEntity
  8
1
  6
Continuous
 62
     7
100
AcDbCircle
 10
110.7539369073355
 20
123.4805287098046
 30
0.0
 40
5.522296619705329
100
AcDbArc
 50
269.7871388260824
 51
282.6801383052105
  0
CIRCLE
  5
122
330
4F
100
AcDbEntity
  8
1
  6
Continuous
 62
     7
100
AcDbCircle
 10
110.7334209138863
 20
187.5395605897213
 30
0.0
 40
6.5
  0
CIRCLE
  5
123
330
4F
100
AcDbEntity
  8
1
  6
Continuous
 62
     7
100
AcDbCircle
 10
110.7334209138863
 20
187.5395605897213
 30
0.0
 40
10.34999999999999
  0
CIRCLE
  5
124
330
4F
100
AcDbEntity
  8
1
  6
Continuous
 62
     2
100
AcDbCircle
 10
110.7334209138863
 20
187.5395605897213
 30
0.0
 40
9.187999999999988
  0
CIRCLE
  5
125
330
4F
100
AcDbEntity
  8
1
  6
Continuous
 62
     7
100
AcDbCircle
 10
110.7334209138863
 20
187.5395605897213
 30
0.0
 40
12.02627944162879
  0
SPLINE
  5
126
330
4F
100
AcDbEntity
  8
1
  6
Continuous
 62
     7
100
AcDbSpline
210
0.0
220
0.0
230
1.0
 70
    11
 71
     3
 72
    79
 73
    75
 74
    73
 42
0.000000001
 43
0.0000000001
 44
0.00000001
 40
0.0
 40
0.0
 40
0.0
 40
0.0
 40
0.2246914054395225
 40
0.4494692549094219
 40
0.6881887731137348
 40
0.927032897630267
 40
1.19018391375839
 40
1.45339940544466
 40
1.746276641226416
 40
2.039188640622693
 40
2.362584186456222
 40
2.685999661654839
 40
3.037283528093465
 40
3.388579626401196
 40
3.762680072991709
 40
4.136787942441223
 40
4.526964471589016
 40
4.917145014432295
 40
5.315612385190387
 40
5.71408102821587
 40
6.112549671242706
 40
6.511017042004568
 40
6.901197584852945
 40
7.29137411400525
 40
7.665481983455813
 40
8.03958243004032
 40
8.39087852833085
 40
8.742162394734068
 40
9.06557786987504
 40
9.38897341561523
 40
9.681885414881101
 40
9.974762650470012
 40
10.23797814190408
 40
10.5011291576706
 40
10.73997328170324
 40
10.97869279909956
 40
11.20347064636898
 40
11.42816205839312
 40
11.65285347041727
 40
11.87763131768669
 40
12.11635083508299
 40
12.35519495911563
 40
12.61834597488216
 40
12.88156146631622
 40
13.17443870190511
 40
13.46735070117101
 40
13.79074624691121
 40
14.11416172205217
 40
14.46544558845538
 40
14.81674168674588
 40
15.19084213333038
 40
15.56495000278097
 40
15.95512653193328
 40
16.34530707478165
 40
16.74377444554354
 40
17.14224308857035
 40
17.54071173159584
 40
17.93917910235393
 40
18.3293596451972
 40
18.719536174345
 40
19.09364404379453
 40
19.46774449038505
 40
19.81904058869278
 40
20.17032445513136
 40
20.49373993033008
 40
20.81713547616364
 40
21.11004747555982
 40
21.40292471134154
 40
21.66614020302779
 40
21.92929121915594
 40
22.16813534367248
 40
22.40685486187686
 40
22.63163271134666
 40
22.85632411678618
 40
22.85632411678618
 40
22.85632411678618
 40
22.85632411678618
 10
121.5587384611918
 20
127.1221362846771
 30
0.0
 10
121.6337035092356
 20
127.1186058895567
 30
0.0
 10
121.7836624468143
 20
127.1115437510657
 30
0.0
 10
122.0076628925137
 20
127.0561993792554
 30
0.0
 10
122.2255178569907
 20
126.9687652770534
 30
0.0
 10
122.4403797076569
 20
126.8456552601871
 30
0.0
 10
122.6447941122351
 20
126.692064426772
 30
0.0
 10
122.8436915569216
 20
126.5042527456982
 30
0.0
 10
123.0293921106992
 20
126.2900938667716
 30
0.0
 10
123.2065970166346
 20
126.0438187149969
 30
0.0
 10
123.3686669274768
 20
125.7753747504123
 30
0.0
 10
123.5191221585872
 20
125.4783508293647
 30
0.0
 10
123.6529694359536
 20
125.1633566760085
 30
0.0
 10
123.7723425676376
 20
124.8246778815775
 30
0.0
 10
123.8739816293941
 20
124.4723390733731
 30
0.0
 10
123.9588226180441
 20
124.1023021252374
 30
0.0
 10
124.02512241605
 20
123.7230569496409
 30
0.0
 10
124.0730012379872
 20
123.3328814748391
 30
0.0
 10
124.1018504326082
 20
122.9380686502037
 30
0.0
 10
124.1114471144206
 20
122.5395605996773
 30
0.0
 10
124.1018504325454
 20
122.1410525491557
 30
0.0
 10
124.0730012378673
 20
121.7462397245081
 30
0.0
 10
124.0251224158837
 20
121.3560642497545
 30
0.0
 10
123.9588226178477
 20
120.976819073989
 30
0.0
 10
123.8739816291898
 20
120.6067821264686
 30
0.0
 10
123.7723425674526
 20
120.2544433160458
 30
0.0
 10
123.6529694358224
 20
119.915764529424
 30
0.0
 10
123.5191221585481
 20
119.6007703480867
 30
0.0
 10
123.3686669275782
 20
119.3037465235783
 30
0.0
 10
123.2065970169262
 20
119.0353022162463
 30
0.0
 10
123.029392111247
 20
118.789028228957
 30
0.0
 10
122.8436915577889
 20
118.5748652412048
 30
0.0
 10
122.6447941135135
 20
118.3870674194602
 30
0.0
 10
122.4403797094437
 20
118.2334276277146
 30
0.0
 10
122.225517859478
 20
118.1104842860584
 30
0.0
 10
122.0076628962988
 20
118.0224533260188
 30
0.0
 10
121.7836624497874
 20
117.9692127406004
 30
0.0
 10
121.5587384611918
 20
117.9508721625857
 30
0.0
 10
121.3338144725962
 20
117.9692127406004
 30
0.0
 10
121.1098140260848
 20
118.0224533260188
 30
0.0
 10
120.8919590629056
 20
118.1104842860584
 30
0.0
 10
120.6770972129399
 20
118.2334276277147
 30
0.0
 10
120.4726828088701
 20
118.3870674194601
 30
0.0
 10
120.2737853645947
 20
118.5748652412048
 30
0.0
 10
120.0880848111367
 20
118.789028228957
 30
0.0
 10
119.9108799054574
 20
119.0353022162463
 30
0.0
 10
119.7488099948053
 20
119.3037465235783
 30
0.0
 10
119.5983547638355
 20
119.6007703480867
 30
0.0
 10
119.4645074865612
 20
119.915764529424
 30
0.0
 10
119.3451343549311
 20
120.2544433160458
 30
0.0
 10
119.2434952931939
 20
120.6067821264686
 30
0.0
 10
119.1586543045358
 20
120.9768190739889
 30
0.0
 10
119.0923545064999
 20
121.3560642497545
 30
0.0
 10
119.0444756845163
 20
121.7462397245082
 30
0.0
 10
119.0156264898383
 20
122.1410525491557
 30
0.0
 10
119.006029807963
 20
122.5395605996774
 30
0.0
 10
119.0156264897755
 20
122.9380686502036
 30
0.0
 10
119.0444756843964
 20
123.3328814748391
 30
0.0
 10
119.0923545063335
 20
123.7230569496408
 30
0.0
 10
119.1586543043395
 20
124.1023021252374
 30
0.0
 10
119.2434952929896
 20
124.4723390733731
 30
0.0
 10
119.3451343547461
 20
124.8246778815774
 30
0.0
 10
119.46450748643
 20
125.1633566760086
 30
0.0
 10
119.5983547637964
 20
125.4783508293648
 30
0.0
 10
119.7488099949069
 20
125.7753747504124
 30
0.0
 10
119.9108799057491
 20
126.043818714997
 30
0.0
 10
120.0880848116844
 20
126.2900938667717
 30
0.0
 10
120.273785365462
 20
126.5042527456982
 30
0.0
 10
120.4726828101485
 20
126.692064426772
 30
0.0
 10
120.6770972147267
 20
126.8456552601871
 30
0.0
 10
120.891959065393
 20
126.9687652770535
 30
0.0
 10
121.10981402987
 20
127.0561993792553
 30
0.0
 10
121.3338144755694
 20
127.1115437510658
 30
0.0
 10
121.483773413148
 20
127.1186058895567
 30
0.0
 10
121.5587384611918
 20
127.1221362846771
 30
0.0
 11
121.5587384611918
 21
127.1221362846771
 31
0.0
 11
121.7827189738586
 21
127.104276815501
 31
0.0
 11
122.0014561844036
 21
127.0525166628791
 31
0.0
 11
122.2230794979796
 21
126.9638029947133
 31
0.0
 11
122.4307221536215
 21
126.8457731544641
 31
0.0
 11
122.6415730177363
 21
126.6883235744475
 31
0.0
 11
122.83349333959
 21
126.5081875563181
 31
0.0
 11
123.0258962429598
 21
126.2873749707698
 31
0.0
 11
123.1975317436355
 21
126.0500172360142
 31
0.0
 11
123.3651510057036
 21
125.7734517609244
 31
0.0
 11
123.5117762430633
 21
125.4851834668895
 31
0.0
 11
123.6495280321264
 21
125.1620352046057
 31
0.0
 11
123.7666786777738
 21
124.8308484371992
 31
0.0
 11
123.8706302934924
 21
124.4714806510423
 31
0.0
 11
123.954493966275
 21
124.1068937857108
 31
0.0
 11
124.021842127464
 21
123.7225736729354
 31
0.0
 11
124.0695154360652
 21
123.3353165081711
 31
0.0
 11
124.0986080930826
 21
122.9379126042318
 31
0.0
 11
124.1082482179882
 21
122.5395605897212
 31
0.0
 11
124.0986080930826
 21
122.1412085752106
 31
0.0
 11
124.0695154360652
 21
121.7438046712714
 31
0.0
 11
124.021842127464
 21
121.3565475065071
 31
0.0
 11
123.954493966275
 21
120.9722273937317
 31
0.0
 11
123.8706302934924
 21
120.6076405284002
 31
0.0
 11
123.7666786777738
 21
120.2482727422433
 31
0.0
 11
123.6495280321264
 21
119.9170859748368
 31
0.0
 11
123.5117762430633
 21
119.5939377125529
 31
0.0
 11
123.3651510057035
 21
119.305669418518
 31
0.0
 11
123.1975317436354
 21
119.0291039434282
 31
0.0
 11
123.0258962429598
 21
118.7917462086727
 31
0.0
 11
122.83349333959
 21
118.5709336231243
 31
0.0
 11
122.6415730177363
 21
118.390797604995
 31
0.0
 11
122.4307221536215
 21
118.2333480249784
 31
0.0
 11
122.2230794979796
 21
118.1153181847292
 31
0.0
 11
122.0014561844035
 21
118.0266045165634
 31
0.0
 11
121.7827189738586
 21
117.9748443639415
 31
0.0
 11
121.5587384611918
 21
117.9569848947654
 31
0.0
 11
121.334757948525
 21
117.9748443639415
 31
0.0
 11
121.1160207379801
 21
118.0266045165634
 31
0.0
 11
120.894397424404
 21
118.1153181847292
 31
0.0
 11
120.6867547687621
 21
118.2333480249784
 31
0.0
 11
120.4759039046473
 21
118.390797604995
 31
0.0
 11
120.2839835827936
 21
118.5709336231243
 31
0.0
 11
120.0915806794238
 21
118.7917462086727
 31
0.0
 11
119.9199451787482
 21
119.0291039434282
 31
0.0
 11
119.75232591668
 21
119.305669418518
 31
0.0
 11
119.6057006793203
 21
119.5939377125529
 31
0.0
 11
119.4679488902573
 21
119.9170859748368
 31
0.0
 11
119.3507982446099
 21
120.2482727422433
 31
0.0
 11
119.2468466288913
 21
120.6076405284002
 31
0.0
 11
119.1629829561086
 21
120.9722273937317
 31
0.0
 11
119.0956347949196
 21
121.3565475065071
 31
0.0
 11
119.0479614863184
 21
121.7438046712714
 31
0.0
 11
119.018868829301
 21
122.1412085752106
 31
0.0
 11
119.0092287043954
 21
122.5395605897212
 31
0.0
 11
119.018868829301
 21
122.9379126042318
 31
0.0
 11
119.0479614863184
 21
123.3353165081711
 31
0.0
 11
119.0956347949196
 21
123.7225736729354
 31
0.0
 11
119.1629829561086
 21
124.1068937857108
 31
0.0
 11
119.2468466288913
 21
124.4714806510423
 31
0.0
 11
119.3507982446099
 21
124.8308484371992
 31
0.0
 11
119.4679488902573
 21
125.1620352046057
 31
0.0
 11
119.6057006793203
 21
125.4851834668895
 31
0.0
 11
119.75232591668
 21
125.7734517609245
 31
0.0
 11
119.9199451787482
 21
126.0500172360143
 31
0.0
 11
120.0915806794238
 21
126.2873749707698
 31
0.0
 11
120.2839835827936
 21
126.5081875563181
 31
0.0
 11
120.4759039046473
 21
126.6883235744475
 31
0.0
 11
120.6867547687621
 21
126.8457731544641
 31
0.0
 11
120.894397424404
 21
126.9638029947133
 31
0.0
 11
121.1160207379801
 21
127.0525166628791
 31
0.0
 11
121.334757948525
 21
127.104276815501
 31
0.0
 11
121.5587384611918
 21
127.1221362846771
 31
0.0
  0
SPLINE
  5
127
330
4F
100
AcDbEntity
  8
1
  6
Continuous
 62
     7
100
AcDbSpline
210
0.0
220
0.0
230
1.0
 70
    11
 71
     3
 72
    79
 73
    75
 74
    73
 42
0.000000001
 43
0.0000000001
 44
0.00000001
 40
0.0
 40
0.0
 40
0.0
 40
0.0
 40
0.2246914054394942
 40
0.449469254909366
 40
0.6881887731137316
 40
0.9270328976302514
 40
1.190183913758398
 40
1.453399405444625
 40
1.746276641226382
 40
2.039188640622667
 40
2.362584186456196
 40
2.685999661654819
 40
3.037283528093434
 40
3.388579626401165
 40
3.762680072991678
 40
4.136787942441208
 40
4.526964471588999
 40
4.917145014432267
 40
5.31561238519036
 40
5.714081028215844
 40
6.112549671242653
 40
6.511017042004545
 40
6.901197584852913
 40
7.291374114005214
 40
7.665481983455793
 40
8.0395824300403
 40
8.39087852833083
 40
8.742162394734054
 40
9.06557786987502
 40
9.388973415615169
 40
9.68188541488109
 40
9.974762650470002
 40
10.23797814190407
 40
10.5011291576706
 40
10.73997328170324
 40
10.9786927990995
 40
11.20347064636895
 40
11.42816205839307
 40
11.65285347041719
 40
11.87763131768671
 40
12.11635083508295
 40
12.35519495911556
 40
12.61834597488214
 40
12.88156146631615
 40
13.17443870190507
 40
13.467350701171
 40
13.79074624691118
 40
14.11416172205216
 40
14.46544558845535
 40
14.81674168674587
 40
15.19084213333039
 40
15.56495000278097
 40
15.95512653193327
 40
16.34530707478163
 40
16.74377444554352
 40
17.14224308857033
 40
17.54071173159581
 40
17.9391791023539
 40
18.32935964519717
 40
18.71953617434496
 40
19.0936440437945
 40
19.46774449038502
 40
19.81904058869278
 40
20.17032445513138
 40
20.49373993033006
 40
20.81713547616361
 40
21.11004747555982
 40
21.40292471134157
 40
21.66614020302782
 40
21.92929121915596
 40
22.16813534367247
 40
22.4068548618768
 40
22.6316327113467
 40
22.85632411678619
 40
22.85632411678619
 40
22.85632411678619
 40
22.85632411678619
 10
99.90810336658083
 20
127.1221362846771
 30
0.0
 10
99.83313831853705
 20
127.1186058895567
 30
0.0
 10
99.68317938095834
 20
127.1115437510657
 30
0.0
 10
99.45917893525902
 20
127.0561993792553
 30
0.0
 10
99.24132397078193
 20
126.9687652770535
 30
0.0
 10
99.02646212011572
 20
126.8456552601871
 30
0.0
 10
98.82204771553748
 20
126.692064426772
 30
0.0
 10
98.62315027085108
 20
126.5042527456982
 30
0.0
 10
98.4374497170734
 20
126.2900938667716
 30
0.0
 10
98.2602448111381
 20
126.0438187149969
 30
0.0
 10
98.09817490029589
 20
125.7753747504123
 30
0.0
 10
97.94771966918545
 20
125.4783508293648
 30
0.0
 10
97.8138723918191
 20
125.1633566760085
 30
0.0
 10
97.69449926013507
 20
124.8246778815774
 30
0.0
 10
97.59286019837859
 20
124.4723390733731
 30
0.0
 10
97.50801920972856
 20
124.1023021252374
 30
0.0
 10
97.4417194117225
 20
123.7230569496409
 30
0.0
 10
97.39384058978551
 20
123.3328814748391
 30
0.0
 10
97.36499139516455
 20
122.9380686502037
 30
0.0
 10
97.35539471335206
 20
122.5395605996773
 30
0.0
 10
97.36499139522725
 20
122.1410525491557
 30
0.0
 10
97.39384058990542
 20
121.7462397245082
 30
0.0
 10
97.4417194118889
 20
121.3560642497545
 30
0.0
 10
97.50801920992488
 20
120.976819073989
 30
0.0
 10
97.59286019858288
 20
120.6067821264686
 30
0.0
 10
97.69449926031999
 20
120.2544433160458
 30
0.0
 10
97.81387239195024
 20
119.9157645294239
 30
0.0
 10
97.9477196692246
 20
119.6007703480867
 30
0.0
 10
98.09817490019435
 20
119.3037465235782
 30
0.0
 10
98.26024481084644
 20
119.0353022162463
 30
0.0
 10
98.4374497165257
 20
118.789028228957
 30
0.0
 10
98.62315026998377
 20
118.5748652412049
 30
0.0
 10
98.82204771425916
 20
118.3870674194601
 30
0.0
 10
99.026462118329
 20
118.2334276277147
 30
0.0
 10
99.24132396829474
 20
118.1104842860584
 30
0.0
 10
99.45917893147387
 20
118.0224533260188
 30
0.0
 10
99.6831793779852
 20
117.9692127406004
 30
0.0
 10
99.90810336658085
 20
117.9508721625857
 30
0.0
 10
100.1330273551765
 20
117.9692127406004
 30
0.0
 10
100.3570278016879
 20
118.0224533260188
 30
0.0
 10
100.574882764867
 20
118.1104842860584
 30
0.0
 10
100.7897446148327
 20
118.2334276277147
 30
0.0
 10
100.9941590189025
 20
118.3870674194601
 30
0.0
 10
101.1930564631779
 20
118.5748652412049
 30
0.0
 10
101.378757016636
 20
118.789028228957
 30
0.0
 10
101.5559619223153
 20
119.0353022162463
 30
0.0
 10
101.7180318329673
 20
119.3037465235783
 30
0.0
 10
101.8684870639372
 20
119.6007703480867
 30
0.0
 10
102.0023343412115
 20
119.915764529424
 30
0.0
 10
102.1217074728417
 20
120.2544433160458
 30
0.0
 10
102.2233465345788
 20
120.6067821264686
 30
0.0
 10
102.3081875232368
 20
120.976819073989
 30
0.0
 10
102.3744873212728
 20
121.3560642497545
 30
0.0
 10
102.4223661432563
 20
121.7462397245081
 30
0.0
 10
102.4512153379344
 20
122.1410525491557
 30
0.0
 10
102.4608120198096
 20
122.5395605996773
 30
0.0
 10
102.4512153379971
 20
122.9380686502037
 30
0.0
 10
102.4223661433762
 20
123.3328814748391
 30
0.0
 10
102.3744873214392
 20
123.7230569496409
 30
0.0
 10
102.3081875234332
 20
124.1023021252373
 30
0.0
 10
102.2233465347831
 20
124.4723390733731
 30
0.0
 10
102.1217074730266
 20
124.8246778815774
 30
0.0
 10
102.0023343413426
 20
125.1633566760086
 30
0.0
 10
101.8684870639761
 20
125.4783508293648
 30
0.0
 10
101.7180318328658
 20
125.7753747504124
 30
0.0
 10
101.5559619220236
 20
126.043818714997
 30
0.0
 10
101.3787570160882
 20
126.2900938667717
 30
0.0
 10
101.1930564623106
 20
126.5042527456982
 30
0.0
 10
100.9941590176241
 20
126.692064426772
 30
0.0
 10
100.7897446130459
 20
126.8456552601871
 30
0.0
 10
100.5748827623797
 20
126.9687652770534
 30
0.0
 10
100.3570277979026
 20
127.0561993792553
 30
0.0
 10
100.1330273522033
 20
127.1115437510657
 30
0.0
 10
99.98306841462463
 20
127.1186058895567
 30
0.0
 10
99.90810336658083
 20
127.1221362846771
 30
0.0
 11
99.90810336658083
 21
127.1221362846771
 31
0.0
 11
99.68412285391408
 21
127.104276815501
 31
0.0
 11
99.46538564336909
 21
127.0525166628791
 31
0.0
 11
99.24376232979303
 21
126.9638029947133
 31
0.0
 11
99.03611967415114
 21
126.8457731544641
 31
0.0
 11
98.82526881003628
 21
126.6883235744475
 31
0.0
 11
98.63334848818266
 21
126.5081875563181
 31
0.0
 11
98.44094558481287
 21
126.2873749707698
 31
0.0
 11
98.26931008413716
 21
126.0500172360142
 31
0.0
 11
98.10169082206903
 21
125.7734517609244
 31
0.0
 11
97.95506558470935
 21
125.4851834668895
 31
0.0
 11
97.8173137956463
 21
125.1620352046057
 31
0.0
 11
97.70016314999887
 21
124.8308484371992
 31
0.0
 11
97.59621153428026
 21
124.4714806510423
 31
0.0
 11
97.5123478614976
 21
124.1068937857108
 31
0.0
 11
97.44499970030859
 21
123.7225736729354
 31
0.0
 11
97.3973263917075
 21
123.3353165081711
 31
0.0
 11
97.36823373469004
 21
122.9379126042318
 31
0.0
 11
97.35859360978445
 21
122.5395605897212
 31
0.0
 11
97.36823373469004
 21
122.1412085752106
 31
0.0
 11
97.3973263917075
 21
121.7438046712714
 31
0.0
 11
97.4449997003086
 21
121.3565475065071
 31
0.0
 11
97.5123478614976
 21
120.9722273937317
 31
0.0
 11
97.59621153428026
 21
120.6076405284002
 31
0.0
 11
97.70016314999887
 21
120.2482727422433
 31
0.0
 11
97.81731379564631
 21
119.9170859748368
 31
0.0
 11
97.95506558470939
 21
119.5939377125529
 31
0.0
 11
98.10169082206907
 21
119.305669418518
 31
0.0
 11
98.26931008413719
 21
119.0291039434282
 31
0.0
 11
98.44094558481288
 21
118.7917462086727
 31
0.0
 11
98.63334848818266
 21
118.5709336231243
 31
0.0
 11
98.82526881003633
 21
118.390797604995
 31
0.0
 11
99.03611967415118
 21
118.2333480249784
 31
0.0
 11
99.24376232979307
 21
118.1153181847292
 31
0.0
 11
99.46538564336913
 21
118.0266045165634
 31
0.0
 11
99.68412285391408
 21
117.9748443639415
 31
0.0
 11
99.90810336658083
 21
117.9569848947654
 31
0.0
 11
100.1320838792476
 21
117.9748443639415
 31
0.0
 11
100.3508210897926
 21
118.0266045165634
 31
0.0
 11
100.5724444033686
 21
118.1153181847292
 31
0.0
 11
100.7800870590105
 21
118.2333480249784
 31
0.0
 11
100.9909379231254
 21
118.390797604995
 31
0.0
 11
101.182858244979
 21
118.5709336231243
 31
0.0
 11
101.3752611483488
 21
118.7917462086727
 31
0.0
 11
101.5468966490245
 21
119.0291039434282
 31
0.0
 11
101.7145159110926
 21
119.305669418518
 31
0.0
 11
101.8611411484524
 21
119.5939377125529
 31
0.0
 11
101.9988929375154
 21
119.9170859748368
 31
0.0
 11
102.1160435831628
 21
120.2482727422433
 31
0.0
 11
102.2199951988814
 21
120.6076405284002
 31
0.0
 11
102.3038588716641
 21
120.9722273937317
 31
0.0
 11
102.3712070328531
 21
121.3565475065071
 31
0.0
 11
102.4188803414542
 21
121.7438046712714
 31
0.0
 11
102.4479729984716
 21
122.1412085752106
 31
0.0
 11
102.4576131233772
 21
122.5395605897212
 31
0.0
 11
102.4479729984716
 21
122.9379126042318
 31
0.0
 11
102.4188803414542
 21
123.3353165081711
 31
0.0
 11
102.3712070328531
 21
123.7225736729354
 31
0.0
 11
102.3038588716641
 21
124.1068937857108
 31
0.0
 11
102.2199951988814
 21
124.4714806510423
 31
0.0
 11
102.1160435831628
 21
124.8308484371992
 31
0.0
 11
101.9988929375154
 21
125.1620352046057
 31
0.0
 11
101.8611411484523
 21
125.4851834668895
 31
0.0
 11
101.7145159110926
 21
125.7734517609245
 31
0.0
 11
101.5468966490245
 21
126.0500172360143
 31
0.0
 11
101.3752611483488
 21
126.2873749707698
 31
0.0
 11
101.182858244979
 21
126.5081875563181
 31
0.0
 11
100.9909379231253
 21
126.6883235744475
 31
0.0
 11
100.7800870590105
 21
126.8457731544641
 31
0.0
 11
100.5724444033686
 21
126.9638029947133
 31
0.0
 11
100.3508210897926
 21
127.0525166628791
 31
0.0
 11
100.1320838792476
 21
127.104276815501
 31
0.0
 11
99.90810336658083
 21
127.1221362846771
 31
0.0
  0
ENDBLK
  5
51
330
4F
100
AcDbEntity
  8
0
100
AcDbBlockEnd
  0
BLOCK
  5
14A
330
143
100
AcDbEntity
  8
0
100
AcDbBlockBegin
  2
*D4
 70
     1
 10
0.0
 20
0.0
 30
0.0
  3
*D4
  1

  0
LINE
  5
144
330
143
100
AcDbEntity
  8
0
  6
Continuous
 62
     2
100
AcDbLine
 10
97.23342091388633
 20
210.9829943305691
 30
0.0
 11
124.2334209138863
 21
210.9829943305691
 31
0.0
  0
LINE
  5
145
330
143
100
AcDbEntity
  8
0
  6
Continuous
 62
     2
100
AcDbLine
 10
124.2334209138863
 20
187.5395605897212
 30
0.0
 11
124.2334209138863
 21
211.9829943305691
 31
0.0
  0
LINE
  5
146
330
143
100
AcDbEntity
  8
0
  6
Continuous
 62
     2
100
AcDbLine
 10
97.23342091388633
 20
187.5395605897212
 30
0.0
 11
97.23342091388633
 21
211.9829943305691
 31
0.0
  0
SOLID
  5
147
330
143
100
AcDbEntity
  8
0
 62
     2
100
AcDbTrace
 10
100.7334209138863
 20
211.443778072125
 30
0.0
 11
100.7334209138863
 21
210.5222105890132
 31
0.0
 12
97.23342091388633
 22
210.9829943305691
 32
0.0
 13
97.23342091388633
 23
210.9829943305691
 33
0.0
  0
SOLID
  5
148
330
143
100
AcDbEntity
  8
0
 62
     2
100
AcDbTrace
 10
120.7334209138863
 20
210.5222105890132
 30
0.0
 11
120.7334209138863
 21
211.443778072125
 31
0.0
 12
124.2334209138863
 22
210.9829943305691
 32
0.0
 13
124.2334209138863
 23
210.9829943305691
 33
0.0
  0
MTEXT
  5
149
330
143
100
AcDbEntity
  8
0
 62
     7
100
AcDbMText
 10
106.9079719832383
 20
211.9829873734928
 30
0.0
 40
3.5
 41
0.0
 71
     7
 72
     1
  1
\C7;{\Fgdt;n}\C7;27
  7
CONVERTER_12
 11
0.9999999999970619
 21
2.424068405545306E-6
 31
0.0
 73
     1
 44
0.60024009603842
  0
ENDBLK
  5
14B
330
143
100
AcDbEntity
  8
0
100
AcDbBlockEnd
  0
BLOCK
  5
155
330
14E
100
AcDbEntity
  8
0
100
AcDbBlockBegin
  2
*D5
 70
     1
 10
0.0
 20
0.0
 30
0.0
  3
*D5
  1

  0
LINE
  5
14F
330
14E
100
AcDbEntity
  8
0
  6
Continuous
 62
     2
100
AcDbLine
 10
135.0574663718755
 20
200.0395605897212
 30
0.0
 11
135.0574663718755
 21
175.0395605897212
 31
0.0
  0
LINE
  5
150
330
14E
100
AcDbEntity
  8
0
  6
Continuous
 62
     2
100
AcDbLine
 10
115.8324404274791
 20
175.0395605897212
 30
0.0
 11
136.0574663718755
 21
175.0395605897212
 31
0.0
  0
LINE
  5
151
330
14E
100
AcDbEntity
  8
0
  6
Continuous
 62
     2
100
AcDbLine
 10
115.8324404274791
 20
200.0395605897212
 30
0.0
 11
136.0574663718755
 21
200.0395605897212
 31
0.0
  0
SOLID
  5
152
330
14E
100
AcDbEntity
  8
0
 62
     2
100
AcDbTrace
 10
135.5182501134314
 20
196.5395605897212
 30
0.0
 11
134.5966826303196
 21
196.5395605897212
 31
0.0
 12
135.0574663718755
 22
200.0395605897212
 32
0.0
 13
135.0574663718755
 23
200.0395605897212
 33
0.0
  0
SOLID
  5
153
330
14E
100
AcDbEntity
  8
0
 62
     2
100
AcDbTrace
 10
134.5966826303196
 20
178.5395605897212
 30
0.0
 11
135.5182501134314
 21
178.5395605897212
 31
0.0
 12
135.0574663718755
 22
175.0395605897212
 32
0.0
 13
135.0574663718755
 23
175.0395605897212
 33
0.0
  0
MTEXT
  5
154
330
14E
100
AcDbEntity
  8
0
 62
     7
100
AcDbMText
 10
134.0574663718755
 20
184.5445041100321
 30
0.0
 40
3.5
 41
0.0
 71
     7
 72
     1
  1
25
  7
CONVERTER_12
 11
0.0
 21
1.0
 31
0.0
 73
     1
 44
0.60024009603842
  0
ENDBLK
  5
156
330
14E
100
AcDbEntity
  8
0
100
AcDbBlockEnd
  0
BLOCK
  5
162
330
159
100
AcDbEntity
  8
0
100
AcDbBlockBegin
  2
*D6
 70
     1
 10
0.0
 20
0.0
 30
0.0
  3
*D6
  1

  0
LINE
  5
15A
330
159
100
AcDbEntity
  8
1
  6
Continuous
 62
     2
100
AcDbLine
 10
86.52640803332298
 20
128.0395605897212
 30
0.0
 11
86.52640803332298
 21
121.0395605897212
 31
0.0
  0
LINE
  5
15B
330
159
100
AcDbEntity
  8
1
  6
Continuous
 62
     2
100
AcDbLine
 10
86.52640803332298
 20
136.5395605897212
 30
0.0
 11
86.52640803332298
 21
128.0395605897212
 31
0.0
  0
LINE
  5
15C
330
159
100
AcDbEntity
  8
1
  6
Continuous
 62
     2
100
AcDbLine
 10
86.52640803332298
 20
143.5395605897212
 30
0.0
 11
86.52640803332298
 21
136.5395605897212
 31
0.0
  0
LINE
  5
15D
330
159
100
AcDbEntity
  8
1
  6
Continuous
 62
     2
100
AcDbLine
 10
101.7334209138863
 20
128.0395605897212
 30
0.0
 11
85.52640803332298
 21
128.0395605897212
 31
0.0
  0
LINE
  5
15E
330
159
100
AcDbEntity
  8
1
  6
Continuous
 62
     2
100
AcDbLine
 10
104.2334209138863
 20
136.5395605897212
 30
0.0
 11
85.52640803332298
 21
136.5395605897212
 31
0.0
  0
SOLID
  5
15F
330
159
100
AcDbEntity
  8
1
 62
     2
100
AcDbTrace
 10
86.0656242917671
 20
140.0395605897212
 30
0.0
 11
86.98719177487887
 21
140.0395605897212
 31
0.0
 12
86.52640803332298
 22
136.5395605897212
 32
0.0
 13
86.52640803332298
 23
136.5395605897212
 33
0.0
  0
SOLID
  5
160
330
159
100
AcDbEntity
  8
1
 62
     2
100
AcDbTrace
 10
86.98719177487887
 20
124.5395605897212
 30
0.0
 11
86.0656242917671
 21
124.5395605897212
 31
0.0
 12
86.52640803332298
 22
128.0395605897212
 32
0.0
 13
86.52640803332298
 23
128.0395605897212
 33
0.0
  0
MTEXT
  5
161
330
159
100
AcDbEntity
  8
1
 62
     7
100
AcDbMText
 10
85.52640803332298
 20
131.0495877568374
 30
0.0
 40
3.5
 41
0.0
 71
     7
 72
     1
  1
9
  7
CONVERTER_12
 11
0.0
 21
1.0
 31
0.0
 73
     1
 44
0.60024009603842
  0
ENDBLK
  5
163
330
159
100
AcDbEntity
  8
0
100
AcDbBlockEnd
  0
BLOCK
  5
16D
330
166
100
AcDbEntity
  8
0
100
AcDbBlockBegin
  2
*D7
 70
     1
 10
0.0
 20
0.0
 30
0.0
  3
*D7
  1

  0
LINE
  5
167
330
166
100
AcDbEntity
  8
1
  6
Continuous
 62
     2
100
AcDbLine
 10
78.32818391142797
 20
136.5395605897212
 30
0.0
 11
78.32818391142797
 21
117.0395605897212
 31
0.0
  0
LINE
  5
168
330
166
100
AcDbEntity
  8
1
  6
Continuous
 62
     2
100
AcDbLine
 10
98.70714147225752
 20
117.0395605897212
 30
0.0
 11
77.32818391142797
 21
117.0395605897212
 31
0.0
  0
LINE
  5
169
330
166
100
AcDbEntity
  8
1
  6
Continuous
 62
     2
100
AcDbLine
 10
104.2334209138863
 20
136.5395605897212
 30
0.0
 11
77.32818391142797
 21
136.5395605897212
 31
0.0
  0
SOLID
  5
16A
330
166
100
AcDbEntity
  8
1
 62
     2
100
AcDbTrace
 10
78.78896765298386
 20
133.0395605897212
 30
0.0
 11
77.86740016987208
 21
133.0395605897212
 31
0.0
 12
78.32818391142797
 22
136.5395605897212
 32
0.0
 13
78.32818391142797
 23
136.5395605897212
 33
0.0
  0
SOLID
  5
16B
330
166
100
AcDbEntity
  8
1
 62
     2
100
AcDbTrace
 10
77.86740016987208
 20
120.5395605897212
 30
0.0
 11
78.78896765298386
 21
120.5395605897212
 31
0.0
 12
78.32818391142797
 22
117.0395605897212
 32
0.0
 13
78.32818391142797
 23
117.0395605897212
 33
0.0
  0
MTEXT
  5
16C
330
166
100
AcDbEntity
  8
1
 62
     7
100
AcDbMText
 10
77.32818391142797
 20
124.2757139234406
 30
0.0
 40
3.5
 41
0.0
 71
     7
 72
     1
  1
20
  7
CONVERTER_12
 11
0.0
 21
1.0
 31
0.0
 73
     1
 44
0.60024009603842
  0
ENDBLK
  5
16E
330
166
100
AcDbEntity
  8
0
100
AcDbBlockEnd
  0
ENDSEC
  0
SECTION
  2
ENTITIES
  0
INSERT
  5
52
330
1F
100
AcDbEntity
  8
0
100
AcDbBlockReference
  2
開示A4枠
 10
0.0
 20
0.0
 30
0.0
  0
INSERT
  5
53
330
1F
100
AcDbEntity
  8
0
100
AcDbBlockReference
  2
35-23
 10
-70.49510022271753
 20
150.6702672605796
 30
0.0
  0
LINE
  5
128
330
1F
100
AcDbEntity
  8
1
  6
DASH_CENTER
 62
     2
100
AcDbLine
 10
110.7334209138863
 20
138.5395605897212
 30
0.0
 11
110.7334209138863
 21
123.0395605897212
 31
0.0
  0
LINE
  5
129
330
1F
100
AcDbEntity
  8
1
  6
DASH_CENTER
 62
     2
100
AcDbLine
 10
110.7334209138863
 20
123.0395605897212
 30
0.0
 11
110.7334209138863
 21
115.0395605897212
 31
0.0
  0
LINE
  5
12A
330
1F
100
AcDbEntity
  8
1
  6
CENTER_DASH_DASH
 62
     2
100
AcDbLine
 10
95.2296458137138
 20
187.5395605897213
 30
0.0
 11
97.23342091388632
 21
187.5395605897213
 31
0.0
  0
LINE
  5
12B
330
1F
100
AcDbEntity
  8
1
  6
DASH_CENTER
 62
     2
100
AcDbLine
 10
110.7334209138863
 20
202.0678083238602
 30
0.0
 11
110.7334209138863
 21
173.0395605897213
 31
0.0
  0
LINE
  5
12C
330
1F
100
AcDbEntity
  8
1
  6
CENTER_DASH_DASH
 62
     2
100
AcDbLine
 10
123.2334209138863
 20
187.5395605897213
 30
0.0
 11
124.2334209138863
 21
187.5395605897213
 31
0.0
  0
LINE
  5
12D
330
1F
100
AcDbEntity
  8
1
  6
CENTER_DASH_DASH
 62
     2
100
AcDbLine
 10
97.23342091388632
 20
187.5395605897213
 30
0.0
 11
123.2334209138863
 21
187.5395605897213
 31
0.0
  0
LINE
  5
12E
330
1F
100
AcDbEntity
  8
1
  6
CENTER_DASH_DASH
 62
     2
100
AcDbLine
 10
124.2334209138863
 20
187.5395605897213
 30
0.0
 11
126.2371960140588
 21
187.5395605897213
 31
0.0
  0
SOLID
  5
12F
330
1F
100
AcDbEntity
  8
1
 62
     2
100
AcDbTrace
 10
123.7638262670169
 20
114.1516935985907
 30
0.0
 11
122.9472069052832
 21
113.7245877054323
 31
0.0
 12
121.7334209138863
 22
117.0395605897212
 32
0.0
 13
121.7334209138863
 23
117.0395605897212
 33
0.0
  0
LEADER
  5
130
330
1F
100
AcDbEntity
  8
1
  6
Continuous
 62
     2
100
AcDbLeader
  3
Standard
 71
     0
 76
     3
 10
121.7334209138863
 20
117.0395605897212
 30
0.0
 10
130.0698778757139
 20
101.1003935767245
 30
0.0
 10
148.8835199911127
 20
101.1003935767245
 30
0.0
  0
SOLID
  5
131
330
1F
100
AcDbEntity
  8
1
 62
     2
100
AcDbTrace
 10
122.434370488048
 20
137.1078850831285
 30
0.0
 11
123.2324713397245
 21
136.6471013415726
 31
0.0
 12
121.0834209138863
 22
133.846404299105
 32
0.0
 13
121.0834209138863
 23
133.846404299105
 33
0.0
  0
LEADER
  5
132
330
1F
100
AcDbEntity
  8
1
  6
Continuous
 62
     2
100
AcDbLeader
  3
Standard
 71
     0
 76
     3
 10
121.0834209138863
 20
133.846404299105
 30
0.0
 10
128.678038182638
 20
147.0006672726228
 30
0.0
 10
142.9230976507584
 20
147.0006672726228
 30
0.0
  0
MTEXT
  5
134
330
1F
100
AcDbEntity
  8
1
 62
     7
100
AcDbMText
 10
157.5
 20
12.5
 30
0.0
 40
2.5
 41
0.0
 71
     5
 72
     1
  1
9
  7
CONVERTER_12
 73
     1
 44
0.7202881152461
  0
MTEXT
  5
135
330
1F
100
AcDbEntity
  8
1
 62
     7
100
AcDbMText
 10
151.75
 20
12.5
 30
0.0
 40
2.5
 41
0.0
 71
     5
 72
     1
  1
03
  7
CONVERTER_12
 73
     1
 44
0.7202881152461
  0
MTEXT
  5
136
330
1F
100
AcDbEntity
  8
1
 62
     7
100
AcDbMText
 10
140.5
 20
12.5
 30
0.0
 40
2.5
 41
0.0
 71
     5
 72
     1
  1
9
  7
CONVERTER_12
 73
     1
 44
0.7202881152461
  0
MTEXT
  5
137
330
1F
100
AcDbEntity
  8
1
 62
     7
100
AcDbMText
 10
134.75
 20
12.5
 30
0.0
 40
2.5
 41
0.0
 71
     5
 72
     1
  1
03
  7
CONVERTER_12
 73
     1
 44
0.7202881152461
  0
MTEXT
  5
138
330
1F
100
AcDbEntity
  8
1
 62
     7
100
AcDbMText
 10
123.5
 20
12.5
 30
0.0
 40
2.5
 41
0.0
 71
     5
 72
     1
  1
9
  7
CONVERTER_12
 73
     1
 44
0.7202881152461
  0
MTEXT
  5
139
330
1F
100
AcDbEntity
  8
1
 62
     7
100
AcDbMText
 10
117.75
 20
12.5
 30
0.0
 40
2.5
 41
0.0
 71
     5
 72
     1
  1
03
  7
CONVERTER_12
 73
     1
 44
0.7202881152461
  0
MTEXT
  5
13A
330
1F
100
AcDbEntity
  8
1
 62
     7
100
AcDbMText
 10
100.75
 20
12.5
 30
0.0
 40
2.5
 41
0.0
 71
     5
 72
     1
  1
03
  7
CONVERTER_12
 73
     1
 44
0.7202881152461
  0
MTEXT
  5
13B
330
1F
100
AcDbEntity
  8
1
 62
     7
100
AcDbMText
 10
106.5
 20
12.5
 30
0.0
 40
2.5
 41
0.0
 71
     5
 72
     1
  1
9
  7
CONVERTER_12
 73
     1
 44
0.7202881152461
  0
MTEXT
  5
13C
330
1F
100
AcDbEntity
  8
1
 62
     7
100
AcDbMText
 10
139.4766989334133
 20
104.6003935767245
 30
0.0
 40
3.5
 41
0.0
 71
     5
 72
     1
  1
M22×2
  7
CONVERTER_11
 73
     1
 44
1.0
  0
MTEXT
  5
13D
330
1F
100
AcDbEntity
  8
1
 62
     7
100
AcDbMText
 10
135.8005679166982
 20
150.5006672726228
 30
0.0
 40
3.5
 41
0.0
 71
     5
 72
     1
  1
G1/2
  7
CONVERTER_12
 73
     1
 44
1.32052821128451
  0
MTEXT
  5
13E
330
1F
100
AcDbEntity
  8
1
 62
     7
100
AcDbMText
 10
93.75
 20
17.0
 30
0.0
 40
3.5
 41
0.0
 71
     5
 72
     1
  1
1
  7
CONVERTER_12
 73
     1
 44
0.7202881152461
  0
MTEXT
  5
13F
330
1F
100
AcDbEntity
  8
1
 62
     7
100
AcDbMText
 10
57.0
 20
14.25
 30
0.0
 40
3.5
 41
0.0
 71
     5
 72
     1
  1
T25-3
  7
CONVERTER_12
 73
     1
 44
0.7202881152461
  0
MTEXT
  5
140
330
1F
100
AcDbEntity
  8
1
 62
     7
100
AcDbMText
 10
57.0
 20
22.75000000000003
 30
0.0
 40
3.5
 41
0.0
 71
     5
 72
     1
  1
シャワアダプター
  7
CONVERTER_11
 73
     1
 44
0.54545454545455
  0
MTEXT
  5
141
330
1F
100
AcDbEntity
  8
1
 62
     7
100
AcDbMText
 10
85.25
 20
17.0
 30
0.0
 40
3.5
 41
0.0
 71
     5
 72
     1
  1
1
  7
CONVERTER_12
 73
     1
 44
0.7202881152461
  0
MTEXT
  5
142
330
1F
100
AcDbEntity
  8
0
 62
     7
100
AcDbMText
 10
34.0
 20
34.00000000000001
 30
0.0
 40
3.5
 41
0.0
 71
     4
 72
     1
  1
KVK社製混合栓用
  7
CONVERTER_11
 73
     1
 44
0.63636363636364
  0
DIMENSION
  5
14D
330
1F
100
AcDbEntity
  8
0
100
AcDbDimension
  2
*D4
 10
97.23342091388633
 20
210.9829943305691
 30
0.0
 11
110.3029719832299
 21
213.7329943305691
 31
0.0
 70
    33
  1
<>
 71
     5
 42
-1.0
 53
0.00013888888889
  3
ME10_DIM_10
100
AcDbAlignedDimension
 13
124.2334209138863
 23
187.5395605897213
 33
0.0
 14
97.23342091388632
 24
187.5395605897213
 34
0.0
  0
DIMENSION
  5
158
330
1F
100
AcDbEntity
  8
0
100
AcDbDimension
  2
*D5
 10
135.0574663718755
 20
200.0395605897212
 30
0.0
 11
132.3074663718755
 21
187.1695041100321
 31
0.0
 70
    33
  1
<>
 71
     5
 42
-1.0
 53
90.0
  3
ME10_DIM_11
100
AcDbAlignedDimension
 13
115.8324404274791
 23
175.0395605897213
 33
0.0
 14
115.8324404274791
 24
200.0395605897213
 34
0.0
  0
DIMENSION
  5
165
330
1F
100
AcDbEntity
  8
1
100
AcDbDimension
  2
*D6
 10
86.52640803332298
 20
136.5395605897212
 30
0.0
 11
83.77640803332298
 21
132.0995877568374
 31
0.0
 70
    32
  1
9
 71
     5
 42
-1.0
 53
90.0
  3
ME10_DIM_12
100
AcDbAlignedDimension
 13
101.7334209138863
 23
128.0395605897212
 33
0.0
 14
104.2334209138863
 24
136.5395605897212
 34
0.0
 50
90.0
100
AcDbRotatedDimension
  0
DIMENSION
  5
170
330
1F
100
AcDbEntity
  8
1
100
AcDbDimension
  2
*D7
 10
78.32818391142797
 20
136.5395605897212
 30
0.0
 11
75.57818391142797
 21
126.9007139234406
 31
0.0
 70
    32
  1
20
 71
     5
 42
-1.0
 53
90.0
  3
ME10_DIM_13
100
AcDbAlignedDimension
 13
98.70714147225752
 23
117.0395605897212
 33
0.0
 14
104.2334209138863
 24
136.5395605897212
 34
0.0
 50
90.0
100
AcDbRotatedDimension
  0
ENDSEC
  0
SECTION
  2
OBJECTS
  0
DICTIONARY
  5
C
330
0
100
AcDbDictionary
281
     1
  3
ACAD_GROUP
350
D
  3
ACAD_LAYOUT
350
1A
  3
ACAD_MATERIAL
350
3B
  3
ACAD_MLEADERSTYLE
350
173
  3
ACAD_MLINESTYLE
350
17
  3
ACAD_PLOTSETTINGS
350
19
  3
ACAD_PLOTSTYLENAME
350
E
  3
ACAD_VISUALSTYLE
350
2A
  3
AcDbVariableDictionary
350
171
  0
DICTIONARY
  5
D
102
{ACAD_REACTORS
330
C
102
}
330
C
100
AcDbDictionary
281
     1
  0
DICTIONARY
  5
1A
102
{ACAD_REACTORS
330
C
102
}
330
C
100
AcDbDictionary
281
     1
  3
Layout1
350
1E
  3
Layout2
350
26
  3
Model
350
22
  0
DICTIONARY
  5
3B
102
{ACAD_REACTORS
330
C
102
}
330
C
100
AcDbDictionary
281
     1
  3
ByBlock
350
3D
  3
ByLayer
350
3C
  3
Global
350
3E
  0
DICTIONARY
  5
173
102
{ACAD_REACTORS
330
C
102
}
330
C
100
AcDbDictionary
281
     1
  0
DICTIONARY
  5
17
102
{ACAD_REACTORS
330
C
102
}
330
C
100
AcDbDictionary
281
     1
  3
Standard
350
18
  0
DICTIONARY
  5
19
102
{ACAD_REACTORS
330
C
102
}
330
C
100
AcDbDictionary
281
     1
  0
ACDBDICTIONARYWDFLT
  5
E
102
{ACAD_REACTORS
330
C
102
}
330
C
100
AcDbDictionary
281
     1
  3
Normal
350
F
100
AcDbDictionaryWithDefault
340
F
  0
DICTIONARY
  5
2A
102
{ACAD_REACTORS
330
C
102
}
330
C
100
AcDbDictionary
281
     1
  3
2dWireframe
350
2F
  3
3D Hidden
350
31
  3
3dWireframe
350
30
  3
Basic
350
32
  3
Brighten
350
36
  3
ColorChange
350
3A
  3
Conceptual
350
34
  3
Dim
350
35
  3
Facepattern
350
39
  3
Flat
350
2B
  3
FlatWithEdges
350
2C
  3
Gouraud
350
2D
  3
GouraudWithEdges
350
2E
  3
Linepattern
350
38
  3
Realistic
350
33
  3
Thicken
350
37
  0
DICTIONARY
  5
171
102
{ACAD_REACTORS
330
C
102
}
330
C
100
AcDbDictionary
281
     1
  3
DIMASSOC
350
174
  3
HIDETEXT
350
175
  0
LAYOUT
  5
1E
102
{ACAD_REACTORS
330
1A
102
}
330
1A
100
AcDbPlotSettings
  1

  2
none_device
  4

  6

 40
0.0
 41
0.0
 42
0.0
 43
0.0
 44
0.0
 45
0.0
 46
0.0
 47
0.0
 48
0.0
 49
0.0
140
0.0
141
0.0
142
1.0
143
1.0
 70
   688
 72
     0
 73
     0
 74
     5
  7

 75
    16
147
1.0
148
0.0
149
0.0
100
AcDbLayout
  1
Layout1
 70
     1
 71
     1
 10
0.0
 20
0.0
 11
12.0
 21
9.0
 12
0.0
 22
0.0
 32
0.0
 14
1.00000000000000E+20
 24
1.00000000000000E+20
 34
1.00000000000000E+20
 15
-1.00000000000000E+20
 25
-1.00000000000000E+20
 35
-1.00000000000000E+20
146
0.0
 13
0.0
 23
0.0
 33
0.0
 16
1.0
 26
0.0
 36
0.0
 17
0.0
 27
1.0
 37
0.0
 76
     0
330
1B
  0
LAYOUT
  5
26
102
{ACAD_REACTORS
330
1A
102
}
330
1A
100
AcDbPlotSettings
  1

  2
none_device
  4

  6

 40
0.0
 41
0.0
 42
0.0
 43
0.0
 44
0.0
 45
0.0
 46
0.0
 47
0.0
 48
0.0
 49
0.0
140
0.0
141
0.0
142
1.0
143
1.0
 70
   688
 72
     0
 73
     0
 74
     5
  7

 75
    16
147
1.0
148
0.0
149
0.0
100
AcDbLayout
  1
Layout2
 70
     1
 71
     2
 10
0.0
 20
0.0
 11
0.0
 21
0.0
 12
0.0
 22
0.0
 32
0.0
 14
0.0
 24
0.0
 34
0.0
 15
0.0
 25
0.0
 35
0.0
146
0.0
 13
0.0
 23
0.0
 33
0.0
 16
1.0
 26
0.0
 36
0.0
 17
0.0
 27
1.0
 37
0.0
 76
     0
330
23
  0
LAYOUT
  5
22
102
{ACAD_REACTORS
330
1A
102
}
330
1A
100
AcDbPlotSettings
  1

  2
none_device
  4

  6

 40
0.0
 41
0.0
 42
0.0
 43
0.0
 44
0.0
 45
0.0
 46
0.0
 47
0.0
 48
0.0
 49
0.0
140
0.0
141
0.0
142
1.0
143
1.0
 70
  1712
 72
     0
 73
     0
 74
     0
  7

 75
     0
147
1.0
148
0.0
149
0.0
100
AcDbLayout
  1
Model
 70
     1
 71
     0
 10
0.0
 20
0.0
 11
12.0
 21
9.0
 12
0.0
 22
0.0
 32
0.0
 14
0.0
 24
0.0
 34
0.0
 15
210.0
 25
297.0
 35
0.0
146
0.0
 13
0.0
 23
0.0
 33
0.0
 16
1.0
 26
0.0
 36
0.0
 17
0.0
 27
1.0
 37
0.0
 76
     0
330
1F
331
29
  0
MATERIAL
  5
3D
102
{ACAD_REACTORS
330
3B
102
}
102
{ACAD_XDICTIONARY
360
198
102
}
330
3B
100
AcDbMaterial
  1
ByBlock
  0
MATERIAL
  5
3C
102
{ACAD_REACTORS
330
3B
102
}
102
{ACAD_XDICTIONARY
360
196
102
}
330
3B
100
AcDbMaterial
  1
ByLayer
  0
MATERIAL
  5
3E
102
{ACAD_REACTORS
330
3B
102
}
102
{ACAD_XDICTIONARY
360
19A
102
}
330
3B
100
AcDbMaterial
  1
Global
  0
MLINESTYLE
  5
18
102
{ACAD_REACTORS
330
17
102
}
330
17
100
AcDbMlineStyle
  2
Standard
 70
     0
  3

 62
   256
 51
90.0
 52
90.0
 71
     2
 49
0.5
 62
   256
  6
BYLAYER
 49
-0.5
 62
   256
  6
BYLAYER
  0
ACDBPLACEHOLDER
  5
F
102
{ACAD_REACTORS
330
E
102
}
330
E
  0
VISUALSTYLE
  5
2F
102
{ACAD_REACTORS
330
2A
102
}
102
{ACAD_XDICTIONARY
360
17E
102
}
330
2A
100
AcDbVisualStyle
  2
2dWireframe
 70
     4
 71
     0
 72
     2
 73
     0
 90
        0
 40
-0.6
 41
-30.0
 62
     5
 63
     7
 74
     1
 91
        4
 64
     7
 65
   257
 75
     1
175
     1
 42
1.0
 92
        0
 66
   257
 43
1.0
 76
     1
 77
     6
 78
     2
 67
     7
 79
     5
170
     0
171
     0
290
     0
174
     0
 93
        1
 44
0.0
173
     0
291
     0
 45
0.0
1001
ACAD
1000
AcDbSavedByObjectVersion
1070
     0
  0
VISUALSTYLE
  5
31
102
{ACAD_REACTORS
330
2A
102
}
102
{ACAD_XDICTIONARY
360
182
102
}
330
2A
100
AcDbVisualStyle
  2
3D Hidden
 70
     6
 71
     1
 72
     2
 73
     2
 90
        0
 40
-0.6
 41
-30.0
 62
     5
 63
     7
 74
     2
 91
        2
 64
     7
 65
   257
 75
     2
175
     1
 42
40.0
 92
        0
 66
   257
 43
1.0
 76
     1
 77
     6
 78
     2
 67
     7
 79
     3
170
     0
171
     0
290
     0
174
     0
 93
        1
 44
0.0
173
     0
291
     0
 45
0.0
1001
ACAD
1000
AcDbSavedByObjectVersion
1070
     0
  0
VISUALSTYLE
  5
30
102
{ACAD_REACTORS
330
2A
102
}
102
{ACAD_XDICTIONARY
360
180
102
}
330
2A
100
AcDbVisualStyle
  2
3dWireframe
 70
     5
 71
     0
 72
     2
 73
     0
 90
        0
 40
-0.6
 41
-30.0
 62
     5
 63
     7
 74
     1
 91
        4
 64
     7
 65
   257
 75
     1
175
     1
 42
1.0
 92
        0
 66
   257
 43
1.0
 76
     1
 77
     6
 78
     2
 67
     7
 79
     5
170
     0
171
     0
290
     0
174
     0
 93
        1
 44
0.0
173
     0
291
     0
 45
0.0
1001
ACAD
1000
AcDbSavedByObjectVersion
1070
     0
  0
VISUALSTYLE
  5
32
102
{ACAD_REACTORS
330
2A
102
}
102
{ACAD_XDICTIONARY
360
184
102
}
330
2A
100
AcDbVisualStyle
  2
Basic
 70
     7
 71
     1
 72
     0
 73
     1
 90
        0
 40
-0.6
 41
-30.0
 62
     5
 63
     7
 74
     0
 91
        4
 64
     7
 65
   257
 75
     1
175
     1
 42
1.0
 92
        8
 66
     7
 43
1.0
 76
     1
 77
     6
 78
     2
 67
     7
 79
     5
170
     0
171
     0
290
     0
174
     0
 93
        1
 44
0.0
173
     0
291
     1
 45
0.0
1001
ACAD
1000
AcDbSavedByObjectVersion
1070
     0
  0
VISUALSTYLE
  5
36
102
{ACAD_REACTORS
330
2A
102
}
102
{ACAD_XDICTIONARY
360
18C
102
}
330
2A
100
AcDbVisualStyle
  2
Brighten
 70
    12
 71
     2
 72
     2
 73
     0
 90
        0
 40
-0.6
 41
-30.0
 62
     5
 63
     7
 74
     1
 91
        4
 64
     7
 65
   257
 75
     1
175
     1
 42
1.0
 92
        8
 66
     7
 43
1.0
 76
     1
 77
     6
 78
     2
 67
     7
 79
     5
170
     0
171
     0
290
     0
174
     0
 93
        1
 44
50.0
173
     0
291
     1
 45
0.0
1001
ACAD
1000
AcDbSavedByObjectVersion
1070
     0
  0
VISUALSTYLE
  5
3A
102
{ACAD_REACTORS
330
2A
102
}
102
{ACAD_XDICTIONARY
360
194
102
}
330
2A
100
AcDbVisualStyle
  2
ColorChange
 70
    16
 71
     2
 72
     2
 73
     3
 90
        0
 40
-0.6
 41
-30.0
 62
     5
 63
     8
 74
     1
 91
        4
 64
     7
 65
   257
 75
     1
175
     1
 42
1.0
 92
        8
 66
     8
 43
1.0
 76
     1
 77
     6
 78
     2
 67
     7
 79
     5
170
     0
171
     0
290
     0
174
     0
 93
        1
 44
0.0
173
     0
291
     1
 45
0.0
1001
ACAD
1000
AcDbSavedByObjectVersion
1070
     0
  0
VISUALSTYLE
  5
34
102
{ACAD_REACTORS
330
2A
102
}
102
{ACAD_XDICTIONARY
360
188
102
}
330
2A
100
AcDbVisualStyle
  2
Conceptual
 70
     9
 71
     3
 72
     2
 73
     0
 90
        0
 40
-0.6
 41
-30.0
 62
     5
 63
     7
 74
     2
 91
        2
 64
     7
 65
   257
 75
     1
175
     1
 42
40.0
 92
        8
 66
     7
 43
1.0
 76
     1
 77
     6
 78
     2
 67
     7
 79
     3
170
     0
171
     0
290
     0
174
     0
 93
        1
 44
0.0
173
     0
291
     0
 45
0.0
1001
ACAD
1000
AcDbSavedByObjectVersion
1070
     0
  0
VISUALSTYLE
  5
35
102
{ACAD_REACTORS
330
2A
102
}
102
{ACAD_XDICTIONARY
360
18A
102
}
330
2A
100
AcDbVisualStyle
  2
Dim
 70
    11
 71
     2
 72
     2
 73
     0
 90
        0
 40
-0.6
 41
-30.0
 62
     5
 63
     7
 74
     1
 91
        4
 64
     7
 65
   257
 75
     1
175
     1
 42
1.0
 92
        8
 66
     7
 43
1.0
 76
     1
 77
     6
 78
     2
 67
     7
 79
     5
170
     0
171
     0
290
     0
174
     0
 93
        1
 44
-50.0
173
     0
291
     1
 45
0.0
1001
ACAD
1000
AcDbSavedByObjectVersion
1070
     0
  0
VISUALSTYLE
  5
39
102
{ACAD_REACTORS
330
2A
102
}
102
{ACAD_XDICTIONARY
360
192
102
}
330
2A
100
AcDbVisualStyle
  2
Facepattern
 70
    15
 71
     2
 72
     2
 73
     0
 90
        0
 40
-0.6
 41
-30.0
 62
     5
 63
     7
 74
     1
 91
        4
 64
     7
 65
   257
 75
     1
175
     1
 42
1.0
 92
        8
 66
     7
 43
1.0
 76
     1
 77
     6
 78
     2
 67
     7
 79
     5
170
     0
171
     0
290
     0
174
     0
 93
        1
 44
0.0
173
     0
291
     1
 45
0.0
1001
ACAD
1000
AcDbSavedByObjectVersion
1070
     0
  0
VISUALSTYLE
  5
2B
102
{ACAD_REACTORS
330
2A
102
}
102
{ACAD_XDICTIONARY
360
176
102
}
330
2A
100
AcDbVisualStyle
  2
Flat
 70
     0
 71
     2
 72
     1
 73
     1
 90
        2
 40
-0.6
 41
30.0
 62
     5
 63
     7
 74
     0
 91
        4
 64
     7
 65
   257
 75
     1
175
     1
 42
1.0
 92
        8
 66
     7
 43
1.0
 76
     1
 77
     6
 78
     2
 67
     7
 79
     5
170
     0
171
     0
290
     0
174
     0
 93
       13
 44
0.0
173
     0
291
     1
 45
0.0
1001
ACAD
1000
AcDbSavedByObjectVersion
1070
     0
  0
VISUALSTYLE
  5
2C
102
{ACAD_REACTORS
330
2A
102
}
102
{ACAD_XDICTIONARY
360
178
102
}
330
2A
100
AcDbVisualStyle
  2
FlatWithEdges
 70
     1
 71
     2
 72
     1
 73
     1
 90
        2
 40
-0.6
 41
30.0
 62
     5
 63
     7
 74
     1
 91
        4
 64
     7
 65
   257
 75
     1
175
     1
 42
1.0
 92
        0
 66
   257
 43
1.0
 76
     1
 77
     6
 78
     2
 67
     7
 79
     5
170
     0
171
     0
290
     0
174
     0
 93
       13
 44
0.0
173
     0
291
     1
 45
0.0
1001
ACAD
1000
AcDbSavedByObjectVersion
1070
     0
  0
VISUALSTYLE
  5
2D
102
{ACAD_REACTORS
330
2A
102
}
102
{ACAD_XDICTIONARY
360
17A
102
}
330
2A
100
AcDbVisualStyle
  2
Gouraud
 70
     2
 71
     2
 72
     2
 73
     1
 90
        2
 40
-0.6
 41
30.0
 62
     5
 63
     7
 74
     0
 91
        4
 64
     7
 65
   257
 75
     1
175
     1
 42
1.0
 92
        0
 66
     7
 43
1.0
 76
     1
 77
     6
 78
     2
 67
     7
 79
     5
170
     0
171
     0
290
     0
174
     0
 93
       13
 44
0.0
173
     0
291
     1
 45
0.0
1001
ACAD
1000
AcDbSavedByObjectVersion
1070
     0
  0
VISUALSTYLE
  5
2E
102
{ACAD_REACTORS
330
2A
102
}
102
{ACAD_XDICTIONARY
360
17C
102
}
330
2A
100
AcDbVisualStyle
  2
GouraudWithEdges
 70
     3
 71
     2
 72
     2
 73
     1
 90
        2
 40
-0.6
 41
30.0
 62
     5
 63
     7
 74
     1
 91
        4
 64
     7
 65
   257
 75
     1
175
     1
 42
1.0
 92
        0
 66
   257
 43
1.0
 76
     1
 77
     6
 78
     2
 67
     7
 79
     5
170
     0
171
     0
290
     0
174
     0
 93
       13
 44
0.0
173
     0
291
     1
 45
0.0
1001
ACAD
1000
AcDbSavedByObjectVersion
1070
     0
  0
VISUALSTYLE
  5
38
102
{ACAD_REACTORS
330
2A
102
}
102
{ACAD_XDICTIONARY
360
190
102
}
330
2A
100
AcDbVisualStyle
  2
Linepattern
 70
    14
 71
     2
 72
     2
 73
     0
 90
        0
 40
-0.6
 41
-30.0
 62
     5
 63
     7
 74
     1
 91
        4
 64
     7
 65
   257
 75
     7
175
     7
 42
1.0
 92
        8
 66
     7
 43
1.0
 76
     1
 77
     6
 78
     2
 67
     7
 79
     5
170
     0
171
     0
290
     0
174
     0
 93
        1
 44
0.0
173
     0
291
     1
 45
0.0
1001
ACAD
1000
AcDbSavedByObjectVersion
1070
     0
  0
VISUALSTYLE
  5
33
102
{ACAD_REACTORS
330
2A
102
}
102
{ACAD_XDICTIONARY
360
186
102
}
330
2A
100
AcDbVisualStyle
  2
Realistic
 70
     8
 71
     2
 72
     2
 73
     0
 90
        0
 40
-0.6
 41
-30.0
 62
     5
 63
     7
 74
     1
 91
        0
 64
     7
 65
   257
 75
     1
175
     1
 42
1.0
 92
        8
 66
     8
 43
1.0
 76
     1
 77
     6
 78
     2
 67
     7
 79
     5
170
     0
171
     0
290
     0
174
     0
 93
       13
 44
0.0
173
     0
291
     0
 45
0.0
1001
ACAD
1000
AcDbSavedByObjectVersion
1070
     0
  0
VISUALSTYLE
  5
37
102
{ACAD_REACTORS
330
2A
102
}
102
{ACAD_XDICTIONARY
360
18E
102
}
330
2A
100
AcDbVisualStyle
  2
Thicken
 70
    13
 71
     2
 72
     2
 73
     0
 90
        0
 40
-0.6
 41
-30.0
 62
     5
 63
     7
 74
     1
 91
        4
 64
     7
 65
   257
 75
     1
175
     1
 42
1.0
 92
       12
 66
     7
 43
1.0
 76
     1
 77
     6
 78
     2
 67
     7
 79
     5
170
     0
171
     0
290
     0
174
     0
 93
        1
 44
0.0
173
     0
291
     1
 45
0.0
1001
ACAD
1000
AcDbSavedByObjectVersion
1070
     0
  0
DICTIONARYVAR
  5
174
102
{ACAD_REACTORS
330
171
102
}
330
171
100
DictionaryVariables
280
     0
  1
2
  0
DICTIONARYVAR
  5
175
102
{ACAD_REACTORS
330
171
102
}
330
171
100
DictionaryVariables
280
     0
  1
1
  0
DICTIONARY
  5
198
330
3D
100
AcDbDictionary
280
     1
281
     1
  3
ACAD_XREC_ROUNDTRIP
360
199
  0
DICTIONARY
  5
196
330
3C
100
AcDbDictionary
280
     1
281
     1
  3
ACAD_XREC_ROUNDTRIP
360
197
  0
DICTIONARY
  5
19A
330
3E
100
AcDbDictionary
280
     1
281
     1
  3
ACAD_XREC_ROUNDTRIP
360
19B
  0
DICTIONARY
  5
17E
330
2F
100
AcDbDictionary
280
     1
281
     1
  3
ACAD_XREC_ROUNDTRIP
360
17F
  0
DICTIONARY
  5
182
330
31
100
AcDbDictionary
280
     1
281
     1
  3
ACAD_XREC_ROUNDTRIP
360
183
  0
DICTIONARY
  5
180
330
30
100
AcDbDictionary
280
     1
281
     1
  3
ACAD_XREC_ROUNDTRIP
360
181
  0
DICTIONARY
  5
184
330
32
100
AcDbDictionary
280
     1
281
     1
  3
ACAD_XREC_ROUNDTRIP
360
185
  0
DICTIONARY
  5
18C
330
36
100
AcDbDictionary
280
     1
281
     1
  3
ACAD_XREC_ROUNDTRIP
360
18D
  0
DICTIONARY
  5
194
330
3A
100
AcDbDictionary
280
     1
281
     1
  3
ACAD_XREC_ROUNDTRIP
360
195
  0
DICTIONARY
  5
188
330
34
100
AcDbDictionary
280
     1
281
     1
  3
ACAD_XREC_ROUNDTRIP
360
189
  0
DICTIONARY
  5
18A
330
35
100
AcDbDictionary
280
     1
281
     1
  3
ACAD_XREC_ROUNDTRIP
360
18B
  0
DICTIONARY
  5
192
330
39
100
AcDbDictionary
280
     1
281
     1
  3
ACAD_XREC_ROUNDTRIP
360
193
  0
DICTIONARY
  5
176
330
2B
100
AcDbDictionary
280
     1
281
     1
  3
ACAD_XREC_ROUNDTRIP
360
177
  0
DICTIONARY
  5
178
330
2C
100
AcDbDictionary
280
     1
281
     1
  3
ACAD_XREC_ROUNDTRIP
360
179
  0
DICTIONARY
  5
17A
330
2D
100
AcDbDictionary
280
     1
281
     1
  3
ACAD_XREC_ROUNDTRIP
360
17B
  0
DICTIONARY
  5
17C
330
2E
100
AcDbDictionary
280
     1
281
     1
  3
ACAD_XREC_ROUNDTRIP
360
17D
  0
DICTIONARY
  5
190
330
38
100
AcDbDictionary
280
     1
281
     1
  3
ACAD_XREC_ROUNDTRIP
360
191
  0
DICTIONARY
  5
186
330
33
100
AcDbDictionary
280
     1
281
     1
  3
ACAD_XREC_ROUNDTRIP
360
187
  0
DICTIONARY
  5
18E
330
37
100
AcDbDictionary
280
     1
281
     1
  3
ACAD_XREC_ROUNDTRIP
360
18F
  0
XRECORD
  5
199
102
{ACAD_REACTORS
330
198
102
}
330
198
100
AcDbXrecord
280
     1
102
MATERIAL
148
0.0
149
0.0
149
0.0
 93
        0
 94
      127
282
     0
 72
     1
 77
     1
171
     1
175
     1
179
     1
273
     0
  0
XRECORD
  5
197
102
{ACAD_REACTORS
330
196
102
}
330
196
100
AcDbXrecord
280
     1
102
MATERIAL
148
0.0
149
0.0
149
0.0
 93
        0
 94
      127
282
     0
 72
     1
 77
     1
171
     1
175
     1
179
     1
273
     0
  0
XRECORD
  5
19B
102
{ACAD_REACTORS
330
19A
102
}
330
19A
100
AcDbXrecord
280
     1
102
MATERIAL
148
0.0
149
0.0
149
0.0
 93
        0
 94
      127
282
     0
 72
     1
 77
     1
171
     1
175
     1
179
     1
273
     0
  0
XRECORD
  5
17F
102
{ACAD_REACTORS
330
17E
102
}
330
17E
100
AcDbXrecord
280
     1
102
RTVSPropertyOp0
 70
     1
102
RTVSPropertyOp1
 70
     1
102
RTVSPropertyOp2
 70
     1
102
RTVSPropertyOp3
 70
     1
102
RTVSPropertyOp4
 70
     1
102
RTVSPropertyOp5
 70
     1
102
RTVSPropertyOp6
 70
     1
102
RTVSPropertyOp7
 70
     1
102
RTVSPropertyOp8
 70
     1
102
RTVSPropertyOp9
 70
     1
102
RTVSPropertyOp10
 70
     1
102
RTVSPropertyOp11
 70
     1
102
RTVSPropertyOp12
 70
     1
102
RTVSPropertyOp13
 70
     1
102
RTVSPropertyOp14
 70
     1
102
RTVSPropertyOp15
 70
     1
102
RTVSPropertyOp16
 70
     1
102
RTVSPropertyOp17
 70
     1
102
RTVSPropertyOp18
 70
     1
102
RTVSPropertyOp19
 70
     1
102
RTVSPropertyOp20
 70
     1
102
RTVSPropertyOp21
 70
     1
102
RTVSPropertyOp22
 70
     1
102
RTVSPropertyOp23
 70
     1
102
RTVSPropertyOp24
 70
     1
102
RTVSPropertyOp25
 70
     1
102
RTVSPropertyOp26
 70
     1
102
RTVSPropertyOp27
 70
     1
102
RTVSPropertyOp28
 70
     1
102
RTVSPropertyOp29
 70
     1
102
RTVSPropertyOp30
 70
     1
102
RTVSPropertyOp31
 70
     1
102
RTVSPropertyOp32
 70
     1
  0
XRECORD
  5
183
102
{ACAD_REACTORS
330
182
102
}
330
182
100
AcDbXrecord
280
     1
102
RTVSPropertyOp0
 70
     1
102
RTVSPropertyOp1
 70
     1
102
RTVSPropertyOp2
 70
     1
102
RTVSPropertyOp3
 70
     1
102
RTVSPropertyOp4
 70
     1
102
RTVSPropertyOp5
 70
     1
102
RTVSPropertyOp6
 70
     1
102
RTVSPropertyOp7
 70
     1
102
RTVSPropertyOp8
 70
     1
102
RTVSPropertyOp9
 70
     1
102
RTVSPropertyOp10
 70
     1
102
RTVSPropertyOp11
 70
     1
102
RTVSPropertyOp12
 70
     1
102
RTVSPropertyOp13
 70
     1
102
RTVSPropertyOp14
 70
     1
102
RTVSPropertyOp15
 70
     1
102
RTVSPropertyOp16
 70
     1
102
RTVSPropertyOp17
 70
     1
102
RTVSPropertyOp18
 70
     1
102
RTVSPropertyOp19
 70
     1
102
RTVSPropertyOp20
 70
     1
102
RTVSPropertyOp21
 70
     1
102
RTVSPropertyOp22
 70
     1
102
RTVSPropertyOp23
 70
     1
102
RTVSPropertyOp24
 70
     1
102
RTVSPropertyOp25
 70
     1
102
RTVSPropertyOp26
 70
     1
102
RTVSPropertyOp27
 70
     1
102
RTVSPropertyOp28
 70
     1
102
RTVSPropertyOp29
 70
     1
102
RTVSPropertyOp30
 70
     1
102
RTVSPropertyOp31
 70
     1
102
RTVSPropertyOp32
 70
     1
  0
XRECORD
  5
181
102
{ACAD_REACTORS
330
180
102
}
330
180
100
AcDbXrecord
280
     1
102
RTVSPropertyOp0
 70
     1
102
RTVSPropertyOp1
 70
     1
102
RTVSPropertyOp2
 70
     1
102
RTVSPropertyOp3
 70
     1
102
RTVSPropertyOp4
 70
     1
102
RTVSPropertyOp5
 70
     1
102
RTVSPropertyOp6
 70
     1
102
RTVSPropertyOp7
 70
     1
102
RTVSPropertyOp8
 70
     1
102
RTVSPropertyOp9
 70
     1
102
RTVSPropertyOp10
 70
     1
102
RTVSPropertyOp11
 70
     1
102
RTVSPropertyOp12
 70
     1
102
RTVSPropertyOp13
 70
     1
102
RTVSPropertyOp14
 70
     1
102
RTVSPropertyOp15
 70
     1
102
RTVSPropertyOp16
 70
     1
102
RTVSPropertyOp17
 70
     1
102
RTVSPropertyOp18
 70
     1
102
RTVSPropertyOp19
 70
     1
102
RTVSPropertyOp20
 70
     1
102
RTVSPropertyOp21
 70
     1
102
RTVSPropertyOp22
 70
     1
102
RTVSPropertyOp23
 70
     1
102
RTVSPropertyOp24
 70
     1
102
RTVSPropertyOp25
 70
     1
102
RTVSPropertyOp26
 70
     1
102
RTVSPropertyOp27
 70
     1
102
RTVSPropertyOp28
 70
     1
102
RTVSPropertyOp29
 70
     1
102
RTVSPropertyOp30
 70
     1
102
RTVSPropertyOp31
 70
     1
102
RTVSPropertyOp32
 70
     1
  0
XRECORD
  5
185
102
{ACAD_REACTORS
330
184
102
}
330
184
100
AcDbXrecord
280
     1
102
RTVSPropertyOp0
 70
     1
102
RTVSPropertyOp1
 70
     1
102
RTVSPropertyOp2
 70
     1
102
RTVSPropertyOp3
 70
     1
102
RTVSPropertyOp4
 70
     1
102
RTVSPropertyOp5
 70
     1
102
RTVSPropertyOp6
 70
     1
102
RTVSPropertyOp7
 70
     1
102
RTVSPropertyOp8
 70
     1
102
RTVSPropertyOp9
 70
     1
102
RTVSPropertyOp10
 70
     1
102
RTVSPropertyOp11
 70
     1
102
RTVSPropertyOp12
 70
     1
102
RTVSPropertyOp13
 70
     1
102
RTVSPropertyOp14
 70
     1
102
RTVSPropertyOp15
 70
     1
102
RTVSPropertyOp16
 70
     1
102
RTVSPropertyOp17
 70
     1
102
RTVSPropertyOp18
 70
     1
102
RTVSPropertyOp19
 70
     1
102
RTVSPropertyOp20
 70
     1
102
RTVSPropertyOp21
 70
     1
102
RTVSPropertyOp22
 70
     1
102
RTVSPropertyOp23
 70
     1
102
RTVSPropertyOp24
 70
     1
102
RTVSPropertyOp25
 70
     1
102
RTVSPropertyOp26
 70
     1
102
RTVSPropertyOp27
 70
     1
102
RTVSPropertyOp28
 70
     1
102
RTVSPropertyOp29
 70
     1
102
RTVSPropertyOp30
 70
     1
102
RTVSPropertyOp31
 70
     1
102
RTVSPropertyOp32
 70
     1
  0
XRECORD
  5
18D
102
{ACAD_REACTORS
330
18C
102
}
330
18C
100
AcDbXrecord
280
     1
102
RTVSPropertyOp0
 70
     1
102
RTVSPropertyOp1
 70
     1
102
RTVSPropertyOp2
 70
     1
102
RTVSPropertyOp3
 70
     1
102
RTVSPropertyOp4
 70
     1
102
RTVSPropertyOp5
 70
     1
102
RTVSPropertyOp6
 70
     1
102
RTVSPropertyOp7
 70
     1
102
RTVSPropertyOp8
 70
     1
102
RTVSPropertyOp9
 70
     1
102
RTVSPropertyOp10
 70
     1
102
RTVSPropertyOp11
 70
     1
102
RTVSPropertyOp12
 70
     1
102
RTVSPropertyOp13
 70
     1
102
RTVSPropertyOp14
 70
     1
102
RTVSPropertyOp15
 70
     1
102
RTVSPropertyOp16
 70
     1
102
RTVSPropertyOp17
 70
     1
102
RTVSPropertyOp18
 70
     1
102
RTVSPropertyOp19
 70
     1
102
RTVSPropertyOp20
 70
     1
102
RTVSPropertyOp21
 70
     1
102
RTVSPropertyOp22
 70
     1
102
RTVSPropertyOp23
 70
     1
102
RTVSPropertyOp24
 70
     1
102
RTVSPropertyOp25
 70
     1
102
RTVSPropertyOp26
 70
     1
102
RTVSPropertyOp27
 70
     1
102
RTVSPropertyOp28
 70
     1
102
RTVSPropertyOp29
 70
     1
102
RTVSPropertyOp30
 70
     1
102
RTVSPropertyOp31
 70
     1
102
RTVSPropertyOp32
 70
     1
  0
XRECORD
  5
195
102
{ACAD_REACTORS
330
194
102
}
330
194
100
AcDbXrecord
280
     1
102
RTVSPropertyOp0
 70
     1
102
RTVSPropertyOp1
 70
     1
102
RTVSPropertyOp2
 70
     1
102
RTVSPropertyOp3
 70
     1
102
RTVSPropertyOp4
 70
     1
102
RTVSPropertyOp5
 70
     1
102
RTVSPropertyOp6
 70
     1
102
RTVSPropertyOp7
 70
     1
102
RTVSPropertyOp8
 70
     1
102
RTVSPropertyOp9
 70
     1
102
RTVSPropertyOp10
 70
     1
102
RTVSPropertyOp11
 70
     1
102
RTVSPropertyOp12
 70
     1
102
RTVSPropertyOp13
 70
     1
102
RTVSPropertyOp14
 70
     1
102
RTVSPropertyOp15
 70
     1
102
RTVSPropertyOp16
 70
     1
102
RTVSPropertyOp17
 70
     1
102
RTVSPropertyOp18
 70
     1
102
RTVSPropertyOp19
 70
     1
102
RTVSPropertyOp20
 70
     1
102
RTVSPropertyOp21
 70
     1
102
RTVSPropertyOp22
 70
     1
102
RTVSPropertyOp23
 70
     1
102
RTVSPropertyOp24
 70
     1
102
RTVSPropertyOp25
 70
     1
102
RTVSPropertyOp26
 70
     1
102
RTVSPropertyOp27
 70
     1
102
RTVSPropertyOp28
 70
     1
102
RTVSPropertyOp29
 70
     1
102
RTVSPropertyOp30
 70
     1
102
RTVSPropertyOp31
 70
     1
102
RTVSPropertyOp32
 70
     1
  0
XRECORD
  5
189
102
{ACAD_REACTORS
330
188
102
}
330
188
100
AcDbXrecord
280
     1
102
RTVSPropertyOp0
 70
     1
102
RTVSPropertyOp1
 70
     1
102
RTVSPropertyOp2
 70
     1
102
RTVSPropertyOp3
 70
     1
102
RTVSPropertyOp4
 70
     1
102
RTVSPropertyOp5
 70
     1
102
RTVSPropertyOp6
 70
     1
102
RTVSPropertyOp7
 70
     1
102
RTVSPropertyOp8
 70
     1
102
RTVSPropertyOp9
 70
     1
102
RTVSPropertyOp10
 70
     1
102
RTVSPropertyOp11
 70
     1
102
RTVSPropertyOp12
 70
     1
102
RTVSPropertyOp13
 70
     1
102
RTVSPropertyOp14
 70
     1
102
RTVSPropertyOp15
 70
     1
102
RTVSPropertyOp16
 70
     1
102
RTVSPropertyOp17
 70
     1
102
RTVSPropertyOp18
 70
     1
102
RTVSPropertyOp19
 70
     1
102
RTVSPropertyOp20
 70
     1
102
RTVSPropertyOp21
 70
     1
102
RTVSPropertyOp22
 70
     1
102
RTVSPropertyOp23
 70
     1
102
RTVSPropertyOp24
 70
     1
102
RTVSPropertyOp25
 70
     1
102
RTVSPropertyOp26
 70
     1
102
RTVSPropertyOp27
 70
     1
102
RTVSPropertyOp28
 70
     1
102
RTVSPropertyOp29
 70
     1
102
RTVSPropertyOp30
 70
     1
102
RTVSPropertyOp31
 70
     1
102
RTVSPropertyOp32
 70
     1
  0
XRECORD
  5
18B
102
{ACAD_REACTORS
330
18A
102
}
330
18A
100
AcDbXrecord
280
     1
102
RTVSPropertyOp0
 70
     1
102
RTVSPropertyOp1
 70
     1
102
RTVSPropertyOp2
 70
     1
102
RTVSPropertyOp3
 70
     1
102
RTVSPropertyOp4
 70
     1
102
RTVSPropertyOp5
 70
     1
102
RTVSPropertyOp6
 70
     1
102
RTVSPropertyOp7
 70
     1
102
RTVSPropertyOp8
 70
     1
102
RTVSPropertyOp9
 70
     1
102
RTVSPropertyOp10
 70
     1
102
RTVSPropertyOp11
 70
     1
102
RTVSPropertyOp12
 70
     1
102
RTVSPropertyOp13
 70
     1
102
RTVSPropertyOp14
 70
     1
102
RTVSPropertyOp15
 70
     1
102
RTVSPropertyOp16
 70
     1
102
RTVSPropertyOp17
 70
     1
102
RTVSPropertyOp18
 70
     1
102
RTVSPropertyOp19
 70
     1
102
RTVSPropertyOp20
 70
     1
102
RTVSPropertyOp21
 70
     1
102
RTVSPropertyOp22
 70
     1
102
RTVSPropertyOp23
 70
     1
102
RTVSPropertyOp24
 70
     1
102
RTVSPropertyOp25
 70
     1
102
RTVSPropertyOp26
 70
     1
102
RTVSPropertyOp27
 70
     1
102
RTVSPropertyOp28
 70
     1
102
RTVSPropertyOp29
 70
     1
102
RTVSPropertyOp30
 70
     1
102
RTVSPropertyOp31
 70
     1
102
RTVSPropertyOp32
 70
     1
  0
XRECORD
  5
193
102
{ACAD_REACTORS
330
192
102
}
330
192
100
AcDbXrecord
280
     1
102
RTVSPropertyOp0
 70
     1
102
RTVSPropertyOp1
 70
     1
102
RTVSPropertyOp2
 70
     1
102
RTVSPropertyOp3
 70
     1
102
RTVSPropertyOp4
 70
     1
102
RTVSPropertyOp5
 70
     1
102
RTVSPropertyOp6
 70
     1
102
RTVSPropertyOp7
 70
     1
102
RTVSPropertyOp8
 70
     1
102
RTVSPropertyOp9
 70
     1
102
RTVSPropertyOp10
 70
     1
102
RTVSPropertyOp11
 70
     1
102
RTVSPropertyOp12
 70
     1
102
RTVSPropertyOp13
 70
     1
102
RTVSPropertyOp14
 70
     1
102
RTVSPropertyOp15
 70
     1
102
RTVSPropertyOp16
 70
     1
102
RTVSPropertyOp17
 70
     1
102
RTVSPropertyOp18
 70
     1
102
RTVSPropertyOp19
 70
     1
102
RTVSPropertyOp20
 70
     1
102
RTVSPropertyOp21
 70
     1
102
RTVSPropertyOp22
 70
     1
102
RTVSPropertyOp23
 70
     1
102
RTVSPropertyOp24
 70
     1
102
RTVSPropertyOp25
 70
     1
102
RTVSPropertyOp26
 70
     1
102
RTVSPropertyOp27
 70
     1
102
RTVSPropertyOp28
 70
     1
102
RTVSPropertyOp29
 70
     1
102
RTVSPropertyOp30
 70
     1
102
RTVSPropertyOp31
 70
     1
102
RTVSPropertyOp32
 70
     1
  0
XRECORD
  5
177
102
{ACAD_REACTORS
330
176
102
}
330
176
100
AcDbXrecord
280
     1
102
RTVSPropertyOp0
 70
     1
102
RTVSPropertyOp1
 70
     1
102
RTVSPropertyOp2
 70
     1
102
RTVSPropertyOp3
 70
     1
102
RTVSPropertyOp4
 70
     1
102
RTVSPropertyOp5
 70
     1
102
RTVSPropertyOp6
 70
     1
102
RTVSPropertyOp7
 70
     1
102
RTVSPropertyOp8
 70
     1
102
RTVSPropertyOp9
 70
     1
102
RTVSPropertyOp10
 70
     1
102
RTVSPropertyOp11
 70
     1
102
RTVSPropertyOp12
 70
     1
102
RTVSPropertyOp13
 70
     1
102
RTVSPropertyOp14
 70
     1
102
RTVSPropertyOp15
 70
     1
102
RTVSPropertyOp16
 70
     1
102
RTVSPropertyOp17
 70
     1
102
RTVSPropertyOp18
 70
     1
102
RTVSPropertyOp19
 70
     1
102
RTVSPropertyOp20
 70
     1
102
RTVSPropertyOp21
 70
     1
102
RTVSPropertyOp22
 70
     1
102
RTVSPropertyOp23
 70
     1
102
RTVSPropertyOp24
 70
     1
102
RTVSPropertyOp25
 70
     1
102
RTVSPropertyOp26
 70
     1
102
RTVSPropertyOp27
 70
     1
102
RTVSPropertyOp28
 70
     1
102
RTVSPropertyOp29
 70
     1
102
RTVSPropertyOp30
 70
     1
102
RTVSPropertyOp31
 70
     1
102
RTVSPropertyOp32
 70
     1
  0
XRECORD
  5
179
102
{ACAD_REACTORS
330
178
102
}
330
178
100
AcDbXrecord
280
     1
102
RTVSPropertyOp0
 70
     1
102
RTVSPropertyOp1
 70
     1
102
RTVSPropertyOp2
 70
     1
102
RTVSPropertyOp3
 70
     1
102
RTVSPropertyOp4
 70
     1
102
RTVSPropertyOp5
 70
     1
102
RTVSPropertyOp6
 70
     1
102
RTVSPropertyOp7
 70
     1
102
RTVSPropertyOp8
 70
     1
102
RTVSPropertyOp9
 70
     1
102
RTVSPropertyOp10
 70
     1
102
RTVSPropertyOp11
 70
     1
102
RTVSPropertyOp12
 70
     1
102
RTVSPropertyOp13
 70
     1
102
RTVSPropertyOp14
 70
     1
102
RTVSPropertyOp15
 70
     1
102
RTVSPropertyOp16
 70
     1
102
RTVSPropertyOp17
 70
     1
102
RTVSPropertyOp18
 70
     1
102
RTVSPropertyOp19
 70
     1
102
RTVSPropertyOp20
 70
     1
102
RTVSPropertyOp21
 70
     1
102
RTVSPropertyOp22
 70
     1
102
RTVSPropertyOp23
 70
     1
102
RTVSPropertyOp24
 70
     1
102
RTVSPropertyOp25
 70
     1
102
RTVSPropertyOp26
 70
     1
102
RTVSPropertyOp27
 70
     1
102
RTVSPropertyOp28
 70
     1
102
RTVSPropertyOp29
 70
     1
102
RTVSPropertyOp30
 70
     1
102
RTVSPropertyOp31
 70
     1
102
RTVSPropertyOp32
 70
     1
  0
XRECORD
  5
17B
102
{ACAD_REACTORS
330
17A
102
}
330
17A
100
AcDbXrecord
280
     1
102
RTVSPropertyOp0
 70
     1
102
RTVSPropertyOp1
 70
     1
102
RTVSPropertyOp2
 70
     1
102
RTVSPropertyOp3
 70
     1
102
RTVSPropertyOp4
 70
     1
102
RTVSPropertyOp5
 70
     1
102
RTVSPropertyOp6
 70
     1
102
RTVSPropertyOp7
 70
     1
102
RTVSPropertyOp8
 70
     1
102
RTVSPropertyOp9
 70
     1
102
RTVSPropertyOp10
 70
     1
102
RTVSPropertyOp11
 70
     1
102
RTVSPropertyOp12
 70
     1
102
RTVSPropertyOp13
 70
     1
102
RTVSPropertyOp14
 70
     1
102
RTVSPropertyOp15
 70
     1
102
RTVSPropertyOp16
 70
     1
102
RTVSPropertyOp17
 70
     1
102
RTVSPropertyOp18
 70
     1
102
RTVSPropertyOp19
 70
     1
102
RTVSPropertyOp20
 70
     1
102
RTVSPropertyOp21
 70
     1
102
RTVSPropertyOp22
 70
     1
102
RTVSPropertyOp23
 70
     1
102
RTVSPropertyOp24
 70
     1
102
RTVSPropertyOp25
 70
     1
102
RTVSPropertyOp26
 70
     1
102
RTVSPropertyOp27
 70
     1
102
RTVSPropertyOp28
 70
     1
102
RTVSPropertyOp29
 70
     1
102
RTVSPropertyOp30
 70
     1
102
RTVSPropertyOp31
 70
     1
102
RTVSPropertyOp32
 70
     1
  0
XRECORD
  5
17D
102
{ACAD_REACTORS
330
17C
102
}
330
17C
100
AcDbXrecord
280
     1
102
RTVSPropertyOp0
 70
     1
102
RTVSPropertyOp1
 70
     1
102
RTVSPropertyOp2
 70
     1
102
RTVSPropertyOp3
 70
     1
102
RTVSPropertyOp4
 70
     1
102
RTVSPropertyOp5
 70
     1
102
RTVSPropertyOp6
 70
     1
102
RTVSPropertyOp7
 70
     1
102
RTVSPropertyOp8
 70
     1
102
RTVSPropertyOp9
 70
     1
102
RTVSPropertyOp10
 70
     1
102
RTVSPropertyOp11
 70
     1
102
RTVSPropertyOp12
 70
     1
102
RTVSPropertyOp13
 70
     1
102
RTVSPropertyOp14
 70
     1
102
RTVSPropertyOp15
 70
     1
102
RTVSPropertyOp16
 70
     1
102
RTVSPropertyOp17
 70
     1
102
RTVSPropertyOp18
 70
     1
102
RTVSPropertyOp19
 70
     1
102
RTVSPropertyOp20
 70
     1
102
RTVSPropertyOp21
 70
     1
102
RTVSPropertyOp22
 70
     1
102
RTVSPropertyOp23
 70
     1
102
RTVSPropertyOp24
 70
     1
102
RTVSPropertyOp25
 70
     1
102
RTVSPropertyOp26
 70
     1
102
RTVSPropertyOp27
 70
     1
102
RTVSPropertyOp28
 70
     1
102
RTVSPropertyOp29
 70
     1
102
RTVSPropertyOp30
 70
     1
102
RTVSPropertyOp31
 70
     1
102
RTVSPropertyOp32
 70
     1
  0
XRECORD
  5
191
102
{ACAD_REACTORS
330
190
102
}
330
190
100
AcDbXrecord
280
     1
102
RTVSPropertyOp0
 70
     1
102
RTVSPropertyOp1
 70
     1
102
RTVSPropertyOp2
 70
     1
102
RTVSPropertyOp3
 70
     1
102
RTVSPropertyOp4
 70
     1
102
RTVSPropertyOp5
 70
     1
102
RTVSPropertyOp6
 70
     1
102
RTVSPropertyOp7
 70
     1
102
RTVSPropertyOp8
 70
     1
102
RTVSPropertyOp9
 70
     1
102
RTVSPropertyOp10
 70
     1
102
RTVSPropertyOp11
 70
     1
102
RTVSPropertyOp12
 70
     1
102
RTVSPropertyOp13
 70
     1
102
RTVSPropertyOp14
 70
     1
102
RTVSPropertyOp15
 70
     1
102
RTVSPropertyOp16
 70
     1
102
RTVSPropertyOp17
 70
     1
102
RTVSPropertyOp18
 70
     1
102
RTVSPropertyOp19
 70
     1
102
RTVSPropertyOp20
 70
     1
102
RTVSPropertyOp21
 70
     1
102
RTVSPropertyOp22
 70
     1
102
RTVSPropertyOp23
 70
     1
102
RTVSPropertyOp24
 70
     1
102
RTVSPropertyOp25
 70
     1
102
RTVSPropertyOp26
 70
     1
102
RTVSPropertyOp27
 70
     1
102
RTVSPropertyOp28
 70
     1
102
RTVSPropertyOp29
 70
     1
102
RTVSPropertyOp30
 70
     1
102
RTVSPropertyOp31
 70
     1
102
RTVSPropertyOp32
 70
     1
  0
XRECORD
  5
187
102
{ACAD_REACTORS
330
186
102
}
330
186
100
AcDbXrecord
280
     1
102
RTVSPropertyOp0
 70
     1
102
RTVSPropertyOp1
 70
     1
102
RTVSPropertyOp2
 70
     1
102
RTVSPropertyOp3
 70
     1
102
RTVSPropertyOp4
 70
     1
102
RTVSPropertyOp5
 70
     1
102
RTVSPropertyOp6
 70
     1
102
RTVSPropertyOp7
 70
     1
102
RTVSPropertyOp8
 70
     1
102
RTVSPropertyOp9
 70
     1
102
RTVSPropertyOp10
 70
     1
102
RTVSPropertyOp11
 70
     1
102
RTVSPropertyOp12
 70
     1
102
RTVSPropertyOp13
 70
     1
102
RTVSPropertyOp14
 70
     1
102
RTVSPropertyOp15
 70
     1
102
RTVSPropertyOp16
 70
     1
102
RTVSPropertyOp17
 70
     1
102
RTVSPropertyOp18
 70
     1
102
RTVSPropertyOp19
 70
     1
102
RTVSPropertyOp20
 70
     1
102
RTVSPropertyOp21
 70
     1
102
RTVSPropertyOp22
 70
     1
102
RTVSPropertyOp23
 70
     1
102
RTVSPropertyOp24
 70
     1
102
RTVSPropertyOp25
 70
     1
102
RTVSPropertyOp26
 70
     1
102
RTVSPropertyOp27
 70
     1
102
RTVSPropertyOp28
 70
     1
102
RTVSPropertyOp29
 70
     1
102
RTVSPropertyOp30
 70
     1
102
RTVSPropertyOp31
 70
     1
102
RTVSPropertyOp32
 70
     1
  0
XRECORD
  5
18F
102
{ACAD_REACTORS
330
18E
102
}
330
18E
100
AcDbXrecord
280
     1
102
RTVSPropertyOp0
 70
     1
102
RTVSPropertyOp1
 70
     1
102
RTVSPropertyOp2
 70
     1
102
RTVSPropertyOp3
 70
     1
102
RTVSPropertyOp4
 70
     1
102
RTVSPropertyOp5
 70
     1
102
RTVSPropertyOp6
 70
     1
102
RTVSPropertyOp7
 70
     1
102
RTVSPropertyOp8
 70
     1
102
RTVSPropertyOp9
 70
     1
102
RTVSPropertyOp10
 70
     1
102
RTVSPropertyOp11
 70
     1
102
RTVSPropertyOp12
 70
     1
102
RTVSPropertyOp13
 70
     1
102
RTVSPropertyOp14
 70
     1
102
RTVSPropertyOp15
 70
     1
102
RTVSPropertyOp16
 70
     1
102
RTVSPropertyOp17
 70
     1
102
RTVSPropertyOp18
 70
     1
102
RTVSPropertyOp19
 70
     1
102
RTVSPropertyOp20
 70
     1
102
RTVSPropertyOp21
 70
     1
102
RTVSPropertyOp22
 70
     1
102
RTVSPropertyOp23
 70
     1
102
RTVSPropertyOp24
 70
     1
102
RTVSPropertyOp25
 70
     1
102
RTVSPropertyOp26
 70
     1
102
RTVSPropertyOp27
 70
     1
102
RTVSPropertyOp28
 70
     1
102
RTVSPropertyOp29
 70
     1
102
RTVSPropertyOp30
 70
     1
102
RTVSPropertyOp31
 70
     1
102
RTVSPropertyOp32
 70
     1
  0
ENDSEC
  0
EOF
