  0
SECTION
  2
HEADER
  9
$ACADVER
  1
AC1015
  9
$ACADMAINTVER
 70
     6
  9
$DWGCODEPAGE
  3
ANSI_932
  9
$INSBASE
 10
0.0
 20
0.0
 30
0.0
  9
$EXTMIN
 10
0.0
 20
0.0
 30
0.0
  9
$EXTMAX
 10
210.0
 20
297.0
 30
0.0
  9
$LIMMIN
 10
0.0
 20
0.0
  9
$LIMMAX
 10
12.0
 20
9.0
  9
$ORTHOMODE
 70
     0
  9
$REGENMODE
 70
     1
  9
$FILLMODE
 70
     1
  9
$QTEXTMODE
 70
     0
  9
$MIRRTEXT
 70
     1
  9
$LTSCALE
 40
1.0
  9
$ATTMODE
 70
     1
  9
$TEXTSIZE
 40
0.2
  9
$TRACEWID
 40
0.05
  9
$TEXTSTYLE
  7
Standard
  9
$CLAYER
  8
0
  9
$CELTYPE
  6
ByLayer
  9
$CECOLOR
 62
   256
  9
$CELTSCALE
 40
1.0
  9
$DISPSILH
 70
     0
  9
$DIMSCALE
 40
1.0
  9
$DIMASZ
 40
0.18
  9
$DIMEXO
 40
0.0625
  9
$DIMDLI
 40
0.38
  9
$DIMRND
 40
0.0
  9
$DIMDLE
 40
0.0
  9
$DIMEXE
 40
0.18
  9
$DIMTP
 40
0.0
  9
$DIMTM
 40
0.0
  9
$DIMTXT
 40
0.18
  9
$DIMCEN
 40
0.09
  9
$DIMTSZ
 40
0.0
  9
$DIMTOL
 70
     0
  9
$DIMLIM
 70
     0
  9
$DIMTIH
 70
     1
  9
$DIMTOH
 70
     1
  9
$DIMSE1
 70
     0
  9
$DIMSE2
 70
     0
  9
$DIMTAD
 70
     0
  9
$DIMZIN
 70
     0
  9
$DIMBLK
  1

  9
$DIMASO
 70
     1
  9
$DIMSHO
 70
     1
  9
$DIMPOST
  1

  9
$DIMAPOST
  1

  9
$DIMALT
 70
     0
  9
$DIMALTD
 70
     2
  9
$DIMALTF
 40
25.4
  9
$DIMLFAC
 40
1.0
  9
$DIMTOFL
 70
     0
  9
$DIMTVP
 40
0.0
  9
$DIMTIX
 70
     0
  9
$DIMSOXD
 70
     0
  9
$DIMSAH
 70
     0
  9
$DIMBLK1
  1

  9
$DIMBLK2
  1

  9
$DIMSTYLE
  2
Standard
  9
$DIMCLRD
 70
     0
  9
$DIMCLRE
 70
     0
  9
$DIMCLRT
 70
     0
  9
$DIMTFAC
 40
1.0
  9
$DIMGAP
 40
0.09
  9
$DIMJUST
 70
     0
  9
$DIMSD1
 70
     0
  9
$DIMSD2
 70
     0
  9
$DIMTOLJ
 70
     1
  9
$DIMTZIN
 70
     0
  9
$DIMALTZ
 70
     0
  9
$DIMALTTZ
 70
     0
  9
$DIMUPT
 70
     0
  9
$DIMDEC
 70
     4
  9
$DIMTDEC
 70
     4
  9
$DIMALTU
 70
     2
  9
$DIMALTTD
 70
     2
  9
$DIMTXSTY
  7
Standard
  9
$DIMAUNIT
 70
     0
  9
$DIMADEC
 70
     0
  9
$DIMALTRND
 40
0.0
  9
$DIMAZIN
 70
     0
  9
$DIMDSEP
 70
    46
  9
$DIMATFIT
 70
     3
  9
$DIMFRAC
 70
     0
  9
$DIMLDRBLK
  1

  9
$DIMLUNIT
 70
     2
  9
$DIMLWD
 70
    -2
  9
$DIMLWE
 70
    -2
  9
$DIMTMOVE
 70
     0
  9
$LUNITS
 70
     2
  9
$LUPREC
 70
     4
  9
$SKETCHINC
 40
0.1
  9
$FILLETRAD
 40
0.5
  9
$AUNITS
 70
     0
  9
$AUPREC
 70
     0
  9
$MENU
  1
.
  9
$ELEVATION
 40
0.0
  9
$PELEVATION
 40
0.0
  9
$THICKNESS
 40
0.0
  9
$LIMCHECK
 70
     0
  9
$CHAMFERA
 40
0.5
  9
$CHAMFERB
 40
0.5
  9
$CHAMFERC
 40
1.0
  9
$CHAMFERD
 40
0.0
  9
$SKPOLY
 70
     0
  9
$TDCREATE
 40
2460376.593596597
  9
$TDUCREATE
 40
2460376.218596597
  9
$TDUPDATE
 40
2460376.59359787
  9
$TDUUPDATE
 40
2460376.21859787
  9
$TDINDWG
 40
0.0000000116
  9
$TDUSRTIMER
 40
0.0000000116
  9
$USRTIMER
 70
     1
  9
$ANGBASE
 50
0.0
  9
$ANGDIR
 70
     0
  9
$PDMODE
 70
     0
  9
$PDSIZE
 40
0.0
  9
$PLINEWID
 40
0.0
  9
$SPLFRAME
 70
     0
  9
$SPLINETYPE
 70
     6
  9
$SPLINESEGS
 70
     8
  9
$HANDSEED
  5
177
  9
$SURFTAB1
 70
     6
  9
$SURFTAB2
 70
     6
  9
$SURFTYPE
 70
     6
  9
$SURFU
 70
     6
  9
$SURFV
 70
     6
  9
$UCSBASE
  2

  9
$UCSNAME
  2

  9
$UCSORG
 10
0.0
 20
0.0
 30
0.0
  9
$UCSXDIR
 10
1.0
 20
0.0
 30
0.0
  9
$UCSYDIR
 10
0.0
 20
1.0
 30
0.0
  9
$UCSORTHOREF
  2

  9
$UCSORTHOVIEW
 70
     0
  9
$UCSORGTOP
 10
0.0
 20
0.0
 30
0.0
  9
$UCSORGBOTTOM
 10
0.0
 20
0.0
 30
0.0
  9
$UCSORGLEFT
 10
0.0
 20
0.0
 30
0.0
  9
$UCSORGRIGHT
 10
0.0
 20
0.0
 30
0.0
  9
$UCSORGFRONT
 10
0.0
 20
0.0
 30
0.0
  9
$UCSORGBACK
 10
0.0
 20
0.0
 30
0.0
  9
$PUCSBASE
  2

  9
$PUCSNAME
  2

  9
$PUCSORG
 10
0.0
 20
0.0
 30
0.0
  9
$PUCSXDIR
 10
1.0
 20
0.0
 30
0.0
  9
$PUCSYDIR
 10
0.0
 20
1.0
 30
0.0
  9
$PUCSORTHOREF
  2

  9
$PUCSORTHOVIEW
 70
     0
  9
$PUCSORGTOP
 10
0.0
 20
0.0
 30
0.0
  9
$PUCSORGBOTTOM
 10
0.0
 20
0.0
 30
0.0
  9
$PUCSORGLEFT
 10
0.0
 20
0.0
 30
0.0
  9
$PUCSORGRIGHT
 10
0.0
 20
0.0
 30
0.0
  9
$PUCSORGFRONT
 10
0.0
 20
0.0
 30
0.0
  9
$PUCSORGBACK
 10
0.0
 20
0.0
 30
0.0
  9
$USERI1
 70
     0
  9
$USERI2
 70
     0
  9
$USERI3
 70
     0
  9
$USERI4
 70
     0
  9
$USERI5
 70
     0
  9
$USERR1
 40
18.1
  9
$USERR2
 40
0.0
  9
$USERR3
 40
0.0
  9
$USERR4
 40
0.0
  9
$USERR5
 40
0.0
  9
$WORLDVIEW
 70
     1
  9
$SHADEDGE
 70
     3
  9
$SHADEDIF
 70
    70
  9
$TILEMODE
 70
     1
  9
$MAXACTVP
 70
    64
  9
$PINSBASE
 10
0.0
 20
0.0
 30
0.0
  9
$PLIMCHECK
 70
     0
  9
$PEXTMIN
 10
1.00000000000000E+20
 20
1.00000000000000E+20
 30
1.00000000000000E+20
  9
$PEXTMAX
 10
-1.00000000000000E+20
 20
-1.00000000000000E+20
 30
-1.00000000000000E+20
  9
$PLIMMIN
 10
0.0
 20
0.0
  9
$PLIMMAX
 10
12.0
 20
9.0
  9
$UNITMODE
 70
     0
  9
$VISRETAIN
 70
     1
  9
$PLINEGEN
 70
     0
  9
$PSLTSCALE
 70
     1
  9
$TREEDEPTH
 70
  3020
  9
$CMLSTYLE
  2
Standard
  9
$CMLJUST
 70
     0
  9
$CMLSCALE
 40
1.0
  9
$PROXYGRAPHICS
 70
     1
  9
$MEASUREMENT
 70
     1
  9
$CELWEIGHT
370
    -1
  9
$ENDCAPS
280
     0
  9
$JOINSTYLE
280
     0
  9
$LWDISPLAY
290
     0
  9
$INSUNITS
 70
     4
  9
$HYPERLINKBASE
  1

  9
$STYLESHEET
  1

  9
$XEDIT
290
     1
  9
$CEPSNTYPE
380
     0
  9
$PSTYLEMODE
290
     1
  9
$FINGERPRINTGUID
  2
{134EFF18-8C0D-4CAA-A8E1-00FC12FE733C}
  9
$VERSIONGUID
  2
{FAEB1C32-E019-11D5-929B-00C0DF256EC4}
  9
$EXTNAMES
290
     1
  9
$PSVPSCALE
 40
0.0
  9
$OLESTARTUP
290
     0
  0
ENDSEC
  0
SECTION
  2
CLASSES
  0
CLASS
  1
ACDBDICTIONARYWDFLT
  2
AcDbDictionaryWithDefault
  3
ObjectDBX Classes
 90
        0
280
     0
281
     0
  0
CLASS
  1
VISUALSTYLE
  2
AcDbVisualStyle
  3
ObjectDBX Classes
 90
     4095
280
     0
281
     0
  0
CLASS
  1
MATERIAL
  2
AcDbMaterial
  3
ObjectDBX Classes
 90
     1153
280
     0
281
     0
  0
CLASS
  1
DICTIONARYVAR
  2
AcDbDictionaryVar
  3
ObjectDBX Classes
 90
        0
280
     0
281
     0
  0
CLASS
  1
ACDBPLACEHOLDER
  2
AcDbPlaceHolder
  3
ObjectDBX Classes
 90
        0
280
     0
281
     0
  0
CLASS
  1
LAYOUT
  2
AcDbLayout
  3
ObjectDBX Classes
 90
        0
280
     0
281
     0
  0
ENDSEC
  0
SECTION
  2
TABLES
  0
TABLE
  2
VPORT
  5
8
330
0
100
AcDbSymbolTable
 70
     1
  0
VPORT
  5
29
330
8
100
AcDbSymbolTableRecord
100
AcDbViewportTableRecord
  2
*Active
 70
     0
 10
0.0
 20
0.0
 11
1.0
 21
1.0
 12
105.0
 22
148.5
 13
0.0
 23
0.0
 14
0.5
 24
0.5
 15
0.5
 25
0.5
 16
0.0
 26
0.0
 36
1.0
 17
0.0
 27
0.0
 37
0.0
 40
326.7
 41
1.60267857142857
 42
50.0
 43
0.0
 44
0.0
 50
0.0
 51
0.0
 71
     0
 72
   100
 73
     1
 74
     3
 75
     0
 76
     0
 77
     0
 78
     0
281
     0
 65
     1
110
0.0
120
0.0
130
0.0
111
1.0
121
0.0
131
0.0
112
0.0
122
1.0
132
0.0
 79
     0
146
0.0
  0
ENDTAB
  0
TABLE
  2
LTYPE
  5
5
330
0
100
AcDbSymbolTable
 70
     8
  0
LTYPE
  5
14
330
5
100
AcDbSymbolTableRecord
100
AcDbLinetypeTableRecord
  2
ByBlock
 70
     0
  3

 72
    65
 73
     0
 40
0.0
  0
LTYPE
  5
15
330
5
100
AcDbSymbolTableRecord
100
AcDbLinetypeTableRecord
  2
ByLayer
 70
     0
  3

 72
    65
 73
     0
 40
0.0
  0
LTYPE
  5
16
330
5
100
AcDbSymbolTableRecord
100
AcDbLinetypeTableRecord
  2
Continuous
 70
     0
  3
Solid line
 72
    65
 73
     0
 40
0.0
  0
LTYPE
  5
3F
330
5
100
AcDbSymbolTableRecord
100
AcDbLinetypeTableRecord
  2
DASHED
 70
     0
  3
Dashed
 72
    65
 73
     2
 40
15.0
 49
7.0
 74
     0
 49
-8.0
 74
     0
  0
LTYPE
  5
40
330
5
100
AcDbSymbolTableRecord
100
AcDbLinetypeTableRecord
  2
DOTTED
 70
     0
  3
Dotted
 72
    65
 73
     2
 40
1.0
 49
0.0
 74
     0
 49
-1.0
 74
     0
  0
LTYPE
  5
41
330
5
100
AcDbSymbolTableRecord
100
AcDbLinetypeTableRecord
  2
DOT_CENTER
 70
     0
  3
Dot_Center
 72
    65
 73
     4
 40
14.0
 49
12.0
 74
     0
 49
-1.0
 74
     0
 49
0.0
 74
     0
 49
-1.0
 74
     0
  0
LTYPE
  5
42
330
5
100
AcDbSymbolTableRecord
100
AcDbLinetypeTableRecord
  2
LONG_DASHED
 70
     0
  3
Long_Dashed
 72
    65
 73
     2
 40
15.0
 49
10.0
 74
     0
 49
-5.0
 74
     0
  0
LTYPE
  5
43
330
5
100
AcDbSymbolTableRecord
100
AcDbLinetypeTableRecord
  2
DASH_CENTER
 70
     0
  3
Dash_Center
 72
    65
 73
     4
 40
14.0
 49
11.0
 74
     0
 49
-1.0
 74
     0
 49
1.0
 74
     0
 49
-1.0
 74
     0
  0
LTYPE
  5
44
330
5
100
AcDbSymbolTableRecord
100
AcDbLinetypeTableRecord
  2
PHANTOM
 70
     0
  3
Phantom
 72
    65
 73
     6
 40
13.0
 49
10.0
 74
     0
 49
-1.0
 74
     0
 49
0.0
 74
     0
 49
-1.0
 74
     0
 49
0.0
 74
     0
 49
-1.0
 74
     0
  0
LTYPE
  5
45
330
5
100
AcDbSymbolTableRecord
100
AcDbLinetypeTableRecord
  2
CENTER_DASH_DASH
 70
     0
  3
Center_Dash_Dash
 72
    65
 73
     6
 40
14.0
 49
9.0
 74
     0
 49
-1.0
 74
     0
 49
1.0
 74
     0
 49
-1.0
 74
     0
 49
1.0
 74
     0
 49
-1.0
 74
     0
  0
ENDTAB
  0
TABLE
  2
LAYER
  5
2
330
0
100
AcDbSymbolTable
 70
     3
  0
LAYER
  5
10
330
2
100
AcDbSymbolTableRecord
100
AcDbLayerTableRecord
  2
0
 70
     0
 62
     7
  6
Continuous
370
    -3
390
F
  0
LAYER
  5
46
330
2
100
AcDbSymbolTableRecord
100
AcDbLayerTableRecord
  2
1
 70
     0
 62
     7
  6
Continuous
370
    -3
390
F
  0
LAYER
  5
47
330
2
100
AcDbSymbolTableRecord
100
AcDbLayerTableRecord
  2
_U_30EC_U_30A4_U_30E4_U_30FC_1
 70
     0
 62
     7
  6
Continuous
370
    -3
390
F
  0
ENDTAB
  0
TABLE
  2
STYLE
  5
3
330
0
100
AcDbSymbolTable
 70
     3
  0
STYLE
  5
11
330
3
100
AcDbSymbolTableRecord
100
AcDbTextStyleTableRecord
  2
Standard
 70
     0
 40
0.0
 41
1.0
 50
0.0
 71
     0
 42
0.2
  3
txt
  4

  0
STYLE
  5
B6
330
3
100
AcDbSymbolTableRecord
100
AcDbTextStyleTableRecord
  2
CONVERTER_11
 70
     0
 40
0.0
 41
0.89
 50
0.0
 71
     0
 42
0.2
  3
MS Mincho.ttf
  4

1001
ACAD
1000
MS Mincho
1071
    32785
  0
STYLE
  5
111
330
3
100
AcDbSymbolTableRecord
100
AcDbTextStyleTableRecord
  2
CONVERTER_12
 70
     0
 40
0.0
 41
0.9
 50
0.0
 71
     0
 42
0.2
  3
txt.shx
  4

  0
ENDTAB
  0
TABLE
  2
VIEW
  5
6
330
0
100
AcDbSymbolTable
 70
     0
  0
ENDTAB
  0
TABLE
  2
UCS
  5
7
330
0
100
AcDbSymbolTable
 70
     0
  0
ENDTAB
  0
TABLE
  2
APPID
  5
9
330
0
100
AcDbSymbolTable
 70
     1
  0
APPID
  5
12
330
9
100
AcDbSymbolTableRecord
100
AcDbRegAppTableRecord
  2
ACAD
 70
     0
  0
ENDTAB
  0
TABLE
  2
DIMSTYLE
  5
A
330
0
100
AcDbSymbolTable
 70
     5
100
AcDbDimStyleTable
  0
DIMSTYLE
105
27
330
A
100
AcDbSymbolTableRecord
100
AcDbDimStyleTableRecord
  2
Standard
 70
     0
178
     0
340
11
  0
DIMSTYLE
105
129
102
{ACAD_REACTORS
330
12A
102
}
330
A
100
AcDbSymbolTableRecord
100
AcDbDimStyleTableRecord
  2
ME10_DIM_10
 70
     0
 41
3.5
 42
0.0
 44
1.0
 73
     0
 74
     0
 77
     1
 78
     8
140
3.5
147
1.0
172
     1
173
     1
174
     1
175
     1
176
     2
177
     2
271
     2
178
     7
271
     2
340
111
  0
DIMSTYLE
105
134
102
{ACAD_REACTORS
330
135
102
}
330
A
100
AcDbSymbolTableRecord
100
AcDbDimStyleTableRecord
  2
ME10_DIM_11
 70
     0
 41
3.5
 42
0.0
 44
1.0
 73
     0
 74
     0
 77
     1
 78
     8
140
3.5
147
1.0
172
     1
173
     1
174
     1
175
     1
176
     2
177
     2
271
     2
178
     7
271
     2
340
111
  0
DIMSTYLE
105
13F
102
{ACAD_REACTORS
330
140
102
}
330
A
100
AcDbSymbolTableRecord
100
AcDbDimStyleTableRecord
  2
ME10_DIM_12
 70
     0
 41
3.5
 42
0.0
 44
1.0
 73
     0
 74
     0
 77
     1
 78
     8
140
3.5
147
1.0
172
     1
173
     1
174
     1
175
     1
176
     2
177
     2
271
     2
178
     7
271
     2
340
111
  0
DIMSTYLE
105
14A
102
{ACAD_REACTORS
330
14B
102
}
330
A
100
AcDbSymbolTableRecord
100
AcDbDimStyleTableRecord
  2
ME10_DIM_13
 70
     0
  3
{\Fgdt;n}<>
 41
3.5
 42
0.0
 44
1.0
 73
     0
 74
     0
 77
     1
 78
     8
140
3.5
147
1.0
172
     1
173
     1
174
     1
175
     1
176
     2
177
     2
271
     2
178
     7
271
     2
340
111
  0
ENDTAB
  0
TABLE
  2
BLOCK_RECORD
  5
1
330
0
100
AcDbSymbolTable
 70
     8
  0
BLOCK_RECORD
  5
1F
330
1
100
AcDbSymbolTableRecord
100
AcDbBlockTableRecord
  2
*Model_Space
340
22
  0
BLOCK_RECORD
  5
1B
330
1
100
AcDbSymbolTableRecord
100
AcDbBlockTableRecord
  2
*Paper_Space
340
1E
  0
BLOCK_RECORD
  5
23
330
1
100
AcDbSymbolTableRecord
100
AcDbBlockTableRecord
  2
*Paper_Space0
340
26
  0
BLOCK_RECORD
  5
48
330
1
100
AcDbSymbolTableRecord
100
AcDbBlockTableRecord
  2
開示A4
340
0
102
{BLKREFS
331
4C
102
}
  0
BLOCK_RECORD
  5
4B
330
1
100
AcDbSymbolTableRecord
100
AcDbBlockTableRecord
  2
開示A4枠
340
0
102
{BLKREFS
331
52
102
}
  0
BLOCK_RECORD
  5
4F
330
1
100
AcDbSymbolTableRecord
100
AcDbBlockTableRecord
  2
35-21
340
0
102
{BLKREFS
331
53
102
}
  0
BLOCK_RECORD
  5
120
330
1
100
AcDbSymbolTableRecord
100
AcDbBlockTableRecord
  2
*D4
340
0
  0
BLOCK_RECORD
  5
12B
330
1
100
AcDbSymbolTableRecord
100
AcDbBlockTableRecord
  2
*D5
340
0
  0
BLOCK_RECORD
  5
136
330
1
100
AcDbSymbolTableRecord
100
AcDbBlockTableRecord
  2
*D6
340
0
  0
BLOCK_RECORD
  5
141
330
1
100
AcDbSymbolTableRecord
100
AcDbBlockTableRecord
  2
*D7
340
0
  0
ENDTAB
  0
ENDSEC
  0
SECTION
  2
BLOCKS
  0
BLOCK
  5
20
330
1F
100
AcDbEntity
  8
0
100
AcDbBlockBegin
  2
*Model_Space
 70
     0
 10
0.0
 20
0.0
 30
0.0
  3
*Model_Space
  1

  0
ENDBLK
  5
21
330
1F
100
AcDbEntity
  8
0
100
AcDbBlockEnd
  0
BLOCK
  5
1C
330
1B
100
AcDbEntity
 67
     1
  8
0
100
AcDbBlockBegin
  2
*Paper_Space
 70
     0
 10
0.0
 20
0.0
 30
0.0
  3
*Paper_Space
  1

  0
ENDBLK
  5
1D
330
1B
100
AcDbEntity
 67
     1
  8
0
100
AcDbBlockEnd
  0
BLOCK
  5
24
330
23
100
AcDbEntity
  8
0
100
AcDbBlockBegin
  2
*Paper_Space0
 70
     0
 10
0.0
 20
0.0
 30
0.0
  3
*Paper_Space0
  1

  0
ENDBLK
  5
25
330
23
100
AcDbEntity
  8
0
100
AcDbBlockEnd
  0
BLOCK
  5
49
330
48
100
AcDbEntity
  8
0
100
AcDbBlockBegin
  2
開示A4
 70
     0
 10
0.0
 20
0.0
 30
0.0
  3
開示A4
  1

  0
POINT
  5
54
330
48
100
AcDbEntity
  8
1
 62
     4
100
AcDbPoint
 10
183.0
 20
15.00000000000001
 30
0.0
  0
POINT
  5
55
330
48
100
AcDbEntity
  8
1
 62
     4
100
AcDbPoint
 10
93.75000000000003
 20
17.0
 30
0.0
  0
POINT
  5
56
330
48
100
AcDbEntity
  8
1
 62
     4
100
AcDbPoint
 10
85.25000000000003
 20
17.0
 30
0.0
  0
POINT
  5
57
330
48
100
AcDbEntity
  8
1
 62
     4
100
AcDbPoint
 10
106.5
 20
19.00000000000001
 30
0.0
  0
POINT
  5
58
330
48
100
AcDbEntity
  8
1
 62
     4
100
AcDbPoint
 10
106.5
 20
12.5
 30
0.0
  0
POINT
  5
59
330
48
100
AcDbEntity
  8
1
 62
     4
100
AcDbPoint
 10
112.25
 20
12.5
 30
0.0
  0
POINT
  5
5A
330
48
100
AcDbEntity
  8
1
 62
     4
100
AcDbPoint
 10
100.75
 20
12.5
 30
0.0
  0
POINT
  5
5B
330
48
100
AcDbEntity
  8
1
 62
     4
100
AcDbPoint
 10
123.5
 20
19.00000000000001
 30
0.0
  0
POINT
  5
5C
330
48
100
AcDbEntity
  8
1
 62
     4
100
AcDbPoint
 10
123.5
 20
12.5
 30
0.0
  0
POINT
  5
5D
330
48
100
AcDbEntity
  8
1
 62
     4
100
AcDbPoint
 10
129.25
 20
12.5
 30
0.0
  0
POINT
  5
5E
330
48
100
AcDbEntity
  8
1
 62
     4
100
AcDbPoint
 10
117.75
 20
12.5
 30
0.0
  0
POINT
  5
5F
330
48
100
AcDbEntity
  8
1
 62
     4
100
AcDbPoint
 10
140.5
 20
19.00000000000001
 30
0.0
  0
POINT
  5
60
330
48
100
AcDbEntity
  8
1
 62
     4
100
AcDbPoint
 10
140.5
 20
12.5
 30
0.0
  0
POINT
  5
61
330
48
100
AcDbEntity
  8
1
 62
     4
100
AcDbPoint
 10
146.25
 20
12.5
 30
0.0
  0
POINT
  5
62
330
48
100
AcDbEntity
  8
1
 62
     4
100
AcDbPoint
 10
134.75
 20
12.5
 30
0.0
  0
POINT
  5
63
330
48
100
AcDbEntity
  8
1
 62
     4
100
AcDbPoint
 10
151.75
 20
12.5
 30
0.0
  0
POINT
  5
64
330
48
100
AcDbEntity
  8
1
 62
     4
100
AcDbPoint
 10
163.25
 20
12.5
 30
0.0
  0
POINT
  5
65
330
48
100
AcDbEntity
  8
1
 62
     4
100
AcDbPoint
 10
157.5
 20
12.5
 30
0.0
  0
POINT
  5
66
330
48
100
AcDbEntity
  8
1
 62
     4
100
AcDbPoint
 10
57.0
 20
14.25
 30
0.0
  0
POINT
  5
67
330
48
100
AcDbEntity
  8
1
 62
     4
100
AcDbPoint
 10
57.0
 20
22.75000000000001
 30
0.0
  0
POINT
  5
68
330
48
100
AcDbEntity
  8
1
 62
     4
100
AcDbPoint
 10
47.50000000000001
 20
282.0000000000003
 30
0.0
  0
POINT
  5
69
330
48
100
AcDbEntity
  8
1
 62
     4
100
AcDbPoint
 10
157.5
 20
19.00000000000001
 30
0.0
  0
POINT
  5
6A
330
48
100
AcDbEntity
  8
1
 62
     4
100
AcDbPoint
 10
57.0
 20
16.25
 30
0.0
  0
POINT
  5
6B
330
48
100
AcDbEntity
  8
1
 62
     4
100
AcDbPoint
 10
57.0
 20
24.75000000000001
 30
0.0
  0
POINT
  5
6C
330
48
100
AcDbEntity
  8
1
 62
     4
100
AcDbPoint
 10
57.0
 20
20.75000000000001
 30
0.0
  0
POINT
  5
6D
330
48
100
AcDbEntity
  8
1
 62
     4
100
AcDbPoint
 10
57.0
 20
12.25
 30
0.0
  0
POINT
  5
6E
330
48
100
AcDbEntity
  8
1
 62
     4
100
AcDbPoint
 10
34.00000000000001
 20
34.00000000000001
 30
0.0
  0
LINE
  5
73
330
48
100
AcDbEntity
  8
1
  6
Continuous
 62
     7
100
AcDbLine
 10
105.0
 20
10.0
 30
0.0
 11
200.0
 21
10.0
 31
0.0
  0
LINE
  5
74
330
48
100
AcDbEntity
  8
1
  6
Continuous
 62
     2
100
AcDbLine
 10
105.0
 20
10.0
 30
0.0
 11
105.0
 21
5.0
 31
0.0
  0
LINE
  5
75
330
48
100
AcDbEntity
  8
1
  6
Continuous
 62
     7
100
AcDbLine
 10
200.0
 20
148.5
 30
0.0
 11
200.0
 21
287.0000000000003
 31
0.0
  0
LINE
  5
76
330
48
100
AcDbEntity
  8
1
  6
Continuous
 62
     2
100
AcDbLine
 10
200.0
 20
148.5
 30
0.0
 11
205.0
 21
148.5
 31
0.0
  0
LINE
  5
77
330
48
100
AcDbEntity
  8
1
  6
Continuous
 62
     7
100
AcDbLine
 10
25.0
 20
148.5
 30
0.0
 11
25.0
 21
287.0000000000003
 31
0.0
  0
LINE
  5
78
330
48
100
AcDbEntity
  8
1
  6
Continuous
 62
     2
100
AcDbLine
 10
25.0
 20
148.5
 30
0.0
 11
20.0
 21
148.5
 31
0.0
  0
LINE
  5
79
330
48
100
AcDbEntity
  8
1
  6
Continuous
 62
     7
100
AcDbLine
 10
105.0
 20
287.0000000000003
 30
0.0
 11
25.0
 21
287.0000000000003
 31
0.0
  0
LINE
  5
7A
330
48
100
AcDbEntity
  8
1
  6
Continuous
 62
     2
100
AcDbLine
 10
105.0
 20
287.0000000000003
 30
0.0
 11
105.0
 21
292.0000000000003
 31
0.0
  0
LINE
  5
7B
330
48
100
AcDbEntity
  8
1
  6
Continuous
 62
     2
100
AcDbLine
 10
166.0
 20
20.00000000000001
 30
0.0
 11
200.0
 21
20.00000000000001
 31
0.0
  0
LINE
  5
7C
330
48
100
AcDbEntity
  8
1
  6
Continuous
 62
     2
100
AcDbLine
 10
98.00000000000003
 20
27.00000000000001
 30
0.0
 11
98.00000000000003
 21
9.99999999999999
 31
0.0
  0
LINE
  5
7D
330
48
100
AcDbEntity
  8
1
  6
Continuous
 62
     2
100
AcDbLine
 10
115.0
 20
27.00000000000001
 30
0.0
 11
115.0
 21
9.99999999999999
 31
0.0
  0
LINE
  5
7E
330
48
100
AcDbEntity
  8
1
  6
Continuous
 62
     2
100
AcDbLine
 10
149.0
 20
27.00000000000001
 30
0.0
 11
149.0
 21
10.0
 31
0.0
  0
LINE
  5
7F
330
48
100
AcDbEntity
  8
1
  6
Continuous
 62
     2
100
AcDbLine
 10
132.0
 20
27.00000000000001
 30
0.0
 11
132.0
 21
9.99999999999999
 31
0.0
  0
LINE
  5
80
330
48
100
AcDbEntity
  8
1
  6
Continuous
 62
     2
100
AcDbLine
 10
166.0
 20
27.00000000000001
 30
0.0
 11
166.0
 21
10.0
 31
0.0
  0
LINE
  5
81
330
48
100
AcDbEntity
  8
1
  6
Continuous
 62
     2
100
AcDbLine
 10
55.0
 20
277.0000000000003
 30
0.0
 11
25.0
 21
277.0000000000003
 31
0.0
  0
LINE
  5
82
330
48
100
AcDbEntity
  8
1
  6
Continuous
 62
     7
100
AcDbLine
 10
25.0
 20
10.0
 30
0.0
 11
25.0
 21
148.5
 31
0.0
  0
LINE
  5
83
330
48
100
AcDbEntity
  8
1
  6
Continuous
 62
     2
100
AcDbLine
 10
40.00000000000001
 20
287.0000000000003
 30
0.0
 11
40.00000000000001
 21
277.0000000000003
 31
0.0
  0
LINE
  5
84
330
48
100
AcDbEntity
  8
1
  6
Continuous
 62
     2
100
AcDbLine
 10
55.0
 20
287.0000000000003
 30
0.0
 11
55.0
 21
277.0000000000003
 31
0.0
  0
LINE
  5
85
330
48
100
AcDbEntity
  8
1
  6
Continuous
 62
     2
100
AcDbLine
 10
33.00000000000001
 20
41.0
 30
0.0
 11
33.00000000000001
 21
27.0
 31
0.0
  0
LINE
  5
86
330
48
100
AcDbEntity
  8
1
  6
Continuous
 62
     7
100
AcDbLine
 10
200.0
 20
27.00000000000001
 30
0.0
 11
25.0
 21
27.00000000000001
 31
0.0
  0
LINE
  5
87
330
48
100
AcDbEntity
  8
1
  6
Continuous
 62
     7
100
AcDbLine
 10
25.0
 20
41.0
 30
0.0
 11
200.0
 21
41.0
 31
0.0
  0
LINE
  5
88
330
48
100
AcDbEntity
  8
1
  6
PHANTOM
 62
     4
100
AcDbLine
 10
0.0
 20
0.0
 30
0.0
 11
210.0
 21
0.0
 31
0.0
  0
LINE
  5
89
330
48
100
AcDbEntity
  8
1
  6
PHANTOM
 62
     4
100
AcDbLine
 10
210.0
 20
0.0
 30
0.0
 11
210.0
 21
297.0
 31
0.0
  0
LINE
  5
8A
330
48
100
AcDbEntity
  8
1
  6
PHANTOM
 62
     4
100
AcDbLine
 10
210.0
 20
297.0
 30
0.0
 11
0.0
 21
297.0
 31
0.0
  0
LINE
  5
8B
330
48
100
AcDbEntity
  8
1
  6
PHANTOM
 62
     4
100
AcDbLine
 10
0.0
 20
297.0
 30
0.0
 11
0.0
 21
0.0
 31
0.0
  0
LINE
  5
8C
330
48
100
AcDbEntity
  8
1
  6
Continuous
 62
     7
100
AcDbLine
 10
25.0
 20
10.0
 30
0.0
 11
105.0
 21
10.0
 31
0.0
  0
LINE
  5
8D
330
48
100
AcDbEntity
  8
1
  6
Continuous
 62
     7
100
AcDbLine
 10
200.0
 20
10.0
 30
0.0
 11
200.0
 21
148.5
 31
0.0
  0
LINE
  5
8E
330
48
100
AcDbEntity
  8
1
  6
Continuous
 62
     7
100
AcDbLine
 10
200.0
 20
287.0000000000003
 30
0.0
 11
105.0
 21
287.0000000000003
 31
0.0
  0
LINE
  5
8F
330
48
100
AcDbEntity
  8
1
  6
Continuous
 62
     2
100
AcDbLine
 10
25.0
 20
18.50000000000001
 30
0.0
 11
81.00000000000003
 21
18.50000000000001
 31
0.0
  0
LINE
  5
90
330
48
100
AcDbEntity
  8
1
  6
Continuous
 62
     2
100
AcDbLine
 10
33.00000000000001
 20
27.0
 30
0.0
 11
33.00000000000001
 21
10.0
 31
0.0
  0
LINE
  5
91
330
48
100
AcDbEntity
  8
1
  6
Continuous
 62
     7
100
AcDbLine
 10
191.0
 20
24.7
 30
0.0
 11
191.0
 21
22.30000000000001
 31
0.0
  0
LINE
  5
92
330
48
100
AcDbEntity
  8
1
  6
Continuous
 62
     7
100
AcDbLine
 10
191.0
 20
24.7
 30
0.0
 11
196.0
 21
25.50000000000001
 31
0.0
  0
LINE
  5
93
330
48
100
AcDbEntity
  8
1
  6
Continuous
 62
     7
100
AcDbLine
 10
196.0
 20
25.50000000000001
 30
0.0
 11
196.0
 21
21.50000000000001
 31
0.0
  0
LINE
  5
94
330
48
100
AcDbEntity
  8
1
  6
Continuous
 62
     7
100
AcDbLine
 10
196.0
 20
21.50000000000001
 30
0.0
 11
191.0
 21
22.30000000000001
 31
0.0
  0
LINE
  5
95
330
48
100
AcDbEntity
  8
1
  6
DOT_CENTER
 62
     2
100
AcDbLine
 10
184.0
 20
23.50000000000001
 30
0.0
 11
197.0
 21
23.50000000000001
 31
0.0
  0
LINE
  5
96
330
48
100
AcDbEntity
  8
1
  6
DOT_CENTER
 62
     2
100
AcDbLine
 10
187.0
 20
26.50000000000001
 30
0.0
 11
187.0
 21
20.50000000000001
 31
0.0
  0
LINE
  5
97
330
48
100
AcDbEntity
  8
1
  6
Continuous
 62
     2
100
AcDbLine
 10
81.00000000000003
 20
27.00000000000001
 30
0.0
 11
81.00000000000003
 21
10.0
 31
0.0
  0
CIRCLE
  5
98
330
48
100
AcDbEntity
  8
1
  6
Continuous
 62
     7
100
AcDbCircle
 10
103.5
 20
12.5
 30
0.0
 40
0.2999999999999972
  0
CIRCLE
  5
99
330
48
100
AcDbEntity
  8
1
  6
Continuous
 62
     7
100
AcDbCircle
 10
109.5
 20
12.5
 30
0.0
 40
0.2999999999999972
  0
CIRCLE
  5
9A
330
48
100
AcDbEntity
  8
1
  6
Continuous
 62
     7
100
AcDbCircle
 10
120.5
 20
12.5
 30
0.0
 40
0.2999999999999972
  0
CIRCLE
  5
9B
330
48
100
AcDbEntity
  8
1
  6
Continuous
 62
     7
100
AcDbCircle
 10
126.5
 20
12.5
 30
0.0
 40
0.2999999999999972
  0
CIRCLE
  5
9C
330
48
100
AcDbEntity
  8
1
  6
Continuous
 62
     7
100
AcDbCircle
 10
137.5
 20
12.5
 30
0.0
 40
0.3000000000000114
  0
CIRCLE
  5
9D
330
48
100
AcDbEntity
  8
1
  6
Continuous
 62
     7
100
AcDbCircle
 10
143.5
 20
12.5
 30
0.0
 40
0.3000000000000114
  0
CIRCLE
  5
9E
330
48
100
AcDbEntity
  8
1
  6
Continuous
 62
     7
100
AcDbCircle
 10
160.5
 20
12.5
 30
0.0
 40
0.3000000000000114
  0
CIRCLE
  5
9F
330
48
100
AcDbEntity
  8
1
  6
Continuous
 62
     7
100
AcDbCircle
 10
154.5
 20
12.5
 30
0.0
 40
0.3000000000000114
  0
CIRCLE
  5
A0
330
48
100
AcDbEntity
  8
1
  6
Continuous
 62
     7
100
AcDbCircle
 10
187.0
 20
23.50000000000001
 30
0.0
 40
1.200000000000102
  0
CIRCLE
  5
A1
330
48
100
AcDbEntity
  8
1
  6
Continuous
 62
     7
100
AcDbCircle
 10
187.0
 20
23.50000000000001
 30
0.0
 40
2.0
  0
CIRCLE
  5
A2
330
48
100
AcDbEntity
  8
1
  6
DOT_CENTER
 62
     7
100
AcDbCircle
 10
89.50000000000003
 20
16.0
 30
0.0
 40
0.1000000000000369
  0
CIRCLE
  5
A3
330
48
100
AcDbEntity
  8
1
  6
DOT_CENTER
 62
     7
100
AcDbCircle
 10
89.50000000000003
 20
18.0
 30
0.0
 40
0.1000000000000369
  0
SPLINE
  5
A4
102
{ACAD_REACTORS
330
C3
102
}
330
48
100
AcDbEntity
  8
_U_30EC_U_30A4_U_30E4_U_30FC_1
  6
Continuous
 62
     2
100
AcDbSpline
210
0.0
220
0.0
230
1.0
 70
     8
 71
     3
 72
    24
 73
    20
 74
    18
 42
0.000000001
 43
0.0000000001
 44
0.00000001
 40
0.0
 40
0.0
 40
0.0
 40
0.0
 40
0.221107500875377
 40
0.427321858624525
 40
0.508017467923926
 40
0.5914835907870175
 40
0.8143265690192611
 40
1.05465130268657
 40
1.29545269402316
 40
1.518109231328814
 40
1.540864321905457
 40
1.595126460622718
 40
1.65989094789606
 40
1.714153085187446
 40
1.736908174961746
 40
1.764951100735469
 40
1.801562291221086
 40
1.953914424543758
 40
2.126104167379843
 40
2.126104167379843
 40
2.126104167379843
 40
2.126104167379843
 10
185.9375369556889
 20
15.58989295113015
 30
0.0
 10
185.9112579081812
 20
15.53097628234373
 30
0.0
 10
185.8604698894426
 20
15.41711139679257
 30
0.0
 10
185.8131784839111
 20
15.14441958233115
 30
0.0
 10
185.7043482802617
 20
15.24445482575454
 30
0.0
 10
185.5514800279638
 20
15.27118593367332
 30
0.0
 10
185.7686155181198
 20
15.48518135017632
 30
0.0
 10
185.7838483674381
 20
15.70332117782486
 30
0.0
 10
185.8906889492
 20
15.88451579066427
 30
0.0
 10
185.8305380947078
 20
16.16913226311401
 30
0.0
 10
185.9334317395402
 20
16.14114089222451
 30
0.0
 10
185.977993346815
 20
16.13243251602299
 30
0.0
 10
186.0380842395397
 20
16.12139654183355
 30
0.0
 10
186.0756619587439
 20
16.1076752305556
 30
0.0
 10
186.1252466928607
 20
16.10756076160222
 30
0.0
 10
186.0930158919325
 20
16.07306592398623
 30
0.0
 10
186.0171802221882
 20
16.08404104537964
 30
0.0
 10
186.0429447159693
 20
15.8985896958245
 30
0.0
 10
186.0055896763849
 20
15.80702313549589
 30
0.0
 10
185.9857704961609
 20
15.75844135397705
 30
0.0
 11
185.9375369556889
 21
15.58989295113015
 31
0.0
 11
185.8616471328552
 21
15.38221708318559
 31
0.0
 11
185.7717402238433
 21
15.19663392356192
 31
0.0
 11
185.701149392311
 21
15.23573272563551
 31
0.0
 11
185.6245525192651
 21
15.2688916318772
 31
0.0
 11
185.7214026947455
 21
15.46958801203538
 31
0.0
 11
185.7994641467471
 21
15.69688163177024
 31
0.0
 11
185.858971692972
 21
15.93021436608691
 31
0.0
 11
185.9001601511226
 21
16.14902808999054
 31
0.0
 11
185.9224183822215
 21
16.14429889221395
 31
0.0
 11
185.975495702534
 21
16.13302157443899
 31
0.0
 11
186.0388460525845
 21
16.11956154999792
 31
0.0
 11
186.0919233728971
 21
16.10828423222296
 31
0.0
 11
186.1141816039959
 21
16.10355503444637
 31
0.0
 11
186.0964097157461
 21
16.0818625084101
 31
0.0
 11
186.0606122998071
 21
16.07418628445367
 31
0.0
 11
186.028195330148
 21
15.92532288171314
 31
0.0
 11
185.9857704961609
 21
15.75844135397705
 31
0.0
  0
SPLINE
  5
A5
102
{ACAD_REACTORS
330
C3
102
}
330
48
100
AcDbEntity
  8
_U_30EC_U_30A4_U_30E4_U_30FC_1
  6
Continuous
 62
     2
100
AcDbSpline
210
0.0
220
0.0
230
1.0
 70
     8
 71
     3
 72
    70
 73
    66
 74
    64
 42
0.000000001
 43
0.0000000001
 44
0.00000001
 40
0.0
 40
0.0
 40
0.0
 40
0.0
 40
0.0241731073021472
 40
0.0846058988987013
 40
0.1631685280353284
 40
0.2417311571789756
 40
0.3021639488292751
 40
0.3263370654895541
 40
0.3533118254248881
 40
0.4228783438922111
 40
0.5179999095313402
 40
0.6216398239466102
 40
0.7167613891499706
 40
0.7863279069649863
 40
0.8133026791761836
 40
0.8372943998771674
 40
0.8945054261372869
 40
0.9627895541962639
 40
1.020000580349074
 40
1.043992300975172
 40
1.071934345522902
 40
1.113121768772915
 40
1.14522519933224
 40
1.225483775412775
 40
1.329819923771483
 40
1.434156071994373
 40
1.514414647795794
 40
1.546518078208402
 40
1.578974764260176
 40
1.662678849314171
 40
1.777131373668391
 40
1.901833377474782
 40
2.016285900500572
 40
2.099989982527939
 40
2.132446666570297
 40
2.15878235448602
 40
2.21672086790781
 40
2.274659381334233
 40
2.300995069256167
 40
2.333451754066139
 40
2.41715583654382
 40
2.53160835898526
 40
2.656310362283755
 40
2.770762886388887
 40
2.854466971340052
 40
2.886923657363859
 40
2.913597976833293
 40
2.9823896428751
 40
3.076451716946965
 40
3.17893726045858
 40
3.272999334739985
 40
3.34179100105921
 40
3.368465320663523
 40
3.396976080738744
 40
3.47214081184598
 40
3.57840819030867
 40
3.700226892456106
 40
3.822045594634323
 40
3.92831297325643
 40
4.003477705314827
 40
4.031988456866893
 40
4.058324144797691
 40
4.116262658236852
 40
4.17420117140065
 40
4.200536849608584
 40
4.200536849608584
 40
4.200536849608584
 40
4.200536849608584
 10
185.9857704961609
 20
15.75844135397705
 30
0.0
 10
185.9938259544679
 20
15.75844359811686
 30
0.0
 10
186.0220200663241
 20
15.75845146032798
 30
0.0
 10
186.0765534803672
 20
15.75830754828372
 30
0.0
 10
186.1482891808604
 20
15.75909120499898
 30
0.0
 10
186.2236240137062
 20
15.75627570463811
 30
0.0
 10
186.2713052366438
 20
15.76298403400957
 30
0.0
 10
186.3195071245616
 20
15.75197563692433
 30
0.0
 10
186.3062571799873
 20
15.80546402997033
 30
0.0
 10
186.3151093964539
 20
15.86049583543092
 30
0.0
 10
186.3108698036285
 20
15.95419908726109
 30
0.0
 10
186.313348348128
 20
16.04959482218532
 30
0.0
 10
186.309093870606
 20
16.14356821983387
 30
0.0
 10
186.3179818665846
 20
16.19795062438012
 30
0.0
 10
186.3046977409945
 20
16.25233997691461
 30
0.0
 10
186.3514119277109
 20
16.23842216335358
 30
0.0
 10
186.3943254545736
 20
16.24103877374043
 30
0.0
 10
186.4605443456685
 20
16.23648422450755
 30
0.0
 10
186.5013342271798
 20
16.22778162134162
 30
0.0
 10
186.5525145690819
 20
16.23531799890195
 30
0.0
 10
186.52537204872
 20
16.19349970223285
 30
0.0
 10
186.4803096055707
 20
16.20284992072596
 30
0.0
 10
186.4942065045051
 20
16.13841207371837
 30
0.0
 10
186.4858414431653
 20
16.07378219627399
 30
0.0
 10
186.4903632178398
 20
15.97529141193887
 30
0.0
 10
186.4854741311167
 20
15.8759593284257
 30
0.0
 10
186.4950258992082
 20
15.81293115552969
 30
0.0
 10
186.47997614552
 20
15.74964011499788
 30
0.0
 10
186.5449159457208
 20
15.76515072944269
 30
0.0
 10
186.6116246399496
 20
15.75499387697812
 30
0.0
 10
186.7241435470828
 20
15.75988800099367
 30
0.0
 10
186.8390235448953
 20
15.75691204732783
 30
0.0
 10
186.9519871999747
 20
15.76221664184991
 30
0.0
 10
187.0176267597677
 20
15.75107306472089
 30
0.0
 10
187.0816276691053
 20
15.76744532319857
 30
0.0
 10
187.0703142889189
 20
15.71761689905274
 30
0.0
 10
187.077533987151
 20
15.67416715212123
 30
0.0
 10
187.0703142611268
 20
15.63071745587445
 30
0.0
 10
187.0816277175994
 20
15.58088895196876
 30
0.0
 10
187.0176263598971
 20
15.59726166091362
 30
0.0
 10
186.951992124046
 20
15.58611271661588
 30
0.0
 10
186.838997431733
 20
15.59144857206854
 30
0.0
 10
186.7242456548644
 20
15.58834345663822
 30
0.0
 10
186.611318368686
 20
15.59364894682588
 30
0.0
 10
186.5455220903585
 20
15.58257300019593
 30
0.0
 10
186.4816097975358
 20
15.59887597847618
 30
0.0
 10
186.4936015165126
 20
15.54423524395742
 30
0.0
 10
186.4862104613005
 20
15.48854295047841
 30
0.0
 10
186.4892684841983
 20
15.3964968914057
 30
0.0
 10
186.4893422785683
 20
15.301791098731
 30
0.0
 10
186.486031357836
 20
15.20952782902265
 30
0.0
 10
186.4939505989904
 20
15.15435768736139
 30
0.0
 10
186.4815076611617
 20
15.10058169100135
 30
0.0
 10
186.5389116551632
 20
15.11453768862779
 30
0.0
 10
186.5994708140382
 20
15.10511457884225
 30
0.0
 10
186.7048680855081
 20
15.10942885928704
 30
0.0
 10
186.8204294070622
 20
15.1083550461203
 30
0.0
 10
186.9359688877797
 20
15.10725965900994
 30
0.0
 10
187.0414181130841
 20
15.11162525770632
 30
0.0
 10
187.1018680471804
 20
15.1020942603067
 30
0.0
 10
187.159283773911
 20
15.11617289606379
 30
0.0
 10
187.1477773876709
 20
15.06707153265682
 30
0.0
 10
187.1537566781749
 20
15.02564658018648
 30
0.0
 10
187.1520311050801
 20
14.97651677966694
 30
0.0
 10
187.1521500122971
 20
14.94854428447607
 30
0.0
 10
187.1521871691833
 20
14.93980288195949
 30
0.0
 11
185.9857704961609
 21
15.75844135397705
 31
0.0
 11
186.0099436128282
 21
15.75844135397705
 31
0.0
 11
186.0703764044962
 21
15.75844135397705
 31
0.0
 11
186.1489390336648
 21
15.75844135397705
 31
0.0
 11
186.2275016628334
 21
15.75844135397705
 31
0.0
 11
186.2879344545015
 21
15.75844135397705
 31
0.0
 11
186.3121075711687
 21
15.75844135397705
 31
0.0
 11
186.3121075711687
 21
15.78541612620063
 31
0.0
 11
186.3121075711687
 21
15.85498264404039
 31
0.0
 11
186.3121075711687
 21
15.95010420924985
 31
0.0
 11
186.3121075711687
 21
16.05374412358256
 31
0.0
 11
186.3121075711687
 21
16.14886568879202
 31
0.0
 11
186.3121075711687
 21
16.21843220663178
 31
0.0
 11
186.3121075711687
 21
16.24540697885536
 31
0.0
 11
186.3360407604892
 21
16.243732131078
 31
0.0
 11
186.3931122119458
 21
16.23973826330121
 31
0.0
 11
186.461229750781
 21
16.23497138885795
 31
0.0
 11
186.5183012022376
 21
16.23097752108117
 31
0.0
 11
186.5422343915581
 21
16.22930267330381
 31
0.0
 11
186.5274972731229
 21
16.2055629337264
 31
0.0
 11
186.4886640249976
 21
16.19183767331312
 31
0.0
 11
186.4886640249976
 21
16.15973424225119
 31
0.0
 11
186.4886640249976
 21
16.07947566459636
 31
0.0
 11
186.4886640249976
 21
15.97513951364509
 31
0.0
 11
186.4886640249976
 21
15.87080336269381
 31
0.0
 11
186.4886640249976
 21
15.79054478503898
 31
0.0
 11
186.4886640249976
 21
15.75844135397705
 31
0.0
 11
186.5211207110824
 21
15.75844135397705
 31
0.0
 11
186.6048247962486
 21
15.75844135397705
 31
0.0
 11
186.7192773208634
 21
15.75844135397705
 31
0.0
 11
186.8439793252946
 21
15.75844135397705
 31
0.0
 11
186.9584318499095
 21
15.75844135397705
 31
0.0
 11
187.0421359350756
 21
15.75844135397705
 31
0.0
 11
187.0745926211604
 21
15.75844135397705
 31
0.0
 11
187.0745926211604
 21
15.73210566604961
 31
0.0
 11
187.0745926211604
 21
15.67416715260924
 31
0.0
 11
187.0745926211604
 21
15.61622863916888
 31
0.0
 11
187.0745926211604
 21
15.58989295124144
 31
0.0
 11
187.0421359350756
 21
15.58989295124144
 31
0.0
 11
186.9584318499095
 21
15.58989295124144
 31
0.0
 11
186.8439793252946
 21
15.58989295124144
 31
0.0
 11
186.7192773208634
 21
15.58989295124144
 31
0.0
 11
186.6048247962485
 21
15.58989295124144
 31
0.0
 11
186.5211207110824
 21
15.58989295124144
 31
0.0
 11
186.4886640249976
 21
15.58989295124144
 31
0.0
 11
186.4886640249976
 21
15.56321863152022
 31
0.0
 11
186.4886640249976
 21
15.49442696487075
 31
0.0
 11
186.4886640249976
 21
15.40036489006433
 31
0.0
 11
186.4886640249976
 21
15.29787934587227
 31
0.0
 11
186.4886640249976
 21
15.20381727106585
 31
0.0
 11
186.4886640249976
 21
15.13502560441638
 31
0.0
 11
186.4886640249976
 21
15.10835128469516
 31
0.0
 11
186.5171747850993
 21
15.10835128469516
 31
0.0
 11
186.5923395162766
 21
15.10835128469516
 31
0.0
 11
186.6986068948376
 21
15.10835128469516
 31
0.0
 11
186.8204255970904
 21
15.10835128469516
 31
0.0
 11
186.9422442993433
 21
15.10835128469516
 31
0.0
 11
187.0485116779043
 21
15.10835128469516
 31
0.0
 11
187.1236764090816
 21
15.10835128469516
 31
0.0
 11
187.1521871691833
 21
15.10835128469516
 31
0.0
 11
187.1521871691833
 21
15.08201559676771
 31
0.0
 11
187.1521871691833
 21
15.02407708332733
 31
0.0
 11
187.1521871691833
 21
14.96613856988694
 31
0.0
 11
187.1521871691833
 21
14.93980288195949
 31
0.0
  0
SPLINE
  5
A6
102
{ACAD_REACTORS
330
C3
102
}
330
48
100
AcDbEntity
  8
_U_30EC_U_30A4_U_30E4_U_30FC_1
  6
Continuous
 62
     2
100
AcDbSpline
210
0.0
220
0.0
230
1.0
 70
     8
 71
     3
 72
    62
 73
    58
 74
    56
 42
0.000000001
 43
0.0000000001
 44
0.00000001
 40
0.0
 40
0.0
 40
0.0
 40
0.0
 40
0.0598250028308485
 40
0.2024846486897331
 40
0.3727558389221031
 40
0.515415484793607
 40
0.5752404975785339
 40
0.9332326775487353
 40
1.290451762839484
 40
1.602077253145863
 40
1.699931634112113
 40
1.799359756425035
 40
2.270120149657075
 40
2.804661928461543
 40
2.882342287383256
 40
3.076543185719106
 40
3.329004354835573
 40
3.5814655245684
 40
3.775666424543688
 40
3.853346784558308
 40
3.899120679595053
 40
3.984129341792051
 40
4.0299032368174
 40
4.105797496059557
 40
4.295533144152516
 40
4.542189486611758
 40
4.788845828875704
 40
4.97858147641009
 40
5.054475735244333
 40
5.621734664339335
 40
6.130867242037366
 40
6.22524978094861
 40
6.318913039727296
 40
6.663579954558922
 40
7.047498900224774
 40
7.435230791575702
 40
7.498943906668114
 40
7.650875181210107
 40
7.832212509001618
 40
7.984143783697004
 40
8.047856898903131
 40
8.091554632732636
 40
8.172707566964295
 40
8.216405300768017
 40
8.289021782160901
 40
8.462184160757275
 40
8.668861838005355
 40
8.842024215263947
 40
8.914640695475143
 40
8.98988158086135
 40
9.15541152882726
 40
9.320941477744048
 40
9.396182352487301
 40
9.454709011143848
 40
9.583467660170783
 40
9.712226309013062
 40
9.770752957989515
 40
9.770752957989515
 40
9.770752957989515
 40
9.770752957989515
 10
187.1521871691833
 20
14.93980288195949
 30
0.0
 10
187.1322348171623
 20
14.93980875568671
 30
0.0
 10
187.0647037716466
 20
14.93982863806156
 30
0.0
 10
186.9410612161788
 20
14.93949362520325
 30
0.0
 10
186.7863180150056
 20
14.9410767375051
 30
0.0
 10
186.669734948248
 20
14.93686078860494
 30
0.0
 10
186.455094263424
 20
14.95215205331625
 30
0.0
 10
186.8518948407229
 20
14.59198721286192
 30
0.0
 10
186.8945656069268
 20
14.37510503397167
 30
0.0
 10
187.3189162146611
 20
14.19325062511446
 30
0.0
 10
187.1439821496073
 20
14.08985196568072
 30
0.0
 10
187.0194523925085
 20
13.87831523212724
 30
0.0
 10
186.7666277235942
 20
14.34806081001562
 30
0.0
 10
186.4797602893627
 20
14.99511516984523
 30
0.0
 10
186.490633592666
 20
14.68782672154695
 30
0.0
 10
186.488289277796
 20
14.5228861697178
 30
0.0
 10
186.4861096126411
 20
14.28879670711694
 30
0.0
 10
186.4980774396346
 20
14.04498072421784
 30
0.0
 10
186.4687984740631
 20
13.89855796860985
 30
0.0
 10
186.511452262547
 20
13.75113490174538
 30
0.0
 10
186.4239814005639
 20
13.7668579730622
 30
0.0
 10
186.3768527606744
 20
13.76694303543454
 30
0.0
 10
186.2898973207713
 20
13.75109425482909
 30
0.0
 10
186.3313474021722
 20
13.89527771422762
 30
0.0
 10
186.3029875004286
 20
14.03855052698456
 30
0.0
 10
186.3145973775299
 20
14.27674947365264
 30
0.0
 10
186.3124175648272
 20
14.50517235240346
 30
0.0
 10
186.3103111127993
 20
14.66705729375994
 30
0.0
 10
186.3208035438324
 20
14.98153709333752
 30
0.0
 10
186.0128963252893
 20
14.29229470872432
 30
0.0
 10
185.7055258267457
 20
13.81476750243053
 30
0.0
 10
185.5851367066274
 20
14.03741112637426
 30
0.0
 10
185.4074607910722
 20
14.15011034955565
 30
0.0
 10
185.8853326362894
 20
14.32548143465461
 30
0.0
 10
185.9353959057208
 20
14.5609192925203
 30
0.0
 10
186.3583799621716
 20
14.95322989344605
 30
0.0
 10
186.1276754273541
 20
14.93655307029065
 30
0.0
 10
186.004968585934
 20
14.9426951894877
 30
0.0
 10
185.8325483095661
 20
14.93312822699573
 30
0.0
 10
185.721322469445
 20
14.95448818489666
 30
0.0
 10
185.6025779627447
 20
14.92136265357418
 30
0.0
 10
185.6183169706686
 20
15.00203900606883
 30
0.0
 10
185.6178550933762
 20
15.04645414290853
 30
0.0
 10
185.6027881889931
 20
15.12967081778532
 30
0.0
 10
185.7372380935443
 20
15.09062651983881
 30
0.0
 10
185.8619755545747
 20
15.11739729328421
 30
0.0
 10
186.062875523728
 20
15.10063949044051
 30
0.0
 10
186.1921540949353
 20
15.12204225913003
 30
0.0
 10
186.3328419928294
 20
15.08868778853419
 30
0.0
 10
186.2980927452614
 20
15.22651875785067
 30
0.0
 10
186.3222185666713
 20
15.3496325734948
 30
0.0
 10
186.2967086182391
 20
15.47024055670335
 30
0.0
 10
186.3333251146686
 20
15.60539865141495
 30
0.0
 10
186.2211417027769
 20
15.58094545781891
 30
0.0
 10
186.1280356457137
 20
15.59307749842022
 30
0.0
 10
186.0191547579819
 20
15.58957630069994
 30
0.0
 10
185.9569697640964
 20
15.58981755951603
 30
0.0
 10
185.9375369557246
 20
15.58989295124144
 30
0.0
 11
187.1521871691833
 21
14.93980288195949
 31
0.0
 11
187.0923621563982
 21
14.93980288195949
 31
0.0
 11
186.949702510526
 21
14.93980288195949
 31
0.0
 11
186.7794313202913
 21
14.93980288195949
 31
0.0
 11
186.6367716744191
 21
14.93980288195949
 31
0.0
 11
186.576946661634
 21
14.93980288195949
 31
0.0
 11
186.7679960754843
 21
14.6370512796689
 31
0.0
 11
186.994127278563
 21
14.36051890576684
 31
0.0
 11
187.2244526173371
 21
14.15061253493457
 31
0.0
 11
187.1521596330704
 21
14.08466403668717
 31
0.0
 11
187.0879364402643
 21
14.0087605905256
 31
0.0
 11
186.7732818215558
 21
14.35891458349363
 31
0.0
 11
186.4886640249976
 21
14.81138295143602
 31
0.0
 11
186.4886640249976
 21
14.73370259137314
 31
0.0
 11
186.4886640249976
 21
14.53950169121594
 31
0.0
 11
186.4886640249976
 21
14.28704052101157
 31
0.0
 11
186.4886640249976
 21
14.03457935080721
 31
0.0
 11
186.4886640249976
 21
13.84037845065
 31
0.0
 11
186.4886640249976
 21
13.76269809058712
 31
0.0
 11
186.4428901295605
 21
13.76269809058712
 31
0.0
 11
186.3578814666058
 21
13.76269809058712
 31
0.0
 11
186.3121075711687
 21
13.76269809058712
 31
0.0
 11
186.3121075711687
 21
13.8385923498274
 31
0.0
 11
186.3121075711687
 21
14.02832799792811
 31
0.0
 11
186.3121075711687
 21
14.27498434045904
 31
0.0
 11
186.3121075711687
 21
14.52164068298996
 31
0.0
 11
186.3121075711687
 21
14.71137633109067
 31
0.0
 11
186.3121075711687
 21
14.78727059033095
 31
0.0
 11
185.9987626399267
 21
14.31440946197693
 31
0.0
 11
185.6352328662148
 21
13.95795177109382
 31
0.0
 11
185.5773927461627
 21
14.03253450545022
 31
0.0
 11
185.5094852305341
 21
14.09704322939241
 31
0.0
 11
185.7750721898319
 21
14.31672219795889
 31
0.0
 11
186.0233764972061
 21
14.60953395971697
 31
0.0
 11
186.226498280526
 21
14.93980288195949
 31
0.0
 11
186.1627851652721
 21
14.93980288195949
 31
0.0
 11
186.0108538904359
 21
14.93980288195949
 31
0.0
 11
185.8295165624055
 21
14.93980288195949
 31
0.0
 11
185.6775852875693
 21
14.93980288195949
 31
0.0
 11
185.6138721723154
 21
14.93980288195949
 31
0.0
 11
185.6138721723154
 21
14.98350061600207
 31
0.0
 11
185.6138721723154
 21
15.06465355065258
 31
0.0
 11
185.6138721723154
 21
15.10835128469516
 31
0.0
 11
185.6864886537961
 21
15.10835128469516
 31
0.0
 11
185.8596510327118
 21
15.10835128469516
 31
0.0
 11
186.0663287107723
 21
15.10835128469516
 31
0.0
 11
186.239491089688
 21
15.10835128469516
 31
0.0
 11
186.3121075711687
 21
15.10835128469516
 31
0.0
 11
186.3121075711687
 21
15.18359217009302
 31
0.0
 11
186.3121075711687
 21
15.3491221179683
 31
0.0
 11
186.3121075711687
 21
15.51465206584358
 31
0.0
 11
186.3121075711687
 21
15.58989295124144
 31
0.0
 11
186.2535809125055
 21
15.58989295124144
 31
0.0
 11
186.1248222634467
 21
15.58989295124144
 31
0.0
 11
185.9960636143877
 21
15.58989295124144
 31
0.0
 11
185.9375369557246
 21
15.58989295124144
 31
0.0
  0
SPLINE
  5
A7
102
{ACAD_REACTORS
330
C4
102
}
330
48
100
AcDbEntity
  8
_U_30EC_U_30A4_U_30E4_U_30FC_1
  6
Continuous
 62
     2
100
AcDbSpline
210
0.0
220
0.0
230
1.0
 70
    11
 71
     3
 72
   124
 73
   120
 74
   118
 42
0.000000001
 43
0.0000000001
 44
0.00000001
 40
0.0
 40
0.0
 40
0.0
 40
0.0
 40
0.027818722962451
 40
0.1011590162384269
 40
0.2048470170590523
 40
0.3237088716559245
 40
0.4425707262522284
 40
0.5462587270700116
 40
0.6195990203312934
 40
0.6474177522579513
 40
0.6750060736116077
 40
0.7357003855243611
 40
0.7963946998055345
 40
0.8239830245572637
 40
0.8540933811104015
 40
0.9373396629410127
 40
1.06309468734335
 40
1.220731268638189
 40
1.399622220914863
 40
1.589140358637848
 40
1.778658496424014
 40
1.957549448940681
 40
2.115186030873331
 40
2.240941056914607
 40
2.324187341760704
 40
2.354297700109554
 40
2.381886024672061
 40
2.442580338710649
 40
2.503274652750673
 40
2.53086297731478
 40
2.560983949278733
 40
2.640393784453079
 40
2.752662861759302
 40
2.881361560118319
 40
3.010060258455366
 40
3.122329335705513
 40
3.201739170818127
 40
3.231860142753487
 40
3.264298024030542
 40
3.352343701778413
 40
3.482095226868934
 40
3.639650650173192
 40
3.811108022565647
 40
3.982565394928153
 40
4.140120818152732
 40
4.269872343141439
 40
4.3579180208025
 40
4.390355902044129
 40
4.423256253992698
 40
4.508104530073219
 40
4.624121560636987
 40
4.750528176031744
 40
4.866545206602191
 40
4.951393482692148
 40
4.984293834645549
 40
5.011450833242466
 40
5.071196230152256
 40
5.130941627057335
 40
5.158098625649003
 40
5.190998977601693
 40
5.275847253689519
 40
5.391864284256953
 40
5.518270899648498
 40
5.634287930209537
 40
5.719136206288211
 40
5.752036558236099
 40
5.782130946283124
 40
5.862783906229299
 40
5.979550131775166
 40
6.117984316640572
 40
6.263641154588117
 40
6.402075339414323
 40
6.518841564908118
 40
6.599494524815699
 40
6.629588912848937
 40
6.654403028226513
 40
6.713575149488308
 40
6.784199939329683
 40
6.843372060493785
 40
6.86818617580303
 40
6.896246243202141
 40
6.939586233758564
 40
6.967846564565192
 40
7.04358425109013
 40
7.153234334451988
 40
7.283231855734738
 40
7.420011856035772
 40
7.550009376580124
 40
7.659659458835523
 40
7.735397144417516
 40
7.763657474851688
 40
7.796409728011345
 40
7.880876065096619
 40
7.996370852466005
 40
8.1222084464189
 40
8.237703224799494
 40
8.322169562011188
 40
8.354921815206202
 40
8.382078813307984
 40
8.441824209207294
 40
8.501569605240448
 40
8.528726603486028
 40
8.561478856696077
 40
8.645945193878127
 40
8.761439980865639
 40
8.887277580764781
 40
9.002772362001302
 40
9.087238696661522
 40
9.119990949235977
 40
9.152428830613674
 40
9.24047450863889
 40
9.370226034149837
 40
9.52778145798472
 40
9.699238830981708
 40
9.870696203978897
 40
10.02825162781432
 40
10.15800315332593
 40
10.24604883135148
 40
10.27848670378551
 40
10.27848670378551
 40
10.27848670378551
 40
10.27848670378551
 10
195.3821827564383
 20
14.01410517385757
 30
0.0
 10
195.3914554737523
 20
14.01410498511274
 30
0.0
 10
195.425174453686
 20
14.01410430876714
 30
0.0
 10
195.4934706812465
 20
14.01411807243305
 30
0.0
 10
195.592014171158
 20
14.01403224219545
 30
0.0
 10
195.7062066464812
 20
14.0144175561225
 30
0.0
 10
195.8185894417071
 20
14.01300835897545
 30
0.0
 10
195.9214376600119
 20
14.01719117422243
 30
0.0
 10
195.9806839874849
 20
14.00823089251982
 30
0.0
 10
196.0371265937034
 20
14.0216443452606
 30
0.0
 10
196.0246255586956
 20
13.97087198613361
 30
0.0
 10
196.0329549635704
 20
13.92589320939067
 30
0.0
 10
196.0248170841121
 20
13.88056752990488
 30
0.0
 10
196.0370529214458
 20
13.82931932408465
 30
0.0
 10
195.9747773490334
 20
13.84447955365276
 30
0.0
 10
195.9060513026869
 20
13.83359750710742
 30
0.0
 10
195.7782756749592
 20
13.83911304747972
 30
0.0
 10
195.6262984511643
 20
13.83700851253698
 30
0.0
 10
195.4502695972523
 20
13.83771002588473
 30
0.0
 10
195.2644431934287
 20
13.83745237531291
 30
0.0
 10
195.0786167437175
 20
13.83771005144603
 30
0.0
 10
194.9025880142169
 20
13.83700841847731
 30
0.0
 10
194.7506104154194
 20
13.83911332229988
 30
0.0
 10
194.6228357664554
 20
13.8335968076764
 30
0.0
 10
194.554107783658
 20
13.84448077125942
 30
0.0
 10
194.4918349042883
 20
13.82931786684209
 30
0.0
 10
194.5040616290017
 20
13.88057510805171
 30
0.0
 10
194.4960004462597
 20
13.92582473272425
 30
0.0
 10
194.5040675809892
 20
13.97106357955323
 30
0.0
 10
194.4918238487083
 20
14.02234176909958
 30
0.0
 10
194.5525017120697
 20
14.00749577363134
 30
0.0
 10
194.6162810745736
 20
14.01756448170735
 30
0.0
 10
194.7277314353502
 20
14.01294644211999
 30
0.0
 10
194.8497533443824
 20
14.01413328905469
 30
0.0
 10
194.9719538137823
 20
14.01515863900634
 30
0.0
 10
195.0829794287392
 20
14.01092475623401
 30
0.0
 10
195.1476517413958
 20
14.02018584521739
 30
0.0
 10
195.2091162810501
 20
14.00604423049682
 30
0.0
 10
195.1930065601337
 20
14.07235527884517
 30
0.0
 10
195.2042980327358
 20
14.14447790121975
 30
0.0
 10
195.198740082256
 20
14.27513760888285
 30
0.0
 10
195.200803506169
 20
14.42607323708241
 30
0.0
 10
195.2000167127295
 20
14.59335873107885
 30
0.0
 10
195.2007845215628
 20
14.76061110332302
 30
0.0
 10
195.1988038785628
 20
14.91163289269912
 30
0.0
 10
195.2041306156621
 20
15.04206069552994
 30
0.0
 10
195.1933101388425
 20
15.11465442605898
 30
0.0
 10
195.2090326429875
 20
15.18150469436797
 30
0.0
 10
195.143270813249
 20
15.16580512490823
 30
0.0
 10
195.0756367830764
 20
15.17609243083994
 30
0.0
 10
194.9615885293809
 20
15.17113786847121
 30
0.0
 10
194.8451242674902
 20
15.17414128030474
 30
0.0
 10
194.7306554121477
 20
15.16880303143387
 30
0.0
 10
194.6640324657812
 20
15.18001268074824
 30
0.0
 10
194.5990769715185
 20
15.1634913266501
 30
0.0
 10
194.6107989758708
 20
15.21473720477058
 30
0.0
 10
194.6032830189121
 20
15.25950333784091
 30
0.0
 10
194.6107989878835
 20
15.30426944897961
 30
0.0
 10
194.5990769505346
 20
15.35551536129741
 30
0.0
 10
194.66403263392
 20
15.33899381766816
 30
0.0
 10
194.7306533339822
 20
15.35020571373943
 30
0.0
 10
194.8451352858063
 20
15.34485436710665
 30
0.0
 10
194.9615454436962
 20
15.34791188771117
 30
0.0
 10
195.0757660174641
 20
15.34278499010708
 30
0.0
 10
195.1430150439227
 20
15.35345733355598
 30
0.0
 10
195.2083325941438
 20
15.33742082669077
 30
0.0
 10
195.1941391448553
 20
15.39949685750054
 30
0.0
 10
195.2036059462994
 20
15.46586761628762
 30
0.0
 10
195.1990269004085
 20
15.58239972741966
 30
0.0
 10
195.2007696555948
 20
15.71426685022376
 30
0.0
 10
195.1997551495391
 20
15.85615960150273
 30
0.0
 10
195.2017191344373
 20
15.9876905070258
 30
0.0
 10
195.1964668553851
 20
16.10524577283002
 30
0.0
 10
195.2073408763474
 20
16.16947789001584
 30
0.0
 10
195.1919536641853
 20
16.23108802545047
 30
0.0
 10
195.2407591537799
 20
16.2170240738211
 30
0.0
 10
195.2853995564726
 20
16.21954742075314
 30
0.0
 10
195.3538643946742
 20
16.21512797401709
 30
0.0
 10
195.3959106169104
 20
16.20613025544036
 30
0.0
 10
195.4487544758775
 20
16.2141171486651
 30
0.0
 10
195.4207035002014
 20
16.17113917611674
 30
0.0
 10
195.3749142248595
 20
16.18259552043838
 30
0.0
 10
195.3869539073264
 20
16.12173520005137
 30
0.0
 10
195.3796086070641
 20
16.05769299468773
 30
0.0
 10
195.3831195826162
 20
15.94909368863911
 30
0.0
 10
195.3819806760173
 20
15.82494319144753
 30
0.0
 10
195.3819174780263
 20
15.69189719829878
 30
0.0
 10
195.3832872966867
 20
15.56797381249555
 30
0.0
 10
195.3791638801314
 20
15.45868337849339
 30
0.0
 10
195.3877763103564
 20
15.3960858009417
 30
0.0
 10
195.3746757454401
 20
15.33740133296365
 30
0.0
 10
195.4393884328198
 20
15.35362113810902
 30
0.0
 10
195.5060405953155
 20
15.34270260383311
 30
0.0
 10
195.6198779541103
 20
15.34793740173756
 30
0.0
 10
195.7357259122097
 20
15.34485547516913
 30
0.0
 10
195.849692426328
 20
15.35018259812512
 30
0.0
 10
195.9160341018099
 20
15.33904208166543
 30
0.0
 10
195.980718852548
 20
15.35546979593178
 30
0.0
 10
195.9689820772722
 20
15.3042592521005
 30
0.0
 10
195.976516806304
 20
15.25950334121
 30
0.0
 10
195.9689820992258
 20
15.21474739010026
 30
0.0
 10
195.9807188140736
 20
15.16353690871039
 30
0.0
 10
195.9160344075252
 20
15.17996427794219
 30
0.0
 10
195.8496886430824
 20
15.16882784447268
 30
0.0
 10
195.7357459487012
 20
15.17413115893119
 30
0.0
 10
195.6197995623054
 20
15.17114764593543
 30
0.0
 10
195.5062756882122
 20
15.17606892268392
 30
0.0
 10
195.4389231318804
 20
15.16585087513518
 30
0.0
 10
195.3734285122495
 20
15.18145996138814
 30
0.0
 10
195.3891713619218
 20
15.1146385182741
 30
0.0
 10
195.3783275998213
 20
15.04207057815878
 30
0.0
 10
195.3836581629793
 20
14.91162247614415
 30
0.0
 10
195.3817136151855
 20
14.76064558185225
 30
0.0
 10
195.3823133683215
 20
14.59322243934158
 30
0.0
 10
195.3821506559604
 20
14.42656176118371
 30
0.0
 10
195.3821895488136
 20
14.27360142921636
 30
0.0
 10
195.3821816413099
 20
14.14849178985705
 30
0.0
 10
195.3821828382744
 20
14.06507890991419
 30
0.0
 10
195.3821827716208
 20
14.02491778281976
 30
0.0
 10
195.3821827564383
 20
14.01410517385757
 30
0.0
 11
195.3821827564383
 21
14.01410517385757
 31
0.0
 11
195.4100014883675
 21
14.01410517385757
 31
0.0
 11
195.4833417816353
 21
14.01410517385757
 31
0.0
 11
195.5870297824623
 21
14.01410517385757
 31
0.0
 11
195.7058916370687
 21
14.01410517385757
 31
0.0
 11
195.8247534916752
 21
14.01410517385757
 31
0.0
 11
195.9284414925021
 21
14.01410517385757
 31
0.0
 11
196.0017817857699
 21
14.01410517385757
 31
0.0
 11
196.0296005176991
 21
14.01410517385757
 31
0.0
 11
196.0296005176991
 21
13.9865168492117
 31
0.0
 11
196.0296005176991
 21
13.92582253499077
 31
0.0
 11
196.0296005176991
 21
13.86512822076984
 31
0.0
 11
196.0296005176991
 21
13.83753989612397
 31
0.0
 11
195.9994901593494
 21
13.83753989612397
 31
0.0
 11
195.9162438745005
 21
13.83753989612397
 31
0.0
 11
195.7904888484522
 21
13.83753989612397
 31
0.0
 11
195.6328522665042
 21
13.83753989612397
 31
0.0
 11
195.4539613139565
 21
13.83753989612397
 31
0.0
 11
195.2644431761089
 21
13.83753989612397
 31
0.0
 11
195.0749250382613
 21
13.83753989612397
 31
0.0
 11
194.8960340857136
 21
13.83753989612397
 31
0.0
 11
194.7383975037656
 21
13.83753989612397
 31
0.0
 11
194.6126424777173
 21
13.83753989612397
 31
0.0
 11
194.5293961928683
 21
13.83753989612397
 31
0.0
 11
194.4992858345187
 21
13.83753989612397
 31
0.0
 11
194.4992858345187
 21
13.86512822076984
 31
0.0
 11
194.4992858345187
 21
13.92582253499077
 31
0.0
 11
194.4992858345187
 21
13.9865168492117
 31
0.0
 11
194.4992858345187
 21
14.01410517385757
 31
0.0
 11
194.5294068064947
 21
14.01410517385757
 31
0.0
 11
194.608816641704
 21
14.01410517385757
 31
0.0
 11
194.721085719069
 21
14.01410517385757
 31
0.0
 11
194.8497844175118
 21
14.01410517385757
 31
0.0
 11
194.9784831159545
 21
14.01410517385757
 31
0.0
 11
195.0907521933195
 21
14.01410517385757
 31
0.0
 11
195.1701620285289
 21
14.01410517385757
 31
0.0
 11
195.2002830005048
 21
14.01410517385757
 31
0.0
 11
195.2002830005048
 21
14.04654305523835
 31
0.0
 11
195.2002830005048
 21
14.1345887332719
 31
0.0
 11
195.2002830005048
 21
14.26434025879502
 31
0.0
 11
195.2002830005048
 21
14.42189568264453
 31
0.0
 11
195.2002830005048
 21
14.59335305565723
 31
0.0
 11
195.2002830005048
 21
14.76481042866993
 31
0.0
 11
195.2002830005048
 21
14.92236585251944
 31
0.0
 11
195.2002830005048
 21
15.05211737804256
 31
0.0
 11
195.2002830005048
 21
15.14016305607611
 31
0.0
 11
195.2002830005048
 21
15.17260093745689
 31
0.0
 11
195.1673826485529
 21
15.17260093745689
 31
0.0
 11
195.0825343724662
 21
15.17260093745689
 31
0.0
 11
194.9665173418988
 21
15.17260093745689
 31
0.0
 11
194.8401107265044
 21
15.17260093745689
 31
0.0
 11
194.724093695937
 21
15.17260093745689
 31
0.0
 11
194.6392454198503
 21
15.17260093745689
 31
0.0
 11
194.6063450678984
 21
15.17260093745689
 31
0.0
 11
194.6063450678984
 21
15.19975793614802
 31
0.0
 11
194.6063450678984
 21
15.2595033332685
 31
0.0
 11
194.6063450678984
 21
15.31924873038897
 31
0.0
 11
194.6063450678984
 21
15.3464057290801
 31
0.0
 11
194.6392454198504
 21
15.3464057290801
 31
0.0
 11
194.724093695937
 21
15.3464057290801
 31
0.0
 11
194.8401107265044
 21
15.3464057290801
 31
0.0
 11
194.9665173418988
 21
15.3464057290801
 31
0.0
 11
195.0825343724662
 21
15.3464057290801
 31
0.0
 11
195.1673826485529
 21
15.3464057290801
 31
0.0
 11
195.2002830005048
 21
15.3464057290801
 31
0.0
 11
195.2002830005048
 21
15.3765001173137
 31
0.0
 11
195.2002830005048
 21
15.45715307777974
 31
0.0
 11
195.2002830005048
 21
15.57391930412609
 31
0.0
 11
195.2002830005048
 21
15.71235349000063
 31
0.0
 11
195.2002830005048
 21
15.85801032905124
 31
0.0
 11
195.2002830005048
 21
15.99644451492578
 31
0.0
 11
195.2002830005048
 21
16.11321074127214
 31
0.0
 11
195.2002830005048
 21
16.19386370173817
 31
0.0
 11
195.2002830005048
 21
16.22395808997177
 31
0.0
 11
195.2250405288618
 21
16.22228324219442
 31
0.0
 11
195.284077711867
 21
16.21828937441765
 31
0.0
 11
195.3545414464215
 21
16.21352249997441
 31
0.0
 11
195.4135786294266
 21
16.20952863219765
 31
0.0
 11
195.4383361577836
 21
16.20785378442029
 31
0.0
 11
195.4233067224031
 21
16.1841581420651
 31
0.0
 11
195.3821827564383
 21
16.17047697887404
 31
0.0
 11
195.3821827564383
 21
16.14221664794832
 31
0.0
 11
195.3821827564383
 21
16.0664789610674
 31
0.0
 11
195.3821827564383
 21
15.95682887707561
 31
0.0
 11
195.3821827564383
 21
15.82683135481731
 31
0.0
 11
195.3821827564383
 21
15.69005135313683
 31
0.0
 11
195.3821827564383
 21
15.56005383087853
 31
0.0
 11
195.3821827564383
 21
15.45040374688674
 31
0.0
 11
195.3821827564383
 21
15.37466606000582
 31
0.0
 11
195.3821827564383
 21
15.3464057290801
 31
0.0
 11
195.4149350096115
 21
15.3464057290801
 31
0.0
 11
195.4994013467422
 21
15.3464057290801
 31
0.0
 11
195.6148961342476
 21
15.3464057290801
 31
0.0
 11
195.7407337385445
 21
15.3464057290801
 31
0.0
 11
195.8562285260498
 21
15.3464057290801
 31
0.0
 11
195.9406948631806
 21
15.3464057290801
 31
0.0
 11
195.9734471163538
 21
15.3464057290801
 31
0.0
 11
195.9734471163538
 21
15.31924873038897
 31
0.0
 11
195.9734471163538
 21
15.2595033332685
 31
0.0
 11
195.9734471163538
 21
15.19975793614802
 31
0.0
 11
195.9734471163538
 21
15.17260093745689
 31
0.0
 11
195.9406948631806
 21
15.17260093745689
 31
0.0
 11
195.8562285260498
 21
15.17260093745689
 31
0.0
 11
195.7407337385445
 21
15.17260093745689
 31
0.0
 11
195.6148961342476
 21
15.17260093745689
 31
0.0
 11
195.4994013467422
 21
15.17260093745689
 31
0.0
 11
195.4149350096114
 21
15.17260093745689
 31
0.0
 11
195.3821827564383
 21
15.17260093745689
 31
0.0
 11
195.3821827564383
 21
15.14016305607611
 31
0.0
 11
195.3821827564383
 21
15.05211737804256
 31
0.0
 11
195.3821827564383
 21
14.92236585251944
 31
0.0
 11
195.3821827564383
 21
14.76481042866993
 31
0.0
 11
195.3821827564383
 21
14.59335305565723
 31
0.0
 11
195.3821827564383
 21
14.42189568264453
 31
0.0
 11
195.3821827564383
 21
14.26434025879503
 31
0.0
 11
195.3821827564383
 21
14.1345887332719
 31
0.0
 11
195.3821827564383
 21
14.04654305523835
 31
0.0
 11
195.3821827564383
 21
14.01410517385757
 31
0.0
  0
SPLINE
  5
A8
102
{ACAD_REACTORS
330
C5
102
}
330
48
100
AcDbEntity
  8
_U_30EC_U_30A4_U_30E4_U_30FC_1
  6
Continuous
 62
     2
100
AcDbSpline
210
0.0
220
0.0
230
1.0
 70
    11
 71
     3
 72
   131
 73
   127
 74
   125
 42
0.000000001
 43
0.0000000001
 44
0.00000001
 40
0.0
 40
0.0
 40
0.0
 40
0.0
 40
0.019557702982617
 40
0.042649053746157
 40
0.2863607575856474
 40
0.5344948436188959
 40
0.7842238845573165
 40
0.873731578946738
 40
0.9803832810312907
 40
1.092842274517039
 40
1.199761146656799
 40
1.289788768186503
 40
1.351573580786193
 40
1.370727117561422
 40
1.416400936017832
 40
1.470914848355976
 40
1.516588666791765
 40
1.535742203552846
 40
1.634216592293193
 40
1.760283341175029
 40
1.897966686682095
 40
2.031216387368923
 40
2.049689751137917
 40
2.101115601646853
 40
2.179502577739973
 40
2.278859318314087
 40
2.393194462258746
 40
2.516516648383861
 40
2.64283451540599
 40
2.766156701983492
 40
2.880491846754609
 40
2.979848588358651
 40
3.05823556544383
 40
3.109661416668985
 40
3.12813478070416
 40
3.146783742386477
 40
3.191254343315309
 40
3.244332157315911
 40
3.288802758225787
 40
3.307451719895058
 40
3.327717853844671
 40
3.38374775358003
 40
3.468388665924421
 40
3.574487837698729
 40
3.694892515728833
 40
3.822449946851972
 40
3.950007377920361
 40
4.070412055800453
 40
4.176511227368009
 40
4.261152139501455
 40
4.317182039076648
 40
4.337448172964567
 40
4.620011002696198
 40
4.885096638397514
 40
4.945373043518313
 40
5.01410771048865
 40
5.070481727652034
 40
5.319246955636558
 40
5.584812164506051
 40
5.859000912056922
 40
6.133746937542086
 40
6.401732212968876
 40
6.420736683995467
 40
6.472845717451118
 40
6.550702743894045
 40
6.646951193874254
 40
6.754234497930578
 40
6.865196086587356
 40
6.972479390357814
 40
7.068727839771976
 40
7.146584865450985
 40
7.198693898189215
 40
7.217698368905356
 40
7.234950401630834
 40
7.27608986426988
 40
7.325191803515994
 40
7.366331266090383
 40
7.383583298769735
 40
7.40277916349214
 40
7.453386443254543
 40
7.524934666445573
 40
7.606953361405913
 40
7.688972056429093
 40
7.760520279784344
 40
7.811127559734614
 40
7.830323424546235
 40
7.847844055299865
 40
7.894799345666907
 40
7.962779392744594
 40
8.043374293560642
 40
8.128174145149549
 40
8.208769044817354
 40
8.276749090377054
 40
8.323704379669612
 40
8.341225010056347
 40
8.358497614800495
 40
8.401679126686671
 40
8.45781509218573
 40
8.513951057728134
 40
8.557132569708033
 40
8.574405174505076
 40
8.60234066861642
 40
8.64345566053999
 40
8.663225271966658
 40
8.715345156564306
 40
8.78903188962864
 40
8.87350204552037
 40
8.957972194323993
 40
9.031658925567884
 40
9.083778811234575
 40
9.103548423003037
 40
9.119550083123574
 40
9.160817522379876
 40
9.217244429110242
 40
9.278724491644727
 40
9.335151398295512
 40
9.376418837357807
 40
9.392420497300595
 40
9.401196302734814
 40
9.417494229384289
 40
9.426270027749561
 40
9.440875075477594
 40
9.475702496998773
 40
9.517270709865935
 40
9.552098131994102
 40
9.56670316988431
 40
9.56670316988431
 40
9.56670316988431
 40
9.56670316988431
 10
194.6170254148479
 20
15.67015871511028
 30
0.0
 10
194.6134345093371
 20
15.6645369070216
 30
0.0
 10
194.6056039123625
 20
15.65227754419112
 30
0.0
 10
194.5129968974547
 20
15.61601916040967
 30
0.0
 10
194.4887622233248
 20
15.40148444212717
 30
0.0
 10
194.3858709845939
 20
15.22197284509705
 30
0.0
 10
194.1220492364305
 20
15.03615573798148
 30
0.0
 10
194.284547156918
 20
14.95959336566081
 30
0.0
 10
194.3607225760838
 20
14.89856693195442
 30
0.0
 10
194.4492171072758
 20
14.83515804544759
 30
0.0
 10
194.538993023311
 20
14.7752563421956
 30
0.0
 10
194.5883817636046
 20
14.72102154849206
 30
0.0
 10
194.6745708157382
 20
14.69286240541834
 30
0.0
 10
194.6411260674229
 20
14.65713309652811
 30
0.0
 10
194.621467116631
 20
14.62550387991906
 30
0.0
 10
194.5919888217882
 20
14.58475872796069
 30
0.0
 10
194.5688989446032
 20
14.55504663489644
 30
0.0
 10
194.5380205968356
 20
14.50211422668493
 30
0.0
 10
194.472919336574
 20
14.62740334938902
 30
0.0
 10
194.3796000122415
 20
14.68213900233933
 30
0.0
 10
194.2950636285138
 20
14.73916423939343
 30
0.0
 10
194.1722498125743
 20
14.89675287427524
 30
0.0
 10
194.17644508473
 20
14.82035806766837
 30
0.0
 10
194.1751478652678
 20
14.77361280161297
 30
0.0
 10
194.1758126448076
 20
14.69584785812602
 30
0.0
 10
194.1755549986956
 20
14.59902068324423
 30
0.0
 10
194.1756431239922
 20
14.4865027907881
 30
0.0
 10
194.1756077302281
 20
14.36524085945699
 30
0.0
 10
194.1756511758279
 20
14.24086897858962
 30
0.0
 10
194.1755199942406
 20
14.11967683631336
 30
0.0
 10
194.1759477562046
 20
14.00691148919744
 30
0.0
 10
194.174667820231
 20
13.91082913768744
 30
0.0
 10
194.1779759851044
 20
13.831138264687
 30
0.0
 10
194.1715197740085
 20
13.78815175788784
 30
0.0
 10
194.1806208705556
 20
13.74955432372043
 30
0.0
 10
194.1447910339935
 20
13.7581088772407
 30
0.0
 10
194.1115223815253
 20
13.75342519985447
 30
0.0
 10
194.0604562576041
 20
13.75351298759784
 30
0.0
 10
194.0269723972813
 20
13.75794430283821
 30
0.0
 10
193.9907585408754
 20
13.74960793842508
 30
0.0
 10
194.0009782568666
 20
13.79145277179284
 30
0.0
 10
193.9936487887773
 20
13.83778560820173
 30
0.0
 10
193.9973633136103
 20
13.92374831106014
 30
0.0
 10
193.9959480554897
 20
14.02605142704849
 30
0.0
 10
193.9964105554639
 20
14.14453223931512
 30
0.0
 10
193.9962773686231
 20
14.26957683153356
 30
0.0
 10
193.9963015910045
 20
14.3947582810705
 30
0.0
 10
193.9963354925552
 20
14.51286645379058
 30
0.0
 10
193.9962060293133
 20
14.61628748709516
 30
0.0
 10
193.9965507549082
 20
14.69932036153667
 30
0.0
 10
193.9958698278691
 20
14.75143368521243
 30
0.0
 10
193.9994586600623
 20
14.87912907821362
 30
0.0
 10
193.7826171386438
 20
14.58048716819621
 30
0.0
 10
193.6021354921949
 20
14.35263981511509
 30
0.0
 10
193.5490322295612
 20
14.49373443289817
 30
0.0
 10
193.5200429133149
 20
14.54325767560942
 30
0.0
 10
193.419664806282
 20
14.64641779790105
 30
0.0
 10
193.7405127723261
 20
14.72695035023779
 30
0.0
 10
193.8689897005429
 20
14.91066283036433
 30
0.0
 10
194.0906454325359
 20
15.1193199577176
 30
0.0
 10
194.1770224894069
 20
15.29339211228343
 30
0.0
 10
194.4549394229073
 20
15.56967051342511
 30
0.0
 10
194.3346247839284
 20
15.56534559551113
 30
0.0
 10
194.2863197351348
 20
15.56614856202551
 30
0.0
 10
194.2102377454905
 20
15.56574582146583
 30
0.0
 10
194.116701000975
 20
15.56590275611608
 30
0.0
 10
194.0117594788557
 20
15.56582502576223
 30
0.0
 10
193.9033887738717
 20
15.56595464378553
 30
0.0
 10
193.7981454235897
 20
15.56554393490691
 30
0.0
 10
193.7056237819412
 20
15.5668207367159
 30
0.0
 10
193.6268130800707
 20
15.56340766534849
 30
0.0
 10
193.5839674565379
 20
15.57023350036319
 30
0.0
 10
193.5449499586515
 20
15.56065064201123
 30
0.0
 10
193.5526365271864
 20
15.59420779565542
 30
0.0
 10
193.5485464404312
 20
15.62523550322232
 30
0.0
 10
193.5485531368814
 20
15.672365292709
 30
0.0
 10
193.5526239724911
 20
15.70340941646778
 30
0.0
 10
193.5449495574583
 20
15.73701861635903
 30
0.0
 10
193.5834819405495
 20
15.72748410420872
 30
0.0
 10
193.6241228014479
 20
15.73397435498071
 30
0.0
 10
193.6951471850463
 20
15.73100150650254
 30
0.0
 10
193.7729318149634
 20
15.73174761399158
 30
0.0
 10
193.8507292246474
 20
15.73247814044525
 30
0.0
 10
193.9217232089908
 20
15.7295423551416
 30
0.0
 10
193.9624279791821
 20
15.73595468772952
 30
0.0
 10
194.000985348991
 20
15.72650524176004
 30
0.0
 10
193.9927342754929
 20
15.76264692158784
 30
0.0
 10
193.9982346669358
 20
15.80129837613227
 30
0.0
 10
193.9955754206164
 20
15.86913528561838
 30
0.0
 10
193.9965815471534
 20
15.9459164153874
 30
0.0
 10
193.996017801832
 20
16.02849393582757
 30
0.0
 10
193.9970714526593
 20
16.10517329229878
 30
0.0
 10
193.9942675863131
 20
16.173319907767
 30
0.0
 10
194.0000702721305
 20
16.21132399809346
 30
0.0
 10
193.991565455116
 20
16.24758448077646
 30
0.0
 10
194.0255610233125
 20
16.23755723771853
 30
0.0
 10
194.0594575683099
 20
16.24073266813706
 30
0.0
 10
194.1126669060347
 20
16.2350896564061
 30
0.0
 10
194.1660768574483
 20
16.23434774436425
 30
0.0
 10
194.199591464949
 20
16.2281922348298
 30
0.0
 10
194.2388086183039
 20
16.23346029773593
 30
0.0
 10
194.2120263698492
 20
16.19253380793488
 30
0.0
 10
194.1708111001723
 20
16.20371204538112
 30
0.0
 10
194.1782641540873
 20
16.15867056192123
 30
0.0
 10
194.1742227952184
 20
16.11412278028144
 30
0.0
 10
194.176171404964
 20
16.04223572621703
 30
0.0
 10
194.1752364849758
 20
15.96168630588771
 30
0.0
 10
194.176510719003
 20
15.88173995404994
 30
0.0
 10
194.1732043793863
 20
15.80841837083183
 30
0.0
 10
194.1802106179961
 20
15.76688643002568
 30
0.0
 10
194.1701440380126
 20
15.72752418568113
 30
0.0
 10
194.2029814803921
 20
15.73468063430981
 30
0.0
 10
194.236457729648
 20
15.73027243137945
 30
0.0
 10
194.2915053476019
 20
15.73217943347897
 30
0.0
 10
194.3489502595314
 20
15.73185366407288
 30
0.0
 10
194.4023026248309
 20
15.73106308733081
 30
0.0
 10
194.4398540896638
 20
15.73313959118074
 30
0.0
 10
194.4623172523237
 20
15.73022338167109
 30
0.0
 10
194.4751678073731
 20
15.73572552644056
 30
0.0
 10
194.4858255685888
 20
15.7380111819779
 30
0.0
 10
194.4986635650143
 20
15.74494972588052
 30
0.0
 10
194.5145991033071
 20
15.72853046313672
 30
0.0
 10
194.5410623920891
 20
15.71709122319449
 30
0.0
 10
194.5726805253757
 20
15.6964468783519
 30
0.0
 10
194.5987255892151
 20
15.68116869628295
 30
0.0
 10
194.6128517723973
 20
15.67266976323184
 30
0.0
 10
194.6170254148479
 20
15.67015871511028
 30
0.0
 11
194.6170254148479
 21
15.67015871511028
 31
0.0
 11
194.6049990002243
 21
15.65473571164188
 31
0.0
 11
194.5848961795565
 21
15.64337406233916
 31
0.0
 11
194.4778986355813
 21
15.42440620231159
 31
0.0
 11
194.3477039934325
 21
15.21317201512161
 31
0.0
 11
194.1996540366071
 21
15.0120605902748
 31
0.0
 11
194.2734958253735
 21
14.96147384935379
 31
0.0
 11
194.36056643118
 21
14.89988411653739
 31
0.0
 11
194.4518003750404
 21
14.83413160594425
 31
0.0
 11
194.5381321779687
 21
14.77105653169304
 31
0.0
 11
194.6104963609787
 21
14.71749910790241
 31
0.0
 11
194.6598274450843
 21
14.68029954869104
 31
0.0
 11
194.6486940702213
 21
14.66471410869494
 31
0.0
 11
194.6221452532403
 21
14.62754882870424
 31
0.0
 11
194.5904579555533
 21
14.58319026871533
 31
0.0
 11
194.5639091385723
 21
14.54602498872462
 31
0.0
 11
194.5527757637093
 21
14.53043954872852
 31
0.0
 11
194.4807013362947
 21
14.59754008690617
 31
0.0
 11
194.385285698538
 21
14.67993354174669
 31
0.0
 11
194.279326415217
 21
14.76785017366916
 31
0.0
 11
194.175621051109
 21
14.85152024309268
 31
0.0
 11
194.175621051109
 21
14.83304687900864
 31
0.0
 11
194.175621051109
 21
14.78162102763956
 31
0.0
 11
194.175621051109
 21
14.70323405030999
 31
0.0
 11
194.175621051109
 21
14.60387730834449
 31
0.0
 11
194.175621051109
 21
14.48954216306761
 31
0.0
 11
194.175621051109
 21
14.36621997580389
 31
0.0
 11
194.175621051109
 21
14.2399021078779
 31
0.0
 11
194.175621051109
 21
14.11657992061419
 31
0.0
 11
194.175621051109
 21
14.0022447753373
 31
0.0
 11
194.175621051109
 21
13.9028880333718
 31
0.0
 11
194.175621051109
 21
13.82450105604223
 31
0.0
 11
194.175621051109
 21
13.77307520467316
 31
0.0
 11
194.175621051109
 21
13.75460184058912
 31
0.0
 11
194.1569720893626
 21
13.75460184058912
 31
0.0
 11
194.112501488275
 21
13.75460184058912
 31
0.0
 11
194.0594236740737
 21
13.75460184058912
 31
0.0
 11
194.014953072986
 21
13.75460184058912
 31
0.0
 11
193.9963041112396
 21
13.75460184058912
 31
0.0
 11
193.9963041112396
 21
13.77486797460219
 31
0.0
 11
193.9963041112396
 21
13.83089787452066
 31
0.0
 11
193.9963041112396
 21
13.91553878716347
 31
0.0
 11
193.9963041112396
 21
14.02163795934953
 31
0.0
 11
193.9963041112396
 21
14.14204263789775
 31
0.0
 11
193.9963041112396
 21
14.26960006962705
 31
0.0
 11
193.9963041112396
 21
14.39715750135636
 31
0.0
 11
193.9963041112396
 21
14.51756217990458
 31
0.0
 11
193.9963041112396
 21
14.62366135209064
 31
0.0
 11
193.9963041112396
 21
14.70830226473344
 31
0.0
 11
193.9963041112396
 21
14.76433216465193
 31
0.0
 11
193.9963041112396
 21
14.78459829866499
 31
0.0
 11
193.7883272849482
 21
14.59331998274057
 31
0.0
 11
193.5763486358425
 21
14.43414885430811
 31
0.0
 11
193.5495629014483
 21
14.48814671952096
 31
0.0
 11
193.5138765415024
 21
14.54689140572026
 31
0.0
 11
193.4799697494124
 21
14.59192871537975
 31
0.0
 11
193.6830287742319
 21
14.73563387201052
 31
0.0
 11
193.881853195826
 21
14.91168423529987
 31
0.0
 11
194.0677041444179
 21
15.11327514524949
 31
0.0
 11
194.2318427502303
 21
15.33360194186108
 31
0.0
 11
194.3655301434864
 21
15.56585996513634
 31
0.0
 11
194.3465256724482
 21
15.56585996513634
 31
0.0
 11
194.2944166389562
 21
15.56585996513634
 31
0.0
 11
194.2165596124447
 21
15.56585996513634
 31
0.0
 11
194.1203111623478
 21
15.56585996513634
 31
0.0
 11
194.0130278580997
 21
15.56585996513634
 31
0.0
 11
193.9020662691345
 21
15.56585996513634
 31
0.0
 11
193.7947829648864
 21
15.56585996513634
 31
0.0
 11
193.6985345147895
 21
15.56585996513634
 31
0.0
 11
193.620677488278
 21
15.56585996513634
 31
0.0
 11
193.568568454786
 21
15.56585996513634
 31
0.0
 11
193.5495639837478
 21
15.56585996513634
 31
0.0
 11
193.5495639837478
 21
15.58311199790981
 31
0.0
 11
193.5495639837478
 21
15.62425146067731
 31
0.0
 11
193.5495639837478
 21
15.67335340010949
 31
0.0
 11
193.5495639837478
 21
15.71449286287698
 31
0.0
 11
193.5495639837478
 21
15.73174489565045
 31
0.0
 11
193.568759848601
 21
15.73174489565045
 31
0.0
 11
193.6193671286684
 21
15.73174489565045
 31
0.0
 11
193.690915352212
 21
15.73174489565045
 31
0.0
 11
193.7729340474937
 21
15.73174489565045
 31
0.0
 11
193.8549527427754
 21
15.73174489565045
 31
0.0
 11
193.926500966319
 21
15.73174489565045
 31
0.0
 11
193.9771082463865
 21
15.73174489565045
 31
0.0
 11
193.9963041112396
 21
15.73174489565045
 31
0.0
 11
193.9963041112396
 21
15.74926552655218
 31
0.0
 11
193.9963041112396
 21
15.79622081736882
 31
0.0
 11
193.9963041112396
 21
15.86420086526753
 31
0.0
 11
193.9963041112396
 21
15.94479576741549
 31
0.0
 11
193.9963041112396
 21
16.02959562097986
 31
0.0
 11
193.9963041112396
 21
16.11019052312782
 31
0.0
 11
193.9963041112396
 21
16.17817057102653
 31
0.0
 11
193.9963041112396
 21
16.22512586184317
 31
0.0
 11
193.9963041112396
 21
16.2426464927449
 31
0.0
 11
194.0135484112112
 21
16.24165806167519
 31
0.0
 11
194.0566591611401
 21
16.23918698400091
 31
0.0
 11
194.1127031360478
 21
16.23597458302435
 31
0.0
 11
194.1687471109554
 21
16.2327621820478
 31
0.0
 11
194.2118578608843
 21
16.23029110437352
 31
0.0
 11
194.2291021608559
 21
16.22930267330381
 31
0.0
 11
194.2143774674851
 21
16.2055629337264
 31
0.0
 11
194.175621051109
 21
16.19183767331312
 31
0.0
 11
194.175621051109
 21
16.17206806177293
 31
0.0
 11
194.175621051109
 21
16.11994817680333
 31
0.0
 11
194.175621051109
 21
16.04626144288079
 31
0.0
 11
194.175621051109
 21
15.96179128448179
 31
0.0
 11
194.175621051109
 21
15.87732112608278
 31
0.0
 11
194.175621051109
 21
15.80363439216024
 31
0.0
 11
194.175621051109
 21
15.75151450719064
 31
0.0
 11
194.175621051109
 21
15.73174489565045
 31
0.0
 11
194.1916227112935
 21
15.73174489565045
 31
0.0
 11
194.232890150717
 21
15.73174489565045
 31
0.0
 11
194.2893170576837
 21
15.73174489565045
 31
0.0
 11
194.3507971204981
 21
15.73174489565045
 31
0.0
 11
194.4072240274648
 21
15.73174489565045
 31
0.0
 11
194.4484914668882
 21
15.73174489565045
 31
0.0
 11
194.4644931270728
 21
15.73174489565045
 31
0.0
 11
194.4728206422924
 21
15.73451387455921
 31
0.0
 11
194.4882860277004
 21
15.73965626396118
 31
0.0
 11
194.49661354292
 21
15.74242524286994
 31
0.0
 11
194.5091363776005
 21
15.73490952398294
 31
0.0
 11
194.5389985218386
 21
15.71698742509854
 31
0.0
 11
194.5746404359293
 21
15.69559653288168
 31
0.0
 11
194.6045025801674
 21
15.67767443399729
 31
0.0
 11
194.6170254148479
 21
15.67015871511028
 31
0.0
  0
SPLINE
  5
A9
102
{ACAD_REACTORS
330
C6
102
}
330
48
100
AcDbEntity
  8
_U_30EC_U_30A4_U_30E4_U_30FC_1
  6
Continuous
 62
     2
100
AcDbSpline
210
0.0
220
0.0
230
1.0
 70
    11
 71
     3
 72
    91
 73
    87
 74
    85
 42
0.000000001
 43
0.0000000001
 44
0.00000001
 40
0.0
 40
0.0
 40
0.0
 40
0.0
 40
0.0267532254356701
 40
0.0856103386464102
 40
0.1444674521996621
 40
0.1712206856618514
 40
0.2039416005642536
 40
0.2955601971652484
 40
0.4362601844617202
 40
0.6162252844507534
 40
0.8256392189704982
 40
1.054685709844468
 40
1.293548478893588
 40
1.532411247938332
 40
1.761457738799596
 40
1.970871673298593
 40
2.150836773256818
 40
2.291536760495679
 40
2.383155356836757
 40
2.415876284101405
 40
2.44262951748805
 40
2.50148663094918
 40
2.560343744424327
 40
2.5870969778266
 40
2.617068194441027
 40
2.699247336756197
 40
2.822032643466481
 40
2.973822353258039
 40
3.143014704823481
 40
3.31800793688006
 40
3.487200288186894
 40
3.638989997548431
 40
3.76177530379493
 40
3.843954445753265
 40
3.87392566222996
 40
3.890812773500668
 40
3.907699884771846
 40
3.937960767857452
 40
3.980983618142401
 40
4.199085915228583
 40
4.439444339237374
 40
4.677588241261018
 40
5.050698317837904
 40
5.448212454763318
 40
5.855291218044901
 40
6.138575438885614
 40
6.417434507584463
 40
6.444551104394147
 40
6.504207617363448
 40
6.563864130314773
 40
6.590980727104367
 40
6.848609460381771
 40
7.109611990668729
 40
7.352910904446412
 40
7.5578302207058
 40
7.587518925913717
 40
7.652834077376159
 40
7.718149228846142
 40
7.747837934062445
 40
7.854880190301368
 40
7.97651125740389
 40
8.36948789659272
 40
8.75751495922407
 40
9.126072419331532
 40
9.460639380392594
 40
9.746695593036335
 40
9.777569943119113
 40
9.807050320932213
 40
9.830377336129345
 40
9.88600329543642
 40
9.952395569430337
 40
10.00802152870669
 40
10.03134854388261
 40
10.21356951009635
 40
10.42203479292914
 40
10.6615455673111
 40
10.9169378956435
 40
11.15832906556609
 40
11.18982674596666
 40
11.27286608520451
 40
11.39026653033393
 40
11.52484752840929
 40
11.65942852648491
 40
11.77682897161527
 40
11.85986831085726
 40
11.89136598230471
 40
11.89136598230471
 40
11.89136598230471
 40
11.89136598230471
 10
190.7027885008196
 20
14.70699600701772
 30
0.0
 10
190.7028237765288
 20
14.71587847311985
 30
0.0
 10
190.7029366710796
 20
14.74430237047346
 30
0.0
 10
190.7012984568489
 20
14.79409639169803
 30
0.0
 10
190.7069750292911
 20
14.83657564478154
 30
0.0
 10
190.6956928731706
 20
14.88730154856847
 30
0.0
 10
190.7632296979031
 20
14.87012900740109
 30
0.0
 10
190.8388029210701
 20
14.88290227165996
 30
0.0
 10
190.9828357056001
 20
14.87629729457382
 30
0.0
 10
191.1569419185427
 20
14.87888462206466
 30
0.0
 10
191.3639599611003
 20
14.87800591955553
 30
0.0
 10
191.5894688172378
 20
14.87828207920027
 30
0.0
 10
191.8251162293406
 20
14.87818339658662
 30
0.0
 10
192.0607640531349
 20
14.87828184412767
 30
0.0
 10
192.2862717580626
 20
14.87800678190789
 30
0.0
 10
192.4932934632805
 20
14.87888186270734
 30
0.0
 10
192.667388891529
 20
14.87630522678446
 30
0.0
 10
192.8114492071986
 20
14.88288290449213
 30
0.0
 10
192.8869691915294
 20
14.87016243405604
 30
0.0
 10
192.954577603703
 20
14.88726400191687
 30
0.0
 10
192.9430840140677
 20
14.83674785802941
 30
0.0
 10
192.9505104581733
 20
14.79253252226501
 30
0.0
 10
192.9428838927986
 20
14.7486796650361
 30
0.0
 10
192.9546489459426
 20
14.69878374479327
 30
0.0
 10
192.8930788491983
 20
14.71393227712512
 30
0.0
 10
192.8256791738672
 20
14.70310665350673
 30
0.0
 10
192.7013004056222
 20
14.70852031626237
 30
0.0
 10
192.5554428236572
 20
14.70649205390785
 30
0.0
 10
192.3893576440086
 20
14.70715777578387
 30
0.0
 10
192.2188412621725
 20
14.70689643521242
 30
0.0
 10
192.0519790855389
 20
14.70721553391094
 30
0.0
 10
191.9087346827105
 20
14.70635302590762
 30
0.0
 10
191.7773313869834
 20
14.70863300482988
 30
0.0
 10
191.7239859134656
 20
14.70407704374202
 30
0.0
 10
191.6485188456912
 20
14.70999914992877
 30
0.0
 10
191.6769075779232
 20
14.70094169343353
 30
0.0
 10
191.7033652409542
 20
14.6972591226893
 30
0.0
 10
191.6633522907701
 20
14.66654271968277
 30
0.0
 10
191.5713663691869
 20
14.67667591174628
 30
0.0
 10
191.5439396207069
 20
14.43032502247788
 30
0.0
 10
191.4478793967234
 20
14.27499558764375
 30
0.0
 10
191.1917277964473
 20
13.94525417931569
 30
0.0
 10
191.7627537732762
 20
14.08430022210452
 30
0.0
 10
192.0173656320516
 20
14.08291779973363
 30
0.0
 10
192.6279647048618
 20
13.99790569242085
 30
0.0
 10
192.3340698578083
 20
14.29685417558204
 30
0.0
 10
192.0133304286519
 20
14.44330856901778
 30
0.0
 10
192.1313543360433
 20
14.50025540818286
 30
0.0
 10
192.1724716466261
 20
14.52420099873347
 30
0.0
 10
192.2156812394411
 20
14.5459975881123
 30
0.0
 10
192.317457409445
 20
14.60928721253904
 30
0.0
 10
192.4328867625247
 20
14.35147151408781
 30
0.0
 10
192.6329591642278
 20
14.21616041113682
 30
0.0
 10
192.7269077387229
 20
14.03792795138882
 30
0.0
 10
192.9558829746393
 20
13.87997821027048
 30
0.0
 10
192.8596031846708
 20
13.829159725763
 30
0.0
 10
192.8167959763779
 20
13.79881292523053
 30
0.0
 10
192.771824352878
 20
13.77466130281461
 30
0.0
 10
192.7121720925213
 20
13.72552146747569
 30
0.0
 10
192.6789731061326
 20
13.85997475673611
 30
0.0
 10
192.5582013350796
 20
14.01594265286581
 30
0.0
 10
192.1970976005979
 20
13.88569928059556
 30
0.0
 10
191.8385061955541
 20
13.90224694409483
 30
0.0
 10
191.457092045008
 20
13.89331229351864
 30
0.0
 10
191.1703455282891
 20
13.82882671672408
 30
0.0
 10
190.8592055599715
 20
13.94230668192827
 30
0.0
 10
190.8268737818788
 20
13.83122259927767
 30
0.0
 10
190.7896178253318
 20
13.81196313850013
 30
0.0
 10
190.7865737632753
 20
13.85874784087297
 30
0.0
 10
190.7679892860607
 20
13.89806853919135
 30
0.0
 10
190.7512436616778
 20
13.95765983478233
 30
0.0
 10
190.7383730915753
 20
14.00201969871284
 30
0.0
 10
190.7042327806429
 20
14.09106331120202
 30
0.0
 10
190.9482714457754
 20
14.02181042943769
 30
0.0
 10
191.1441394486671
 20
14.00030369057746
 30
0.0
 10
191.2395426381278
 20
14.28226484478462
 30
0.0
 10
191.2945135769597
 20
14.44363045421122
 30
0.0
 10
191.5159619357157
 20
14.71391177589737
 30
0.0
 10
191.3849239381216
 20
14.70548446853735
 30
0.0
 10
191.3110026555854
 20
14.70779008496969
 30
0.0
 10
191.1977459876244
 20
14.70671378321658
 30
0.0
 10
191.0694251807484
 20
14.7070763907651
 30
0.0
 10
190.9404252030415
 20
14.70697724466086
 30
0.0
 10
190.828784094629
 20
14.70699932712572
 30
0.0
 10
190.7514663970026
 20
14.7069957918967
 30
0.0
 10
190.713287653201
 20
14.70699595845081
 30
0.0
 10
190.7027885008196
 20
14.70699600701772
 30
0.0
 11
190.7027885008196
 21
14.70699600701772
 31
0.0
 11
190.7027885008196
 21
14.73374924051797
 31
0.0
 11
190.7027885008196
 21
14.79260635421853
 31
0.0
 11
190.7027885008196
 21
14.85146346791909
 31
0.0
 11
190.7027885008196
 21
14.87821670141935
 31
0.0
 11
190.7355094280989
 21
14.87821670141935
 31
0.0
 11
190.8271280244809
 21
14.87821670141935
 31
0.0
 11
190.9678280117819
 21
14.87821670141935
 31
0.0
 11
191.147793111818
 21
14.87821670141935
 31
0.0
 11
191.3572070464054
 21
14.87821670141935
 31
0.0
 11
191.5862535373604
 21
14.87821670141935
 31
0.0
 11
191.8251163064993
 21
14.87821670141935
 31
0.0
 11
192.0639790756381
 21
14.87821670141935
 31
0.0
 11
192.2930255665931
 21
14.87821670141935
 31
0.0
 11
192.5024395011806
 21
14.87821670141935
 31
0.0
 11
192.6824046012168
 21
14.87821670141935
 31
0.0
 11
192.8231045885177
 21
14.87821670141935
 31
0.0
 11
192.9147231848997
 21
14.87821670141935
 31
0.0
 11
192.947444112179
 21
14.87821670141935
 31
0.0
 11
192.947444112179
 21
14.85146346791909
 31
0.0
 11
192.947444112179
 21
14.79260635421853
 31
0.0
 11
192.947444112179
 21
14.73374924051797
 31
0.0
 11
192.947444112179
 21
14.70699600701772
 31
0.0
 11
192.9174728954758
 21
14.70699600701772
 31
0.0
 11
192.8352937529027
 21
14.70699600701772
 31
0.0
 11
192.712508445764
 21
14.70699600701772
 31
0.0
 11
192.5607187353642
 21
14.70699600701772
 31
0.0
 11
192.3915263830078
 21
14.70699600701772
 31
0.0
 11
192.2165331499991
 21
14.70699600701772
 31
0.0
 11
192.0473407976427
 21
14.70699600701772
 31
0.0
 11
191.8955510872428
 21
14.70699600701772
 31
0.0
 11
191.7727657801042
 21
14.70699600701772
 31
0.0
 11
191.690586637531
 21
14.70699600701772
 31
0.0
 11
191.6606154208279
 21
14.70699600701772
 31
0.0
 11
191.6766359412525
 21
14.70165583340794
 31
0.0
 11
191.6926564616771
 21
14.69631565979815
 31
0.0
 11
191.670615568142
 21
14.67558114591443
 31
0.0
 11
191.6284861855364
 21
14.6668587153611
 31
0.0
 11
191.5365235541377
 21
14.46909247312657
 31
0.0
 11
191.4279078521763
 21
14.25467511978509
 31
0.0
 11
191.3127500824807
 21
14.0462255905162
 31
0.0
 11
191.685736667502
 21
14.05582441253029
 31
0.0
 11
192.083070003615
 21
14.06781232404995
 31
0.0
 11
192.4899342191146
 21
14.08102711828532
 31
0.0
 11
192.2983119496979
 21
14.28966761302481
 31
0.0
 11
192.0966752013698
 21
14.48229420151831
 31
0.0
 11
192.1204947794749
 21
14.49525327269564
 31
0.0
 11
192.1728978513061
 21
14.52376322928576
 31
0.0
 11
192.2253009231374
 21
14.55227318587587
 31
0.0
 11
192.2491205012425
 21
14.5652322570532
 31
0.0
 11
192.4387101558627
 21
14.39079508370268
 31
0.0
 11
192.6200310940436
 21
14.20305846374091
 31
0.0
 11
192.7777729231148
 21
14.01782380992436
 31
0.0
 11
192.8966252504059
 21
13.85089253500949
 31
0.0
 11
192.8715408217924
 21
13.83501202286069
 31
0.0
 11
192.8163550788426
 21
13.80007489613332
 31
0.0
 11
192.7611693358928
 21
13.76513776940596
 31
0.0
 11
192.7360849072793
 21
13.74925725725716
 31
0.0
 11
192.6775518151613
 21
13.8388782468181
 31
0.0
 11
192.6050015078458
 21
13.93650288221032
 31
0.0
 11
192.2125412924095
 21
13.91636286943759
 31
0.0
 11
191.824947406956
 21
13.89803302999773
 31
0.0
 11
191.4567378976213
 21
13.88202178722395
 31
0.0
 11
191.1224308105412
 21
13.86883756444947
 31
0.0
 11
190.8365441918518
 21
13.8589887850075
 31
0.0
 11
190.821186232174
 21
13.83220523466695
 31
0.0
 11
190.7937434290546
 21
13.82143559057245
 31
0.0
 11
190.7867927192319
 21
13.84370299445577
 31
0.0
 11
190.7702179496548
 21
13.89680218833139
 31
0.0
 11
190.7504351601596
 21
13.96017864553777
 31
0.0
 11
190.7338603905825
 21
14.01327783941338
 31
0.0
 11
190.7269096807598
 21
14.0355452432967
 31
0.0
 11
190.9091199859153
 21
14.03751638912952
 31
0.0
 11
191.1174975848588
 21
14.04356211829472
 31
0.0
 11
191.2303203127216
 21
14.25483550301554
 31
0.0
 11
191.3407936722035
 21
14.48509813155879
 31
0.0
 11
191.4358254265627
 21
14.70699600701772
 31
0.0
 11
191.4043277461597
 21
14.70699600701772
 31
0.0
 11
191.3212884069153
 21
14.70699600701772
 31
0.0
 11
191.2038879617768
 21
14.70699600701772
 31
0.0
 11
191.0693069636912
 21
14.70699600701772
 31
0.0
 11
190.9347259656055
 21
14.70699600701772
 31
0.0
 11
190.817325520467
 21
14.70699600701772
 31
0.0
 11
190.7342861812226
 21
14.70699600701772
 31
0.0
 11
190.7027885008196
 21
14.70699600701772
 31
0.0
  0
SPLINE
  5
AA
102
{ACAD_REACTORS
330
C7
102
}
330
48
100
AcDbEntity
  8
_U_30EC_U_30A4_U_30E4_U_30FC_1
  6
Continuous
 62
     2
100
AcDbSpline
210
0.0
220
0.0
230
1.0
 70
    11
 71
     3
 72
    35
 73
    31
 74
    29
 42
0.000000001
 43
0.0000000001
 44
0.00000001
 40
0.0
 40
0.0
 40
0.0
 40
0.0
 40
0.0335231036620645
 40
0.0713218571712051
 40
0.4278866681487029
 40
0.8116865841964049
 40
1.198190238000062
 40
1.561379546812689
 40
1.659983174622065
 40
1.759315573807201
 40
2.132719617231062
 40
2.525233363588789
 40
2.910815397779697
 40
3.265244364303288
 40
3.592606723582026
 40
3.964386154603971
 40
4.359942131737791
 40
4.758154118639301
 40
4.843846538699911
 40
4.936650065543179
 40
5.256616602537233
 40
5.58170740441592
 40
5.899719158308057
 40
6.198363494280625
 40
6.466301046615655
 40
6.493895311536977
 40
6.559697020196769
 40
6.638234543442344
 40
6.704036252154097
 40
6.731630508422903
 40
6.731630508422903
 40
6.731630508422903
 40
6.731630508422903
 10
191.9736010568669
 20
16.23463843719134
 30
0.0
 10
191.9676006097789
 20
16.22480690542323
 30
0.0
 10
191.9548344099157
 20
16.20388988579798
 30
0.0
 10
191.7949362006554
 20
16.17127126532689
 30
0.0
 10
192.2322025842337
 20
15.88206680336702
 30
0.0
 10
192.4345394828262
 20
15.68041138358439
 30
0.0
 10
192.6819564267973
 20
15.43749387603277
 30
0.0
 10
193.1831513624606
 20
15.36047662757777
 30
0.0
 10
193.012556219897
 20
15.21876939174656
 30
0.0
 10
192.9383299463201
 20
15.01710366209108
 30
0.0
 10
192.6131432248188
 20
15.36956287174726
 30
0.0
 10
192.3277741670664
 20
15.53175212559564
 30
0.0
 10
192.0337604077658
 20
15.73687130053045
 30
0.0
 10
191.8084452691134
 20
16.21827488595455
 30
0.0
 10
191.5993085055522
 20
15.75343046609223
 30
0.0
 10
191.3207873674833
 20
15.54350952252912
 30
0.0
 10
191.0371383177209
 20
15.37424456359985
 30
0.0
 10
190.7078639527831
 20
15.00142360907938
 30
0.0
 10
190.6277012318224
 20
15.19708014458999
 30
0.0
 10
190.4759724909745
 20
15.32491104190602
 30
0.0
 10
190.9083395826796
 20
15.40454031765933
 30
0.0
 10
191.0962565329766
 20
15.60026634915478
 30
0.0
 10
191.3468477420503
 20
15.81632996916752
 30
0.0
 10
191.5714350470161
 20
15.98190992300062
 30
0.0
 10
191.6259775409712
 20
16.26133964636826
 30
0.0
 10
191.7494661029011
 20
16.24737950408079
 30
0.0
 10
191.806027334452
 20
16.24521268867647
 30
0.0
 10
191.8761870984944
 20
16.2404685988136
 30
0.0
 10
191.9333414022105
 20
16.23709429350541
 30
0.0
 10
191.9644190320839
 20
16.23519854711119
 30
0.0
 10
191.9736010568669
 20
16.23463843719134
 30
0.0
 11
191.9736010568669
 21
16.23463843719134
 31
0.0
 11
191.9525319069884
 21
16.20856374969785
 31
0.0
 11
191.9174464559425
 21
16.19450114553469
 31
0.0
 11
192.1512374769094
 21
15.92527961131382
 31
0.0
 11
192.4414585957566
 21
15.6741340796926
 31
0.0
 11
192.7612797483684
 21
15.45710987618784
 31
0.0
 11
193.0838708706289
 21
15.29025232631638
 31
0.0
 11
193.0213299868076
 21
15.21402035584928
 31
0.0
 11
192.9688035818975
 21
15.12971197913424
 31
0.0
 11
192.6436279095814
 21
15.3132640483158
 31
0.0
 11
192.3237227768436
 21
15.54070139743428
 31
0.0
 11
192.0354200158608
 21
15.79673855123309
 31
0.0
 11
191.8050514588095
 21
16.06609003445566
 31
0.0
 11
191.5995531719516
 21
15.81126348721036
 31
0.0
 11
191.3288301341535
 21
15.55645182277756
 31
0.0
 11
191.0119538423246
 21
15.31969466354857
 31
0.0
 11
190.6679957933741
 21
15.11903163191467
 31
0.0
 11
190.6218855341338
 21
15.19126067703554
 31
0.0
 11
190.5636970460349
 21
15.26355586798967
 31
0.0
 11
190.8433040489015
 21
15.41911456961745
 31
0.0
 11
191.1093004621154
 21
15.60601009790405
 31
0.0
 11
191.3499997459747
 21
15.81384496285209
 31
0.0
 11
191.5537153607774
 21
16.03222167446416
 31
0.0
 11
191.7087607668218
 21
16.25074274274287
 31
0.0
 11
191.7363041569865
 21
16.24906789496551
 31
0.0
 11
191.8019845489177
 21
16.24507402718873
 31
0.0
 11
191.880377274771
 21
16.24030715274548
 31
0.0
 11
191.9460576667022
 21
16.2363132849687
 31
0.0
 11
191.9736010568669
 21
16.23463843719134
 31
0.0
  0
SPLINE
  5
AB
102
{ACAD_REACTORS
330
C8
102
}
330
48
100
AcDbEntity
  8
_U_30EC_U_30A4_U_30E4_U_30FC_1
  6
Continuous
 62
     2
100
AcDbSpline
210
0.0
220
0.0
230
1.0
 70
    11
 71
     3
 72
    15
 73
    11
 74
     9
 42
0.000000001
 43
0.0000000001
 44
0.00000001
 40
0.0
 40
0.0
 40
0.0
 40
0.0
 40
0.2785535985096117
 40
0.5215624748198833
 40
0.6076917376040882
 40
0.6938210001741824
 40
0.9405019146455637
 40
1.221691403489198
 40
1.300471877081137
 40
1.379252341684945
 40
1.379252341684945
 40
1.379252341684945
 40
1.379252341684945
 10
189.5681493631
 20
16.22930267330381
 30
0.0
 10
189.6296017794179
 20
16.17691646592716
 30
0.0
 10
189.7446649974113
 20
16.07882876798219
 30
0.0
 10
190.0397348497245
 20
15.92889785897219
 30
0.0
 10
189.9025147631856
 20
15.84343227515015
 30
0.0
 10
189.8041227843778
 20
15.71085785201556
 30
0.0
 10
189.7130033590649
 20
16.01616985781419
 30
0.0
 10
189.3636839480654
 20
16.07967869465376
 30
0.0
 10
189.5119258376571
 20
16.17896509880879
 30
0.0
 10
189.5494081874237
 20
16.21252348402383
 30
0.0
 10
189.5681493631
 20
16.22930267330381
 30
0.0
 11
189.5681493631
 21
16.22930267330381
 31
0.0
 11
189.7919222440596
 21
16.06341774278972
 31
0.0
 11
189.9695046306384
 21
15.89753281227564
 31
0.0
 11
189.9066308127979
 21
15.83866743034592
 31
0.0
 11
189.8437569949575
 21
15.7798020484162
 31
0.0
 11
189.6688535117725
 21
15.95375677059491
 31
0.0
 11
189.447825685614
 21
16.12757920110703
 31
0.0
 11
189.507987524357
 21
16.17844093720542
 31
0.0
 11
189.5681493631
 21
16.22930267330381
 31
0.0
  0
SPLINE
  5
AC
102
{ACAD_REACTORS
330
C9
102
}
330
48
100
AcDbEntity
  8
_U_30EC_U_30A4_U_30E4_U_30FC_1
  6
Continuous
 62
     2
100
AcDbSpline
210
0.0
220
0.0
230
1.0
 70
    11
 71
     3
 72
    75
 73
    71
 74
    69
 42
0.000000001
 43
0.0000000001
 44
0.00000001
 40
0.0
 40
0.0
 40
0.0
 40
0.0
 40
0.0342546099129691
 40
0.1245622414432346
 40
0.2522385480897536
 40
0.398599192294068
 40
0.5449598364980839
 40
0.6726361431438834
 40
0.7629437746736978
 40
0.797198393529799
 40
1.101723623449666
 40
1.40859124403667
 40
1.433332471690374
 40
1.487763172450169
 40
1.542193873081994
 40
1.566935100592542
 40
1.923523931821855
 40
2.271755704953656
 40
2.590579755100899
 40
2.858943305581158
 40
2.889120339309153
 40
2.918305855191071
 40
2.941366645531194
 40
2.996357760973098
 40
3.061992318140665
 40
3.116983433626866
 40
3.140044223997545
 40
3.411273122936463
 40
3.732441619741128
 40
3.761068217532826
 40
3.837787499630388
 40
3.948858699126025
 40
4.0805410491044
 40
4.219093782625783
 40
4.350776132722332
 40
4.461847332405665
 40
4.538566614678396
 40
4.567193212544642
 40
4.5949075739989
 40
4.666381453557439
 40
4.764111044011021
 40
4.870592538125824
 40
4.968322128642218
 40
5.039796008286932
 40
5.067510369784363
 40
5.094263603185577
 40
5.153120716668218
 40
5.211977830150668
 40
5.238731063551675
 40
5.272290535138942
 40
5.363380529444746
 40
5.497618415781452
 40
5.660621563453666
 40
5.838007341749367
 40
6.015393119910747
 40
6.178396267038344
 40
6.312634151842324
 40
6.403724143059313
 40
6.437283612672409
 40
6.464036846261027
 40
6.522893960004647
 40
6.581751071483915
 40
6.608504301590863
 40
6.637253941281011
 40
6.711397748902891
 40
6.812778057283503
 40
6.92323719924928
 40
7.024617507623923
 40
7.098761315207633
 40
7.127510946007583
 40
7.127510946007583
 40
7.127510946007583
 40
7.127510946007583
 10
188.4418622390564
 20
14.95849128473263
 30
0.0
 10
188.4418622819707
 20
14.94707313408719
 30
0.0
 10
188.4418624481129
 20
14.90555257842628
 30
0.0
 10
188.4418593081786
 20
14.8214692200377
 30
0.0
 10
188.4418788279801
 20
14.70004497322327
 30
0.0
 10
188.4417912187737
 20
14.55980494047446
 30
0.0
 10
188.442111623523
 20
14.42006556794575
 30
0.0
 10
188.441160590974
 20
14.29745038894928
 30
0.0
 10
188.4431978595967
 20
14.21587074438042
 30
0.0
 10
188.4349433178745
 20
14.06271267077696
 30
0.0
 10
188.74307979409
 20
14.22560236054722
 30
0.0
 10
189.0350645173737
 20
14.39482938688003
 30
0.0
 10
189.0408354448707
 20
14.25973235781911
 30
0.0
 10
189.0455471719891
 20
14.21617221160445
 30
0.0
 10
189.0482535411917
 20
14.17211249350545
 30
0.0
 10
189.0672545672961
 20
14.02272590363136
 30
0.0
 10
188.6583942247302
 20
14.08681172241261
 30
0.0
 10
188.3793710348832
 20
13.97296341411018
 30
0.0
 10
188.1018081587166
 20
13.87364095811138
 30
0.0
 10
187.80998371844
 20
13.91630687596362
 30
0.0
 10
187.7869144678658
 20
13.81321679744539
 30
0.0
 10
187.7537474383334
 20
13.7869109124447
 30
0.0
 10
187.7480653962739
 20
13.83455309036305
 30
0.0
 10
187.7284214559044
 20
13.87180336115069
 30
0.0
 10
187.7095089485623
 20
13.93007387847564
 30
0.0
 10
187.6942849867707
 20
13.97385201007805
 30
0.0
 10
187.6477246372937
 20
14.08759421046313
 30
0.0
 10
187.9890897312449
 20
14.05576301120046
 30
0.0
 10
188.2679649367388
 20
14.02161435106479
 30
0.0
 10
188.2617753034906
 20
14.16913976479652
 30
0.0
 10
188.2630935452774
 20
14.24013150908832
 30
0.0
 10
188.2624831689948
 20
14.34719767958661
 30
0.0
 10
188.2625871570725
 20
14.47398529785997
 30
0.0
 10
188.2629987964055
 20
14.6084924349605
 30
0.0
 10
188.2613907841969
 20
14.73395549951183
 30
0.0
 10
188.2659902567925
 20
14.84505246719117
 30
0.0
 10
188.256418650221
 20
14.90761886800687
 30
0.0
 10
188.2704001783691
 20
14.96595388295
 30
0.0
 10
188.2147384386705
 20
14.95289710582237
 30
0.0
 10
188.1575655197822
 20
14.96136307749498
 30
0.0
 10
188.0616048925647
 20
14.95729976080635
 30
0.0
 10
187.9633767522822
 20
14.95970889852473
 30
0.0
 10
187.8672582457561
 20
14.95551600613387
 30
0.0
 10
187.8104648525812
 20
14.96429346441162
 30
0.0
 10
187.7550356873385
 20
14.9509493685012
 30
0.0
 10
187.7670679427918
 20
15.00036910959256
 30
0.0
 10
187.7592003173937
 20
15.04393988030395
 30
0.0
 10
187.766629556383
 20
15.08830469118525
 30
0.0
 10
187.7551930564144
 20
15.13902297763992
 30
0.0
 10
187.8232102370134
 20
15.12162460757743
 30
0.0
 10
187.8968496879747
 20
15.13417450237189
 30
0.0
 10
188.0325064058211
 20
15.12799677011096
 30
0.0
 10
188.1884909024526
 20
15.13029203093085
 30
0.0
 10
188.3615926358144
 20
15.1294096826253
 30
0.0
 10
188.5346942964182
 20
15.13029207142408
 30
0.0
 10
188.6906789811218
 20
15.1279966295555
 30
0.0
 10
188.8263351889798
 20
15.13417486262431
 30
0.0
 10
188.8999756705653
 20
15.12162394218335
 30
0.0
 10
188.9679914174724
 20
15.13902373012143
 30
0.0
 10
188.9565590885923
 20
15.08830130414555
 30
0.0
 10
188.9639539458297
 20
15.04397060811107
 30
0.0
 10
188.9562039912272
 20
15.00028307550195
 30
0.0
 10
188.9681203741877
 20
14.95063590098476
 30
0.0
 10
188.9108170223618
 20
14.96461411338425
 30
0.0
 10
188.8520145789773
 20
14.95539755673252
 30
0.0
 10
188.75252936332
 20
14.95952268164929
 30
0.0
 10
188.649428009835
 20
14.95822760025886
 30
0.0
 10
188.5537846354574
 20
14.9585407707764
 30
0.0
 10
188.4857467971617
 20
14.95848776697143
 30
0.0
 10
188.4514462213443
 20
14.95849051871655
 30
0.0
 10
188.4418622390564
 20
14.95849128473263
 30
0.0
 11
188.4418622390564
 21
14.95849128473263
 31
0.0
 11
188.4418622390564
 21
14.92423666587184
 31
0.0
 11
188.4418622390564
 21
14.83392903432974
 31
0.0
 11
188.4418622390564
 21
14.70625272766678
 31
0.0
 11
188.4418622390564
 21
14.55989208344339
 31
0.0
 11
188.4418622390564
 21
14.41353143921999
 31
0.0
 11
188.4418622390564
 21
14.28585513255703
 31
0.0
 11
188.4418622390564
 21
14.19554750101493
 31
0.0
 11
188.4418622390564
 21
14.16129288215414
 31
0.0
 11
188.7391932644567
 21
14.22709475713769
 31
0.0
 11
189.0384623627245
 21
14.29496038212072
 31
0.0
 11
189.0405487124976
 21
14.27030727882828
 31
0.0
 11
189.0451386819987
 21
14.2160704515849
 31
0.0
 11
189.0497286514996
 21
14.16183362434152
 31
0.0
 11
189.0518150012728
 21
14.13718052104908
 31
0.0
 11
188.705639688924
 21
14.05163370140898
 31
0.0
 11
188.3669653138838
 21
13.97060877629901
 31
0.0
 11
188.0563731516688
 21
13.89862764024928
 31
0.0
 11
187.7944444777955
 21
13.8402121877899
 31
0.0
 11
187.7817515029292
 21
13.81283442738012
 31
0.0
 11
187.7569794787514
 21
13.79740260446735
 31
0.0
 11
187.7491867589502
 21
13.81910683390636
 31
0.0
 11
187.7306041194242
 21
13.87086307333786
 31
0.0
 11
187.70842483999
 21
13.93263664943352
 31
0.0
 11
187.689842200464
 21
13.98439288886502
 31
0.0
 11
187.6820494806628
 21
14.00609711830403
 31
0.0
 11
187.9482776335931
 21
14.05794001759666
 31
0.0
 11
188.2626334936289
 21
14.1237396877191
 31
0.0
 11
188.2626334936289
 21
14.15236628569624
 31
0.0
 11
188.2626334936289
 21
14.22908556827499
 31
0.0
 11
188.2626334936289
 21
14.34015676842631
 31
0.0
 11
188.2626334936289
 21
14.47183911912117
 31
0.0
 11
188.2626334936289
 21
14.61039185333055
 31
0.0
 11
188.2626334936289
 21
14.74207420402542
 31
0.0
 11
188.2626334936289
 21
14.85314540417674
 31
0.0
 11
188.2626334936289
 21
14.92986468675549
 31
0.0
 11
188.2626334936289
 21
14.95849128473263
 31
0.0
 11
188.2349191321108
 21
14.95849128473263
 31
0.0
 11
188.1634452524063
 21
14.95849128473263
 31
0.0
 11
188.0657156617901
 21
14.95849128473263
 31
0.0
 11
187.9592341675364
 21
14.95849128473263
 31
0.0
 11
187.8615045769201
 21
14.95849128473263
 31
0.0
 11
187.7900306972156
 21
14.95849128473263
 31
0.0
 11
187.7623163356976
 21
14.95849128473263
 31
0.0
 11
187.7623163356976
 21
14.98524451823288
 31
0.0
 11
187.7623163356976
 21
15.04410163193344
 31
0.0
 11
187.7623163356976
 21
15.10295874563399
 31
0.0
 11
187.7623163356976
 21
15.12971197913424
 31
0.0
 11
187.7958758072876
 21
15.12971197913424
 31
0.0
 11
187.8869658016031
 21
15.12971197913424
 31
0.0
 11
188.021203687963
 21
15.12971197913424
 31
0.0
 11
188.1842068356856
 21
15.12971197913424
 31
0.0
 11
188.3615926140897
 21
15.12971197913424
 31
0.0
 11
188.5389783924938
 21
15.12971197913424
 31
0.0
 11
188.7019815402165
 21
15.12971197913424
 31
0.0
 11
188.8362194265763
 21
15.12971197913424
 31
0.0
 11
188.9273094208919
 21
15.12971197913424
 31
0.0
 11
188.9608688924819
 21
15.12971197913424
 31
0.0
 11
188.9608688924819
 21
15.10295874563399
 31
0.0
 11
188.9608688924819
 21
15.04410163193343
 31
0.0
 11
188.9608688924819
 21
14.98524451823288
 31
0.0
 11
188.9608688924819
 21
14.95849128473263
 31
0.0
 11
188.9321192527878
 21
14.95849128473263
 31
0.0
 11
188.8579754451555
 21
14.95849128473263
 31
0.0
 11
188.7565951367605
 21
14.95849128473263
 31
0.0
 11
188.6461359947778
 21
14.95849128473263
 31
0.0
 11
188.5447556863828
 21
14.95849128473263
 31
0.0
 11
188.4706118787505
 21
14.95849128473263
 31
0.0
 11
188.4418622390564
 21
14.95849128473263
 31
0.0
  0
SPLINE
  5
AD
102
{ACAD_REACTORS
330
CA
102
}
330
48
100
AcDbEntity
  8
_U_30EC_U_30A4_U_30E4_U_30FC_1
  6
Continuous
 62
     2
100
AcDbSpline
210
0.0
220
0.0
230
1.0
 70
    11
 71
     3
 72
    91
 73
    87
 74
    85
 42
0.000000001
 43
0.0000000001
 44
0.00000001
 40
0.0
 40
0.0
 40
0.0
 40
0.0
 40
0.0345987051695718
 40
0.1258134969461369
 40
0.2547723404888987
 40
0.4026032099154125
 40
0.5504340793416704
 40
0.679392922883608
 40
0.7706077146571035
 40
0.8052064287780925
 40
1.124852390615281
 40
1.427402236308882
 40
1.706356627453523
 40
1.955541417875208
 40
2.169485938566353
 40
2.344350786664823
 40
2.480568411561953
 40
2.590440557428948
 40
2.6491899271511
 40
2.749320643306299
 40
2.912632739880006
 40
3.147745656000209
 40
3.2448274963851
 40
3.338490056946692
 40
3.583815413207119
 40
3.761423943238479
 40
3.886956104362643
 40
3.985855451886803
 40
4.091766255337688
 40
4.250186473811881
 40
4.422734315084526
 40
4.628285684838619
 40
4.872093227758451
 40
5.152549652145562
 40
5.464967135837539
 40
5.803201477852454
 40
6.160362988813931
 40
6.193449448276015
 40
6.284170385501669
 40
6.419718138764511
 40
6.587285046385789
 40
6.774063446723675
 40
6.967245678113658
 40
7.154024078817672
 40
7.321590987026029
 40
7.457138740890388
 40
7.547859678556124
 40
7.580946138182684
 40
7.608533084714734
 40
7.669224367077701
 40
7.729915649429913
 40
7.75750259594996
 40
7.790278062553442
 40
7.880146277430912
 40
8.014419963180346
 40
8.180411842397847
 40
8.365434637679316
 40
8.556801071622589
 40
8.741823866830673
 40
8.90781574591624
 40
9.042089431507337
 40
9.131957646249463
 40
9.16473311279704
 40
9.415425063139974
 40
9.667986180958444
 40
9.694169807462611
 40
9.75660768604757
 40
9.831130315322376
 40
9.89356819389984
 40
9.919751820398657
 40
9.950967964690495
 40
9.996421631210604
 40
10.22087981037449
 40
10.44341866197539
 40
10.47847970788851
 40
10.57091337438752
 40
10.70159545461226
 40
10.85140174170357
 40
11.00120802880474
 40
11.13189010907379
 40
11.22432377583007
 40
11.25938480938953
 40
11.28697175596141
 40
11.34766303835915
 40
11.40835432042064
 40
11.43594125892099
 40
11.43594125892099
 40
11.43594125892099
 40
11.43594125892099
 10
190.0818114333289
 20
15.55242795125078
 30
0.0
 10
190.0702785844941
 20
15.55242790287916
 30
0.0
 10
190.0283409444998
 20
15.55242773704165
 30
0.0
 10
189.9434129719026
 20
15.5524312580091
 30
0.0
 10
189.8207688553128
 20
15.55240926435879
 30
0.0
 10
189.6791206916993
 20
15.55250801177055
 30
0.0
 10
189.537975369849
 20
15.55214686232421
 30
0.0
 10
189.4141351317904
 20
15.5532188360909
 30
0.0
 10
189.3317217825382
 20
15.55092249091269
 30
0.0
 10
189.1727791229692
 20
15.56048569373421
 30
0.0
 10
189.3503402353376
 20
15.19785394311371
 30
0.0
 10
189.3379739205453
 20
14.95243127723115
 30
0.0
 10
189.4064519473864
 20
14.66862501324835
 30
0.0
 10
189.469302432097
 20
14.43250999939036
 30
0.0
 10
189.5452253431729
 20
14.23326740396128
 30
0.0
 10
189.6303189577017
 20
14.07745347451375
 30
0.0
 10
189.7244607592936
 20
13.97657857781392
 30
0.0
 10
189.8282648207727
 20
13.92465852638965
 30
0.0
 10
189.9125872030774
 20
13.97606484379617
 30
0.0
 10
189.9351322179451
 20
14.09144544037516
 30
0.0
 10
189.9745730975371
 20
14.2188514970238
 30
0.0
 10
189.9202919734943
 20
14.53622328086756
 30
0.0
 10
190.0451218072473
 20
14.38982180140905
 30
0.0
 10
190.2019291513603
 20
14.35795300331171
 30
0.0
 10
190.0947720007057
 20
14.12421357767628
 30
0.0
 10
190.0808711209867
 20
13.95972776583656
 30
0.0
 10
190.0234709467225
 20
13.83130869122483
 30
0.0
 10
189.9335020145008
 20
13.76018802352826
 30
0.0
 10
189.8095274657877
 20
13.74432324142254
 30
0.0
 10
189.663427319686
 20
13.77993797554171
 30
0.0
 10
189.5243894320284
 20
13.90000570500277
 30
0.0
 10
189.4102003962144
 20
14.0743568255032
 30
0.0
 10
189.3146141301486
 20
14.2994660311124
 30
0.0
 10
189.2318652572625
 20
14.56388246006442
 30
0.0
 10
189.1807179256412
 20
14.88187933098543
 30
0.0
 10
189.077018920734
 20
15.15543728488914
 30
0.0
 10
189.2042841208519
 20
15.56005818612868
 30
0.0
 10
189.035789062302
 20
15.5511236784968
 30
0.0
 10
188.9511995787077
 20
15.55315961418364
 30
0.0
 10
188.8189876387628
 20
15.55213937388407
 30
0.0
 10
188.6560505094104
 20
15.5525323031843
 30
0.0
 10
188.4733759170534
 20
15.55235696313369
 30
0.0
 10
188.2847057373383
 20
15.55260105307469
 30
0.0
 10
188.101446902019
 20
15.55185657906238
 30
0.0
 10
187.9404746832718
 20
15.55416360522426
 30
0.0
 10
187.8029808335277
 20
15.54799804883663
 30
0.0
 10
187.7289590372311
 20
15.56032838458212
 30
0.0
 10
187.6613215186858
 20
15.54329323723557
 30
0.0
 10
187.673237371927
 20
15.59524438447528
 30
0.0
 10
187.6655677285694
 20
15.64071424966529
 30
0.0
 10
187.6732592225116
 20
15.68614453703704
 30
0.0
 10
187.6613141797762
 20
15.73802395984569
 30
0.0
 10
187.7283588305868
 20
15.72119143490262
 30
0.0
 10
187.8017375665677
 20
15.73335409092669
 30
0.0
 10
187.9379128305273
 20
15.72727231074956
 30
0.0
 10
188.0973811801513
 20
15.72954834315056
 30
0.0
 10
188.2789173085837
 20
15.72881233998961
 30
0.0
 10
188.4658034862179
 20
15.72905954196131
 30
0.0
 10
188.6468012316836
 20
15.72886400799252
 30
0.0
 10
188.8080802578879
 20
15.72932234714837
 30
0.0
 10
188.9393882124887
 20
15.72812673751204
 30
0.0
 10
189.0225051322596
 20
15.73051347319741
 30
0.0
 10
189.1556236547814
 20
15.72230605725462
 30
0.0
 10
189.0645893502659
 20
15.97752868952654
 30
0.0
 10
188.9789633074419
 20
16.24164358328246
 30
0.0
 10
189.0990589003455
 20
16.22904442969165
 30
0.0
 10
189.1514264948544
 20
16.22694235763075
 30
0.0
 10
189.2214497569715
 20
16.22535399889657
 30
0.0
 10
189.2671922337817
 20
16.21602567538113
 30
0.0
 10
189.3220812646933
 20
16.22545966915427
 30
0.0
 10
189.2963574785681
 20
16.17733028655172
 30
0.0
 10
189.1825397571453
 20
16.18266829744168
 30
0.0
 10
189.3159346621135
 20
15.95449174576775
 30
0.0
 10
189.1943658735472
 20
15.72156856595921
 30
0.0
 10
189.3223188769413
 20
15.73087258884437
 30
0.0
 10
189.4049048406461
 20
15.72801001754678
 30
0.0
 10
189.5307214850824
 20
15.729234374123
 30
0.0
 10
189.6741469838058
 20
15.72932431888962
 30
0.0
 10
189.8157420951728
 20
15.72746163183851
 30
0.0
 10
189.9459127249968
 20
15.73333075937161
 30
0.0
 10
190.019345228619
 20
15.72070340823201
 30
0.0
 10
190.0891112922097
 20
15.7387756311041
 30
0.0
 10
190.0775772605396
 20
15.68612850546325
 30
0.0
 10
190.0833184346683
 20
15.64221317686548
 30
0.0
 10
190.081661577091
 20
15.59089982676548
 30
0.0
 10
190.081775756167
 20
15.56158792021635
 30
0.0
 10
190.0818114333289
 20
15.55242795125078
 30
0.0
 11
190.0818114333289
 21
15.55242795125078
 31
0.0
 11
190.0472127192051
 21
15.55242795125078
 31
0.0
 11
189.9559979274241
 21
15.55242795125078
 31
0.0
 11
189.8270390838717
 21
15.55242795125078
 31
0.0
 11
189.6792082144335
 21
15.55242795125078
 31
0.0
 11
189.5313773449954
 21
15.55242795125078
 31
0.0
 11
189.402418501443
 21
15.55242795125078
 31
0.0
 11
189.311203709662
 21
15.55242795125078
 31
0.0
 11
189.2766049955382
 21
15.55242795125078
 31
0.0
 11
189.3083140497693
 21
15.23435864930121
 31
0.0
 11
189.3527866656866
 21
14.93509522788081
 31
0.0
 11
189.409238911832
 21
14.66191269512576
 31
0.0
 11
189.4768868567478
 21
14.42208605917227
 31
0.0
 11
189.5549465689762
 21
14.22289032815655
 31
0.0
 11
189.6426341170592
 21
14.07160051021478
 31
0.0
 11
189.7391655695389
 21
13.97549161348317
 31
0.0
 11
189.8437569949575
 21
13.94183864609792
 31
0.0
 11
189.8943077302786
 21
13.97177376978835
 31
0.0
 11
189.9310588991551
 21
14.06491619815047
 31
0.0
 11
189.9562640977528
 21
14.22627151712054
 31
0.0
 11
189.9721769222368
 21
14.46084531263482
 31
0.0
 11
190.0494082682583
 21
14.40202182306618
 31
0.0
 11
190.1327184184385
 21
14.3592188543269
 31
0.0
 11
190.1066365811217
 21
14.1152838866101
 31
0.0
 11
190.0673317805105
 21
13.94207902887562
 31
0.0
 11
190.0105702596765
 21
13.83011272445917
 31
0.0
 11
189.932118261691
 21
13.76989341669645
 31
0.0
 11
189.8277420296256
 21
13.75192954892317
 31
0.0
 11
189.6738595065097
 21
13.78957440012361
 31
0.0
 11
189.5388902376747
 21
13.89707348877403
 31
0.0
 11
189.4221739916163
 21
14.06627361744808
 31
0.0
 11
189.32305053683
 21
14.28902158871943
 31
0.0
 11
189.2408596418113
 21
14.55716420516172
 31
0.0
 11
189.1749410750559
 21
14.8625482693486
 31
0.0
 11
189.1246346050594
 21
15.19702058385374
 31
0.0
 11
189.0892800003172
 21
15.55242795125078
 31
0.0
 11
189.0561935405844
 21
15.55242795125078
 31
0.0
 11
188.9654726026075
 21
15.55242795125078
 31
0.0
 11
188.8299248482186
 21
15.55242795125078
 31
0.0
 11
188.6623579392495
 21
15.55242795125078
 31
0.0
 11
188.4755795375324
 21
15.55242795125078
 31
0.0
 11
188.2823973048993
 21
15.55242795125078
 31
0.0
 11
188.0956189031822
 21
15.55242795125078
 31
0.0
 11
187.9280519942132
 21
15.55242795125078
 31
0.0
 11
187.7925042398242
 21
15.55242795125078
 31
0.0
 11
187.7017833018473
 21
15.55242795125078
 31
0.0
 11
187.6686968421146
 21
15.55242795125078
 31
0.0
 11
187.6686968421146
 21
15.58001489785847
 31
0.0
 11
187.6686968421146
 21
15.64070618039537
 31
0.0
 11
187.6686968421146
 21
15.70139746293228
 31
0.0
 11
187.6686968421146
 21
15.72898440953996
 31
0.0
 11
187.7014723087632
 21
15.72898440953996
 31
0.0
 11
187.7913405237674
 21
15.72898440953996
 31
0.0
 11
187.9256142097149
 21
15.72898440953996
 31
0.0
 11
188.0916060891932
 21
15.72898440953996
 31
0.0
 11
188.2766288847902
 21
15.72898440953996
 31
0.0
 11
188.4679953190932
 21
15.72898440953996
 31
0.0
 11
188.6530181146902
 21
15.72898440953996
 31
0.0
 11
188.8190099941685
 21
15.72898440953996
 31
0.0
 11
188.953283680116
 21
15.72898440953996
 31
0.0
 11
189.0431518951202
 21
15.72898440953996
 31
0.0
 11
189.0759273617688
 21
15.72898440953996
 31
0.0
 11
189.0659183950103
 21
15.97947647544958
 31
0.0
 11
189.0599112510663
 21
16.23196614552531
 31
0.0
 11
189.0860575870659
 21
16.23056921608122
 31
0.0
 11
189.1484065421419
 21
16.22723807663761
 31
0.0
 11
189.2228230369099
 21
16.22326220052749
 31
0.0
 11
189.2851719919859
 21
16.21993106108388
 31
0.0
 11
189.3113183279855
 21
16.21853413163979
 31
0.0
 11
189.298293111304
 21
16.19016528616079
 31
0.0
 11
189.2551649266405
 21
16.17581274276164
 31
0.0
 11
189.2574991961821
 21
15.95136670115108
 31
0.0
 11
189.2658452735903
 21
15.72898440953996
 31
0.0
 11
189.3009063195165
 21
15.72898440953996
 31
0.0
 11
189.3933399860495
 21
15.72898440953996
 31
0.0
 11
189.5240220663201
 21
15.72898440953996
 31
0.0
 11
189.6738283534596
 21
15.72898440953996
 31
0.0
 11
189.8236346405991
 21
15.72898440953996
 31
0.0
 11
189.9543167208697
 21
15.72898440953996
 31
0.0
 11
190.0467503874027
 21
15.72898440953996
 31
0.0
 11
190.0818114333289
 21
15.72898440953996
 31
0.0
 11
190.0818114333289
 21
15.70139746293228
 31
0.0
 11
190.0818114333289
 21
15.64070618039537
 31
0.0
 11
190.0818114333289
 21
15.58001489785847
 31
0.0
 11
190.0818114333289
 21
15.55242795125078
 31
0.0
  0
SPLINE
  5
AE
102
{ACAD_REACTORS
330
CB
102
}
330
48
100
AcDbEntity
  8
_U_30EC_U_30A4_U_30E4_U_30FC_1
  6
Continuous
 62
     2
100
AcDbSpline
210
0.0
220
0.0
230
1.0
 70
    11
 71
     3
 72
   118
 73
   114
 74
   112
 42
0.000000001
 43
0.0000000001
 44
0.00000001
 40
0.0
 40
0.0
 40
0.0
 40
0.0
 40
0.1054708162973424
 40
0.2466098270051938
 40
0.3965912874591291
 40
0.5285525069754047
 40
0.6156245055642273
 40
0.64314341057976
 40
0.7036850037986319
 40
0.7642265984504745
 40
0.7917455052355062
 40
0.9287404319990077
 40
1.106572819088061
 40
1.287544879681061
 40
1.317578308030578
 40
1.399928030857216
 40
1.522968204799991
 40
1.675072986590612
 40
1.844616533180689
 40
2.019973001638753
 40
2.189516548880066
 40
2.341621331585404
 40
2.464661506320541
 40
2.547011229647104
 40
2.577044658168068
 40
2.603797890893139
 40
2.662655002908826
 40
2.721512114949638
 40
2.748265347702818
 40
2.774215307344894
 40
2.845959313407224
 40
2.954338556588423
 40
3.0901942275856
 40
3.244367517100564
 40
3.407699615844324
 40
3.571031714539474
 40
3.72520500392015
 40
3.86106067472965
 40
3.969439917716343
 40
4.041183923629015
 40
4.067133883213009
 40
4.311886746012195
 40
4.547897258335561
 40
4.764747083044005
 40
4.952749679951812
 40
5.045772974195945
 40
5.13786201964503
 40
5.330543169793081
 40
5.553448265244073
 40
5.795083855888254
 40
6.04329341217732
 40
6.285761695541278
 40
6.31390290875279
 40
6.38425594179338
 40
6.475714884766968
 40
6.567173827759059
 40
6.637526860839865
 40
6.665668074074229
 40
6.692018920328201
 40
6.749990782071266
 40
6.807962643790634
 40
6.834313490018105
 40
6.856393084245384
 40
6.913335195650007
 40
6.991194817302671
 40
7.076026942283932
 40
7.153886563725423
 40
7.210828674845005
 40
7.23290826893134
 40
7.258199334923861
 40
7.324875781592511
 40
7.419142481925168
 40
7.527204308842108
 40
7.635266135230686
 40
7.729532834168672
 40
7.796209279292994
 40
7.82150034459494
 40
7.844652988851011
 40
7.89986314054179
 40
7.965759128053956
 40
8.02096927977124
 40
8.044121924046706
 40
8.069356610160781
 40
8.109134395441579
 40
8.132238100191291
 40
8.193147867786656
 40
8.279261678876829
 40
8.377977512674043
 40
8.476693347146826
 40
8.56280716041188
 40
8.623716930826667
 40
8.646820636853619
 40
8.671988793774432
 40
8.734909185828343
 40
8.816705695189057
 40
8.898502204815628
 40
8.961422597378089
 40
8.986590754551202
 40
9.012941600733354
 40
9.070913462380437
 40
9.128885324081926
 40
9.155236170325248
 40
9.18040432792929
 40
9.243324721948364
 40
9.325121234212157
 40
9.406917746637811
 40
9.469838141978267
 40
9.49500628827104
 40
9.517811184379182
 40
9.572192090487182
 40
9.637098333281413
 40
9.691479239515612
 40
9.714284125643651
 40
9.714284125643651
 40
9.714284125643651
 40
9.714284125643651
 10
185.2874469028653
 20
15.2688916318772
 30
0.0
 10
185.3090990569037
 20
15.24111869242812
 30
0.0
 10
185.3597257109474
 20
15.17618054561237
 30
0.0
 10
185.4349383202591
 20
15.06891060312898
 30
0.0
 10
185.5248482274346
 20
14.95377438266625
 30
0.0
 10
185.5709169676673
 20
14.85357045748319
 30
0.0
 10
185.6655825294655
 20
14.78434006814943
 30
0.0
 10
185.6204439320412
 20
14.73771639678274
 30
0.0
 10
185.594704778579
 20
14.69660308866038
 30
0.0
 10
185.5645196708012
 20
14.66065971727939
 30
0.0
 10
185.5193684730562
 20
14.58579782596092
 30
0.0
 10
185.4710504458562
 20
14.80782524253605
 30
0.0
 10
185.3968539713073
 20
14.84510677337709
 30
0.0
 10
185.2836047324606
 20
15.11610202130601
 30
0.0
 10
185.288513357817
 20
15.00095328446228
 30
0.0
 10
185.2868486556306
 20
14.92836675781627
 30
0.0
 10
185.2876830076714
 20
14.80625588483986
 30
0.0
 10
185.2873609540264
 20
14.6591380081046
 30
0.0
 10
185.2875076912456
 20
14.49307063956557
 30
0.0
 10
185.2872950092722
 20
14.32187554608602
 30
0.0
 10
185.2879497252034
 20
14.15552828635498
 30
0.0
 10
185.2859192461139
 20
14.00935173055693
 30
0.0
 10
185.291346039993
 20
13.8847104747461
 30
0.0
 10
185.2804930868708
 20
13.81718656540626
 30
0.0
 10
185.2956739155555
 20
13.75549061417022
 30
0.0
 10
185.2457895108133
 20
13.76727503897002
 30
0.0
 10
185.2017150342522
 20
13.75943822779969
 30
0.0
 10
185.15823716302
 20
13.76760441372703
 30
0.0
 10
185.1092346786489
 20
13.75538056738468
 30
0.0
 10
185.1218731234824
 20
13.80960667249313
 30
0.0
 10
185.113018296845
 20
13.86936918907557
 30
0.0
 10
185.1175058770314
 20
13.97922029044371
 30
0.0
 10
185.1157960135991
 20
14.11029975405679
 30
0.0
 10
185.1163550915986
 20
14.26198011444328
 30
0.0
 10
185.1161928768694
 20
14.42211074929953
 30
0.0
 10
185.1162269924675
 20
14.58236865674566
 30
0.0
 10
185.1162514960127
 20
14.73370247520439
 30
0.0
 10
185.1161453543224
 20
14.86582156338601
 30
0.0
 10
185.1164299141932
 20
14.97294802533193
 30
0.0
 10
185.1158675547567
 20
15.03808619579473
 30
0.0
 10
185.118076508369
 20
15.16618957858676
 30
0.0
 10
185.0319435998602
 20
14.79097610391575
 30
0.0
 10
184.95551408185
 20
14.63918193123395
 30
0.0
 10
184.8660040767834
 20
14.47766206446305
 30
0.0
 10
184.7640413217326
 20
14.2047184882017
 30
0.0
 10
184.7187976491039
 20
14.3671734659651
 30
0.0
 10
184.610235594167
 20
14.4560543205812
 30
0.0
 10
184.7995791751753
 20
14.60549794961408
 30
0.0
 10
184.85653405457
 20
14.79749136974927
 30
0.0
 10
184.9717520993353
 20
15.02899622906755
 30
0.0
 10
184.9940151630132
 20
15.21797259759065
 30
0.0
 10
185.1771905152141
 20
15.49454089325931
 30
0.0
 10
185.0538033597552
 20
15.48698978832095
 30
0.0
 10
184.9925684166834
 20
15.48856772366119
 30
0.0
 10
184.9081999617064
 20
15.48882592573674
 30
0.0
 10
184.8204235085966
 20
15.48544845751206
 30
0.0
 10
184.7656768696123
 20
15.49394814982022
 30
0.0
 10
184.7104703026024
 20
15.48048561049788
 30
0.0
 10
184.7222823035536
 20
15.52931442126764
 30
0.0
 10
184.7142496151793
 20
15.57269004896709
 30
0.0
 10
184.7228186104679
 20
15.61509438309573
 30
0.0
 10
184.7102943409157
 20
15.66267796552118
 30
0.0
 10
184.7555101538735
 20
15.65267212995109
 30
0.0
 10
184.8014815562723
 20
15.65894105174061
 30
0.0
 10
184.877722204771
 20
15.65593561405872
 30
0.0
 10
184.9561296131993
 20
15.65770448278541
 30
0.0
 10
185.0323992648932
 20
15.65464793981659
 30
0.0
 10
185.0783009459475
 20
15.66103971376177
 30
0.0
 10
185.12317339654
 20
15.65093822978896
 30
0.0
 10
185.1105552275634
 20
15.70157201581898
 30
0.0
 10
185.1191936582707
 20
15.7550126188207
 30
0.0
 10
185.1152361595443
 20
15.8486325513168
 30
0.0
 10
185.1162325068335
 20
15.95112606688924
 30
0.0
 10
185.1171927413073
 20
16.05353270248163
 30
0.0
 10
185.1133211458005
 20
16.14735929609321
 30
0.0
 10
185.1217789814364
 20
16.20036542840353
 30
0.0
 10
185.1093075932835
 20
16.25211435651188
 30
0.0
 10
185.1542106389849
 20
16.23850747226757
 30
0.0
 10
185.1955083836772
 20
16.24100480320585
 30
0.0
 10
185.259534428105
 20
16.23648060574488
 30
0.0
 10
185.2986111148786
 20
16.22781003043308
 30
0.0
 10
185.3476543498742
 20
16.23515102070687
 30
0.0
 10
185.3225080030591
 20
16.19602896051756
 30
0.0
 10
185.2815901333724
 20
16.20563842455809
 30
0.0
 10
185.2910109616603
 20
16.15540148169778
 30
0.0
 10
185.2855647318746
 20
16.1038594563949
 30
0.0
 10
185.2881699601804
 20
16.0195970758452
 30
0.0
 10
185.2870102202153
 20
15.92559135583408
 30
0.0
 10
185.2883591064231
 20
15.83196865395526
 30
0.0
 10
185.2849970101508
 20
15.74679517552223
 30
0.0
 10
185.2920959917769
 20
15.69716856072044
 30
0.0
 10
185.2812569154545
 20
15.64993694969989
 30
0.0
 10
185.3304010225245
 20
15.66201674936851
 30
0.0
 10
185.3794877630147
 20
15.65447393363011
 30
0.0
 10
185.4573714280642
 20
15.65686070361432
 30
0.0
 10
185.5350365172896
 20
15.65899381905415
 30
0.0
 10
185.5845393931355
 20
15.65193391922455
 30
0.0
 10
185.6344594750639
 20
15.66360151936214
 30
0.0
 10
185.6223198516881
 20
15.61540235371393
 30
0.0
 10
185.6305838229144
 20
15.57249219801236
 30
0.0
 10
185.6223198650783
 20
15.52958201851385
 30
0.0
 10
185.6344594549855
 20
15.48138288754865
 30
0.0
 10
185.5845395158746
 20
15.49305034471511
 30
0.0
 10
185.5350350651203
 20
15.48599202435046
 30
0.0
 10
185.4573784382972
 20
15.48811665228604
 30
0.0
 10
185.379464386576
 20
15.49053389365761
 30
0.0
 10
185.3304500352715
 20
15.48291848194486
 30
0.0
 10
185.2813246108943
 20
15.49507952557594
 30
0.0
 10
185.291555998857
 20
15.45073013424158
 30
0.0
 10
185.2856677678054
 20
15.40925436202913
 30
0.0
 10
185.2878788305569
 20
15.34915394315304
 30
0.0
 10
185.2874109346146
 20
15.3022578276289
 30
0.0
 10
185.2874386992913
 20
15.27650146418197
 30
0.0
 10
185.2874469028653
 20
15.2688916318772
 30
0.0
 11
185.2874469028653
 21
15.2688916318772
 31
0.0
 11
185.3516977534484
 21
15.18524999634257
 31
0.0
 11
185.4348258835499
 21
15.07118889748221
 31
0.0
 11
185.5216831568896
 21
14.94891767195723
 31
0.0
 11
185.5971214371872
 21
14.84064565642876
 31
0.0
 11
185.6459925881626
 21
14.7685821875579
 31
0.0
 11
185.6296821285093
 21
14.74641782124399
 31
0.0
 11
185.5937991172719
 21
14.69765621535339
 31
0.0
 11
185.5579161060346
 21
14.64889460946279
 31
0.0
 11
185.5416056463813
 21
14.62673024314888
 31
0.0
 11
185.4763067109446
 21
14.74716139023813
 31
0.0
 11
185.3848434243234
 21
14.89966983670207
 31
0.0
 11
185.2874469028653
 21
15.05219788193142
 31
0.0
 11
185.2874469028653
 21
15.02216445328253
 31
0.0
 11
185.2874469028653
 21
14.93981472956783
 31
0.0
 11
185.2874469028653
 21
14.81677455413528
 31
0.0
 11
185.2874469028653
 21
14.66466977033283
 31
0.0
 11
185.2874469028653
 21
14.49512622150845
 31
0.0
 11
185.2874469028653
 21
14.31976975101009
 31
0.0
 11
185.2874469028653
 21
14.15022620218571
 31
0.0
 11
185.2874469028653
 21
13.99812141838326
 31
0.0
 11
185.2874469028653
 21
13.87508124295071
 31
0.0
 11
185.2874469028653
 21
13.79273151923601
 31
0.0
 11
185.2874469028653
 21
13.76269809058712
 31
0.0
 11
185.2606936700409
 21
13.76269809058712
 31
0.0
 11
185.2018365578272
 21
13.76269809058712
 31
0.0
 11
185.1429794456134
 21
13.76269809058712
 31
0.0
 11
185.116226212789
 21
13.76269809058712
 31
0.0
 11
185.116226212789
 21
13.7886480503125
 31
0.0
 11
185.116226212789
 21
13.86039205661208
 31
0.0
 11
185.116226212789
 21
13.96877130017102
 31
0.0
 11
185.116226212789
 21
14.10462697167447
 31
0.0
 11
185.116226212789
 21
14.25880026180761
 31
0.0
 11
185.116226212789
 21
14.42213236125558
 31
0.0
 11
185.116226212789
 21
14.58546446070356
 31
0.0
 11
185.116226212789
 21
14.7396377508367
 31
0.0
 11
185.116226212789
 21
14.87549342234015
 31
0.0
 11
185.116226212789
 21
14.98387266589909
 31
0.0
 11
185.116226212789
 21
15.05561667219867
 31
0.0
 11
185.116226212789
 21
15.08156663192405
 31
0.0
 11
185.0379865861721
 21
14.84965603302372
 31
0.0
 11
184.9497110789303
 21
14.63077616328678
 31
0.0
 11
184.8544106930045
 21
14.43598991333546
 31
0.0
 11
184.7550964303356
 21
14.27636017379201
 31
0.0
 11
184.7109198342406
 21
14.35822446196599
 31
0.0
 11
184.658805738348
 21
14.43414885430811
 31
0.0
 11
184.7627302590299
 21
14.59640087926757
 31
0.0
 11
184.8629319864735
 21
14.79551465421781
 31
0.0
 11
184.9550446607902
 21
15.01890447916196
 31
0.0
 11
185.0347020220912
 21
15.2539846541032
 31
0.0
 11
185.0975378104881
 21
15.48816947904466
 31
0.0
 11
185.0693965972143
 21
15.48816947904466
 31
0.0
 11
184.9990435640298
 21
15.48816947904466
 31
0.0
 11
184.9075846208899
 21
15.48816947904466
 31
0.0
 11
184.81612567775
 21
15.48816947904466
 31
0.0
 11
184.7457726445654
 21
15.48816947904466
 31
0.0
 11
184.7176314312916
 21
15.48816947904466
 31
0.0
 11
184.7176314312916
 21
15.51452032539223
 31
0.0
 11
184.7176314312916
 21
15.57249218735689
 31
0.0
 11
184.7176314312916
 21
15.63046404932155
 31
0.0
 11
184.7176314312916
 21
15.65681489566912
 31
0.0
 11
184.739711025602
 21
15.65681489566912
 31
0.0
 11
184.7966531372444
 21
15.65681489566912
 31
0.0
 11
184.8745127592862
 21
15.65681489566912
 31
0.0
 11
184.9593448847944
 21
15.65681489566912
 31
0.0
 11
185.0372045068361
 21
15.65681489566912
 31
0.0
 11
185.0941466184786
 21
15.65681489566912
 31
0.0
 11
185.116226212789
 21
15.65681489566912
 31
0.0
 11
185.116226212789
 21
15.68210596174353
 31
0.0
 11
185.116226212789
 21
15.74878240866697
 31
0.0
 11
185.116226212789
 21
15.84304910948977
 31
0.0
 11
185.116226212789
 21
15.95111093726224
 31
0.0
 11
185.116226212789
 21
16.05917276503471
 31
0.0
 11
185.116226212789
 21
16.15343946585751
 31
0.0
 11
185.116226212789
 21
16.22011591278095
 31
0.0
 11
185.116226212789
 21
16.24540697885536
 31
0.0
 11
185.1393181988665
 21
16.243732131078
 31
0.0
 11
185.1943837041284
 21
16.23973826330122
 31
0.0
 11
185.2601070491184
 21
16.23497138885796
 31
0.0
 11
185.3151725543802
 21
16.23097752108117
 31
0.0
 11
185.3382645404578
 21
16.22930267330381
 31
0.0
 11
185.3249012644362
 21
16.20789677921191
 31
0.0
 11
185.2874469028653
 21
16.19450114553469
 31
0.0
 11
185.2874469028653
 21
16.17139743948578
 31
0.0
 11
185.2874469028653
 21
16.11048766899319
 31
0.0
 11
185.2874469028653
 21
16.02437385553816
 31
0.0
 11
185.2874469028653
 21
15.9256580206019
 31
0.0
 11
185.2874469028653
 21
15.82694218566565
 31
0.0
 11
185.2874469028653
 21
15.74082837221061
 31
0.0
 11
185.2874469028653
 21
15.67991860171803
 31
0.0
 11
185.2874469028653
 21
15.65681489566912
 31
0.0
 11
185.3126150604809
 21
15.65681489566912
 31
0.0
 11
185.3755354545199
 21
15.65681489566912
 31
0.0
 11
185.4573319667706
 21
15.65681489566912
 31
0.0
 11
185.5391284790212
 21
15.65681489566912
 31
0.0
 11
185.6020488730602
 21
15.65681489566912
 31
0.0
 11
185.6272170306758
 21
15.65681489566912
 31
0.0
 11
185.6272170306758
 21
15.63046404932155
 31
0.0
 11
185.6272170306758
 21
15.57249218735689
 31
0.0
 11
185.6272170306758
 21
15.51452032539223
 31
0.0
 11
185.6272170306758
 21
15.48816947904466
 31
0.0
 11
185.6020488730602
 21
15.48816947904466
 31
0.0
 11
185.5391284790212
 21
15.48816947904466
 31
0.0
 11
185.4573319667705
 21
15.48816947904466
 31
0.0
 11
185.3755354545199
 21
15.48816947904466
 31
0.0
 11
185.3126150604809
 21
15.48816947904466
 31
0.0
 11
185.2874469028653
 21
15.48816947904466
 31
0.0
 11
185.2874469028653
 21
15.46536458293924
 31
0.0
 11
185.2874469028653
 21
15.41098367684171
 31
0.0
 11
185.2874469028653
 21
15.34607743408014
 31
0.0
 11
185.2874469028653
 21
15.29169652798262
 31
0.0
 11
185.2874469028653
 21
15.2688916318772
 31
0.0
  0
SPLINE
  5
AF
102
{ACAD_REACTORS
330
CC
102
}
330
48
100
AcDbEntity
  8
_U_30EC_U_30A4_U_30E4_U_30FC_1
  6
Continuous
 62
     2
100
AcDbSpline
210
0.0
220
0.0
230
1.0
 70
    11
 71
     3
 72
    47
 73
    43
 74
    41
 42
0.000000001
 43
0.0000000001
 44
0.00000001
 40
0.0
 40
0.0
 40
0.0
 40
0.0
 40
0.2207912809957213
 40
0.4459404186303042
 40
0.4902387190459256
 40
0.5327473892722205
 40
0.5742260451225534
 40
0.6155432630560826
 40
0.6568164066315745
 40
0.6982511618780672
 40
0.7407663929317176
 40
0.7851366743175237
 40
1.010288833836323
 40
1.231080507002173
 40
1.451765243652403
 40
1.676638205891687
 40
1.720461045359656
 40
1.830018144043521
 40
1.972442372353152
 40
2.114866600677522
 40
2.224423699395147
 40
2.268246538883388
 40
2.493628801207222
 40
2.715602830286619
 40
2.934211330706366
 40
3.149502369855355
 40
3.231387784850944
 40
3.318231873854036
 40
3.405143198198024
 40
3.48697030172046
 40
3.702258172493897
 40
3.920866283534122
 40
4.142839325931908
 40
4.368221903865375
 40
4.412044743359854
 40
4.52160184209587
 40
4.66402607045235
 40
4.806450298809058
 40
4.916007397546751
 40
4.959830237043074
 40
5.184703515847105
 40
5.405387250767482
 40
5.405387250767482
 40
5.405387250767482
 40
5.405387250767482
 10
182.6507427258645
 20
15.73406440953872
 30
0.0
 10
182.6568139420003
 20
15.79758482501211
 30
0.0
 10
182.6690762107242
 20
15.92587938689627
 30
0.0
 10
182.5604706879413
 20
16.20166220174076
 30
0.0
 10
182.6761985896603
 20
16.17188133432053
 30
0.0
 10
182.7171842509016
 20
16.16765556262821
 30
0.0
 10
182.7591205797518
 20
16.16310446389607
 30
0.0
 10
182.800419662571
 20
16.16201982929485
 30
0.0
 10
182.8417032115555
 20
16.16310338195227
 30
0.0
 10
182.8836148270647
 20
16.16766112711344
 30
0.0
 10
182.9245983549019
 20
16.17187430209728
 30
0.0
 10
183.0404922843488
 20
16.20177611317533
 30
0.0
 10
182.9295652727456
 20
15.92339806609889
 30
0.0
 10
182.9574856365267
 20
15.74283140824953
 30
0.0
 10
182.9404267346969
 20
15.50961042346471
 30
0.0
 10
182.9414637282102
 20
15.34906622543145
 30
0.0
 10
182.9414099399405
 20
15.22284817558722
 30
0.0
 10
182.9414277372481
 20
15.12428963336241
 30
0.0
 10
182.941418858108
 20
14.99280702442963
 30
0.0
 10
182.9414263928033
 20
14.86132844968649
 30
0.0
 10
182.9414129405129
 20
14.7627622269409
 30
0.0
 10
182.9414531717492
 20
14.63639735624152
 30
0.0
 10
182.9406746403817
 20
14.47482068822869
 30
0.0
 10
182.9565958319266
 20
14.24361821892914
 30
0.0
 10
182.9333468885407
 20
14.05874351972002
 30
0.0
 10
183.0360183444366
 20
13.78935602770059
 30
0.0
 10
182.8820238362836
 20
13.82660112685817
 30
0.0
 10
182.8004129802832
 20
13.82137994680536
 30
0.0
 10
182.7188192292583
 20
13.8266062037835
 30
0.0
 10
182.5648513666843
 20
13.78937069885388
 30
0.0
 10
182.6674183421916
 20
14.0587512986288
 30
0.0
 10
182.6442045316088
 20
14.24361585325415
 30
0.0
 10
182.6600444655138
 20
14.47482218565638
 30
0.0
 10
182.6593296313427
 20
14.63639712308502
 30
0.0
 10
182.6593664569907
 20
14.76276231210521
 30
0.0
 10
182.659354900027
 20
14.86132756635981
 30
0.0
 10
182.6593575019214
 20
14.9928112741722
 30
0.0
 10
182.6593648531779
 20
15.124275480312
 30
0.0
 10
182.6593442541351
 20
15.22287786275325
 30
0.0
 10
182.6594082192028
 20
15.34896149354427
 30
0.0
 10
182.6581733947591
 20
15.51210091383771
 30
0.0
 10
182.6532040396745
 20
15.66054183777549
 30
0.0
 10
182.6507427258645
 20
15.73406440953872
 30
0.0
 11
182.6507427258645
 21
15.73406440953872
 31
0.0
 11
182.6417328200379
 21
15.95467178795577
 31
0.0
 11
182.6318769706146
 21
16.17960510387179
 31
0.0
 11
182.6756985840801
 21
16.17312391463728
 31
0.0
 11
182.7178400934215
 21
16.16754892331925
 31
0.0
 11
182.759137140979
 21
16.16367167505631
 31
0.0
 11
182.8004341885365
 21
16.16238072887607
 31
0.0
 11
182.841687138873
 21
16.16367167505631
 31
0.0
 11
182.8829400892097
 21
16.16754892331925
 31
0.0
 11
182.9250882131343
 21
16.17312391463728
 31
0.0
 11
182.9689825870145
 21
16.17960510387179
 31
0.0
 11
182.9590577693891
 21
15.95467178795577
 31
0.0
 11
182.950038420831
 21
15.73406440953872
 31
0.0
 11
182.9435638463435
 21
15.51347467001054
 31
0.0
 11
182.9414218238286
 21
15.28861190965007
 31
0.0
 11
182.9414218238286
 21
15.24478907015486
 31
0.0
 11
182.9414218238286
 21
15.13523197141682
 31
0.0
 11
182.9414218238286
 21
14.99280774305737
 31
0.0
 11
182.9414218238286
 21
14.85038351469792
 31
0.0
 11
182.9414218238286
 21
14.74082641595989
 31
0.0
 11
182.9414218238286
 21
14.69700357646467
 31
0.0
 11
182.9435638463435
 21
14.47163149318766
 31
0.0
 11
182.950038420831
 21
14.2497519099098
 31
0.0
 11
182.9590577693891
 21
14.0313295488533
 31
0.0
 11
182.9689825870145
 21
13.81626739612928
 31
0.0
 11
182.8872616168771
 21
13.82145433189185
 31
0.0
 11
182.8004341885365
 21
13.82315538223863
 31
0.0
 11
182.7135395119339
 21
13.82145433189185
 31
0.0
 11
182.6318769706146
 21
13.81626739612928
 31
0.0
 11
182.6417328200379
 21
14.0313295488533
 31
0.0
 11
182.6507427258645
 21
14.2497519099098
 31
0.0
 11
182.6571833838798
 21
14.47163149318766
 31
0.0
 11
182.6593583588023
 21
14.69700357646467
 31
0.0
 11
182.6593583588023
 21
14.74082641595988
 31
0.0
 11
182.6593583588023
 21
14.85038351469792
 31
0.0
 11
182.6593583588023
 21
14.99280774305737
 31
0.0
 11
182.6593583588023
 21
15.13523197141682
 31
0.0
 11
182.6593583588023
 21
15.24478907015486
 31
0.0
 11
182.6593583588023
 21
15.28861190965007
 31
0.0
 11
182.6571833838798
 21
15.51347467001054
 31
0.0
 11
182.6507427258645
 21
15.73406440953872
 31
0.0
  0
SPLINE
  5
B0
102
{ACAD_REACTORS
330
CD
102
}
330
48
100
AcDbEntity
  8
_U_30EC_U_30A4_U_30E4_U_30FC_1
  6
Continuous
 62
     2
100
AcDbSpline
210
0.0
220
0.0
230
1.0
 70
    11
 71
     3
 72
   110
 73
   106
 74
   104
 42
0.000000001
 43
0.0000000001
 44
0.00000001
 40
0.0
 40
0.0
 40
0.0
 40
0.0
 40
0.2203406257277714
 40
0.4407808782838093
 40
0.595249449461507
 40
0.7488431659393073
 40
0.9023581831309343
 40
1.056801968670404
 40
1.210736449099933
 40
1.363041386539869
 40
1.515315729683155
 40
1.669377239148077
 40
1.721611652756564
 40
1.773199502942947
 40
1.824933793209997
 40
1.877110426487989
 40
1.982682281206752
 40
2.078781667087561
 40
2.172809640822283
 40
2.271937807378937
 40
2.37834993337933
 40
2.494131557736518
 40
2.626681683943624
 40
2.783145050795994
 40
2.890701232940859
 40
2.993130312454765
 40
3.099869730691731
 40
3.220237816691227
 40
3.352695482737516
 40
3.481732806389767
 40
3.593499473690299
 40
3.674323013331812
 40
3.817951711952762
 40
3.94616712079376
 40
4.061405053453445
 40
4.166480796003086
 40
4.26247877505918
 40
4.350736673551079
 40
4.433071991253965
 40
4.511216293814567
 40
4.56426245411789
 40
4.618474415571519
 40
4.670128488754098
 40
4.722296879126302
 40
4.81954094531417
 40
4.931194984128027
 40
5.049996040257668
 40
5.168643755415213
 40
5.283970811762425
 40
5.392260784910251
 40
5.486512254876297
 40
5.559178233949725
 40
5.591425852853384
 40
5.626215969637777
 40
5.667155838674305
 40
5.717449290214111
 40
5.738402360944725
 40
5.784499116553695
 40
5.830595872164668
 40
5.851548942897526
 40
5.873019280661641
 40
5.924217778408183
 40
5.985325662817562
 40
6.036524160567579
 40
6.057994498334107
 40
6.236847789607364
 40
6.381409928945532
 40
6.493190424178565
 40
6.574067534230374
 40
6.691018086205411
 40
6.814881554220301
 40
6.944307823240253
 40
7.071266716065877
 40
7.193488604461722
 40
7.309042773127949
 40
7.414007203170574
 40
7.505140441886414
 40
7.531150360599591
 40
7.559221645322177
 40
7.587202218920843
 40
7.612569159499047
 40
7.662550809480926
 40
7.70287887576406
 40
7.857328205230903
 40
8.010799568088606
 40
8.165256399657528
 40
8.322232698713895
 40
8.479564855016525
 40
8.635216230290785
 40
8.790882550925703
 40
8.948305154947269
 40
9.168271839032945
 40
9.38735898098723
 40
9.60804796103347
 40
9.832914234792666
 40
9.858338694963
 40
9.925366817230008
 40
10.02013071422759
 40
10.12876249858998
 40
10.23739428295248
 40
10.3321581799519
 40
10.39918630222393
 40
10.42461076239782
 40
10.64992019336943
 40
10.87188524531187
 40
10.87188524531187
 40
10.87188524531187
 40
10.87188524531187
 10
179.9057788376618
 20
15.7392326039819
 30
0.0
 10
179.9092864933542
 20
15.80616462073804
 30
0.0
 10
179.9163033987663
 20
15.94005891915859
 30
0.0
 10
179.8198027599073
 20
16.2254855497147
 30
0.0
 10
180.0510134726109
 20
16.16284386190283
 30
0.0
 10
180.1919290057156
 20
16.17001554055992
 30
0.0
 10
180.3490417757588
 20
16.16235883078244
 30
0.0
 10
180.5025913427287
 20
16.1625275228304
 30
0.0
 10
180.6545104935081
 20
16.16182040535432
 30
0.0
 10
180.8142214813232
 20
16.17210158351639
 30
0.0
 10
180.9408972601118
 20
16.15496511080752
 30
0.0
 10
181.137082112208
 20
16.22727260107144
 30
0.0
 10
181.1034395279078
 20
16.12640699080117
 30
0.0
 10
181.1052011317184
 20
16.0761925394767
 30
0.0
 10
181.1027342073458
 20
16.02712335586465
 30
0.0
 10
181.1347076966011
 20
15.94063490846997
 30
0.0
 10
181.0010399903256
 20
15.98997438608336
 30
0.0
 10
180.9172208688056
 20
15.98430634314168
 30
0.0
 10
180.8173861139324
 20
15.99465516706298
 30
0.0
 10
180.7186576720145
 20
16.00086450411087
 30
0.0
 10
180.612153277111
 20
16.00697763816778
 30
0.0
 10
180.491051169806
 20
16.01588883484585
 30
0.0
 10
180.3703381502454
 20
16.00521605912384
 30
0.0
 10
180.1812553843438
 20
16.06468503080365
 30
0.0
 10
180.2129028505311
 20
15.90558320077539
 30
0.0
 10
180.1995563316833
 20
15.80839128339904
 30
0.0
 10
180.197495842645
 20
15.69634065110102
 30
0.0
 10
180.195818804467
 20
15.57699685629351
 30
0.0
 10
180.1973336794233
 20
15.4503259215511
 30
0.0
 10
180.195658247867
 20
15.32301588016117
 30
0.0
 10
180.2058844271657
 20
15.22451566404463
 30
0.0
 10
180.1779006596582
 20
15.0838870262563
 30
0.0
 10
180.3508029999305
 20
15.13989551134095
 30
0.0
 10
180.4645020202771
 20
15.127199514785
 30
0.0
 10
180.5840151672239
 20
15.13448377051254
 30
0.0
 10
180.6888491425072
 20
15.13878017056756
 30
0.0
 10
180.7843084898612
 20
15.14330568258976
 30
0.0
 10
180.8763823507032
 20
15.151492011462
 30
0.0
 10
180.9476551782439
 20
15.14643850638112
 30
0.0
 10
181.0544931705685
 20
15.18536425031673
 30
0.0
 10
181.0226603598036
 20
15.10517122005878
 30
0.0
 10
181.0266164503929
 20
15.05562936846033
 30
0.0
 10
181.0234502392013
 20
15.00557478039818
 30
0.0
 10
181.0550791490584
 20
14.92128847612022
 30
0.0
 10
180.9210133677692
 20
14.97425365495157
 30
0.0
 10
180.82923227932
 20
14.96540080890441
 30
0.0
 10
180.7079729189603
 20
14.97570049965155
 30
0.0
 10
180.5914113119771
 20
14.97748911767502
 30
0.0
 10
180.4783375745879
 20
14.97787017109695
 30
0.0
 10
180.3679246308471
 20
14.98415449472181
 30
0.0
 10
180.2898124067841
 20
14.97189133255364
 30
0.0
 10
180.1913625833644
 20
15.00453887616125
 30
0.0
 10
180.2012355173561
 20
14.94769748054205
 30
0.0
 10
180.1973923244402
 20
14.91392130557983
 30
0.0
 10
180.1966789884268
 20
14.87119604709411
 30
0.0
 10
180.1963369642975
 20
14.83401607262153
 30
0.0
 10
180.1963834255346
 20
14.79487237370771
 30
0.0
 10
180.1963649429927
 20
14.75716849497686
 30
0.0
 10
180.1963703431806
 20
14.71944955232402
 30
0.0
 10
180.1963697214201
 20
14.6899432474515
 30
0.0
 10
180.1963698151545
 20
14.65873577699301
 30
0.0
 10
180.1963704287921
 20
14.61414424908085
 30
0.0
 10
180.1963671499336
 20
14.5596395650885
 30
0.0
 10
180.1963759623481
 20
14.51505540201448
 30
0.0
 10
180.1963359653416
 20
14.43117808585739
 30
0.0
 10
180.1976024270255
 20
14.31737520677678
 30
0.0
 10
180.1950274117841
 20
14.16830395933709
 30
0.0
 10
180.206500938172
 20
14.06597203813905
 30
0.0
 10
180.1823506222264
 20
13.93338903885836
 30
0.0
 10
180.3332993946477
 20
13.97895732272021
 30
0.0
 10
180.4428436671555
 20
13.96427012162349
 30
0.0
 10
180.573397047392
 20
13.96920435125062
 30
0.0
 10
180.6990312209514
 20
13.97257705323363
 30
0.0
 10
180.81887306256
 20
13.97711497498773
 30
0.0
 10
180.9391362611427
 20
13.99048536182004
 30
0.0
 10
181.0222761663514
 20
13.98068712782597
 30
0.0
 10
181.1456080421077
 20
14.04126214623319
 30
0.0
 10
181.1244269203956
 20
13.98532460134022
 30
0.0
 10
181.1235950270116
 20
13.95939249372345
 30
0.0
 10
181.1218963707559
 20
13.93197256190939
 30
0.0
 10
181.1217974888829
 20
13.89738195206385
 30
0.0
 10
181.1203659301329
 20
13.86050408220766
 30
0.0
 10
181.1532804192192
 20
13.76846841021809
 30
0.0
 10
180.9551306988107
 20
13.8413201597483
 30
0.0
 10
180.8300548294891
 20
13.81825726508607
 30
0.0
 10
180.6673071295156
 20
13.82454021985786
 30
0.0
 10
180.5129366450001
 20
13.82260943909927
 30
0.0
 10
180.3566670436944
 20
13.82393762599268
 30
0.0
 10
180.1970544465282
 20
13.82059872487863
 30
0.0
 10
180.0540326342237
 20
13.8326579572824
 30
0.0
 10
179.8197144881628
 20
13.76952001976919
 30
0.0
 10
179.9173810751197
 20
14.05620527466318
 30
0.0
 10
179.9006868780058
 20
14.24988308142661
 30
0.0
 10
179.9146296709685
 20
14.47848242880295
 30
0.0
 10
179.9142987846633
 20
14.63384593955049
 30
0.0
 10
179.9143078119264
 20
14.73966336444125
 30
0.0
 10
179.9143055876316
 20
14.80205784124214
 30
0.0
 10
179.914306555189
 20
14.89220425248327
 30
0.0
 10
179.9143065473262
 20
14.99621167157438
 30
0.0
 10
179.9143053861104
 20
15.10022131375296
 30
0.0
 10
179.9143090971502
 20
15.19036243688768
 30
0.0
 10
179.9143011051052
 20
15.25276803097215
 30
0.0
 10
179.9143334275019
 20
15.35868835961119
 30
0.0
 10
179.913144078832
 20
15.5162671654474
 30
0.0
 10
179.9082216489256
 20
15.66528219822066
 30
0.0
 10
179.9057788376618
 20
15.7392326039819
 30
0.0
 11
179.9057788376618
 21
15.7392326039819
 31
0.0
 11
179.8966918223741
 21
15.95938578101018
 31
0.0
 11
179.8868249573133
 21
16.17960510387179
 31
0.0
 11
180.04115751414
 21
16.17312391463728
 31
0.0
 11
180.1946500189046
 21
16.16754892331925
 31
0.0
 11
180.3481160653367
 21
16.16367167505631
 31
0.0
 11
180.5025544554939
 21
16.16238072887607
 31
0.0
 11
180.6564835227473
 21
16.16367167505631
 31
0.0
 11
180.8087391004601
 21
16.16754892331925
 31
0.0
 11
180.9609113551074
 21
16.17312391463728
 31
0.0
 11
181.1148364762483
 21
16.17960510387179
 31
0.0
 11
181.1070811703123
 21
16.12794961777358
 31
0.0
 11
181.1044991623591
 21
16.07642642334204
 31
0.0
 11
181.1070811703123
 21
16.0247566056466
 31
0.0
 11
181.1148364762483
 21
15.97315954836783
 31
0.0
 11
181.0094874054411
 21
15.98001446156057
 31
0.0
 11
180.913637570006
 21
15.98693552058657
 31
0.0
 11
180.8198593171903
 21
15.99378381919598
 31
0.0
 11
180.7209679915881
 21
16.0006321178054
 31
0.0
 11
180.6147532199924
 21
16.00710999974824
 31
0.0
 11
180.4991060528038
 21
16.01268829835794
 31
0.0
 11
180.3666126447258
 21
16.01656554662088
 31
0.0
 11
180.2101546018424
 21
16.01785649280112
 31
0.0
 11
180.2062663293721
 21
15.91037061609186
 31
0.0
 11
180.20153800484
 21
15.80805072896463
 31
0.0
 11
180.1976607566749
 21
15.70138175329687
 31
0.0
 11
180.1963698105272
 21
15.5810205901325
 31
0.0
 11
180.1967799146836
 21
15.44856355891565
 31
0.0
 11
180.1980896021502
 21
15.31953288186455
 31
0.0
 11
180.1994074577049
 21
15.20777398432308
 31
0.0
 11
180.199819115366
 21
15.12695149302384
 31
0.0
 11
180.3434452935874
 21
15.1278025694125
 31
0.0
 11
180.4716343930758
 21
15.13039989580078
 31
0.0
 11
180.5868078221795
 21
15.13425509545254
 31
0.0
 11
180.691775631222
 21
15.13901649302076
 31
0.0
 11
180.7876346289422
 21
15.14418027774175
 31
0.0
 11
180.8757413374193
 21
15.14934406246267
 31
0.0
 11
180.9578881438496
 21
15.15491243919739
 31
0.0
 11
181.0357692335571
 21
15.16132086801524
 31
0.0
 11
181.0280180445186
 21
15.10884407115336
 31
0.0
 11
181.0254328449317
 21
15.05469378470856
 31
0.0
 11
181.0280180445186
 21
15.00310444444367
 31
0.0
 11
181.0357692335571
 21
14.95151510417882
 31
0.0
 11
180.9389813454014
 21
14.96092324653756
 31
0.0
 11
180.8275950722015
 21
14.96865128473012
 31
0.0
 11
180.7089261429373
 21
14.97425273438146
 31
0.0
 11
180.5903167449213
 21
14.97726788195011
 31
0.0
 11
180.4750025117521
 21
14.97898767361639
 31
0.0
 11
180.36672619507
 21
14.98070746528258
 31
0.0
 11
180.2724839317708
 21
14.98202486979617
 31
0.0
 11
180.199819115366
 21
14.98243607639328
 31
0.0
 11
180.199407457705
 21
14.9501910850819
 31
0.0
 11
180.1980896021502
 21
14.91542593752116
 31
0.0
 11
180.1967799146836
 21
14.87450702260085
 31
0.0
 11
180.1963698105272
 21
14.82421524309952
 31
0.0
 11
180.1963698105272
 21
14.80326217235822
 31
0.0
 11
180.1963698105272
 21
14.75716541672736
 31
0.0
 11
180.1963698105272
 21
14.71106866109651
 31
0.0
 11
180.1963698105272
 21
14.69011559035521
 31
0.0
 11
180.1963698105272
 21
14.6686452525828
 31
0.0
 11
180.1963698105272
 21
14.61744675481784
 31
0.0
 11
180.1963698105272
 21
14.55633887038868
 31
0.0
 11
180.1963698105272
 21
14.50514037262371
 31
0.0
 11
180.1963698105272
 21
14.4836700348513
 31
0.0
 11
180.1967799146836
 21
14.30481721371547
 31
0.0
 11
180.1980896021502
 21
14.16026100715442
 31
0.0
 11
180.2002868589709
 21
14.04850210961289
 31
0.0
 11
180.2032586986986
 21
13.96767961831365
 31
0.0
 11
180.3202092517448
 21
13.96767961831365
 31
0.0
 11
180.4440727208746
 21
13.96767961831365
 31
0.0
 11
180.5734925526422
 21
13.96897056449389
 31
0.0
 11
180.7003922282244
 21
13.97284781275683
 31
0.0
 11
180.8224658067973
 21
13.97886708358865
 31
0.0
 11
180.9377587499463
 21
13.98663260442002
 31
0.0
 11
181.0421754573518
 21
13.99734161483402
 31
0.0
 11
181.1320599255449
 21
14.01237656274692
 31
0.0
 11
181.1264254031191
 21
13.98698427976715
 31
0.0
 11
181.1234433285423
 21
13.95907184053802
 31
0.0
 11
181.12213398812
 21
13.93112191867001
 31
0.0
 11
181.1217235369195
 21
13.90575829888472
 31
0.0
 11
181.1243087365064
 21
13.85584355063325
 31
0.0
 11
181.1320599255449
 21
13.81626739612928
 31
0.0
 11
180.9776977178344
 21
13.82145433189185
 31
0.0
 11
180.8242357818765
 21
13.82315538223863
 31
0.0
 11
180.6697789496483
 21
13.82315538223863
 31
0.0
 11
180.5128026496768
 21
13.82315538223863
 31
0.0
 11
180.3554704921537
 21
13.82315538223863
 31
0.0
 11
180.199819115366
 21
13.82315538223863
 31
0.0
 11
180.0441620874241
 21
13.82145433189185
 31
0.0
 11
179.8868249573133
 21
13.81626739612928
 31
0.0
 11
179.896691822374
 21
14.0360126738521
 31
0.0
 11
179.9057788376618
 21
14.25491128490852
 31
0.0
 11
179.9121721518401
 21
14.47550763902003
 31
0.0
 11
179.914306345501
 21
14.70036378479715
 31
0.0
 11
179.914306345501
 21
14.72578824496874
 31
0.0
 11
179.914306345501
 21
14.79281636723931
 31
0.0
 11
179.914306345501
 21
14.88758026424253
 31
0.0
 11
179.914306345501
 21
14.99621204861207
 31
0.0
 11
179.914306345501
 21
15.10484383298162
 31
0.0
 11
179.914306345501
 21
15.19960772998484
 31
0.0
 11
179.914306345501
 21
15.2666358522554
 31
0.0
 11
179.914306345501
 21
15.292060312427
 31
0.0
 11
179.9121721518401
 21
15.51735963528735
 31
0.0
 11
179.9057788376618
 21
15.7392326039819
 31
0.0
  0
SPLINE
  5
B1
102
{ACAD_REACTORS
330
CE
102
}
330
48
100
AcDbEntity
  8
_U_30EC_U_30A4_U_30E4_U_30FC_1
  6
Continuous
 62
     2
100
AcDbSpline
210
0.0
220
0.0
230
1.0
 70
    11
 71
     3
 72
    95
 73
    91
 74
    89
 42
0.000000001
 43
0.0000000001
 44
0.00000001
 40
0.0
 40
0.0
 40
0.0
 40
0.0
 40
0.6550406656911612
 40
1.308087289031946
 40
1.420803739835819
 40
1.566130759770828
 40
1.757067341888484
 40
2.006513545026487
 40
2.087328263121575
 40
2.185328872295647
 40
2.294612454748382
 40
2.408936380534832
 40
2.526802767798586
 40
2.646360524615627
 40
2.762535723971612
 40
2.870057342870189
 40
2.966883448431666
 40
3.050803243518315
 40
3.11581822243663
 40
3.156030057150252
 40
3.213914225080154
 40
3.276689026450554
 40
3.342960320981303
 40
3.404230667150495
 40
3.453822809493286
 40
3.532499827188348
 40
3.634775188507076
 40
3.754909333008074
 40
3.88973676166057
 40
4.035769602175138
 40
4.187256681197521
 40
4.33873368567587
 40
4.488478734676028
 40
4.6347083178315
 40
4.771493189921188
 40
4.892686571561126
 40
5.199775528944369
 40
5.460353566929552
 40
5.667603142345427
 40
5.814722905404407
 40
5.828990806219705
 40
5.855488336304402
 40
5.869756237118734
 40
6.189796507762758
 40
6.531890469872992
 40
6.88305363701692
 40
7.230512024911391
 40
7.566966656764492
 40
7.885203559707326
 40
8.172887439719121
 40
8.418011594062682
 40
8.443926721190604
 40
8.510760470613091
 40
8.6021453937956
 40
8.701714041647042
 40
8.793098965075272
 40
8.859932715057845
 40
8.885847842603495
 40
9.242301256612716
 40
9.589275455016663
 40
9.921808543164065
 40
10.23479624298457
 40
10.29968150889168
 40
10.35323493887756
 40
10.40154625355141
 40
10.46482922477817
 40
10.55973900668397
 40
10.69239545985611
 40
10.84920353475664
 40
11.01626328594771
 40
11.18672024367435
 40
11.35372582577203
 40
11.50257442292418
 40
11.61866495023283
 40
11.71329869152866
 40
11.82511050573899
 40
11.94464880845708
 40
12.069292426425
 40
12.19707290435169
 40
12.32562632860521
 40
12.45034565331272
 40
12.5664659517032
 40
12.67099007414628
 40
12.76077625936775
 40
12.82703233506687
 40
12.87429132785985
 40
12.89831990323325
 40
12.92234847860013
 40
13.53984767410313
 40
14.18294284359357
 40
14.18294284359357
 40
14.18294284359357
 40
14.18294284359357
 10
177.3067935648021
 20
14.70898038201723
 30
0.0
 10
177.175201975855
 20
14.82265058603231
 30
0.0
 10
176.9124193802728
 20
15.04964496316157
 30
0.0
 10
176.3997393441022
 20
15.89214462956287
 30
0.0
 10
176.4106654595362
 20
15.53423377577019
 30
0.0
 10
176.4041226527991
 20
15.39267392272133
 30
0.0
 10
176.4028026631773
 20
15.1942130529928
 30
0.0
 10
176.4018117602538
 20
15.02150296045982
 30
0.0
 10
176.4024101751974
 20
14.87865373257579
 30
0.0
 10
176.4038994301882
 20
14.78265005413357
 30
0.0
 10
176.4055683588472
 20
14.67545503263141
 30
0.0
 10
176.4071934954618
 20
14.56164211517582
 30
0.0
 10
176.4092429501685
 20
14.44441572604589
 30
0.0
 10
176.4123165501927
 20
14.32656411232969
 30
0.0
 10
176.4156339697043
 20
14.2122808732062
 30
0.0
 10
176.4193605340281
 20
14.10521401867276
 30
0.0
 10
176.4217338161424
 20
14.0100740876692
 30
0.0
 10
176.4278718888357
 20
13.92558557205695
 30
0.0
 10
176.4239784495947
 20
13.86923087298142
 30
0.0
 10
176.4455230443077
 20
13.79825022472356
 30
0.0
 10
176.3680940058618
 20
13.82902677604483
 30
0.0
 10
176.3116353240191
 20
13.82011242517615
 30
0.0
 10
176.2540495896807
 20
13.82896218398274
 30
0.0
 10
176.1690163478473
 20
13.79738225225947
 30
0.0
 10
176.2009714146382
 20
13.88095155992192
 30
0.0
 10
176.1990705282538
 20
13.94882608968309
 30
0.0
 10
176.21079600473
 20
14.05233256764419
 30
0.0
 10
176.2164241053
 20
14.17002125616694
 30
0.0
 10
176.2237902178941
 20
14.30388609164424
 30
0.0
 10
176.232075970161
 20
14.44764152872631
 30
0.0
 10
176.2398851897426
 20
14.59714022843445
 30
0.0
 10
176.2457571222657
 20
14.74792549402078
 30
0.0
 10
176.2503667817969
 20
14.89699943878437
 30
0.0
 10
176.2542632117542
 20
15.04122913163022
 30
0.0
 10
176.2570715126564
 20
15.17583905213017
 30
0.0
 10
176.2576698755022
 20
15.36469614347354
 30
0.0
 10
176.261602386715
 20
15.58975494313154
 30
0.0
 10
176.2442175378498
 20
15.86367091125708
 30
0.0
 10
176.2850417342584
 20
16.02787112098596
 30
0.0
 10
176.1995153256003
 20
16.22749661465096
 30
0.0
 10
176.2660558907688
 20
16.22385458403978
 30
0.0
 10
176.283872427323
 20
16.22413447160854
 30
0.0
 10
176.4056801797505
 20
16.22632927398613
 30
0.0
 10
176.5080770335461
 20
15.94675118721512
 30
0.0
 10
176.7580021509356
 20
15.74563008536005
 30
0.0
 10
176.9870035331111
 20
15.47792614987913
 30
0.0
 10
177.2245151213108
 20
15.22646413862376
 30
0.0
 10
177.4486090740772
 20
14.98969974061359
 30
0.0
 10
177.6750716283009
 20
14.73218692583079
 30
0.0
 10
177.8325687886513
 20
14.61649335056922
 30
0.0
 10
178.0472129612675
 20
14.27997152538793
 30
0.0
 10
178.0422645974618
 20
14.40464754091603
 30
0.0
 10
178.0433931602546
 20
14.46327691935737
 30
0.0
 10
178.0428877841516
 20
14.55043662371977
 30
0.0
 10
178.0430475158113
 20
14.64416143182872
 30
0.0
 10
178.0430054891318
 20
14.73018971297035
 30
0.0
 10
178.0430202040373
 20
14.79153891945496
 30
0.0
 10
178.0429706255983
 20
14.94135231520992
 30
0.0
 10
178.045881152281
 20
15.17989612510105
 30
0.0
 10
178.0259521041163
 20
15.54486509868701
 30
0.0
 10
178.0750433936247
 20
15.80799631993411
 30
0.0
 10
177.9177951509181
 20
16.21928904947754
 30
0.0
 10
178.0762112872421
 20
16.16398282551747
 30
0.0
 10
178.1311680478629
 20
16.16199686500176
 30
0.0
 10
178.1827887766739
 20
16.16264778248251
 30
0.0
 10
178.2713198965366
 20
16.20369527738246
 30
0.0
 10
178.2204898303169
 20
16.05696326622986
 30
0.0
 10
178.2313389930283
 20
15.95019971954432
 30
0.0
 10
178.2166036994847
 20
15.79085705414112
 30
0.0
 10
178.2099976446204
 20
15.62853061652874
 30
0.0
 10
178.2014961399915
 20
15.45992521892396
 30
0.0
 10
178.1943227202198
 20
15.29814814703541
 30
0.0
 10
178.188906321539
 20
15.15422331457932
 30
0.0
 10
178.1871713967648
 20
15.03437493466925
 30
0.0
 10
178.1875440672318
 20
14.92686101590515
 30
0.0
 10
178.1873656126263
 20
14.81820024645586
 30
0.0
 10
178.187701086314
 20
14.6995357016553
 30
0.0
 10
178.1890040622184
 20
14.5755516351274
 30
0.0
 10
178.1908887351574
 20
14.44858294171104
 30
0.0
 10
178.1925004454851
 20
14.32153861551032
 30
0.0
 10
178.1941403137429
 20
14.19854884492177
 30
0.0
 10
178.1962570745752
 20
14.08300931383759
 30
0.0
 10
178.1963848422364
 20
13.98090903955837
 30
0.0
 10
178.2006514396554
 20
13.89009848838156
 30
0.0
 10
178.1908440085289
 20
13.83213621208786
 30
0.0
 10
178.2118474771689
 20
13.76517130132029
 30
0.0
 10
178.1725639739897
 20
13.77291153966688
 30
0.0
 10
177.9595307117747
 20
13.75755254145192
 30
0.0
 10
177.7636297943186
 20
14.3140305809447
 30
0.0
 10
177.4611197631544
 20
14.57556035348509
 30
0.0
 10
177.3067935648021
 20
14.70898038201723
 30
0.0
 11
177.3067935648021
 21
14.70898038201723
 31
0.0
 11
176.8595529338511
 21
15.18757635411977
 31
0.0
 11
176.4124049070643
 21
15.6635264928897
 31
0.0
 11
176.4089664262494
 21
15.55086249986232
 31
0.0
 11
176.40556101835
 21
15.40557538184309
 31
0.0
 11
176.4029636920274
 21
15.21465645827967
 31
0.0
 11
176.4021126156603
 21
14.96521170139756
 31
0.0
 11
176.4025239230289
 21
14.88439802954279
 31
0.0
 11
176.4038420329817
 21
14.78640628477561
 31
0.0
 11
176.4055192267718
 21
14.67713557299739
 31
0.0
 11
176.4072367127518
 21
14.56282454872039
 31
0.0
 11
176.4094007838772
 21
14.44497802965265
 31
0.0
 11
176.4124049070643
 21
14.32545802100199
 31
0.0
 11
176.4158359733138
 21
14.20933349846155
 31
0.0
 11
176.4192928929999
 21
14.10186746550228
 31
0.0
 11
176.4227085253088
 21
14.00510162351264
 31
0.0
 11
176.4261896983793
 21
13.92125406276972
 31
0.0
 11
176.4296006184313
 21
13.85632862007759
 31
0.0
 11
176.4330776843148
 21
13.81626739612928
 31
0.0
 11
176.3754263821571
 21
13.82145433189185
 31
0.0
 11
176.3126746318309
 21
13.82315538223863
 31
0.0
 11
176.2464251717157
 21
13.82145433189185
 31
0.0
 11
176.1853747739676
 21
13.81626739612928
 31
0.0
 11
176.1926772737813
 21
13.8653189412559
 31
0.0
 11
176.2008793569054
 21
13.94356725720856
 31
0.0
 11
176.2090098822348
 21
14.04551893253029
 31
0.0
 11
176.2163406441397
 21
14.16542920159752
 31
0.0
 11
176.2236358280421
 21
14.30005912343889
 31
0.0
 11
176.2318444255596
 21
14.44586107652745
 31
0.0
 11
176.2395504149465
 21
14.59715203135073
 31
0.0
 11
176.2455763002093
 21
14.74850913200734
 31
0.0
 11
176.2503046247416
 21
14.89817951391435
 31
0.0
 11
176.254192897212
 21
15.04435739582222
 31
0.0
 11
176.2567527408965
 21
15.18111831592696
 31
0.0
 11
176.2576324804574
 21
15.3023085068689
 31
0.0
 11
176.257192610677
 21
15.60939715262545
 31
0.0
 11
176.2559126888347
 21
15.86997204839365
 31
0.0
 11
176.2528658717893
 21
16.07719922716125
 31
0.0
 11
176.2473049112763
 21
16.22421385386062
 31
0.0
 11
176.2615728121469
 21
16.22421385386062
 31
0.0
 11
176.2880703423352
 21
16.22421385386062
 31
0.0
 11
176.3023382432058
 21
16.22421385386062
 31
0.0
 11
176.5194743650277
 21
15.98910179662773
 31
0.0
 11
176.751274412308
 21
15.73751281231561
 31
0.0
 11
176.9894816018839
 21
15.4794955554357
 31
0.0
 11
177.2260074557521
 21
15.22497079855489
 31
0.0
 11
177.4555698717705
 21
14.97899759549138
 31
0.0
 11
177.6731797360103
 21
14.74678934034107
 31
0.0
 11
177.8713724913707
 21
14.53826680567101
 31
0.0
 11
178.0430143099086
 21
14.36326697932589
 31
0.0
 11
178.0430143099086
 21
14.38918210687043
 31
0.0
 11
178.0430143099086
 21
14.45601585685371
 31
0.0
 11
178.0430143099086
 21
14.54740078030025
 31
0.0
 11
178.0430143099086
 21
14.64696942823453
 31
0.0
 11
178.0430143099086
 21
14.73835435168106
 31
0.0
 11
178.0430143099086
 21
14.80518810166435
 31
0.0
 11
178.0430143099086
 21
14.83110322920889
 31
0.0
 11
178.0417233637609
 21
15.18755430550868
 31
0.0
 11
178.0378461155959
 21
15.53450684014415
 31
0.0
 11
178.0296197790002
 21
15.86693815950551
 31
0.0
 11
178.0154535467228
 21
16.17960510387179
 31
0.0
 11
178.0790351249618
 21
16.16666367158334
 31
0.0
 11
178.1324170159611
 21
16.16238072887607
 31
0.0
 11
178.1805381084833
 21
16.16666367158334
 31
0.0
 11
178.2424836798197
 21
16.17960510387179
 31
0.0
 11
178.2351216487575
 21
16.084981284451
 31
0.0
 11
178.2269790968818
 21
15.95257496503963
 31
0.0
 11
178.2183705364004
 21
15.79600336785655
 31
0.0
 11
178.2097547223215
 21
15.62916593734271
 31
0.0
 11
178.2016187850288
 21
15.4589032550936
 31
0.0
 11
178.1942501393835
 21
15.292060312427
 31
0.0
 11
178.1891406931522
 21
15.1432994357281
 31
0.0
 11
178.1874503478904
 21
15.02722121527101
 31
0.0
 11
178.1874503478904
 21
14.93258747397519
 31
0.0
 11
178.1874503478904
 21
14.82077565976708
 31
0.0
 11
178.1878461204497
 21
14.70123801222749
 31
0.0
 11
178.1890819450708
 21
14.57660052093918
 31
0.0
 11
178.1908392193317
 21
14.44883212687391
 31
0.0
 11
178.1925303477608
 21
14.32028982655879
 31
0.0
 11
178.1942876220214
 21
14.19558288214555
 31
0.0
 11
178.1959787504505
 21
14.07947489606349
 31
0.0
 11
178.1972884379172
 21
13.97495896727017
 31
0.0
 11
178.1976985420735
 21
13.88517371555652
 31
0.0
 11
178.1976985420735
 21
13.81891763918415
 31
0.0
 11
178.1976985420735
 21
13.77165864614041
 31
0.0
 11
178.1736699662976
 21
13.77165864614041
 31
0.0
 11
178.1496413905217
 21
13.77165864614041
 31
0.0
 11
177.7410729200423
 21
14.2346673526219
 31
0.0
 11
177.3067935648021
 21
14.70898038201723
 31
0.0
  0
SPLINE
  5
B2
102
{ACAD_REACTORS
330
CF
102
}
330
48
100
AcDbEntity
  8
_U_30EC_U_30A4_U_30E4_U_30FC_1
  6
Continuous
 62
     2
100
AcDbSpline
210
0.0
220
0.0
230
1.0
 70
    11
 71
     3
 72
    25
 73
    21
 74
    19
 42
0.000000001
 43
0.0000000001
 44
0.00000001
 40
0.0
 40
0.0
 40
0.0
 40
0.0
 40
0.0911479969064822
 40
0.1858117896204667
 40
0.280412839973449
 40
0.3715889190714509
 40
0.4679080494218992
 40
0.564268380922923
 40
0.6605683222644991
 40
0.7569653015810256
 40
0.8561348172522739
 40
1.092615965104292
 40
1.374867658141875
 40
1.611348812011601
 40
1.710518328425249
 40
1.809403163726568
 40
2.04520546329407
 40
2.32664691762213
 40
2.562449217190592
 40
2.661334043833911
 40
2.661334043833911
 40
2.661334043833911
 40
2.661334043833911
 10
173.2683700567199
 20
14.88614538197292
 30
0.0
 10
173.2987525917923
 20
14.88598079714554
 30
0.0
 10
173.3606895889111
 20
14.88564528689921
 30
0.0
 10
173.4541356960331
 20
14.88269055451999
 30
0.0
 10
173.5475095236357
 20
14.87977752877151
 30
0.0
 10
173.6417760753476
 20
14.87894201643416
 30
0.0
 10
173.7354964790966
 20
14.87996644658047
 30
0.0
 10
173.8352040303205
 20
14.87916977470972
 30
0.0
 10
173.9188949546312
 20
14.88921410235219
 30
0.0
 10
174.0637996315045
 20
14.86234617674165
 30
0.0
 10
173.9396132444801
 20
15.03665530280049
 30
0.0
 10
173.8965867286282
 20
15.19651711006091
 30
0.0
 10
173.780892214221
 20
15.45518458550216
 30
0.0
 10
173.7017565431257
 20
15.59231052861858
 30
0.0
 10
173.6431576621816
 20
15.80937033134077
 30
0.0
 10
173.5864803939438
 20
15.59266134213428
 30
0.0
 10
173.5052809900478
 20
15.45327012438236
 30
0.0
 10
173.4063701281487
 20
15.20406969370194
 30
0.0
 10
173.325362509426
 20
15.01925830226074
 30
0.0
 10
173.2813683325838
 20
14.91650446856116
 30
0.0
 10
173.2683700567199
 20
14.88614538197292
 30
0.0
 11
173.2683700567199
 21
14.88614538197292
 31
0.0
 11
173.359513773782
 21
14.88526123266759
 31
0.0
 11
173.4541428297581
 21
14.88269697919598
 31
0.0
 11
173.5487082179706
 21
14.88009965280777
 31
0.0
 11
173.6398803250196
 21
14.8792485764191
 31
0.0
 11
173.7361985777706
 21
14.87965978301622
 31
0.0
 11
173.8325499034376
 21
14.88097718752971
 31
0.0
 11
173.9288262638286
 21
14.88310818579312
 31
0.0
 11
174.0251753846343
 21
14.88614538197292
 31
0.0
 11
173.9854633323141
 21
14.9770164219502
 31
0.0
 11
173.8907653613968
 21
15.19370890189602
 31
0.0
 11
173.7777387509471
 21
15.45234186183135
 31
0.0
 11
173.6830407800297
 21
15.66903434177717
 31
0.0
 11
173.6433287277095
 21
15.75990538175445
 31
0.0
 11
173.6043330259266
 21
15.66903434177717
 31
0.0
 11
173.5113432755212
 21
15.45234186183135
 31
0.0
 11
173.4003555089082
 21
15.19370890189602
 31
0.0
 11
173.3073657585028
 21
14.9770164219502
 31
0.0
 11
173.2683700567199
 21
14.88614538197292
 31
0.0
  0
SPLINE
  5
B3
102
{ACAD_REACTORS
330
CF
102
}
330
48
100
AcDbEntity
  8
_U_30EC_U_30A4_U_30E4_U_30FC_1
  6
Continuous
 62
     2
100
AcDbSpline
210
0.0
220
0.0
230
1.0
 70
    11
 71
     3
 72
    57
 73
    53
 74
    51
 42
0.000000001
 43
0.0000000001
 44
0.00000001
 40
0.0
 40
0.0
 40
0.0
 40
0.0
 40
0.0471632082809223
 40
0.0914861054632145
 40
0.1357762519702096
 40
0.1826527001609823
 40
0.22952032885723
 40
0.2737751972220754
 40
0.3181310461542783
 40
0.3652607198398496
 40
0.4571007286314316
 40
0.5671851029164994
 40
0.6894623283868246
 40
0.8181758272545849
 40
0.9510087229273938
 40
1.085852229674044
 40
1.218126164475302
 40
1.343545131142372
 40
1.454537202956788
 40
1.567187607530712
 40
1.680710966642388
 40
1.79422686973678
 40
1.900009184247551
 40
2.004085860447859
 40
2.108162674451747
 40
2.214000150155291
 40
2.496038577352127
 40
2.762350745479266
 40
2.997275353279395
 40
3.185110082137711
 40
3.246407890063909
 40
3.312607550212668
 40
3.378877742711542
 40
3.440140399651424
 40
4.100501696006458
 40
4.7549130855635
 40
5.411331693423896
 40
6.077890432568678
 40
6.110575292670957
 40
6.143260152775737
 40
6.367989363395129
 40
6.610525374951526
 40
6.863389136467286
 40
7.119380025547581
 40
7.376036605091063
 40
7.631164770966275
 40
7.876722425456394
 40
8.104953735855924
 40
8.312916685924272
 40
8.497730294941277
 40
8.651018984313842
 40
8.764738853624552
 40
8.764738853624552
 40
8.764738853624552
 40
8.764738853624552
 10
174.7922649500513
 20
13.81626739612928
 30
0.0
 10
174.7766616726931
 20
13.81826231079078
 30
0.0
 10
174.7463947960302
 20
13.82213201360298
 30
0.0
 10
174.7010994202253
 20
13.82341984967269
 30
0.0
 10
174.6559553129349
 20
13.82308683554051
 30
0.0
 10
174.60990171234
 20
13.82314658674225
 30
0.0
 10
174.5640496172097
 20
13.82325813650002
 30
0.0
 10
174.5183711648165
 20
13.82277833456592
 30
0.0
 10
174.4750811541608
 20
13.8246110961872
 30
0.0
 10
174.4039947951513
 20
13.80049556814658
 30
0.0
 10
174.4057477261441
 20
13.9218469397725
 30
0.0
 10
174.358619637057
 20
14.00726239751233
 30
0.0
 10
174.3191478251762
 20
14.12486929345135
 30
0.0
 10
174.2706635532645
 20
14.24232752540438
 30
0.0
 10
174.2201017402522
 20
14.3640593576151
 30
0.0
 10
174.1718634610477
 20
14.49075967862465
 30
0.0
 10
174.1135232947595
 20
14.59933687784952
 30
0.0
 10
174.0980892667261
 20
14.75620657134409
 30
0.0
 10
173.9566586330636
 20
14.72373446548323
 30
0.0
 10
173.8508397414904
 20
14.7351288868218
 30
0.0
 10
173.7358569725222
 20
14.73392591514616
 30
0.0
 10
173.625314225214
 20
14.73506945347407
 30
0.0
 10
173.5176583522783
 20
14.73418350037526
 30
0.0
 10
173.4121322529242
 20
14.73416602390519
 30
0.0
 10
173.3109192682013
 20
14.72714032472415
 30
0.0
 10
173.1266804827753
 20
14.75135859859867
 30
0.0
 10
173.1157393685411
 20
14.44741691121885
 30
0.0
 10
173.008769163475
 20
14.22353177253397
 30
0.0
 10
172.9098148604347
 20
14.03895314292497
 30
0.0
 10
172.9225090524007
 20
13.79530204804209
 30
0.0
 10
172.8050091716397
 20
13.82508046753197
 30
0.0
 10
172.742205586831
 20
13.82258089509605
 30
0.0
 10
172.6785872093399
 20
13.82344075102804
 30
0.0
 10
172.3946014194075
 20
13.78098039941952
 30
0.0
 10
173.0251638499381
 20
14.5008195244478
 30
0.0
 10
173.1087645289071
 20
15.01276539435732
 30
0.0
 10
173.492925278934
 20
15.53353743550043
 30
0.0
 10
173.4777208288563
 20
16.23519626253211
 30
0.0
 10
173.7239265722697
 20
16.22345633081257
 30
0.0
 10
173.825634615756
 20
16.23225004452772
 30
0.0
 10
173.8249752035819
 20
15.98059650730346
 30
0.0
 10
173.9428317155828
 20
15.79818020733958
 30
0.0
 10
174.0315515260485
 20
15.55563740662866
 30
0.0
 10
174.1322292485259
 20
15.32340030530127
 30
0.0
 10
174.2311142712243
 20
15.08674644566913
 30
0.0
 10
174.3299676990669
 20
14.85461739170093
 30
0.0
 10
174.4256166390925
 20
14.63122222788787
 30
0.0
 10
174.5159904573272
 20
14.42272549049317
 30
0.0
 10
174.5989944568188
 20
14.23308448529319
 30
0.0
 10
174.6726088582799
 20
14.06663106068099
 30
0.0
 10
174.7342815895545
 20
13.92917699626098
 30
0.0
 10
174.7749458885604
 20
13.84999239430034
 30
0.0
 10
174.7922649500513
 20
13.81626739612928
 30
0.0
 11
174.7922649500513
 21
13.81626739612928
 31
0.0
 11
174.7453878317448
 21
13.82145433189185
 31
0.0
 11
174.7010975896125
 21
13.82315538223863
 31
0.0
 11
174.6568074431729
 21
13.82315538223863
 31
0.0
 11
174.609930994716
 21
13.82315538223863
 31
0.0
 11
174.5630633657034
 21
13.82315538223863
 31
0.0
 11
174.5188084970408
 21
13.82315538223863
 31
0.0
 11
174.4744852776854
 21
13.82145433189185
 31
0.0
 11
174.4276419021443
 21
13.81626739612928
 31
0.0
 11
174.3992532136325
 21
13.90360966173244
 31
0.0
 11
174.3622721815898
 21
14.00729656274818
 31
0.0
 11
174.3188386236701
 21
14.12159987001127
 31
0.0
 11
174.2711055866936
 21
14.24113531268969
 31
0.0
 11
174.2208160133237
 21
14.36408057307566
 31
0.0
 11
174.1696467003932
 21
14.48883822929446
 31
0.0
 11
174.1197531801326
 21
14.61134141502772
 31
0.0
 11
174.0733119111841
 21
14.72784517367917
 31
0.0
 11
173.9623611907589
 21
14.73087465284506
 31
0.0
 11
173.849730922509
 21
14.7330045486779
 31
0.0
 11
173.7362152069449
 21
14.7343219531914
 31
0.0
 11
173.62270004768
 21
14.73473315978852
 31
0.0
 11
173.5169185312816
 21
14.7343219531914
 31
0.0
 11
173.4128501919225
 21
14.7330045486779
 31
0.0
 11
173.3087951724045
 21
14.73087465284506
 31
0.0
 11
173.2030010615596
 21
14.72784517367917
 31
0.0
 11
173.0980914750139
 21
14.4660443751335
 31
0.0
 11
173.0034868690331
 21
14.2171023265846
 31
0.0
 11
172.9252231210298
 21
13.99559756969557
 31
0.0
 11
172.8693431224555
 21
13.81626739612928
 31
0.0
 11
172.8082651639442
 21
13.82145433189185
 31
0.0
 11
172.742087361813
 21
13.82315538223863
 31
0.0
 11
172.6758390041282
 21
13.82145433189185
 31
0.0
 11
172.6147963233938
 21
13.81626739612928
 31
0.0
 11
172.8899684951931
 21
14.41656508695142
 31
0.0
 11
173.158294573417
 21
15.01343642360776
 31
0.0
 11
173.4240277350405
 21
15.61366245644381
 31
0.0
 11
173.6914740737033
 21
16.22421385386062
 31
0.0
 11
173.7241589339806
 21
16.22421385386062
 31
0.0
 11
173.7568437942579
 21
16.22421385386062
 31
0.0
 11
173.8428300681057
 21
16.01658539037084
 31
0.0
 11
173.9357285813609
 21
15.79254614563517
 31
0.0
 11
174.0328714521463
 21
15.55908663180468
 31
0.0
 11
174.1317936458031
 21
15.32298128464144
 31
0.0
 11
174.2315341249927
 21
15.08649780379784
 31
0.0
 11
174.3313071129353
 21
14.85168781253709
 31
0.0
 11
174.4280608257448
 21
14.6259949219685
 31
0.0
 11
174.5188084970408
 21
14.4165805209792
 31
0.0
 11
174.6022150834546
 21
14.22607611130461
 31
0.0
 11
174.6770293263377
 21
14.05708232662467
 31
0.0
 11
174.7410729186603
 21
13.91781337700667
 31
0.0
 11
174.7922649500513
 21
13.81626739612928
 31
0.0
  0
SPLINE
  5
B4
102
{ACAD_REACTORS
330
D0
102
}
330
48
100
AcDbEntity
  8
_U_30EC_U_30A4_U_30E4_U_30FC_1
  6
Continuous
 62
     2
100
AcDbSpline
210
0.0
220
0.0
230
1.0
 70
    11
 71
     3
 72
    99
 73
    95
 74
    93
 42
0.000000001
 43
0.0000000001
 44
0.00000001
 40
0.0
 40
0.0
 40
0.0
 40
0.0
 40
0.0796417172272494
 40
0.1621768542356667
 40
0.2486489160958082
 40
0.3404969668525299
 40
0.4381912511165322
 40
0.5434463660245624
 40
0.6518115192847095
 40
0.7530190937886667
 40
0.8492196919724921
 40
0.941929031299794
 40
1.034249663570025
 40
1.129078600620177
 40
1.226697027573222
 40
1.327220425421685
 40
1.470572134938004
 40
1.595489863371209
 40
1.719934125348363
 40
1.850576620127408
 40
1.989059629987291
 40
2.134139054226912
 40
2.280698007207199
 40
2.424529739039473
 40
2.565929576985839
 40
2.70823926077348
 40
2.861717887443624
 40
3.045168540347345
 40
3.183798301138578
 40
3.314813961455431
 40
3.442083470447274
 40
3.569912708372931
 40
3.702177512509328
 40
3.842307559659495
 40
3.992872223245899
 40
4.156750662218288
 40
4.31098186110751
 40
4.445859909322638
 40
4.572393936131578
 40
4.701656719781954
 40
4.768279086008445
 40
4.835960697898394
 40
4.912788918729312
 40
5.006285208481508
 40
5.026909478751584
 40
5.047533749021149
 40
5.10180803147119
 40
5.162325165538503
 40
5.226919745995824
 40
5.294231806596702
 40
5.364544852554824
 40
5.438319055467892
 40
5.517877651324228
 40
5.60764771486154
 40
5.700449642544386
 40
5.788251142364118
 40
5.87271470603975
 40
5.955167292575264
 40
6.03719239519036
 40
6.120669181469085
 40
6.206848616686316
 40
6.296680855416732
 40
6.442558392872554
 40
6.568190371608238
 40
6.69290456736031
 40
6.824220446557085
 40
6.963121850329321
 40
7.107843738851109
 40
7.25343166390722
 40
7.395187468036643
 40
7.533140753237721
 40
7.670550457175191
 40
7.816236511769207
 40
7.987691657359171
 40
8.142277421969213
 40
8.293662615414972
 40
8.442962460879237
 40
8.591598316185289
 40
8.743678992361756
 40
8.90372532369914
 40
9.076307008890488
 40
9.265578604680542
 40
9.459203795360716
 40
9.617619810273505
 40
9.753609671361863
 40
9.874873300004035
 40
9.954520184977738
 40
10.02416413719241
 40
10.09769764405441
 40
10.18909955924969
 40
10.20974586420136
 40
10.23039218263385
 40
10.30057101881269
 40
10.37632012987546
 40
10.37632012987546
 40
10.37632012987546
 40
10.37632012987546
 10
170.1465954835851
 20
14.13795663215994
 30
0.0
 10
170.1632217851219
 20
14.11720608845312
 30
0.0
 10
170.1970784206577
 20
14.07495111711898
 30
0.0
 10
170.2599822541036
 20
14.02029811392076
 30
0.0
 10
170.3332500940394
 20
13.97299025121048
 30
0.0
 10
170.4175969238636
 20
13.93527231437935
 30
0.0
 10
170.5132240615461
 20
13.91040619731951
 30
0.0
 10
170.6171853775346
 20
13.90309559345937
 30
0.0
 10
170.7224020220404
 20
13.91142322794053
 30
0.0
 10
170.8206626371334
 20
13.94149179651529
 30
0.0
 10
170.9058986427548
 20
13.98848822971875
 30
0.0
 10
170.9779220206103
 20
14.04952991250857
 30
0.0
 10
171.0350917709096
 20
14.12412969578583
 30
0.0
 10
171.076786874744
 20
14.21002464660174
 30
0.0
 10
171.1026952846292
 20
14.30485850432211
 30
0.0
 10
171.1118037332653
 20
14.41854979038367
 30
0.0
 10
171.0986864796487
 20
14.54332587770779
 30
0.0
 10
171.0325330334414
 20
14.66014719171893
 30
0.0
 10
170.9369370919569
 20
14.74512539577374
 30
0.0
 10
170.8249681022369
 20
14.81416684459161
 30
0.0
 10
170.6993659583269
 20
14.87204142045888
 30
0.0
 10
170.5656691620857
 20
14.92373723284342
 30
0.0
 10
170.431312281883
 20
14.97899092397179
 30
0.0
 10
170.3051983986877
 20
15.04939770641651
 30
0.0
 10
170.1926579987534
 20
15.13785540731247
 30
0.0
 10
170.0969963064459
 20
15.24981067868479
 30
0.0
 10
170.0334157151825
 20
15.3994991010138
 30
0.0
 10
170.0200706505016
 20
15.55932794385143
 30
0.0
 10
170.0320510987448
 20
15.71048405306845
 30
0.0
 10
170.071229892884
 20
15.83809244591539
 30
0.0
 10
170.135498775091
 20
15.95080874030845
 30
0.0
 10
170.223820499974
 20
16.04648609268686
 30
0.0
 10
170.3338091207627
 20
16.12354214985753
 30
0.0
 10
170.4632284401265
 20
16.18151396936277
 30
0.0
 10
170.6111838967793
 20
16.21739177588822
 30
0.0
 10
170.7682069455487
 20
16.22746719050565
 30
0.0
 10
170.917494046643
 20
16.21863637762588
 30
0.0
 10
171.0596253614171
 20
16.19074899340355
 30
0.0
 10
171.1595922609626
 20
16.13413314701138
 30
0.0
 10
171.3125074736185
 20
16.08674602105506
 30
0.0
 10
171.2455131717168
 20
16.00197553001184
 30
0.0
 10
171.229647912027
 20
15.93438901873484
 30
0.0
 10
171.1978750531296
 20
15.86926092793189
 30
0.0
 10
171.2150202209571
 20
15.76723453256954
 30
0.0
 10
171.1666427208232
 20
15.77493211681902
 30
0.0
 10
171.1315789440766
 20
15.76806771724808
 30
0.0
 10
171.1296697985719
 20
15.83263831158198
 30
0.0
 10
171.0985692931989
 20
15.87825639621393
 30
0.0
 10
171.0664551628456
 20
15.93561036628455
 30
0.0
 10
171.0208038475168
 20
15.98540462692558
 30
0.0
 10
170.9658508218387
 20
16.02994813718997
 30
0.0
 10
170.9010841173007
 20
16.06763988836549
 30
0.0
 10
170.8232377310596
 20
16.09283375791352
 30
0.0
 10
170.7355160553352
 20
16.09931230998111
 30
0.0
 10
170.6452903277806
 20
16.09235709285607
 30
0.0
 10
170.5594594694064
 20
16.06909190460921
 30
0.0
 10
170.4828343638596
 20
16.03131644107544
 30
0.0
 10
170.4165265636201
 20
15.98051641089574
 30
0.0
 10
170.3622560536964
 20
15.91731143407209
 30
0.0
 10
170.3224925345458
 20
15.84276455710367
 30
0.0
 10
170.2976775510587
 20
15.75917313997762
 30
0.0
 10
170.2892124262871
 20
15.65192948382284
 30
0.0
 10
170.3019697987104
 20
15.52965457267559
 30
0.0
 10
170.3681548409273
 20
15.41149724291209
 30
0.0
 10
170.4640977399832
 20
15.32606325709527
 30
0.0
 10
170.5757914963182
 20
15.25583362306721
 30
0.0
 10
170.7010863668702
 20
15.19659162305305
 30
0.0
 10
170.8349823941448
 20
15.14616708086131
 30
0.0
 10
170.9689930333149
 20
15.09322516984383
 30
0.0
 10
171.0950885316915
 20
15.02750170625174
 30
0.0
 10
171.2076216638417
 20
14.94480352537323
 30
0.0
 10
171.3031370284233
 20
14.83996006310073
 30
0.0
 10
171.3672706486962
 20
14.6993711725157
 30
0.0
 10
171.3811103725278
 20
14.54065409451592
 30
0.0
 10
171.367395471223
 20
14.38153155217875
 30
0.0
 10
171.3244739153984
 20
14.2348382881921
 30
0.0
 10
171.2545906329066
 20
14.10119796587141
 30
0.0
 10
171.1574592213829
 20
13.9853238769929
 30
0.0
 10
171.0347806023657
 20
13.89089981770088
 30
0.0
 10
170.8874408413168
 20
13.82179270651982
 30
0.0
 10
170.7177132497125
 20
13.77953210858852
 30
0.0
 10
170.5317404979596
 20
13.76781736230408
 30
0.0
 10
170.3528955926184
 20
13.77809486683436
 30
0.0
 10
170.1881733753742
 20
13.81966573769153
 30
0.0
 10
170.0834410841057
 20
13.88797642883941
 30
0.0
 10
169.9350960790365
 20
13.93675219032106
 30
0.0
 10
169.9980378194729
 20
14.02976591290841
 30
0.0
 10
170.0072274430059
 20
14.1029653624828
 30
0.0
 10
170.0303711301232
 20
14.16936294501346
 30
0.0
 10
170.0034588335317
 20
14.26974809527583
 30
0.0
 10
170.0521338956339
 20
14.26234033517379
 30
0.0
 10
170.0916530580697
 20
14.26894063620897
 30
0.0
 10
170.0996204944703
 20
14.19078703218934
 30
0.0
 10
170.1305436967923
 20
14.15600927375857
 30
0.0
 10
170.1465954835851
 20
14.13795663215994
 30
0.0
 11
170.1465954835851
 21
14.13795663215994
 31
0.0
 11
170.1982038075864
 21
14.07729869814736
 31
0.0
 11
170.2601105501336
 21
14.0227129516332
 31
0.0
 11
170.3327764009803
 21
13.97583980928383
 31
0.0
 11
170.4166468655844
 21
13.93839906276537
 31
0.0
 11
170.511221073241
 21
13.91390636311877
 31
0.0
 11
170.6161603327166
 21
13.90575829888472
 31
0.0
 11
170.7240739497552
 21
13.91564048638223
 31
0.0
 11
170.8208419941616
 21
13.94528704887482
 31
0.0
 11
170.9050776083319
 21
13.99175118948818
 31
0.0
 11
170.9756144207686
 21
14.05191413218149
 31
0.0
 11
171.031944210998
 21
14.1250581946632
 31
0.0
 11
171.0736690016003
 21
14.21021434047522
 31
0.0
 11
171.0994680808032
 21
14.30436190989612
 31
0.0
 11
171.1080824729446
 21
14.4045155209822
 31
0.0
 11
171.0878517703357
 21
14.54643250879398
 31
0.0
 11
171.0272522666731
 21
14.65566684036388
 31
0.0
 11
170.9364971286286
 21
14.74081306430095
 31
0.0
 11
170.826010188474
 21
14.81052746532517
 31
0.0
 11
170.7008523531254
 21
14.86979854169921
 31
0.0
 11
170.5662951950998
 21
14.9240425347412
 31
0.0
 11
170.4316884277007
 21
14.98201274306004
 31
0.0
 11
170.3065802017258
 21
15.05297399304233
 31
0.0
 11
170.196027609828
 21
15.14113315968695
 31
0.0
 11
170.1053381235266
 21
15.25080295132618
 31
0.0
 11
170.0447055469484
 21
15.39179720476315
 31
0.0
 11
170.0245079172553
 21
15.57413260402315
 31
0.0
 11
170.0374030471347
 21
15.71216131926642
 31
0.0
 11
170.0761016659391
 21
15.8373312845129
 31
0.0
 11
170.1393141731506
 21
15.94779262129084
 31
0.0
 11
170.2257499954545
 21
16.04196885390621
 31
0.0
 11
170.3336492808962
 21
16.1184654077065
 31
0.0
 11
170.4613526283328
 21
16.17615670109487
 31
0.0
 11
170.6075393259923
 21
16.21220066809973
 31
0.0
 11
170.770976856545
 21
16.22421385386062
 31
0.0
 11
170.9248918431289
 21
16.21434269066864
 31
0.0
 11
171.0564887242608
 21
16.18477329831497
 31
0.0
 11
171.172563634494
 21
16.13439993895252
 31
0.0
 11
171.2800792741122
 21
16.06264163167877
 31
0.0
 11
171.2516994050444
 21
16.00236624106886
 31
0.0
 11
171.2284855254283
 21
15.93879017337646
 31
0.0
 11
171.2078381040801
 21
15.86478841992269
 31
0.0
 11
171.1871840681487
 21
15.77360197897328
 31
0.0
 11
171.1665597978415
 21
15.77360197897328
 31
0.0
 11
171.1459355275343
 21
15.77360197897328
 31
0.0
 11
171.1256706495791
 21
15.82395108486346
 31
0.0
 11
171.0994658759421
 21
15.87850045116929
 31
0.0
 11
171.0650468924451
 21
15.93316116296115
 31
0.0
 11
171.0203554612937
 21
15.98349593725412
 31
0.0
 11
170.9657333359511
 21
16.02777175321529
 31
0.0
 11
170.9016722004326
 21
16.06436142334501
 31
0.0
 11
170.825968296114
 21
16.08882545979727
 31
0.0
 11
170.7365722046449
 21
16.09701100667022
 31
0.0
 11
170.6440937174207
 21
16.08926973931101
 31
0.0
 11
170.5594072091645
 21
16.06609003445566
 31
0.0
 11
170.483702448884
 21
16.02863495634008
 31
0.0
 11
170.4183754766516
 21
15.97832774281102
 31
0.0
 11
170.3650487887664
 21
15.91600293379879
 31
0.0
 11
170.3254809233901
 21
15.84249947895607
 31
0.0
 11
170.3009523754711
 21
15.75988443557391
 31
0.0
 11
170.2927954104109
 21
15.67042329844352
 31
0.0
 11
170.3130095765618
 21
15.52595308146573
 31
0.0
 11
170.373625616682
 21
15.41591177072935
 31
0.0
 11
170.4643479320758
 21
15.33033670130631
 31
0.0
 11
170.5748676948813
 21
15.25941954854625
 31
0.0
 11
170.7000089937719
 21
15.19914305550579
 31
0.0
 11
170.8345826882553
 21
15.14590447913021
 31
0.0
 11
170.9691729191968
 21
15.09039489581074
 31
0.0
 11
171.0942976816297
 21
15.0237728124941
 31
0.0
 11
171.2048009079771
 21
14.94118863716749
 31
0.0
 11
171.2955397598288
 21
14.83800003476272
 31
0.0
 11
171.3561557999489
 21
14.70552315979584
 31
0.0
 11
171.3763699660998
 21
14.53526378483839
 31
0.0
 11
171.3621839747998
 21
14.38133030397411
 31
0.0
 11
171.3196087009193
 21
14.23605531269097
 31
0.0
 11
171.2499752884265
 21
14.10398854189067
 31
0.0
 11
171.1544992078713
 21
13.99007218775246
 31
0.0
 11
171.0341060772624
 21
13.89715272597017
 31
0.0
 11
170.8896160201846
 21
13.8283235766818
 31
0.0
 11
170.7223519532713
 21
13.78581275203966
 31
0.0
 11
170.5336103348226
 21
13.77165864614041
 31
0.0
 11
170.3405031726387
 21
13.78581275203966
 31
0.0
 11
170.1878975900911
 21
13.8283235766818
 31
0.0
 11
170.0661897942203
 21
13.88899033013889
 31
0.0
 11
169.9660261826363
 21
13.95734322942737
 31
0.0
 11
169.9922320587039
 21
14.03255545163076
 31
0.0
 11
170.0090121537618
 21
14.10014767383612
 31
0.0
 11
170.0206196447852
 21
14.17275926235962
 31
0.0
 11
170.0313606254139
 21
14.2635278821286
 31
0.0
 11
170.0520069443316
 21
14.2635278821286
 31
0.0
 11
170.0726532632493
 21
14.2635278821286
 31
0.0
 11
170.104891639163
 21
14.20119204881084
 31
0.0
 11
170.1465954835851
 21
14.13795663215994
 31
0.0
  0
LWPOLYLINE
  5
B5
102
{ACAD_REACTORS
330
C2
102
}
330
48
100
AcDbEntity
  8
_U_30EC_U_30A4_U_30E4_U_30FC_1
  6
Continuous
 62
     2
100
AcDbPolyline
 90
        5
 70
     1
 43
0.0
 10
192.4578138032672
 20
15.39722336795624
 10
192.4578138032672
 20
15.22875434022056
 10
191.1602971697031
 20
15.22875434022056
 10
191.1602971697031
 20
15.39722336795624
 10
192.4578138032672
 20
15.39722336795624
  0
MTEXT
  5
B7
330
48
100
AcDbEntity
  8
1
 62
     2
100
AcDbMText
 10
32.50000000000001
 20
282.0000000000003
 30
0.0
 40
5.0
 41
0.0
 71
     5
 72
     1
  1
図番
  7
CONVERTER_11
 73
     1
 44
0.45454545454545
  0
MTEXT
  5
B8
330
48
100
AcDbEntity
  8
1
 62
     2
100
AcDbMText
 10
29.00000000000001
 20
34.00000000000001
 30
0.0
 40
3.5
 41
0.0
 71
     5
 72
     1
  1
備考
  7
CONVERTER_11
 73
     1
 44
0.45454545454545
  0
MTEXT
  5
B9
330
48
100
AcDbEntity
  8
1
 62
     2
100
AcDbMText
 10
29.00000000000001
 20
22.75
 30
0.0
 40
3.5
 41
0.0
 71
     5
 72
     1
  1
品名
  7
CONVERTER_11
 73
     1
 44
0.72727272727273
  0
MTEXT
  5
BA
330
48
100
AcDbEntity
  8
1
 62
     2
100
AcDbMText
 10
29.00000000000001
 20
14.25
 30
0.0
 40
3.5
 41
0.0
 71
     5
 72
     1
  1
品番
  7
CONVERTER_11
 73
     1
 44
0.72727272727273
  0
MTEXT
  5
BB
330
48
100
AcDbEntity
  8
1
 62
     2
100
AcDbMText
 10
101.5
 20
25.00000000000001
 30
0.0
 40
3.0
 41
0.0
 71
     5
 72
     1
  1
承認
  7
CONVERTER_11
 73
     1
 44
0.59090909090909
  0
MTEXT
  5
BC
330
48
100
AcDbEntity
  8
1
 62
     2
100
AcDbMText
 10
175.0
 20
23.50000000000001
 30
0.0
 40
3.5
 41
0.0
 71
     5
 72
     1
  1
第三角法
  7
CONVERTER_11
 73
     1
 44
0.54545454545455
  0
MTEXT
  5
BD
330
48
100
AcDbEntity
  8
1
 62
     2
100
AcDbMText
 10
118.5
 20
25.00000000000001
 30
0.0
 40
3.0
 41
0.0
 71
     5
 72
     1
  1
検図
  7
CONVERTER_11
 73
     1
 44
0.59090909090909
  0
MTEXT
  5
BE
330
48
100
AcDbEntity
  8
1
 62
     2
100
AcDbMText
 10
152.5
 20
25.00000000000001
 30
0.0
 40
3.0
 41
0.0
 71
     5
 72
     1
  1
設計
  7
CONVERTER_11
 73
     1
 44
0.59090909090909
  0
MTEXT
  5
BF
330
48
100
AcDbEntity
  8
1
 62
     2
100
AcDbMText
 10
135.5
 20
25.00000000000001
 30
0.0
 40
3.0
 41
0.0
 71
     5
 72
     1
  1
製図
  7
CONVERTER_11
 73
     1
 44
0.59090909090909
  0
MTEXT
  5
C0
330
48
100
AcDbEntity
  8
1
 62
     2
100
AcDbMText
 10
89.50000000000003
 20
24.00000000000001
 30
0.0
 40
3.5
 41
0.0
 71
     5
 72
     1
  1
尺度
  7
CONVERTER_11
 73
     1
 44
0.54545454545455
  0
MTEXT
  5
C1
330
48
100
AcDbEntity
  8
1
 62
   250
100
AcDbMText
 10
25.0
 20
5.0
 30
0.0
 40
3.5
 41
0.0
 71
     4
 72
     1
  1
備考欄の文字列 原点位置=4
  7
CONVERTER_11
 73
     1
 44
0.54545454545455
  0
HATCH
  5
C2
330
48
100
AcDbEntity
  8
1
  6
Continuous
 62
     2
100
AcDbHatch
 10
0.0
 20
0.0
 30
0.0
210
0.0
220
0.0
230
1.0
  2
CUSTOM0
 70
     0
 71
     1
 91
        1
 92
        1
 93
        4
 72
     1
 10
192.4578138032672
 20
15.39722336795624
 11
192.4578138032672
 21
15.22875434022056
 72
     1
 10
192.4578138032672
 20
15.22875434022056
 11
191.1602971697031
 21
15.22875434022056
 72
     1
 10
191.1602971697031
 20
15.22875434022056
 11
191.1602971697031
 21
15.39722336795624
 72
     1
 10
191.1602971697031
 20
15.39722336795624
 11
192.4578138032672
 21
15.39722336795624
 97
        1
330
B5
 75
     1
 76
     2
 52
45.0
 41
0.1
 77
     0
 78
     1
 53
45.0
 43
0.0
 44
0.0
 45
-0.282842712474619
 46
0.0
 79
     0
 98
        1
 10
0.0
 20
0.0
  0
HATCH
  5
C3
330
48
100
AcDbEntity
  8
1
  6
Continuous
 62
     2
100
AcDbHatch
 10
0.0
 20
0.0
 30
0.0
210
0.0
220
0.0
230
1.0
  2
CUSTOM1
 70
     0
 71
     1
 91
        1
 92
        1
 93
        3
 72
     4
 94
        3
 73
     0
 74
     0
 95
       24
 96
       20
 40
0.0
 40
0.0
 40
0.0
 40
0.0
 40
0.221107500875377
 40
0.427321858624525
 40
0.508017467923926
 40
0.5914835907870175
 40
0.8143265690192611
 40
1.05465130268657
 40
1.29545269402316
 40
1.518109231328814
 40
1.540864321905457
 40
1.595126460622718
 40
1.65989094789606
 40
1.714153085187446
 40
1.736908174961746
 40
1.764951100735469
 40
1.801562291221086
 40
1.953914424543758
 40
2.126104167379843
 40
2.126104167379843
 40
2.126104167379843
 40
2.126104167379843
 10
185.9375369556889
 20
15.58989295113015
 10
185.9112579081812
 20
15.53097628234373
 10
185.8604698894426
 20
15.41711139679257
 10
185.8131784839111
 20
15.14441958233115
 10
185.7043482802617
 20
15.24445482575454
 10
185.5514800279638
 20
15.27118593367332
 10
185.7686155181198
 20
15.48518135017632
 10
185.7838483674381
 20
15.70332117782486
 10
185.8906889492
 20
15.88451579066427
 10
185.8305380947078
 20
16.16913226311401
 10
185.9334317395402
 20
16.14114089222451
 10
185.977993346815
 20
16.13243251602299
 10
186.0380842395397
 20
16.12139654183355
 10
186.0756619587439
 20
16.1076752305556
 10
186.1252466928607
 20
16.10756076160222
 10
186.0930158919325
 20
16.07306592398623
 10
186.0171802221882
 20
16.08404104537964
 10
186.0429447159693
 20
15.8985896958245
 10
186.0055896763849
 20
15.80702313549589
 10
185.9857704961609
 20
15.75844135397705
 72
     4
 94
        3
 73
     0
 74
     0
 95
       70
 96
       66
 40
0.0
 40
0.0
 40
0.0
 40
0.0
 40
0.0241731073021472
 40
0.0846058988987013
 40
0.1631685280353284
 40
0.2417311571789756
 40
0.3021639488292751
 40
0.3263370654895541
 40
0.3533118254248881
 40
0.4228783438922111
 40
0.5179999095313402
 40
0.6216398239466102
 40
0.7167613891499706
 40
0.7863279069649863
 40
0.8133026791761836
 40
0.8372943998771674
 40
0.8945054261372869
 40
0.9627895541962639
 40
1.020000580349074
 40
1.043992300975172
 40
1.071934345522902
 40
1.113121768772915
 40
1.14522519933224
 40
1.225483775412775
 40
1.329819923771483
 40
1.434156071994373
 40
1.514414647795794
 40
1.546518078208402
 40
1.578974764260176
 40
1.662678849314171
 40
1.777131373668391
 40
1.901833377474782
 40
2.016285900500572
 40
2.099989982527939
 40
2.132446666570297
 40
2.15878235448602
 40
2.21672086790781
 40
2.274659381334233
 40
2.300995069256167
 40
2.333451754066139
 40
2.41715583654382
 40
2.53160835898526
 40
2.656310362283755
 40
2.770762886388887
 40
2.854466971340052
 40
2.886923657363859
 40
2.913597976833293
 40
2.9823896428751
 40
3.076451716946965
 40
3.17893726045858
 40
3.272999334739985
 40
3.34179100105921
 40
3.368465320663523
 40
3.396976080738744
 40
3.47214081184598
 40
3.57840819030867
 40
3.700226892456106
 40
3.822045594634323
 40
3.92831297325643
 40
4.003477705314827
 40
4.031988456866893
 40
4.058324144797691
 40
4.116262658236852
 40
4.17420117140065
 40
4.200536849608584
 40
4.200536849608584
 40
4.200536849608584
 40
4.200536849608584
 10
185.9857704961609
 20
15.75844135397705
 10
185.9938259544679
 20
15.75844359811686
 10
186.0220200663241
 20
15.75845146032798
 10
186.0765534803672
 20
15.75830754828372
 10
186.1482891808604
 20
15.75909120499898
 10
186.2236240137062
 20
15.75627570463811
 10
186.2713052366438
 20
15.76298403400957
 10
186.3195071245616
 20
15.75197563692433
 10
186.3062571799873
 20
15.80546402997033
 10
186.3151093964539
 20
15.86049583543092
 10
186.3108698036285
 20
15.95419908726109
 10
186.313348348128
 20
16.04959482218532
 10
186.309093870606
 20
16.14356821983387
 10
186.3179818665846
 20
16.19795062438012
 10
186.3046977409945
 20
16.25233997691461
 10
186.3514119277109
 20
16.23842216335358
 10
186.3943254545736
 20
16.24103877374043
 10
186.4605443456685
 20
16.23648422450755
 10
186.5013342271798
 20
16.22778162134162
 10
186.5525145690819
 20
16.23531799890195
 10
186.52537204872
 20
16.19349970223285
 10
186.4803096055707
 20
16.20284992072596
 10
186.4942065045051
 20
16.13841207371837
 10
186.4858414431653
 20
16.07378219627399
 10
186.4903632178398
 20
15.97529141193887
 10
186.4854741311167
 20
15.8759593284257
 10
186.4950258992082
 20
15.81293115552969
 10
186.47997614552
 20
15.74964011499788
 10
186.5449159457208
 20
15.76515072944269
 10
186.6116246399496
 20
15.75499387697812
 10
186.7241435470828
 20
15.75988800099367
 10
186.8390235448953
 20
15.75691204732783
 10
186.9519871999747
 20
15.76221664184991
 10
187.0176267597677
 20
15.75107306472089
 10
187.0816276691053
 20
15.76744532319857
 10
187.0703142889189
 20
15.71761689905274
 10
187.077533987151
 20
15.67416715212123
 10
187.0703142611268
 20
15.63071745587445
 10
187.0816277175994
 20
15.58088895196876
 10
187.0176263598971
 20
15.59726166091362
 10
186.951992124046
 20
15.58611271661588
 10
186.838997431733
 20
15.59144857206854
 10
186.7242456548644
 20
15.58834345663822
 10
186.611318368686
 20
15.59364894682588
 10
186.5455220903585
 20
15.58257300019593
 10
186.4816097975358
 20
15.59887597847618
 10
186.4936015165126
 20
15.54423524395742
 10
186.4862104613005
 20
15.48854295047841
 10
186.4892684841983
 20
15.3964968914057
 10
186.4893422785683
 20
15.301791098731
 10
186.486031357836
 20
15.20952782902265
 10
186.4939505989904
 20
15.15435768736139
 10
186.4815076611617
 20
15.10058169100135
 10
186.5389116551632
 20
15.11453768862779
 10
186.5994708140382
 20
15.10511457884225
 10
186.7048680855081
 20
15.10942885928704
 10
186.8204294070622
 20
15.1083550461203
 10
186.9359688877797
 20
15.10725965900994
 10
187.0414181130841
 20
15.11162525770632
 10
187.1018680471804
 20
15.1020942603067
 10
187.159283773911
 20
15.11617289606379
 10
187.1477773876709
 20
15.06707153265682
 10
187.1537566781749
 20
15.02564658018648
 10
187.1520311050801
 20
14.97651677966694
 10
187.1521500122971
 20
14.94854428447607
 10
187.1521871691833
 20
14.93980288195949
 72
     4
 94
        3
 73
     0
 74
     0
 95
       62
 96
       58
 40
0.0
 40
0.0
 40
0.0
 40
0.0
 40
0.0598250028308485
 40
0.2024846486897331
 40
0.3727558389221031
 40
0.515415484793607
 40
0.5752404975785339
 40
0.9332326775487353
 40
1.290451762839484
 40
1.602077253145863
 40
1.699931634112113
 40
1.799359756425035
 40
2.270120149657075
 40
2.804661928461543
 40
2.882342287383256
 40
3.076543185719106
 40
3.329004354835573
 40
3.5814655245684
 40
3.775666424543688
 40
3.853346784558308
 40
3.899120679595053
 40
3.984129341792051
 40
4.0299032368174
 40
4.105797496059557
 40
4.295533144152516
 40
4.542189486611758
 40
4.788845828875704
 40
4.97858147641009
 40
5.054475735244333
 40
5.621734664339335
 40
6.130867242037366
 40
6.22524978094861
 40
6.318913039727296
 40
6.663579954558922
 40
7.047498900224774
 40
7.435230791575702
 40
7.498943906668114
 40
7.650875181210107
 40
7.832212509001618
 40
7.984143783697004
 40
8.047856898903131
 40
8.091554632732636
 40
8.172707566964295
 40
8.216405300768017
 40
8.289021782160901
 40
8.462184160757275
 40
8.668861838005355
 40
8.842024215263947
 40
8.914640695475143
 40
8.98988158086135
 40
9.15541152882726
 40
9.320941477744048
 40
9.396182352487301
 40
9.454709011143848
 40
9.583467660170783
 40
9.712226309013062
 40
9.770752957989515
 40
9.770752957989515
 40
9.770752957989515
 40
9.770752957989515
 10
187.1521871691833
 20
14.93980288195949
 10
187.1322348171623
 20
14.93980875568671
 10
187.0647037716466
 20
14.93982863806156
 10
186.9410612161788
 20
14.93949362520325
 10
186.7863180150056
 20
14.9410767375051
 10
186.669734948248
 20
14.93686078860494
 10
186.455094263424
 20
14.95215205331625
 10
186.8518948407229
 20
14.59198721286192
 10
186.8945656069268
 20
14.37510503397167
 10
187.3189162146611
 20
14.19325062511446
 10
187.1439821496073
 20
14.08985196568072
 10
187.0194523925085
 20
13.87831523212724
 10
186.7666277235942
 20
14.34806081001562
 10
186.4797602893627
 20
14.99511516984523
 10
186.490633592666
 20
14.68782672154695
 10
186.488289277796
 20
14.5228861697178
 10
186.4861096126411
 20
14.28879670711694
 10
186.4980774396346
 20
14.04498072421784
 10
186.4687984740631
 20
13.89855796860985
 10
186.511452262547
 20
13.75113490174538
 10
186.4239814005639
 20
13.7668579730622
 10
186.3768527606744
 20
13.76694303543454
 10
186.2898973207713
 20
13.75109425482909
 10
186.3313474021722
 20
13.89527771422762
 10
186.3029875004286
 20
14.03855052698456
 10
186.3145973775299
 20
14.27674947365264
 10
186.3124175648272
 20
14.50517235240346
 10
186.3103111127993
 20
14.66705729375994
 10
186.3208035438324
 20
14.98153709333752
 10
186.0128963252893
 20
14.29229470872432
 10
185.7055258267457
 20
13.81476750243053
 10
185.5851367066274
 20
14.03741112637426
 10
185.4074607910722
 20
14.15011034955565
 10
185.8853326362894
 20
14.32548143465461
 10
185.9353959057208
 20
14.5609192925203
 10
186.3583799621716
 20
14.95322989344605
 10
186.1276754273541
 20
14.93655307029065
 10
186.004968585934
 20
14.9426951894877
 10
185.8325483095661
 20
14.93312822699573
 10
185.721322469445
 20
14.95448818489666
 10
185.6025779627447
 20
14.92136265357418
 10
185.6183169706686
 20
15.00203900606883
 10
185.6178550933762
 20
15.04645414290853
 10
185.6027881889931
 20
15.12967081778532
 10
185.7372380935443
 20
15.09062651983881
 10
185.8619755545747
 20
15.11739729328421
 10
186.062875523728
 20
15.10063949044051
 10
186.1921540949353
 20
15.12204225913003
 10
186.3328419928294
 20
15.08868778853419
 10
186.2980927452614
 20
15.22651875785067
 10
186.3222185666713
 20
15.3496325734948
 10
186.2967086182391
 20
15.47024055670335
 10
186.3333251146686
 20
15.60539865141495
 10
186.2211417027769
 20
15.58094545781891
 10
186.1280356457137
 20
15.59307749842022
 10
186.0191547579819
 20
15.58957630069994
 10
185.9569697640964
 20
15.58981755951603
 10
185.9375369557246
 20
15.58989295124144
 97
        3
330
A6
330
A4
330
A5
 75
     1
 76
     2
 52
45.0
 41
0.1
 77
     0
 78
     1
 53
45.0
 43
0.0
 44
0.0
 45
-0.282842712474619
 46
0.0
 79
     0
 98
        1
 10
0.0
 20
0.0
  0
HATCH
  5
C4
330
48
100
AcDbEntity
  8
1
  6
Continuous
 62
     2
100
AcDbHatch
 10
0.0
 20
0.0
 30
0.0
210
0.0
220
0.0
230
1.0
  2
CUSTOM2
 70
     0
 71
     1
 91
        1
 92
        1
 93
        1
 72
     4
 94
        3
 73
     0
 74
     0
 95
      124
 96
      120
 40
0.0
 40
0.0
 40
0.0
 40
0.0
 40
0.027818722962451
 40
0.1011590162384269
 40
0.2048470170590523
 40
0.3237088716559245
 40
0.4425707262522284
 40
0.5462587270700116
 40
0.6195990203312934
 40
0.6474177522579513
 40
0.6750060736116077
 40
0.7357003855243611
 40
0.7963946998055345
 40
0.8239830245572637
 40
0.8540933811104015
 40
0.9373396629410127
 40
1.06309468734335
 40
1.220731268638189
 40
1.399622220914863
 40
1.589140358637848
 40
1.778658496424014
 40
1.957549448940681
 40
2.115186030873331
 40
2.240941056914607
 40
2.324187341760704
 40
2.354297700109554
 40
2.381886024672061
 40
2.442580338710649
 40
2.503274652750673
 40
2.53086297731478
 40
2.560983949278733
 40
2.640393784453079
 40
2.752662861759302
 40
2.881361560118319
 40
3.010060258455366
 40
3.122329335705513
 40
3.201739170818127
 40
3.231860142753487
 40
3.264298024030542
 40
3.352343701778413
 40
3.482095226868934
 40
3.639650650173192
 40
3.811108022565647
 40
3.982565394928153
 40
4.140120818152732
 40
4.269872343141439
 40
4.3579180208025
 40
4.390355902044129
 40
4.423256253992698
 40
4.508104530073219
 40
4.624121560636987
 40
4.750528176031744
 40
4.866545206602191
 40
4.951393482692148
 40
4.984293834645549
 40
5.011450833242466
 40
5.071196230152256
 40
5.130941627057335
 40
5.158098625649003
 40
5.190998977601693
 40
5.275847253689519
 40
5.391864284256953
 40
5.518270899648498
 40
5.634287930209537
 40
5.719136206288211
 40
5.752036558236099
 40
5.782130946283124
 40
5.862783906229299
 40
5.979550131775166
 40
6.117984316640572
 40
6.263641154588117
 40
6.402075339414323
 40
6.518841564908118
 40
6.599494524815699
 40
6.629588912848937
 40
6.654403028226513
 40
6.713575149488308
 40
6.784199939329683
 40
6.843372060493785
 40
6.86818617580303
 40
6.896246243202141
 40
6.939586233758564
 40
6.967846564565192
 40
7.04358425109013
 40
7.153234334451988
 40
7.283231855734738
 40
7.420011856035772
 40
7.550009376580124
 40
7.659659458835523
 40
7.735397144417516
 40
7.763657474851688
 40
7.796409728011345
 40
7.880876065096619
 40
7.996370852466005
 40
8.1222084464189
 40
8.237703224799494
 40
8.322169562011188
 40
8.354921815206202
 40
8.382078813307984
 40
8.441824209207294
 40
8.501569605240448
 40
8.528726603486028
 40
8.561478856696077
 40
8.645945193878127
 40
8.761439980865639
 40
8.887277580764781
 40
9.002772362001302
 40
9.087238696661522
 40
9.119990949235977
 40
9.152428830613674
 40
9.24047450863889
 40
9.370226034149837
 40
9.52778145798472
 40
9.699238830981708
 40
9.870696203978897
 40
10.02825162781432
 40
10.15800315332593
 40
10.24604883135148
 40
10.27848670378551
 40
10.27848670378551
 40
10.27848670378551
 40
10.27848670378551
 10
195.3821827564383
 20
14.01410517385757
 10
195.3914554737523
 20
14.01410498511274
 10
195.425174453686
 20
14.01410430876714
 10
195.4934706812465
 20
14.01411807243305
 10
195.592014171158
 20
14.01403224219545
 10
195.7062066464812
 20
14.0144175561225
 10
195.8185894417071
 20
14.01300835897545
 10
195.9214376600119
 20
14.01719117422243
 10
195.9806839874849
 20
14.00823089251982
 10
196.0371265937034
 20
14.0216443452606
 10
196.0246255586956
 20
13.97087198613361
 10
196.0329549635704
 20
13.92589320939067
 10
196.0248170841121
 20
13.88056752990488
 10
196.0370529214458
 20
13.82931932408465
 10
195.9747773490334
 20
13.84447955365276
 10
195.9060513026869
 20
13.83359750710742
 10
195.7782756749592
 20
13.83911304747972
 10
195.6262984511643
 20
13.83700851253698
 10
195.4502695972523
 20
13.83771002588473
 10
195.2644431934287
 20
13.83745237531291
 10
195.0786167437175
 20
13.83771005144603
 10
194.9025880142169
 20
13.83700841847731
 10
194.7506104154194
 20
13.83911332229988
 10
194.6228357664554
 20
13.8335968076764
 10
194.554107783658
 20
13.84448077125942
 10
194.4918349042883
 20
13.82931786684209
 10
194.5040616290017
 20
13.88057510805171
 10
194.4960004462597
 20
13.92582473272425
 10
194.5040675809892
 20
13.97106357955323
 10
194.4918238487083
 20
14.02234176909958
 10
194.5525017120697
 20
14.00749577363134
 10
194.6162810745736
 20
14.01756448170735
 10
194.7277314353502
 20
14.01294644211999
 10
194.8497533443824
 20
14.01413328905469
 10
194.9719538137823
 20
14.01515863900634
 10
195.0829794287392
 20
14.01092475623401
 10
195.1476517413958
 20
14.02018584521739
 10
195.2091162810501
 20
14.00604423049682
 10
195.1930065601337
 20
14.07235527884517
 10
195.2042980327358
 20
14.14447790121975
 10
195.198740082256
 20
14.27513760888285
 10
195.200803506169
 20
14.42607323708241
 10
195.2000167127295
 20
14.59335873107885
 10
195.2007845215628
 20
14.76061110332302
 10
195.1988038785628
 20
14.91163289269912
 10
195.2041306156621
 20
15.04206069552994
 10
195.1933101388425
 20
15.11465442605898
 10
195.2090326429875
 20
15.18150469436797
 10
195.143270813249
 20
15.16580512490823
 10
195.0756367830764
 20
15.17609243083994
 10
194.9615885293809
 20
15.17113786847121
 10
194.8451242674902
 20
15.17414128030474
 10
194.7306554121477
 20
15.16880303143387
 10
194.6640324657812
 20
15.18001268074824
 10
194.5990769715185
 20
15.1634913266501
 10
194.6107989758708
 20
15.21473720477058
 10
194.6032830189121
 20
15.25950333784091
 10
194.6107989878835
 20
15.30426944897961
 10
194.5990769505346
 20
15.35551536129741
 10
194.66403263392
 20
15.33899381766816
 10
194.7306533339822
 20
15.35020571373943
 10
194.8451352858063
 20
15.34485436710665
 10
194.9615454436962
 20
15.34791188771117
 10
195.0757660174641
 20
15.34278499010708
 10
195.1430150439227
 20
15.35345733355598
 10
195.2083325941438
 20
15.33742082669077
 10
195.1941391448553
 20
15.39949685750054
 10
195.2036059462994
 20
15.46586761628762
 10
195.1990269004085
 20
15.58239972741966
 10
195.2007696555948
 20
15.71426685022376
 10
195.1997551495391
 20
15.85615960150273
 10
195.2017191344373
 20
15.9876905070258
 10
195.1964668553851
 20
16.10524577283002
 10
195.2073408763474
 20
16.16947789001584
 10
195.1919536641853
 20
16.23108802545047
 10
195.2407591537799
 20
16.2170240738211
 10
195.2853995564726
 20
16.21954742075314
 10
195.3538643946742
 20
16.21512797401709
 10
195.3959106169104
 20
16.20613025544036
 10
195.4487544758775
 20
16.2141171486651
 10
195.4207035002014
 20
16.17113917611674
 10
195.3749142248595
 20
16.18259552043838
 10
195.3869539073264
 20
16.12173520005137
 10
195.3796086070641
 20
16.05769299468773
 10
195.3831195826162
 20
15.94909368863911
 10
195.3819806760173
 20
15.82494319144753
 10
195.3819174780263
 20
15.69189719829878
 10
195.3832872966867
 20
15.56797381249555
 10
195.3791638801314
 20
15.45868337849339
 10
195.3877763103564
 20
15.3960858009417
 10
195.3746757454401
 20
15.33740133296365
 10
195.4393884328198
 20
15.35362113810902
 10
195.5060405953155
 20
15.34270260383311
 10
195.6198779541103
 20
15.34793740173756
 10
195.7357259122097
 20
15.34485547516913
 10
195.849692426328
 20
15.35018259812512
 10
195.9160341018099
 20
15.33904208166543
 10
195.980718852548
 20
15.35546979593178
 10
195.9689820772722
 20
15.3042592521005
 10
195.976516806304
 20
15.25950334121
 10
195.9689820992258
 20
15.21474739010026
 10
195.9807188140736
 20
15.16353690871039
 10
195.9160344075252
 20
15.17996427794219
 10
195.8496886430824
 20
15.16882784447268
 10
195.7357459487012
 20
15.17413115893119
 10
195.6197995623054
 20
15.17114764593543
 10
195.5062756882122
 20
15.17606892268392
 10
195.4389231318804
 20
15.16585087513518
 10
195.3734285122495
 20
15.18145996138814
 10
195.3891713619218
 20
15.1146385182741
 10
195.3783275998213
 20
15.04207057815878
 10
195.3836581629793
 20
14.91162247614415
 10
195.3817136151855
 20
14.76064558185225
 10
195.3823133683215
 20
14.59322243934158
 10
195.3821506559604
 20
14.42656176118371
 10
195.3821895488136
 20
14.27360142921636
 10
195.3821816413099
 20
14.14849178985705
 10
195.3821828382744
 20
14.06507890991419
 10
195.3821827716208
 20
14.02491778281976
 10
195.3821827564383
 20
14.01410517385757
 97
        1
330
A7
 75
     1
 76
     2
 52
45.0
 41
0.1
 77
     0
 78
     1
 53
45.0
 43
0.0
 44
0.0
 45
-0.282842712474619
 46
0.0
 79
     0
 98
        1
 10
0.0
 20
0.0
  0
HATCH
  5
C5
330
48
100
AcDbEntity
  8
1
  6
Continuous
 62
     2
100
AcDbHatch
 10
0.0
 20
0.0
 30
0.0
210
0.0
220
0.0
230
1.0
  2
CUSTOM3
 70
     0
 71
     1
 91
        1
 92
        1
 93
        1
 72
     4
 94
        3
 73
     0
 74
     0
 95
      131
 96
      127
 40
0.0
 40
0.0
 40
0.0
 40
0.0
 40
0.019557702982617
 40
0.042649053746157
 40
0.2863607575856474
 40
0.5344948436188959
 40
0.7842238845573165
 40
0.873731578946738
 40
0.9803832810312907
 40
1.092842274517039
 40
1.199761146656799
 40
1.289788768186503
 40
1.351573580786193
 40
1.370727117561422
 40
1.416400936017832
 40
1.470914848355976
 40
1.516588666791765
 40
1.535742203552846
 40
1.634216592293193
 40
1.760283341175029
 40
1.897966686682095
 40
2.031216387368923
 40
2.049689751137917
 40
2.101115601646853
 40
2.179502577739973
 40
2.278859318314087
 40
2.393194462258746
 40
2.516516648383861
 40
2.64283451540599
 40
2.766156701983492
 40
2.880491846754609
 40
2.979848588358651
 40
3.05823556544383
 40
3.109661416668985
 40
3.12813478070416
 40
3.146783742386477
 40
3.191254343315309
 40
3.244332157315911
 40
3.288802758225787
 40
3.307451719895058
 40
3.327717853844671
 40
3.38374775358003
 40
3.468388665924421
 40
3.574487837698729
 40
3.694892515728833
 40
3.822449946851972
 40
3.950007377920361
 40
4.070412055800453
 40
4.176511227368009
 40
4.261152139501455
 40
4.317182039076648
 40
4.337448172964567
 40
4.620011002696198
 40
4.885096638397514
 40
4.945373043518313
 40
5.01410771048865
 40
5.070481727652034
 40
5.319246955636558
 40
5.584812164506051
 40
5.859000912056922
 40
6.133746937542086
 40
6.401732212968876
 40
6.420736683995467
 40
6.472845717451118
 40
6.550702743894045
 40
6.646951193874254
 40
6.754234497930578
 40
6.865196086587356
 40
6.972479390357814
 40
7.068727839771976
 40
7.146584865450985
 40
7.198693898189215
 40
7.217698368905356
 40
7.234950401630834
 40
7.27608986426988
 40
7.325191803515994
 40
7.366331266090383
 40
7.383583298769735
 40
7.40277916349214
 40
7.453386443254543
 40
7.524934666445573
 40
7.606953361405913
 40
7.688972056429093
 40
7.760520279784344
 40
7.811127559734614
 40
7.830323424546235
 40
7.847844055299865
 40
7.894799345666907
 40
7.962779392744594
 40
8.043374293560642
 40
8.128174145149549
 40
8.208769044817354
 40
8.276749090377054
 40
8.323704379669612
 40
8.341225010056347
 40
8.358497614800495
 40
8.401679126686671
 40
8.45781509218573
 40
8.513951057728134
 40
8.557132569708033
 40
8.574405174505076
 40
8.60234066861642
 40
8.64345566053999
 40
8.663225271966658
 40
8.715345156564306
 40
8.78903188962864
 40
8.87350204552037
 40
8.957972194323993
 40
9.031658925567884
 40
9.083778811234575
 40
9.103548423003037
 40
9.119550083123574
 40
9.160817522379876
 40
9.217244429110242
 40
9.278724491644727
 40
9.335151398295512
 40
9.376418837357807
 40
9.392420497300595
 40
9.401196302734814
 40
9.417494229384289
 40
9.426270027749561
 40
9.440875075477594
 40
9.475702496998773
 40
9.517270709865935
 40
9.552098131994102
 40
9.56670316988431
 40
9.56670316988431
 40
9.56670316988431
 40
9.56670316988431
 10
194.6170254148479
 20
15.67015871511028
 10
194.6134345093371
 20
15.6645369070216
 10
194.6056039123625
 20
15.65227754419112
 10
194.5129968974547
 20
15.61601916040967
 10
194.4887622233248
 20
15.40148444212717
 10
194.3858709845939
 20
15.22197284509705
 10
194.1220492364305
 20
15.03615573798148
 10
194.284547156918
 20
14.95959336566081
 10
194.3607225760838
 20
14.89856693195442
 10
194.4492171072758
 20
14.83515804544759
 10
194.538993023311
 20
14.7752563421956
 10
194.5883817636046
 20
14.72102154849206
 10
194.6745708157382
 20
14.69286240541834
 10
194.6411260674229
 20
14.65713309652811
 10
194.621467116631
 20
14.62550387991906
 10
194.5919888217882
 20
14.58475872796069
 10
194.5688989446032
 20
14.55504663489644
 10
194.5380205968356
 20
14.50211422668493
 10
194.472919336574
 20
14.62740334938902
 10
194.3796000122415
 20
14.68213900233933
 10
194.2950636285138
 20
14.73916423939343
 10
194.1722498125743
 20
14.89675287427524
 10
194.17644508473
 20
14.82035806766837
 10
194.1751478652678
 20
14.77361280161297
 10
194.1758126448076
 20
14.69584785812602
 10
194.1755549986956
 20
14.59902068324423
 10
194.1756431239922
 20
14.4865027907881
 10
194.1756077302281
 20
14.36524085945699
 10
194.1756511758279
 20
14.24086897858962
 10
194.1755199942406
 20
14.11967683631336
 10
194.1759477562046
 20
14.00691148919744
 10
194.174667820231
 20
13.91082913768744
 10
194.1779759851044
 20
13.831138264687
 10
194.1715197740085
 20
13.78815175788784
 10
194.1806208705556
 20
13.74955432372043
 10
194.1447910339935
 20
13.7581088772407
 10
194.1115223815253
 20
13.75342519985447
 10
194.0604562576041
 20
13.75351298759784
 10
194.0269723972813
 20
13.75794430283821
 10
193.9907585408754
 20
13.74960793842508
 10
194.0009782568666
 20
13.79145277179284
 10
193.9936487887773
 20
13.83778560820173
 10
193.9973633136103
 20
13.92374831106014
 10
193.9959480554897
 20
14.02605142704849
 10
193.9964105554639
 20
14.14453223931512
 10
193.9962773686231
 20
14.26957683153356
 10
193.9963015910045
 20
14.3947582810705
 10
193.9963354925552
 20
14.51286645379058
 10
193.9962060293133
 20
14.61628748709516
 10
193.9965507549082
 20
14.69932036153667
 10
193.9958698278691
 20
14.75143368521243
 10
193.9994586600623
 20
14.87912907821362
 10
193.7826171386438
 20
14.58048716819621
 10
193.6021354921949
 20
14.35263981511509
 10
193.5490322295612
 20
14.49373443289817
 10
193.5200429133149
 20
14.54325767560942
 10
193.419664806282
 20
14.64641779790105
 10
193.7405127723261
 20
14.72695035023779
 10
193.8689897005429
 20
14.91066283036433
 10
194.0906454325359
 20
15.1193199577176
 10
194.1770224894069
 20
15.29339211228343
 10
194.4549394229073
 20
15.56967051342511
 10
194.3346247839284
 20
15.56534559551113
 10
194.2863197351348
 20
15.56614856202551
 10
194.2102377454905
 20
15.56574582146583
 10
194.116701000975
 20
15.56590275611608
 10
194.0117594788557
 20
15.56582502576223
 10
193.9033887738717
 20
15.56595464378553
 10
193.7981454235897
 20
15.56554393490691
 10
193.7056237819412
 20
15.5668207367159
 10
193.6268130800707
 20
15.56340766534849
 10
193.5839674565379
 20
15.57023350036319
 10
193.5449499586515
 20
15.56065064201123
 10
193.5526365271864
 20
15.59420779565542
 10
193.5485464404312
 20
15.62523550322232
 10
193.5485531368814
 20
15.672365292709
 10
193.5526239724911
 20
15.70340941646778
 10
193.5449495574583
 20
15.73701861635903
 10
193.5834819405495
 20
15.72748410420872
 10
193.6241228014479
 20
15.73397435498071
 10
193.6951471850463
 20
15.73100150650254
 10
193.7729318149634
 20
15.73174761399158
 10
193.8507292246474
 20
15.73247814044525
 10
193.9217232089908
 20
15.7295423551416
 10
193.9624279791821
 20
15.73595468772952
 10
194.000985348991
 20
15.72650524176004
 10
193.9927342754929
 20
15.76264692158784
 10
193.9982346669358
 20
15.80129837613227
 10
193.9955754206164
 20
15.86913528561838
 10
193.9965815471534
 20
15.9459164153874
 10
193.996017801832
 20
16.02849393582757
 10
193.9970714526593
 20
16.10517329229878
 10
193.9942675863131
 20
16.173319907767
 10
194.0000702721305
 20
16.21132399809346
 10
193.991565455116
 20
16.24758448077646
 10
194.0255610233125
 20
16.23755723771853
 10
194.0594575683099
 20
16.24073266813706
 10
194.1126669060347
 20
16.2350896564061
 10
194.1660768574483
 20
16.23434774436425
 10
194.199591464949
 20
16.2281922348298
 10
194.2388086183039
 20
16.23346029773593
 10
194.2120263698492
 20
16.19253380793488
 10
194.1708111001723
 20
16.20371204538112
 10
194.1782641540873
 20
16.15867056192123
 10
194.1742227952184
 20
16.11412278028144
 10
194.176171404964
 20
16.04223572621703
 10
194.1752364849758
 20
15.96168630588771
 10
194.176510719003
 20
15.88173995404994
 10
194.1732043793863
 20
15.80841837083183
 10
194.1802106179961
 20
15.76688643002568
 10
194.1701440380126
 20
15.72752418568113
 10
194.2029814803921
 20
15.73468063430981
 10
194.236457729648
 20
15.73027243137945
 10
194.2915053476019
 20
15.73217943347897
 10
194.3489502595314
 20
15.73185366407288
 10
194.4023026248309
 20
15.73106308733081
 10
194.4398540896638
 20
15.73313959118074
 10
194.4623172523237
 20
15.73022338167109
 10
194.4751678073731
 20
15.73572552644056
 10
194.4858255685888
 20
15.7380111819779
 10
194.4986635650143
 20
15.74494972588052
 10
194.5145991033071
 20
15.72853046313672
 10
194.5410623920891
 20
15.71709122319449
 10
194.5726805253757
 20
15.6964468783519
 10
194.5987255892151
 20
15.68116869628295
 10
194.6128517723973
 20
15.67266976323184
 10
194.6170254148479
 20
15.67015871511028
 97
        1
330
A8
 75
     1
 76
     2
 52
45.0
 41
0.1
 77
     0
 78
     1
 53
45.0
 43
0.0
 44
0.0
 45
-0.282842712474619
 46
0.0
 79
     0
 98
        1
 10
0.0
 20
0.0
  0
HATCH
  5
C6
330
48
100
AcDbEntity
  8
1
  6
Continuous
 62
     2
100
AcDbHatch
 10
0.0
 20
0.0
 30
0.0
210
0.0
220
0.0
230
1.0
  2
CUSTOM4
 70
     0
 71
     1
 91
        1
 92
        1
 93
        1
 72
     4
 94
        3
 73
     0
 74
     0
 95
       91
 96
       87
 40
0.0
 40
0.0
 40
0.0
 40
0.0
 40
0.0267532254356701
 40
0.0856103386464102
 40
0.1444674521996621
 40
0.1712206856618514
 40
0.2039416005642536
 40
0.2955601971652484
 40
0.4362601844617202
 40
0.6162252844507534
 40
0.8256392189704982
 40
1.054685709844468
 40
1.293548478893588
 40
1.532411247938332
 40
1.761457738799596
 40
1.970871673298593
 40
2.150836773256818
 40
2.291536760495679
 40
2.383155356836757
 40
2.415876284101405
 40
2.44262951748805
 40
2.50148663094918
 40
2.560343744424327
 40
2.5870969778266
 40
2.617068194441027
 40
2.699247336756197
 40
2.822032643466481
 40
2.973822353258039
 40
3.143014704823481
 40
3.31800793688006
 40
3.487200288186894
 40
3.638989997548431
 40
3.76177530379493
 40
3.843954445753265
 40
3.87392566222996
 40
3.890812773500668
 40
3.907699884771846
 40
3.937960767857452
 40
3.980983618142401
 40
4.199085915228583
 40
4.439444339237374
 40
4.677588241261018
 40
5.050698317837904
 40
5.448212454763318
 40
5.855291218044901
 40
6.138575438885614
 40
6.417434507584463
 40
6.444551104394147
 40
6.504207617363448
 40
6.563864130314773
 40
6.590980727104367
 40
6.848609460381771
 40
7.109611990668729
 40
7.352910904446412
 40
7.5578302207058
 40
7.587518925913717
 40
7.652834077376159
 40
7.718149228846142
 40
7.747837934062445
 40
7.854880190301368
 40
7.97651125740389
 40
8.36948789659272
 40
8.75751495922407
 40
9.126072419331532
 40
9.460639380392594
 40
9.746695593036335
 40
9.777569943119113
 40
9.807050320932213
 40
9.830377336129345
 40
9.88600329543642
 40
9.952395569430337
 40
10.00802152870669
 40
10.03134854388261
 40
10.21356951009635
 40
10.42203479292914
 40
10.6615455673111
 40
10.9169378956435
 40
11.15832906556609
 40
11.18982674596666
 40
11.27286608520451
 40
11.39026653033393
 40
11.52484752840929
 40
11.65942852648491
 40
11.77682897161527
 40
11.85986831085726
 40
11.89136598230471
 40
11.89136598230471
 40
11.89136598230471
 40
11.89136598230471
 10
190.7027885008196
 20
14.70699600701772
 10
190.7028237765288
 20
14.71587847311985
 10
190.7029366710796
 20
14.74430237047346
 10
190.7012984568489
 20
14.79409639169803
 10
190.7069750292911
 20
14.83657564478154
 10
190.6956928731706
 20
14.88730154856847
 10
190.7632296979031
 20
14.87012900740109
 10
190.8388029210701
 20
14.88290227165996
 10
190.9828357056001
 20
14.87629729457382
 10
191.1569419185427
 20
14.87888462206466
 10
191.3639599611003
 20
14.87800591955553
 10
191.5894688172378
 20
14.87828207920027
 10
191.8251162293406
 20
14.87818339658662
 10
192.0607640531349
 20
14.87828184412767
 10
192.2862717580626
 20
14.87800678190789
 10
192.4932934632805
 20
14.87888186270734
 10
192.667388891529
 20
14.87630522678446
 10
192.8114492071986
 20
14.88288290449213
 10
192.8869691915294
 20
14.87016243405604
 10
192.954577603703
 20
14.88726400191687
 10
192.9430840140677
 20
14.83674785802941
 10
192.9505104581733
 20
14.79253252226501
 10
192.9428838927986
 20
14.7486796650361
 10
192.9546489459426
 20
14.69878374479327
 10
192.8930788491983
 20
14.71393227712512
 10
192.8256791738672
 20
14.70310665350673
 10
192.7013004056222
 20
14.70852031626237
 10
192.5554428236572
 20
14.70649205390785
 10
192.3893576440086
 20
14.70715777578387
 10
192.2188412621725
 20
14.70689643521242
 10
192.0519790855389
 20
14.70721553391094
 10
191.9087346827105
 20
14.70635302590762
 10
191.7773313869834
 20
14.70863300482988
 10
191.7239859134656
 20
14.70407704374202
 10
191.6485188456912
 20
14.70999914992877
 10
191.6769075779232
 20
14.70094169343353
 10
191.7033652409542
 20
14.6972591226893
 10
191.6633522907701
 20
14.66654271968277
 10
191.5713663691869
 20
14.67667591174628
 10
191.5439396207069
 20
14.43032502247788
 10
191.4478793967234
 20
14.27499558764375
 10
191.1917277964473
 20
13.94525417931569
 10
191.7627537732762
 20
14.08430022210452
 10
192.0173656320516
 20
14.08291779973363
 10
192.6279647048618
 20
13.99790569242085
 10
192.3340698578083
 20
14.29685417558204
 10
192.0133304286519
 20
14.44330856901778
 10
192.1313543360433
 20
14.50025540818286
 10
192.1724716466261
 20
14.52420099873347
 10
192.2156812394411
 20
14.5459975881123
 10
192.317457409445
 20
14.60928721253904
 10
192.4328867625247
 20
14.35147151408781
 10
192.6329591642278
 20
14.21616041113682
 10
192.7269077387229
 20
14.03792795138882
 10
192.9558829746393
 20
13.87997821027048
 10
192.8596031846708
 20
13.829159725763
 10
192.8167959763779
 20
13.79881292523053
 10
192.771824352878
 20
13.77466130281461
 10
192.7121720925213
 20
13.72552146747569
 10
192.6789731061326
 20
13.85997475673611
 10
192.5582013350796
 20
14.01594265286581
 10
192.1970976005979
 20
13.88569928059556
 10
191.8385061955541
 20
13.90224694409483
 10
191.457092045008
 20
13.89331229351864
 10
191.1703455282891
 20
13.82882671672408
 10
190.8592055599715
 20
13.94230668192827
 10
190.8268737818788
 20
13.83122259927767
 10
190.7896178253318
 20
13.81196313850013
 10
190.7865737632753
 20
13.85874784087297
 10
190.7679892860607
 20
13.89806853919135
 10
190.7512436616778
 20
13.95765983478233
 10
190.7383730915753
 20
14.00201969871284
 10
190.7042327806429
 20
14.09106331120202
 10
190.9482714457754
 20
14.02181042943769
 10
191.1441394486671
 20
14.00030369057746
 10
191.2395426381278
 20
14.28226484478462
 10
191.2945135769597
 20
14.44363045421122
 10
191.5159619357157
 20
14.71391177589737
 10
191.3849239381216
 20
14.70548446853735
 10
191.3110026555854
 20
14.70779008496969
 10
191.1977459876244
 20
14.70671378321658
 10
191.0694251807484
 20
14.7070763907651
 10
190.9404252030415
 20
14.70697724466086
 10
190.828784094629
 20
14.70699932712572
 10
190.7514663970026
 20
14.7069957918967
 10
190.713287653201
 20
14.70699595845081
 10
190.7027885008196
 20
14.70699600701772
 97
        1
330
A9
 75
     1
 76
     2
 52
45.0
 41
0.1
 77
     0
 78
     1
 53
45.0
 43
0.0
 44
0.0
 45
-0.282842712474619
 46
0.0
 79
     0
 98
        1
 10
0.0
 20
0.0
  0
HATCH
  5
C7
330
48
100
AcDbEntity
  8
1
  6
Continuous
 62
     2
100
AcDbHatch
 10
0.0
 20
0.0
 30
0.0
210
0.0
220
0.0
230
1.0
  2
CUSTOM5
 70
     0
 71
     1
 91
        1
 92
        1
 93
        1
 72
     4
 94
        3
 73
     0
 74
     0
 95
       35
 96
       31
 40
0.0
 40
0.0
 40
0.0
 40
0.0
 40
0.0335231036620645
 40
0.0713218571712051
 40
0.4278866681487029
 40
0.8116865841964049
 40
1.198190238000062
 40
1.561379546812689
 40
1.659983174622065
 40
1.759315573807201
 40
2.132719617231062
 40
2.525233363588789
 40
2.910815397779697
 40
3.265244364303288
 40
3.592606723582026
 40
3.964386154603971
 40
4.359942131737791
 40
4.758154118639301
 40
4.843846538699911
 40
4.936650065543179
 40
5.256616602537233
 40
5.58170740441592
 40
5.899719158308057
 40
6.198363494280625
 40
6.466301046615655
 40
6.493895311536977
 40
6.559697020196769
 40
6.638234543442344
 40
6.704036252154097
 40
6.731630508422903
 40
6.731630508422903
 40
6.731630508422903
 40
6.731630508422903
 10
191.9736010568669
 20
16.23463843719134
 10
191.9676006097789
 20
16.22480690542323
 10
191.9548344099157
 20
16.20388988579798
 10
191.7949362006554
 20
16.17127126532689
 10
192.2322025842337
 20
15.88206680336702
 10
192.4345394828262
 20
15.68041138358439
 10
192.6819564267973
 20
15.43749387603277
 10
193.1831513624606
 20
15.36047662757777
 10
193.012556219897
 20
15.21876939174656
 10
192.9383299463201
 20
15.01710366209108
 10
192.6131432248188
 20
15.36956287174726
 10
192.3277741670664
 20
15.53175212559564
 10
192.0337604077658
 20
15.73687130053045
 10
191.8084452691134
 20
16.21827488595455
 10
191.5993085055522
 20
15.75343046609223
 10
191.3207873674833
 20
15.54350952252912
 10
191.0371383177209
 20
15.37424456359985
 10
190.7078639527831
 20
15.00142360907938
 10
190.6277012318224
 20
15.19708014458999
 10
190.4759724909745
 20
15.32491104190602
 10
190.9083395826796
 20
15.40454031765933
 10
191.0962565329766
 20
15.60026634915478
 10
191.3468477420503
 20
15.81632996916752
 10
191.5714350470161
 20
15.98190992300062
 10
191.6259775409712
 20
16.26133964636826
 10
191.7494661029011
 20
16.24737950408079
 10
191.806027334452
 20
16.24521268867647
 10
191.8761870984944
 20
16.2404685988136
 10
191.9333414022105
 20
16.23709429350541
 10
191.9644190320839
 20
16.23519854711119
 10
191.9736010568669
 20
16.23463843719134
 97
        1
330
AA
 75
     1
 76
     2
 52
45.0
 41
0.1
 77
     0
 78
     1
 53
45.0
 43
0.0
 44
0.0
 45
-0.282842712474619
 46
0.0
 79
     0
 98
        1
 10
0.0
 20
0.0
  0
HATCH
  5
C8
330
48
100
AcDbEntity
  8
1
  6
Continuous
 62
     2
100
AcDbHatch
 10
0.0
 20
0.0
 30
0.0
210
0.0
220
0.0
230
1.0
  2
CUSTOM6
 70
     0
 71
     1
 91
        1
 92
        1
 93
        1
 72
     4
 94
        3
 73
     0
 74
     0
 95
       15
 96
       11
 40
0.0
 40
0.0
 40
0.0
 40
0.0
 40
0.2785535985096117
 40
0.5215624748198833
 40
0.6076917376040882
 40
0.6938210001741824
 40
0.9405019146455637
 40
1.221691403489198
 40
1.300471877081137
 40
1.379252341684945
 40
1.379252341684945
 40
1.379252341684945
 40
1.379252341684945
 10
189.5681493631
 20
16.22930267330381
 10
189.6296017794179
 20
16.17691646592716
 10
189.7446649974113
 20
16.07882876798219
 10
190.0397348497245
 20
15.92889785897219
 10
189.9025147631856
 20
15.84343227515015
 10
189.8041227843778
 20
15.71085785201556
 10
189.7130033590649
 20
16.01616985781419
 10
189.3636839480654
 20
16.07967869465376
 10
189.5119258376571
 20
16.17896509880879
 10
189.5494081874237
 20
16.21252348402383
 10
189.5681493631
 20
16.22930267330381
 97
        1
330
AB
 75
     1
 76
     2
 52
45.0
 41
0.1
 77
     0
 78
     1
 53
45.0
 43
0.0
 44
0.0
 45
-0.282842712474619
 46
0.0
 79
     0
 98
        1
 10
0.0
 20
0.0
  0
HATCH
  5
C9
330
48
100
AcDbEntity
  8
1
  6
Continuous
 62
     2
100
AcDbHatch
 10
0.0
 20
0.0
 30
0.0
210
0.0
220
0.0
230
1.0
  2
CUSTOM7
 70
     0
 71
     1
 91
        1
 92
        1
 93
        1
 72
     4
 94
        3
 73
     0
 74
     0
 95
       75
 96
       71
 40
0.0
 40
0.0
 40
0.0
 40
0.0
 40
0.0342546099129691
 40
0.1245622414432346
 40
0.2522385480897536
 40
0.398599192294068
 40
0.5449598364980839
 40
0.6726361431438834
 40
0.7629437746736978
 40
0.797198393529799
 40
1.101723623449666
 40
1.40859124403667
 40
1.433332471690374
 40
1.487763172450169
 40
1.542193873081994
 40
1.566935100592542
 40
1.923523931821855
 40
2.271755704953656
 40
2.590579755100899
 40
2.858943305581158
 40
2.889120339309153
 40
2.918305855191071
 40
2.941366645531194
 40
2.996357760973098
 40
3.061992318140665
 40
3.116983433626866
 40
3.140044223997545
 40
3.411273122936463
 40
3.732441619741128
 40
3.761068217532826
 40
3.837787499630388
 40
3.948858699126025
 40
4.0805410491044
 40
4.219093782625783
 40
4.350776132722332
 40
4.461847332405665
 40
4.538566614678396
 40
4.567193212544642
 40
4.5949075739989
 40
4.666381453557439
 40
4.764111044011021
 40
4.870592538125824
 40
4.968322128642218
 40
5.039796008286932
 40
5.067510369784363
 40
5.094263603185577
 40
5.153120716668218
 40
5.211977830150668
 40
5.238731063551675
 40
5.272290535138942
 40
5.363380529444746
 40
5.497618415781452
 40
5.660621563453666
 40
5.838007341749367
 40
6.015393119910747
 40
6.178396267038344
 40
6.312634151842324
 40
6.403724143059313
 40
6.437283612672409
 40
6.464036846261027
 40
6.522893960004647
 40
6.581751071483915
 40
6.608504301590863
 40
6.637253941281011
 40
6.711397748902891
 40
6.812778057283503
 40
6.92323719924928
 40
7.024617507623923
 40
7.098761315207633
 40
7.127510946007583
 40
7.127510946007583
 40
7.127510946007583
 40
7.127510946007583
 10
188.4418622390564
 20
14.95849128473263
 10
188.4418622819707
 20
14.94707313408719
 10
188.4418624481129
 20
14.90555257842628
 10
188.4418593081786
 20
14.8214692200377
 10
188.4418788279801
 20
14.70004497322327
 10
188.4417912187737
 20
14.55980494047446
 10
188.442111623523
 20
14.42006556794575
 10
188.441160590974
 20
14.29745038894928
 10
188.4431978595967
 20
14.21587074438042
 10
188.4349433178745
 20
14.06271267077696
 10
188.74307979409
 20
14.22560236054722
 10
189.0350645173737
 20
14.39482938688003
 10
189.0408354448707
 20
14.25973235781911
 10
189.0455471719891
 20
14.21617221160445
 10
189.0482535411917
 20
14.17211249350545
 10
189.0672545672961
 20
14.02272590363136
 10
188.6583942247302
 20
14.08681172241261
 10
188.3793710348832
 20
13.97296341411018
 10
188.1018081587166
 20
13.87364095811138
 10
187.80998371844
 20
13.91630687596362
 10
187.7869144678658
 20
13.81321679744539
 10
187.7537474383334
 20
13.7869109124447
 10
187.7480653962739
 20
13.83455309036305
 10
187.7284214559044
 20
13.87180336115069
 10
187.7095089485623
 20
13.93007387847564
 10
187.6942849867707
 20
13.97385201007805
 10
187.6477246372937
 20
14.08759421046313
 10
187.9890897312449
 20
14.05576301120046
 10
188.2679649367388
 20
14.02161435106479
 10
188.2617753034906
 20
14.16913976479652
 10
188.2630935452774
 20
14.24013150908832
 10
188.2624831689948
 20
14.34719767958661
 10
188.2625871570725
 20
14.47398529785997
 10
188.2629987964055
 20
14.6084924349605
 10
188.2613907841969
 20
14.73395549951183
 10
188.2659902567925
 20
14.84505246719117
 10
188.256418650221
 20
14.90761886800687
 10
188.2704001783691
 20
14.96595388295
 10
188.2147384386705
 20
14.95289710582237
 10
188.1575655197822
 20
14.96136307749498
 10
188.0616048925647
 20
14.95729976080635
 10
187.9633767522822
 20
14.95970889852473
 10
187.8672582457561
 20
14.95551600613387
 10
187.8104648525812
 20
14.96429346441162
 10
187.7550356873385
 20
14.9509493685012
 10
187.7670679427918
 20
15.00036910959256
 10
187.7592003173937
 20
15.04393988030395
 10
187.766629556383
 20
15.08830469118525
 10
187.7551930564144
 20
15.13902297763992
 10
187.8232102370134
 20
15.12162460757743
 10
187.8968496879747
 20
15.13417450237189
 10
188.0325064058211
 20
15.12799677011096
 10
188.1884909024526
 20
15.13029203093085
 10
188.3615926358144
 20
15.1294096826253
 10
188.5346942964182
 20
15.13029207142408
 10
188.6906789811218
 20
15.1279966295555
 10
188.8263351889798
 20
15.13417486262431
 10
188.8999756705653
 20
15.12162394218335
 10
188.9679914174724
 20
15.13902373012143
 10
188.9565590885923
 20
15.08830130414555
 10
188.9639539458297
 20
15.04397060811107
 10
188.9562039912272
 20
15.00028307550195
 10
188.9681203741877
 20
14.95063590098476
 10
188.9108170223618
 20
14.96461411338425
 10
188.8520145789773
 20
14.95539755673252
 10
188.75252936332
 20
14.95952268164929
 10
188.649428009835
 20
14.95822760025886
 10
188.5537846354574
 20
14.9585407707764
 10
188.4857467971617
 20
14.95848776697143
 10
188.4514462213443
 20
14.95849051871655
 10
188.4418622390564
 20
14.95849128473263
 97
        1
330
AC
 75
     1
 76
     2
 52
45.0
 41
0.1
 77
     0
 78
     1
 53
45.0
 43
0.0
 44
0.0
 45
-0.282842712474619
 46
0.0
 79
     0
 98
        1
 10
0.0
 20
0.0
  0
HATCH
  5
CA
330
48
100
AcDbEntity
  8
1
  6
Continuous
 62
     2
100
AcDbHatch
 10
0.0
 20
0.0
 30
0.0
210
0.0
220
0.0
230
1.0
  2
CUSTOM8
 70
     0
 71
     1
 91
        1
 92
        1
 93
        1
 72
     4
 94
        3
 73
     0
 74
     0
 95
       91
 96
       87
 40
0.0
 40
0.0
 40
0.0
 40
0.0
 40
0.0345987051695718
 40
0.1258134969461369
 40
0.2547723404888987
 40
0.4026032099154125
 40
0.5504340793416704
 40
0.679392922883608
 40
0.7706077146571035
 40
0.8052064287780925
 40
1.124852390615281
 40
1.427402236308882
 40
1.706356627453523
 40
1.955541417875208
 40
2.169485938566353
 40
2.344350786664823
 40
2.480568411561953
 40
2.590440557428948
 40
2.6491899271511
 40
2.749320643306299
 40
2.912632739880006
 40
3.147745656000209
 40
3.2448274963851
 40
3.338490056946692
 40
3.583815413207119
 40
3.761423943238479
 40
3.886956104362643
 40
3.985855451886803
 40
4.091766255337688
 40
4.250186473811881
 40
4.422734315084526
 40
4.628285684838619
 40
4.872093227758451
 40
5.152549652145562
 40
5.464967135837539
 40
5.803201477852454
 40
6.160362988813931
 40
6.193449448276015
 40
6.284170385501669
 40
6.419718138764511
 40
6.587285046385789
 40
6.774063446723675
 40
6.967245678113658
 40
7.154024078817672
 40
7.321590987026029
 40
7.457138740890388
 40
7.547859678556124
 40
7.580946138182684
 40
7.608533084714734
 40
7.669224367077701
 40
7.729915649429913
 40
7.75750259594996
 40
7.790278062553442
 40
7.880146277430912
 40
8.014419963180346
 40
8.180411842397847
 40
8.365434637679316
 40
8.556801071622589
 40
8.741823866830673
 40
8.90781574591624
 40
9.042089431507337
 40
9.131957646249463
 40
9.16473311279704
 40
9.415425063139974
 40
9.667986180958444
 40
9.694169807462611
 40
9.75660768604757
 40
9.831130315322376
 40
9.89356819389984
 40
9.919751820398657
 40
9.950967964690495
 40
9.996421631210604
 40
10.22087981037449
 40
10.44341866197539
 40
10.47847970788851
 40
10.57091337438752
 40
10.70159545461226
 40
10.85140174170357
 40
11.00120802880474
 40
11.13189010907379
 40
11.22432377583007
 40
11.25938480938953
 40
11.28697175596141
 40
11.34766303835915
 40
11.40835432042064
 40
11.43594125892099
 40
11.43594125892099
 40
11.43594125892099
 40
11.43594125892099
 10
190.0818114333289
 20
15.55242795125078
 10
190.0702785844941
 20
15.55242790287916
 10
190.0283409444998
 20
15.55242773704165
 10
189.9434129719026
 20
15.5524312580091
 10
189.8207688553128
 20
15.55240926435879
 10
189.6791206916993
 20
15.55250801177055
 10
189.537975369849
 20
15.55214686232421
 10
189.4141351317904
 20
15.5532188360909
 10
189.3317217825382
 20
15.55092249091269
 10
189.1727791229692
 20
15.56048569373421
 10
189.3503402353376
 20
15.19785394311371
 10
189.3379739205453
 20
14.95243127723115
 10
189.4064519473864
 20
14.66862501324835
 10
189.469302432097
 20
14.43250999939036
 10
189.5452253431729
 20
14.23326740396128
 10
189.6303189577017
 20
14.07745347451375
 10
189.7244607592936
 20
13.97657857781392
 10
189.8282648207727
 20
13.92465852638965
 10
189.9125872030774
 20
13.97606484379617
 10
189.9351322179451
 20
14.09144544037516
 10
189.9745730975371
 20
14.2188514970238
 10
189.9202919734943
 20
14.53622328086756
 10
190.0451218072473
 20
14.38982180140905
 10
190.2019291513603
 20
14.35795300331171
 10
190.0947720007057
 20
14.12421357767628
 10
190.0808711209867
 20
13.95972776583656
 10
190.0234709467225
 20
13.83130869122483
 10
189.9335020145008
 20
13.76018802352826
 10
189.8095274657877
 20
13.74432324142254
 10
189.663427319686
 20
13.77993797554171
 10
189.5243894320284
 20
13.90000570500277
 10
189.4102003962144
 20
14.0743568255032
 10
189.3146141301486
 20
14.2994660311124
 10
189.2318652572625
 20
14.56388246006442
 10
189.1807179256412
 20
14.88187933098543
 10
189.077018920734
 20
15.15543728488914
 10
189.2042841208519
 20
15.56005818612868
 10
189.035789062302
 20
15.5511236784968
 10
188.9511995787077
 20
15.55315961418364
 10
188.8189876387628
 20
15.55213937388407
 10
188.6560505094104
 20
15.5525323031843
 10
188.4733759170534
 20
15.55235696313369
 10
188.2847057373383
 20
15.55260105307469
 10
188.101446902019
 20
15.55185657906238
 10
187.9404746832718
 20
15.55416360522426
 10
187.8029808335277
 20
15.54799804883663
 10
187.7289590372311
 20
15.56032838458212
 10
187.6613215186858
 20
15.54329323723557
 10
187.673237371927
 20
15.59524438447528
 10
187.6655677285694
 20
15.64071424966529
 10
187.6732592225116
 20
15.68614453703704
 10
187.6613141797762
 20
15.73802395984569
 10
187.7283588305868
 20
15.72119143490262
 10
187.8017375665677
 20
15.73335409092669
 10
187.9379128305273
 20
15.72727231074956
 10
188.0973811801513
 20
15.72954834315056
 10
188.2789173085837
 20
15.72881233998961
 10
188.4658034862179
 20
15.72905954196131
 10
188.6468012316836
 20
15.72886400799252
 10
188.8080802578879
 20
15.72932234714837
 10
188.9393882124887
 20
15.72812673751204
 10
189.0225051322596
 20
15.73051347319741
 10
189.1556236547814
 20
15.72230605725462
 10
189.0645893502659
 20
15.97752868952654
 10
188.9789633074419
 20
16.24164358328246
 10
189.0990589003455
 20
16.22904442969165
 10
189.1514264948544
 20
16.22694235763075
 10
189.2214497569715
 20
16.22535399889657
 10
189.2671922337817
 20
16.21602567538113
 10
189.3220812646933
 20
16.22545966915427
 10
189.2963574785681
 20
16.17733028655172
 10
189.1825397571453
 20
16.18266829744168
 10
189.3159346621135
 20
15.95449174576775
 10
189.1943658735472
 20
15.72156856595921
 10
189.3223188769413
 20
15.73087258884437
 10
189.4049048406461
 20
15.72801001754678
 10
189.5307214850824
 20
15.729234374123
 10
189.6741469838058
 20
15.72932431888962
 10
189.8157420951728
 20
15.72746163183851
 10
189.9459127249968
 20
15.73333075937161
 10
190.019345228619
 20
15.72070340823201
 10
190.0891112922097
 20
15.7387756311041
 10
190.0775772605396
 20
15.68612850546325
 10
190.0833184346683
 20
15.64221317686548
 10
190.081661577091
 20
15.59089982676548
 10
190.081775756167
 20
15.56158792021635
 10
190.0818114333289
 20
15.55242795125078
 97
        1
330
AD
 75
     1
 76
     2
 52
45.0
 41
0.1
 77
     0
 78
     1
 53
45.0
 43
0.0
 44
0.0
 45
-0.282842712474619
 46
0.0
 79
     0
 98
        1
 10
0.0
 20
0.0
  0
HATCH
  5
CB
330
48
100
AcDbEntity
  8
1
  6
Continuous
 62
     2
100
AcDbHatch
 10
0.0
 20
0.0
 30
0.0
210
0.0
220
0.0
230
1.0
  2
CUSTOM9
 70
     0
 71
     1
 91
        1
 92
        1
 93
        1
 72
     4
 94
        3
 73
     0
 74
     0
 95
      118
 96
      114
 40
0.0
 40
0.0
 40
0.0
 40
0.0
 40
0.1054708162973424
 40
0.2466098270051938
 40
0.3965912874591291
 40
0.5285525069754047
 40
0.6156245055642273
 40
0.64314341057976
 40
0.7036850037986319
 40
0.7642265984504745
 40
0.7917455052355062
 40
0.9287404319990077
 40
1.106572819088061
 40
1.287544879681061
 40
1.317578308030578
 40
1.399928030857216
 40
1.522968204799991
 40
1.675072986590612
 40
1.844616533180689
 40
2.019973001638753
 40
2.189516548880066
 40
2.341621331585404
 40
2.464661506320541
 40
2.547011229647104
 40
2.577044658168068
 40
2.603797890893139
 40
2.662655002908826
 40
2.721512114949638
 40
2.748265347702818
 40
2.774215307344894
 40
2.845959313407224
 40
2.954338556588423
 40
3.0901942275856
 40
3.244367517100564
 40
3.407699615844324
 40
3.571031714539474
 40
3.72520500392015
 40
3.86106067472965
 40
3.969439917716343
 40
4.041183923629015
 40
4.067133883213009
 40
4.311886746012195
 40
4.547897258335561
 40
4.764747083044005
 40
4.952749679951812
 40
5.045772974195945
 40
5.13786201964503
 40
5.330543169793081
 40
5.553448265244073
 40
5.795083855888254
 40
6.04329341217732
 40
6.285761695541278
 40
6.31390290875279
 40
6.38425594179338
 40
6.475714884766968
 40
6.567173827759059
 40
6.637526860839865
 40
6.665668074074229
 40
6.692018920328201
 40
6.749990782071266
 40
6.807962643790634
 40
6.834313490018105
 40
6.856393084245384
 40
6.913335195650007
 40
6.991194817302671
 40
7.076026942283932
 40
7.153886563725423
 40
7.210828674845005
 40
7.23290826893134
 40
7.258199334923861
 40
7.324875781592511
 40
7.419142481925168
 40
7.527204308842108
 40
7.635266135230686
 40
7.729532834168672
 40
7.796209279292994
 40
7.82150034459494
 40
7.844652988851011
 40
7.89986314054179
 40
7.965759128053956
 40
8.02096927977124
 40
8.044121924046706
 40
8.069356610160781
 40
8.109134395441579
 40
8.132238100191291
 40
8.193147867786656
 40
8.279261678876829
 40
8.377977512674043
 40
8.476693347146826
 40
8.56280716041188
 40
8.623716930826667
 40
8.646820636853619
 40
8.671988793774432
 40
8.734909185828343
 40
8.816705695189057
 40
8.898502204815628
 40
8.961422597378089
 40
8.986590754551202
 40
9.012941600733354
 40
9.070913462380437
 40
9.128885324081926
 40
9.155236170325248
 40
9.18040432792929
 40
9.243324721948364
 40
9.325121234212157
 40
9.406917746637811
 40
9.469838141978267
 40
9.49500628827104
 40
9.517811184379182
 40
9.572192090487182
 40
9.637098333281413
 40
9.691479239515612
 40
9.714284125643651
 40
9.714284125643651
 40
9.714284125643651
 40
9.714284125643651
 10
185.2874469028653
 20
15.2688916318772
 10
185.3090990569037
 20
15.24111869242812
 10
185.3597257109474
 20
15.17618054561237
 10
185.4349383202591
 20
15.06891060312898
 10
185.5248482274346
 20
14.95377438266625
 10
185.5709169676673
 20
14.85357045748319
 10
185.6655825294655
 20
14.78434006814943
 10
185.6204439320412
 20
14.73771639678274
 10
185.594704778579
 20
14.69660308866038
 10
185.5645196708012
 20
14.66065971727939
 10
185.5193684730562
 20
14.58579782596092
 10
185.4710504458562
 20
14.80782524253605
 10
185.3968539713073
 20
14.84510677337709
 10
185.2836047324606
 20
15.11610202130601
 10
185.288513357817
 20
15.00095328446228
 10
185.2868486556306
 20
14.92836675781627
 10
185.2876830076714
 20
14.80625588483986
 10
185.2873609540264
 20
14.6591380081046
 10
185.2875076912456
 20
14.49307063956557
 10
185.2872950092722
 20
14.32187554608602
 10
185.2879497252034
 20
14.15552828635498
 10
185.2859192461139
 20
14.00935173055693
 10
185.291346039993
 20
13.8847104747461
 10
185.2804930868708
 20
13.81718656540626
 10
185.2956739155555
 20
13.75549061417022
 10
185.2457895108133
 20
13.76727503897002
 10
185.2017150342522
 20
13.75943822779969
 10
185.15823716302
 20
13.76760441372703
 10
185.1092346786489
 20
13.75538056738468
 10
185.1218731234824
 20
13.80960667249313
 10
185.113018296845
 20
13.86936918907557
 10
185.1175058770314
 20
13.97922029044371
 10
185.1157960135991
 20
14.11029975405679
 10
185.1163550915986
 20
14.26198011444328
 10
185.1161928768694
 20
14.42211074929953
 10
185.1162269924675
 20
14.58236865674566
 10
185.1162514960127
 20
14.73370247520439
 10
185.1161453543224
 20
14.86582156338601
 10
185.1164299141932
 20
14.97294802533193
 10
185.1158675547567
 20
15.03808619579473
 10
185.118076508369
 20
15.16618957858676
 10
185.0319435998602
 20
14.79097610391575
 10
184.95551408185
 20
14.63918193123395
 10
184.8660040767834
 20
14.47766206446305
 10
184.7640413217326
 20
14.2047184882017
 10
184.7187976491039
 20
14.3671734659651
 10
184.610235594167
 20
14.4560543205812
 10
184.7995791751753
 20
14.60549794961408
 10
184.85653405457
 20
14.79749136974927
 10
184.9717520993353
 20
15.02899622906755
 10
184.9940151630132
 20
15.21797259759065
 10
185.1771905152141
 20
15.49454089325931
 10
185.0538033597552
 20
15.48698978832095
 10
184.9925684166834
 20
15.48856772366119
 10
184.9081999617064
 20
15.48882592573674
 10
184.8204235085966
 20
15.48544845751206
 10
184.7656768696123
 20
15.49394814982022
 10
184.7104703026024
 20
15.48048561049788
 10
184.7222823035536
 20
15.52931442126764
 10
184.7142496151793
 20
15.57269004896709
 10
184.7228186104679
 20
15.61509438309573
 10
184.7102943409157
 20
15.66267796552118
 10
184.7555101538735
 20
15.65267212995109
 10
184.8014815562723
 20
15.65894105174061
 10
184.877722204771
 20
15.65593561405872
 10
184.9561296131993
 20
15.65770448278541
 10
185.0323992648932
 20
15.65464793981659
 10
185.0783009459475
 20
15.66103971376177
 10
185.12317339654
 20
15.65093822978896
 10
185.1105552275634
 20
15.70157201581898
 10
185.1191936582707
 20
15.7550126188207
 10
185.1152361595443
 20
15.8486325513168
 10
185.1162325068335
 20
15.95112606688924
 10
185.1171927413073
 20
16.05353270248163
 10
185.1133211458005
 20
16.14735929609321
 10
185.1217789814364
 20
16.20036542840353
 10
185.1093075932835
 20
16.25211435651188
 10
185.1542106389849
 20
16.23850747226757
 10
185.1955083836772
 20
16.24100480320585
 10
185.259534428105
 20
16.23648060574488
 10
185.2986111148786
 20
16.22781003043308
 10
185.3476543498742
 20
16.23515102070687
 10
185.3225080030591
 20
16.19602896051756
 10
185.2815901333724
 20
16.20563842455809
 10
185.2910109616603
 20
16.15540148169778
 10
185.2855647318746
 20
16.1038594563949
 10
185.2881699601804
 20
16.0195970758452
 10
185.2870102202153
 20
15.92559135583408
 10
185.2883591064231
 20
15.83196865395526
 10
185.2849970101508
 20
15.74679517552223
 10
185.2920959917769
 20
15.69716856072044
 10
185.2812569154545
 20
15.64993694969989
 10
185.3304010225245
 20
15.66201674936851
 10
185.3794877630147
 20
15.65447393363011
 10
185.4573714280642
 20
15.65686070361432
 10
185.5350365172896
 20
15.65899381905415
 10
185.5845393931355
 20
15.65193391922455
 10
185.6344594750639
 20
15.66360151936214
 10
185.6223198516881
 20
15.61540235371393
 10
185.6305838229144
 20
15.57249219801236
 10
185.6223198650783
 20
15.52958201851385
 10
185.6344594549855
 20
15.48138288754865
 10
185.5845395158746
 20
15.49305034471511
 10
185.5350350651203
 20
15.48599202435046
 10
185.4573784382972
 20
15.48811665228604
 10
185.379464386576
 20
15.49053389365761
 10
185.3304500352715
 20
15.48291848194486
 10
185.2813246108943
 20
15.49507952557594
 10
185.291555998857
 20
15.45073013424158
 10
185.2856677678054
 20
15.40925436202913
 10
185.2878788305569
 20
15.34915394315304
 10
185.2874109346146
 20
15.3022578276289
 10
185.2874386992913
 20
15.27650146418197
 10
185.2874469028653
 20
15.2688916318772
 97
        1
330
AE
 75
     1
 76
     2
 52
45.0
 41
0.1
 77
     0
 78
     1
 53
45.0
 43
0.0
 44
0.0
 45
-0.282842712474619
 46
0.0
 79
     0
 98
        1
 10
0.0
 20
0.0
  0
HATCH
  5
CC
330
48
100
AcDbEntity
  8
1
  6
Continuous
 62
     2
100
AcDbHatch
 10
0.0
 20
0.0
 30
0.0
210
0.0
220
0.0
230
1.0
  2
CUSTOM10
 70
     0
 71
     1
 91
        1
 92
        1
 93
        1
 72
     4
 94
        3
 73
     0
 74
     0
 95
       47
 96
       43
 40
0.0
 40
0.0
 40
0.0
 40
0.0
 40
0.2207912809957213
 40
0.4459404186303042
 40
0.4902387190459256
 40
0.5327473892722205
 40
0.5742260451225534
 40
0.6155432630560826
 40
0.6568164066315745
 40
0.6982511618780672
 40
0.7407663929317176
 40
0.7851366743175237
 40
1.010288833836323
 40
1.231080507002173
 40
1.451765243652403
 40
1.676638205891687
 40
1.720461045359656
 40
1.830018144043521
 40
1.972442372353152
 40
2.114866600677522
 40
2.224423699395147
 40
2.268246538883388
 40
2.493628801207222
 40
2.715602830286619
 40
2.934211330706366
 40
3.149502369855355
 40
3.231387784850944
 40
3.318231873854036
 40
3.405143198198024
 40
3.48697030172046
 40
3.702258172493897
 40
3.920866283534122
 40
4.142839325931908
 40
4.368221903865375
 40
4.412044743359854
 40
4.52160184209587
 40
4.66402607045235
 40
4.806450298809058
 40
4.916007397546751
 40
4.959830237043074
 40
5.184703515847105
 40
5.405387250767482
 40
5.405387250767482
 40
5.405387250767482
 40
5.405387250767482
 10
182.6507427258645
 20
15.73406440953872
 10
182.6568139420003
 20
15.79758482501211
 10
182.6690762107242
 20
15.92587938689627
 10
182.5604706879413
 20
16.20166220174076
 10
182.6761985896603
 20
16.17188133432053
 10
182.7171842509016
 20
16.16765556262821
 10
182.7591205797518
 20
16.16310446389607
 10
182.800419662571
 20
16.16201982929485
 10
182.8417032115555
 20
16.16310338195227
 10
182.8836148270647
 20
16.16766112711344
 10
182.9245983549019
 20
16.17187430209728
 10
183.0404922843488
 20
16.20177611317533
 10
182.9295652727456
 20
15.92339806609889
 10
182.9574856365267
 20
15.74283140824953
 10
182.9404267346969
 20
15.50961042346471
 10
182.9414637282102
 20
15.34906622543145
 10
182.9414099399405
 20
15.22284817558722
 10
182.9414277372481
 20
15.12428963336241
 10
182.941418858108
 20
14.99280702442963
 10
182.9414263928033
 20
14.86132844968649
 10
182.9414129405129
 20
14.7627622269409
 10
182.9414531717492
 20
14.63639735624152
 10
182.9406746403817
 20
14.47482068822869
 10
182.9565958319266
 20
14.24361821892914
 10
182.9333468885407
 20
14.05874351972002
 10
183.0360183444366
 20
13.78935602770059
 10
182.8820238362836
 20
13.82660112685817
 10
182.8004129802832
 20
13.82137994680536
 10
182.7188192292583
 20
13.8266062037835
 10
182.5648513666843
 20
13.78937069885388
 10
182.6674183421916
 20
14.0587512986288
 10
182.6442045316088
 20
14.24361585325415
 10
182.6600444655138
 20
14.47482218565638
 10
182.6593296313427
 20
14.63639712308502
 10
182.6593664569907
 20
14.76276231210521
 10
182.659354900027
 20
14.86132756635981
 10
182.6593575019214
 20
14.9928112741722
 10
182.6593648531779
 20
15.124275480312
 10
182.6593442541351
 20
15.22287786275325
 10
182.6594082192028
 20
15.34896149354427
 10
182.6581733947591
 20
15.51210091383771
 10
182.6532040396745
 20
15.66054183777549
 10
182.6507427258645
 20
15.73406440953872
 97
        1
330
AF
 75
     1
 76
     2
 52
45.0
 41
0.1
 77
     0
 78
     1
 53
45.0
 43
0.0
 44
0.0
 45
-0.282842712474619
 46
0.0
 79
     0
 98
        1
 10
0.0
 20
0.0
  0
HATCH
  5
CD
330
48
100
AcDbEntity
  8
1
  6
Continuous
 62
     2
100
AcDbHatch
 10
0.0
 20
0.0
 30
0.0
210
0.0
220
0.0
230
1.0
  2
CUSTOM11
 70
     0
 71
     1
 91
        1
 92
        1
 93
        1
 72
     4
 94
        3
 73
     0
 74
     0
 95
      110
 96
      106
 40
0.0
 40
0.0
 40
0.0
 40
0.0
 40
0.2203406257277714
 40
0.4407808782838093
 40
0.595249449461507
 40
0.7488431659393073
 40
0.9023581831309343
 40
1.056801968670404
 40
1.210736449099933
 40
1.363041386539869
 40
1.515315729683155
 40
1.669377239148077
 40
1.721611652756564
 40
1.773199502942947
 40
1.824933793209997
 40
1.877110426487989
 40
1.982682281206752
 40
2.078781667087561
 40
2.172809640822283
 40
2.271937807378937
 40
2.37834993337933
 40
2.494131557736518
 40
2.626681683943624
 40
2.783145050795994
 40
2.890701232940859
 40
2.993130312454765
 40
3.099869730691731
 40
3.220237816691227
 40
3.352695482737516
 40
3.481732806389767
 40
3.593499473690299
 40
3.674323013331812
 40
3.817951711952762
 40
3.94616712079376
 40
4.061405053453445
 40
4.166480796003086
 40
4.26247877505918
 40
4.350736673551079
 40
4.433071991253965
 40
4.511216293814567
 40
4.56426245411789
 40
4.618474415571519
 40
4.670128488754098
 40
4.722296879126302
 40
4.81954094531417
 40
4.931194984128027
 40
5.049996040257668
 40
5.168643755415213
 40
5.283970811762425
 40
5.392260784910251
 40
5.486512254876297
 40
5.559178233949725
 40
5.591425852853384
 40
5.626215969637777
 40
5.667155838674305
 40
5.717449290214111
 40
5.738402360944725
 40
5.784499116553695
 40
5.830595872164668
 40
5.851548942897526
 40
5.873019280661641
 40
5.924217778408183
 40
5.985325662817562
 40
6.036524160567579
 40
6.057994498334107
 40
6.236847789607364
 40
6.381409928945532
 40
6.493190424178565
 40
6.574067534230374
 40
6.691018086205411
 40
6.814881554220301
 40
6.944307823240253
 40
7.071266716065877
 40
7.193488604461722
 40
7.309042773127949
 40
7.414007203170574
 40
7.505140441886414
 40
7.531150360599591
 40
7.559221645322177
 40
7.587202218920843
 40
7.612569159499047
 40
7.662550809480926
 40
7.70287887576406
 40
7.857328205230903
 40
8.010799568088606
 40
8.165256399657528
 40
8.322232698713895
 40
8.479564855016525
 40
8.635216230290785
 40
8.790882550925703
 40
8.948305154947269
 40
9.168271839032945
 40
9.38735898098723
 40
9.60804796103347
 40
9.832914234792666
 40
9.858338694963
 40
9.925366817230008
 40
10.02013071422759
 40
10.12876249858998
 40
10.23739428295248
 40
10.3321581799519
 40
10.39918630222393
 40
10.42461076239782
 40
10.64992019336943
 40
10.87188524531187
 40
10.87188524531187
 40
10.87188524531187
 40
10.87188524531187
 10
179.9057788376618
 20
15.7392326039819
 10
179.9092864933542
 20
15.80616462073804
 10
179.9163033987663
 20
15.94005891915859
 10
179.8198027599073
 20
16.2254855497147
 10
180.0510134726109
 20
16.16284386190283
 10
180.1919290057156
 20
16.17001554055992
 10
180.3490417757588
 20
16.16235883078244
 10
180.5025913427287
 20
16.1625275228304
 10
180.6545104935081
 20
16.16182040535432
 10
180.8142214813232
 20
16.17210158351639
 10
180.9408972601118
 20
16.15496511080752
 10
181.137082112208
 20
16.22727260107144
 10
181.1034395279078
 20
16.12640699080117
 10
181.1052011317184
 20
16.0761925394767
 10
181.1027342073458
 20
16.02712335586465
 10
181.1347076966011
 20
15.94063490846997
 10
181.0010399903256
 20
15.98997438608336
 10
180.9172208688056
 20
15.98430634314168
 10
180.8173861139324
 20
15.99465516706298
 10
180.7186576720145
 20
16.00086450411087
 10
180.612153277111
 20
16.00697763816778
 10
180.491051169806
 20
16.01588883484585
 10
180.3703381502454
 20
16.00521605912384
 10
180.1812553843438
 20
16.06468503080365
 10
180.2129028505311
 20
15.90558320077539
 10
180.1995563316833
 20
15.80839128339904
 10
180.197495842645
 20
15.69634065110102
 10
180.195818804467
 20
15.57699685629351
 10
180.1973336794233
 20
15.4503259215511
 10
180.195658247867
 20
15.32301588016117
 10
180.2058844271657
 20
15.22451566404463
 10
180.1779006596582
 20
15.0838870262563
 10
180.3508029999305
 20
15.13989551134095
 10
180.4645020202771
 20
15.127199514785
 10
180.5840151672239
 20
15.13448377051254
 10
180.6888491425072
 20
15.13878017056756
 10
180.7843084898612
 20
15.14330568258976
 10
180.8763823507032
 20
15.151492011462
 10
180.9476551782439
 20
15.14643850638112
 10
181.0544931705685
 20
15.18536425031673
 10
181.0226603598036
 20
15.10517122005878
 10
181.0266164503929
 20
15.05562936846033
 10
181.0234502392013
 20
15.00557478039818
 10
181.0550791490584
 20
14.92128847612022
 10
180.9210133677692
 20
14.97425365495157
 10
180.82923227932
 20
14.96540080890441
 10
180.7079729189603
 20
14.97570049965155
 10
180.5914113119771
 20
14.97748911767502
 10
180.4783375745879
 20
14.97787017109695
 10
180.3679246308471
 20
14.98415449472181
 10
180.2898124067841
 20
14.97189133255364
 10
180.1913625833644
 20
15.00453887616125
 10
180.2012355173561
 20
14.94769748054205
 10
180.1973923244402
 20
14.91392130557983
 10
180.1966789884268
 20
14.87119604709411
 10
180.1963369642975
 20
14.83401607262153
 10
180.1963834255346
 20
14.79487237370771
 10
180.1963649429927
 20
14.75716849497686
 10
180.1963703431806
 20
14.71944955232402
 10
180.1963697214201
 20
14.6899432474515
 10
180.1963698151545
 20
14.65873577699301
 10
180.1963704287921
 20
14.61414424908085
 10
180.1963671499336
 20
14.5596395650885
 10
180.1963759623481
 20
14.51505540201448
 10
180.1963359653416
 20
14.43117808585739
 10
180.1976024270255
 20
14.31737520677678
 10
180.1950274117841
 20
14.16830395933709
 10
180.206500938172
 20
14.06597203813905
 10
180.1823506222264
 20
13.93338903885836
 10
180.3332993946477
 20
13.97895732272021
 10
180.4428436671555
 20
13.96427012162349
 10
180.573397047392
 20
13.96920435125062
 10
180.6990312209514
 20
13.97257705323363
 10
180.81887306256
 20
13.97711497498773
 10
180.9391362611427
 20
13.99048536182004
 10
181.0222761663514
 20
13.98068712782597
 10
181.1456080421077
 20
14.04126214623319
 10
181.1244269203956
 20
13.98532460134022
 10
181.1235950270116
 20
13.95939249372345
 10
181.1218963707559
 20
13.93197256190939
 10
181.1217974888829
 20
13.89738195206385
 10
181.1203659301329
 20
13.86050408220766
 10
181.1532804192192
 20
13.76846841021809
 10
180.9551306988107
 20
13.8413201597483
 10
180.8300548294891
 20
13.81825726508607
 10
180.6673071295156
 20
13.82454021985786
 10
180.5129366450001
 20
13.82260943909927
 10
180.3566670436944
 20
13.82393762599268
 10
180.1970544465282
 20
13.82059872487863
 10
180.0540326342237
 20
13.8326579572824
 10
179.8197144881628
 20
13.76952001976919
 10
179.9173810751197
 20
14.05620527466318
 10
179.9006868780058
 20
14.24988308142661
 10
179.9146296709685
 20
14.47848242880295
 10
179.9142987846633
 20
14.63384593955049
 10
179.9143078119264
 20
14.73966336444125
 10
179.9143055876316
 20
14.80205784124214
 10
179.914306555189
 20
14.89220425248327
 10
179.9143065473262
 20
14.99621167157438
 10
179.9143053861104
 20
15.10022131375296
 10
179.9143090971502
 20
15.19036243688768
 10
179.9143011051052
 20
15.25276803097215
 10
179.9143334275019
 20
15.35868835961119
 10
179.913144078832
 20
15.5162671654474
 10
179.9082216489256
 20
15.66528219822066
 10
179.9057788376618
 20
15.7392326039819
 97
        1
330
B0
 75
     1
 76
     2
 52
45.0
 41
0.1
 77
     0
 78
     1
 53
45.0
 43
0.0
 44
0.0
 45
-0.282842712474619
 46
0.0
 79
     0
 98
        1
 10
0.0
 20
0.0
  0
HATCH
  5
CE
330
48
100
AcDbEntity
  8
1
  6
Continuous
 62
     2
100
AcDbHatch
 10
0.0
 20
0.0
 30
0.0
210
0.0
220
0.0
230
1.0
  2
CUSTOM12
 70
     0
 71
     1
 91
        1
 92
        1
 93
        1
 72
     4
 94
        3
 73
     0
 74
     0
 95
       95
 96
       91
 40
0.0
 40
0.0
 40
0.0
 40
0.0
 40
0.6550406656911612
 40
1.308087289031946
 40
1.420803739835819
 40
1.566130759770828
 40
1.757067341888484
 40
2.006513545026487
 40
2.087328263121575
 40
2.185328872295647
 40
2.294612454748382
 40
2.408936380534832
 40
2.526802767798586
 40
2.646360524615627
 40
2.762535723971612
 40
2.870057342870189
 40
2.966883448431666
 40
3.050803243518315
 40
3.11581822243663
 40
3.156030057150252
 40
3.213914225080154
 40
3.276689026450554
 40
3.342960320981303
 40
3.404230667150495
 40
3.453822809493286
 40
3.532499827188348
 40
3.634775188507076
 40
3.754909333008074
 40
3.88973676166057
 40
4.035769602175138
 40
4.187256681197521
 40
4.33873368567587
 40
4.488478734676028
 40
4.6347083178315
 40
4.771493189921188
 40
4.892686571561126
 40
5.199775528944369
 40
5.460353566929552
 40
5.667603142345427
 40
5.814722905404407
 40
5.828990806219705
 40
5.855488336304402
 40
5.869756237118734
 40
6.189796507762758
 40
6.531890469872992
 40
6.88305363701692
 40
7.230512024911391
 40
7.566966656764492
 40
7.885203559707326
 40
8.172887439719121
 40
8.418011594062682
 40
8.443926721190604
 40
8.510760470613091
 40
8.6021453937956
 40
8.701714041647042
 40
8.793098965075272
 40
8.859932715057845
 40
8.885847842603495
 40
9.242301256612716
 40
9.589275455016663
 40
9.921808543164065
 40
10.23479624298457
 40
10.29968150889168
 40
10.35323493887756
 40
10.40154625355141
 40
10.46482922477817
 40
10.55973900668397
 40
10.69239545985611
 40
10.84920353475664
 40
11.01626328594771
 40
11.18672024367435
 40
11.35372582577203
 40
11.50257442292418
 40
11.61866495023283
 40
11.71329869152866
 40
11.82511050573899
 40
11.94464880845708
 40
12.069292426425
 40
12.19707290435169
 40
12.32562632860521
 40
12.45034565331272
 40
12.5664659517032
 40
12.67099007414628
 40
12.76077625936775
 40
12.82703233506687
 40
12.87429132785985
 40
12.89831990323325
 40
12.92234847860013
 40
13.53984767410313
 40
14.18294284359357
 40
14.18294284359357
 40
14.18294284359357
 40
14.18294284359357
 10
177.3067935648021
 20
14.70898038201723
 10
177.175201975855
 20
14.82265058603231
 10
176.9124193802728
 20
15.04964496316157
 10
176.3997393441022
 20
15.89214462956287
 10
176.4106654595362
 20
15.53423377577019
 10
176.4041226527991
 20
15.39267392272133
 10
176.4028026631773
 20
15.1942130529928
 10
176.4018117602538
 20
15.02150296045982
 10
176.4024101751974
 20
14.87865373257579
 10
176.4038994301882
 20
14.78265005413357
 10
176.4055683588472
 20
14.67545503263141
 10
176.4071934954618
 20
14.56164211517582
 10
176.4092429501685
 20
14.44441572604589
 10
176.4123165501927
 20
14.32656411232969
 10
176.4156339697043
 20
14.2122808732062
 10
176.4193605340281
 20
14.10521401867276
 10
176.4217338161424
 20
14.0100740876692
 10
176.4278718888357
 20
13.92558557205695
 10
176.4239784495947
 20
13.86923087298142
 10
176.4455230443077
 20
13.79825022472356
 10
176.3680940058618
 20
13.82902677604483
 10
176.3116353240191
 20
13.82011242517615
 10
176.2540495896807
 20
13.82896218398274
 10
176.1690163478473
 20
13.79738225225947
 10
176.2009714146382
 20
13.88095155992192
 10
176.1990705282538
 20
13.94882608968309
 10
176.21079600473
 20
14.05233256764419
 10
176.2164241053
 20
14.17002125616694
 10
176.2237902178941
 20
14.30388609164424
 10
176.232075970161
 20
14.44764152872631
 10
176.2398851897426
 20
14.59714022843445
 10
176.2457571222657
 20
14.74792549402078
 10
176.2503667817969
 20
14.89699943878437
 10
176.2542632117542
 20
15.04122913163022
 10
176.2570715126564
 20
15.17583905213017
 10
176.2576698755022
 20
15.36469614347354
 10
176.261602386715
 20
15.58975494313154
 10
176.2442175378498
 20
15.86367091125708
 10
176.2850417342584
 20
16.02787112098596
 10
176.1995153256003
 20
16.22749661465096
 10
176.2660558907688
 20
16.22385458403978
 10
176.283872427323
 20
16.22413447160854
 10
176.4056801797505
 20
16.22632927398613
 10
176.5080770335461
 20
15.94675118721512
 10
176.7580021509356
 20
15.74563008536005
 10
176.9870035331111
 20
15.47792614987913
 10
177.2245151213108
 20
15.22646413862376
 10
177.4486090740772
 20
14.98969974061359
 10
177.6750716283009
 20
14.73218692583079
 10
177.8325687886513
 20
14.61649335056922
 10
178.0472129612675
 20
14.27997152538793
 10
178.0422645974618
 20
14.40464754091603
 10
178.0433931602546
 20
14.46327691935737
 10
178.0428877841516
 20
14.55043662371977
 10
178.0430475158113
 20
14.64416143182872
 10
178.0430054891318
 20
14.73018971297035
 10
178.0430202040373
 20
14.79153891945496
 10
178.0429706255983
 20
14.94135231520992
 10
178.045881152281
 20
15.17989612510105
 10
178.0259521041163
 20
15.54486509868701
 10
178.0750433936247
 20
15.80799631993411
 10
177.9177951509181
 20
16.21928904947754
 10
178.0762112872421
 20
16.16398282551747
 10
178.1311680478629
 20
16.16199686500176
 10
178.1827887766739
 20
16.16264778248251
 10
178.2713198965366
 20
16.20369527738246
 10
178.2204898303169
 20
16.05696326622986
 10
178.2313389930283
 20
15.95019971954432
 10
178.2166036994847
 20
15.79085705414112
 10
178.2099976446204
 20
15.62853061652874
 10
178.2014961399915
 20
15.45992521892396
 10
178.1943227202198
 20
15.29814814703541
 10
178.188906321539
 20
15.15422331457932
 10
178.1871713967648
 20
15.03437493466925
 10
178.1875440672318
 20
14.92686101590515
 10
178.1873656126263
 20
14.81820024645586
 10
178.187701086314
 20
14.6995357016553
 10
178.1890040622184
 20
14.5755516351274
 10
178.1908887351574
 20
14.44858294171104
 10
178.1925004454851
 20
14.32153861551032
 10
178.1941403137429
 20
14.19854884492177
 10
178.1962570745752
 20
14.08300931383759
 10
178.1963848422364
 20
13.98090903955837
 10
178.2006514396554
 20
13.89009848838156
 10
178.1908440085289
 20
13.83213621208786
 10
178.2118474771689
 20
13.76517130132029
 10
178.1725639739897
 20
13.77291153966688
 10
177.9595307117747
 20
13.75755254145192
 10
177.7636297943186
 20
14.3140305809447
 10
177.4611197631544
 20
14.57556035348509
 10
177.3067935648021
 20
14.70898038201723
 97
        1
330
B1
 75
     1
 76
     2
 52
45.0
 41
0.1
 77
     0
 78
     1
 53
45.0
 43
0.0
 44
0.0
 45
-0.282842712474619
 46
0.0
 79
     0
 98
        1
 10
0.0
 20
0.0
  0
HATCH
  5
CF
330
48
100
AcDbEntity
  8
1
  6
Continuous
 62
     2
100
AcDbHatch
 10
0.0
 20
0.0
 30
0.0
210
0.0
220
0.0
230
1.0
  2
CUSTOM13
 70
     0
 71
     1
 91
        2
 92
        1
 93
        1
 72
     4
 94
        3
 73
     0
 74
     0
 95
       57
 96
       53
 40
0.0
 40
0.0
 40
0.0
 40
0.0
 40
0.0471632082809223
 40
0.0914861054632145
 40
0.1357762519702096
 40
0.1826527001609823
 40
0.22952032885723
 40
0.2737751972220754
 40
0.3181310461542783
 40
0.3652607198398496
 40
0.4571007286314316
 40
0.5671851029164994
 40
0.6894623283868246
 40
0.8181758272545849
 40
0.9510087229273938
 40
1.085852229674044
 40
1.218126164475302
 40
1.343545131142372
 40
1.454537202956788
 40
1.567187607530712
 40
1.680710966642388
 40
1.79422686973678
 40
1.900009184247551
 40
2.004085860447859
 40
2.108162674451747
 40
2.214000150155291
 40
2.496038577352127
 40
2.762350745479266
 40
2.997275353279395
 40
3.185110082137711
 40
3.246407890063909
 40
3.312607550212668
 40
3.378877742711542
 40
3.440140399651424
 40
4.100501696006458
 40
4.7549130855635
 40
5.411331693423896
 40
6.077890432568678
 40
6.110575292670957
 40
6.143260152775737
 40
6.367989363395129
 40
6.610525374951526
 40
6.863389136467286
 40
7.119380025547581
 40
7.376036605091063
 40
7.631164770966275
 40
7.876722425456394
 40
8.104953735855924
 40
8.312916685924272
 40
8.497730294941277
 40
8.651018984313842
 40
8.764738853624552
 40
8.764738853624552
 40
8.764738853624552
 40
8.764738853624552
 10
174.7922649500513
 20
13.81626739612928
 10
174.7766616726931
 20
13.81826231079078
 10
174.7463947960302
 20
13.82213201360298
 10
174.7010994202253
 20
13.82341984967269
 10
174.6559553129349
 20
13.82308683554051
 10
174.60990171234
 20
13.82314658674225
 10
174.5640496172097
 20
13.82325813650002
 10
174.5183711648165
 20
13.82277833456592
 10
174.4750811541608
 20
13.8246110961872
 10
174.4039947951513
 20
13.80049556814658
 10
174.4057477261441
 20
13.9218469397725
 10
174.358619637057
 20
14.00726239751233
 10
174.3191478251762
 20
14.12486929345135
 10
174.2706635532645
 20
14.24232752540438
 10
174.2201017402522
 20
14.3640593576151
 10
174.1718634610477
 20
14.49075967862465
 10
174.1135232947595
 20
14.59933687784952
 10
174.0980892667261
 20
14.75620657134409
 10
173.9566586330636
 20
14.72373446548323
 10
173.8508397414904
 20
14.7351288868218
 10
173.7358569725222
 20
14.73392591514616
 10
173.625314225214
 20
14.73506945347407
 10
173.5176583522783
 20
14.73418350037526
 10
173.4121322529242
 20
14.73416602390519
 10
173.3109192682013
 20
14.72714032472415
 10
173.1266804827753
 20
14.75135859859867
 10
173.1157393685411
 20
14.44741691121885
 10
173.008769163475
 20
14.22353177253397
 10
172.9098148604347
 20
14.03895314292497
 10
172.9225090524007
 20
13.79530204804209
 10
172.8050091716397
 20
13.82508046753197
 10
172.742205586831
 20
13.82258089509605
 10
172.6785872093399
 20
13.82344075102804
 10
172.3946014194075
 20
13.78098039941952
 10
173.0251638499381
 20
14.5008195244478
 10
173.1087645289071
 20
15.01276539435732
 10
173.492925278934
 20
15.53353743550043
 10
173.4777208288563
 20
16.23519626253211
 10
173.7239265722697
 20
16.22345633081257
 10
173.825634615756
 20
16.23225004452772
 10
173.8249752035819
 20
15.98059650730346
 10
173.9428317155828
 20
15.79818020733958
 10
174.0315515260485
 20
15.55563740662866
 10
174.1322292485259
 20
15.32340030530127
 10
174.2311142712243
 20
15.08674644566913
 10
174.3299676990669
 20
14.85461739170093
 10
174.4256166390925
 20
14.63122222788787
 10
174.5159904573272
 20
14.42272549049317
 10
174.5989944568188
 20
14.23308448529319
 10
174.6726088582799
 20
14.06663106068099
 10
174.7342815895545
 20
13.92917699626098
 10
174.7749458885604
 20
13.84999239430034
 10
174.7922649500513
 20
13.81626739612928
 97
        1
330
B3
 92
       16
 93
        1
 72
     4
 94
        3
 73
     0
 74
     0
 95
       25
 96
       21
 40
0.0
 40
0.0
 40
0.0
 40
0.0
 40
0.0911479969064822
 40
0.1858117896204667
 40
0.280412839973449
 40
0.3715889190714509
 40
0.4679080494218992
 40
0.564268380922923
 40
0.6605683222644991
 40
0.7569653015810256
 40
0.8561348172522739
 40
1.092615965104292
 40
1.374867658141875
 40
1.611348812011601
 40
1.710518328425249
 40
1.809403163726568
 40
2.04520546329407
 40
2.32664691762213
 40
2.562449217190592
 40
2.661334043833911
 40
2.661334043833911
 40
2.661334043833911
 40
2.661334043833911
 10
173.2683700567199
 20
14.88614538197292
 10
173.2987525917923
 20
14.88598079714554
 10
173.3606895889111
 20
14.88564528689921
 10
173.4541356960331
 20
14.88269055451999
 10
173.5475095236357
 20
14.87977752877151
 10
173.6417760753476
 20
14.87894201643416
 10
173.7354964790966
 20
14.87996644658047
 10
173.8352040303205
 20
14.87916977470972
 10
173.9188949546312
 20
14.88921410235219
 10
174.0637996315045
 20
14.86234617674165
 10
173.9396132444801
 20
15.03665530280049
 10
173.8965867286282
 20
15.19651711006091
 10
173.780892214221
 20
15.45518458550216
 10
173.7017565431257
 20
15.59231052861858
 10
173.6431576621816
 20
15.80937033134077
 10
173.5864803939438
 20
15.59266134213428
 10
173.5052809900478
 20
15.45327012438236
 10
173.4063701281487
 20
15.20406969370194
 10
173.325362509426
 20
15.01925830226074
 10
173.2813683325838
 20
14.91650446856116
 10
173.2683700567199
 20
14.88614538197292
 97
        1
330
B2
 75
     1
 76
     2
 52
45.0
 41
0.1
 77
     0
 78
     1
 53
45.0
 43
0.0
 44
0.0
 45
-0.282842712474619
 46
0.0
 79
     0
 98
        1
 10
0.0
 20
0.0
  0
HATCH
  5
D0
330
48
100
AcDbEntity
  8
1
  6
Continuous
 62
     2
100
AcDbHatch
 10
0.0
 20
0.0
 30
0.0
210
0.0
220
0.0
230
1.0
  2
CUSTOM14
 70
     0
 71
     1
 91
        1
 92
        1
 93
        1
 72
     4
 94
        3
 73
     0
 74
     0
 95
       99
 96
       95
 40
0.0
 40
0.0
 40
0.0
 40
0.0
 40
0.0796417172272494
 40
0.1621768542356667
 40
0.2486489160958082
 40
0.3404969668525299
 40
0.4381912511165322
 40
0.5434463660245624
 40
0.6518115192847095
 40
0.7530190937886667
 40
0.8492196919724921
 40
0.941929031299794
 40
1.034249663570025
 40
1.129078600620177
 40
1.226697027573222
 40
1.327220425421685
 40
1.470572134938004
 40
1.595489863371209
 40
1.719934125348363
 40
1.850576620127408
 40
1.989059629987291
 40
2.134139054226912
 40
2.280698007207199
 40
2.424529739039473
 40
2.565929576985839
 40
2.70823926077348
 40
2.861717887443624
 40
3.045168540347345
 40
3.183798301138578
 40
3.314813961455431
 40
3.442083470447274
 40
3.569912708372931
 40
3.702177512509328
 40
3.842307559659495
 40
3.992872223245899
 40
4.156750662218288
 40
4.31098186110751
 40
4.445859909322638
 40
4.572393936131578
 40
4.701656719781954
 40
4.768279086008445
 40
4.835960697898394
 40
4.912788918729312
 40
5.006285208481508
 40
5.026909478751584
 40
5.047533749021149
 40
5.10180803147119
 40
5.162325165538503
 40
5.226919745995824
 40
5.294231806596702
 40
5.364544852554824
 40
5.438319055467892
 40
5.517877651324228
 40
5.60764771486154
 40
5.700449642544386
 40
5.788251142364118
 40
5.87271470603975
 40
5.955167292575264
 40
6.03719239519036
 40
6.120669181469085
 40
6.206848616686316
 40
6.296680855416732
 40
6.442558392872554
 40
6.568190371608238
 40
6.69290456736031
 40
6.824220446557085
 40
6.963121850329321
 40
7.107843738851109
 40
7.25343166390722
 40
7.395187468036643
 40
7.533140753237721
 40
7.670550457175191
 40
7.816236511769207
 40
7.987691657359171
 40
8.142277421969213
 40
8.293662615414972
 40
8.442962460879237
 40
8.591598316185289
 40
8.743678992361756
 40
8.90372532369914
 40
9.076307008890488
 40
9.265578604680542
 40
9.459203795360716
 40
9.617619810273505
 40
9.753609671361863
 40
9.874873300004035
 40
9.954520184977738
 40
10.02416413719241
 40
10.09769764405441
 40
10.18909955924969
 40
10.20974586420136
 40
10.23039218263385
 40
10.30057101881269
 40
10.37632012987546
 40
10.37632012987546
 40
10.37632012987546
 40
10.37632012987546
 10
170.1465954835851
 20
14.13795663215994
 10
170.1632217851219
 20
14.11720608845312
 10
170.1970784206577
 20
14.07495111711898
 10
170.2599822541036
 20
14.02029811392076
 10
170.3332500940394
 20
13.97299025121048
 10
170.4175969238636
 20
13.93527231437935
 10
170.5132240615461
 20
13.91040619731951
 10
170.6171853775346
 20
13.90309559345937
 10
170.7224020220404
 20
13.91142322794053
 10
170.8206626371334
 20
13.94149179651529
 10
170.9058986427548
 20
13.98848822971875
 10
170.9779220206103
 20
14.04952991250857
 10
171.0350917709096
 20
14.12412969578583
 10
171.076786874744
 20
14.21002464660174
 10
171.1026952846292
 20
14.30485850432211
 10
171.1118037332653
 20
14.41854979038367
 10
171.0986864796487
 20
14.54332587770779
 10
171.0325330334414
 20
14.66014719171893
 10
170.9369370919569
 20
14.74512539577374
 10
170.8249681022369
 20
14.81416684459161
 10
170.6993659583269
 20
14.87204142045888
 10
170.5656691620857
 20
14.92373723284342
 10
170.431312281883
 20
14.97899092397179
 10
170.3051983986877
 20
15.04939770641651
 10
170.1926579987534
 20
15.13785540731247
 10
170.0969963064459
 20
15.24981067868479
 10
170.0334157151825
 20
15.3994991010138
 10
170.0200706505016
 20
15.55932794385143
 10
170.0320510987448
 20
15.71048405306845
 10
170.071229892884
 20
15.83809244591539
 10
170.135498775091
 20
15.95080874030845
 10
170.223820499974
 20
16.04648609268686
 10
170.3338091207627
 20
16.12354214985753
 10
170.4632284401265
 20
16.18151396936277
 10
170.6111838967793
 20
16.21739177588822
 10
170.7682069455487
 20
16.22746719050565
 10
170.917494046643
 20
16.21863637762588
 10
171.0596253614171
 20
16.19074899340355
 10
171.1595922609626
 20
16.13413314701138
 10
171.3125074736185
 20
16.08674602105506
 10
171.2455131717168
 20
16.00197553001184
 10
171.229647912027
 20
15.93438901873484
 10
171.1978750531296
 20
15.86926092793189
 10
171.2150202209571
 20
15.76723453256954
 10
171.1666427208232
 20
15.77493211681902
 10
171.1315789440766
 20
15.76806771724808
 10
171.1296697985719
 20
15.83263831158198
 10
171.0985692931989
 20
15.87825639621393
 10
171.0664551628456
 20
15.93561036628455
 10
171.0208038475168
 20
15.98540462692558
 10
170.9658508218387
 20
16.02994813718997
 10
170.9010841173007
 20
16.06763988836549
 10
170.8232377310596
 20
16.09283375791352
 10
170.7355160553352
 20
16.09931230998111
 10
170.6452903277806
 20
16.09235709285607
 10
170.5594594694064
 20
16.06909190460921
 10
170.4828343638596
 20
16.03131644107544
 10
170.4165265636201
 20
15.98051641089574
 10
170.3622560536964
 20
15.91731143407209
 10
170.3224925345458
 20
15.84276455710367
 10
170.2976775510587
 20
15.75917313997762
 10
170.2892124262871
 20
15.65192948382284
 10
170.3019697987104
 20
15.52965457267559
 10
170.3681548409273
 20
15.41149724291209
 10
170.4640977399832
 20
15.32606325709527
 10
170.5757914963182
 20
15.25583362306721
 10
170.7010863668702
 20
15.19659162305305
 10
170.8349823941448
 20
15.14616708086131
 10
170.9689930333149
 20
15.09322516984383
 10
171.0950885316915
 20
15.02750170625174
 10
171.2076216638417
 20
14.94480352537323
 10
171.3031370284233
 20
14.83996006310073
 10
171.3672706486962
 20
14.6993711725157
 10
171.3811103725278
 20
14.54065409451592
 10
171.367395471223
 20
14.38153155217875
 10
171.3244739153984
 20
14.2348382881921
 10
171.2545906329066
 20
14.10119796587141
 10
171.1574592213829
 20
13.9853238769929
 10
171.0347806023657
 20
13.89089981770088
 10
170.8874408413168
 20
13.82179270651982
 10
170.7177132497125
 20
13.77953210858852
 10
170.5317404979596
 20
13.76781736230408
 10
170.3528955926184
 20
13.77809486683436
 10
170.1881733753742
 20
13.81966573769153
 10
170.0834410841057
 20
13.88797642883941
 10
169.9350960790365
 20
13.93675219032106
 10
169.9980378194729
 20
14.02976591290841
 10
170.0072274430059
 20
14.1029653624828
 10
170.0303711301232
 20
14.16936294501346
 10
170.0034588335317
 20
14.26974809527583
 10
170.0521338956339
 20
14.26234033517379
 10
170.0916530580697
 20
14.26894063620897
 10
170.0996204944703
 20
14.19078703218934
 10
170.1305436967923
 20
14.15600927375857
 10
170.1465954835851
 20
14.13795663215994
 97
        1
330
B4
 75
     1
 76
     2
 52
45.0
 41
0.1
 77
     0
 78
     1
 53
45.0
 43
0.0
 44
0.0
 45
-0.282842712474619
 46
0.0
 79
     0
 98
        1
 10
0.0
 20
0.0
  0
ENDBLK
  5
4A
330
48
100
AcDbEntity
  8
0
100
AcDbBlockEnd
  0
BLOCK
  5
4D
330
4B
100
AcDbEntity
  8
0
100
AcDbBlockBegin
  2
開示A4枠
 70
     0
 10
0.0
 20
0.0
 30
0.0
  3
開示A4枠
  1

  0
INSERT
  5
4C
330
4B
100
AcDbEntity
  8
1
100
AcDbBlockReference
  2
開示A4
 10
0.0
 20
0.0
 30
0.0
  0
ENDBLK
  5
4E
330
4B
100
AcDbEntity
  8
0
100
AcDbBlockEnd
  0
BLOCK
  5
50
330
4F
100
AcDbEntity
  8
0
100
AcDbBlockBegin
  2
35-21
 70
     0
 10
113.3713884085856
 20
166.3909745800615
 30
0.0
  3
35-21
  1

  0
LINE
  5
D1
330
4F
100
AcDbEntity
  8
1
  6
Continuous
 62
     7
100
AcDbLine
 10
119.9264888266864
 20
119.2325247214498
 30
0.0
 11
90.07351117331386
 21
119.2325247214498
 31
0.0
  0
LINE
  5
D2
330
4F
100
AcDbEntity
  8
1
  6
Continuous
 62
     7
100
AcDbLine
 10
119.9264888266864
 20
133.2325247214497
 30
0.0
 11
105.0000000000001
 21
133.2325247214497
 31
0.0
  0
LINE
  5
D3
330
4F
100
AcDbEntity
  8
1
  6
Continuous
 62
     7
100
AcDbLine
 10
115.5000000000001
 20
135.2451677598448
 30
0.0
 11
105.0000000000001
 21
135.2451677598448
 31
0.0
  0
LINE
  5
D4
330
4F
100
AcDbEntity
  8
1
  6
Continuous
 62
     7
100
AcDbLine
 10
105.0000000000001
 20
142.9325247214497
 30
0.0
 11
115.5000000000001
 21
142.9325247214497
 31
0.0
  0
LINE
  5
D5
330
4F
100
AcDbEntity
  8
1
  6
Continuous
 62
     2
100
AcDbLine
 10
114.3380000000001
 20
135.2451677598448
 30
0.0
 11
114.3380000000001
 21
144.0945247214497
 31
0.0
  0
LINE
  5
D6
330
4F
100
AcDbEntity
  8
1
  6
Continuous
 62
     7
100
AcDbLine
 10
114.3380000000001
 20
144.0945247214497
 30
0.0
 11
114.2000000000001
 21
144.2325247214498
 31
0.0
  0
LINE
  5
D7
330
4F
100
AcDbEntity
  8
1
  6
Continuous
 62
     7
100
AcDbLine
 10
105.0000000000001
 20
194.7339085124333
 30
0.0
 11
97.77061470008496
 21
194.7339085124334
 31
0.0
  0
LINE
  5
D8
330
4F
100
AcDbEntity
  8
1
  6
Continuous
 62
     7
100
AcDbLine
 10
94.98860488278832
 20
196.4285979399665
 30
0.0
 11
88.47276387854151
 21
207.7143656133624
 31
0.0
  0
LINE
  5
D9
330
4F
100
AcDbEntity
  8
1
  6
Continuous
 62
     7
100
AcDbLine
 10
88.47276387854151
 20
211.7506838295371
 30
0.0
 11
94.98860488278827
 21
223.036451502933
 31
0.0
  0
LINE
  5
DA
330
4F
100
AcDbEntity
  8
1
  6
Continuous
 62
     7
100
AcDbLine
 10
97.68076211353326
 20
224.7325247214498
 30
0.0
 11
105.0000000000001
 21
224.7325247214498
 31
0.0
  0
LINE
  5
DB
330
4F
100
AcDbEntity
  8
1
  6
Continuous
 62
     7
100
AcDbLine
 10
112.2293852999153
 20
194.7339085124334
 30
0.0
 11
105.0000000000001
 21
194.7339085124333
 31
0.0
  0
LINE
  5
DC
330
4F
100
AcDbEntity
  8
1
  6
Continuous
 62
     7
100
AcDbLine
 10
121.5272361214587
 20
207.7143656133624
 30
0.0
 11
115.0113951172119
 21
196.4285979399665
 31
0.0
  0
LINE
  5
DD
330
4F
100
AcDbEntity
  8
1
  6
Continuous
 62
     7
100
AcDbLine
 10
115.0113951172119
 20
223.036451502933
 30
0.0
 11
121.5272361214587
 21
211.7506838295371
 31
0.0
  0
LINE
  5
DE
330
4F
100
AcDbEntity
  8
1
  6
Continuous
 62
     7
100
AcDbLine
 10
105.0000000000001
 20
224.7325247214498
 30
0.0
 11
112.2265136822676
 21
224.7325247214498
 31
0.0
  0
LINE
  5
DF
330
4F
100
AcDbEntity
  8
1
  6
Continuous
 62
     7
100
AcDbLine
 10
115.5000000000001
 20
142.9325247214497
 30
0.0
 11
114.3380000000001
 21
144.0945247214497
 31
0.0
  0
LINE
  5
E0
330
4F
100
AcDbEntity
  8
1
  6
Continuous
 62
     7
100
AcDbLine
 10
114.3380000000001
 20
142.9325247214497
 30
0.0
 11
115.5000000000001
 21
142.9325247214497
 31
0.0
  0
LINE
  5
E1
330
4F
100
AcDbEntity
  8
1
  6
Continuous
 62
     7
100
AcDbLine
 10
94.50000000000011
 20
142.9325247214497
 30
0.0
 11
105.0000000000001
 21
142.9325247214497
 31
0.0
  0
LINE
  5
E2
330
4F
100
AcDbEntity
  8
1
  6
Continuous
 62
     7
100
AcDbLine
 10
94.50000000000011
 20
142.9325247214497
 30
0.0
 11
94.50000000000011
 21
135.2451677598448
 31
0.0
  0
LINE
  5
E3
330
4F
100
AcDbEntity
  8
1
  6
Continuous
 62
     7
100
AcDbLine
 10
94.50000000000011
 20
142.9325247214497
 30
0.0
 11
95.80000000000008
 21
144.2325247214498
 31
0.0
  0
LINE
  5
E4
330
4F
100
AcDbEntity
  8
1
  6
Continuous
 62
     7
100
AcDbLine
 10
95.80000000000008
 20
144.2325247214498
 30
0.0
 11
105.0000000000001
 21
144.2325247214498
 31
0.0
  0
LINE
  5
E5
330
4F
100
AcDbEntity
  8
1
  6
Continuous
 62
     2
100
AcDbLine
 10
115.5000000000001
 20
133.2325247214497
 30
0.0
 11
114.3380000000001
 21
135.2451677598448
 31
0.0
  0
LINE
  5
E6
330
4F
100
AcDbEntity
  8
1
  6
Continuous
 62
     7
100
AcDbLine
 10
115.5000000000001
 20
133.2325247214497
 30
0.0
 11
119.9264888266864
 21
133.2325247214497
 31
0.0
  0
LINE
  5
E7
330
4F
100
AcDbEntity
  8
1
  6
Continuous
 62
     7
100
AcDbLine
 10
105.0000000000001
 20
133.2325247214497
 30
0.0
 11
90.07351117331386
 21
133.2325247214497
 31
0.0
  0
LINE
  5
E8
330
4F
100
AcDbEntity
  8
1
  6
Continuous
 62
     7
100
AcDbLine
 10
105.0000000000001
 20
135.2451677598448
 30
0.0
 11
94.50000000000011
 21
135.2451677598448
 31
0.0
  0
LINE
  5
E9
330
4F
100
AcDbEntity
  8
1
  6
Continuous
 62
     7
100
AcDbLine
 10
94.50000000000011
 20
135.2451677598448
 30
0.0
 11
94.50000000000011
 21
133.2325247214497
 31
0.0
  0
LINE
  5
EA
330
4F
100
AcDbEntity
  8
1
  6
Continuous
 62
     2
100
AcDbLine
 10
95.6620000000001
 20
135.2451677598448
 30
0.0
 11
94.50000000000011
 21
133.2325247214497
 31
0.0
  0
LINE
  5
EB
330
4F
100
AcDbEntity
  8
1
  6
Continuous
 62
     2
100
AcDbLine
 10
95.6620000000001
 20
135.2451677598448
 30
0.0
 11
95.6620000000001
 21
144.0945247214497
 31
0.0
  0
LINE
  5
EC
330
4F
100
AcDbEntity
  8
1
  6
Continuous
 62
     7
100
AcDbLine
 10
115.5000000000001
 20
135.2451677598448
 30
0.0
 11
115.5000000000001
 21
142.9325247214497
 31
0.0
  0
LINE
  5
ED
330
4F
100
AcDbEntity
  8
1
  6
Continuous
 62
     7
100
AcDbLine
 10
114.3380000000001
 20
135.2451677598448
 30
0.0
 11
115.5000000000001
 21
135.2451677598448
 31
0.0
  0
LINE
  5
EE
330
4F
100
AcDbEntity
  8
1
  6
Continuous
 62
     7
100
AcDbLine
 10
115.5000000000001
 20
133.2325247214497
 30
0.0
 11
115.5000000000001
 21
135.2451677598448
 31
0.0
  0
LINE
  5
EF
330
4F
100
AcDbEntity
  8
1
  6
Continuous
 62
     7
100
AcDbLine
 10
111.7000000000001
 20
144.2325247214498
 30
0.0
 11
114.2000000000001
 21
144.2325247214498
 31
0.0
  0
LINE
  5
F0
330
4F
100
AcDbEntity
  8
1
  6
Continuous
 62
     7
100
AcDbLine
 10
111.7000000000001
 20
144.2325247214498
 30
0.0
 11
105.0000000000001
 21
144.2325247214498
 31
0.0
  0
ARC
  5
F1
330
4F
100
AcDbEntity
  8
1
  6
Continuous
 62
     7
100
AcDbCircle
 10
105.0000000000001
 20
209.7325247214498
 30
0.0
 40
16.64999999999996
100
AcDbArc
 50
115.7342287992584
 51
126.9619839608802
  0
ARC
  5
F2
330
4F
100
AcDbEntity
  8
1
  6
Continuous
 62
     7
100
AcDbCircle
 10
105.0000000000001
 20
209.7325247214498
 30
0.0
 40
16.65000000000002
100
AcDbArc
 50
233.0380160391202
 51
244.2657712007416
  0
ARC
  5
F3
330
4F
100
AcDbEntity
  8
1
  6
Continuous
 62
     7
100
AcDbCircle
 10
105.0000000000001
 20
209.7325247214498
 30
0.0
 40
16.64999999999995
100
AcDbArc
 50
53.03801603911985
 51
64.27674047812008
  0
ARC
  5
F4
330
4F
100
AcDbEntity
  8
1
  6
Continuous
 62
     7
100
AcDbCircle
 10
105.0000000000001
 20
209.7325247214498
 30
0.0
 40
16.64999999999995
100
AcDbArc
 50
180.0
 51
186.9619839608804
  0
ARC
  5
F5
330
4F
100
AcDbEntity
  8
1
  6
Continuous
 62
     7
100
AcDbCircle
 10
105.0000000000001
 20
209.7325247214498
 30
0.0
 40
16.65000000000003
100
AcDbArc
 50
173.0380160391199
 51
180.0
  0
ARC
  5
F6
330
4F
100
AcDbEntity
  8
1
  6
Continuous
 62
     7
100
AcDbCircle
 10
105.0000000000001
 20
209.7325247214498
 30
0.0
 40
16.64999999999998
100
AcDbArc
 50
295.7342287992585
 51
306.9619839608799
  0
ARC
  5
F7
330
4F
100
AcDbEntity
  8
1
  6
Continuous
 62
     7
100
AcDbCircle
 10
105.0000000000001
 20
209.7325247214498
 30
0.0
 40
16.65000000000006
100
AcDbArc
 50
353.0380160391195
 51
0.0
  0
ARC
  5
F8
330
4F
100
AcDbEntity
  8
1
  6
Continuous
 62
     7
100
AcDbCircle
 10
105.0000000000001
 20
209.7325247214498
 30
0.0
 40
16.65000000000001
100
AcDbArc
 50
0.0
 51
6.96198396088008
  0
ARC
  5
F9
330
4F
100
AcDbEntity
  8
1
  6
Continuous
 62
     7
100
AcDbCircle
 10
106.5730769230771
 20
126.2325247214498
 30
0.0
 40
15.07692307692304
100
AcDbArc
 50
332.3359955038106
 51
27.66400449618903
  0
ARC
  5
FA
330
4F
100
AcDbEntity
  8
1
  6
Continuous
 62
     7
100
AcDbCircle
 10
104.7793704129785
 20
126.6823495812554
 30
0.0
 40
6.182521295752191
100
AcDbArc
 50
233.0996725343925
 51
242.9773063021429
  0
ARC
  5
FB
330
4F
100
AcDbEntity
  8
1
  6
Continuous
 62
     7
100
AcDbCircle
 10
103.4269230769232
 20
126.2325247214498
 30
0.0
 40
15.07692307692303
100
AcDbArc
 50
152.335995503811
 51
207.6640044961894
  0
CIRCLE
  5
FC
330
4F
100
AcDbEntity
  8
1
  6
Continuous
 62
     7
100
AcDbCircle
 10
105.0000000000001
 20
209.7325247214498
 30
0.0
 40
10.5
  0
CIRCLE
  5
FD
330
4F
100
AcDbEntity
  8
1
  6
Continuous
 62
     7
100
AcDbCircle
 10
105.0000000000001
 20
209.7653686241053
 30
0.0
 40
6.502250537973907
  0
CIRCLE
  5
FE
330
4F
100
AcDbEntity
  8
1
  6
Continuous
 62
     2
100
AcDbCircle
 10
105.0000000000001
 20
209.7325247214498
 30
0.0
 40
9.337999999999994
  0
CIRCLE
  5
FF
330
4F
100
AcDbEntity
  8
1
  6
Continuous
 62
     7
100
AcDbCircle
 10
105.0000000000001
 20
209.7325247214498
 30
0.0
 40
14.64959676763731
  0
CIRCLE
  5
100
330
4F
100
AcDbEntity
  8
1
  6
Continuous
 62
     7
100
AcDbCircle
 10
105.0000000000001
 20
209.7653686241053
 30
0.0
 40
7.0
  0
SPLINE
  5
101
330
4F
100
AcDbEntity
  8
1
  6
Continuous
 62
     7
100
AcDbSpline
210
0.0
220
0.0
230
1.0
 70
    11
 71
     3
 72
    79
 73
    75
 74
    73
 42
0.000000001
 43
0.0000000001
 44
0.00000001
 40
0.0
 40
0.0
 40
0.0
 40
0.0
 40
0.2756420451079497
 40
0.5514120815317451
 40
0.8456750568134532
 40
1.140111432238307
 40
1.466623296704447
 40
1.793215866275388
 40
2.158720007975238
 40
2.524266984062062
 40
2.929604364482169
 40
3.334965804867148
 40
3.776572854970879
 40
4.218194707401618
 40
4.689403339516174
 40
5.160620930864986
 40
5.652654000809878
 40
6.144691915587392
 40
6.647455488848516
 40
7.150220596659638
 40
7.652985704472611
 40
8.155749277739258
 40
8.647787192524595
 40
9.139820262477814
 40
9.611037853832432
 40
10.08224648594656
 40
10.52386833836595
 40
10.96547538844089
 40
11.37083682877484
 40
11.77617420910832
 40
12.14172118507098
 40
12.50722532658313
 40
12.83381789590595
 40
13.16032976001211
 40
13.45476613495364
 40
13.74902910942602
 40
14.02479914364253
 40
14.30044119514266
 40
14.57608324664276
 40
14.85185328085929
 40
15.14611625533167
 40
15.4405526302732
 40
15.76706449437936
 40
16.09365706370218
 40
16.45916120521431
 40
16.82470818117699
 40
17.23004556151049
 40
17.63540700184441
 40
18.07701405191932
 40
18.51863590433873
 40
18.98984453645289
 40
19.46106212780749
 40
19.9530951977607
 40
20.44513311254603
 40
20.94789668581267
 40
21.45066179362566
 40
21.95342690143678
 40
22.4561904746979
 40
22.94822838947541
 40
23.4402614594203
 40
23.91147905076916
 40
24.38268768288368
 40
24.82430953531442
 40
25.26591658541814
 40
25.67127802580311
 40
26.07661540622322
 40
26.44216238231004
 40
26.80766652400989
 40
27.13425909358083
 40
27.46077095804697
 40
27.75520733347183
 40
28.04947030875353
 40
28.32524034517736
 40
28.60088239028528
 40
28.60088239028528
 40
28.60088239028528
 40
28.60088239028528
 10
92.00961894323353
 20
120.4500079683396
 30
0.0
 10
92.10158698614504
 20
120.4544812805522
 30
0.0
 10
92.2855657770395
 20
120.4634299718613
 30
0.0
 10
92.56043055718052
 20
120.5333810454293
 30
0.0
 10
92.82746990990609
 20
120.6438038638377
 30
0.0
 10
93.09096805621868
 20
120.7993675087726
 30
0.0
 10
93.34136850281203
 20
120.993145511605
 30
0.0
 10
93.58517903038543
 20
121.2303003795462
 30
0.0
 10
93.81262285323798
 20
121.5004078413286
 30
0.0
 10
94.02980752717006
 20
121.8112662179552
 30
0.0
 10
94.22833078438723
 20
122.1498448334369
 30
0.0
 10
94.41272258322802
 20
122.5246946886917
 30
0.0
 10
94.57670014877982
 20
122.9220237457036
 30
0.0
 10
94.72299719581945
 20
123.3494054523139
 30
0.0
 10
94.84753219563206
 20
123.7938830527449
 30
0.0
 10
94.95150702565137
 20
124.2608108978861
 30
0.0
 10
95.03275005347845
 20
124.7392676327975
 30
0.0
 10
95.0914249661955
 20
125.2315864038459
 30
0.0
 10
95.12677976159884
 20
125.7297126592487
 30
0.0
 10
95.13853853885934
 20
126.2325247114835
 30
0.0
 10
95.1267797615137
 20
126.7353367637123
 30
0.0
 10
95.09142496603087
 20
127.2334630191316
 30
0.0
 10
95.03275005324548
 20
127.7257817901172
 30
0.0
 10
94.951507025367
 20
128.2042385252526
 30
0.0
 10
94.8475321953191
 20
128.6711663695839
 30
0.0
 10
94.72299719550614
 20
129.1156439729366
 30
0.0
 10
94.57670014850157
 20
129.5430256692843
 30
0.0
 10
94.41272258302456
 20
129.9403547630177
 30
0.0
 10
94.22833078430867
 20
130.3152044919287
 30
0.0
 10
94.0298075272678
 20
130.6537835550587
 30
0.0
 10
93.81262285358032
 20
130.9646404169171
 30
0.0
 10
93.5851790310382
 20
131.2347532085947
 30
0.0
 10
93.34136850387002
 20
131.4718901952324
 30
0.0
 10
93.0909680577821
 20
131.6657311519726
 30
0.0
 10
92.82746991216715
 20
131.8210817748771
 30
0.0
 10
92.56043056074557
 20
131.9322650823017
 30
0.0
 10
92.28556577983439
 20
131.9995476043215
 30
0.0
 10
92.00961894323352
 20
132.022786596617
 30
0.0
 10
91.7336721066327
 20
131.9995476043215
 30
0.0
 10
91.4588073257215
 20
131.9322650823018
 30
0.0
 10
91.19176797429994
 20
131.8210817748771
 30
0.0
 10
90.92826982868496
 20
131.6657311519726
 30
0.0
 10
90.67786938259704
 20
131.4718901952324
 30
0.0
 10
90.43405885542887
 20
131.2347532085947
 30
0.0
 10
90.20661503288672
 20
130.9646404169172
 30
0.0
 10
89.9894303591993
 20
130.6537835550587
 30
0.0
 10
89.79090710215839
 20
130.3152044919287
 30
0.0
 10
89.60651530344254
 20
129.9403547630176
 30
0.0
 10
89.44253773796552
 20
129.5430256692843
 30
0.0
 10
89.29624069096101
 20
129.1156439729367
 30
0.0
 10
89.17170569114802
 20
128.6711663695839
 30
0.0
 10
89.06773086110005
 20
128.2042385252526
 30
0.0
 10
88.98648783322162
 20
127.7257817901172
 30
0.0
 10
88.92781292043622
 20
127.2334630191316
 30
0.0
 10
88.89245812495345
 20
126.7353367637123
 30
0.0
 10
88.88069934760779
 20
126.2325247114835
 30
0.0
 10
88.89245812486826
 20
125.7297126592487
 30
0.0
 10
88.92781292027166
 20
125.2315864038459
 30
0.0
 10
88.98648783298863
 20
124.7392676327976
 30
0.0
 10
89.06773086081569
 20
124.2608108978861
 30
0.0
 10
89.17170569083503
 20
123.7938830527449
 30
0.0
 10
89.29624069064769
 20
123.3494054523139
 30
0.0
 10
89.44253773768729
 20
122.9220237457036
 30
0.0
 10
89.60651530323912
 20
122.5246946886917
 30
0.0
 10
89.79090710207979
 20
122.1498448334369
 30
0.0
 10
89.98943035929702
 20
121.8112662179552
 30
0.0
 10
90.20661503322904
 20
121.5004078413285
 30
0.0
 10
90.43405885608166
 20
121.2303003795463
 30
0.0
 10
90.677869383655
 20
120.993145511605
 30
0.0
 10
90.92826983024841
 20
120.7993675087726
 30
0.0
 10
91.19176797656094
 20
120.6438038638377
 30
0.0
 10
91.45880732928651
 20
120.5333810454293
 30
0.0
 10
91.73367210942759
 20
120.4634299718613
 30
0.0
 10
91.91765090032206
 20
120.4544812805522
 30
0.0
 10
92.00961894323353
 20
120.4500079683396
 30
0.0
 11
92.00961894323353
 21
120.4500079683396
 31
0.0
 11
92.28433448766742
 21
120.4725891611507
 31
0.0
 11
92.55226949844268
 21
120.5378573910638
 31
0.0
 11
92.82432810758802
 21
120.6499948575921
 31
0.0
 11
93.07843189112624
 21
120.7987363989812
 31
0.0
 11
93.33728145569825
 21
120.9977512234981
 31
0.0
 11
93.57211894323353
 21
121.2247183154472
 31
0.0
 11
93.80824076086549
 21
121.5037161017134
 31
0.0
 11
94.01833022350395
 21
121.8028598954873
 31
0.0
 11
94.22396234420646
 21
122.1521646662198
 31
0.0
 11
94.40350782798033
 21
122.5155945997457
 31
0.0
 11
94.57245000825554
 21
122.9236084799155
 31
0.0
 11
94.71594833005993
 21
123.3412663448947
 31
0.0
 11
94.84340949140794
 21
123.7949085247319
 31
0.0
 11
94.94615838318948
 21
124.2547875127679
 31
0.0
 11
95.02872421357343
 21
124.7398436183635
 31
0.0
 11
95.0871431713967
 21
125.2284012249437
 31
0.0
 11
95.12280486236855
 21
125.7298984376929
 31
0.0
 11
95.13461894323353
 21
126.2325247214498
 31
0.0
 11
95.12280486236855
 21
126.7351510052066
 31
0.0
 11
95.0871431713967
 21
127.2366482179558
 31
0.0
 11
95.02872421357343
 21
127.725205824536
 31
0.0
 11
94.94615838318948
 21
128.2102619301316
 31
0.0
 11
94.84340949140795
 21
128.6701409181676
 31
0.0
 11
94.71594833005993
 21
129.1237830980049
 31
0.0
 11
94.57245000825553
 21
129.541440962984
 31
0.0
 11
94.40350782798033
 21
129.9494548431538
 31
0.0
 11
94.22396234420647
 21
130.3128847766797
 31
0.0
 11
94.01833022350395
 21
130.6621895474122
 31
0.0
 11
93.80824076086549
 21
130.9613333411861
 31
0.0
 11
93.57211894323353
 21
131.2403311274523
 31
0.0
 11
93.33728145569825
 21
131.4672982194014
 31
0.0
 11
93.07843189112624
 21
131.6663130439183
 31
0.0
 11
92.82432810758802
 21
131.8150545853073
 31
0.0
 11
92.55226949844268
 21
131.9271920518357
 31
0.0
 11
92.28433448766742
 21
131.9924602817488
 31
0.0
 11
92.00961894323353
 21
132.0150414745599
 31
0.0
 11
91.73490339879966
 21
131.9924602817488
 31
0.0
 11
91.46696838802438
 21
131.9271920518357
 31
0.0
 11
91.19490977887905
 21
131.8150545853073
 31
0.0
 11
90.94080599534082
 21
131.6663130439183
 31
0.0
 11
90.68195643076882
 21
131.4672982194014
 31
0.0
 11
90.44711894323353
 21
131.2403311274523
 31
0.0
 11
90.21099712560158
 21
130.9613333411861
 31
0.0
 11
90.00090766296312
 21
130.6621895474122
 31
0.0
 11
89.7952755422606
 21
130.3128847766797
 31
0.0
 11
89.61573005848676
 21
129.9494548431538
 31
0.0
 11
89.44678787821157
 21
129.541440962984
 31
0.0
 11
89.3032895564072
 21
129.1237830980049
 31
0.0
 11
89.17582839505914
 21
128.6701409181676
 31
0.0
 11
89.07307950327758
 21
128.2102619301316
 31
0.0
 11
88.99051367289367
 21
127.725205824536
 31
0.0
 11
88.93209471507042
 21
127.2366482179558
 31
0.0
 11
88.89643302409857
 21
126.7351510052066
 31
0.0
 11
88.88461894323358
 21
126.2325247214498
 31
0.0
 11
88.89643302409857
 21
125.7298984376929
 31
0.0
 11
88.93209471507042
 21
125.2284012249437
 31
0.0
 11
88.99051367289366
 21
124.7398436183635
 31
0.0
 11
89.07307950327758
 21
124.2547875127679
 31
0.0
 11
89.17582839505916
 21
123.7949085247319
 31
0.0
 11
89.3032895564072
 21
123.3412663448947
 31
0.0
 11
89.44678787821157
 21
122.9236084799155
 31
0.0
 11
89.61573005848676
 21
122.5155945997457
 31
0.0
 11
89.7952755422606
 21
122.1521646662198
 31
0.0
 11
90.00090766296312
 21
121.8028598954873
 31
0.0
 11
90.21099712560158
 21
121.5037161017134
 31
0.0
 11
90.44711894323353
 21
121.2247183154472
 31
0.0
 11
90.68195643076882
 21
120.9977512234981
 31
0.0
 11
90.94080599534082
 21
120.7987363989812
 31
0.0
 11
91.19490977887905
 21
120.6499948575921
 31
0.0
 11
91.46696838802438
 21
120.5378573910638
 31
0.0
 11
91.73490339879967
 21
120.4725891611507
 31
0.0
 11
92.00961894323353
 21
120.4500079683396
 31
0.0
  0
SPLINE
  5
102
330
4F
100
AcDbEntity
  8
1
  6
Continuous
 62
     7
100
AcDbSpline
210
0.0
220
0.0
230
1.0
 70
     8
 71
     3
 72
    31
 73
    27
 74
    25
 42
0.000000001
 43
0.0000000001
 44
0.00000001
 40
0.0
 40
0.0
 40
0.0
 40
0.0
 40
2.124705983448427
 40
4.163820658576037
 40
4.740107674433053
 40
5.320994418253467
 40
5.942405653689362
 40
6.562041487537027
 40
7.123545748840634
 40
7.685635821450362
 40
8.494114056589302
 40
9.30377910457877
 40
10.46731486166788
 40
11.62996690620768
 40
12.14363718735236
 40
12.65654043967642
 40
13.1235902874462
 40
13.59084967649679
 40
14.116895707281
 40
14.64273010990727
 40
15.17507723378873
 40
15.70815950065548
 40
16.30208102919085
 40
16.89402378783493
 40
17.86689662226015
 40
18.84778993625343
 40
18.84778993625343
 40
18.84778993625343
 40
18.84778993625343
 10
105.0000000000001
 20
132.0127172103582
 30
0.0
 10
104.3022632208086
 20
131.8944362958324
 30
0.0
 10
102.934897179392
 20
131.6626392632153
 30
0.0
 10
101.4373798994758
 20
131.0481787447963
 30
0.0
 10
100.6125477356715
 20
130.3688490791322
 30
0.0
 10
100.1962312350289
 20
129.9456920379493
 30
0.0
 10
99.81199920758057
 20
129.4740585054363
 30
0.0
 10
99.48260577855348
 20
128.9700962009985
 30
0.0
 10
99.21800613633954
 20
128.4516164122998
 30
0.0
 10
98.9844590464404
 20
127.8503369718825
 30
0.0
 10
98.80719043881871
 20
127.1426107545662
 30
0.0
 10
98.71871822845846
 20
126.2161684287637
 30
0.0
 10
98.81704146129934
 20
125.1670600802455
 30
0.0
 10
99.10226871453439
 20
124.2564737105353
 30
0.0
 10
99.42532232901249
 20
123.6011636443595
 30
0.0
 10
99.68600394882968
 20
123.1761392537155
 30
0.0
 10
99.97252184369293
 20
122.7874186105646
 30
0.0
 10
100.2918898927333
 20
122.4193793221786
 30
0.0
 10
100.6550101162128
 20
122.0654943563766
 30
0.0
 10
101.0643563356749
 20
121.7308247012961
 30
0.0
 10
101.5032768899299
 20
121.4318338832805
 30
0.0
 10
101.984916886496
 20
121.1587692581668
 30
0.0
 10
102.5051586755795
 20
120.9168947778071
 30
0.0
 10
103.1862530306025
 20
120.679647913137
 30
0.0
 10
104.0250931813264
 20
120.5288624078272
 30
0.0
 10
104.674142913806
 20
120.4760671589445
 30
0.0
 10
105.0000000000001
 20
120.4495611747811
 30
0.0
 11
105.0000000000001
 21
132.0127172103582
 31
0.0
 11
102.9203067150371
 21
131.5776868911006
 31
0.0
 11
101.0672313264707
 21
130.7267460765222
 31
0.0
 11
100.6206191313957
 21
130.3625424624039
 31
0.0
 11
100.2122222305065
 21
129.9494548431538
 31
0.0
 11
99.82038523632761
 21
129.4671523506524
 31
0.0
 11
99.48204387128426
 21
128.9480437993685
 31
0.0
 11
99.2267679893178
 21
128.447922553934
 31
0.0
 11
99.0233643647828
 21
127.9239261647938
 31
0.0
 11
98.82728283097786
 21
127.1395862576245
 31
0.0
 11
98.7509568270478
 21
126.3335268105446
 31
0.0
 11
98.85727446975031
 21
125.1748586012436
 31
0.0
 11
99.2054539348007
 21
124.0655656556653
 31
0.0
 11
99.43236609571932
 21
123.6047315972457
 31
0.0
 11
99.70030175918711
 21
123.167375647333
 31
0.0
 11
99.97731623718832
 21
122.7913456755963
 31
0.0
 11
100.2835040915331
 21
122.4383862800863
 31
0.0
 11
100.6601534137222
 21
122.0711537718811
 31
0.0
 11
101.0672313264707
 21
121.7383033663773
 31
0.0
 11
101.5069114483265
 21
121.438178640131
 31
0.0
 11
101.9703828291344
 21
121.174794921859
 31
0.0
 11
102.5095811686275
 21
120.9257809991545
 31
0.0
 11
103.0692034606093
 21
120.7328584216625
 31
0.0
 11
104.0237549276806
 21
120.5449407503447
 31
0.0
 11
105.0000000000001
 21
120.4495611747811
 31
0.0
  0
SPLINE
  5
103
330
4F
100
AcDbEntity
  8
1
  6
Continuous
 62
     7
100
AcDbSpline
210
0.0
220
0.0
230
1.0
 70
     8
 71
     3
 72
    31
 73
    27
 74
    25
 42
0.000000001
 43
0.0000000001
 44
0.00000001
 40
0.0
 40
0.0
 40
0.0
 40
0.0
 40
2.124705983448427
 40
4.163820658576037
 40
4.740107674433086
 40
5.32099441825347
 40
5.9424056536894
 40
6.562041487537065
 40
7.123545748840684
 40
7.685635821450375
 40
8.494114056589318
 40
9.303779104578783
 40
10.46731486166789
 40
11.6299669062077
 40
12.14363718735237
 40
12.65654043967644
 40
13.12359028744622
 40
13.59084967649682
 40
14.11689570728103
 40
14.6427301099073
 40
15.17507723378874
 40
15.70815950065542
 40
16.30208102919083
 40
16.89402378783496
 40
17.86689662226014
 40
18.84778993625346
 40
18.84778993625346
 40
18.84778993625346
 40
18.84778993625346
 10
105.0000000000001
 20
132.0127172103582
 30
0.0
 10
105.6977367791916
 20
131.8944362958324
 30
0.0
 10
107.0651028206083
 20
131.6626392632153
 30
0.0
 10
108.5626201005243
 20
131.0481787447962
 30
0.0
 10
109.3874522643287
 20
130.3688490791322
 30
0.0
 10
109.8037687649714
 20
129.9456920379492
 30
0.0
 10
110.1880007924197
 20
129.4740585054364
 30
0.0
 10
110.5173942214468
 20
128.9700962009985
 30
0.0
 10
110.7819938636607
 20
128.4516164122997
 30
0.0
 10
111.0155409535598
 20
127.8503369718824
 30
0.0
 10
111.1928095611815
 20
127.1426107545662
 30
0.0
 10
111.2812817715417
 20
126.2161684287637
 30
0.0
 10
111.182958538701
 20
125.1670600802454
 30
0.0
 10
110.8977312854658
 20
124.2564737105353
 30
0.0
 10
110.5746776709878
 20
123.6011636443595
 30
0.0
 10
110.3139960511705
 20
123.1761392537155
 30
0.0
 10
110.0274781563073
 20
122.7874186105646
 30
0.0
 10
109.7081101072669
 20
122.4193793221785
 30
0.0
 10
109.3449898837873
 20
122.0654943563765
 30
0.0
 10
108.9356436643253
 20
121.7308247012962
 30
0.0
 10
108.4967231100704
 20
121.4318338832805
 30
0.0
 10
108.0150831135042
 20
121.1587692581668
 30
0.0
 10
107.4948413244207
 20
120.9168947778071
 30
0.0
 10
106.8137469693978
 20
120.679647913137
 30
0.0
 10
105.9749068186738
 20
120.5288624078272
 30
0.0
 10
105.3258570861942
 20
120.4760671589446
 30
0.0
 10
105.0000000000001
 20
120.4495611747811
 30
0.0
 11
105.0000000000001
 21
132.0127172103582
 31
0.0
 11
107.0796932849631
 21
131.5776868911006
 31
0.0
 11
108.9327686735295
 21
130.7267460765222
 31
0.0
 11
109.3793808686045
 21
130.3625424624039
 31
0.0
 11
109.7877777694937
 21
129.9494548431538
 31
0.0
 11
110.1796147636726
 21
129.4671523506524
 31
0.0
 11
110.517956128716
 21
128.9480437993685
 31
0.0
 11
110.7732320106824
 21
128.4479225539339
 31
0.0
 11
110.9766356352174
 21
127.9239261647938
 31
0.0
 11
111.1727171690223
 21
127.1395862576245
 31
0.0
 11
111.2490431729524
 21
126.3335268105446
 31
0.0
 11
111.1427255302499
 21
125.1748586012436
 31
0.0
 11
110.7945460651995
 21
124.0655656556653
 31
0.0
 11
110.5676339042809
 21
123.6047315972457
 31
0.0
 11
110.2996982408131
 21
123.167375647333
 31
0.0
 11
110.0226837628119
 21
122.7913456755963
 31
0.0
 11
109.7164959084671
 21
122.4383862800863
 31
0.0
 11
109.339846586278
 21
122.0711537718811
 31
0.0
 11
108.9327686735295
 21
121.7383033663773
 31
0.0
 11
108.4930885516737
 21
121.438178640131
 31
0.0
 11
108.0296171708659
 21
121.174794921859
 31
0.0
 11
107.4904188313727
 21
120.9257809991545
 31
0.0
 11
106.9307965393909
 21
120.7328584216625
 31
0.0
 11
105.9762450723197
 21
120.5449407503447
 31
0.0
 11
105.0000000000001
 21
120.4495611747811
 31
0.0
  0
SPLINE
  5
104
330
4F
100
AcDbEntity
  8
1
  6
Continuous
 62
     7
100
AcDbSpline
210
0.0
220
0.0
230
1.0
 70
    11
 71
     3
 72
    79
 73
    75
 74
    73
 42
0.000000001
 43
0.0000000001
 44
0.00000001
 40
0.0
 40
0.0
 40
0.0
 40
0.0
 40
0.2756420451079497
 40
0.5514120815317864
 40
0.8456750568134552
 40
1.140111432238296
 40
1.466623296704448
 40
1.793215866275389
 40
2.15872000797523
 40
2.524266984062046
 40
2.929604364482153
 40
3.334965804867145
 40
3.776572854970865
 40
4.218194707401613
 40
4.689403339516176
 40
5.160620930864992
 40
5.652654000809878
 40
6.144691915587394
 40
6.647455488848517
 40
7.150220596659639
 40
7.652985704472612
 40
8.155749277739258
 40
8.647787192524593
 40
9.139820262477812
 40
9.611037853832435
 40
10.08224648594657
 40
10.52386833836596
 40
10.9654753884409
 40
11.37083682877487
 40
11.77617420910834
 40
12.14172118507098
 40
12.50722532658314
 40
12.83381789590596
 40
13.16032976001212
 40
13.45476613495365
 40
13.74902910942598
 40
14.02479914364254
 40
14.30044119514266
 40
14.57608324664275
 40
14.85185328085925
 40
15.14611625533167
 40
15.4405526302732
 40
15.76706449437936
 40
16.09365706370218
 40
16.45916120521429
 40
16.82470818117698
 40
17.23004556151048
 40
17.63540700184442
 40
18.07701405191933
 40
18.51863590433872
 40
18.98984453645289
 40
19.46106212780748
 40
19.95309519776069
 40
20.44513311254603
 40
20.94789668581266
 40
21.45066179362565
 40
21.95342690143677
 40
22.45619047469789
 40
22.9482283894754
 40
23.44026145942029
 40
23.91147905076914
 40
24.38268768288367
 40
24.82430953531439
 40
25.26591658541811
 40
25.67127802580311
 40
26.07661540622321
 40
26.44216238231004
 40
26.80766652400988
 40
27.13425909358083
 40
27.46077095804696
 40
27.75520733347182
 40
28.04947030875356
 40
28.3252403451774
 40
28.60088239028526
 40
28.60088239028526
 40
28.60088239028526
 40
28.60088239028526
 10
117.9903810567667
 20
120.4500079683396
 30
0.0
 10
117.8984130138552
 20
120.4544812805522
 30
0.0
 10
117.7144342229608
 20
120.4634299718613
 30
0.0
 10
117.4395694428196
 20
120.5333810454293
 30
0.0
 10
117.1725300900941
 20
120.6438038638377
 30
0.0
 10
116.9090319437815
 20
120.7993675087726
 30
0.0
 10
116.6586314971882
 20
120.993145511605
 30
0.0
 10
116.4148209696148
 20
121.2303003795462
 30
0.0
 10
116.1873771467622
 20
121.5004078413286
 30
0.0
 10
115.9701924728302
 20
121.8112662179552
 30
0.0
 10
115.771669215613
 20
122.149844833437
 30
0.0
 10
115.5872774167722
 20
122.5246946886917
 30
0.0
 10
115.4232998512204
 20
122.9220237457036
 30
0.0
 10
115.2770028041808
 20
123.3494054523139
 30
0.0
 10
115.1524678043681
 20
123.7938830527449
 30
0.0
 10
115.0484929743488
 20
124.2608108978862
 30
0.0
 10
114.9672499465218
 20
124.7392676327975
 30
0.0
 10
114.9085750338047
 20
125.2315864038459
 30
0.0
 10
114.8732202384014
 20
125.7297126592487
 30
0.0
 10
114.8614614611409
 20
126.2325247114835
 30
0.0
 10
114.8732202384865
 20
126.7353367637123
 30
0.0
 10
114.9085750339693
 20
127.2334630191316
 30
0.0
 10
114.9672499467547
 20
127.7257817901172
 30
0.0
 10
115.0484929746331
 20
128.2042385252525
 30
0.0
 10
115.1524678046811
 20
128.6711663695839
 30
0.0
 10
115.2770028044941
 20
129.1156439729367
 30
0.0
 10
115.4232998514988
 20
129.5430256692843
 30
0.0
 10
115.5872774169756
 20
129.9403547630177
 30
0.0
 10
115.7716692156916
 20
130.3152044919287
 30
0.0
 10
115.9701924727324
 20
130.6537835550587
 30
0.0
 10
116.1873771464199
 20
130.9646404169172
 30
0.0
 10
116.414820968962
 20
131.2347532085947
 30
0.0
 10
116.6586314961302
 20
131.4718901952324
 30
0.0
 10
116.9090319422181
 20
131.6657311519726
 30
0.0
 10
117.1725300878331
 20
131.8210817748771
 30
0.0
 10
117.4395694392547
 20
131.9322650823018
 30
0.0
 10
117.7144342201658
 20
131.9995476043215
 30
0.0
 10
117.9903810567667
 20
132.022786596617
 30
0.0
 10
118.2663278933675
 20
131.9995476043215
 30
0.0
 10
118.5411926742787
 20
131.9322650823018
 30
0.0
 10
118.8082320257003
 20
131.8210817748771
 30
0.0
 10
119.0717301713153
 20
131.6657311519726
 30
0.0
 10
119.3221306174032
 20
131.4718901952324
 30
0.0
 10
119.5659411445713
 20
131.2347532085948
 30
0.0
 10
119.7933849671135
 20
130.9646404169172
 30
0.0
 10
120.010569640801
 20
130.6537835550587
 30
0.0
 10
120.2090928978418
 20
130.3152044919287
 30
0.0
 10
120.3934846965577
 20
129.9403547630177
 30
0.0
 10
120.5574622620347
 20
129.5430256692843
 30
0.0
 10
120.7037593090392
 20
129.1156439729366
 30
0.0
 10
120.8282943088522
 20
128.6711663695839
 30
0.0
 10
120.9322691389001
 20
128.2042385252526
 30
0.0
 10
121.0135121667786
 20
127.7257817901172
 30
0.0
 10
121.0721870795639
 20
127.2334630191316
 30
0.0
 10
121.1075418750468
 20
126.7353367637123
 30
0.0
 10
121.1193006523924
 20
126.2325247114835
 30
0.0
 10
121.1075418751319
 20
125.7297126592487
 30
0.0
 10
121.0721870797286
 20
125.2315864038458
 30
0.0
 10
121.0135121670116
 20
124.7392676327976
 30
0.0
 10
120.9322691391844
 20
124.2608108978861
 30
0.0
 10
120.8282943091652
 20
123.7938830527449
 30
0.0
 10
120.7037593093525
 20
123.3494054523139
 30
0.0
 10
120.557462262313
 20
122.9220237457036
 30
0.0
 10
120.3934846967611
 20
122.5246946886916
 30
0.0
 10
120.2090928979204
 20
122.1498448334369
 30
0.0
 10
120.0105696407032
 20
121.8112662179552
 30
0.0
 10
119.7933849667711
 20
121.5004078413286
 30
0.0
 10
119.5659411439186
 20
121.2303003795462
 30
0.0
 10
119.3221306163452
 20
120.993145511605
 30
0.0
 10
119.0717301697519
 20
120.7993675087726
 30
0.0
 10
118.8082320234393
 20
120.6438038638377
 30
0.0
 10
118.5411926707137
 20
120.5333810454294
 30
0.0
 10
118.2663278905726
 20
120.4634299718613
 30
0.0
 10
118.0823490996781
 20
120.4544812805522
 30
0.0
 10
117.9903810567667
 20
120.4500079683396
 30
0.0
 11
117.9903810567667
 21
120.4500079683396
 31
0.0
 11
117.7156655123328
 21
120.4725891611507
 31
0.0
 11
117.4477305015575
 21
120.5378573910638
 31
0.0
 11
117.1756718924122
 21
120.6499948575921
 31
0.0
 11
116.921568108874
 21
120.7987363989812
 31
0.0
 11
116.662718544302
 21
120.9977512234981
 31
0.0
 11
116.4278810567667
 21
121.2247183154472
 31
0.0
 11
116.1917592391348
 21
121.5037161017134
 31
0.0
 11
115.9816697764963
 21
121.8028598954873
 31
0.0
 11
115.7760376557938
 21
122.1521646662198
 31
0.0
 11
115.5964921720199
 21
122.5155945997457
 31
0.0
 11
115.4275499917447
 21
122.9236084799155
 31
0.0
 11
115.2840516699403
 21
123.3412663448947
 31
0.0
 11
115.1565905085923
 21
123.7949085247319
 31
0.0
 11
115.0538416168107
 21
124.2547875127679
 31
0.0
 11
114.9712757864268
 21
124.7398436183635
 31
0.0
 11
114.9128568286035
 21
125.2284012249437
 31
0.0
 11
114.8771951376317
 21
125.7298984376929
 31
0.0
 11
114.8653810567667
 21
126.2325247214498
 31
0.0
 11
114.8771951376317
 21
126.7351510052066
 31
0.0
 11
114.9128568286035
 21
127.2366482179558
 31
0.0
 11
114.9712757864268
 21
127.725205824536
 31
0.0
 11
115.0538416168107
 21
128.2102619301316
 31
0.0
 11
115.1565905085923
 21
128.6701409181676
 31
0.0
 11
115.2840516699403
 21
129.1237830980049
 31
0.0
 11
115.4275499917447
 21
129.541440962984
 31
0.0
 11
115.5964921720199
 21
129.9494548431538
 31
0.0
 11
115.7760376557938
 21
130.3128847766797
 31
0.0
 11
115.9816697764963
 21
130.6621895474122
 31
0.0
 11
116.1917592391347
 21
130.9613333411861
 31
0.0
 11
116.4278810567667
 21
131.2403311274523
 31
0.0
 11
116.662718544302
 21
131.4672982194014
 31
0.0
 11
116.921568108874
 21
131.6663130439183
 31
0.0
 11
117.1756718924122
 21
131.8150545853073
 31
0.0
 11
117.4477305015575
 21
131.9271920518357
 31
0.0
 11
117.7156655123328
 21
131.9924602817488
 31
0.0
 11
117.9903810567667
 21
132.0150414745599
 31
0.0
 11
118.2650966012006
 21
131.9924602817488
 31
0.0
 11
118.5330316119758
 21
131.9271920518357
 31
0.0
 11
118.8050902211212
 21
131.8150545853073
 31
0.0
 11
119.0591940046594
 21
131.6663130439183
 31
0.0
 11
119.3180435692314
 21
131.4672982194014
 31
0.0
 11
119.5528810567667
 21
131.2403311274523
 31
0.0
 11
119.7890028743986
 21
130.9613333411861
 31
0.0
 11
119.9990923370371
 21
130.6621895474122
 31
0.0
 11
120.2047244577396
 21
130.3128847766797
 31
0.0
 11
120.3842699415135
 21
129.9494548431538
 31
0.0
 11
120.5532121217887
 21
129.541440962984
 31
0.0
 11
120.696710443593
 21
129.1237830980049
 31
0.0
 11
120.8241716049411
 21
128.6701409181676
 31
0.0
 11
120.9269204967226
 21
128.2102619301316
 31
0.0
 11
121.0094863271065
 21
127.725205824536
 31
0.0
 11
121.0679052849298
 21
127.2366482179558
 31
0.0
 11
121.1035669759016
 21
126.7351510052066
 31
0.0
 11
121.1153810567666
 21
126.2325247214498
 31
0.0
 11
121.1035669759016
 21
125.7298984376929
 31
0.0
 11
121.0679052849298
 21
125.2284012249437
 31
0.0
 11
121.0094863271065
 21
124.7398436183635
 31
0.0
 11
120.9269204967226
 21
124.2547875127679
 31
0.0
 11
120.8241716049411
 21
123.7949085247319
 31
0.0
 11
120.696710443593
 21
123.3412663448947
 31
0.0
 11
120.5532121217887
 21
122.9236084799155
 31
0.0
 11
120.3842699415135
 21
122.5155945997457
 31
0.0
 11
120.2047244577396
 21
122.1521646662198
 31
0.0
 11
119.9990923370371
 21
121.8028598954873
 31
0.0
 11
119.7890028743986
 21
121.5037161017134
 31
0.0
 11
119.5528810567667
 21
121.2247183154472
 31
0.0
 11
119.3180435692314
 21
120.9977512234981
 31
0.0
 11
119.0591940046594
 21
120.7987363989812
 31
0.0
 11
118.8050902211212
 21
120.6499948575921
 31
0.0
 11
118.5330316119758
 21
120.5378573910638
 31
0.0
 11
118.2650966012005
 21
120.4725891611507
 31
0.0
 11
117.9903810567667
 21
120.4500079683396
 31
0.0
  0
ENDBLK
  5
51
330
4F
100
AcDbEntity
  8
0
100
AcDbBlockEnd
  0
BLOCK
  5
127
330
120
100
AcDbEntity
  8
0
100
AcDbBlockBegin
  2
*D4
 70
     1
 10
0.0
 20
0.0
 30
0.0
  3
*D4
  1

  0
LINE
  5
121
330
120
100
AcDbEntity
  8
1
  6
Continuous
 62
     2
100
AcDbLine
 10
77.35000000000012
 20
119.2325247214497
 30
0.0
 11
77.35000000000012
 21
133.2325247214497
 31
0.0
  0
LINE
  5
122
330
120
100
AcDbEntity
  8
1
  6
Continuous
 62
     2
100
AcDbLine
 10
90.07351117331386
 20
133.2325247214497
 30
0.0
 11
76.35000000000012
 21
133.2325247214497
 31
0.0
  0
LINE
  5
123
330
120
100
AcDbEntity
  8
1
  6
Continuous
 62
     2
100
AcDbLine
 10
90.07351117331386
 20
119.2325247214497
 30
0.0
 11
76.35000000000012
 21
119.2325247214497
 31
0.0
  0
SOLID
  5
124
330
120
100
AcDbEntity
  8
1
 62
     2
100
AcDbTrace
 10
76.88921625844424
 20
122.7325247214497
 30
0.0
 11
77.81078374155601
 21
122.7325247214497
 31
0.0
 12
77.35000000000012
 22
119.2325247214497
 32
0.0
 13
77.35000000000012
 23
119.2325247214497
 33
0.0
  0
SOLID
  5
125
330
120
100
AcDbEntity
  8
1
 62
     2
100
AcDbTrace
 10
77.81078374155601
 20
129.7325247214497
 30
0.0
 11
76.88921625844424
 21
129.7325247214497
 31
0.0
 12
77.35000000000012
 22
133.2325247214497
 32
0.0
 13
77.35000000000012
 23
133.2325247214497
 33
0.0
  0
MTEXT
  5
126
330
120
100
AcDbEntity
  8
1
 62
     7
100
AcDbMText
 10
76.35000000000012
 20
124.7979228545406
 30
0.0
 40
3.5
 41
0.0
 71
     7
 72
     1
  1
14
  7
CONVERTER_12
 11
0.0
 21
1.0
 31
0.0
 73
     1
 44
0.60024009603842
  0
ENDBLK
  5
128
330
120
100
AcDbEntity
  8
0
100
AcDbBlockEnd
  0
BLOCK
  5
132
330
12B
100
AcDbEntity
  8
0
100
AcDbBlockBegin
  2
*D5
 70
     1
 10
0.0
 20
0.0
 30
0.0
  3
*D5
  1

  0
LINE
  5
12C
330
12B
100
AcDbEntity
  8
1
  6
Continuous
 62
     2
100
AcDbLine
 10
69.35000000000012
 20
119.2325247214498
 30
0.0
 11
69.35000000000012
 21
144.2325247214498
 31
0.0
  0
LINE
  5
12D
330
12B
100
AcDbEntity
  8
1
  6
Continuous
 62
     2
100
AcDbLine
 10
95.80000000000008
 20
144.2325247214498
 30
0.0
 11
68.35000000000012
 21
144.2325247214498
 31
0.0
  0
LINE
  5
12E
330
12B
100
AcDbEntity
  8
1
  6
Continuous
 62
     2
100
AcDbLine
 10
90.07351117331386
 20
119.2325247214498
 30
0.0
 11
68.35000000000012
 21
119.2325247214498
 31
0.0
  0
SOLID
  5
12F
330
12B
100
AcDbEntity
  8
1
 62
     2
100
AcDbTrace
 10
68.88921625844424
 20
122.7325247214498
 30
0.0
 11
69.81078374155601
 21
122.7325247214498
 31
0.0
 12
69.35000000000012
 22
119.2325247214498
 32
0.0
 13
69.35000000000012
 23
119.2325247214498
 33
0.0
  0
SOLID
  5
130
330
12B
100
AcDbEntity
  8
1
 62
     2
100
AcDbTrace
 10
69.81078374155601
 20
140.7325247214498
 30
0.0
 11
68.88921625844424
 21
140.7325247214498
 31
0.0
 12
69.35000000000012
 22
144.2325247214498
 32
0.0
 13
69.35000000000012
 23
144.2325247214498
 33
0.0
  0
MTEXT
  5
131
330
12B
100
AcDbEntity
  8
1
 62
     7
100
AcDbMText
 10
68.35000000000012
 20
129.5219585362956
 30
0.0
 40
3.5
 41
0.0
 71
     7
 72
     1
  1
25
  7
CONVERTER_12
 11
0.0
 21
1.0
 31
0.0
 73
     1
 44
0.60024009603842
  0
ENDBLK
  5
133
330
12B
100
AcDbEntity
  8
0
100
AcDbBlockEnd
  0
BLOCK
  5
13D
330
136
100
AcDbEntity
  8
0
100
AcDbBlockBegin
  2
*D6
 70
     1
 10
0.0
 20
0.0
 30
0.0
  3
*D6
  1

  0
LINE
  5
137
330
136
100
AcDbEntity
  8
1
  6
Continuous
 62
     2
100
AcDbLine
 10
130.7980723447706
 20
224.7325247214498
 30
0.0
 11
130.7980723447706
 21
194.7339085124334
 31
0.0
  0
LINE
  5
138
330
136
100
AcDbEntity
  8
1
  6
Continuous
 62
     2
100
AcDbLine
 10
112.2293852999153
 20
194.7339085124334
 30
0.0
 11
131.7980723447706
 21
194.7339085124334
 31
0.0
  0
LINE
  5
139
330
136
100
AcDbEntity
  8
1
  6
Continuous
 62
     2
100
AcDbLine
 10
112.2265136822676
 20
224.7325247214498
 30
0.0
 11
131.7980723447706
 21
224.7325247214498
 31
0.0
  0
SOLID
  5
13A
330
136
100
AcDbEntity
  8
1
 62
     2
100
AcDbTrace
 10
131.2588560863265
 20
221.2325247214498
 30
0.0
 11
130.3372886032147
 21
221.2325247214498
 31
0.0
 12
130.7980723447706
 22
224.7325247214498
 32
0.0
 13
130.7980723447706
 23
224.7325247214498
 33
0.0
  0
SOLID
  5
13B
330
136
100
AcDbEntity
  8
1
 62
     2
100
AcDbTrace
 10
130.3372886032147
 20
198.2339085124334
 30
0.0
 11
131.2588560863265
 21
198.2339085124334
 31
0.0
 12
130.7980723447706
 22
194.7339085124334
 32
0.0
 13
130.7980723447706
 23
194.7339085124334
 33
0.0
  0
MTEXT
  5
13C
330
136
100
AcDbEntity
  8
1
 62
     7
100
AcDbMText
 10
129.7980723447706
 20
207.0874604081132
 30
0.0
 40
3.5
 41
0.0
 71
     7
 72
     1
  1
30
  7
CONVERTER_12
 11
0.0
 21
1.0
 31
0.0
 73
     1
 44
0.60024009603842
  0
ENDBLK
  5
13E
330
136
100
AcDbEntity
  8
0
100
AcDbBlockEnd
  0
BLOCK
  5
148
330
141
100
AcDbEntity
  8
0
100
AcDbBlockBegin
  2
*D7
 70
     1
 10
0.0
 20
0.0
 30
0.0
  3
*D7
  1

  0
LINE
  5
142
330
141
100
AcDbEntity
  8
1
  6
Continuous
 62
     2
100
AcDbLine
 10
88.35000000000014
 20
235.8481167398447
 30
0.0
 11
121.6500000000001
 21
235.8481167398447
 31
0.0
  0
LINE
  5
143
330
141
100
AcDbEntity
  8
1
  6
Continuous
 62
     2
100
AcDbLine
 10
121.6500000000001
 20
209.7325247214498
 30
0.0
 11
121.6500000000001
 21
236.8481167398447
 31
0.0
  0
LINE
  5
144
330
141
100
AcDbEntity
  8
1
  6
Continuous
 62
     2
100
AcDbLine
 10
88.35000000000014
 20
209.7325247214498
 30
0.0
 11
88.35000000000014
 21
236.8481167398447
 31
0.0
  0
SOLID
  5
145
330
141
100
AcDbEntity
  8
1
 62
     2
100
AcDbTrace
 10
91.85000000000014
 20
236.3089004814006
 30
0.0
 11
91.85000000000014
 21
235.3873329982888
 31
0.0
 12
88.35000000000014
 22
235.8481167398447
 32
0.0
 13
88.35000000000014
 23
235.8481167398447
 33
0.0
  0
SOLID
  5
146
330
141
100
AcDbEntity
  8
1
 62
     2
100
AcDbTrace
 10
118.1500000000001
 20
235.3873329982888
 30
0.0
 11
118.1500000000001
 21
236.3089004814006
 31
0.0
 12
121.6500000000001
 22
235.8481167398447
 32
0.0
 13
121.6500000000001
 23
235.8481167398447
 33
0.0
  0
MTEXT
  5
147
330
141
100
AcDbEntity
  8
1
 62
     7
100
AcDbMText
 10
101.6050000000085
 20
236.8481097827684
 30
0.0
 40
3.5
 41
0.0
 71
     7
 72
     1
  1
\C7;{\Fgdt;n}\C7;34
  7
CONVERTER_12
 11
0.9999999999970619
 21
2.424068405545306E-6
 31
0.0
 73
     1
 44
0.60024009603842
  0
ENDBLK
  5
149
330
141
100
AcDbEntity
  8
0
100
AcDbBlockEnd
  0
ENDSEC
  0
SECTION
  2
ENTITIES
  0
INSERT
  5
52
330
1F
100
AcDbEntity
  8
0
100
AcDbBlockReference
  2
開示A4枠
 10
0.0
 20
0.0
 30
0.0
  0
INSERT
  5
53
330
1F
100
AcDbEntity
  8
0
100
AcDbBlockReference
  2
35-21
 10
113.3713884085856
 20
166.3909745800615
 30
0.0
  0
LINE
  5
105
330
1F
100
AcDbEntity
  8
1
  6
DASH_CENTER
 62
     2
100
AcDbLine
 10
85.94190647482027
 20
209.7325247214498
 30
0.0
 11
114.1880000000001
 21
209.7325247214498
 31
0.0
  0
LINE
  5
106
330
1F
100
AcDbEntity
  8
1
  6
DASH_CENTER
 62
     2
100
AcDbLine
 10
119.6495967676374
 20
209.7325247214498
 30
0.0
 11
121.3000000000001
 21
209.7325247214498
 31
0.0
  0
LINE
  5
107
330
1F
100
AcDbEntity
  8
1
  6
DASH_CENTER
 62
     2
100
AcDbLine
 10
121.3000000000001
 20
209.7325247214498
 30
0.0
 11
123.8008992805757
 21
209.7325247214498
 31
0.0
  0
LINE
  5
108
330
1F
100
AcDbEntity
  8
1
  6
DASH_CENTER
 62
     2
100
AcDbLine
 10
114.1880000000001
 20
209.7325247214498
 30
0.0
 11
119.6495967676374
 21
209.7325247214498
 31
0.0
  0
LINE
  5
109
330
1F
100
AcDbEntity
  8
1
  6
DASH_CENTER
 62
     2
100
AcDbLine
 10
105.0000000000001
 20
227.4532081746872
 30
0.0
 11
105.0000000000001
 21
224.7325247214498
 31
0.0
  0
LINE
  5
10A
330
1F
100
AcDbEntity
  8
1
  6
DASH_CENTER
 62
     2
100
AcDbLine
 10
105.0000000000001
 20
224.7325247214498
 30
0.0
 11
105.0000000000001
 21
192.1147189660541
 31
0.0
  0
LINE
  5
10B
330
1F
100
AcDbEntity
  8
1
  6
DASH_CENTER
 62
     2
100
AcDbLine
 10
105.0000000000001
 20
116.7325247214498
 30
0.0
 11
105.0000000000001
 21
144.2325247214498
 31
0.0
  0
LINE
  5
10C
330
1F
100
AcDbEntity
  8
1
  6
DASH_CENTER
 62
     2
100
AcDbLine
 10
105.0000000000001
 20
144.2325247214498
 30
0.0
 11
105.0000000000001
 21
146.2325247214498
 31
0.0
  0
SOLID
  5
10D
330
1F
100
AcDbEntity
  8
1
 62
     2
100
AcDbTrace
 10
120.3762124677819
 20
116.4144505211614
 30
0.0
 11
119.5743922612617
 21
115.9601697903959
 31
0.0
 12
118.2500000000001
 22
119.2325247214498
 32
0.0
 13
118.2500000000001
 23
119.2325247214498
 33
0.0
  0
LEADER
  5
10E
330
1F
100
AcDbEntity
  8
1
  6
Continuous
 62
     2
100
AcDbLeader
  3
Standard
 71
     0
 76
     3
 10
118.2500000000001
 20
119.2325247214498
 30
0.0
 10
126.1273532827422
 20
105.3287409854357
 30
0.0
 10
140.800870342351
 20
105.3287409854357
 30
0.0
  0
SOLID
  5
10F
330
1F
100
AcDbEntity
  8
1
 62
     2
100
AcDbTrace
 10
116.8243922612617
 20
141.8568940409929
 30
0.0
 11
117.6262124677819
 21
141.4026133102274
 31
0.0
 12
115.5000000000001
 22
138.584539109939
 32
0.0
 13
115.5000000000001
 23
138.584539109939
 33
0.0
  0
LEADER
  5
110
330
1F
100
AcDbEntity
  8
1
  6
Continuous
 62
     2
100
AcDbLeader
  3
Standard
 71
     0
 76
     3
 10
115.5000000000001
 20
138.584539109939
 30
0.0
 10
123.3773532827422
 20
152.488322845953
 30
0.0
 10
138.050870342351
 20
152.488322845953
 30
0.0
  0
MTEXT
  5
112
330
1F
100
AcDbEntity
  8
1
 62
     7
100
AcDbMText
 10
133.4641118125466
 20
108.8287409854357
 30
0.0
 40
3.5
 41
0.0
 71
     5
 72
     1
  1
G3/4
  7
CONVERTER_12
 73
     1
 44
1.32052821128451
  0
MTEXT
  5
113
330
1F
100
AcDbEntity
  8
1
 62
     7
100
AcDbMText
 10
130.7141118125466
 20
155.988322845953
 30
0.0
 40
3.5
 41
0.0
 71
     5
 72
     1
  1
G1/2
  7
CONVERTER_12
 73
     1
 44
1.32052821128451
  0
MTEXT
  5
114
330
1F
100
AcDbEntity
  8
1
 62
     7
100
AcDbMText
 10
157.5
 20
12.5
 30
0.0
 40
2.5
 41
0.0
 71
     5
 72
     1
  1
8
  7
CONVERTER_12
 73
     1
 44
0.7202881152461
  0
MTEXT
  5
115
330
1F
100
AcDbEntity
  8
1
 62
     7
100
AcDbMText
 10
151.75
 20
12.5
 30
0.0
 40
2.5
 41
0.0
 71
     5
 72
     1
  1
05
  7
CONVERTER_12
 73
     1
 44
0.7202881152461
  0
MTEXT
  5
116
330
1F
100
AcDbEntity
  8
1
 62
     7
100
AcDbMText
 10
140.5
 20
12.5
 30
0.0
 40
2.5
 41
0.0
 71
     5
 72
     1
  1
8
  7
CONVERTER_12
 73
     1
 44
0.7202881152461
  0
MTEXT
  5
117
330
1F
100
AcDbEntity
  8
1
 62
     7
100
AcDbMText
 10
134.75
 20
12.5
 30
0.0
 40
2.5
 41
0.0
 71
     5
 72
     1
  1
05
  7
CONVERTER_12
 73
     1
 44
0.7202881152461
  0
MTEXT
  5
118
330
1F
100
AcDbEntity
  8
1
 62
     7
100
AcDbMText
 10
93.75000000000003
 20
17.0
 30
0.0
 40
3.5
 41
0.0
 71
     5
 72
     1
  1
1
  7
CONVERTER_12
 73
     1
 44
0.7202881152461
  0
MTEXT
  5
119
330
1F
100
AcDbEntity
  8
1
 62
     7
100
AcDbMText
 10
57.0
 20
14.25
 30
0.0
 40
3.5
 41
0.0
 71
     5
 72
     1
  1
T25-5-20X13
  7
CONVERTER_12
 73
     1
 44
0.7202881152461
  0
MTEXT
  5
11A
330
1F
100
AcDbEntity
  8
1
 62
     7
100
AcDbMText
 10
57.0
 20
22.75000000000003
 30
0.0
 40
3.5
 41
0.0
 71
     5
 72
     1
  1
20X13アダプター
  7
CONVERTER_11
 73
     1
 44
0.54545454545455
  0
MTEXT
  5
11B
330
1F
100
AcDbEntity
  8
1
 62
     7
100
AcDbMText
 10
85.25000000000003
 20
17.0
 30
0.0
 40
3.5
 41
0.0
 71
     5
 72
     1
  1
1
  7
CONVERTER_12
 73
     1
 44
0.7202881152461
  0
MTEXT
  5
11C
330
1F
100
AcDbEntity
  8
1
 62
     7
100
AcDbMText
 10
100.75
 20
12.49999999999999
 30
0.0
 40
2.5
 41
0.0
 71
     5
 72
     1
  1
05
  7
CONVERTER_12
 73
     1
 44
0.7202881152461
  0
MTEXT
  5
11D
330
1F
100
AcDbEntity
  8
1
 62
     7
100
AcDbMText
 10
106.5
 20
12.49999999999999
 30
0.0
 40
2.5
 41
0.0
 71
     5
 72
     1
  1
8
  7
CONVERTER_12
 73
     1
 44
0.7202881152461
  0
MTEXT
  5
11E
330
1F
100
AcDbEntity
  8
1
 62
     7
100
AcDbMText
 10
117.75
 20
12.49999999999999
 30
0.0
 40
2.5
 41
0.0
 71
     5
 72
     1
  1
05
  7
CONVERTER_12
 73
     1
 44
0.7202881152461
  0
MTEXT
  5
11F
330
1F
100
AcDbEntity
  8
1
 62
     7
100
AcDbMText
 10
123.5
 20
12.49999999999999
 30
0.0
 40
2.5
 41
0.0
 71
     5
 72
     1
  1
8
  7
CONVERTER_12
 73
     1
 44
0.7202881152461
  0
DIMENSION
  5
12A
330
1F
100
AcDbEntity
  8
1
100
AcDbDimension
  2
*D4
 10
77.35000000000012
 20
119.2325247214497
 30
0.0
 11
74.60000000000012
 21
126.8979228545406
 31
0.0
 70
    33
  1
<>
 71
     5
 42
-1.0
 53
90.0
  3
ME10_DIM_10
100
AcDbAlignedDimension
 13
90.07351117331386
 23
133.2325247214497
 33
0.0
 14
90.07351117331386
 24
119.2325247214498
 34
0.0
  0
DIMENSION
  5
135
330
1F
100
AcDbEntity
  8
1
100
AcDbDimension
  2
*D5
 10
69.35000000000012
 20
119.2325247214498
 30
0.0
 11
66.60000000000012
 21
132.1469585362956
 31
0.0
 70
    32
  1
<>
 71
     5
 42
-1.0
 53
90.0
  3
ME10_DIM_11
100
AcDbAlignedDimension
 13
95.80000000000008
 23
144.2325247214498
 33
0.0
 14
90.07351117331386
 24
119.2325247214498
 34
0.0
 50
90.0
100
AcDbRotatedDimension
  0
DIMENSION
  5
140
330
1F
100
AcDbEntity
  8
1
100
AcDbDimension
  2
*D6
 10
130.7980723447706
 20
224.7325247214498
 30
0.0
 11
128.0480723447706
 21
209.7124604081132
 31
0.0
 70
    32
  1
<>
 71
     5
 42
-1.0
 53
90.0
  3
ME10_DIM_12
100
AcDbAlignedDimension
 13
112.2293852999153
 23
194.7339085124334
 33
0.0
 14
112.2265136822676
 24
224.7325247214498
 34
0.0
 50
90.0
100
AcDbRotatedDimension
  0
DIMENSION
  5
14B
330
1F
100
AcDbEntity
  8
1
100
AcDbDimension
  2
*D7
 10
88.35000000000014
 20
235.8481167398447
 30
0.0
 11
105.0000000000001
 21
238.5981167398447
 31
0.0
 70
    33
  1
{\Fgdt;n}34
 71
     5
 42
-1.0
 53
0.00013888888889
  3
ME10_DIM_13
100
AcDbAlignedDimension
 13
121.6500000000001
 23
209.7325247214498
 33
0.0
 14
88.35000000000015
 24
209.7325247214498
 34
0.0
  0
ENDSEC
  0
SECTION
  2
OBJECTS
  0
DICTIONARY
  5
C
330
0
100
AcDbDictionary
281
     1
  3
ACAD_GROUP
350
D
  3
ACAD_LAYOUT
350
1A
  3
ACAD_MATERIAL
350
3B
  3
ACAD_MLEADERSTYLE
350
14E
  3
ACAD_MLINESTYLE
350
17
  3
ACAD_PLOTSETTINGS
350
19
  3
ACAD_PLOTSTYLENAME
350
E
  3
ACAD_VISUALSTYLE
350
2A
  3
AcDbVariableDictionary
350
14C
  0
DICTIONARY
  5
D
102
{ACAD_REACTORS
330
C
102
}
330
C
100
AcDbDictionary
281
     1
  0
DICTIONARY
  5
1A
102
{ACAD_REACTORS
330
C
102
}
330
C
100
AcDbDictionary
281
     1
  3
Layout1
350
1E
  3
Layout2
350
26
  3
Model
350
22
  0
DICTIONARY
  5
3B
102
{ACAD_REACTORS
330
C
102
}
330
C
100
AcDbDictionary
281
     1
  3
ByBlock
350
3D
  3
ByLayer
350
3C
  3
Global
350
3E
  0
DICTIONARY
  5
14E
102
{ACAD_REACTORS
330
C
102
}
330
C
100
AcDbDictionary
281
     1
  0
DICTIONARY
  5
17
102
{ACAD_REACTORS
330
C
102
}
330
C
100
AcDbDictionary
281
     1
  3
Standard
350
18
  0
DICTIONARY
  5
19
102
{ACAD_REACTORS
330
C
102
}
330
C
100
AcDbDictionary
281
     1
  0
ACDBDICTIONARYWDFLT
  5
E
102
{ACAD_REACTORS
330
C
102
}
330
C
100
AcDbDictionary
281
     1
  3
Normal
350
F
100
AcDbDictionaryWithDefault
340
F
  0
DICTIONARY
  5
2A
102
{ACAD_REACTORS
330
C
102
}
330
C
100
AcDbDictionary
281
     1
  3
2dWireframe
350
2F
  3
3D Hidden
350
31
  3
3dWireframe
350
30
  3
Basic
350
32
  3
Brighten
350
36
  3
ColorChange
350
3A
  3
Conceptual
350
34
  3
Dim
350
35
  3
Facepattern
350
39
  3
Flat
350
2B
  3
FlatWithEdges
350
2C
  3
Gouraud
350
2D
  3
GouraudWithEdges
350
2E
  3
Linepattern
350
38
  3
Realistic
350
33
  3
Thicken
350
37
  0
DICTIONARY
  5
14C
102
{ACAD_REACTORS
330
C
102
}
330
C
100
AcDbDictionary
281
     1
  3
DIMASSOC
350
14F
  3
HIDETEXT
350
150
  0
LAYOUT
  5
1E
102
{ACAD_REACTORS
330
1A
102
}
330
1A
100
AcDbPlotSettings
  1

  2
none_device
  4

  6

 40
0.0
 41
0.0
 42
0.0
 43
0.0
 44
0.0
 45
0.0
 46
0.0
 47
0.0
 48
0.0
 49
0.0
140
0.0
141
0.0
142
1.0
143
1.0
 70
   688
 72
     0
 73
     0
 74
     5
  7

 75
    16
147
1.0
148
0.0
149
0.0
100
AcDbLayout
  1
Layout1
 70
     1
 71
     1
 10
0.0
 20
0.0
 11
12.0
 21
9.0
 12
0.0
 22
0.0
 32
0.0
 14
1.00000000000000E+20
 24
1.00000000000000E+20
 34
1.00000000000000E+20
 15
-1.00000000000000E+20
 25
-1.00000000000000E+20
 35
-1.00000000000000E+20
146
0.0
 13
0.0
 23
0.0
 33
0.0
 16
1.0
 26
0.0
 36
0.0
 17
0.0
 27
1.0
 37
0.0
 76
     0
330
1B
  0
LAYOUT
  5
26
102
{ACAD_REACTORS
330
1A
102
}
330
1A
100
AcDbPlotSettings
  1

  2
none_device
  4

  6

 40
0.0
 41
0.0
 42
0.0
 43
0.0
 44
0.0
 45
0.0
 46
0.0
 47
0.0
 48
0.0
 49
0.0
140
0.0
141
0.0
142
1.0
143
1.0
 70
   688
 72
     0
 73
     0
 74
     5
  7

 75
    16
147
1.0
148
0.0
149
0.0
100
AcDbLayout
  1
Layout2
 70
     1
 71
     2
 10
0.0
 20
0.0
 11
0.0
 21
0.0
 12
0.0
 22
0.0
 32
0.0
 14
0.0
 24
0.0
 34
0.0
 15
0.0
 25
0.0
 35
0.0
146
0.0
 13
0.0
 23
0.0
 33
0.0
 16
1.0
 26
0.0
 36
0.0
 17
0.0
 27
1.0
 37
0.0
 76
     0
330
23
  0
LAYOUT
  5
22
102
{ACAD_REACTORS
330
1A
102
}
330
1A
100
AcDbPlotSettings
  1

  2
none_device
  4

  6

 40
0.0
 41
0.0
 42
0.0
 43
0.0
 44
0.0
 45
0.0
 46
0.0
 47
0.0
 48
0.0
 49
0.0
140
0.0
141
0.0
142
1.0
143
1.0
 70
  1712
 72
     0
 73
     0
 74
     0
  7

 75
     0
147
1.0
148
0.0
149
0.0
100
AcDbLayout
  1
Model
 70
     1
 71
     0
 10
0.0
 20
0.0
 11
12.0
 21
9.0
 12
0.0
 22
0.0
 32
0.0
 14
0.0
 24
0.0
 34
0.0
 15
210.0
 25
297.0
 35
0.0
146
0.0
 13
0.0
 23
0.0
 33
0.0
 16
1.0
 26
0.0
 36
0.0
 17
0.0
 27
1.0
 37
0.0
 76
     0
330
1F
331
29
  0
MATERIAL
  5
3D
102
{ACAD_REACTORS
330
3B
102
}
102
{ACAD_XDICTIONARY
360
173
102
}
330
3B
100
AcDbMaterial
  1
ByBlock
  0
MATERIAL
  5
3C
102
{ACAD_REACTORS
330
3B
102
}
102
{ACAD_XDICTIONARY
360
171
102
}
330
3B
100
AcDbMaterial
  1
ByLayer
  0
MATERIAL
  5
3E
102
{ACAD_REACTORS
330
3B
102
}
102
{ACAD_XDICTIONARY
360
175
102
}
330
3B
100
AcDbMaterial
  1
Global
  0
MLINESTYLE
  5
18
102
{ACAD_REACTORS
330
17
102
}
330
17
100
AcDbMlineStyle
  2
Standard
 70
     0
  3

 62
   256
 51
90.0
 52
90.0
 71
     2
 49
0.5
 62
   256
  6
BYLAYER
 49
-0.5
 62
   256
  6
BYLAYER
  0
ACDBPLACEHOLDER
  5
F
102
{ACAD_REACTORS
330
E
102
}
330
E
  0
VISUALSTYLE
  5
2F
102
{ACAD_REACTORS
330
2A
102
}
102
{ACAD_XDICTIONARY
360
159
102
}
330
2A
100
AcDbVisualStyle
  2
2dWireframe
 70
     4
 71
     0
 72
     2
 73
     0
 90
        0
 40
-0.6
 41
-30.0
 62
     5
 63
     7
 74
     1
 91
        4
 64
     7
 65
   257
 75
     1
175
     1
 42
1.0
 92
        0
 66
   257
 43
1.0
 76
     1
 77
     6
 78
     2
 67
     7
 79
     5
170
     0
171
     0
290
     0
174
     0
 93
        1
 44
0.0
173
     0
291
     0
 45
0.0
1001
ACAD
1000
AcDbSavedByObjectVersion
1070
     0
  0
VISUALSTYLE
  5
31
102
{ACAD_REACTORS
330
2A
102
}
102
{ACAD_XDICTIONARY
360
15D
102
}
330
2A
100
AcDbVisualStyle
  2
3D Hidden
 70
     6
 71
     1
 72
     2
 73
     2
 90
        0
 40
-0.6
 41
-30.0
 62
     5
 63
     7
 74
     2
 91
        2
 64
     7
 65
   257
 75
     2
175
     1
 42
40.0
 92
        0
 66
   257
 43
1.0
 76
     1
 77
     6
 78
     2
 67
     7
 79
     3
170
     0
171
     0
290
     0
174
     0
 93
        1
 44
0.0
173
     0
291
     0
 45
0.0
1001
ACAD
1000
AcDbSavedByObjectVersion
1070
     0
  0
VISUALSTYLE
  5
30
102
{ACAD_REACTORS
330
2A
102
}
102
{ACAD_XDICTIONARY
360
15B
102
}
330
2A
100
AcDbVisualStyle
  2
3dWireframe
 70
     5
 71
     0
 72
     2
 73
     0
 90
        0
 40
-0.6
 41
-30.0
 62
     5
 63
     7
 74
     1
 91
        4
 64
     7
 65
   257
 75
     1
175
     1
 42
1.0
 92
        0
 66
   257
 43
1.0
 76
     1
 77
     6
 78
     2
 67
     7
 79
     5
170
     0
171
     0
290
     0
174
     0
 93
        1
 44
0.0
173
     0
291
     0
 45
0.0
1001
ACAD
1000
AcDbSavedByObjectVersion
1070
     0
  0
VISUALSTYLE
  5
32
102
{ACAD_REACTORS
330
2A
102
}
102
{ACAD_XDICTIONARY
360
15F
102
}
330
2A
100
AcDbVisualStyle
  2
Basic
 70
     7
 71
     1
 72
     0
 73
     1
 90
        0
 40
-0.6
 41
-30.0
 62
     5
 63
     7
 74
     0
 91
        4
 64
     7
 65
   257
 75
     1
175
     1
 42
1.0
 92
        8
 66
     7
 43
1.0
 76
     1
 77
     6
 78
     2
 67
     7
 79
     5
170
     0
171
     0
290
     0
174
     0
 93
        1
 44
0.0
173
     0
291
     1
 45
0.0
1001
ACAD
1000
AcDbSavedByObjectVersion
1070
     0
  0
VISUALSTYLE
  5
36
102
{ACAD_REACTORS
330
2A
102
}
102
{ACAD_XDICTIONARY
360
167
102
}
330
2A
100
AcDbVisualStyle
  2
Brighten
 70
    12
 71
     2
 72
     2
 73
     0
 90
        0
 40
-0.6
 41
-30.0
 62
     5
 63
     7
 74
     1
 91
        4
 64
     7
 65
   257
 75
     1
175
     1
 42
1.0
 92
        8
 66
     7
 43
1.0
 76
     1
 77
     6
 78
     2
 67
     7
 79
     5
170
     0
171
     0
290
     0
174
     0
 93
        1
 44
50.0
173
     0
291
     1
 45
0.0
1001
ACAD
1000
AcDbSavedByObjectVersion
1070
     0
  0
VISUALSTYLE
  5
3A
102
{ACAD_REACTORS
330
2A
102
}
102
{ACAD_XDICTIONARY
360
16F
102
}
330
2A
100
AcDbVisualStyle
  2
ColorChange
 70
    16
 71
     2
 72
     2
 73
     3
 90
        0
 40
-0.6
 41
-30.0
 62
     5
 63
     8
 74
     1
 91
        4
 64
     7
 65
   257
 75
     1
175
     1
 42
1.0
 92
        8
 66
     8
 43
1.0
 76
     1
 77
     6
 78
     2
 67
     7
 79
     5
170
     0
171
     0
290
     0
174
     0
 93
        1
 44
0.0
173
     0
291
     1
 45
0.0
1001
ACAD
1000
AcDbSavedByObjectVersion
1070
     0
  0
VISUALSTYLE
  5
34
102
{ACAD_REACTORS
330
2A
102
}
102
{ACAD_XDICTIONARY
360
163
102
}
330
2A
100
AcDbVisualStyle
  2
Conceptual
 70
     9
 71
     3
 72
     2
 73
     0
 90
        0
 40
-0.6
 41
-30.0
 62
     5
 63
     7
 74
     2
 91
        2
 64
     7
 65
   257
 75
     1
175
     1
 42
40.0
 92
        8
 66
     7
 43
1.0
 76
     1
 77
     6
 78
     2
 67
     7
 79
     3
170
     0
171
     0
290
     0
174
     0
 93
        1
 44
0.0
173
     0
291
     0
 45
0.0
1001
ACAD
1000
AcDbSavedByObjectVersion
1070
     0
  0
VISUALSTYLE
  5
35
102
{ACAD_REACTORS
330
2A
102
}
102
{ACAD_XDICTIONARY
360
165
102
}
330
2A
100
AcDbVisualStyle
  2
Dim
 70
    11
 71
     2
 72
     2
 73
     0
 90
        0
 40
-0.6
 41
-30.0
 62
     5
 63
     7
 74
     1
 91
        4
 64
     7
 65
   257
 75
     1
175
     1
 42
1.0
 92
        8
 66
     7
 43
1.0
 76
     1
 77
     6
 78
     2
 67
     7
 79
     5
170
     0
171
     0
290
     0
174
     0
 93
        1
 44
-50.0
173
     0
291
     1
 45
0.0
1001
ACAD
1000
AcDbSavedByObjectVersion
1070
     0
  0
VISUALSTYLE
  5
39
102
{ACAD_REACTORS
330
2A
102
}
102
{ACAD_XDICTIONARY
360
16D
102
}
330
2A
100
AcDbVisualStyle
  2
Facepattern
 70
    15
 71
     2
 72
     2
 73
     0
 90
        0
 40
-0.6
 41
-30.0
 62
     5
 63
     7
 74
     1
 91
        4
 64
     7
 65
   257
 75
     1
175
     1
 42
1.0
 92
        8
 66
     7
 43
1.0
 76
     1
 77
     6
 78
     2
 67
     7
 79
     5
170
     0
171
     0
290
     0
174
     0
 93
        1
 44
0.0
173
     0
291
     1
 45
0.0
1001
ACAD
1000
AcDbSavedByObjectVersion
1070
     0
  0
VISUALSTYLE
  5
2B
102
{ACAD_REACTORS
330
2A
102
}
102
{ACAD_XDICTIONARY
360
151
102
}
330
2A
100
AcDbVisualStyle
  2
Flat
 70
     0
 71
     2
 72
     1
 73
     1
 90
        2
 40
-0.6
 41
30.0
 62
     5
 63
     7
 74
     0
 91
        4
 64
     7
 65
   257
 75
     1
175
     1
 42
1.0
 92
        8
 66
     7
 43
1.0
 76
     1
 77
     6
 78
     2
 67
     7
 79
     5
170
     0
171
     0
290
     0
174
     0
 93
       13
 44
0.0
173
     0
291
     1
 45
0.0
1001
ACAD
1000
AcDbSavedByObjectVersion
1070
     0
  0
VISUALSTYLE
  5
2C
102
{ACAD_REACTORS
330
2A
102
}
102
{ACAD_XDICTIONARY
360
153
102
}
330
2A
100
AcDbVisualStyle
  2
FlatWithEdges
 70
     1
 71
     2
 72
     1
 73
     1
 90
        2
 40
-0.6
 41
30.0
 62
     5
 63
     7
 74
     1
 91
        4
 64
     7
 65
   257
 75
     1
175
     1
 42
1.0
 92
        0
 66
   257
 43
1.0
 76
     1
 77
     6
 78
     2
 67
     7
 79
     5
170
     0
171
     0
290
     0
174
     0
 93
       13
 44
0.0
173
     0
291
     1
 45
0.0
1001
ACAD
1000
AcDbSavedByObjectVersion
1070
     0
  0
VISUALSTYLE
  5
2D
102
{ACAD_REACTORS
330
2A
102
}
102
{ACAD_XDICTIONARY
360
155
102
}
330
2A
100
AcDbVisualStyle
  2
Gouraud
 70
     2
 71
     2
 72
     2
 73
     1
 90
        2
 40
-0.6
 41
30.0
 62
     5
 63
     7
 74
     0
 91
        4
 64
     7
 65
   257
 75
     1
175
     1
 42
1.0
 92
        0
 66
     7
 43
1.0
 76
     1
 77
     6
 78
     2
 67
     7
 79
     5
170
     0
171
     0
290
     0
174
     0
 93
       13
 44
0.0
173
     0
291
     1
 45
0.0
1001
ACAD
1000
AcDbSavedByObjectVersion
1070
     0
  0
VISUALSTYLE
  5
2E
102
{ACAD_REACTORS
330
2A
102
}
102
{ACAD_XDICTIONARY
360
157
102
}
330
2A
100
AcDbVisualStyle
  2
GouraudWithEdges
 70
     3
 71
     2
 72
     2
 73
     1
 90
        2
 40
-0.6
 41
30.0
 62
     5
 63
     7
 74
     1
 91
        4
 64
     7
 65
   257
 75
     1
175
     1
 42
1.0
 92
        0
 66
   257
 43
1.0
 76
     1
 77
     6
 78
     2
 67
     7
 79
     5
170
     0
171
     0
290
     0
174
     0
 93
       13
 44
0.0
173
     0
291
     1
 45
0.0
1001
ACAD
1000
AcDbSavedByObjectVersion
1070
     0
  0
VISUALSTYLE
  5
38
102
{ACAD_REACTORS
330
2A
102
}
102
{ACAD_XDICTIONARY
360
16B
102
}
330
2A
100
AcDbVisualStyle
  2
Linepattern
 70
    14
 71
     2
 72
     2
 73
     0
 90
        0
 40
-0.6
 41
-30.0
 62
     5
 63
     7
 74
     1
 91
        4
 64
     7
 65
   257
 75
     7
175
     7
 42
1.0
 92
        8
 66
     7
 43
1.0
 76
     1
 77
     6
 78
     2
 67
     7
 79
     5
170
     0
171
     0
290
     0
174
     0
 93
        1
 44
0.0
173
     0
291
     1
 45
0.0
1001
ACAD
1000
AcDbSavedByObjectVersion
1070
     0
  0
VISUALSTYLE
  5
33
102
{ACAD_REACTORS
330
2A
102
}
102
{ACAD_XDICTIONARY
360
161
102
}
330
2A
100
AcDbVisualStyle
  2
Realistic
 70
     8
 71
     2
 72
     2
 73
     0
 90
        0
 40
-0.6
 41
-30.0
 62
     5
 63
     7
 74
     1
 91
        0
 64
     7
 65
   257
 75
     1
175
     1
 42
1.0
 92
        8
 66
     8
 43
1.0
 76
     1
 77
     6
 78
     2
 67
     7
 79
     5
170
     0
171
     0
290
     0
174
     0
 93
       13
 44
0.0
173
     0
291
     0
 45
0.0
1001
ACAD
1000
AcDbSavedByObjectVersion
1070
     0
  0
VISUALSTYLE
  5
37
102
{ACAD_REACTORS
330
2A
102
}
102
{ACAD_XDICTIONARY
360
169
102
}
330
2A
100
AcDbVisualStyle
  2
Thicken
 70
    13
 71
     2
 72
     2
 73
     0
 90
        0
 40
-0.6
 41
-30.0
 62
     5
 63
     7
 74
     1
 91
        4
 64
     7
 65
   257
 75
     1
175
     1
 42
1.0
 92
       12
 66
     7
 43
1.0
 76
     1
 77
     6
 78
     2
 67
     7
 79
     5
170
     0
171
     0
290
     0
174
     0
 93
        1
 44
0.0
173
     0
291
     1
 45
0.0
1001
ACAD
1000
AcDbSavedByObjectVersion
1070
     0
  0
DICTIONARYVAR
  5
14F
102
{ACAD_REACTORS
330
14C
102
}
330
14C
100
DictionaryVariables
280
     0
  1
2
  0
DICTIONARYVAR
  5
150
102
{ACAD_REACTORS
330
14C
102
}
330
14C
100
DictionaryVariables
280
     0
  1
1
  0
DICTIONARY
  5
173
330
3D
100
AcDbDictionary
280
     1
281
     1
  3
ACAD_XREC_ROUNDTRIP
360
174
  0
DICTIONARY
  5
171
330
3C
100
AcDbDictionary
280
     1
281
     1
  3
ACAD_XREC_ROUNDTRIP
360
172
  0
DICTIONARY
  5
175
330
3E
100
AcDbDictionary
280
     1
281
     1
  3
ACAD_XREC_ROUNDTRIP
360
176
  0
DICTIONARY
  5
159
330
2F
100
AcDbDictionary
280
     1
281
     1
  3
ACAD_XREC_ROUNDTRIP
360
15A
  0
DICTIONARY
  5
15D
330
31
100
AcDbDictionary
280
     1
281
     1
  3
ACAD_XREC_ROUNDTRIP
360
15E
  0
DICTIONARY
  5
15B
330
30
100
AcDbDictionary
280
     1
281
     1
  3
ACAD_XREC_ROUNDTRIP
360
15C
  0
DICTIONARY
  5
15F
330
32
100
AcDbDictionary
280
     1
281
     1
  3
ACAD_XREC_ROUNDTRIP
360
160
  0
DICTIONARY
  5
167
330
36
100
AcDbDictionary
280
     1
281
     1
  3
ACAD_XREC_ROUNDTRIP
360
168
  0
DICTIONARY
  5
16F
330
3A
100
AcDbDictionary
280
     1
281
     1
  3
ACAD_XREC_ROUNDTRIP
360
170
  0
DICTIONARY
  5
163
330
34
100
AcDbDictionary
280
     1
281
     1
  3
ACAD_XREC_ROUNDTRIP
360
164
  0
DICTIONARY
  5
165
330
35
100
AcDbDictionary
280
     1
281
     1
  3
ACAD_XREC_ROUNDTRIP
360
166
  0
DICTIONARY
  5
16D
330
39
100
AcDbDictionary
280
     1
281
     1
  3
ACAD_XREC_ROUNDTRIP
360
16E
  0
DICTIONARY
  5
151
330
2B
100
AcDbDictionary
280
     1
281
     1
  3
ACAD_XREC_ROUNDTRIP
360
152
  0
DICTIONARY
  5
153
330
2C
100
AcDbDictionary
280
     1
281
     1
  3
ACAD_XREC_ROUNDTRIP
360
154
  0
DICTIONARY
  5
155
330
2D
100
AcDbDictionary
280
     1
281
     1
  3
ACAD_XREC_ROUNDTRIP
360
156
  0
DICTIONARY
  5
157
330
2E
100
AcDbDictionary
280
     1
281
     1
  3
ACAD_XREC_ROUNDTRIP
360
158
  0
DICTIONARY
  5
16B
330
38
100
AcDbDictionary
280
     1
281
     1
  3
ACAD_XREC_ROUNDTRIP
360
16C
  0
DICTIONARY
  5
161
330
33
100
AcDbDictionary
280
     1
281
     1
  3
ACAD_XREC_ROUNDTRIP
360
162
  0
DICTIONARY
  5
169
330
37
100
AcDbDictionary
280
     1
281
     1
  3
ACAD_XREC_ROUNDTRIP
360
16A
  0
XRECORD
  5
174
102
{ACAD_REACTORS
330
173
102
}
330
173
100
AcDbXrecord
280
     1
102
MATERIAL
148
0.0
149
0.0
149
0.0
 93
        0
 94
      127
282
     0
 72
     1
 77
     1
171
     1
175
     1
179
     1
273
     0
  0
XRECORD
  5
172
102
{ACAD_REACTORS
330
171
102
}
330
171
100
AcDbXrecord
280
     1
102
MATERIAL
148
0.0
149
0.0
149
0.0
 93
        0
 94
      127
282
     0
 72
     1
 77
     1
171
     1
175
     1
179
     1
273
     0
  0
XRECORD
  5
176
102
{ACAD_REACTORS
330
175
102
}
330
175
100
AcDbXrecord
280
     1
102
MATERIAL
148
0.0
149
0.0
149
0.0
 93
        0
 94
      127
282
     0
 72
     1
 77
     1
171
     1
175
     1
179
     1
273
     0
  0
XRECORD
  5
15A
102
{ACAD_REACTORS
330
159
102
}
330
159
100
AcDbXrecord
280
     1
102
RTVSPropertyOp0
 70
     1
102
RTVSPropertyOp1
 70
     1
102
RTVSPropertyOp2
 70
     1
102
RTVSPropertyOp3
 70
     1
102
RTVSPropertyOp4
 70
     1
102
RTVSPropertyOp5
 70
     1
102
RTVSPropertyOp6
 70
     1
102
RTVSPropertyOp7
 70
     1
102
RTVSPropertyOp8
 70
     1
102
RTVSPropertyOp9
 70
     1
102
RTVSPropertyOp10
 70
     1
102
RTVSPropertyOp11
 70
     1
102
RTVSPropertyOp12
 70
     1
102
RTVSPropertyOp13
 70
     1
102
RTVSPropertyOp14
 70
     1
102
RTVSPropertyOp15
 70
     1
102
RTVSPropertyOp16
 70
     1
102
RTVSPropertyOp17
 70
     1
102
RTVSPropertyOp18
 70
     1
102
RTVSPropertyOp19
 70
     1
102
RTVSPropertyOp20
 70
     1
102
RTVSPropertyOp21
 70
     1
102
RTVSPropertyOp22
 70
     1
102
RTVSPropertyOp23
 70
     1
102
RTVSPropertyOp24
 70
     1
102
RTVSPropertyOp25
 70
     1
102
RTVSPropertyOp26
 70
     1
102
RTVSPropertyOp27
 70
     1
102
RTVSPropertyOp28
 70
     1
102
RTVSPropertyOp29
 70
     1
102
RTVSPropertyOp30
 70
     1
102
RTVSPropertyOp31
 70
     1
102
RTVSPropertyOp32
 70
     1
  0
XRECORD
  5
15E
102
{ACAD_REACTORS
330
15D
102
}
330
15D
100
AcDbXrecord
280
     1
102
RTVSPropertyOp0
 70
     1
102
RTVSPropertyOp1
 70
     1
102
RTVSPropertyOp2
 70
     1
102
RTVSPropertyOp3
 70
     1
102
RTVSPropertyOp4
 70
     1
102
RTVSPropertyOp5
 70
     1
102
RTVSPropertyOp6
 70
     1
102
RTVSPropertyOp7
 70
     1
102
RTVSPropertyOp8
 70
     1
102
RTVSPropertyOp9
 70
     1
102
RTVSPropertyOp10
 70
     1
102
RTVSPropertyOp11
 70
     1
102
RTVSPropertyOp12
 70
     1
102
RTVSPropertyOp13
 70
     1
102
RTVSPropertyOp14
 70
     1
102
RTVSPropertyOp15
 70
     1
102
RTVSPropertyOp16
 70
     1
102
RTVSPropertyOp17
 70
     1
102
RTVSPropertyOp18
 70
     1
102
RTVSPropertyOp19
 70
     1
102
RTVSPropertyOp20
 70
     1
102
RTVSPropertyOp21
 70
     1
102
RTVSPropertyOp22
 70
     1
102
RTVSPropertyOp23
 70
     1
102
RTVSPropertyOp24
 70
     1
102
RTVSPropertyOp25
 70
     1
102
RTVSPropertyOp26
 70
     1
102
RTVSPropertyOp27
 70
     1
102
RTVSPropertyOp28
 70
     1
102
RTVSPropertyOp29
 70
     1
102
RTVSPropertyOp30
 70
     1
102
RTVSPropertyOp31
 70
     1
102
RTVSPropertyOp32
 70
     1
  0
XRECORD
  5
15C
102
{ACAD_REACTORS
330
15B
102
}
330
15B
100
AcDbXrecord
280
     1
102
RTVSPropertyOp0
 70
     1
102
RTVSPropertyOp1
 70
     1
102
RTVSPropertyOp2
 70
     1
102
RTVSPropertyOp3
 70
     1
102
RTVSPropertyOp4
 70
     1
102
RTVSPropertyOp5
 70
     1
102
RTVSPropertyOp6
 70
     1
102
RTVSPropertyOp7
 70
     1
102
RTVSPropertyOp8
 70
     1
102
RTVSPropertyOp9
 70
     1
102
RTVSPropertyOp10
 70
     1
102
RTVSPropertyOp11
 70
     1
102
RTVSPropertyOp12
 70
     1
102
RTVSPropertyOp13
 70
     1
102
RTVSPropertyOp14
 70
     1
102
RTVSPropertyOp15
 70
     1
102
RTVSPropertyOp16
 70
     1
102
RTVSPropertyOp17
 70
     1
102
RTVSPropertyOp18
 70
     1
102
RTVSPropertyOp19
 70
     1
102
RTVSPropertyOp20
 70
     1
102
RTVSPropertyOp21
 70
     1
102
RTVSPropertyOp22
 70
     1
102
RTVSPropertyOp23
 70
     1
102
RTVSPropertyOp24
 70
     1
102
RTVSPropertyOp25
 70
     1
102
RTVSPropertyOp26
 70
     1
102
RTVSPropertyOp27
 70
     1
102
RTVSPropertyOp28
 70
     1
102
RTVSPropertyOp29
 70
     1
102
RTVSPropertyOp30
 70
     1
102
RTVSPropertyOp31
 70
     1
102
RTVSPropertyOp32
 70
     1
  0
XRECORD
  5
160
102
{ACAD_REACTORS
330
15F
102
}
330
15F
100
AcDbXrecord
280
     1
102
RTVSPropertyOp0
 70
     1
102
RTVSPropertyOp1
 70
     1
102
RTVSPropertyOp2
 70
     1
102
RTVSPropertyOp3
 70
     1
102
RTVSPropertyOp4
 70
     1
102
RTVSPropertyOp5
 70
     1
102
RTVSPropertyOp6
 70
     1
102
RTVSPropertyOp7
 70
     1
102
RTVSPropertyOp8
 70
     1
102
RTVSPropertyOp9
 70
     1
102
RTVSPropertyOp10
 70
     1
102
RTVSPropertyOp11
 70
     1
102
RTVSPropertyOp12
 70
     1
102
RTVSPropertyOp13
 70
     1
102
RTVSPropertyOp14
 70
     1
102
RTVSPropertyOp15
 70
     1
102
RTVSPropertyOp16
 70
     1
102
RTVSPropertyOp17
 70
     1
102
RTVSPropertyOp18
 70
     1
102
RTVSPropertyOp19
 70
     1
102
RTVSPropertyOp20
 70
     1
102
RTVSPropertyOp21
 70
     1
102
RTVSPropertyOp22
 70
     1
102
RTVSPropertyOp23
 70
     1
102
RTVSPropertyOp24
 70
     1
102
RTVSPropertyOp25
 70
     1
102
RTVSPropertyOp26
 70
     1
102
RTVSPropertyOp27
 70
     1
102
RTVSPropertyOp28
 70
     1
102
RTVSPropertyOp29
 70
     1
102
RTVSPropertyOp30
 70
     1
102
RTVSPropertyOp31
 70
     1
102
RTVSPropertyOp32
 70
     1
  0
XRECORD
  5
168
102
{ACAD_REACTORS
330
167
102
}
330
167
100
AcDbXrecord
280
     1
102
RTVSPropertyOp0
 70
     1
102
RTVSPropertyOp1
 70
     1
102
RTVSPropertyOp2
 70
     1
102
RTVSPropertyOp3
 70
     1
102
RTVSPropertyOp4
 70
     1
102
RTVSPropertyOp5
 70
     1
102
RTVSPropertyOp6
 70
     1
102
RTVSPropertyOp7
 70
     1
102
RTVSPropertyOp8
 70
     1
102
RTVSPropertyOp9
 70
     1
102
RTVSPropertyOp10
 70
     1
102
RTVSPropertyOp11
 70
     1
102
RTVSPropertyOp12
 70
     1
102
RTVSPropertyOp13
 70
     1
102
RTVSPropertyOp14
 70
     1
102
RTVSPropertyOp15
 70
     1
102
RTVSPropertyOp16
 70
     1
102
RTVSPropertyOp17
 70
     1
102
RTVSPropertyOp18
 70
     1
102
RTVSPropertyOp19
 70
     1
102
RTVSPropertyOp20
 70
     1
102
RTVSPropertyOp21
 70
     1
102
RTVSPropertyOp22
 70
     1
102
RTVSPropertyOp23
 70
     1
102
RTVSPropertyOp24
 70
     1
102
RTVSPropertyOp25
 70
     1
102
RTVSPropertyOp26
 70
     1
102
RTVSPropertyOp27
 70
     1
102
RTVSPropertyOp28
 70
     1
102
RTVSPropertyOp29
 70
     1
102
RTVSPropertyOp30
 70
     1
102
RTVSPropertyOp31
 70
     1
102
RTVSPropertyOp32
 70
     1
  0
XRECORD
  5
170
102
{ACAD_REACTORS
330
16F
102
}
330
16F
100
AcDbXrecord
280
     1
102
RTVSPropertyOp0
 70
     1
102
RTVSPropertyOp1
 70
     1
102
RTVSPropertyOp2
 70
     1
102
RTVSPropertyOp3
 70
     1
102
RTVSPropertyOp4
 70
     1
102
RTVSPropertyOp5
 70
     1
102
RTVSPropertyOp6
 70
     1
102
RTVSPropertyOp7
 70
     1
102
RTVSPropertyOp8
 70
     1
102
RTVSPropertyOp9
 70
     1
102
RTVSPropertyOp10
 70
     1
102
RTVSPropertyOp11
 70
     1
102
RTVSPropertyOp12
 70
     1
102
RTVSPropertyOp13
 70
     1
102
RTVSPropertyOp14
 70
     1
102
RTVSPropertyOp15
 70
     1
102
RTVSPropertyOp16
 70
     1
102
RTVSPropertyOp17
 70
     1
102
RTVSPropertyOp18
 70
     1
102
RTVSPropertyOp19
 70
     1
102
RTVSPropertyOp20
 70
     1
102
RTVSPropertyOp21
 70
     1
102
RTVSPropertyOp22
 70
     1
102
RTVSPropertyOp23
 70
     1
102
RTVSPropertyOp24
 70
     1
102
RTVSPropertyOp25
 70
     1
102
RTVSPropertyOp26
 70
     1
102
RTVSPropertyOp27
 70
     1
102
RTVSPropertyOp28
 70
     1
102
RTVSPropertyOp29
 70
     1
102
RTVSPropertyOp30
 70
     1
102
RTVSPropertyOp31
 70
     1
102
RTVSPropertyOp32
 70
     1
  0
XRECORD
  5
164
102
{ACAD_REACTORS
330
163
102
}
330
163
100
AcDbXrecord
280
     1
102
RTVSPropertyOp0
 70
     1
102
RTVSPropertyOp1
 70
     1
102
RTVSPropertyOp2
 70
     1
102
RTVSPropertyOp3
 70
     1
102
RTVSPropertyOp4
 70
     1
102
RTVSPropertyOp5
 70
     1
102
RTVSPropertyOp6
 70
     1
102
RTVSPropertyOp7
 70
     1
102
RTVSPropertyOp8
 70
     1
102
RTVSPropertyOp9
 70
     1
102
RTVSPropertyOp10
 70
     1
102
RTVSPropertyOp11
 70
     1
102
RTVSPropertyOp12
 70
     1
102
RTVSPropertyOp13
 70
     1
102
RTVSPropertyOp14
 70
     1
102
RTVSPropertyOp15
 70
     1
102
RTVSPropertyOp16
 70
     1
102
RTVSPropertyOp17
 70
     1
102
RTVSPropertyOp18
 70
     1
102
RTVSPropertyOp19
 70
     1
102
RTVSPropertyOp20
 70
     1
102
RTVSPropertyOp21
 70
     1
102
RTVSPropertyOp22
 70
     1
102
RTVSPropertyOp23
 70
     1
102
RTVSPropertyOp24
 70
     1
102
RTVSPropertyOp25
 70
     1
102
RTVSPropertyOp26
 70
     1
102
RTVSPropertyOp27
 70
     1
102
RTVSPropertyOp28
 70
     1
102
RTVSPropertyOp29
 70
     1
102
RTVSPropertyOp30
 70
     1
102
RTVSPropertyOp31
 70
     1
102
RTVSPropertyOp32
 70
     1
  0
XRECORD
  5
166
102
{ACAD_REACTORS
330
165
102
}
330
165
100
AcDbXrecord
280
     1
102
RTVSPropertyOp0
 70
     1
102
RTVSPropertyOp1
 70
     1
102
RTVSPropertyOp2
 70
     1
102
RTVSPropertyOp3
 70
     1
102
RTVSPropertyOp4
 70
     1
102
RTVSPropertyOp5
 70
     1
102
RTVSPropertyOp6
 70
     1
102
RTVSPropertyOp7
 70
     1
102
RTVSPropertyOp8
 70
     1
102
RTVSPropertyOp9
 70
     1
102
RTVSPropertyOp10
 70
     1
102
RTVSPropertyOp11
 70
     1
102
RTVSPropertyOp12
 70
     1
102
RTVSPropertyOp13
 70
     1
102
RTVSPropertyOp14
 70
     1
102
RTVSPropertyOp15
 70
     1
102
RTVSPropertyOp16
 70
     1
102
RTVSPropertyOp17
 70
     1
102
RTVSPropertyOp18
 70
     1
102
RTVSPropertyOp19
 70
     1
102
RTVSPropertyOp20
 70
     1
102
RTVSPropertyOp21
 70
     1
102
RTVSPropertyOp22
 70
     1
102
RTVSPropertyOp23
 70
     1
102
RTVSPropertyOp24
 70
     1
102
RTVSPropertyOp25
 70
     1
102
RTVSPropertyOp26
 70
     1
102
RTVSPropertyOp27
 70
     1
102
RTVSPropertyOp28
 70
     1
102
RTVSPropertyOp29
 70
     1
102
RTVSPropertyOp30
 70
     1
102
RTVSPropertyOp31
 70
     1
102
RTVSPropertyOp32
 70
     1
  0
XRECORD
  5
16E
102
{ACAD_REACTORS
330
16D
102
}
330
16D
100
AcDbXrecord
280
     1
102
RTVSPropertyOp0
 70
     1
102
RTVSPropertyOp1
 70
     1
102
RTVSPropertyOp2
 70
     1
102
RTVSPropertyOp3
 70
     1
102
RTVSPropertyOp4
 70
     1
102
RTVSPropertyOp5
 70
     1
102
RTVSPropertyOp6
 70
     1
102
RTVSPropertyOp7
 70
     1
102
RTVSPropertyOp8
 70
     1
102
RTVSPropertyOp9
 70
     1
102
RTVSPropertyOp10
 70
     1
102
RTVSPropertyOp11
 70
     1
102
RTVSPropertyOp12
 70
     1
102
RTVSPropertyOp13
 70
     1
102
RTVSPropertyOp14
 70
     1
102
RTVSPropertyOp15
 70
     1
102
RTVSPropertyOp16
 70
     1
102
RTVSPropertyOp17
 70
     1
102
RTVSPropertyOp18
 70
     1
102
RTVSPropertyOp19
 70
     1
102
RTVSPropertyOp20
 70
     1
102
RTVSPropertyOp21
 70
     1
102
RTVSPropertyOp22
 70
     1
102
RTVSPropertyOp23
 70
     1
102
RTVSPropertyOp24
 70
     1
102
RTVSPropertyOp25
 70
     1
102
RTVSPropertyOp26
 70
     1
102
RTVSPropertyOp27
 70
     1
102
RTVSPropertyOp28
 70
     1
102
RTVSPropertyOp29
 70
     1
102
RTVSPropertyOp30
 70
     1
102
RTVSPropertyOp31
 70
     1
102
RTVSPropertyOp32
 70
     1
  0
XRECORD
  5
152
102
{ACAD_REACTORS
330
151
102
}
330
151
100
AcDbXrecord
280
     1
102
RTVSPropertyOp0
 70
     1
102
RTVSPropertyOp1
 70
     1
102
RTVSPropertyOp2
 70
     1
102
RTVSPropertyOp3
 70
     1
102
RTVSPropertyOp4
 70
     1
102
RTVSPropertyOp5
 70
     1
102
RTVSPropertyOp6
 70
     1
102
RTVSPropertyOp7
 70
     1
102
RTVSPropertyOp8
 70
     1
102
RTVSPropertyOp9
 70
     1
102
RTVSPropertyOp10
 70
     1
102
RTVSPropertyOp11
 70
     1
102
RTVSPropertyOp12
 70
     1
102
RTVSPropertyOp13
 70
     1
102
RTVSPropertyOp14
 70
     1
102
RTVSPropertyOp15
 70
     1
102
RTVSPropertyOp16
 70
     1
102
RTVSPropertyOp17
 70
     1
102
RTVSPropertyOp18
 70
     1
102
RTVSPropertyOp19
 70
     1
102
RTVSPropertyOp20
 70
     1
102
RTVSPropertyOp21
 70
     1
102
RTVSPropertyOp22
 70
     1
102
RTVSPropertyOp23
 70
     1
102
RTVSPropertyOp24
 70
     1
102
RTVSPropertyOp25
 70
     1
102
RTVSPropertyOp26
 70
     1
102
RTVSPropertyOp27
 70
     1
102
RTVSPropertyOp28
 70
     1
102
RTVSPropertyOp29
 70
     1
102
RTVSPropertyOp30
 70
     1
102
RTVSPropertyOp31
 70
     1
102
RTVSPropertyOp32
 70
     1
  0
XRECORD
  5
154
102
{ACAD_REACTORS
330
153
102
}
330
153
100
AcDbXrecord
280
     1
102
RTVSPropertyOp0
 70
     1
102
RTVSPropertyOp1
 70
     1
102
RTVSPropertyOp2
 70
     1
102
RTVSPropertyOp3
 70
     1
102
RTVSPropertyOp4
 70
     1
102
RTVSPropertyOp5
 70
     1
102
RTVSPropertyOp6
 70
     1
102
RTVSPropertyOp7
 70
     1
102
RTVSPropertyOp8
 70
     1
102
RTVSPropertyOp9
 70
     1
102
RTVSPropertyOp10
 70
     1
102
RTVSPropertyOp11
 70
     1
102
RTVSPropertyOp12
 70
     1
102
RTVSPropertyOp13
 70
     1
102
RTVSPropertyOp14
 70
     1
102
RTVSPropertyOp15
 70
     1
102
RTVSPropertyOp16
 70
     1
102
RTVSPropertyOp17
 70
     1
102
RTVSPropertyOp18
 70
     1
102
RTVSPropertyOp19
 70
     1
102
RTVSPropertyOp20
 70
     1
102
RTVSPropertyOp21
 70
     1
102
RTVSPropertyOp22
 70
     1
102
RTVSPropertyOp23
 70
     1
102
RTVSPropertyOp24
 70
     1
102
RTVSPropertyOp25
 70
     1
102
RTVSPropertyOp26
 70
     1
102
RTVSPropertyOp27
 70
     1
102
RTVSPropertyOp28
 70
     1
102
RTVSPropertyOp29
 70
     1
102
RTVSPropertyOp30
 70
     1
102
RTVSPropertyOp31
 70
     1
102
RTVSPropertyOp32
 70
     1
  0
XRECORD
  5
156
102
{ACAD_REACTORS
330
155
102
}
330
155
100
AcDbXrecord
280
     1
102
RTVSPropertyOp0
 70
     1
102
RTVSPropertyOp1
 70
     1
102
RTVSPropertyOp2
 70
     1
102
RTVSPropertyOp3
 70
     1
102
RTVSPropertyOp4
 70
     1
102
RTVSPropertyOp5
 70
     1
102
RTVSPropertyOp6
 70
     1
102
RTVSPropertyOp7
 70
     1
102
RTVSPropertyOp8
 70
     1
102
RTVSPropertyOp9
 70
     1
102
RTVSPropertyOp10
 70
     1
102
RTVSPropertyOp11
 70
     1
102
RTVSPropertyOp12
 70
     1
102
RTVSPropertyOp13
 70
     1
102
RTVSPropertyOp14
 70
     1
102
RTVSPropertyOp15
 70
     1
102
RTVSPropertyOp16
 70
     1
102
RTVSPropertyOp17
 70
     1
102
RTVSPropertyOp18
 70
     1
102
RTVSPropertyOp19
 70
     1
102
RTVSPropertyOp20
 70
     1
102
RTVSPropertyOp21
 70
     1
102
RTVSPropertyOp22
 70
     1
102
RTVSPropertyOp23
 70
     1
102
RTVSPropertyOp24
 70
     1
102
RTVSPropertyOp25
 70
     1
102
RTVSPropertyOp26
 70
     1
102
RTVSPropertyOp27
 70
     1
102
RTVSPropertyOp28
 70
     1
102
RTVSPropertyOp29
 70
     1
102
RTVSPropertyOp30
 70
     1
102
RTVSPropertyOp31
 70
     1
102
RTVSPropertyOp32
 70
     1
  0
XRECORD
  5
158
102
{ACAD_REACTORS
330
157
102
}
330
157
100
AcDbXrecord
280
     1
102
RTVSPropertyOp0
 70
     1
102
RTVSPropertyOp1
 70
     1
102
RTVSPropertyOp2
 70
     1
102
RTVSPropertyOp3
 70
     1
102
RTVSPropertyOp4
 70
     1
102
RTVSPropertyOp5
 70
     1
102
RTVSPropertyOp6
 70
     1
102
RTVSPropertyOp7
 70
     1
102
RTVSPropertyOp8
 70
     1
102
RTVSPropertyOp9
 70
     1
102
RTVSPropertyOp10
 70
     1
102
RTVSPropertyOp11
 70
     1
102
RTVSPropertyOp12
 70
     1
102
RTVSPropertyOp13
 70
     1
102
RTVSPropertyOp14
 70
     1
102
RTVSPropertyOp15
 70
     1
102
RTVSPropertyOp16
 70
     1
102
RTVSPropertyOp17
 70
     1
102
RTVSPropertyOp18
 70
     1
102
RTVSPropertyOp19
 70
     1
102
RTVSPropertyOp20
 70
     1
102
RTVSPropertyOp21
 70
     1
102
RTVSPropertyOp22
 70
     1
102
RTVSPropertyOp23
 70
     1
102
RTVSPropertyOp24
 70
     1
102
RTVSPropertyOp25
 70
     1
102
RTVSPropertyOp26
 70
     1
102
RTVSPropertyOp27
 70
     1
102
RTVSPropertyOp28
 70
     1
102
RTVSPropertyOp29
 70
     1
102
RTVSPropertyOp30
 70
     1
102
RTVSPropertyOp31
 70
     1
102
RTVSPropertyOp32
 70
     1
  0
XRECORD
  5
16C
102
{ACAD_REACTORS
330
16B
102
}
330
16B
100
AcDbXrecord
280
     1
102
RTVSPropertyOp0
 70
     1
102
RTVSPropertyOp1
 70
     1
102
RTVSPropertyOp2
 70
     1
102
RTVSPropertyOp3
 70
     1
102
RTVSPropertyOp4
 70
     1
102
RTVSPropertyOp5
 70
     1
102
RTVSPropertyOp6
 70
     1
102
RTVSPropertyOp7
 70
     1
102
RTVSPropertyOp8
 70
     1
102
RTVSPropertyOp9
 70
     1
102
RTVSPropertyOp10
 70
     1
102
RTVSPropertyOp11
 70
     1
102
RTVSPropertyOp12
 70
     1
102
RTVSPropertyOp13
 70
     1
102
RTVSPropertyOp14
 70
     1
102
RTVSPropertyOp15
 70
     1
102
RTVSPropertyOp16
 70
     1
102
RTVSPropertyOp17
 70
     1
102
RTVSPropertyOp18
 70
     1
102
RTVSPropertyOp19
 70
     1
102
RTVSPropertyOp20
 70
     1
102
RTVSPropertyOp21
 70
     1
102
RTVSPropertyOp22
 70
     1
102
RTVSPropertyOp23
 70
     1
102
RTVSPropertyOp24
 70
     1
102
RTVSPropertyOp25
 70
     1
102
RTVSPropertyOp26
 70
     1
102
RTVSPropertyOp27
 70
     1
102
RTVSPropertyOp28
 70
     1
102
RTVSPropertyOp29
 70
     1
102
RTVSPropertyOp30
 70
     1
102
RTVSPropertyOp31
 70
     1
102
RTVSPropertyOp32
 70
     1
  0
XRECORD
  5
162
102
{ACAD_REACTORS
330
161
102
}
330
161
100
AcDbXrecord
280
     1
102
RTVSPropertyOp0
 70
     1
102
RTVSPropertyOp1
 70
     1
102
RTVSPropertyOp2
 70
     1
102
RTVSPropertyOp3
 70
     1
102
RTVSPropertyOp4
 70
     1
102
RTVSPropertyOp5
 70
     1
102
RTVSPropertyOp6
 70
     1
102
RTVSPropertyOp7
 70
     1
102
RTVSPropertyOp8
 70
     1
102
RTVSPropertyOp9
 70
     1
102
RTVSPropertyOp10
 70
     1
102
RTVSPropertyOp11
 70
     1
102
RTVSPropertyOp12
 70
     1
102
RTVSPropertyOp13
 70
     1
102
RTVSPropertyOp14
 70
     1
102
RTVSPropertyOp15
 70
     1
102
RTVSPropertyOp16
 70
     1
102
RTVSPropertyOp17
 70
     1
102
RTVSPropertyOp18
 70
     1
102
RTVSPropertyOp19
 70
     1
102
RTVSPropertyOp20
 70
     1
102
RTVSPropertyOp21
 70
     1
102
RTVSPropertyOp22
 70
     1
102
RTVSPropertyOp23
 70
     1
102
RTVSPropertyOp24
 70
     1
102
RTVSPropertyOp25
 70
     1
102
RTVSPropertyOp26
 70
     1
102
RTVSPropertyOp27
 70
     1
102
RTVSPropertyOp28
 70
     1
102
RTVSPropertyOp29
 70
     1
102
RTVSPropertyOp30
 70
     1
102
RTVSPropertyOp31
 70
     1
102
RTVSPropertyOp32
 70
     1
  0
XRECORD
  5
16A
102
{ACAD_REACTORS
330
169
102
}
330
169
100
AcDbXrecord
280
     1
102
RTVSPropertyOp0
 70
     1
102
RTVSPropertyOp1
 70
     1
102
RTVSPropertyOp2
 70
     1
102
RTVSPropertyOp3
 70
     1
102
RTVSPropertyOp4
 70
     1
102
RTVSPropertyOp5
 70
     1
102
RTVSPropertyOp6
 70
     1
102
RTVSPropertyOp7
 70
     1
102
RTVSPropertyOp8
 70
     1
102
RTVSPropertyOp9
 70
     1
102
RTVSPropertyOp10
 70
     1
102
RTVSPropertyOp11
 70
     1
102
RTVSPropertyOp12
 70
     1
102
RTVSPropertyOp13
 70
     1
102
RTVSPropertyOp14
 70
     1
102
RTVSPropertyOp15
 70
     1
102
RTVSPropertyOp16
 70
     1
102
RTVSPropertyOp17
 70
     1
102
RTVSPropertyOp18
 70
     1
102
RTVSPropertyOp19
 70
     1
102
RTVSPropertyOp20
 70
     1
102
RTVSPropertyOp21
 70
     1
102
RTVSPropertyOp22
 70
     1
102
RTVSPropertyOp23
 70
     1
102
RTVSPropertyOp24
 70
     1
102
RTVSPropertyOp25
 70
     1
102
RTVSPropertyOp26
 70
     1
102
RTVSPropertyOp27
 70
     1
102
RTVSPropertyOp28
 70
     1
102
RTVSPropertyOp29
 70
     1
102
RTVSPropertyOp30
 70
     1
102
RTVSPropertyOp31
 70
     1
102
RTVSPropertyOp32
 70
     1
  0
ENDSEC
  0
EOF
