  0
SECTION
  2
HEADER
  9
$ACADVER
  1
AC1015
  9
$ACADMAINTVER
 70
     6
  9
$DWGCODEPAGE
  3
ANSI_932
  9
$INSBASE
 10
0.0
 20
0.0
 30
0.0
  9
$EXTMIN
 10
0.0
 20
0.0
 30
0.0
  9
$EXTMAX
 10
210.0000000000001
 20
297.0000000000001
 30
0.0
  9
$LIMMIN
 10
0.0
 20
0.0
  9
$LIMMAX
 10
12.0
 20
9.0
  9
$ORTHOMODE
 70
     0
  9
$REGENMODE
 70
     1
  9
$FILLMODE
 70
     1
  9
$QTEXTMODE
 70
     0
  9
$MIRRTEXT
 70
     1
  9
$LTSCALE
 40
1.0
  9
$ATTMODE
 70
     1
  9
$TEXTSIZE
 40
0.2
  9
$TRACEWID
 40
0.05
  9
$TEXTSTYLE
  7
Standard
  9
$CLAYER
  8
0
  9
$CELTYPE
  6
ByLayer
  9
$CECOLOR
 62
   256
  9
$CELTSCALE
 40
1.0
  9
$DISPSILH
 70
     0
  9
$DIMSCALE
 40
1.0
  9
$DIMASZ
 40
0.18
  9
$DIMEXO
 40
0.0625
  9
$DIMDLI
 40
0.38
  9
$DIMRND
 40
0.0
  9
$DIMDLE
 40
0.0
  9
$DIMEXE
 40
0.18
  9
$DIMTP
 40
0.0
  9
$DIMTM
 40
0.0
  9
$DIMTXT
 40
0.18
  9
$DIMCEN
 40
0.09
  9
$DIMTSZ
 40
0.0
  9
$DIMTOL
 70
     0
  9
$DIMLIM
 70
     0
  9
$DIMTIH
 70
     1
  9
$DIMTOH
 70
     1
  9
$DIMSE1
 70
     0
  9
$DIMSE2
 70
     0
  9
$DIMTAD
 70
     0
  9
$DIMZIN
 70
     0
  9
$DIMBLK
  1

  9
$DIMASO
 70
     1
  9
$DIMSHO
 70
     1
  9
$DIMPOST
  1

  9
$DIMAPOST
  1

  9
$DIMALT
 70
     0
  9
$DIMALTD
 70
     2
  9
$DIMALTF
 40
25.4
  9
$DIMLFAC
 40
1.0
  9
$DIMTOFL
 70
     0
  9
$DIMTVP
 40
0.0
  9
$DIMTIX
 70
     0
  9
$DIMSOXD
 70
     0
  9
$DIMSAH
 70
     0
  9
$DIMBLK1
  1

  9
$DIMBLK2
  1

  9
$DIMSTYLE
  2
Standard
  9
$DIMCLRD
 70
     0
  9
$DIMCLRE
 70
     0
  9
$DIMCLRT
 70
     0
  9
$DIMTFAC
 40
1.0
  9
$DIMGAP
 40
0.09
  9
$DIMJUST
 70
     0
  9
$DIMSD1
 70
     0
  9
$DIMSD2
 70
     0
  9
$DIMTOLJ
 70
     1
  9
$DIMTZIN
 70
     0
  9
$DIMALTZ
 70
     0
  9
$DIMALTTZ
 70
     0
  9
$DIMUPT
 70
     0
  9
$DIMDEC
 70
     4
  9
$DIMTDEC
 70
     4
  9
$DIMALTU
 70
     2
  9
$DIMALTTD
 70
     2
  9
$DIMTXSTY
  7
Standard
  9
$DIMAUNIT
 70
     0
  9
$DIMADEC
 70
     0
  9
$DIMALTRND
 40
0.0
  9
$DIMAZIN
 70
     0
  9
$DIMDSEP
 70
    46
  9
$DIMATFIT
 70
     3
  9
$DIMFRAC
 70
     0
  9
$DIMLDRBLK
  1

  9
$DIMLUNIT
 70
     2
  9
$DIMLWD
 70
    -2
  9
$DIMLWE
 70
    -2
  9
$DIMTMOVE
 70
     0
  9
$LUNITS
 70
     2
  9
$LUPREC
 70
     4
  9
$SKETCHINC
 40
0.1
  9
$FILLETRAD
 40
0.5
  9
$AUNITS
 70
     0
  9
$AUPREC
 70
     0
  9
$MENU
  1
.
  9
$ELEVATION
 40
0.0
  9
$PELEVATION
 40
0.0
  9
$THICKNESS
 40
0.0
  9
$LIMCHECK
 70
     0
  9
$CHAMFERA
 40
0.5
  9
$CHAMFERB
 40
0.5
  9
$CHAMFERC
 40
1.0
  9
$CHAMFERD
 40
0.0
  9
$SKPOLY
 70
     0
  9
$TDCREATE
 40
2460383.561113114
  9
$TDUCREATE
 40
2460383.186113114
  9
$TDUPDATE
 40
2460383.56111456
  9
$TDUUPDATE
 40
2460383.18611456
  9
$TDINDWG
 40
0.0000000116
  9
$TDUSRTIMER
 40
0.0000000116
  9
$USRTIMER
 70
     1
  9
$ANGBASE
 50
0.0
  9
$ANGDIR
 70
     0
  9
$PDMODE
 70
     0
  9
$PDSIZE
 40
0.0
  9
$PLINEWID
 40
0.0
  9
$SPLFRAME
 70
     0
  9
$SPLINETYPE
 70
     6
  9
$SPLINESEGS
 70
     8
  9
$HANDSEED
  5
1CC
  9
$SURFTAB1
 70
     6
  9
$SURFTAB2
 70
     6
  9
$SURFTYPE
 70
     6
  9
$SURFU
 70
     6
  9
$SURFV
 70
     6
  9
$UCSBASE
  2

  9
$UCSNAME
  2

  9
$UCSORG
 10
0.0
 20
0.0
 30
0.0
  9
$UCSXDIR
 10
1.0
 20
0.0
 30
0.0
  9
$UCSYDIR
 10
0.0
 20
1.0
 30
0.0
  9
$UCSORTHOREF
  2

  9
$UCSORTHOVIEW
 70
     0
  9
$UCSORGTOP
 10
0.0
 20
0.0
 30
0.0
  9
$UCSORGBOTTOM
 10
0.0
 20
0.0
 30
0.0
  9
$UCSORGLEFT
 10
0.0
 20
0.0
 30
0.0
  9
$UCSORGRIGHT
 10
0.0
 20
0.0
 30
0.0
  9
$UCSORGFRONT
 10
0.0
 20
0.0
 30
0.0
  9
$UCSORGBACK
 10
0.0
 20
0.0
 30
0.0
  9
$PUCSBASE
  2

  9
$PUCSNAME
  2

  9
$PUCSORG
 10
0.0
 20
0.0
 30
0.0
  9
$PUCSXDIR
 10
1.0
 20
0.0
 30
0.0
  9
$PUCSYDIR
 10
0.0
 20
1.0
 30
0.0
  9
$PUCSORTHOREF
  2

  9
$PUCSORTHOVIEW
 70
     0
  9
$PUCSORGTOP
 10
0.0
 20
0.0
 30
0.0
  9
$PUCSORGBOTTOM
 10
0.0
 20
0.0
 30
0.0
  9
$PUCSORGLEFT
 10
0.0
 20
0.0
 30
0.0
  9
$PUCSORGRIGHT
 10
0.0
 20
0.0
 30
0.0
  9
$PUCSORGFRONT
 10
0.0
 20
0.0
 30
0.0
  9
$PUCSORGBACK
 10
0.0
 20
0.0
 30
0.0
  9
$USERI1
 70
     0
  9
$USERI2
 70
     0
  9
$USERI3
 70
     0
  9
$USERI4
 70
     0
  9
$USERI5
 70
     0
  9
$USERR1
 40
18.1
  9
$USERR2
 40
0.0
  9
$USERR3
 40
0.0
  9
$USERR4
 40
0.0
  9
$USERR5
 40
0.0
  9
$WORLDVIEW
 70
     1
  9
$SHADEDGE
 70
     3
  9
$SHADEDIF
 70
    70
  9
$TILEMODE
 70
     1
  9
$MAXACTVP
 70
    64
  9
$PINSBASE
 10
0.0
 20
0.0
 30
0.0
  9
$PLIMCHECK
 70
     0
  9
$PEXTMIN
 10
1.00000000000000E+20
 20
1.00000000000000E+20
 30
1.00000000000000E+20
  9
$PEXTMAX
 10
-1.00000000000000E+20
 20
-1.00000000000000E+20
 30
-1.00000000000000E+20
  9
$PLIMMIN
 10
0.0
 20
0.0
  9
$PLIMMAX
 10
12.0
 20
9.0
  9
$UNITMODE
 70
     0
  9
$VISRETAIN
 70
     1
  9
$PLINEGEN
 70
     0
  9
$PSLTSCALE
 70
     1
  9
$TREEDEPTH
 70
  3020
  9
$CMLSTYLE
  2
Standard
  9
$CMLJUST
 70
     0
  9
$CMLSCALE
 40
1.0
  9
$PROXYGRAPHICS
 70
     1
  9
$MEASUREMENT
 70
     1
  9
$CELWEIGHT
370
    -1
  9
$ENDCAPS
280
     0
  9
$JOINSTYLE
280
     0
  9
$LWDISPLAY
290
     0
  9
$INSUNITS
 70
     4
  9
$HYPERLINKBASE
  1

  9
$STYLESHEET
  1

  9
$XEDIT
290
     1
  9
$CEPSNTYPE
380
     0
  9
$PSTYLEMODE
290
     1
  9
$FINGERPRINTGUID
  2
{188934D3-1655-4F43-B4E2-0A19152FCDE6}
  9
$VERSIONGUID
  2
{FAEB1C32-E019-11D5-929B-00C0DF256EC4}
  9
$EXTNAMES
290
     1
  9
$PSVPSCALE
 40
0.0
  9
$OLESTARTUP
290
     0
  0
ENDSEC
  0
SECTION
  2
CLASSES
  0
CLASS
  1
ACDBDICTIONARYWDFLT
  2
AcDbDictionaryWithDefault
  3
ObjectDBX Classes
 90
        0
280
     0
281
     0
  0
CLASS
  1
VISUALSTYLE
  2
AcDbVisualStyle
  3
ObjectDBX Classes
 90
     4095
280
     0
281
     0
  0
CLASS
  1
MATERIAL
  2
AcDbMaterial
  3
ObjectDBX Classes
 90
     1153
280
     0
281
     0
  0
CLASS
  1
DICTIONARYVAR
  2
AcDbDictionaryVar
  3
ObjectDBX Classes
 90
        0
280
     0
281
     0
  0
CLASS
  1
ACDBPLACEHOLDER
  2
AcDbPlaceHolder
  3
ObjectDBX Classes
 90
        0
280
     0
281
     0
  0
CLASS
  1
LAYOUT
  2
AcDbLayout
  3
ObjectDBX Classes
 90
        0
280
     0
281
     0
  0
ENDSEC
  0
SECTION
  2
TABLES
  0
TABLE
  2
VPORT
  5
8
330
0
100
AcDbSymbolTable
 70
     1
  0
VPORT
  5
29
330
8
100
AcDbSymbolTableRecord
100
AcDbViewportTableRecord
  2
*Active
 70
     0
 10
0.0
 20
0.0
 11
1.0
 21
1.0
 12
105.0000000000001
 22
148.5000000000001
 13
0.0
 23
0.0
 14
0.5
 24
0.5
 15
0.5
 25
0.5
 16
0.0
 26
0.0
 36
1.0
 17
0.0
 27
0.0
 37
0.0
 40
326.7000000000002
 41
1.60267857142857
 42
50.0
 43
0.0
 44
0.0
 50
0.0
 51
0.0
 71
     0
 72
   100
 73
     1
 74
     3
 75
     0
 76
     0
 77
     0
 78
     0
281
     0
 65
     1
110
0.0
120
0.0
130
0.0
111
1.0
121
0.0
131
0.0
112
0.0
122
1.0
132
0.0
 79
     0
146
0.0
  0
ENDTAB
  0
TABLE
  2
LTYPE
  5
5
330
0
100
AcDbSymbolTable
 70
     8
  0
LTYPE
  5
14
330
5
100
AcDbSymbolTableRecord
100
AcDbLinetypeTableRecord
  2
ByBlock
 70
     0
  3

 72
    65
 73
     0
 40
0.0
  0
LTYPE
  5
15
330
5
100
AcDbSymbolTableRecord
100
AcDbLinetypeTableRecord
  2
ByLayer
 70
     0
  3

 72
    65
 73
     0
 40
0.0
  0
LTYPE
  5
16
330
5
100
AcDbSymbolTableRecord
100
AcDbLinetypeTableRecord
  2
Continuous
 70
     0
  3
Solid line
 72
    65
 73
     0
 40
0.0
  0
LTYPE
  5
3F
330
5
100
AcDbSymbolTableRecord
100
AcDbLinetypeTableRecord
  2
DASHED
 70
     0
  3
Dashed
 72
    65
 73
     2
 40
15.0
 49
7.0
 74
     0
 49
-8.0
 74
     0
  0
LTYPE
  5
40
330
5
100
AcDbSymbolTableRecord
100
AcDbLinetypeTableRecord
  2
DOTTED
 70
     0
  3
Dotted
 72
    65
 73
     2
 40
1.0
 49
0.0
 74
     0
 49
-1.0
 74
     0
  0
LTYPE
  5
41
330
5
100
AcDbSymbolTableRecord
100
AcDbLinetypeTableRecord
  2
DOT_CENTER
 70
     0
  3
Dot_Center
 72
    65
 73
     4
 40
14.0
 49
12.0
 74
     0
 49
-1.0
 74
     0
 49
0.0
 74
     0
 49
-1.0
 74
     0
  0
LTYPE
  5
42
330
5
100
AcDbSymbolTableRecord
100
AcDbLinetypeTableRecord
  2
LONG_DASHED
 70
     0
  3
Long_Dashed
 72
    65
 73
     2
 40
15.0
 49
10.0
 74
     0
 49
-5.0
 74
     0
  0
LTYPE
  5
43
330
5
100
AcDbSymbolTableRecord
100
AcDbLinetypeTableRecord
  2
DASH_CENTER
 70
     0
  3
Dash_Center
 72
    65
 73
     4
 40
14.0
 49
11.0
 74
     0
 49
-1.0
 74
     0
 49
1.0
 74
     0
 49
-1.0
 74
     0
  0
LTYPE
  5
44
330
5
100
AcDbSymbolTableRecord
100
AcDbLinetypeTableRecord
  2
PHANTOM
 70
     0
  3
Phantom
 72
    65
 73
     6
 40
13.0
 49
10.0
 74
     0
 49
-1.0
 74
     0
 49
0.0
 74
     0
 49
-1.0
 74
     0
 49
0.0
 74
     0
 49
-1.0
 74
     0
  0
LTYPE
  5
45
330
5
100
AcDbSymbolTableRecord
100
AcDbLinetypeTableRecord
  2
CENTER_DASH_DASH
 70
     0
  3
Center_Dash_Dash
 72
    65
 73
     6
 40
14.0
 49
9.0
 74
     0
 49
-1.0
 74
     0
 49
1.0
 74
     0
 49
-1.0
 74
     0
 49
1.0
 74
     0
 49
-1.0
 74
     0
  0
ENDTAB
  0
TABLE
  2
LAYER
  5
2
330
0
100
AcDbSymbolTable
 70
     3
  0
LAYER
  5
10
330
2
100
AcDbSymbolTableRecord
100
AcDbLayerTableRecord
  2
0
 70
     0
 62
     7
  6
Continuous
370
    -3
390
F
  0
LAYER
  5
46
330
2
100
AcDbSymbolTableRecord
100
AcDbLayerTableRecord
  2
1
 70
     0
 62
     7
  6
Continuous
370
    -3
390
F
  0
LAYER
  5
47
330
2
100
AcDbSymbolTableRecord
100
AcDbLayerTableRecord
  2
_U_30EC_U_30A4_U_30E4_U_30FC_1
 70
     0
 62
     7
  6
Continuous
370
    -3
390
F
  0
ENDTAB
  0
TABLE
  2
STYLE
  5
3
330
0
100
AcDbSymbolTable
 70
     3
  0
STYLE
  5
11
330
3
100
AcDbSymbolTableRecord
100
AcDbTextStyleTableRecord
  2
Standard
 70
     0
 40
0.0
 41
1.0
 50
0.0
 71
     0
 42
0.2
  3
txt
  4

  0
STYLE
  5
B6
330
3
100
AcDbSymbolTableRecord
100
AcDbTextStyleTableRecord
  2
CONVERTER_11
 70
     0
 40
0.0
 41
0.89
 50
0.0
 71
     0
 42
0.2
  3
msmincho.ttc
  4

1001
ACAD
1000
MS Mincho
1071
    32785
  0
STYLE
  5
165
330
3
100
AcDbSymbolTableRecord
100
AcDbTextStyleTableRecord
  2
CONVERTER_12
 70
     0
 40
0.0
 41
0.9
 50
0.0
 71
     0
 42
0.2
  3
txt.shx
  4

  0
ENDTAB
  0
TABLE
  2
VIEW
  5
6
330
0
100
AcDbSymbolTable
 70
     0
  0
ENDTAB
  0
TABLE
  2
UCS
  5
7
330
0
100
AcDbSymbolTable
 70
     0
  0
ENDTAB
  0
TABLE
  2
APPID
  5
9
330
0
100
AcDbSymbolTable
 70
     1
  0
APPID
  5
12
330
9
100
AcDbSymbolTableRecord
100
AcDbRegAppTableRecord
  2
ACAD
 70
     0
  0
ENDTAB
  0
TABLE
  2
DIMSTYLE
  5
A
330
0
100
AcDbSymbolTable
 70
     5
100
AcDbDimStyleTable
  0
DIMSTYLE
105
27
330
A
100
AcDbSymbolTableRecord
100
AcDbDimStyleTableRecord
  2
Standard
 70
     0
178
     0
340
11
  0
DIMSTYLE
105
17E
102
{ACAD_REACTORS
330
17F
102
}
330
A
100
AcDbSymbolTableRecord
100
AcDbDimStyleTableRecord
  2
ME10_DIM_10
 70
     0
  3
{\Fgdt;n}<>
 41
3.5
 42
0.0
 44
1.0
 73
     0
 74
     0
 77
     1
 78
     8
140
3.5
147
1.0
172
     1
173
     1
174
     1
175
     1
176
     2
177
     2
271
     2
178
     7
271
     2
340
165
  0
DIMSTYLE
105
189
102
{ACAD_REACTORS
330
18A
102
}
330
A
100
AcDbSymbolTableRecord
100
AcDbDimStyleTableRecord
  2
ME10_DIM_11
 70
     0
 41
3.5
 42
0.0
 44
1.0
 73
     0
 74
     0
 77
     1
 78
     8
140
3.5
147
1.0
172
     1
173
     1
174
     1
175
     1
176
     2
177
     2
271
     2
178
     7
271
     2
340
165
  0
DIMSTYLE
105
194
102
{ACAD_REACTORS
330
195
102
}
330
A
100
AcDbSymbolTableRecord
100
AcDbDimStyleTableRecord
  2
ME10_DIM_12
 70
     0
 41
3.5
 42
0.0
 44
1.0
 73
     0
 74
     0
 77
     1
 78
     8
140
3.5
147
1.0
172
     1
173
     1
174
     1
175
     1
176
     2
177
     2
271
     2
178
     7
271
     2
340
165
  0
DIMSTYLE
105
19F
102
{ACAD_REACTORS
330
1A0
102
}
330
A
100
AcDbSymbolTableRecord
100
AcDbDimStyleTableRecord
  2
ME10_DIM_13
 70
     0
 41
3.5
 42
0.0
 44
1.0
 73
     0
 74
     0
 77
     1
 78
     8
140
3.5
147
1.0
172
     1
173
     1
174
     1
175
     1
176
     2
177
     2
271
     2
178
     7
271
     2
340
165
  0
ENDTAB
  0
TABLE
  2
BLOCK_RECORD
  5
1
330
0
100
AcDbSymbolTable
 70
     8
  0
BLOCK_RECORD
  5
1F
330
1
100
AcDbSymbolTableRecord
100
AcDbBlockTableRecord
  2
*Model_Space
340
22
  0
BLOCK_RECORD
  5
1B
330
1
100
AcDbSymbolTableRecord
100
AcDbBlockTableRecord
  2
*Paper_Space
340
1E
  0
BLOCK_RECORD
  5
23
330
1
100
AcDbSymbolTableRecord
100
AcDbBlockTableRecord
  2
*Paper_Space0
340
26
  0
BLOCK_RECORD
  5
48
330
1
100
AcDbSymbolTableRecord
100
AcDbBlockTableRecord
  2
開示A4
340
0
102
{BLKREFS
331
4C
102
}
  0
BLOCK_RECORD
  5
4B
330
1
100
AcDbSymbolTableRecord
100
AcDbBlockTableRecord
  2
開示A4枠
340
0
102
{BLKREFS
331
52
102
}
  0
BLOCK_RECORD
  5
4F
330
1
100
AcDbSymbolTableRecord
100
AcDbBlockTableRecord
  2
35-19
340
0
102
{BLKREFS
331
53
102
}
  0
BLOCK_RECORD
  5
175
330
1
100
AcDbSymbolTableRecord
100
AcDbBlockTableRecord
  2
*D4
340
0
  0
BLOCK_RECORD
  5
180
330
1
100
AcDbSymbolTableRecord
100
AcDbBlockTableRecord
  2
*D5
340
0
  0
BLOCK_RECORD
  5
18B
330
1
100
AcDbSymbolTableRecord
100
AcDbBlockTableRecord
  2
*D6
340
0
  0
BLOCK_RECORD
  5
196
330
1
100
AcDbSymbolTableRecord
100
AcDbBlockTableRecord
  2
*D7
340
0
  0
ENDTAB
  0
ENDSEC
  0
SECTION
  2
BLOCKS
  0
BLOCK
  5
20
330
1F
100
AcDbEntity
  8
0
100
AcDbBlockBegin
  2
*Model_Space
 70
     0
 10
0.0
 20
0.0
 30
0.0
  3
*Model_Space
  1

  0
ENDBLK
  5
21
330
1F
100
AcDbEntity
  8
0
100
AcDbBlockEnd
  0
BLOCK
  5
1C
330
1B
100
AcDbEntity
 67
     1
  8
0
100
AcDbBlockBegin
  2
*Paper_Space
 70
     0
 10
0.0
 20
0.0
 30
0.0
  3
*Paper_Space
  1

  0
ENDBLK
  5
1D
330
1B
100
AcDbEntity
 67
     1
  8
0
100
AcDbBlockEnd
  0
BLOCK
  5
24
330
23
100
AcDbEntity
  8
0
100
AcDbBlockBegin
  2
*Paper_Space0
 70
     0
 10
0.0
 20
0.0
 30
0.0
  3
*Paper_Space0
  1

  0
ENDBLK
  5
25
330
23
100
AcDbEntity
  8
0
100
AcDbBlockEnd
  0
BLOCK
  5
49
330
48
100
AcDbEntity
  8
0
100
AcDbBlockBegin
  2
開示A4
 70
     0
 10
0.0
 20
0.0
 30
0.0
  3
開示A4
  1

  0
POINT
  5
54
330
48
100
AcDbEntity
  8
1
 62
     4
100
AcDbPoint
 10
34.0
 20
34.0
 30
0.0
  0
POINT
  5
55
330
48
100
AcDbEntity
  8
1
 62
     4
100
AcDbPoint
 10
57.0
 20
12.25
 30
0.0
  0
POINT
  5
56
330
48
100
AcDbEntity
  8
1
 62
     4
100
AcDbPoint
 10
57.0
 20
20.75000000000001
 30
0.0
  0
POINT
  5
57
330
48
100
AcDbEntity
  8
1
 62
     4
100
AcDbPoint
 10
57.0
 20
24.75000000000001
 30
0.0
  0
POINT
  5
58
330
48
100
AcDbEntity
  8
1
 62
     4
100
AcDbPoint
 10
57.0
 20
16.25
 30
0.0
  0
POINT
  5
59
330
48
100
AcDbEntity
  8
1
 62
     4
100
AcDbPoint
 10
157.5000000000001
 20
19.00000000000001
 30
0.0
  0
POINT
  5
5A
330
48
100
AcDbEntity
  8
1
 62
     4
100
AcDbPoint
 10
47.5
 20
282.0000000000002
 30
0.0
  0
POINT
  5
5B
330
48
100
AcDbEntity
  8
1
 62
     4
100
AcDbPoint
 10
57.0
 20
22.75000000000001
 30
0.0
  0
POINT
  5
5C
330
48
100
AcDbEntity
  8
1
 62
     4
100
AcDbPoint
 10
57.0
 20
14.25
 30
0.0
  0
POINT
  5
5D
330
48
100
AcDbEntity
  8
1
 62
     4
100
AcDbPoint
 10
157.5000000000001
 20
12.5
 30
0.0
  0
POINT
  5
5E
330
48
100
AcDbEntity
  8
1
 62
     4
100
AcDbPoint
 10
163.2500000000001
 20
12.5
 30
0.0
  0
POINT
  5
5F
330
48
100
AcDbEntity
  8
1
 62
     4
100
AcDbPoint
 10
151.7500000000001
 20
12.5
 30
0.0
  0
POINT
  5
60
330
48
100
AcDbEntity
  8
1
 62
     4
100
AcDbPoint
 10
134.75
 20
12.5
 30
0.0
  0
POINT
  5
61
330
48
100
AcDbEntity
  8
1
 62
     4
100
AcDbPoint
 10
146.2500000000001
 20
12.5
 30
0.0
  0
POINT
  5
62
330
48
100
AcDbEntity
  8
1
 62
     4
100
AcDbPoint
 10
140.5000000000001
 20
12.5
 30
0.0
  0
POINT
  5
63
330
48
100
AcDbEntity
  8
1
 62
     4
100
AcDbPoint
 10
140.5000000000001
 20
19.00000000000001
 30
0.0
  0
POINT
  5
64
330
48
100
AcDbEntity
  8
1
 62
     4
100
AcDbPoint
 10
117.75
 20
12.5
 30
0.0
  0
POINT
  5
65
330
48
100
AcDbEntity
  8
1
 62
     4
100
AcDbPoint
 10
129.25
 20
12.5
 30
0.0
  0
POINT
  5
66
330
48
100
AcDbEntity
  8
1
 62
     4
100
AcDbPoint
 10
123.5
 20
12.5
 30
0.0
  0
POINT
  5
67
330
48
100
AcDbEntity
  8
1
 62
     4
100
AcDbPoint
 10
123.5
 20
19.00000000000001
 30
0.0
  0
POINT
  5
68
330
48
100
AcDbEntity
  8
1
 62
     4
100
AcDbPoint
 10
100.75
 20
12.5
 30
0.0
  0
POINT
  5
69
330
48
100
AcDbEntity
  8
1
 62
     4
100
AcDbPoint
 10
112.25
 20
12.5
 30
0.0
  0
POINT
  5
6A
330
48
100
AcDbEntity
  8
1
 62
     4
100
AcDbPoint
 10
106.5
 20
12.5
 30
0.0
  0
POINT
  5
6B
330
48
100
AcDbEntity
  8
1
 62
     4
100
AcDbPoint
 10
106.5
 20
19.00000000000001
 30
0.0
  0
POINT
  5
6C
330
48
100
AcDbEntity
  8
1
 62
     4
100
AcDbPoint
 10
85.25000000000003
 20
17.0
 30
0.0
  0
POINT
  5
6D
330
48
100
AcDbEntity
  8
1
 62
     4
100
AcDbPoint
 10
93.75000000000003
 20
17.0
 30
0.0
  0
POINT
  5
6E
330
48
100
AcDbEntity
  8
1
 62
     4
100
AcDbPoint
 10
183.0000000000001
 20
15.00000000000001
 30
0.0
  0
LINE
  5
6F
330
48
100
AcDbEntity
  8
1
  6
Continuous
 62
     2
100
AcDbLine
 10
81.00000000000003
 20
27.00000000000001
 30
0.0
 11
81.00000000000003
 21
10.0
 31
0.0
  0
LINE
  5
70
330
48
100
AcDbEntity
  8
1
  6
DOT_CENTER
 62
     2
100
AcDbLine
 10
187.0000000000001
 20
26.50000000000001
 30
0.0
 11
187.0000000000001
 21
20.50000000000001
 31
0.0
  0
LINE
  5
71
330
48
100
AcDbEntity
  8
1
  6
DOT_CENTER
 62
     2
100
AcDbLine
 10
184.0000000000001
 20
23.50000000000001
 30
0.0
 11
197.0000000000001
 21
23.50000000000001
 31
0.0
  0
LINE
  5
72
330
48
100
AcDbEntity
  8
1
  6
Continuous
 62
     7
100
AcDbLine
 10
196.0000000000001
 20
21.50000000000001
 30
0.0
 11
191.0000000000001
 21
22.30000000000001
 31
0.0
  0
LINE
  5
73
330
48
100
AcDbEntity
  8
1
  6
Continuous
 62
     7
100
AcDbLine
 10
196.0000000000001
 20
25.50000000000001
 30
0.0
 11
196.0000000000001
 21
21.50000000000001
 31
0.0
  0
LINE
  5
74
330
48
100
AcDbEntity
  8
1
  6
Continuous
 62
     7
100
AcDbLine
 10
191.0000000000001
 20
24.70000000000001
 30
0.0
 11
196.0000000000001
 21
25.50000000000001
 31
0.0
  0
LINE
  5
75
330
48
100
AcDbEntity
  8
1
  6
Continuous
 62
     7
100
AcDbLine
 10
191.0000000000001
 20
24.70000000000001
 30
0.0
 11
191.0000000000001
 21
22.30000000000001
 31
0.0
  0
LINE
  5
76
330
48
100
AcDbEntity
  8
1
  6
Continuous
 62
     2
100
AcDbLine
 10
33.0
 20
27.0
 30
0.0
 11
33.0
 21
10.0
 31
0.0
  0
LINE
  5
77
330
48
100
AcDbEntity
  8
1
  6
Continuous
 62
     2
100
AcDbLine
 10
25.0
 20
18.50000000000001
 30
0.0
 11
81.00000000000003
 21
18.50000000000001
 31
0.0
  0
LINE
  5
78
330
48
100
AcDbEntity
  8
1
  6
Continuous
 62
     7
100
AcDbLine
 10
200.0000000000001
 20
287.0000000000002
 30
0.0
 11
105.0
 21
287.0000000000002
 31
0.0
  0
LINE
  5
79
330
48
100
AcDbEntity
  8
1
  6
Continuous
 62
     7
100
AcDbLine
 10
200.0000000000001
 20
10.0
 30
0.0
 11
200.0000000000001
 21
148.5
 31
0.0
  0
LINE
  5
7A
330
48
100
AcDbEntity
  8
1
  6
Continuous
 62
     7
100
AcDbLine
 10
25.0
 20
10.0
 30
0.0
 11
105.0
 21
10.0
 31
0.0
  0
LINE
  5
7B
330
48
100
AcDbEntity
  8
1
  6
PHANTOM
 62
     4
100
AcDbLine
 10
0.0
 20
297.0000000000001
 30
0.0
 11
0.0
 21
0.0
 31
0.0
  0
LINE
  5
7C
330
48
100
AcDbEntity
  8
1
  6
PHANTOM
 62
     4
100
AcDbLine
 10
210.0000000000001
 20
297.0000000000001
 30
0.0
 11
0.0
 21
297.0000000000001
 31
0.0
  0
LINE
  5
7D
330
48
100
AcDbEntity
  8
1
  6
PHANTOM
 62
     4
100
AcDbLine
 10
210.0000000000001
 20
0.0
 30
0.0
 11
210.0000000000001
 21
297.0000000000001
 31
0.0
  0
LINE
  5
7E
330
48
100
AcDbEntity
  8
1
  6
PHANTOM
 62
     4
100
AcDbLine
 10
0.0
 20
0.0
 30
0.0
 11
210.0000000000001
 21
0.0
 31
0.0
  0
LINE
  5
7F
330
48
100
AcDbEntity
  8
1
  6
Continuous
 62
     7
100
AcDbLine
 10
25.0
 20
41.0
 30
0.0
 11
200.0000000000001
 21
41.0
 31
0.0
  0
LINE
  5
80
330
48
100
AcDbEntity
  8
1
  6
Continuous
 62
     7
100
AcDbLine
 10
200.0000000000001
 20
27.00000000000001
 30
0.0
 11
25.0
 21
27.00000000000001
 31
0.0
  0
LINE
  5
81
330
48
100
AcDbEntity
  8
1
  6
Continuous
 62
     2
100
AcDbLine
 10
33.0
 20
41.0
 30
0.0
 11
33.0
 21
27.0
 31
0.0
  0
LINE
  5
82
330
48
100
AcDbEntity
  8
1
  6
Continuous
 62
     2
100
AcDbLine
 10
55.0
 20
287.0000000000002
 30
0.0
 11
55.0
 21
277.0000000000002
 31
0.0
  0
LINE
  5
83
330
48
100
AcDbEntity
  8
1
  6
Continuous
 62
     2
100
AcDbLine
 10
40.0
 20
287.0000000000002
 30
0.0
 11
40.0
 21
277.0000000000002
 31
0.0
  0
LINE
  5
84
330
48
100
AcDbEntity
  8
1
  6
Continuous
 62
     7
100
AcDbLine
 10
25.0
 20
10.0
 30
0.0
 11
25.0
 21
148.5
 31
0.0
  0
LINE
  5
85
330
48
100
AcDbEntity
  8
1
  6
Continuous
 62
     2
100
AcDbLine
 10
55.0
 20
277.0000000000002
 30
0.0
 11
25.0
 21
277.0000000000002
 31
0.0
  0
LINE
  5
86
330
48
100
AcDbEntity
  8
1
  6
Continuous
 62
     2
100
AcDbLine
 10
166.0000000000001
 20
27.00000000000001
 30
0.0
 11
166.0000000000001
 21
10.0
 31
0.0
  0
LINE
  5
87
330
48
100
AcDbEntity
  8
1
  6
Continuous
 62
     2
100
AcDbLine
 10
132.0
 20
27.00000000000001
 30
0.0
 11
132.0
 21
9.99999999999998
 31
0.0
  0
LINE
  5
88
330
48
100
AcDbEntity
  8
1
  6
Continuous
 62
     2
100
AcDbLine
 10
149.0000000000001
 20
27.00000000000001
 30
0.0
 11
149.0000000000001
 21
10.0
 31
0.0
  0
LINE
  5
89
330
48
100
AcDbEntity
  8
1
  6
Continuous
 62
     2
100
AcDbLine
 10
115.0
 20
27.00000000000001
 30
0.0
 11
115.0
 21
9.99999999999999
 31
0.0
  0
LINE
  5
8A
330
48
100
AcDbEntity
  8
1
  6
Continuous
 62
     2
100
AcDbLine
 10
98.00000000000003
 20
27.00000000000001
 30
0.0
 11
98.00000000000003
 21
9.99999999999999
 31
0.0
  0
LINE
  5
8B
330
48
100
AcDbEntity
  8
1
  6
Continuous
 62
     2
100
AcDbLine
 10
166.0000000000001
 20
20.00000000000001
 30
0.0
 11
200.0000000000001
 21
20.00000000000001
 31
0.0
  0
LINE
  5
8C
330
48
100
AcDbEntity
  8
1
  6
Continuous
 62
     2
100
AcDbLine
 10
105.0
 20
287.0000000000002
 30
0.0
 11
105.0
 21
292.0000000000002
 31
0.0
  0
LINE
  5
8D
330
48
100
AcDbEntity
  8
1
  6
Continuous
 62
     7
100
AcDbLine
 10
105.0
 20
287.0000000000002
 30
0.0
 11
25.0
 21
287.0000000000002
 31
0.0
  0
LINE
  5
8E
330
48
100
AcDbEntity
  8
1
  6
Continuous
 62
     2
100
AcDbLine
 10
25.0
 20
148.5
 30
0.0
 11
20.0
 21
148.5
 31
0.0
  0
LINE
  5
8F
330
48
100
AcDbEntity
  8
1
  6
Continuous
 62
     7
100
AcDbLine
 10
25.0
 20
148.5
 30
0.0
 11
25.0
 21
287.0000000000002
 31
0.0
  0
LINE
  5
90
330
48
100
AcDbEntity
  8
1
  6
Continuous
 62
     2
100
AcDbLine
 10
200.0000000000001
 20
148.5
 30
0.0
 11
205.0000000000001
 21
148.5
 31
0.0
  0
LINE
  5
91
330
48
100
AcDbEntity
  8
1
  6
Continuous
 62
     7
100
AcDbLine
 10
200.0000000000001
 20
148.5
 30
0.0
 11
200.0000000000001
 21
287.0000000000002
 31
0.0
  0
LINE
  5
92
330
48
100
AcDbEntity
  8
1
  6
Continuous
 62
     2
100
AcDbLine
 10
105.0
 20
10.0
 30
0.0
 11
105.0
 21
5.0
 31
0.0
  0
LINE
  5
93
330
48
100
AcDbEntity
  8
1
  6
Continuous
 62
     7
100
AcDbLine
 10
105.0
 20
10.0
 30
0.0
 11
200.0000000000001
 21
10.0
 31
0.0
  0
CIRCLE
  5
98
330
48
100
AcDbEntity
  8
1
  6
DOT_CENTER
 62
     7
100
AcDbCircle
 10
89.50000000000003
 20
18.0
 30
0.0
 40
0.1000000000000227
  0
CIRCLE
  5
99
330
48
100
AcDbEntity
  8
1
  6
DOT_CENTER
 62
     7
100
AcDbCircle
 10
89.50000000000003
 20
16.0
 30
0.0
 40
0.1000000000000227
  0
CIRCLE
  5
9A
330
48
100
AcDbEntity
  8
1
  6
Continuous
 62
     7
100
AcDbCircle
 10
187.0000000000001
 20
23.50000000000001
 30
0.0
 40
2.0
  0
CIRCLE
  5
9B
330
48
100
AcDbEntity
  8
1
  6
Continuous
 62
     7
100
AcDbCircle
 10
187.0000000000001
 20
23.50000000000001
 30
0.0
 40
1.199999999999989
  0
CIRCLE
  5
9C
330
48
100
AcDbEntity
  8
1
  6
Continuous
 62
     7
100
AcDbCircle
 10
154.5000000000001
 20
12.5
 30
0.0
 40
0.2999999999998977
  0
CIRCLE
  5
9D
330
48
100
AcDbEntity
  8
1
  6
Continuous
 62
     7
100
AcDbCircle
 10
160.5000000000001
 20
12.5
 30
0.0
 40
0.2999999999998977
  0
CIRCLE
  5
9E
330
48
100
AcDbEntity
  8
1
  6
Continuous
 62
     7
100
AcDbCircle
 10
143.5000000000001
 20
12.5
 30
0.0
 40
0.2999999999998977
  0
CIRCLE
  5
9F
330
48
100
AcDbEntity
  8
1
  6
Continuous
 62
     7
100
AcDbCircle
 10
137.5
 20
12.5
 30
0.0
 40
0.3000000000000114
  0
CIRCLE
  5
A0
330
48
100
AcDbEntity
  8
1
  6
Continuous
 62
     7
100
AcDbCircle
 10
126.5
 20
12.5
 30
0.0
 40
0.2999999999999972
  0
CIRCLE
  5
A1
330
48
100
AcDbEntity
  8
1
  6
Continuous
 62
     7
100
AcDbCircle
 10
120.5
 20
12.5
 30
0.0
 40
0.2999999999999972
  0
CIRCLE
  5
A2
330
48
100
AcDbEntity
  8
1
  6
Continuous
 62
     7
100
AcDbCircle
 10
109.5
 20
12.5
 30
0.0
 40
0.2999999999999972
  0
CIRCLE
  5
A3
330
48
100
AcDbEntity
  8
1
  6
Continuous
 62
     7
100
AcDbCircle
 10
103.5
 20
12.5
 30
0.0
 40
0.2999999999999972
  0
SPLINE
  5
A4
102
{ACAD_REACTORS
330
C2
102
}
330
48
100
AcDbEntity
  8
_U_30EC_U_30A4_U_30E4_U_30FC_1
  6
Continuous
 62
     2
100
AcDbSpline
210
0.0
220
0.0
230
1.0
 70
    11
 71
     3
 72
    99
 73
    95
 74
    93
 42
0.000000001
 43
0.0000000001
 44
0.00000001
 40
0.0
 40
0.0
 40
0.0
 40
0.0
 40
0.0796417172272166
 40
0.1621768542355936
 40
0.2486489160957552
 40
0.3404969668524502
 40
0.43819125111648
 40
0.5434463660244818
 40
0.6518115192846852
 40
0.7530190937886738
 40
0.8492196919724211
 40
0.9419290312997912
 40
1.034249663569963
 40
1.129078600620115
 40
1.226697027573178
 40
1.32722042542164
 40
1.470572134937962
 40
1.595489863371176
 40
1.719934125348339
 40
1.850576620127377
 40
1.98905962998724
 40
2.134139054226886
 40
2.280698007207175
 40
2.424529739039443
 40
2.565929576985765
 40
2.708239260773442
 40
2.861717887443597
 40
3.045168540347305
 40
3.183798301138544
 40
3.314813961455394
 40
3.442083470447247
 40
3.569912708372901
 40
3.702177512509346
 40
3.842307559659463
 40
3.992872223245866
 40
4.156750662218254
 40
4.310981861107561
 40
4.445859909322608
 40
4.572393936131548
 40
4.701656719781917
 40
4.768279086008381
 40
4.835960697898335
 40
4.912788918729261
 40
5.006285208481466
 40
5.026909478751542
 40
5.047533749021107
 40
5.101808031471147
 40
5.162325165538425
 40
5.226919745995782
 40
5.294231806596673
 40
5.364544852554801
 40
5.438319055467796
 40
5.517877651324158
 40
5.607647714861526
 40
5.700449642544374
 40
5.788251142364104
 40
5.87271470603971
 40
5.955167292575151
 40
6.037192395190321
 40
6.120669181469054
 40
6.206848616686274
 40
6.296680855416691
 40
6.442558392872517
 40
6.568190371608167
 40
6.692904567360305
 40
6.824220446557005
 40
6.963121850329347
 40
7.107843738851137
 40
7.253431663907197
 40
7.395187468036568
 40
7.533140753237694
 40
7.670550457175179
 40
7.816236511769211
 40
7.987691657359171
 40
8.14227742196921
 40
8.293662615414993
 40
8.442962460879253
 40
8.591598316185296
 40
8.743678992361774
 40
8.903725323699163
 40
9.076307008890453
 40
9.26557860468048
 40
9.459203795360711
 40
9.617619810273412
 40
9.7536096713618
 40
9.87487330000404
 40
9.95452018497776
 40
10.02416413719243
 40
10.09769764405443
 40
10.1890995592497
 40
10.20974586420137
 40
10.23039218263385
 40
10.30057101881271
 40
10.37632012987553
 40
10.37632012987553
 40
10.37632012987553
 40
10.37632012987553
 10
170.1465954835852
 20
14.13795663215994
 30
0.0
 10
170.163221785122
 20
14.11720608845312
 30
0.0
 10
170.1970784206578
 20
14.07495111711898
 30
0.0
 10
170.2599822541037
 20
14.02029811392073
 30
0.0
 10
170.3332500940394
 20
13.9729902512105
 30
0.0
 10
170.4175969238637
 20
13.93527231437934
 30
0.0
 10
170.5132240615461
 20
13.91040619731952
 30
0.0
 10
170.6171853775347
 20
13.90309559345937
 30
0.0
 10
170.7224020220405
 20
13.91142322794053
 30
0.0
 10
170.8206626371334
 20
13.94149179651527
 30
0.0
 10
170.9058986427548
 20
13.98848822971881
 30
0.0
 10
170.9779220206104
 20
14.04952991250852
 30
0.0
 10
171.0350917709096
 20
14.12412969578586
 30
0.0
 10
171.0767868747439
 20
14.21002464660175
 30
0.0
 10
171.1026952846292
 20
14.3048585043221
 30
0.0
 10
171.1118037332654
 20
14.41854979038367
 30
0.0
 10
171.0986864796487
 20
14.54332587770779
 30
0.0
 10
171.0325330334414
 20
14.66014719171891
 30
0.0
 10
170.9369370919569
 20
14.74512539577375
 30
0.0
 10
170.8249681022369
 20
14.81416684459159
 30
0.0
 10
170.699365958327
 20
14.87204142045892
 30
0.0
 10
170.5656691620857
 20
14.9237372328434
 30
0.0
 10
170.431312281883
 20
14.97899092397181
 30
0.0
 10
170.3051983986877
 20
15.04939770641648
 30
0.0
 10
170.1926579987535
 20
15.1378554073125
 30
0.0
 10
170.0969963064459
 20
15.24981067868475
 30
0.0
 10
170.0334157151825
 20
15.3994991010138
 30
0.0
 10
170.0200706505015
 20
15.55932794385142
 30
0.0
 10
170.0320510987449
 20
15.71048405306845
 30
0.0
 10
170.071229892884
 20
15.83809244591539
 30
0.0
 10
170.1354987750911
 20
15.95080874030845
 30
0.0
 10
170.223820499974
 20
16.04648609268688
 30
0.0
 10
170.3338091207627
 20
16.12354214985749
 30
0.0
 10
170.4632284401266
 20
16.18151396936281
 30
0.0
 10
170.6111838967793
 20
16.21739177588821
 30
0.0
 10
170.7682069455487
 20
16.22746719050565
 30
0.0
 10
170.9174940466431
 20
16.2186363776259
 30
0.0
 10
171.059625361417
 20
16.19074899340352
 30
0.0
 10
171.1595922609626
 20
16.13413314701136
 30
0.0
 10
171.3125074736184
 20
16.08674602105508
 30
0.0
 10
171.2455131717169
 20
16.00197553001182
 30
0.0
 10
171.2296479120268
 20
15.93438901873486
 30
0.0
 10
171.1978750531298
 20
15.86926092793189
 30
0.0
 10
171.215020220957
 20
15.76723453256953
 30
0.0
 10
171.1666427208232
 20
15.77493211681903
 30
0.0
 10
171.1315789440765
 20
15.76806771724807
 30
0.0
 10
171.1296697985719
 20
15.83263831158197
 30
0.0
 10
171.098569293199
 20
15.87825639621399
 30
0.0
 10
171.0664551628455
 20
15.93561036628453
 30
0.0
 10
171.0208038475168
 20
15.98540462692557
 30
0.0
 10
170.9658508218387
 20
16.02994813718994
 30
0.0
 10
170.9010841173009
 20
16.06763988836552
 30
0.0
 10
170.8232377310597
 20
16.09283375791352
 30
0.0
 10
170.7355160553352
 20
16.09931230998111
 30
0.0
 10
170.6452903277806
 20
16.09235709285606
 30
0.0
 10
170.5594594694065
 20
16.06909190460921
 30
0.0
 10
170.4828343638596
 20
16.03131644107547
 30
0.0
 10
170.4165265636202
 20
15.98051641089568
 30
0.0
 10
170.3622560536964
 20
15.91731143407214
 30
0.0
 10
170.3224925345458
 20
15.84276455710368
 30
0.0
 10
170.2976775510589
 20
15.75917313997762
 30
0.0
 10
170.289212426287
 20
15.65192948382284
 30
0.0
 10
170.3019697987105
 20
15.52965457267562
 30
0.0
 10
170.3681548409272
 20
15.41149724291205
 30
0.0
 10
170.4640977399833
 20
15.32606325709534
 30
0.0
 10
170.5757914963182
 20
15.25583362306717
 30
0.0
 10
170.7010863668703
 20
15.19659162305307
 30
0.0
 10
170.8349823941448
 20
15.14616708086132
 30
0.0
 10
170.9689930333151
 20
15.09322516984383
 30
0.0
 10
171.0950885316915
 20
15.02750170625171
 30
0.0
 10
171.2076216638418
 20
14.94480352537324
 30
0.0
 10
171.3031370284234
 20
14.83996006310072
 30
0.0
 10
171.3672706486964
 20
14.69937117251571
 30
0.0
 10
171.381110372528
 20
14.54065409451591
 30
0.0
 10
171.3673954712231
 20
14.38153155217874
 30
0.0
 10
171.3244739153984
 20
14.23483828819211
 30
0.0
 10
171.2545906329066
 20
14.10119796587142
 30
0.0
 10
171.1574592213829
 20
13.98532387699292
 30
0.0
 10
171.0347806023657
 20
13.89089981770088
 30
0.0
 10
170.8874408413168
 20
13.82179270651981
 30
0.0
 10
170.7177132497125
 20
13.77953210858853
 30
0.0
 10
170.5317404979597
 20
13.76781736230407
 30
0.0
 10
170.3528955926183
 20
13.77809486683435
 30
0.0
 10
170.1881733753744
 20
13.81966573769154
 30
0.0
 10
170.0834410841058
 20
13.88797642883943
 30
0.0
 10
169.9350960790365
 20
13.93675219032103
 30
0.0
 10
169.998037819473
 20
14.0297659129084
 30
0.0
 10
170.0072274430059
 20
14.10296536248281
 30
0.0
 10
170.0303711301231
 20
14.16936294501345
 30
0.0
 10
170.0034588335317
 20
14.26974809527582
 30
0.0
 10
170.0521338956339
 20
14.26234033517378
 30
0.0
 10
170.0916530580697
 20
14.26894063620895
 30
0.0
 10
170.0996204944702
 20
14.19078703218931
 30
0.0
 10
170.1305436967924
 20
14.15600927375856
 30
0.0
 10
170.1465954835852
 20
14.13795663215994
 30
0.0
 11
170.1465954835852
 21
14.13795663215994
 31
0.0
 11
170.1982038075864
 21
14.07729869814735
 31
0.0
 11
170.2601105501336
 21
14.02271295163319
 31
0.0
 11
170.3327764009803
 21
13.97583980928383
 31
0.0
 11
170.4166468655844
 21
13.93839906276537
 31
0.0
 11
170.5112210732411
 21
13.91390636311877
 31
0.0
 11
170.6161603327166
 21
13.90575829888472
 31
0.0
 11
170.7240739497552
 21
13.91564048638222
 31
0.0
 11
170.8208419941617
 21
13.94528704887483
 31
0.0
 11
170.9050776083319
 21
13.99175118948819
 31
0.0
 11
170.9756144207687
 21
14.0519141321815
 31
0.0
 11
171.031944210998
 21
14.1250581946632
 31
0.0
 11
171.0736690016003
 21
14.21021434047522
 31
0.0
 11
171.0994680808033
 21
14.30436190989613
 31
0.0
 11
171.1080824729447
 21
14.4045155209822
 31
0.0
 11
171.0878517703357
 21
14.54643250879397
 31
0.0
 11
171.0272522666731
 21
14.65566684036387
 31
0.0
 11
170.9364971286286
 21
14.74081306430095
 31
0.0
 11
170.826010188474
 21
14.81052746532516
 31
0.0
 11
170.7008523531254
 21
14.86979854169922
 31
0.0
 11
170.5662951950998
 21
14.9240425347412
 31
0.0
 11
170.4316884277007
 21
14.98201274306004
 31
0.0
 11
170.3065802017258
 21
15.05297399304232
 31
0.0
 11
170.196027609828
 21
15.14113315968694
 31
0.0
 11
170.1053381235266
 21
15.25080295132617
 31
0.0
 11
170.0447055469484
 21
15.39179720476315
 31
0.0
 11
170.0245079172553
 21
15.57413260402314
 31
0.0
 11
170.0374030471347
 21
15.71216131926641
 31
0.0
 11
170.0761016659391
 21
15.83733128451289
 31
0.0
 11
170.1393141731506
 21
15.94779262129084
 31
0.0
 11
170.2257499954545
 21
16.04196885390621
 31
0.0
 11
170.3336492808963
 21
16.11846540770651
 31
0.0
 11
170.4613526283328
 21
16.17615670109488
 31
0.0
 11
170.6075393259923
 21
16.21220066809973
 31
0.0
 11
170.770976856545
 21
16.22421385386062
 31
0.0
 11
170.924891843129
 21
16.21434269066863
 31
0.0
 11
171.0564887242608
 21
16.18477329831496
 31
0.0
 11
171.172563634494
 21
16.13439993895251
 31
0.0
 11
171.2800792741122
 21
16.06264163167877
 31
0.0
 11
171.2516994050445
 21
16.00236624106886
 31
0.0
 11
171.2284855254283
 21
15.93879017337648
 31
0.0
 11
171.2078381040801
 21
15.86478841992269
 31
0.0
 11
171.1871840681487
 21
15.77360197897328
 31
0.0
 11
171.1665597978415
 21
15.77360197897328
 31
0.0
 11
171.1459355275343
 21
15.77360197897328
 31
0.0
 11
171.1256706495791
 21
15.82395108486347
 31
0.0
 11
171.0994658759422
 21
15.8785004511693
 31
0.0
 11
171.0650468924451
 21
15.93316116296115
 31
0.0
 11
171.0203554612937
 21
15.98349593725411
 31
0.0
 11
170.9657333359511
 21
16.02777175321529
 31
0.0
 11
170.9016722004327
 21
16.06436142334501
 31
0.0
 11
170.8259682961141
 21
16.08882545979727
 31
0.0
 11
170.7365722046449
 21
16.09701100667022
 31
0.0
 11
170.6440937174207
 21
16.08926973931101
 31
0.0
 11
170.5594072091645
 21
16.06609003445566
 31
0.0
 11
170.483702448884
 21
16.02863495634008
 31
0.0
 11
170.4183754766517
 21
15.97832774281103
 31
0.0
 11
170.3650487887664
 21
15.9160029337988
 31
0.0
 11
170.3254809233901
 21
15.84249947895607
 31
0.0
 11
170.3009523754712
 21
15.75988443557391
 31
0.0
 11
170.2927954104109
 21
15.67042329844352
 31
0.0
 11
170.3130095765618
 21
15.52595308146573
 31
0.0
 11
170.373625616682
 21
15.41591177072936
 31
0.0
 11
170.4643479320759
 21
15.33033670130631
 31
0.0
 11
170.5748676948813
 21
15.25941954854626
 31
0.0
 11
170.700008993772
 21
15.19914305550579
 31
0.0
 11
170.8345826882554
 21
15.14590447913021
 31
0.0
 11
170.9691729191968
 21
15.09039489581073
 31
0.0
 11
171.0942976816297
 21
15.0237728124941
 31
0.0
 11
171.2048009079771
 21
14.94118863716749
 31
0.0
 11
171.2955397598289
 21
14.83800003476272
 31
0.0
 11
171.356155799949
 21
14.70552315979584
 31
0.0
 11
171.3763699660999
 21
14.53526378483839
 31
0.0
 11
171.3621839747999
 21
14.38133030397412
 31
0.0
 11
171.3196087009193
 21
14.23605531269097
 31
0.0
 11
171.2499752884265
 21
14.10398854189068
 31
0.0
 11
171.1544992078713
 21
13.99007218775248
 31
0.0
 11
171.0341060772624
 21
13.89715272597017
 31
0.0
 11
170.8896160201846
 21
13.82832357668179
 31
0.0
 11
170.7223519532714
 21
13.78581275203967
 31
0.0
 11
170.5336103348227
 21
13.77165864614041
 31
0.0
 11
170.3405031726388
 21
13.78581275203967
 31
0.0
 11
170.1878975900912
 21
13.82832357668179
 31
0.0
 11
170.0661897942204
 21
13.88899033013889
 31
0.0
 11
169.9660261826363
 21
13.95734322942736
 31
0.0
 11
169.9922320587039
 21
14.03255545163076
 31
0.0
 11
170.0090121537618
 21
14.10014767383612
 31
0.0
 11
170.0206196447852
 21
14.17275926235962
 31
0.0
 11
170.0313606254139
 21
14.26352788212859
 31
0.0
 11
170.0520069443316
 21
14.26352788212859
 31
0.0
 11
170.0726532632493
 21
14.26352788212859
 31
0.0
 11
170.104891639163
 21
14.20119204881083
 31
0.0
 11
170.1465954835852
 21
14.13795663215994
 31
0.0
  0
SPLINE
  5
A5
102
{ACAD_REACTORS
330
C3
102
}
330
48
100
AcDbEntity
  8
_U_30EC_U_30A4_U_30E4_U_30FC_1
  6
Continuous
 62
     2
100
AcDbSpline
210
0.0
220
0.0
230
1.0
 70
    11
 71
     3
 72
    57
 73
    53
 74
    51
 42
0.000000001
 43
0.0000000001
 44
0.00000001
 40
0.0
 40
0.0
 40
0.0
 40
0.0
 40
0.0471632082809239
 40
0.0914861054632159
 40
0.1357762519702111
 40
0.1826527001609837
 40
0.2295203288571746
 40
0.2737751972220768
 40
0.3181310461542228
 40
0.365260719839852
 40
0.4571007286314316
 40
0.5671851029164937
 40
0.6894623283868326
 40
0.8181758272545703
 40
0.9510087229273834
 40
1.085852229674062
 40
1.218126164475298
 40
1.343545131142389
 40
1.454537202956805
 40
1.567187607530729
 40
1.680710966642319
 40
1.794226869736712
 40
1.90000918424754
 40
2.004085860447876
 40
2.108162674451764
 40
2.214000150155308
 40
2.496038577352123
 40
2.762350745479282
 40
2.997275353279409
 40
3.185110082137737
 40
3.246407890063908
 40
3.312607550212582
 40
3.37887774271157
 40
3.440140399651453
 40
4.100501696006511
 40
4.754913085563565
 40
5.411331693423931
 40
6.077890432568718
 40
6.110575292670997
 40
6.143260152775777
 40
6.367989363395195
 40
6.610525374951566
 40
6.863389136467335
 40
7.119380025547655
 40
7.376036605091127
 40
7.631164770966349
 40
7.876722425456441
 40
8.104953735855974
 40
8.312916685924307
 40
8.497730294941327
 40
8.651018984313895
 40
8.7647388536246
 40
8.7647388536246
 40
8.7647388536246
 40
8.7647388536246
 10
174.7922649500513
 20
13.81626739612927
 30
0.0
 10
174.7766616726931
 20
13.81826231079078
 30
0.0
 10
174.7463947960302
 20
13.82213201360299
 30
0.0
 10
174.7010994202253
 20
13.82341984967269
 30
0.0
 10
174.6559553129349
 20
13.82308683554051
 30
0.0
 10
174.60990171234
 20
13.82314658674225
 30
0.0
 10
174.5640496172097
 20
13.82325813650001
 30
0.0
 10
174.5183711648166
 20
13.82277833456592
 30
0.0
 10
174.4750811541608
 20
13.82461109618719
 30
0.0
 10
174.4039947951514
 20
13.80049556814655
 30
0.0
 10
174.4057477261441
 20
13.9218469397725
 30
0.0
 10
174.3586196370571
 20
14.00726239751237
 30
0.0
 10
174.3191478251761
 20
14.12486929345132
 30
0.0
 10
174.2706635532647
 20
14.24232752540441
 30
0.0
 10
174.2201017402523
 20
14.3640593576151
 30
0.0
 10
174.1718634610477
 20
14.49075967862462
 30
0.0
 10
174.1135232947595
 20
14.59933687784955
 30
0.0
 10
174.0980892667261
 20
14.75620657134409
 30
0.0
 10
173.9566586330636
 20
14.72373446548323
 30
0.0
 10
173.8508397414905
 20
14.73512888682178
 30
0.0
 10
173.7358569725223
 20
14.73392591514615
 30
0.0
 10
173.6253142252141
 20
14.73506945347408
 30
0.0
 10
173.5176583522783
 20
14.73418350037526
 30
0.0
 10
173.4121322529242
 20
14.73416602390517
 30
0.0
 10
173.3109192682013
 20
14.72714032472416
 30
0.0
 10
173.1266804827752
 20
14.75135859859866
 30
0.0
 10
173.1157393685413
 20
14.44741691121883
 30
0.0
 10
173.0087691634749
 20
14.22353177253398
 30
0.0
 10
172.9098148604347
 20
14.03895314292498
 30
0.0
 10
172.9225090524007
 20
13.79530204804206
 30
0.0
 10
172.8050091716397
 20
13.82508046753197
 30
0.0
 10
172.7422055868311
 20
13.82258089509604
 30
0.0
 10
172.67858720934
 20
13.82344075102805
 30
0.0
 10
172.3946014194075
 20
13.78098039941945
 30
0.0
 10
173.0251638499382
 20
14.50081952444783
 30
0.0
 10
173.1087645289072
 20
15.01276539435728
 30
0.0
 10
173.4929252789339
 20
15.53353743550045
 30
0.0
 10
173.4777208288565
 20
16.23519626253214
 30
0.0
 10
173.7239265722697
 20
16.22345633081256
 30
0.0
 10
173.8256346157562
 20
16.23225004452773
 30
0.0
 10
173.8249752035819
 20
15.98059650730349
 30
0.0
 10
173.9428317155828
 20
15.79818020733956
 30
0.0
 10
174.0315515260485
 20
15.55563740662864
 30
0.0
 10
174.132229248526
 20
15.32340030530131
 30
0.0
 10
174.2311142712243
 20
15.08674644566909
 30
0.0
 10
174.3299676990671
 20
14.85461739170098
 30
0.0
 10
174.4256166390925
 20
14.63122222788787
 30
0.0
 10
174.5159904573271
 20
14.42272549049316
 30
0.0
 10
174.5989944568189
 20
14.2330844852932
 30
0.0
 10
174.6726088582798
 20
14.06663106068097
 30
0.0
 10
174.7342815895546
 20
13.92917699626099
 30
0.0
 10
174.7749458885604
 20
13.84999239430034
 30
0.0
 10
174.7922649500513
 20
13.81626739612927
 30
0.0
 11
174.7922649500513
 21
13.81626739612927
 31
0.0
 11
174.7453878317448
 21
13.82145433189186
 31
0.0
 11
174.7010975896125
 21
13.82315538223863
 31
0.0
 11
174.6568074431729
 21
13.82315538223863
 31
0.0
 11
174.609930994716
 21
13.82315538223863
 31
0.0
 11
174.5630633657034
 21
13.82315538223863
 31
0.0
 11
174.5188084970408
 21
13.82315538223863
 31
0.0
 11
174.4744852776855
 21
13.82145433189185
 31
0.0
 11
174.4276419021443
 21
13.81626739612927
 31
0.0
 11
174.3992532136326
 21
13.90360966173244
 31
0.0
 11
174.3622721815899
 21
14.0072965627482
 31
0.0
 11
174.3188386236701
 21
14.12159987001127
 31
0.0
 11
174.2711055866937
 21
14.24113531268969
 31
0.0
 11
174.2208160133237
 21
14.36408057307565
 31
0.0
 11
174.1696467003932
 21
14.48883822929446
 31
0.0
 11
174.1197531801326
 21
14.61134141502772
 31
0.0
 11
174.0733119111841
 21
14.72784517367917
 31
0.0
 11
173.9623611907589
 21
14.73087465284506
 31
0.0
 11
173.849730922509
 21
14.73300454867789
 31
0.0
 11
173.736215206945
 21
14.7343219531914
 31
0.0
 11
173.6227000476801
 21
14.73473315978852
 31
0.0
 11
173.5169185312816
 21
14.7343219531914
 31
0.0
 11
173.4128501919225
 21
14.73300454867789
 31
0.0
 11
173.3087951724045
 21
14.73087465284506
 31
0.0
 11
173.2030010615596
 21
14.72784517367917
 31
0.0
 11
173.0980914750139
 21
14.4660443751335
 31
0.0
 11
173.0034868690331
 21
14.2171023265846
 31
0.0
 11
172.9252231210298
 21
13.99559756969557
 31
0.0
 11
172.8693431224555
 21
13.81626739612927
 31
0.0
 11
172.8082651639442
 21
13.82145433189186
 31
0.0
 11
172.7420873618131
 21
13.82315538223863
 31
0.0
 11
172.6758390041282
 21
13.82145433189185
 31
0.0
 11
172.6147963233938
 21
13.81626739612927
 31
0.0
 11
172.8899684951931
 21
14.41656508695142
 31
0.0
 11
173.1582945734171
 21
15.01343642360775
 31
0.0
 11
173.4240277350405
 21
15.61366245644381
 31
0.0
 11
173.6914740737033
 21
16.22421385386062
 31
0.0
 11
173.7241589339806
 21
16.22421385386062
 31
0.0
 11
173.7568437942579
 21
16.22421385386062
 31
0.0
 11
173.8428300681058
 21
16.01658539037083
 31
0.0
 11
173.9357285813609
 21
15.79254614563517
 31
0.0
 11
174.0328714521464
 21
15.55908663180469
 31
0.0
 11
174.1317936458032
 21
15.32298128464145
 31
0.0
 11
174.2315341249927
 21
15.08649780379784
 31
0.0
 11
174.3313071129354
 21
14.8516878125371
 31
0.0
 11
174.4280608257449
 21
14.6259949219685
 31
0.0
 11
174.5188084970408
 21
14.41658052097919
 31
0.0
 11
174.6022150834546
 21
14.22607611130461
 31
0.0
 11
174.6770293263377
 21
14.05708232662466
 31
0.0
 11
174.7410729186604
 21
13.91781337700667
 31
0.0
 11
174.7922649500513
 21
13.81626739612927
 31
0.0
  0
SPLINE
  5
A6
102
{ACAD_REACTORS
330
C3
102
}
330
48
100
AcDbEntity
  8
_U_30EC_U_30A4_U_30E4_U_30FC_1
  6
Continuous
 62
     2
100
AcDbSpline
210
0.0
220
0.0
230
1.0
 70
    11
 71
     3
 72
    25
 73
    21
 74
    19
 42
0.000000001
 43
0.0000000001
 44
0.00000001
 40
0.0
 40
0.0
 40
0.0
 40
0.0
 40
0.091147996906539
 40
0.1858117896205802
 40
0.2804128399735343
 40
0.3715889190715647
 40
0.4679080494219561
 40
0.5642683809229231
 40
0.6605683222645559
 40
0.7569653015811109
 40
0.8561348172523592
 40
1.092615965104389
 40
1.374867658141983
 40
1.61134881201172
 40
1.710518328425368
 40
1.809403163726687
 40
2.045205463294189
 40
2.32664691762225
 40
2.562449217190712
 40
2.661334043834031
 40
2.661334043834031
 40
2.661334043834031
 40
2.661334043834031
 10
173.2683700567199
 20
14.88614538197292
 30
0.0
 10
173.2987525917922
 20
14.88598079714554
 30
0.0
 10
173.3606895889112
 20
14.88564528689922
 30
0.0
 10
173.454135696033
 20
14.88269055452
 30
0.0
 10
173.5475095236358
 20
14.8797775287715
 30
0.0
 10
173.6417760753477
 20
14.87894201643417
 30
0.0
 10
173.7354964790967
 20
14.87996644658046
 30
0.0
 10
173.8352040303205
 20
14.87916977470972
 30
0.0
 10
173.9188949546313
 20
14.88921410235219
 30
0.0
 10
174.0637996315046
 20
14.86234617674165
 30
0.0
 10
173.9396132444802
 20
15.03665530280049
 30
0.0
 10
173.8965867286282
 20
15.19651711006091
 30
0.0
 10
173.780892214221
 20
15.45518458550216
 30
0.0
 10
173.7017565431257
 20
15.59231052861857
 30
0.0
 10
173.6431576621816
 20
15.80937033134077
 30
0.0
 10
173.5864803939438
 20
15.59266134213428
 30
0.0
 10
173.5052809900477
 20
15.45327012438235
 30
0.0
 10
173.4063701281488
 20
15.20406969370195
 30
0.0
 10
173.325362509426
 20
15.01925830226073
 30
0.0
 10
173.2813683325838
 20
14.91650446856116
 30
0.0
 10
173.2683700567199
 20
14.88614538197292
 30
0.0
 11
173.2683700567199
 21
14.88614538197292
 31
0.0
 11
173.3595137737821
 21
14.88526123266759
 31
0.0
 11
173.4541428297582
 21
14.88269697919599
 31
0.0
 11
173.5487082179706
 21
14.88009965280777
 31
0.0
 11
173.6398803250197
 21
14.8792485764191
 31
0.0
 11
173.7361985777707
 21
14.87965978301621
 31
0.0
 11
173.8325499034376
 21
14.88097718752971
 31
0.0
 11
173.9288262638287
 21
14.88310818579312
 31
0.0
 11
174.0251753846344
 21
14.88614538197292
 31
0.0
 11
173.9854633323142
 21
14.9770164219502
 31
0.0
 11
173.8907653613969
 21
15.19370890189602
 31
0.0
 11
173.7777387509471
 21
15.45234186183135
 31
0.0
 11
173.6830407800297
 21
15.66903434177717
 31
0.0
 11
173.6433287277095
 21
15.75990538175445
 31
0.0
 11
173.6043330259266
 21
15.66903434177717
 31
0.0
 11
173.5113432755212
 21
15.45234186183135
 31
0.0
 11
173.4003555089082
 21
15.19370890189602
 31
0.0
 11
173.3073657585028
 21
14.9770164219502
 31
0.0
 11
173.2683700567199
 21
14.88614538197292
 31
0.0
  0
SPLINE
  5
A7
102
{ACAD_REACTORS
330
C4
102
}
330
48
100
AcDbEntity
  8
_U_30EC_U_30A4_U_30E4_U_30FC_1
  6
Continuous
 62
     2
100
AcDbSpline
210
0.0
220
0.0
230
1.0
 70
    11
 71
     3
 72
    95
 73
    91
 74
    89
 42
0.000000001
 43
0.0000000001
 44
0.00000001
 40
0.0
 40
0.0
 40
0.0
 40
0.0
 40
0.6550406656911896
 40
1.308087289031951
 40
1.420803739835825
 40
1.566130759770822
 40
1.757067341888488
 40
2.006513545026483
 40
2.087328263121573
 40
2.185328872295653
 40
2.294612454748397
 40
2.408936380534849
 40
2.526802767798589
 40
2.646360524615635
 40
2.762535723971602
 40
2.870057342870175
 40
2.966883448431674
 40
3.050803243518325
 40
3.115818222436635
 40
3.156030057150265
 40
3.21391422508011
 40
3.276689026450568
 40
3.342960320981317
 40
3.40423066715051
 40
3.453822809493315
 40
3.532499827188365
 40
3.634775188507109
 40
3.754909333008102
 40
3.889736761660604
 40
4.035769602175166
 40
4.18725668119755
 40
4.3387336856759
 40
4.488478734676063
 40
4.634708317831538
 40
4.771493189921213
 40
4.892686571561143
 40
5.199775528944391
 40
5.460353566929579
 40
5.667603142345454
 40
5.814722905404435
 40
5.828990806219761
 40
5.855488336304487
 40
5.869756237118847
 40
6.189796507762836
 40
6.531890469873039
 40
6.883053637016969
 40
7.230512024911523
 40
7.566966656764552
 40
7.885203559707465
 40
8.172887439719279
 40
8.418011594062799
 40
8.443926721190723
 40
8.51076047061321
 40
8.602145393795722
 40
8.701714041647165
 40
8.793098965075398
 40
8.85993271505797
 40
8.88584784260362
 40
9.242301256612837
 40
9.589275455016779
 40
9.921808543164198
 40
10.2347962429847
 40
10.29968150889189
 40
10.3532349388778
 40
10.40154625355162
 40
10.46482922477829
 40
10.55973900668409
 40
10.69239545985621
 40
10.84920353475676
 40
11.01626328594783
 40
11.18672024367447
 40
11.35372582577216
 40
11.50257442292431
 40
11.61866495023295
 40
11.7132986915288
 40
11.82511050573912
 40
11.94464880845721
 40
12.0692924264251
 40
12.19707290435181
 40
12.32562632860533
 40
12.45034565331283
 40
12.56646595170331
 40
12.67099007414639
 40
12.76077625936787
 40
12.82703233506699
 40
12.87429132785997
 40
12.89831990323337
 40
12.92234847860025
 40
13.53984767410323
 40
14.18294284359363
 40
14.18294284359363
 40
14.18294284359363
 40
14.18294284359363
 10
177.3067935648022
 20
14.70898038201725
 30
0.0
 10
177.1752019758551
 20
14.82265058603231
 30
0.0
 10
176.9124193802728
 20
15.04964496316154
 30
0.0
 10
176.3997393441022
 20
15.89214462956286
 30
0.0
 10
176.4106654595363
 20
15.5342337757702
 30
0.0
 10
176.4041226527993
 20
15.39267392272133
 30
0.0
 10
176.4028026631773
 20
15.19421305299281
 30
0.0
 10
176.4018117602538
 20
15.02150296045983
 30
0.0
 10
176.4024101751974
 20
14.8786537325758
 30
0.0
 10
176.4038994301883
 20
14.78265005413358
 30
0.0
 10
176.4055683588473
 20
14.6754550326314
 30
0.0
 10
176.407193495462
 20
14.56164211517582
 30
0.0
 10
176.4092429501684
 20
14.44441572604587
 30
0.0
 10
176.4123165501929
 20
14.3265641123297
 30
0.0
 10
176.4156339697043
 20
14.2122808732062
 30
0.0
 10
176.4193605340281
 20
14.10521401867277
 30
0.0
 10
176.4217338161425
 20
14.01007408766922
 30
0.0
 10
176.4278718888359
 20
13.92558557205695
 30
0.0
 10
176.4239784495947
 20
13.86923087298142
 30
0.0
 10
176.4455230443077
 20
13.79825022472357
 30
0.0
 10
176.3680940058617
 20
13.82902677604484
 30
0.0
 10
176.3116353240192
 20
13.82011242517615
 30
0.0
 10
176.2540495896807
 20
13.82896218398274
 30
0.0
 10
176.1690163478474
 20
13.79738225225946
 30
0.0
 10
176.2009714146383
 20
13.8809515599219
 30
0.0
 10
176.1990705282539
 20
13.94882608968309
 30
0.0
 10
176.21079600473
 20
14.05233256764418
 30
0.0
 10
176.2164241053
 20
14.17002125616696
 30
0.0
 10
176.2237902178941
 20
14.30388609164423
 30
0.0
 10
176.2320759701611
 20
14.44764152872632
 30
0.0
 10
176.2398851897426
 20
14.59714022843445
 30
0.0
 10
176.2457571222659
 20
14.74792549402077
 30
0.0
 10
176.2503667817969
 20
14.89699943878438
 30
0.0
 10
176.2542632117543
 20
15.04122913163022
 30
0.0
 10
176.2570715126564
 20
15.17583905213017
 30
0.0
 10
176.2576698755022
 20
15.36469614347354
 30
0.0
 10
176.2616023867151
 20
15.58975494313153
 30
0.0
 10
176.2442175378498
 20
15.86367091125708
 30
0.0
 10
176.2850417342583
 20
16.02787112098596
 30
0.0
 10
176.1995153256003
 20
16.22749661465099
 30
0.0
 10
176.2660558907688
 20
16.22385458403977
 30
0.0
 10
176.2838724273231
 20
16.22413447160854
 30
0.0
 10
176.4056801797502
 20
16.22632927398611
 30
0.0
 10
176.5080770335463
 20
15.94675118721513
 30
0.0
 10
176.7580021509357
 20
15.74563008536007
 30
0.0
 10
176.9870035331111
 20
15.47792614987909
 30
0.0
 10
177.224515121311
 20
15.22646413862384
 30
0.0
 10
177.4486090740772
 20
14.9896997406135
 30
0.0
 10
177.6750716283011
 20
14.7321869258308
 30
0.0
 10
177.8325687886515
 20
14.61649335056924
 30
0.0
 10
178.0472129612675
 20
14.27997152538794
 30
0.0
 10
178.0422645974619
 20
14.40464754091602
 30
0.0
 10
178.0433931602547
 20
14.46327691935736
 30
0.0
 10
178.0428877841517
 20
14.55043662371976
 30
0.0
 10
178.0430475158114
 20
14.64416143182872
 30
0.0
 10
178.0430054891319
 20
14.73018971297035
 30
0.0
 10
178.0430202040374
 20
14.79153891945495
 30
0.0
 10
178.0429706255984
 20
14.94135231520993
 30
0.0
 10
178.0458811522811
 20
15.17989612510104
 30
0.0
 10
178.0259521041163
 20
15.544865098687
 30
0.0
 10
178.0750433936247
 20
15.80799631993413
 30
0.0
 10
177.9177951509181
 20
16.21928904947752
 30
0.0
 10
178.0762112872422
 20
16.16398282551747
 30
0.0
 10
178.131168047863
 20
16.16199686500175
 30
0.0
 10
178.182788776674
 20
16.16264778248252
 30
0.0
 10
178.2713198965366
 20
16.20369527738244
 30
0.0
 10
178.2204898303169
 20
16.05696326622985
 30
0.0
 10
178.2313389930285
 20
15.95019971954434
 30
0.0
 10
178.2166036994847
 20
15.79085705414112
 30
0.0
 10
178.2099976446204
 20
15.62853061652875
 30
0.0
 10
178.2014961399915
 20
15.45992521892395
 30
0.0
 10
178.19432272022
 20
15.29814814703541
 30
0.0
 10
178.1889063215389
 20
15.15422331457932
 30
0.0
 10
178.1871713967648
 20
15.03437493466925
 30
0.0
 10
178.1875440672319
 20
14.92686101590515
 30
0.0
 10
178.1873656126262
 20
14.81820024645585
 30
0.0
 10
178.187701086314
 20
14.6995357016553
 30
0.0
 10
178.1890040622184
 20
14.57555163512741
 30
0.0
 10
178.1908887351573
 20
14.44858294171105
 30
0.0
 10
178.1925004454853
 20
14.32153861551032
 30
0.0
 10
178.194140313743
 20
14.19854884492178
 30
0.0
 10
178.1962570745753
 20
14.0830093138376
 30
0.0
 10
178.1963848422363
 20
13.98090903955837
 30
0.0
 10
178.2006514396554
 20
13.89009848838156
 30
0.0
 10
178.1908440085289
 20
13.83213621208786
 30
0.0
 10
178.2118474771689
 20
13.76517130132029
 30
0.0
 10
178.1725639739896
 20
13.77291153966687
 30
0.0
 10
177.9595307117747
 20
13.75755254145192
 30
0.0
 10
177.7636297943186
 20
14.31403058094468
 30
0.0
 10
177.4611197631544
 20
14.5755603534851
 30
0.0
 10
177.3067935648022
 20
14.70898038201725
 30
0.0
 11
177.3067935648022
 21
14.70898038201725
 31
0.0
 11
176.8595529338511
 21
15.18757635411978
 31
0.0
 11
176.4124049070644
 21
15.6635264928897
 31
0.0
 11
176.4089664262494
 21
15.55086249986232
 31
0.0
 11
176.4055610183501
 21
15.4055753818431
 31
0.0
 11
176.4029636920275
 21
15.21465645827968
 31
0.0
 11
176.4021126156603
 21
14.96521170139757
 31
0.0
 11
176.4025239230289
 21
14.8843980295428
 31
0.0
 11
176.4038420329817
 21
14.78640628477561
 31
0.0
 11
176.4055192267719
 21
14.67713557299739
 31
0.0
 11
176.4072367127519
 21
14.56282454872038
 31
0.0
 11
176.4094007838772
 21
14.44497802965265
 31
0.0
 11
176.4124049070644
 21
14.32545802100199
 31
0.0
 11
176.4158359733138
 21
14.20933349846156
 31
0.0
 11
176.4192928929999
 21
14.1018674655023
 31
0.0
 11
176.4227085253089
 21
14.00510162351264
 31
0.0
 11
176.4261896983794
 21
13.92125406276972
 31
0.0
 11
176.4296006184313
 21
13.85632862007759
 31
0.0
 11
176.4330776843148
 21
13.81626739612927
 31
0.0
 11
176.3754263821572
 21
13.82145433189186
 31
0.0
 11
176.3126746318309
 21
13.82315538223863
 31
0.0
 11
176.2464251717157
 21
13.82145433189185
 31
0.0
 11
176.1853747739676
 21
13.81626739612927
 31
0.0
 11
176.1926772737813
 21
13.8653189412559
 31
0.0
 11
176.2008793569054
 21
13.94356725720855
 31
0.0
 11
176.2090098822349
 21
14.04551893253029
 31
0.0
 11
176.2163406441397
 21
14.16542920159752
 31
0.0
 11
176.2236358280422
 21
14.3000591234389
 31
0.0
 11
176.2318444255596
 21
14.44586107652745
 31
0.0
 11
176.2395504149466
 21
14.59715203135073
 31
0.0
 11
176.2455763002094
 21
14.74850913200734
 31
0.0
 11
176.2503046247416
 21
14.89817951391436
 31
0.0
 11
176.254192897212
 21
15.04435739582223
 31
0.0
 11
176.2567527408965
 21
15.18111831592696
 31
0.0
 11
176.2576324804574
 21
15.30230850686889
 31
0.0
 11
176.257192610677
 21
15.60939715262544
 31
0.0
 11
176.2559126888347
 21
15.86997204839365
 31
0.0
 11
176.2528658717893
 21
16.07719922716125
 31
0.0
 11
176.2473049112763
 21
16.22421385386062
 31
0.0
 11
176.2615728121469
 21
16.22421385386062
 31
0.0
 11
176.2880703423353
 21
16.22421385386062
 31
0.0
 11
176.3023382432059
 21
16.22421385386062
 31
0.0
 11
176.5194743650277
 21
15.98910179662772
 31
0.0
 11
176.751274412308
 21
15.73751281231562
 31
0.0
 11
176.9894816018839
 21
15.47949555543571
 31
0.0
 11
177.2260074557522
 21
15.22497079855489
 31
0.0
 11
177.4555698717705
 21
14.97899759549137
 31
0.0
 11
177.6731797360104
 21
14.74678934034106
 31
0.0
 11
177.8713724913708
 21
14.538266805671
 31
0.0
 11
178.0430143099087
 21
14.36326697932588
 31
0.0
 11
178.0430143099087
 21
14.38918210687042
 31
0.0
 11
178.0430143099087
 21
14.45601585685371
 31
0.0
 11
178.0430143099087
 21
14.54740078030024
 31
0.0
 11
178.0430143099087
 21
14.64696942823453
 31
0.0
 11
178.0430143099087
 21
14.73835435168106
 31
0.0
 11
178.0430143099087
 21
14.80518810166435
 31
0.0
 11
178.0430143099087
 21
14.83110322920889
 31
0.0
 11
178.0417233637609
 21
15.18755430550867
 31
0.0
 11
178.0378461155959
 21
15.53450684014414
 31
0.0
 11
178.0296197790002
 21
15.86693815950552
 31
0.0
 11
178.0154535467228
 21
16.17960510387179
 31
0.0
 11
178.0790351249619
 21
16.16666367158334
 31
0.0
 11
178.1324170159612
 21
16.16238072887607
 31
0.0
 11
178.1805381084834
 21
16.16666367158334
 31
0.0
 11
178.2424836798197
 21
16.17960510387179
 31
0.0
 11
178.2351216487575
 21
16.084981284451
 31
0.0
 11
178.2269790968819
 21
15.95257496503965
 31
0.0
 11
178.2183705364004
 21
15.79600336785656
 31
0.0
 11
178.2097547223215
 21
15.62916593734271
 31
0.0
 11
178.2016187850289
 21
15.45890325509361
 31
0.0
 11
178.1942501393836
 21
15.29206031242699
 31
0.0
 11
178.1891406931522
 21
15.14329943572809
 31
0.0
 11
178.1874503478904
 21
15.02722121527101
 31
0.0
 11
178.1874503478904
 21
14.93258747397518
 31
0.0
 11
178.1874503478904
 21
14.82077565976707
 31
0.0
 11
178.1878461204497
 21
14.70123801222748
 31
0.0
 11
178.1890819450708
 21
14.5766005209392
 31
0.0
 11
178.1908392193317
 21
14.44883212687391
 31
0.0
 11
178.1925303477609
 21
14.32028982655879
 31
0.0
 11
178.1942876220215
 21
14.19558288214555
 31
0.0
 11
178.1959787504506
 21
14.0794748960635
 31
0.0
 11
178.1972884379172
 21
13.97495896727017
 31
0.0
 11
178.1976985420735
 21
13.88517371555652
 31
0.0
 11
178.1976985420735
 21
13.81891763918416
 31
0.0
 11
178.1976985420735
 21
13.77165864614041
 31
0.0
 11
178.1736699662976
 21
13.77165864614041
 31
0.0
 11
178.1496413905217
 21
13.77165864614041
 31
0.0
 11
177.7410729200423
 21
14.23466735262191
 31
0.0
 11
177.3067935648022
 21
14.70898038201725
 31
0.0
  0
SPLINE
  5
A8
102
{ACAD_REACTORS
330
C5
102
}
330
48
100
AcDbEntity
  8
_U_30EC_U_30A4_U_30E4_U_30FC_1
  6
Continuous
 62
     2
100
AcDbSpline
210
0.0
220
0.0
230
1.0
 70
    11
 71
     3
 72
   110
 73
   106
 74
   104
 42
0.000000001
 43
0.0000000001
 44
0.00000001
 40
0.0
 40
0.0
 40
0.0
 40
0.0
 40
0.2203406257277767
 40
0.4407808782838128
 40
0.5952494494615108
 40
0.748843165939311
 40
0.9023581831309664
 40
1.056801968670408
 40
1.210736449099937
 40
1.363041386539872
 40
1.515315729683187
 40
1.669377239148166
 40
1.721611652756661
 40
1.773199502943046
 40
1.824933793210101
 40
1.877110426488087
 40
1.982682281206907
 40
2.078781667087744
 40
2.172809640822465
 40
2.271937807379119
 40
2.378349933379512
 40
2.494131557736701
 40
2.626681683943807
 40
2.783145050796177
 40
2.890701232941024
 40
2.993130312454917
 40
3.099869730691908
 40
3.22023781669141
 40
3.35269548273769
 40
3.48173280638995
 40
3.593499473690472
 40
3.674323013331986
 40
3.817951711952907
 40
3.946167120793847
 40
4.061405053453618
 40
4.166480796003174
 40
4.262478775059296
 40
4.35073667355128
 40
4.433071991254109
 40
4.511216293814655
 40
4.564262454117976
 40
4.618474415571603
 40
4.6701284887542
 40
4.72229687912639
 40
4.819540945314259
 40
4.931194984128116
 40
5.049996040257757
 40
5.168643755415303
 40
5.283970811762515
 40
5.392260784910227
 40
5.486512254876359
 40
5.559178233949729
 40
5.5914258528534
 40
5.626215969637783
 40
5.667155838674323
 40
5.717449290214136
 40
5.738402360944749
 40
5.784499116553716
 40
5.830595872164684
 40
5.851548942897542
 40
5.873019280661657
 40
5.924217778408199
 40
5.985325662817578
 40
6.036524160567595
 40
6.057994498334123
 40
6.236847789607371
 40
6.381409928945537
 40
6.49319042417858
 40
6.57406753423039
 40
6.691018086205427
 40
6.814881554220402
 40
6.944307823240269
 40
7.071266716065893
 40
7.193488604461738
 40
7.30904277312805
 40
7.41400720317062
 40
7.505140441886431
 40
7.531150360599583
 40
7.559221645322178
 40
7.587202218920829
 40
7.612569159499039
 40
7.662550809480914
 40
7.70287887576405
 40
7.857328205230864
 40
8.010799568088482
 40
8.16525639965746
 40
8.322232698713885
 40
8.479564855016486
 40
8.63521623029069
 40
8.790882550925664
 40
8.948305154947258
 40
9.168271839032949
 40
9.387358980987225
 40
9.608047961033469
 40
9.832914234792678
 40
9.858338694963013
 40
9.925366817230017
 40
10.0201307142276
 40
10.12876249858998
 40
10.23739428295248
 40
10.3321581799519
 40
10.39918630222393
 40
10.42461076239782
 40
10.64992019336942
 40
10.87188524531187
 40
10.87188524531187
 40
10.87188524531187
 40
10.87188524531187
 10
179.9057788376619
 20
15.7392326039819
 30
0.0
 10
179.9092864933542
 20
15.80616462073804
 30
0.0
 10
179.9163033987663
 20
15.94005891915858
 30
0.0
 10
179.8198027599072
 20
16.2254855497147
 30
0.0
 10
180.0510134726109
 20
16.16284386190283
 30
0.0
 10
180.1919290057156
 20
16.17001554055992
 30
0.0
 10
180.3490417757589
 20
16.16235883078244
 30
0.0
 10
180.5025913427288
 20
16.16252752283041
 30
0.0
 10
180.6545104935081
 20
16.16182040535431
 30
0.0
 10
180.8142214813232
 20
16.1721015835164
 30
0.0
 10
180.9408972601117
 20
16.1549651108075
 30
0.0
 10
181.1370821122082
 20
16.22727260107146
 30
0.0
 10
181.1034395279078
 20
16.12640699080118
 30
0.0
 10
181.1052011317184
 20
16.0761925394767
 30
0.0
 10
181.1027342073458
 20
16.02712335586465
 30
0.0
 10
181.1347076966012
 20
15.94063490846997
 30
0.0
 10
181.0010399903256
 20
15.98997438608337
 30
0.0
 10
180.9172208688056
 20
15.98430634314168
 30
0.0
 10
180.8173861139324
 20
15.99465516706298
 30
0.0
 10
180.7186576720145
 20
16.00086450411086
 30
0.0
 10
180.6121532771111
 20
16.00697763816778
 30
0.0
 10
180.4910511698059
 20
16.01588883484585
 30
0.0
 10
180.3703381502453
 20
16.00521605912383
 30
0.0
 10
180.1812553843438
 20
16.06468503080364
 30
0.0
 10
180.2129028505311
 20
15.9055832007754
 30
0.0
 10
180.1995563316833
 20
15.80839128339904
 30
0.0
 10
180.1974958426451
 20
15.69634065110103
 30
0.0
 10
180.195818804467
 20
15.5769968562935
 30
0.0
 10
180.1973336794233
 20
15.45032592155109
 30
0.0
 10
180.195658247867
 20
15.32301588016116
 30
0.0
 10
180.2058844271658
 20
15.22451566404464
 30
0.0
 10
180.1779006596583
 20
15.08388702625631
 30
0.0
 10
180.3508029999306
 20
15.13989551134094
 30
0.0
 10
180.4645020202773
 20
15.12719951478499
 30
0.0
 10
180.5840151672239
 20
15.13448377051254
 30
0.0
 10
180.6888491425072
 20
15.13878017056756
 30
0.0
 10
180.7843084898612
 20
15.14330568258977
 30
0.0
 10
180.8763823507033
 20
15.151492011462
 30
0.0
 10
180.947655178244
 20
15.14643850638112
 30
0.0
 10
181.0544931705684
 20
15.18536425031673
 30
0.0
 10
181.0226603598037
 20
15.10517122005879
 30
0.0
 10
181.0266164503929
 20
15.05562936846033
 30
0.0
 10
181.0234502392014
 20
15.0055747803982
 30
0.0
 10
181.0550791490584
 20
14.92128847612021
 30
0.0
 10
180.9210133677692
 20
14.97425365495158
 30
0.0
 10
180.82923227932
 20
14.96540080890441
 30
0.0
 10
180.7079729189602
 20
14.97570049965154
 30
0.0
 10
180.5914113119771
 20
14.97748911767502
 30
0.0
 10
180.4783375745879
 20
14.97787017109694
 30
0.0
 10
180.3679246308472
 20
14.9841544947218
 30
0.0
 10
180.2898124067841
 20
14.97189133255363
 30
0.0
 10
180.1913625833644
 20
15.00453887616125
 30
0.0
 10
180.2012355173562
 20
14.94769748054206
 30
0.0
 10
180.1973923244402
 20
14.91392130557984
 30
0.0
 10
180.1966789884269
 20
14.87119604709411
 30
0.0
 10
180.1963369642975
 20
14.83401607262153
 30
0.0
 10
180.1963834255346
 20
14.7948723737077
 30
0.0
 10
180.1963649429926
 20
14.75716849497685
 30
0.0
 10
180.1963703431807
 20
14.71944955232403
 30
0.0
 10
180.1963697214201
 20
14.6899432474515
 30
0.0
 10
180.1963698151545
 20
14.65873577699301
 30
0.0
 10
180.1963704287921
 20
14.61414424908085
 30
0.0
 10
180.1963671499336
 20
14.5596395650885
 30
0.0
 10
180.1963759623481
 20
14.51505540201448
 30
0.0
 10
180.1963359653416
 20
14.4311780858574
 30
0.0
 10
180.1976024270255
 20
14.31737520677679
 30
0.0
 10
180.1950274117842
 20
14.16830395933709
 30
0.0
 10
180.2065009381719
 20
14.06597203813906
 30
0.0
 10
180.1823506222265
 20
13.93338903885836
 30
0.0
 10
180.3332993946476
 20
13.97895732272021
 30
0.0
 10
180.4428436671556
 20
13.96427012162349
 30
0.0
 10
180.5733970473921
 20
13.96920435125063
 30
0.0
 10
180.6990312209513
 20
13.97257705323362
 30
0.0
 10
180.8188730625602
 20
13.97711497498773
 30
0.0
 10
180.9391362611427
 20
13.99048536182005
 30
0.0
 10
181.0222761663516
 20
13.98068712782597
 30
0.0
 10
181.1456080421075
 20
14.04126214623322
 30
0.0
 10
181.1244269203958
 20
13.9853246013402
 30
0.0
 10
181.1235950270118
 20
13.95939249372346
 30
0.0
 10
181.1218963707559
 20
13.93197256190938
 30
0.0
 10
181.1217974888831
 20
13.89738195206385
 30
0.0
 10
181.120365930133
 20
13.86050408220767
 30
0.0
 10
181.1532804192192
 20
13.76846841021807
 30
0.0
 10
180.9551306988108
 20
13.84132015974831
 30
0.0
 10
180.8300548294892
 20
13.81825726508607
 30
0.0
 10
180.6673071295156
 20
13.82454021985787
 30
0.0
 10
180.5129366450002
 20
13.82260943909927
 30
0.0
 10
180.3566670436944
 20
13.82393762599269
 30
0.0
 10
180.1970544465282
 20
13.82059872487863
 30
0.0
 10
180.0540326342237
 20
13.83265795728241
 30
0.0
 10
179.8197144881628
 20
13.76952001976917
 30
0.0
 10
179.9173810751197
 20
14.05620527466318
 30
0.0
 10
179.900686878006
 20
14.2498830814266
 30
0.0
 10
179.9146296709686
 20
14.47848242880296
 30
0.0
 10
179.9142987846632
 20
14.63384593955048
 30
0.0
 10
179.9143078119265
 20
14.73966336444127
 30
0.0
 10
179.9143055876316
 20
14.80205784124215
 30
0.0
 10
179.914306555189
 20
14.89220425248327
 30
0.0
 10
179.9143065473262
 20
14.99621167157438
 30
0.0
 10
179.9143053861104
 20
15.10022131375296
 30
0.0
 10
179.9143090971502
 20
15.19036243688767
 30
0.0
 10
179.9143011051052
 20
15.25276803097214
 30
0.0
 10
179.9143334275019
 20
15.35868835961119
 30
0.0
 10
179.913144078832
 20
15.5162671654474
 30
0.0
 10
179.9082216489257
 20
15.66528219822065
 30
0.0
 10
179.9057788376619
 20
15.7392326039819
 30
0.0
 11
179.9057788376619
 21
15.7392326039819
 31
0.0
 11
179.8966918223741
 21
15.95938578101018
 31
0.0
 11
179.8868249573133
 21
16.17960510387179
 31
0.0
 11
180.04115751414
 21
16.17312391463728
 31
0.0
 11
180.1946500189046
 21
16.16754892331925
 31
0.0
 11
180.3481160653367
 21
16.1636716750563
 31
0.0
 11
180.5025544554939
 21
16.16238072887607
 31
0.0
 11
180.6564835227473
 21
16.1636716750563
 31
0.0
 11
180.8087391004601
 21
16.16754892331925
 31
0.0
 11
180.9609113551074
 21
16.17312391463728
 31
0.0
 11
181.1148364762484
 21
16.17960510387179
 31
0.0
 11
181.1070811703124
 21
16.12794961777358
 31
0.0
 11
181.1044991623591
 21
16.07642642334204
 31
0.0
 11
181.1070811703124
 21
16.02475660564659
 31
0.0
 11
181.1148364762484
 21
15.97315954836784
 31
0.0
 11
181.0094874054411
 21
15.98001446156057
 31
0.0
 11
180.913637570006
 21
15.98693552058657
 31
0.0
 11
180.8198593171903
 21
15.99378381919598
 31
0.0
 11
180.7209679915881
 21
16.0006321178054
 31
0.0
 11
180.6147532199924
 21
16.00710999974824
 31
0.0
 11
180.4991060528038
 21
16.01268829835794
 31
0.0
 11
180.3666126447258
 21
16.01656554662087
 31
0.0
 11
180.2101546018424
 21
16.01785649280111
 31
0.0
 11
180.2062663293721
 21
15.91037061609187
 31
0.0
 11
180.20153800484
 21
15.80805072896465
 31
0.0
 11
180.1976607566749
 21
15.70138175329687
 31
0.0
 11
180.1963698105272
 21
15.58102059013249
 31
0.0
 11
180.1967799146836
 21
15.44856355891564
 31
0.0
 11
180.1980896021502
 21
15.31953288186454
 31
0.0
 11
180.199407457705
 21
15.20777398432308
 31
0.0
 11
180.1998191153661
 21
15.12695149302384
 31
0.0
 11
180.3434452935875
 21
15.1278025694125
 31
0.0
 11
180.4716343930758
 21
15.13039989580077
 31
0.0
 11
180.5868078221796
 21
15.13425509545253
 31
0.0
 11
180.691775631222
 21
15.13901649302076
 31
0.0
 11
180.7876346289422
 21
15.14418027774175
 31
0.0
 11
180.8757413374194
 21
15.14934406246267
 31
0.0
 11
180.9578881438497
 21
15.15491243919739
 31
0.0
 11
181.0357692335571
 21
15.16132086801525
 31
0.0
 11
181.0280180445186
 21
15.10884407115337
 31
0.0
 11
181.0254328449317
 21
15.05469378470857
 31
0.0
 11
181.0280180445186
 21
15.00310444444367
 31
0.0
 11
181.0357692335571
 21
14.95151510417882
 31
0.0
 11
180.9389813454014
 21
14.96092324653757
 31
0.0
 11
180.8275950722015
 21
14.96865128473012
 31
0.0
 11
180.7089261429373
 21
14.97425273438145
 31
0.0
 11
180.5903167449213
 21
14.97726788195011
 31
0.0
 11
180.4750025117521
 21
14.97898767361638
 31
0.0
 11
180.3667261950701
 21
14.98070746528257
 31
0.0
 11
180.2724839317709
 21
14.98202486979616
 31
0.0
 11
180.1998191153661
 21
14.98243607639329
 31
0.0
 11
180.199407457705
 21
14.9501910850819
 31
0.0
 11
180.1980896021502
 21
14.91542593752117
 31
0.0
 11
180.1967799146836
 21
14.87450702260084
 31
0.0
 11
180.1963698105272
 21
14.82421524309951
 31
0.0
 11
180.1963698105272
 21
14.80326217235821
 31
0.0
 11
180.1963698105272
 21
14.75716541672736
 31
0.0
 11
180.1963698105272
 21
14.71106866109651
 31
0.0
 11
180.1963698105272
 21
14.69011559035521
 31
0.0
 11
180.1963698105272
 21
14.6686452525828
 31
0.0
 11
180.1963698105272
 21
14.61744675481784
 31
0.0
 11
180.1963698105272
 21
14.55633887038868
 31
0.0
 11
180.1963698105272
 21
14.50514037262371
 31
0.0
 11
180.1963698105272
 21
14.4836700348513
 31
0.0
 11
180.1967799146836
 21
14.30481721371548
 31
0.0
 11
180.1980896021502
 21
14.16026100715443
 31
0.0
 11
180.2002868589709
 21
14.04850210961289
 31
0.0
 11
180.2032586986986
 21
13.96767961831365
 31
0.0
 11
180.3202092517448
 21
13.96767961831365
 31
0.0
 11
180.4440727208747
 21
13.96767961831365
 31
0.0
 11
180.5734925526422
 21
13.9689705644939
 31
0.0
 11
180.7003922282244
 21
13.97284781275683
 31
0.0
 11
180.8224658067973
 21
13.97886708358865
 31
0.0
 11
180.9377587499464
 21
13.98663260442002
 31
0.0
 11
181.0421754573518
 21
13.99734161483402
 31
0.0
 11
181.1320599255449
 21
14.01237656274692
 31
0.0
 11
181.1264254031192
 21
13.98698427976715
 31
0.0
 11
181.1234433285424
 21
13.95907184053801
 31
0.0
 11
181.1221339881201
 21
13.93112191867002
 31
0.0
 11
181.1217235369196
 21
13.90575829888472
 31
0.0
 11
181.1243087365065
 21
13.85584355063326
 31
0.0
 11
181.1320599255449
 21
13.81626739612927
 31
0.0
 11
180.9776977178345
 21
13.82145433189186
 31
0.0
 11
180.8242357818766
 21
13.82315538223863
 31
0.0
 11
180.6697789496484
 21
13.82315538223863
 31
0.0
 11
180.5128026496768
 21
13.82315538223863
 31
0.0
 11
180.3554704921537
 21
13.82315538223863
 31
0.0
 11
180.1998191153661
 21
13.82315538223863
 31
0.0
 11
180.0441620874242
 21
13.82145433189185
 31
0.0
 11
179.8868249573133
 21
13.81626739612927
 31
0.0
 11
179.896691822374
 21
14.0360126738521
 31
0.0
 11
179.9057788376619
 21
14.25491128490851
 31
0.0
 11
179.9121721518401
 21
14.47550763902003
 31
0.0
 11
179.914306345501
 21
14.70036378479716
 31
0.0
 11
179.914306345501
 21
14.72578824496875
 31
0.0
 11
179.914306345501
 21
14.79281636723932
 31
0.0
 11
179.914306345501
 21
14.88758026424254
 31
0.0
 11
179.914306345501
 21
14.99621204861208
 31
0.0
 11
179.914306345501
 21
15.10484383298161
 31
0.0
 11
179.914306345501
 21
15.19960772998483
 31
0.0
 11
179.914306345501
 21
15.2666358522554
 31
0.0
 11
179.914306345501
 21
15.29206031242699
 31
0.0
 11
179.9121721518401
 21
15.51735963528735
 31
0.0
 11
179.9057788376619
 21
15.7392326039819
 31
0.0
  0
SPLINE
  5
A9
102
{ACAD_REACTORS
330
C6
102
}
330
48
100
AcDbEntity
  8
_U_30EC_U_30A4_U_30E4_U_30FC_1
  6
Continuous
 62
     2
100
AcDbSpline
210
0.0
220
0.0
230
1.0
 70
    11
 71
     3
 72
    47
 73
    43
 74
    41
 42
0.000000001
 43
0.0000000001
 44
0.00000001
 40
0.0
 40
0.0
 40
0.0
 40
0.0
 40
0.2207912809957077
 40
0.4459404186302887
 40
0.4902387190457982
 40
0.5327473892721771
 40
0.574226045122482
 40
0.6155432630560396
 40
0.6568164066314746
 40
0.6982511618780243
 40
0.740766392931618
 40
0.7851366743173964
 40
1.010288833836196
 40
1.23108050700203
 40
1.451765243652266
 40
1.676638205891555
 40
1.720461045359526
 40
1.830018144043393
 40
1.972442372353026
 40
2.114866600677399
 40
2.224423699395025
 40
2.268246538883266
 40
2.493628801207085
 40
2.715602830286488
 40
2.93421133070624
 40
3.14950236985523
 40
3.231387784850791
 40
3.318231873853826
 40
3.405143198197871
 40
3.486970301720223
 40
3.702258172493662
 40
3.920866283533891
 40
4.142839325931682
 40
4.368221903865132
 40
4.412044743359615
 40
4.521601842095631
 40
4.664026070452111
 40
4.806450298808823
 40
4.916007397546519
 40
4.959830237042842
 40
5.184703515846879
 40
5.405387250767261
 40
5.405387250767261
 40
5.405387250767261
 40
5.405387250767261
 10
182.6507427258645
 20
15.73406440953873
 30
0.0
 10
182.6568139420002
 20
15.79758482501209
 30
0.0
 10
182.6690762107241
 20
15.92587938689623
 30
0.0
 10
182.5604706879416
 20
16.2016622017408
 30
0.0
 10
182.6761985896604
 20
16.1718813343205
 30
0.0
 10
182.7171842509016
 20
16.16765556262823
 30
0.0
 10
182.7591205797519
 20
16.16310446389605
 30
0.0
 10
182.800419662571
 20
16.16201982929485
 30
0.0
 10
182.8417032115557
 20
16.16310338195228
 30
0.0
 10
182.8836148270647
 20
16.16766112711343
 30
0.0
 10
182.9245983549019
 20
16.17187430209728
 30
0.0
 10
183.0404922843488
 20
16.20177611317534
 30
0.0
 10
182.9295652727456
 20
15.92339806609889
 30
0.0
 10
182.9574856365268
 20
15.74283140824953
 30
0.0
 10
182.9404267346969
 20
15.50961042346472
 30
0.0
 10
182.9414637282105
 20
15.34906622543146
 30
0.0
 10
182.9414099399405
 20
15.22284817558721
 30
0.0
 10
182.9414277372483
 20
15.12428963336241
 30
0.0
 10
182.9414188581081
 20
14.99280702442962
 30
0.0
 10
182.9414263928035
 20
14.86132844968649
 30
0.0
 10
182.9414129405129
 20
14.76276222694089
 30
0.0
 10
182.9414531717494
 20
14.63639735624152
 30
0.0
 10
182.9406746403817
 20
14.47482068822869
 30
0.0
 10
182.9565958319268
 20
14.24361821892915
 30
0.0
 10
182.9333468885407
 20
14.05874351972002
 30
0.0
 10
183.0360183444366
 20
13.78935602770057
 30
0.0
 10
182.8820238362837
 20
13.82660112685817
 30
0.0
 10
182.8004129802833
 20
13.82137994680535
 30
0.0
 10
182.7188192292583
 20
13.82660620378351
 30
0.0
 10
182.5648513666844
 20
13.78937069885388
 30
0.0
 10
182.6674183421917
 20
14.05875129862881
 30
0.0
 10
182.6442045316088
 20
14.24361585325414
 30
0.0
 10
182.6600444655139
 20
14.47482218565638
 30
0.0
 10
182.6593296313427
 20
14.63639712308503
 30
0.0
 10
182.6593664569907
 20
14.7627623121052
 30
0.0
 10
182.659354900027
 20
14.86132756635981
 30
0.0
 10
182.6593575019213
 20
14.99281127417219
 30
0.0
 10
182.6593648531779
 20
15.124275480312
 30
0.0
 10
182.6593442541351
 20
15.22287786275325
 30
0.0
 10
182.6594082192028
 20
15.34896149354426
 30
0.0
 10
182.6581733947591
 20
15.51210091383772
 30
0.0
 10
182.6532040396745
 20
15.6605418377755
 30
0.0
 10
182.6507427258645
 20
15.73406440953873
 30
0.0
 11
182.6507427258645
 21
15.73406440953873
 31
0.0
 11
182.6417328200379
 21
15.95467178795577
 31
0.0
 11
182.6318769706147
 21
16.17960510387179
 31
0.0
 11
182.6756985840801
 21
16.17312391463728
 31
0.0
 11
182.7178400934216
 21
16.16754892331925
 31
0.0
 11
182.7591371409791
 21
16.1636716750563
 31
0.0
 11
182.8004341885366
 21
16.16238072887607
 31
0.0
 11
182.8416871388731
 21
16.1636716750563
 31
0.0
 11
182.8829400892098
 21
16.16754892331925
 31
0.0
 11
182.9250882131343
 21
16.17312391463728
 31
0.0
 11
182.9689825870145
 21
16.17960510387179
 31
0.0
 11
182.9590577693891
 21
15.95467178795577
 31
0.0
 11
182.9500384208311
 21
15.73406440953873
 31
0.0
 11
182.9435638463436
 21
15.51347467001055
 31
0.0
 11
182.9414218238287
 21
15.28861190965007
 31
0.0
 11
182.9414218238287
 21
15.24478907015486
 31
0.0
 11
182.9414218238287
 21
15.13523197141682
 31
0.0
 11
182.9414218238287
 21
14.99280774305737
 31
0.0
 11
182.9414218238287
 21
14.85038351469791
 31
0.0
 11
182.9414218238287
 21
14.74082641595987
 31
0.0
 11
182.9414218238287
 21
14.69700357646466
 31
0.0
 11
182.9435638463436
 21
14.47163149318766
 31
0.0
 11
182.9500384208311
 21
14.2497519099098
 31
0.0
 11
182.9590577693892
 21
14.03132954885329
 31
0.0
 11
182.9689825870145
 21
13.81626739612927
 31
0.0
 11
182.8872616168771
 21
13.82145433189186
 31
0.0
 11
182.8004341885366
 21
13.82315538223863
 31
0.0
 11
182.7135395119339
 21
13.82145433189185
 31
0.0
 11
182.6318769706147
 21
13.81626739612927
 31
0.0
 11
182.6417328200379
 21
14.03132954885329
 31
0.0
 11
182.6507427258645
 21
14.2497519099098
 31
0.0
 11
182.6571833838798
 21
14.47163149318766
 31
0.0
 11
182.6593583588023
 21
14.69700357646466
 31
0.0
 11
182.6593583588023
 21
14.74082641595988
 31
0.0
 11
182.6593583588023
 21
14.85038351469792
 31
0.0
 11
182.6593583588023
 21
14.99280774305736
 31
0.0
 11
182.6593583588023
 21
15.13523197141681
 31
0.0
 11
182.6593583588023
 21
15.24478907015486
 31
0.0
 11
182.6593583588023
 21
15.28861190965007
 31
0.0
 11
182.6571833838798
 21
15.51347467001055
 31
0.0
 11
182.6507427258645
 21
15.73406440953873
 31
0.0
  0
SPLINE
  5
AA
102
{ACAD_REACTORS
330
C7
102
}
330
48
100
AcDbEntity
  8
_U_30EC_U_30A4_U_30E4_U_30FC_1
  6
Continuous
 62
     2
100
AcDbSpline
210
0.0
220
0.0
230
1.0
 70
    11
 71
     3
 72
   118
 73
   114
 74
   112
 42
0.000000001
 43
0.0000000001
 44
0.00000001
 40
0.0
 40
0.0
 40
0.0
 40
0.0
 40
0.1054708162973728
 40
0.2466098270052242
 40
0.3965912874591581
 40
0.5285525069754204
 40
0.6156245055642794
 40
0.6431434105797924
 40
0.70368500379866
 40
0.7642265984504969
 40
0.7917455052355259
 40
0.9287404319990529
 40
1.106572819088129
 40
1.287544879681129
 40
1.317578308030646
 40
1.399928030857285
 40
1.522968204800059
 40
1.67507298659068
 40
1.844616533180757
 40
2.019973001638822
 40
2.189516548880134
 40
2.341621331585473
 40
2.464661506320609
 40
2.547011229647173
 40
2.577044658168137
 40
2.603797890893179
 40
2.662655002908866
 40
2.72151211494965
 40
2.748265347702801
 40
2.774215307344877
 40
2.845959313407207
 40
2.954338556588408
 40
3.090194227585587
 40
3.244367517100552
 40
3.407699615844312
 40
3.571031714539463
 40
3.725205003920139
 40
3.861060674729642
 40
3.969439917716334
 40
4.041183923629009
 40
4.067133883213002
 40
4.31188674601221
 40
4.547897258335592
 40
4.764747083044033
 40
4.952749679951799
 40
5.045772974195937
 40
5.137862019645047
 40
5.3305431697931
 40
5.553448265244095
 40
5.795083855888276
 40
6.043293412177338
 40
6.285761695541294
 40
6.313902908752806
 40
6.384255941793396
 40
6.475714884766984
 40
6.567173827759018
 40
6.637526860839796
 40
6.665668074074159
 40
6.692018920328132
 40
6.749990782071202
 40
6.80796264379057
 40
6.834313490018045
 40
6.856393084245323
 40
6.913335195649975
 40
6.991194817302611
 40
7.076026942283844
 40
7.153886563725391
 40
7.210828674844945
 40
7.23290826893128
 40
7.258199334923801
 40
7.324875781592449
 40
7.419142481925104
 40
7.527204308842044
 40
7.635266135230618
 40
7.729532834168604
 40
7.796209279292923
 40
7.821500344594869
 40
7.84465298885094
 40
7.89986314054169
 40
7.965759128053828
 40
8.020969279771084
 40
8.04412192404655
 40
8.069356610160622
 40
8.109134395441421
 40
8.132238100191133
 40
8.193147867786495
 40
8.279261678876667
 40
8.37797751267388
 40
8.47669334714666
 40
8.562807160411712
 40
8.623716930826498
 40
8.64682063685345
 40
8.671988793774263
 40
8.734909185828174
 40
8.816705695188888
 40
8.89850220481546
 40
8.96142259737792
 40
8.986590754551033
 40
9.012941600733187
 40
9.070913462380272
 40
9.128885324081768
 40
9.155236170325088
 40
9.18040432792913
 40
9.243324721948204
 40
9.325121234211997
 40
9.406917746637651
 40
9.469838141978107
 40
9.495006288270881
 40
9.517811184379024
 40
9.572192090487023
 40
9.637098333281253
 40
9.691479239515452
 40
9.714284125643491
 40
9.714284125643491
 40
9.714284125643491
 40
9.714284125643491
 10
185.2874469028653
 20
15.26889163187719
 30
0.0
 10
185.3090990569038
 20
15.24111869242812
 30
0.0
 10
185.3597257109474
 20
15.17618054561238
 30
0.0
 10
185.4349383202592
 20
15.06891060312898
 30
0.0
 10
185.5248482274346
 20
14.95377438266627
 30
0.0
 10
185.5709169676674
 20
14.85357045748315
 30
0.0
 10
185.6655825294656
 20
14.78434006814945
 30
0.0
 10
185.6204439320414
 20
14.73771639678272
 30
0.0
 10
185.5947047785791
 20
14.69660308866039
 30
0.0
 10
185.5645196708013
 20
14.66065971727939
 30
0.0
 10
185.5193684730563
 20
14.58579782596092
 30
0.0
 10
185.4710504458563
 20
14.80782524253606
 30
0.0
 10
185.3968539713073
 20
14.84510677337707
 30
0.0
 10
185.2836047324606
 20
15.11610202130601
 30
0.0
 10
185.288513357817
 20
15.00095328446229
 30
0.0
 10
185.2868486556306
 20
14.92836675781627
 30
0.0
 10
185.2876830076714
 20
14.80625588483986
 30
0.0
 10
185.2873609540264
 20
14.6591380081046
 30
0.0
 10
185.2875076912455
 20
14.49307063956557
 30
0.0
 10
185.2872950092723
 20
14.32187554608602
 30
0.0
 10
185.2879497252034
 20
14.15552828635498
 30
0.0
 10
185.2859192461139
 20
14.00935173055693
 30
0.0
 10
185.291346039993
 20
13.8847104747461
 30
0.0
 10
185.2804930868708
 20
13.81718656540627
 30
0.0
 10
185.2956739155555
 20
13.75549061417023
 30
0.0
 10
185.2457895108134
 20
13.76727503897002
 30
0.0
 10
185.2017150342523
 20
13.7594382277997
 30
0.0
 10
185.1582371630201
 20
13.76760441372702
 30
0.0
 10
185.1092346786489
 20
13.75538056738469
 30
0.0
 10
185.1218731234825
 20
13.80960667249313
 30
0.0
 10
185.113018296845
 20
13.86936918907558
 30
0.0
 10
185.1175058770314
 20
13.9792202904437
 30
0.0
 10
185.1157960135992
 20
14.11029975405678
 30
0.0
 10
185.1163550915987
 20
14.26198011444329
 30
0.0
 10
185.1161928768695
 20
14.42211074929953
 30
0.0
 10
185.1162269924675
 20
14.58236865674567
 30
0.0
 10
185.1162514960127
 20
14.7337024752044
 30
0.0
 10
185.1161453543227
 20
14.86582156338602
 30
0.0
 10
185.116429914193
 20
14.97294802533193
 30
0.0
 10
185.1158675547569
 20
15.03808619579475
 30
0.0
 10
185.1180765083689
 20
15.16618957858676
 30
0.0
 10
185.0319435998604
 20
14.79097610391575
 30
0.0
 10
184.95551408185
 20
14.63918193123395
 30
0.0
 10
184.8660040767834
 20
14.47766206446307
 30
0.0
 10
184.7640413217327
 20
14.20471848820172
 30
0.0
 10
184.718797649104
 20
14.36717346596512
 30
0.0
 10
184.610235594167
 20
14.45605432058117
 30
0.0
 10
184.7995791751753
 20
14.60549794961409
 30
0.0
 10
184.85653405457
 20
14.79749136974926
 30
0.0
 10
184.9717520993353
 20
15.02899622906755
 30
0.0
 10
184.9940151630133
 20
15.21797259759065
 30
0.0
 10
185.1771905152139
 20
15.49454089325929
 30
0.0
 10
185.0538033597553
 20
15.48698978832094
 30
0.0
 10
184.9925684166834
 20
15.48856772366118
 30
0.0
 10
184.9081999617065
 20
15.48882592573673
 30
0.0
 10
184.8204235085966
 20
15.48544845751206
 30
0.0
 10
184.7656768696123
 20
15.4939481498202
 30
0.0
 10
184.7104703026025
 20
15.48048561049788
 30
0.0
 10
184.7222823035537
 20
15.52931442126763
 30
0.0
 10
184.7142496151795
 20
15.57269004896709
 30
0.0
 10
184.7228186104678
 20
15.61509438309572
 30
0.0
 10
184.7102943409158
 20
15.66267796552119
 30
0.0
 10
184.7555101538736
 20
15.65267212995109
 30
0.0
 10
184.8014815562725
 20
15.65894105174061
 30
0.0
 10
184.8777222047711
 20
15.65593561405872
 30
0.0
 10
184.9561296131995
 20
15.65770448278541
 30
0.0
 10
185.0323992648934
 20
15.65464793981659
 30
0.0
 10
185.0783009459475
 20
15.66103971376176
 30
0.0
 10
185.1231733965401
 20
15.65093822978896
 30
0.0
 10
185.1105552275635
 20
15.70157201581898
 30
0.0
 10
185.1191936582707
 20
15.7550126188207
 30
0.0
 10
185.1152361595445
 20
15.8486325513168
 30
0.0
 10
185.1162325068335
 20
15.95112606688923
 30
0.0
 10
185.1171927413074
 20
16.05353270248163
 30
0.0
 10
185.1133211458006
 20
16.1473592960932
 30
0.0
 10
185.1217789814366
 20
16.20036542840352
 30
0.0
 10
185.1093075932836
 20
16.25211435651187
 30
0.0
 10
185.1542106389851
 20
16.23850747226757
 30
0.0
 10
185.1955083836772
 20
16.24100480320584
 30
0.0
 10
185.259534428105
 20
16.23648060574487
 30
0.0
 10
185.2986111148786
 20
16.22781003043307
 30
0.0
 10
185.3476543498742
 20
16.23515102070686
 30
0.0
 10
185.3225080030591
 20
16.19602896051756
 30
0.0
 10
185.2815901333723
 20
16.20563842455808
 30
0.0
 10
185.2910109616604
 20
16.15540148169777
 30
0.0
 10
185.2855647318746
 20
16.10385945639489
 30
0.0
 10
185.2881699601803
 20
16.0195970758452
 30
0.0
 10
185.2870102202153
 20
15.92559135583408
 30
0.0
 10
185.2883591064232
 20
15.83196865395525
 30
0.0
 10
185.2849970101508
 20
15.74679517552222
 30
0.0
 10
185.2920959917769
 20
15.69716856072044
 30
0.0
 10
185.2812569154545
 20
15.64993694969989
 30
0.0
 10
185.3304010225245
 20
15.66201674936851
 30
0.0
 10
185.3794877630147
 20
15.65447393363011
 30
0.0
 10
185.4573714280641
 20
15.65686070361432
 30
0.0
 10
185.5350365172897
 20
15.65899381905415
 30
0.0
 10
185.5845393931354
 20
15.65193391922455
 30
0.0
 10
185.6344594750639
 20
15.66360151936214
 30
0.0
 10
185.622319851688
 20
15.61540235371393
 30
0.0
 10
185.6305838229143
 20
15.57249219801236
 30
0.0
 10
185.6223198650783
 20
15.52958201851384
 30
0.0
 10
185.6344594549855
 20
15.48138288754865
 30
0.0
 10
185.5845395158746
 20
15.4930503447151
 30
0.0
 10
185.5350350651202
 20
15.48599202435046
 30
0.0
 10
185.4573784382973
 20
15.48811665228603
 30
0.0
 10
185.379464386576
 20
15.4905338936576
 30
0.0
 10
185.3304500352716
 20
15.48291848194485
 30
0.0
 10
185.2813246108943
 20
15.49507952557593
 30
0.0
 10
185.2915559988571
 20
15.45073013424158
 30
0.0
 10
185.2856677678053
 20
15.40925436202911
 30
0.0
 10
185.2878788305569
 20
15.34915394315302
 30
0.0
 10
185.2874109346146
 20
15.30225782762889
 30
0.0
 10
185.2874386992913
 20
15.27650146418196
 30
0.0
 10
185.2874469028653
 20
15.26889163187719
 30
0.0
 11
185.2874469028653
 21
15.26889163187719
 31
0.0
 11
185.3516977534485
 21
15.18524999634257
 31
0.0
 11
185.43482588355
 21
15.07118889748221
 31
0.0
 11
185.5216831568896
 21
14.94891767195723
 31
0.0
 11
185.5971214371872
 21
14.84064565642876
 31
0.0
 11
185.6459925881627
 21
14.76858218755789
 31
0.0
 11
185.6296821285094
 21
14.74641782124398
 31
0.0
 11
185.5937991172721
 21
14.69765621535339
 31
0.0
 11
185.5579161060347
 21
14.6488946094628
 31
0.0
 11
185.5416056463814
 21
14.62673024314889
 31
0.0
 11
185.4763067109446
 21
14.74716139023814
 31
0.0
 11
185.3848434243234
 21
14.89966983670207
 31
0.0
 11
185.2874469028653
 21
15.05219788193142
 31
0.0
 11
185.2874469028653
 21
15.02216445328253
 31
0.0
 11
185.2874469028653
 21
14.93981472956783
 31
0.0
 11
185.2874469028653
 21
14.81677455413528
 31
0.0
 11
185.2874469028653
 21
14.66466977033283
 31
0.0
 11
185.2874469028653
 21
14.49512622150845
 31
0.0
 11
185.2874469028653
 21
14.31976975101009
 31
0.0
 11
185.2874469028653
 21
14.15022620218571
 31
0.0
 11
185.2874469028653
 21
13.99812141838326
 31
0.0
 11
185.2874469028653
 21
13.87508124295071
 31
0.0
 11
185.2874469028653
 21
13.79273151923601
 31
0.0
 11
185.2874469028653
 21
13.76269809058712
 31
0.0
 11
185.2606936700409
 21
13.76269809058712
 31
0.0
 11
185.2018365578272
 21
13.76269809058712
 31
0.0
 11
185.1429794456135
 21
13.76269809058712
 31
0.0
 11
185.1162262127891
 21
13.76269809058712
 31
0.0
 11
185.1162262127891
 21
13.7886480503125
 31
0.0
 11
185.1162262127891
 21
13.86039205661208
 31
0.0
 11
185.1162262127891
 21
13.96877130017102
 31
0.0
 11
185.1162262127891
 21
14.10462697167448
 31
0.0
 11
185.1162262127891
 21
14.25880026180761
 31
0.0
 11
185.1162262127891
 21
14.42213236125559
 31
0.0
 11
185.1162262127891
 21
14.58546446070357
 31
0.0
 11
185.1162262127891
 21
14.7396377508367
 31
0.0
 11
185.1162262127891
 21
14.87549342234016
 31
0.0
 11
185.1162262127891
 21
14.9838726658991
 31
0.0
 11
185.1162262127891
 21
15.05561667219868
 31
0.0
 11
185.1162262127891
 21
15.08156663192406
 31
0.0
 11
185.0379865861722
 21
14.84965603302372
 31
0.0
 11
184.9497110789304
 21
14.63077616328677
 31
0.0
 11
184.8544106930046
 21
14.43598991333546
 31
0.0
 11
184.7550964303357
 21
14.27636017379202
 31
0.0
 11
184.7109198342406
 21
14.35822446196599
 31
0.0
 11
184.658805738348
 21
14.4341488543081
 31
0.0
 11
184.7627302590299
 21
14.59640087926757
 31
0.0
 11
184.8629319864735
 21
14.7955146542178
 31
0.0
 11
184.9550446607902
 21
15.01890447916196
 31
0.0
 11
185.0347020220912
 21
15.25398465410319
 31
0.0
 11
185.0975378104881
 21
15.48816947904465
 31
0.0
 11
185.0693965972143
 21
15.48816947904465
 31
0.0
 11
184.9990435640298
 21
15.48816947904465
 31
0.0
 11
184.9075846208899
 21
15.48816947904465
 31
0.0
 11
184.81612567775
 21
15.48816947904465
 31
0.0
 11
184.7457726445655
 21
15.48816947904465
 31
0.0
 11
184.7176314312917
 21
15.48816947904465
 31
0.0
 11
184.7176314312917
 21
15.51452032539222
 31
0.0
 11
184.7176314312917
 21
15.57249218735688
 31
0.0
 11
184.7176314312917
 21
15.63046404932155
 31
0.0
 11
184.7176314312917
 21
15.65681489566912
 31
0.0
 11
184.739711025602
 21
15.65681489566912
 31
0.0
 11
184.7966531372445
 21
15.65681489566912
 31
0.0
 11
184.8745127592863
 21
15.65681489566912
 31
0.0
 11
184.9593448847945
 21
15.65681489566912
 31
0.0
 11
185.0372045068362
 21
15.65681489566912
 31
0.0
 11
185.0941466184787
 21
15.65681489566912
 31
0.0
 11
185.1162262127891
 21
15.65681489566912
 31
0.0
 11
185.1162262127891
 21
15.68210596174353
 31
0.0
 11
185.1162262127891
 21
15.74878240866697
 31
0.0
 11
185.1162262127891
 21
15.84304910948976
 31
0.0
 11
185.1162262127891
 21
15.95111093726224
 31
0.0
 11
185.1162262127891
 21
16.05917276503471
 31
0.0
 11
185.1162262127891
 21
16.1534394658575
 31
0.0
 11
185.1162262127891
 21
16.22011591278094
 31
0.0
 11
185.1162262127891
 21
16.24540697885535
 31
0.0
 11
185.1393181988666
 21
16.24373213107799
 31
0.0
 11
185.1943837041285
 21
16.23973826330121
 31
0.0
 11
185.2601070491184
 21
16.23497138885795
 31
0.0
 11
185.3151725543802
 21
16.23097752108116
 31
0.0
 11
185.3382645404578
 21
16.2293026733038
 31
0.0
 11
185.3249012644362
 21
16.2078967792119
 31
0.0
 11
185.2874469028653
 21
16.19450114553468
 31
0.0
 11
185.2874469028653
 21
16.17139743948577
 31
0.0
 11
185.2874469028653
 21
16.11048766899319
 31
0.0
 11
185.2874469028653
 21
16.02437385553815
 31
0.0
 11
185.2874469028653
 21
15.9256580206019
 31
0.0
 11
185.2874469028653
 21
15.82694218566565
 31
0.0
 11
185.2874469028653
 21
15.74082837221061
 31
0.0
 11
185.2874469028653
 21
15.67991860171803
 31
0.0
 11
185.2874469028653
 21
15.65681489566912
 31
0.0
 11
185.3126150604809
 21
15.65681489566912
 31
0.0
 11
185.3755354545199
 21
15.65681489566912
 31
0.0
 11
185.4573319667706
 21
15.65681489566912
 31
0.0
 11
185.5391284790212
 21
15.65681489566912
 31
0.0
 11
185.6020488730602
 21
15.65681489566912
 31
0.0
 11
185.6272170306758
 21
15.65681489566912
 31
0.0
 11
185.6272170306758
 21
15.63046404932155
 31
0.0
 11
185.6272170306758
 21
15.57249218735689
 31
0.0
 11
185.6272170306758
 21
15.51452032539222
 31
0.0
 11
185.6272170306758
 21
15.48816947904465
 31
0.0
 11
185.6020488730602
 21
15.48816947904465
 31
0.0
 11
185.5391284790212
 21
15.48816947904465
 31
0.0
 11
185.4573319667705
 21
15.48816947904465
 31
0.0
 11
185.3755354545199
 21
15.48816947904465
 31
0.0
 11
185.3126150604809
 21
15.48816947904465
 31
0.0
 11
185.2874469028653
 21
15.48816947904465
 31
0.0
 11
185.2874469028653
 21
15.46536458293923
 31
0.0
 11
185.2874469028653
 21
15.4109836768417
 31
0.0
 11
185.2874469028653
 21
15.34607743408013
 31
0.0
 11
185.2874469028653
 21
15.29169652798261
 31
0.0
 11
185.2874469028653
 21
15.26889163187719
 31
0.0
  0
SPLINE
  5
AB
102
{ACAD_REACTORS
330
C8
102
}
330
48
100
AcDbEntity
  8
_U_30EC_U_30A4_U_30E4_U_30FC_1
  6
Continuous
 62
     2
100
AcDbSpline
210
0.0
220
0.0
230
1.0
 70
    11
 71
     3
 72
    91
 73
    87
 74
    85
 42
0.000000001
 43
0.0000000001
 44
0.00000001
 40
0.0
 40
0.0
 40
0.0
 40
0.0
 40
0.0345987051695434
 40
0.1258134969461369
 40
0.2547723404888987
 40
0.4026032099154409
 40
0.5504340793417273
 40
0.6793929228836932
 40
0.7706077146571888
 40
0.8052064287781777
 40
1.124852390615368
 40
1.427402236308964
 40
1.706356627453612
 40
1.955541417875287
 40
2.169485938566431
 40
2.344350786664887
 40
2.480568411562016
 40
2.590440557429011
 40
2.649189927151213
 40
2.749320643306426
 40
2.912632739880121
 40
3.147745656000312
 40
3.244827496385243
 40
3.338490056946779
 40
3.583815413207209
 40
3.761423943238568
 40
3.886956104362732
 40
3.985855451886871
 40
4.091766255337699
 40
4.250186473811892
 40
4.422734315084559
 40
4.628285684838654
 40
4.872093227758496
 40
5.152549652145607
 40
5.464967135837593
 40
5.803201477852506
 40
6.160362988813977
 40
6.193449448276061
 40
6.284170385501715
 40
6.419718138764557
 40
6.587285046385835
 40
6.774063446723721
 40
6.967245678113704
 40
7.154024078817718
 40
7.321590987026076
 40
7.457138740890434
 40
7.54785967855617
 40
7.58094613818273
 40
7.608533084714781
 40
7.669224367077758
 40
7.729915649429973
 40
7.757502595950026
 40
7.790278062553508
 40
7.880146277430978
 40
8.014419963180412
 40
8.180411842397913
 40
8.365434637679382
 40
8.556801071622655
 40
8.741823866830739
 40
8.907815745916306
 40
9.042089431507403
 40
9.131957646249528
 40
9.164733112797105
 40
9.41542506314003
 40
9.667986180958485
 40
9.694169807462623
 40
9.756607686047554
 40
9.83113031532236
 40
9.893568193899767
 40
9.919751820398584
 40
9.950967964690424
 40
9.996421631210536
 40
10.22087981037441
 40
10.4434186619753
 40
10.47847970788842
 40
10.57091337438743
 40
10.70159545461223
 40
10.85140174170351
 40
11.00120802880474
 40
11.13189010907379
 40
11.22432377583004
 40
11.25938480938953
 40
11.28697175596141
 40
11.34766303835915
 40
11.40835432042066
 40
11.435941258921
 40
11.435941258921
 40
11.435941258921
 40
11.435941258921
 10
190.081811433329
 20
15.55242795125077
 30
0.0
 10
190.0702785844941
 20
15.55242790287915
 30
0.0
 10
190.0283409445
 20
15.55242773704164
 30
0.0
 10
189.9434129719026
 20
15.55243125800908
 30
0.0
 10
189.8207688553129
 20
15.55240926435879
 30
0.0
 10
189.6791206916993
 20
15.55250801177053
 30
0.0
 10
189.5379753698491
 20
15.55214686232421
 30
0.0
 10
189.4141351317904
 20
15.55321883609088
 30
0.0
 10
189.3317217825382
 20
15.55092249091268
 30
0.0
 10
189.1727791229692
 20
15.5604856937342
 30
0.0
 10
189.3503402353376
 20
15.19785394311371
 30
0.0
 10
189.3379739205453
 20
14.95243127723114
 30
0.0
 10
189.4064519473866
 20
14.66862501324836
 30
0.0
 10
189.469302432097
 20
14.43250999939035
 30
0.0
 10
189.5452253431729
 20
14.23326740396129
 30
0.0
 10
189.6303189577017
 20
14.07745347451375
 30
0.0
 10
189.7244607592935
 20
13.97657857781391
 30
0.0
 10
189.8282648207729
 20
13.92465852638967
 30
0.0
 10
189.9125872030774
 20
13.97606484379614
 30
0.0
 10
189.9351322179453
 20
14.09144544037517
 30
0.0
 10
189.9745730975371
 20
14.21885149702381
 30
0.0
 10
189.9202919734941
 20
14.53622328086752
 30
0.0
 10
190.0451218072474
 20
14.3898218014091
 30
0.0
 10
190.2019291513602
 20
14.35795300331167
 30
0.0
 10
190.0947720007057
 20
14.1242135776763
 30
0.0
 10
190.0808711209867
 20
13.95972776583656
 30
0.0
 10
190.0234709467226
 20
13.83130869122485
 30
0.0
 10
189.9335020145009
 20
13.76018802352826
 30
0.0
 10
189.8095274657879
 20
13.74432324142254
 30
0.0
 10
189.6634273196861
 20
13.77993797554172
 30
0.0
 10
189.5243894320285
 20
13.90000570500276
 30
0.0
 10
189.4102003962145
 20
14.07435682550321
 30
0.0
 10
189.3146141301486
 20
14.29946603111239
 30
0.0
 10
189.2318652572627
 20
14.56388246006443
 30
0.0
 10
189.1807179256411
 20
14.88187933098543
 30
0.0
 10
189.077018920734
 20
15.15543728488913
 30
0.0
 10
189.204284120852
 20
15.56005818612867
 30
0.0
 10
189.0357890623019
 20
15.55112367849678
 30
0.0
 10
188.9511995787077
 20
15.55315961418363
 30
0.0
 10
188.8189876387628
 20
15.55213937388405
 30
0.0
 10
188.6560505094104
 20
15.55253230318429
 30
0.0
 10
188.4733759170534
 20
15.55235696313369
 30
0.0
 10
188.2847057373383
 20
15.55260105307468
 30
0.0
 10
188.101446902019
 20
15.55185657906237
 30
0.0
 10
187.9404746832718
 20
15.55416360522426
 30
0.0
 10
187.8029808335277
 20
15.54799804883663
 30
0.0
 10
187.7289590372312
 20
15.56032838458211
 30
0.0
 10
187.6613215186857
 20
15.54329323723556
 30
0.0
 10
187.673237371927
 20
15.59524438447527
 30
0.0
 10
187.6655677285694
 20
15.64071424966528
 30
0.0
 10
187.6732592225116
 20
15.68614453703705
 30
0.0
 10
187.6613141797763
 20
15.73802395984571
 30
0.0
 10
187.7283588305868
 20
15.72119143490263
 30
0.0
 10
187.8017375665678
 20
15.7333540909267
 30
0.0
 10
187.9379128305273
 20
15.72727231074958
 30
0.0
 10
188.0973811801513
 20
15.72954834315057
 30
0.0
 10
188.2789173085837
 20
15.72881233998961
 30
0.0
 10
188.4658034862179
 20
15.72905954196132
 30
0.0
 10
188.6468012316836
 20
15.72886400799253
 30
0.0
 10
188.8080802578879
 20
15.72932234714838
 30
0.0
 10
188.9393882124887
 20
15.72812673751205
 30
0.0
 10
189.0225051322596
 20
15.73051347319741
 30
0.0
 10
189.1556236547814
 20
15.72230605725463
 30
0.0
 10
189.0645893502659
 20
15.97752868952654
 30
0.0
 10
188.9789633074421
 20
16.24164358328245
 30
0.0
 10
189.0990589003456
 20
16.22904442969164
 30
0.0
 10
189.1514264948544
 20
16.22694235763075
 30
0.0
 10
189.2214497569715
 20
16.22535399889656
 30
0.0
 10
189.2671922337818
 20
16.21602567538113
 30
0.0
 10
189.3220812646933
 20
16.22545966915426
 30
0.0
 10
189.2963574785682
 20
16.17733028655172
 30
0.0
 10
189.1825397571452
 20
16.18266829744166
 30
0.0
 10
189.3159346621136
 20
15.95449174576775
 30
0.0
 10
189.1943658735472
 20
15.72156856595923
 30
0.0
 10
189.3223188769412
 20
15.73087258884437
 30
0.0
 10
189.4049048406461
 20
15.72801001754679
 30
0.0
 10
189.5307214850824
 20
15.72923437412301
 30
0.0
 10
189.6741469838059
 20
15.72932431888964
 30
0.0
 10
189.8157420951728
 20
15.72746163183852
 30
0.0
 10
189.9459127249968
 20
15.73333075937162
 30
0.0
 10
190.0193452286191
 20
15.72070340823202
 30
0.0
 10
190.0891112922097
 20
15.73877563110412
 30
0.0
 10
190.0775772605397
 20
15.68612850546325
 30
0.0
 10
190.0833184346683
 20
15.64221317686547
 30
0.0
 10
190.0816615770911
 20
15.59089982676549
 30
0.0
 10
190.081775756167
 20
15.56158792021635
 30
0.0
 10
190.081811433329
 20
15.55242795125077
 30
0.0
 11
190.081811433329
 21
15.55242795125077
 31
0.0
 11
190.0472127192052
 21
15.55242795125077
 31
0.0
 11
189.9559979274242
 21
15.55242795125077
 31
0.0
 11
189.8270390838718
 21
15.55242795125077
 31
0.0
 11
189.6792082144336
 21
15.55242795125077
 31
0.0
 11
189.5313773449955
 21
15.55242795125077
 31
0.0
 11
189.402418501443
 21
15.55242795125077
 31
0.0
 11
189.311203709662
 21
15.55242795125077
 31
0.0
 11
189.2766049955382
 21
15.55242795125077
 31
0.0
 11
189.3083140497693
 21
15.23435864930121
 31
0.0
 11
189.3527866656866
 21
14.9350952278808
 31
0.0
 11
189.409238911832
 21
14.66191269512576
 31
0.0
 11
189.4768868567479
 21
14.42208605917227
 31
0.0
 11
189.5549465689762
 21
14.22289032815655
 31
0.0
 11
189.6426341170592
 21
14.07160051021477
 31
0.0
 11
189.7391655695389
 21
13.97549161348317
 31
0.0
 11
189.8437569949575
 21
13.94183864609792
 31
0.0
 11
189.8943077302786
 21
13.97177376978835
 31
0.0
 11
189.9310588991552
 21
14.06491619815047
 31
0.0
 11
189.9562640977528
 21
14.22627151712054
 31
0.0
 11
189.9721769222368
 21
14.46084531263481
 31
0.0
 11
190.0494082682584
 21
14.40202182306618
 31
0.0
 11
190.1327184184385
 21
14.35921885432691
 31
0.0
 11
190.1066365811217
 21
14.1152838866101
 31
0.0
 11
190.0673317805105
 21
13.94207902887562
 31
0.0
 11
190.0105702596765
 21
13.83011272445917
 31
0.0
 11
189.9321182616911
 21
13.76989341669645
 31
0.0
 11
189.8277420296257
 21
13.75192954892317
 31
0.0
 11
189.6738595065098
 21
13.78957440012361
 31
0.0
 11
189.5388902376748
 21
13.89707348877403
 31
0.0
 11
189.4221739916163
 21
14.06627361744809
 31
0.0
 11
189.32305053683
 21
14.28902158871943
 31
0.0
 11
189.2408596418114
 21
14.55716420516172
 31
0.0
 11
189.1749410750559
 21
14.8625482693486
 31
0.0
 11
189.1246346050594
 21
15.19702058385374
 31
0.0
 11
189.0892800003172
 21
15.55242795125077
 31
0.0
 11
189.0561935405844
 21
15.55242795125077
 31
0.0
 11
188.9654726026075
 21
15.55242795125077
 31
0.0
 11
188.8299248482186
 21
15.55242795125077
 31
0.0
 11
188.6623579392495
 21
15.55242795125077
 31
0.0
 11
188.4755795375324
 21
15.55242795125077
 31
0.0
 11
188.2823973048993
 21
15.55242795125077
 31
0.0
 11
188.0956189031822
 21
15.55242795125077
 31
0.0
 11
187.9280519942132
 21
15.55242795125077
 31
0.0
 11
187.7925042398242
 21
15.55242795125077
 31
0.0
 11
187.7017833018473
 21
15.55242795125077
 31
0.0
 11
187.6686968421146
 21
15.55242795125077
 31
0.0
 11
187.6686968421146
 21
15.58001489785846
 31
0.0
 11
187.6686968421146
 21
15.64070618039537
 31
0.0
 11
187.6686968421146
 21
15.70139746293228
 31
0.0
 11
187.6686968421146
 21
15.72898440953997
 31
0.0
 11
187.7014723087632
 21
15.72898440953997
 31
0.0
 11
187.7913405237674
 21
15.72898440953997
 31
0.0
 11
187.9256142097149
 21
15.72898440953997
 31
0.0
 11
188.0916060891932
 21
15.72898440953997
 31
0.0
 11
188.2766288847902
 21
15.72898440953997
 31
0.0
 11
188.4679953190932
 21
15.72898440953997
 31
0.0
 11
188.6530181146902
 21
15.72898440953997
 31
0.0
 11
188.8190099941685
 21
15.72898440953997
 31
0.0
 11
188.953283680116
 21
15.72898440953997
 31
0.0
 11
189.0431518951202
 21
15.72898440953997
 31
0.0
 11
189.0759273617688
 21
15.72898440953997
 31
0.0
 11
189.0659183950104
 21
15.97947647544958
 31
0.0
 11
189.0599112510664
 21
16.2319661455253
 31
0.0
 11
189.086057587066
 21
16.23056921608121
 31
0.0
 11
189.148406542142
 21
16.2272380766376
 31
0.0
 11
189.22282303691
 21
16.22326220052749
 31
0.0
 11
189.2851719919859
 21
16.21993106108388
 31
0.0
 11
189.3113183279855
 21
16.21853413163979
 31
0.0
 11
189.298293111304
 21
16.19016528616079
 31
0.0
 11
189.2551649266405
 21
16.17581274276163
 31
0.0
 11
189.2574991961821
 21
15.95136670115107
 31
0.0
 11
189.2658452735903
 21
15.72898440953997
 31
0.0
 11
189.3009063195165
 21
15.72898440953997
 31
0.0
 11
189.3933399860495
 21
15.72898440953997
 31
0.0
 11
189.5240220663201
 21
15.72898440953997
 31
0.0
 11
189.6738283534596
 21
15.72898440953997
 31
0.0
 11
189.8236346405992
 21
15.72898440953997
 31
0.0
 11
189.9543167208698
 21
15.72898440953997
 31
0.0
 11
190.0467503874027
 21
15.72898440953997
 31
0.0
 11
190.081811433329
 21
15.72898440953997
 31
0.0
 11
190.081811433329
 21
15.70139746293228
 31
0.0
 11
190.081811433329
 21
15.64070618039537
 31
0.0
 11
190.081811433329
 21
15.58001489785846
 31
0.0
 11
190.081811433329
 21
15.55242795125077
 31
0.0
  0
SPLINE
  5
AC
102
{ACAD_REACTORS
330
C9
102
}
330
48
100
AcDbEntity
  8
_U_30EC_U_30A4_U_30E4_U_30FC_1
  6
Continuous
 62
     2
100
AcDbSpline
210
0.0
220
0.0
230
1.0
 70
    11
 71
     3
 72
    75
 73
    71
 74
    69
 42
0.000000001
 43
0.0000000001
 44
0.00000001
 40
0.0
 40
0.0
 40
0.0
 40
0.0
 40
0.0342546099129691
 40
0.1245622414432364
 40
0.2522385480897554
 40
0.3985991922940715
 40
0.544959836498091
 40
0.6726361431438905
 40
0.7629437746737049
 40
0.7971983935298079
 40
1.101723623449727
 40
1.408591244036676
 40
1.433332471690381
 40
1.487763172450175
 40
1.542193873082001
 40
1.566935100592549
 40
1.923523931821806
 40
2.271755704953606
 40
2.590579755100848
 40
2.85894330558108
 40
2.8891203393091
 40
2.918305855191046
 40
2.941366645531169
 40
2.996357760973061
 40
3.061992318140606
 40
3.116983433626792
 40
3.140044223997481
 40
3.411273122936373
 40
3.732441619740982
 40
3.76106821753268
 40
3.837787499630246
 40
3.948858699125882
 40
4.08054104910426
 40
4.219093782625647
 40
4.350776132722199
 40
4.461847332405533
 40
4.538566614678267
 40
4.567193212544515
 40
4.594907573998773
 40
4.666381453557312
 40
4.764111044010894
 40
4.870592538125697
 40
4.968322128642091
 40
5.039796008286805
 40
5.067510369784236
 40
5.094263603185448
 40
5.153120716668081
 40
5.211977830150524
 40
5.238731063551528
 40
5.272290535138795
 40
5.3633805294446
 40
5.497618415781306
 40
5.660621563453519
 40
5.83800734174922
 40
6.0153931199106
 40
6.178396267038197
 40
6.312634151842177
 40
6.403724143059167
 40
6.437283612672262
 40
6.464036846260878
 40
6.522893960004492
 40
6.581751071483751
 40
6.608504301590697
 40
6.637253941280845
 40
6.711397748902725
 40
6.812778057283337
 40
6.923237199249114
 40
7.024617507623757
 40
7.098761315207467
 40
7.127510946007417
 40
7.127510946007417
 40
7.127510946007417
 40
7.127510946007417
 10
188.4418622390564
 20
14.95849128473265
 30
0.0
 10
188.4418622819707
 20
14.9470731340872
 30
0.0
 10
188.4418624481128
 20
14.9055525784263
 30
0.0
 10
188.4418593081787
 20
14.82146922003773
 30
0.0
 10
188.44187882798
 20
14.70004497322329
 30
0.0
 10
188.4417912187738
 20
14.55980494047449
 30
0.0
 10
188.442111623523
 20
14.42006556794576
 30
0.0
 10
188.4411605909741
 20
14.29745038894929
 30
0.0
 10
188.4431978595967
 20
14.21587074438043
 30
0.0
 10
188.4349433178746
 20
14.06271267077696
 30
0.0
 10
188.74307979409
 20
14.22560236054716
 30
0.0
 10
189.0350645173737
 20
14.39482938688003
 30
0.0
 10
189.0408354448707
 20
14.25973235781911
 30
0.0
 10
189.0455471719891
 20
14.21617221160445
 30
0.0
 10
189.0482535411917
 20
14.17211249350545
 30
0.0
 10
189.067254567296
 20
14.02272590363136
 30
0.0
 10
188.6583942247303
 20
14.08681172241261
 30
0.0
 10
188.3793710348832
 20
13.97296341411017
 30
0.0
 10
188.1018081587168
 20
13.87364095811144
 30
0.0
 10
187.80998371844
 20
13.91630687596354
 30
0.0
 10
187.7869144678659
 20
13.81321679744541
 30
0.0
 10
187.7537474383334
 20
13.7869109124447
 30
0.0
 10
187.7480653962739
 20
13.83455309036304
 30
0.0
 10
187.7284214559045
 20
13.8718033611507
 30
0.0
 10
187.7095089485624
 20
13.93007387847563
 30
0.0
 10
187.6942849867708
 20
13.97385201007806
 30
0.0
 10
187.6477246372935
 20
14.08759421046305
 30
0.0
 10
187.9890897312451
 20
14.05576301120049
 30
0.0
 10
188.2679649367388
 20
14.02161435106481
 30
0.0
 10
188.2617753034907
 20
14.16913976479652
 30
0.0
 10
188.2630935452773
 20
14.24013150908833
 30
0.0
 10
188.2624831689948
 20
14.34719767958661
 30
0.0
 10
188.2625871570725
 20
14.47398529785998
 30
0.0
 10
188.2629987964055
 20
14.60849243496051
 30
0.0
 10
188.2613907841969
 20
14.73395549951185
 30
0.0
 10
188.2659902567924
 20
14.84505246719118
 30
0.0
 10
188.256418650221
 20
14.90761886800689
 30
0.0
 10
188.2704001783691
 20
14.96595388295002
 30
0.0
 10
188.2147384386704
 20
14.95289710582239
 30
0.0
 10
188.1575655197822
 20
14.961363077495
 30
0.0
 10
188.0616048925647
 20
14.95729976080637
 30
0.0
 10
187.9633767522822
 20
14.95970889852475
 30
0.0
 10
187.8672582457561
 20
14.95551600613389
 30
0.0
 10
187.8104648525812
 20
14.96429346441164
 30
0.0
 10
187.7550356873385
 20
14.95094936850123
 30
0.0
 10
187.7670679427918
 20
15.00036910959257
 30
0.0
 10
187.7592003173938
 20
15.04393988030396
 30
0.0
 10
187.766629556383
 20
15.08830469118526
 30
0.0
 10
187.7551930564144
 20
15.13902297763992
 30
0.0
 10
187.8232102370134
 20
15.12162460757743
 30
0.0
 10
187.8968496879747
 20
15.13417450237189
 30
0.0
 10
188.0325064058211
 20
15.12799677011096
 30
0.0
 10
188.1884909024526
 20
15.13029203093085
 30
0.0
 10
188.3615926358144
 20
15.1294096826253
 30
0.0
 10
188.5346942964182
 20
15.13029207142408
 30
0.0
 10
188.6906789811218
 20
15.1279966295555
 30
0.0
 10
188.8263351889797
 20
15.13417486262431
 30
0.0
 10
188.8999756705654
 20
15.12162394218335
 30
0.0
 10
188.9679914174724
 20
15.13902373012143
 30
0.0
 10
188.9565590885923
 20
15.08830130414555
 30
0.0
 10
188.9639539458297
 20
15.04397060811109
 30
0.0
 10
188.9562039912272
 20
15.00028307550196
 30
0.0
 10
188.9681203741877
 20
14.95063590098478
 30
0.0
 10
188.9108170223618
 20
14.96461411338427
 30
0.0
 10
188.8520145789773
 20
14.95539755673254
 30
0.0
 10
188.75252936332
 20
14.9595226816493
 30
0.0
 10
188.649428009835
 20
14.95822760025888
 30
0.0
 10
188.5537846354574
 20
14.95854077077641
 30
0.0
 10
188.4857467971617
 20
14.95848776697146
 30
0.0
 10
188.4514462213443
 20
14.95849051871657
 30
0.0
 10
188.4418622390564
 20
14.95849128473265
 30
0.0
 11
188.4418622390564
 21
14.95849128473265
 31
0.0
 11
188.4418622390564
 21
14.92423666587186
 31
0.0
 11
188.4418622390564
 21
14.83392903432976
 31
0.0
 11
188.4418622390564
 21
14.7062527276668
 31
0.0
 11
188.4418622390564
 21
14.5598920834434
 31
0.0
 11
188.4418622390564
 21
14.41353143922
 31
0.0
 11
188.4418622390564
 21
14.28585513255704
 31
0.0
 11
188.4418622390564
 21
14.19554750101494
 31
0.0
 11
188.4418622390564
 21
14.16129288215415
 31
0.0
 11
188.7391932644568
 21
14.22709475713768
 31
0.0
 11
189.0384623627245
 21
14.29496038212072
 31
0.0
 11
189.0405487124976
 21
14.27030727882828
 31
0.0
 11
189.0451386819987
 21
14.2160704515849
 31
0.0
 11
189.0497286514996
 21
14.16183362434152
 31
0.0
 11
189.0518150012728
 21
14.13718052104908
 31
0.0
 11
188.705639688924
 21
14.05163370140898
 31
0.0
 11
188.3669653138838
 21
13.97060877629902
 31
0.0
 11
188.0563731516688
 21
13.89862764024929
 31
0.0
 11
187.7944444777956
 21
13.84021218778991
 31
0.0
 11
187.7817515029293
 21
13.81283442738013
 31
0.0
 11
187.7569794787514
 21
13.79740260446735
 31
0.0
 11
187.7491867589502
 21
13.81910683390636
 31
0.0
 11
187.7306041194242
 21
13.87086307333786
 31
0.0
 11
187.7084248399901
 21
13.93263664943351
 31
0.0
 11
187.6898422004641
 21
13.98439288886501
 31
0.0
 11
187.6820494806629
 21
14.00609711830402
 31
0.0
 11
187.9482776335932
 21
14.05794001759666
 31
0.0
 11
188.2626334936289
 21
14.1237396877191
 31
0.0
 11
188.2626334936289
 21
14.15236628569624
 31
0.0
 11
188.2626334936289
 21
14.22908556827499
 31
0.0
 11
188.2626334936289
 21
14.34015676842631
 31
0.0
 11
188.2626334936289
 21
14.47183911912118
 31
0.0
 11
188.2626334936289
 21
14.61039185333057
 31
0.0
 11
188.2626334936289
 21
14.74207420402543
 31
0.0
 11
188.2626334936289
 21
14.85314540417675
 31
0.0
 11
188.2626334936289
 21
14.9298646867555
 31
0.0
 11
188.2626334936289
 21
14.95849128473265
 31
0.0
 11
188.2349191321108
 21
14.95849128473265
 31
0.0
 11
188.1634452524063
 21
14.95849128473265
 31
0.0
 11
188.0657156617901
 21
14.95849128473265
 31
0.0
 11
187.9592341675364
 21
14.95849128473265
 31
0.0
 11
187.8615045769201
 21
14.95849128473265
 31
0.0
 11
187.7900306972156
 21
14.95849128473265
 31
0.0
 11
187.7623163356976
 21
14.95849128473265
 31
0.0
 11
187.7623163356976
 21
14.9852445182329
 31
0.0
 11
187.7623163356976
 21
15.04410163193345
 31
0.0
 11
187.7623163356976
 21
15.10295874563399
 31
0.0
 11
187.7623163356976
 21
15.12971197913424
 31
0.0
 11
187.7958758072876
 21
15.12971197913424
 31
0.0
 11
187.8869658016031
 21
15.12971197913424
 31
0.0
 11
188.021203687963
 21
15.12971197913424
 31
0.0
 11
188.1842068356856
 21
15.12971197913424
 31
0.0
 11
188.3615926140897
 21
15.12971197913424
 31
0.0
 11
188.5389783924938
 21
15.12971197913424
 31
0.0
 11
188.7019815402165
 21
15.12971197913424
 31
0.0
 11
188.8362194265763
 21
15.12971197913424
 31
0.0
 11
188.9273094208919
 21
15.12971197913424
 31
0.0
 11
188.9608688924819
 21
15.12971197913424
 31
0.0
 11
188.9608688924819
 21
15.10295874563399
 31
0.0
 11
188.9608688924819
 21
15.04410163193344
 31
0.0
 11
188.9608688924819
 21
14.9852445182329
 31
0.0
 11
188.9608688924819
 21
14.95849128473265
 31
0.0
 11
188.9321192527878
 21
14.95849128473265
 31
0.0
 11
188.8579754451555
 21
14.95849128473265
 31
0.0
 11
188.7565951367605
 21
14.95849128473265
 31
0.0
 11
188.6461359947778
 21
14.95849128473265
 31
0.0
 11
188.5447556863828
 21
14.95849128473265
 31
0.0
 11
188.4706118787505
 21
14.95849128473265
 31
0.0
 11
188.4418622390564
 21
14.95849128473265
 31
0.0
  0
SPLINE
  5
AD
102
{ACAD_REACTORS
330
CA
102
}
330
48
100
AcDbEntity
  8
_U_30EC_U_30A4_U_30E4_U_30FC_1
  6
Continuous
 62
     2
100
AcDbSpline
210
0.0
220
0.0
230
1.0
 70
    11
 71
     3
 72
    15
 73
    11
 74
     9
 42
0.000000001
 43
0.0000000001
 44
0.00000001
 40
0.0
 40
0.0
 40
0.0
 40
0.0
 40
0.2785535985096075
 40
0.5215624748198766
 40
0.6076917376040816
 40
0.6938210001741757
 40
0.9405019146455532
 40
1.221691403489191
 40
1.300471877081127
 40
1.379252341684931
 40
1.379252341684931
 40
1.379252341684931
 40
1.379252341684931
 10
189.5681493631
 20
16.2293026733038
 30
0.0
 10
189.6296017794178
 20
16.17691646592714
 30
0.0
 10
189.7446649974113
 20
16.07882876798219
 30
0.0
 10
190.0397348497245
 20
15.9288978589722
 30
0.0
 10
189.9025147631857
 20
15.84343227515015
 30
0.0
 10
189.8041227843778
 20
15.71085785201556
 30
0.0
 10
189.7130033590649
 20
16.01616985781418
 30
0.0
 10
189.3636839480655
 20
16.07967869465377
 30
0.0
 10
189.511925837657
 20
16.17896509880878
 30
0.0
 10
189.5494081874237
 20
16.21252348402382
 30
0.0
 10
189.5681493631
 20
16.2293026733038
 30
0.0
 11
189.5681493631
 21
16.2293026733038
 31
0.0
 11
189.7919222440596
 21
16.06341774278972
 31
0.0
 11
189.9695046306384
 21
15.89753281227564
 31
0.0
 11
189.9066308127979
 21
15.83866743034592
 31
0.0
 11
189.8437569949575
 21
15.7798020484162
 31
0.0
 11
189.6688535117725
 21
15.95375677059491
 31
0.0
 11
189.447825685614
 21
16.12757920110703
 31
0.0
 11
189.507987524357
 21
16.17844093720542
 31
0.0
 11
189.5681493631
 21
16.2293026733038
 31
0.0
  0
SPLINE
  5
AE
102
{ACAD_REACTORS
330
CB
102
}
330
48
100
AcDbEntity
  8
_U_30EC_U_30A4_U_30E4_U_30FC_1
  6
Continuous
 62
     2
100
AcDbSpline
210
0.0
220
0.0
230
1.0
 70
    11
 71
     3
 72
    35
 73
    31
 74
    29
 42
0.000000001
 43
0.0000000001
 44
0.00000001
 40
0.0
 40
0.0
 40
0.0
 40
0.0
 40
0.0335231036620617
 40
0.0713218571712037
 40
0.4278866681487147
 40
0.8116865841963943
 40
1.198190238000053
 40
1.561379546812683
 40
1.659983174621998
 40
1.759315573807177
 40
2.132719617231037
 40
2.525233363588766
 40
2.910815397779676
 40
3.265244364303264
 40
3.59260672358195
 40
3.964386154603897
 40
4.359942131737743
 40
4.758154118639302
 40
4.843846538699919
 40
4.936650065543181
 40
5.256616602537234
 40
5.581707404415923
 40
5.899719158308064
 40
6.198363494280668
 40
6.466301046615734
 40
6.493895311537056
 40
6.559697020196792
 40
6.638234543442367
 40
6.704036252154092
 40
6.731630508422869
 40
6.731630508422869
 40
6.731630508422869
 40
6.731630508422869
 10
191.9736010568669
 20
16.23463843719133
 30
0.0
 10
191.9676006097789
 20
16.22480690542322
 30
0.0
 10
191.9548344099157
 20
16.20388988579797
 30
0.0
 10
191.7949362006554
 20
16.17127126532688
 30
0.0
 10
192.2322025842338
 20
15.88206680336704
 30
0.0
 10
192.4345394828261
 20
15.68041138358438
 30
0.0
 10
192.6819564267973
 20
15.43749387603273
 30
0.0
 10
193.1831513624605
 20
15.36047662757784
 30
0.0
 10
193.0125562198971
 20
15.21876939174651
 30
0.0
 10
192.93832994632
 20
15.01710366209115
 30
0.0
 10
192.6131432248188
 20
15.36956287174722
 30
0.0
 10
192.3277741670664
 20
15.53175212559566
 30
0.0
 10
192.0337604077658
 20
15.73687130053045
 30
0.0
 10
191.8084452691134
 20
16.21827488595455
 30
0.0
 10
191.5993085055522
 20
15.75343046609221
 30
0.0
 10
191.3207873674835
 20
15.54350952252912
 30
0.0
 10
191.0371383177209
 20
15.37424456359983
 30
0.0
 10
190.7078639527832
 20
15.00142360907936
 30
0.0
 10
190.6277012318224
 20
15.19708014458999
 30
0.0
 10
190.4759724909746
 20
15.32491104190602
 30
0.0
 10
190.9083395826795
 20
15.40454031765932
 30
0.0
 10
191.0962565329765
 20
15.60026634915477
 30
0.0
 10
191.3468477420502
 20
15.81632996916753
 30
0.0
 10
191.5714350470162
 20
15.9819099230006
 30
0.0
 10
191.6259775409712
 20
16.26133964636827
 30
0.0
 10
191.7494661029012
 20
16.24737950408079
 30
0.0
 10
191.8060273344521
 20
16.24521268867647
 30
0.0
 10
191.8761870984945
 20
16.24046859881359
 30
0.0
 10
191.9333414022105
 20
16.23709429350541
 30
0.0
 10
191.9644190320839
 20
16.23519854711117
 30
0.0
 10
191.9736010568669
 20
16.23463843719133
 30
0.0
 11
191.9736010568669
 21
16.23463843719133
 31
0.0
 11
191.9525319069884
 21
16.20856374969784
 31
0.0
 11
191.9174464559425
 21
16.19450114553468
 31
0.0
 11
192.1512374769095
 21
15.92527961131382
 31
0.0
 11
192.4414585957566
 21
15.6741340796926
 31
0.0
 11
192.7612797483684
 21
15.45710987618784
 31
0.0
 11
193.0838708706289
 21
15.29025232631637
 31
0.0
 11
193.0213299868077
 21
15.21402035584928
 31
0.0
 11
192.9688035818975
 21
15.12971197913424
 31
0.0
 11
192.6436279095814
 21
15.3132640483158
 31
0.0
 11
192.3237227768436
 21
15.54070139743428
 31
0.0
 11
192.0354200158608
 21
15.7967385512331
 31
0.0
 11
191.8050514588095
 21
16.06609003445566
 31
0.0
 11
191.5995531719517
 21
15.81126348721036
 31
0.0
 11
191.3288301341536
 21
15.55645182277756
 31
0.0
 11
191.0119538423247
 21
15.31969466354856
 31
0.0
 11
190.6679957933741
 21
15.11903163191466
 31
0.0
 11
190.6218855341338
 21
15.19126067703554
 31
0.0
 11
190.5636970460349
 21
15.26355586798966
 31
0.0
 11
190.8433040489015
 21
15.41911456961744
 31
0.0
 11
191.1093004621154
 21
15.60601009790404
 31
0.0
 11
191.3499997459747
 21
15.81384496285208
 31
0.0
 11
191.5537153607775
 21
16.03222167446416
 31
0.0
 11
191.7087607668219
 21
16.25074274274287
 31
0.0
 11
191.7363041569866
 21
16.24906789496551
 31
0.0
 11
191.8019845489177
 21
16.24507402718873
 31
0.0
 11
191.8803772747711
 21
16.24030715274547
 31
0.0
 11
191.9460576667022
 21
16.23631328496869
 31
0.0
 11
191.9736010568669
 21
16.23463843719133
 31
0.0
  0
SPLINE
  5
AF
102
{ACAD_REACTORS
330
CC
102
}
330
48
100
AcDbEntity
  8
_U_30EC_U_30A4_U_30E4_U_30FC_1
  6
Continuous
 62
     2
100
AcDbSpline
210
0.0
220
0.0
230
1.0
 70
    11
 71
     3
 72
    91
 73
    87
 74
    85
 42
0.000000001
 43
0.0000000001
 44
0.00000001
 40
0.0
 40
0.0
 40
0.0
 40
0.0
 40
0.0267532254356701
 40
0.0856103386464155
 40
0.1444674521996709
 40
0.1712206856618621
 40
0.2039416005642643
 40
0.2955601971652591
 40
0.4362601844617309
 40
0.6162252844507641
 40
0.8256392189705088
 40
1.054685709844478
 40
1.293548478893599
 40
1.532411247938342
 40
1.761457738799607
 40
1.970871673298604
 40
2.150836773256828
 40
2.291536760495689
 40
2.383155356836768
 40
2.415876284101416
 40
2.442629517488062
 40
2.501486630949196
 40
2.560343744424347
 40
2.587096977826621
 40
2.617068194441049
 40
2.699247336756218
 40
2.822032643466502
 40
2.97382235325806
 40
3.143014704823503
 40
3.318007936880082
 40
3.487200288186915
 40
3.638989997548452
 40
3.761775303794951
 40
3.843954445753286
 40
3.873925662229982
 40
3.890812773500689
 40
3.907699884771868
 40
3.937960767857474
 40
3.980983618142422
 40
4.19908591522858
 40
4.439444339237384
 40
4.677588241261041
 40
5.050698317837956
 40
5.448212454763398
 40
5.855291218044924
 40
6.138575438885633
 40
6.417434507584495
 40
6.444551104394176
 40
6.5042076173635
 40
6.563864130314896
 40
6.590980727104489
 40
6.848609460381846
 40
7.109611990668784
 40
7.352910904446447
 40
7.557830220705835
 40
7.587518925913729
 40
7.652834077376148
 40
7.718149228846109
 40
7.747837934062388
 40
7.854880190301376
 40
7.976511257403902
 40
8.369487896592732
 40
8.757514959224082
 40
9.126072419331544
 40
9.460639380392609
 40
9.74669559303635
 40
9.777569943119106
 40
9.80705032093223
 40
9.830377336129363
 40
9.886003295436437
 40
9.95239556943035
 40
10.0080215287067
 40
10.03134854388262
 40
10.21356951009636
 40
10.42203479292916
 40
10.66154556731111
 40
10.91693789564353
 40
11.15832906556614
 40
11.18982674596672
 40
11.27286608520456
 40
11.39026653033404
 40
11.5248475284094
 40
11.65942852648499
 40
11.77682897161541
 40
11.8598683108574
 40
11.89136598230485
 40
11.89136598230485
 40
11.89136598230485
 40
11.89136598230485
 10
190.7027885008196
 20
14.70699600701772
 30
0.0
 10
190.7028237765288
 20
14.71587847311985
 30
0.0
 10
190.7029366710796
 20
14.74430237047347
 30
0.0
 10
190.7012984568489
 20
14.79409639169803
 30
0.0
 10
190.7069750292911
 20
14.83657564478155
 30
0.0
 10
190.6956928731706
 20
14.88730154856848
 30
0.0
 10
190.7632296979032
 20
14.8701290074011
 30
0.0
 10
190.8388029210701
 20
14.88290227165998
 30
0.0
 10
190.9828357056001
 20
14.87629729457383
 30
0.0
 10
191.1569419185427
 20
14.87888462206467
 30
0.0
 10
191.3639599611003
 20
14.87800591955554
 30
0.0
 10
191.5894688172378
 20
14.87828207920028
 30
0.0
 10
191.8251162293406
 20
14.87818339658663
 30
0.0
 10
192.0607640531349
 20
14.87828184412768
 30
0.0
 10
192.2862717580626
 20
14.8780067819079
 30
0.0
 10
192.4932934632805
 20
14.87888186270736
 30
0.0
 10
192.667388891529
 20
14.87630522678447
 30
0.0
 10
192.8114492071986
 20
14.88288290449215
 30
0.0
 10
192.8869691915294
 20
14.87016243405605
 30
0.0
 10
192.954577603703
 20
14.88726400191688
 30
0.0
 10
192.9430840140676
 20
14.83674785802941
 30
0.0
 10
192.9505104581734
 20
14.79253252226502
 30
0.0
 10
192.9428838927986
 20
14.7486796650361
 30
0.0
 10
192.9546489459426
 20
14.69878374479328
 30
0.0
 10
192.8930788491983
 20
14.71393227712512
 30
0.0
 10
192.8256791738672
 20
14.70310665350673
 30
0.0
 10
192.7013004056222
 20
14.70852031626236
 30
0.0
 10
192.5554428236572
 20
14.70649205390785
 30
0.0
 10
192.3893576440086
 20
14.70715777578387
 30
0.0
 10
192.2188412621725
 20
14.70689643521242
 30
0.0
 10
192.0519790855389
 20
14.70721553391094
 30
0.0
 10
191.9087346827105
 20
14.70635302590762
 30
0.0
 10
191.7773313869834
 20
14.70863300482988
 30
0.0
 10
191.7239859134656
 20
14.70407704374202
 30
0.0
 10
191.6485188456912
 20
14.70999914992877
 30
0.0
 10
191.6769075779232
 20
14.70094169343353
 30
0.0
 10
191.7033652409542
 20
14.6972591226893
 30
0.0
 10
191.6633522907701
 20
14.66654271968277
 30
0.0
 10
191.5713663691869
 20
14.67667591174628
 30
0.0
 10
191.543939620707
 20
14.43032502247786
 30
0.0
 10
191.4478793967234
 20
14.27499558764375
 30
0.0
 10
191.1917277964473
 20
13.94525417931569
 30
0.0
 10
191.7627537732763
 20
14.08430022210452
 30
0.0
 10
192.0173656320517
 20
14.08291779973364
 30
0.0
 10
192.6279647048618
 20
13.99790569242087
 30
0.0
 10
192.3340698578084
 20
14.29685417558203
 30
0.0
 10
192.0133304286516
 20
14.44330856901779
 30
0.0
 10
192.1313543360434
 20
14.50025540818287
 30
0.0
 10
192.1724716466261
 20
14.52420099873349
 30
0.0
 10
192.2156812394412
 20
14.54599758811228
 30
0.0
 10
192.3174574094452
 20
14.60928721253902
 30
0.0
 10
192.4328867625248
 20
14.35147151408779
 30
0.0
 10
192.6329591642277
 20
14.21616041113683
 30
0.0
 10
192.7269077387229
 20
14.03792795138879
 30
0.0
 10
192.9558829746393
 20
13.87997821027054
 30
0.0
 10
192.8596031846709
 20
13.82915972576298
 30
0.0
 10
192.816795976378
 20
13.79881292523053
 30
0.0
 10
192.7718243528781
 20
13.77466130281461
 30
0.0
 10
192.7121720925214
 20
13.72552146747566
 30
0.0
 10
192.6789731061325
 20
13.85997475673607
 30
0.0
 10
192.5582013350797
 20
14.01594265286583
 30
0.0
 10
192.1970976005979
 20
13.88569928059555
 30
0.0
 10
191.838506195554
 20
13.90224694409483
 30
0.0
 10
191.457092045008
 20
13.89331229351866
 30
0.0
 10
191.1703455282892
 20
13.82882671672405
 30
0.0
 10
190.8592055599712
 20
13.94230668192828
 30
0.0
 10
190.8268737818788
 20
13.83122259927766
 30
0.0
 10
190.7896178253318
 20
13.81196313850012
 30
0.0
 10
190.7865737632753
 20
13.85874784087296
 30
0.0
 10
190.7679892860607
 20
13.89806853919134
 30
0.0
 10
190.7512436616778
 20
13.95765983478232
 30
0.0
 10
190.7383730915753
 20
14.00201969871283
 30
0.0
 10
190.7042327806428
 20
14.091063311202
 30
0.0
 10
190.9482714457754
 20
14.02181042943771
 30
0.0
 10
191.1441394486671
 20
14.00030369057744
 30
0.0
 10
191.2395426381277
 20
14.28226484478462
 30
0.0
 10
191.2945135769598
 20
14.44363045421123
 30
0.0
 10
191.5159619357157
 20
14.71391177589737
 30
0.0
 10
191.3849239381217
 20
14.70548446853735
 30
0.0
 10
191.3110026555854
 20
14.70779008496969
 30
0.0
 10
191.1977459876244
 20
14.70671378321659
 30
0.0
 10
191.0694251807485
 20
14.70707639076509
 30
0.0
 10
190.9404252030415
 20
14.70697724466086
 30
0.0
 10
190.8287840946292
 20
14.70699932712572
 30
0.0
 10
190.7514663970025
 20
14.7069957918967
 30
0.0
 10
190.713287653201
 20
14.70699595845081
 30
0.0
 10
190.7027885008196
 20
14.70699600701772
 30
0.0
 11
190.7027885008196
 21
14.70699600701772
 31
0.0
 11
190.7027885008196
 21
14.73374924051797
 31
0.0
 11
190.7027885008196
 21
14.79260635421854
 31
0.0
 11
190.7027885008196
 21
14.8514634679191
 31
0.0
 11
190.7027885008196
 21
14.87821670141936
 31
0.0
 11
190.7355094280989
 21
14.87821670141936
 31
0.0
 11
190.8271280244809
 21
14.87821670141936
 31
0.0
 11
190.9678280117819
 21
14.87821670141936
 31
0.0
 11
191.147793111818
 21
14.87821670141936
 31
0.0
 11
191.3572070464054
 21
14.87821670141936
 31
0.0
 11
191.5862535373604
 21
14.87821670141936
 31
0.0
 11
191.8251163064993
 21
14.87821670141936
 31
0.0
 11
192.0639790756381
 21
14.87821670141936
 31
0.0
 11
192.2930255665931
 21
14.87821670141936
 31
0.0
 11
192.5024395011806
 21
14.87821670141936
 31
0.0
 11
192.6824046012168
 21
14.87821670141936
 31
0.0
 11
192.8231045885177
 21
14.87821670141936
 31
0.0
 11
192.9147231848997
 21
14.87821670141936
 31
0.0
 11
192.947444112179
 21
14.87821670141936
 31
0.0
 11
192.947444112179
 21
14.8514634679191
 31
0.0
 11
192.947444112179
 21
14.79260635421854
 31
0.0
 11
192.947444112179
 21
14.73374924051798
 31
0.0
 11
192.947444112179
 21
14.70699600701772
 31
0.0
 11
192.9174728954758
 21
14.70699600701772
 31
0.0
 11
192.8352937529027
 21
14.70699600701772
 31
0.0
 11
192.712508445764
 21
14.70699600701772
 31
0.0
 11
192.5607187353642
 21
14.70699600701772
 31
0.0
 11
192.3915263830078
 21
14.70699600701772
 31
0.0
 11
192.2165331499991
 21
14.70699600701772
 31
0.0
 11
192.0473407976427
 21
14.70699600701772
 31
0.0
 11
191.8955510872428
 21
14.70699600701772
 31
0.0
 11
191.7727657801042
 21
14.70699600701772
 31
0.0
 11
191.690586637531
 21
14.70699600701772
 31
0.0
 11
191.6606154208279
 21
14.70699600701772
 31
0.0
 11
191.6766359412525
 21
14.70165583340794
 31
0.0
 11
191.6926564616771
 21
14.69631565979815
 31
0.0
 11
191.670615568142
 21
14.67558114591443
 31
0.0
 11
191.6284861855364
 21
14.6668587153611
 31
0.0
 11
191.5365235541378
 21
14.46909247312657
 31
0.0
 11
191.4279078521764
 21
14.25467511978509
 31
0.0
 11
191.3127500824807
 21
14.0462255905162
 31
0.0
 11
191.685736667502
 21
14.05582441253029
 31
0.0
 11
192.0830700036151
 21
14.06781232404995
 31
0.0
 11
192.4899342191146
 21
14.08102711828532
 31
0.0
 11
192.2983119496979
 21
14.28966761302481
 31
0.0
 11
192.0966752013698
 21
14.48229420151832
 31
0.0
 11
192.1204947794749
 21
14.49525327269564
 31
0.0
 11
192.1728978513062
 21
14.52376322928576
 31
0.0
 11
192.2253009231375
 21
14.55227318587587
 31
0.0
 11
192.2491205012426
 21
14.56523225705319
 31
0.0
 11
192.4387101558627
 21
14.39079508370268
 31
0.0
 11
192.6200310940436
 21
14.20305846374091
 31
0.0
 11
192.7777729231148
 21
14.01782380992436
 31
0.0
 11
192.8966252504059
 21
13.85089253500949
 31
0.0
 11
192.8715408217924
 21
13.83501202286069
 31
0.0
 11
192.8163550788427
 21
13.80007489613332
 31
0.0
 11
192.7611693358929
 21
13.76513776940595
 31
0.0
 11
192.7360849072794
 21
13.74925725725715
 31
0.0
 11
192.6775518151613
 21
13.83887824681809
 31
0.0
 11
192.6050015078458
 21
13.93650288221032
 31
0.0
 11
192.2125412924095
 21
13.91636286943759
 31
0.0
 11
191.824947406956
 21
13.89803302999773
 31
0.0
 11
191.4567378976213
 21
13.88202178722396
 31
0.0
 11
191.1224308105412
 21
13.86883756444947
 31
0.0
 11
190.8365441918518
 21
13.85898878500749
 31
0.0
 11
190.821186232174
 21
13.83220523466695
 31
0.0
 11
190.7937434290546
 21
13.82143559057245
 31
0.0
 11
190.7867927192319
 21
13.84370299445577
 31
0.0
 11
190.7702179496548
 21
13.89680218833138
 31
0.0
 11
190.7504351601596
 21
13.96017864553776
 31
0.0
 11
190.7338603905825
 21
14.01327783941337
 31
0.0
 11
190.7269096807598
 21
14.03554524329669
 31
0.0
 11
190.9091199859153
 21
14.03751638912952
 31
0.0
 11
191.1174975848588
 21
14.04356211829471
 31
0.0
 11
191.2303203127216
 21
14.25483550301553
 31
0.0
 11
191.3407936722036
 21
14.48509813155879
 31
0.0
 11
191.4358254265628
 21
14.70699600701772
 31
0.0
 11
191.4043277461597
 21
14.70699600701772
 31
0.0
 11
191.3212884069154
 21
14.70699600701772
 31
0.0
 11
191.2038879617768
 21
14.70699600701772
 31
0.0
 11
191.0693069636912
 21
14.70699600701772
 31
0.0
 11
190.9347259656055
 21
14.70699600701772
 31
0.0
 11
190.817325520467
 21
14.70699600701772
 31
0.0
 11
190.7342861812226
 21
14.70699600701772
 31
0.0
 11
190.7027885008196
 21
14.70699600701772
 31
0.0
  0
SPLINE
  5
B0
102
{ACAD_REACTORS
330
CD
102
}
330
48
100
AcDbEntity
  8
_U_30EC_U_30A4_U_30E4_U_30FC_1
  6
Continuous
 62
     2
100
AcDbSpline
210
0.0
220
0.0
230
1.0
 70
    11
 71
     3
 72
   131
 73
   127
 74
   125
 42
0.000000001
 43
0.0000000001
 44
0.00000001
 40
0.0
 40
0.0
 40
0.0
 40
0.0
 40
0.0195577029826142
 40
0.0426490537460474
 40
0.2863607575855722
 40
0.534494843618855
 40
0.7842238845572784
 40
0.873731578946695
 40
0.9803832810312678
 40
1.092842274517015
 40
1.199761146656775
 40
1.289788768186481
 40
1.351573580786151
 40
1.37072711756138
 40
1.416400936017773
 40
1.470914848355884
 40
1.516588666791657
 40
1.535742203552737
 40
1.634216592293128
 40
1.760283341174986
 40
1.89796668668207
 40
2.031216387368894
 40
2.049689751137888
 40
2.101115601646823
 40
2.17950257773994
 40
2.278859318314054
 40
2.39319446225871
 40
2.516516648383822
 40
2.642834515405949
 40
2.766156701983453
 40
2.880491846754564
 40
2.979848588358605
 40
3.058235565443782
 40
3.109661416668936
 40
3.128134780704112
 40
3.146783742386428
 40
3.191254343315261
 40
3.244332157315863
 40
3.288802758225738
 40
3.307451719895009
 40
3.327717853844621
 40
3.383747753579982
 40
3.468388665924372
 40
3.574487837698678
 40
3.694892515728781
 40
3.822449946851918
 40
3.950007377920306
 40
4.070412055800398
 40
4.17651122736795
 40
4.261152139501396
 40
4.31718203907659
 40
4.337448172964509
 40
4.620011002696101
 40
4.885096638397465
 40
4.945373043518252
 40
5.014107710488581
 40
5.070481727652016
 40
5.31924695563654
 40
5.584812164506051
 40
5.859000912056938
 40
6.133746937542066
 40
6.40173221296885
 40
6.420736683995441
 40
6.472845717451091
 40
6.550702743894019
 40
6.646951193874227
 40
6.754234497930551
 40
6.865196086587329
 40
6.972479390357788
 40
7.06872783977195
 40
7.146584865450959
 40
7.198693898189188
 40
7.217698368905329
 40
7.234950401630807
 40
7.276089864269854
 40
7.325191803515968
 40
7.366331266090357
 40
7.383583298769708
 40
7.402779163492114
 40
7.453386443254517
 40
7.524934666445547
 40
7.606953361405886
 40
7.688972056429066
 40
7.760520279784317
 40
7.811127559734587
 40
7.830323424546209
 40
7.847844055299839
 40
7.894799345666878
 40
7.962779392744564
 40
8.04337429356061
 40
8.128174145149513
 40
8.208769044817315
 40
8.276749090377015
 40
8.323704379669577
 40
8.341225010056307
 40
8.358497614800456
 40
8.401679126686632
 40
8.45781509218569
 40
8.513951057728095
 40
8.557132569707994
 40
8.574405174505037
 40
8.602340668616373
 40
8.643455660539946
 40
8.663225271966613
 40
8.715345156564258
 40
8.789031889628593
 40
8.87350204552032
 40
8.957972194323942
 40
9.031658925567832
 40
9.08377881123452
 40
9.103548423002982
 40
9.119550083123547
 40
9.160817522379821
 40
9.217244429110215
 40
9.278724491644729
 40
9.335151398295514
 40
9.376418837357837
 40
9.392420497300625
 40
9.401196302734817
 40
9.41749422938424
 40
9.426270027749512
 40
9.440875075477544
 40
9.475702496998725
 40
9.517270709865889
 40
9.552098131994057
 40
9.566703169884265
 40
9.566703169884265
 40
9.566703169884265
 40
9.566703169884265
 10
194.6170254148479
 20
15.67015871511027
 30
0.0
 10
194.6134345093371
 20
15.66453690702159
 30
0.0
 10
194.6056039123625
 20
15.65227754419115
 30
0.0
 10
194.512996897455
 20
15.61601916040948
 30
0.0
 10
194.4887622233247
 20
15.40148444212723
 30
0.0
 10
194.3858709845939
 20
15.22197284509704
 30
0.0
 10
194.1220492364305
 20
15.03615573798147
 30
0.0
 10
194.284547156918
 20
14.95959336566081
 30
0.0
 10
194.3607225760839
 20
14.89856693195443
 30
0.0
 10
194.4492171072758
 20
14.83515804544759
 30
0.0
 10
194.5389930233111
 20
14.77525634219561
 30
0.0
 10
194.5883817636047
 20
14.72102154849209
 30
0.0
 10
194.674570815738
 20
14.69286240541833
 30
0.0
 10
194.641126067423
 20
14.65713309652812
 30
0.0
 10
194.6214671166311
 20
14.62550387991907
 30
0.0
 10
194.5919888217883
 20
14.58475872796069
 30
0.0
 10
194.5688989446032
 20
14.55504663489643
 30
0.0
 10
194.5380205968358
 20
14.50211422668493
 30
0.0
 10
194.472919336574
 20
14.627403349389
 30
0.0
 10
194.3796000122415
 20
14.68213900233934
 30
0.0
 10
194.2950636285139
 20
14.73916423939342
 30
0.0
 10
194.1722498125741
 20
14.89675287427522
 30
0.0
 10
194.1764450847301
 20
14.82035806766837
 30
0.0
 10
194.1751478652677
 20
14.77361280161295
 30
0.0
 10
194.1758126448076
 20
14.69584785812601
 30
0.0
 10
194.1755549986957
 20
14.59902068324423
 30
0.0
 10
194.1756431239921
 20
14.48650279078809
 30
0.0
 10
194.1756077302281
 20
14.365240859457
 30
0.0
 10
194.1756511758279
 20
14.24086897858962
 30
0.0
 10
194.1755199942405
 20
14.11967683631336
 30
0.0
 10
194.1759477562046
 20
14.00691148919744
 30
0.0
 10
194.174667820231
 20
13.91082913768745
 30
0.0
 10
194.1779759851044
 20
13.83113826468701
 30
0.0
 10
194.1715197740086
 20
13.78815175788785
 30
0.0
 10
194.1806208705556
 20
13.74955432372043
 30
0.0
 10
194.1447910339935
 20
13.75810887724071
 30
0.0
 10
194.1115223815253
 20
13.75342519985448
 30
0.0
 10
194.0604562576041
 20
13.75351298759785
 30
0.0
 10
194.0269723972814
 20
13.75794430283822
 30
0.0
 10
193.9907585408754
 20
13.7496079384251
 30
0.0
 10
194.0009782568666
 20
13.79145277179285
 30
0.0
 10
193.9936487887774
 20
13.83778560820175
 30
0.0
 10
193.9973633136103
 20
13.92374831106015
 30
0.0
 10
193.9959480554897
 20
14.0260514270485
 30
0.0
 10
193.9964105554639
 20
14.14453223931512
 30
0.0
 10
193.9962773686231
 20
14.26957683153356
 30
0.0
 10
193.9963015910046
 20
14.3947582810705
 30
0.0
 10
193.9963354925551
 20
14.51286645379058
 30
0.0
 10
193.9962060293133
 20
14.61628748709516
 30
0.0
 10
193.9965507549082
 20
14.69932036153666
 30
0.0
 10
193.9958698278691
 20
14.75143368521243
 30
0.0
 10
193.9994586600623
 20
14.8791290782136
 30
0.0
 10
193.7826171386438
 20
14.58048716819614
 30
0.0
 10
193.602135492195
 20
14.35263981511506
 30
0.0
 10
193.5490322295612
 20
14.49373443289816
 30
0.0
 10
193.520042913315
 20
14.54325767560945
 30
0.0
 10
193.4196648062819
 20
14.64641779790101
 30
0.0
 10
193.7405127723262
 20
14.72695035023783
 30
0.0
 10
193.868989700543
 20
14.91066283036434
 30
0.0
 10
194.0906454325361
 20
15.11931995771758
 30
0.0
 10
194.1770224894067
 20
15.29339211228345
 30
0.0
 10
194.4549394229078
 20
15.56967051342513
 30
0.0
 10
194.3346247839283
 20
15.56534559551112
 30
0.0
 10
194.2863197351349
 20
15.56614856202552
 30
0.0
 10
194.2102377454905
 20
15.56574582146583
 30
0.0
 10
194.116701000975
 20
15.56590275611608
 30
0.0
 10
194.0117594788557
 20
15.56582502576223
 30
0.0
 10
193.9033887738717
 20
15.56595464378553
 30
0.0
 10
193.7981454235897
 20
15.56554393490691
 30
0.0
 10
193.7056237819412
 20
15.5668207367159
 30
0.0
 10
193.6268130800707
 20
15.56340766534849
 30
0.0
 10
193.5839674565379
 20
15.57023350036319
 30
0.0
 10
193.5449499586515
 20
15.56065064201123
 30
0.0
 10
193.5526365271864
 20
15.59420779565542
 30
0.0
 10
193.5485464404312
 20
15.62523550322232
 30
0.0
 10
193.5485531368814
 20
15.672365292709
 30
0.0
 10
193.5526239724911
 20
15.70340941646778
 30
0.0
 10
193.5449495574583
 20
15.73701861635903
 30
0.0
 10
193.5834819405495
 20
15.72748410420872
 30
0.0
 10
193.6241228014479
 20
15.73397435498071
 30
0.0
 10
193.6951471850463
 20
15.73100150650254
 30
0.0
 10
193.7729318149634
 20
15.73174761399158
 30
0.0
 10
193.8507292246474
 20
15.73247814044525
 30
0.0
 10
193.9217232089908
 20
15.7295423551416
 30
0.0
 10
193.9624279791822
 20
15.73595468772952
 30
0.0
 10
194.000985348991
 20
15.72650524176004
 30
0.0
 10
193.9927342754929
 20
15.76264692158784
 30
0.0
 10
193.9982346669358
 20
15.80129837613227
 30
0.0
 10
193.9955754206164
 20
15.86913528561839
 30
0.0
 10
193.9965815471534
 20
15.94591641538739
 30
0.0
 10
193.996017801832
 20
16.02849393582756
 30
0.0
 10
193.9970714526593
 20
16.10517329229877
 30
0.0
 10
193.994267586313
 20
16.17331990776699
 30
0.0
 10
194.0000702721305
 20
16.21132399809345
 30
0.0
 10
193.9915654551159
 20
16.24758448077645
 30
0.0
 10
194.0255610233125
 20
16.23755723771851
 30
0.0
 10
194.0594575683099
 20
16.24073266813705
 30
0.0
 10
194.1126669060347
 20
16.23508965640609
 30
0.0
 10
194.1660768574483
 20
16.23434774436424
 30
0.0
 10
194.199591464949
 20
16.22819223482978
 30
0.0
 10
194.2388086183039
 20
16.23346029773592
 30
0.0
 10
194.2120263698492
 20
16.19253380793488
 30
0.0
 10
194.1708111001723
 20
16.20371204538111
 30
0.0
 10
194.1782641540874
 20
16.15867056192123
 30
0.0
 10
194.1742227952184
 20
16.11412278028143
 30
0.0
 10
194.1761714049641
 20
16.04223572621702
 30
0.0
 10
194.1752364849758
 20
15.9616863058877
 30
0.0
 10
194.176510719003
 20
15.88173995404994
 30
0.0
 10
194.1732043793864
 20
15.80841837083183
 30
0.0
 10
194.1802106179961
 20
15.76688643002568
 30
0.0
 10
194.1701440380125
 20
15.72752418568112
 30
0.0
 10
194.2029814803921
 20
15.73468063430981
 30
0.0
 10
194.236457729648
 20
15.73027243137944
 30
0.0
 10
194.2915053476019
 20
15.73217943347897
 30
0.0
 10
194.3489502595315
 20
15.73185366407288
 30
0.0
 10
194.4023026248311
 20
15.73106308733082
 30
0.0
 10
194.4398540896638
 20
15.73313959118073
 30
0.0
 10
194.4623172523238
 20
15.73022338167109
 30
0.0
 10
194.4751678073731
 20
15.73572552644055
 30
0.0
 10
194.4858255685888
 20
15.73801118197791
 30
0.0
 10
194.4986635650144
 20
15.74494972588053
 30
0.0
 10
194.514599103307
 20
15.72853046313672
 30
0.0
 10
194.5410623920892
 20
15.71709122319448
 30
0.0
 10
194.5726805253757
 20
15.6964468783519
 30
0.0
 10
194.5987255892151
 20
15.68116869628294
 30
0.0
 10
194.6128517723973
 20
15.67266976323183
 30
0.0
 10
194.6170254148479
 20
15.67015871511027
 30
0.0
 11
194.6170254148479
 21
15.67015871511027
 31
0.0
 11
194.6049990002243
 21
15.65473571164188
 31
0.0
 11
194.5848961795566
 21
15.64337406233917
 31
0.0
 11
194.4778986355814
 21
15.42440620231159
 31
0.0
 11
194.3477039934325
 21
15.21317201512161
 31
0.0
 11
194.1996540366071
 21
15.01206059027479
 31
0.0
 11
194.2734958253735
 21
14.96147384935379
 31
0.0
 11
194.36056643118
 21
14.89988411653739
 31
0.0
 11
194.4518003750405
 21
14.83413160594426
 31
0.0
 11
194.5381321779688
 21
14.77105653169304
 31
0.0
 11
194.6104963609787
 21
14.71749910790242
 31
0.0
 11
194.6598274450843
 21
14.68029954869104
 31
0.0
 11
194.6486940702213
 21
14.66471410869494
 31
0.0
 11
194.6221452532403
 21
14.62754882870424
 31
0.0
 11
194.5904579555534
 21
14.58319026871533
 31
0.0
 11
194.5639091385724
 21
14.54602498872462
 31
0.0
 11
194.5527757637094
 21
14.53043954872852
 31
0.0
 11
194.4807013362948
 21
14.59754008690617
 31
0.0
 11
194.3852856985381
 21
14.67993354174669
 31
0.0
 11
194.279326415217
 21
14.76785017366916
 31
0.0
 11
194.175621051109
 21
14.85152024309267
 31
0.0
 11
194.175621051109
 21
14.83304687900863
 31
0.0
 11
194.175621051109
 21
14.78162102763955
 31
0.0
 11
194.175621051109
 21
14.70323405030999
 31
0.0
 11
194.175621051109
 21
14.60387730834449
 31
0.0
 11
194.175621051109
 21
14.48954216306761
 31
0.0
 11
194.175621051109
 21
14.3662199758039
 31
0.0
 11
194.175621051109
 21
14.23990210787791
 31
0.0
 11
194.175621051109
 21
14.11657992061419
 31
0.0
 11
194.175621051109
 21
14.00224477533731
 31
0.0
 11
194.175621051109
 21
13.90288803337181
 31
0.0
 11
194.175621051109
 21
13.82450105604224
 31
0.0
 11
194.175621051109
 21
13.77307520467317
 31
0.0
 11
194.175621051109
 21
13.75460184058913
 31
0.0
 11
194.1569720893626
 21
13.75460184058913
 31
0.0
 11
194.112501488275
 21
13.75460184058913
 31
0.0
 11
194.0594236740737
 21
13.75460184058913
 31
0.0
 11
194.014953072986
 21
13.75460184058913
 31
0.0
 11
193.9963041112396
 21
13.75460184058913
 31
0.0
 11
193.9963041112396
 21
13.7748679746022
 31
0.0
 11
193.9963041112396
 21
13.83089787452067
 31
0.0
 11
193.9963041112396
 21
13.91553878716348
 31
0.0
 11
193.9963041112396
 21
14.02163795934954
 31
0.0
 11
193.9963041112396
 21
14.14204263789776
 31
0.0
 11
193.9963041112396
 21
14.26960006962706
 31
0.0
 11
193.9963041112396
 21
14.39715750135636
 31
0.0
 11
193.9963041112396
 21
14.51756217990458
 31
0.0
 11
193.9963041112396
 21
14.62366135209064
 31
0.0
 11
193.9963041112396
 21
14.70830226473344
 31
0.0
 11
193.9963041112396
 21
14.76433216465193
 31
0.0
 11
193.9963041112396
 21
14.78459829866499
 31
0.0
 11
193.7883272849482
 21
14.59331998274056
 31
0.0
 11
193.5763486358425
 21
14.4341488543081
 31
0.0
 11
193.5495629014483
 21
14.48814671952095
 31
0.0
 11
193.5138765415025
 21
14.54689140572026
 31
0.0
 11
193.4799697494124
 21
14.59192871537977
 31
0.0
 11
193.6830287742319
 21
14.73563387201055
 31
0.0
 11
193.881853195826
 21
14.91168423529989
 31
0.0
 11
194.0677041444179
 21
15.1132751452495
 31
0.0
 11
194.2318427502303
 21
15.33360194186108
 31
0.0
 11
194.3655301434864
 21
15.56585996513634
 31
0.0
 11
194.3465256724482
 21
15.56585996513634
 31
0.0
 11
194.2944166389562
 21
15.56585996513634
 31
0.0
 11
194.2165596124447
 21
15.56585996513634
 31
0.0
 11
194.1203111623478
 21
15.56585996513634
 31
0.0
 11
194.0130278580997
 21
15.56585996513634
 31
0.0
 11
193.9020662691345
 21
15.56585996513634
 31
0.0
 11
193.7947829648864
 21
15.56585996513634
 31
0.0
 11
193.6985345147895
 21
15.56585996513634
 31
0.0
 11
193.620677488278
 21
15.56585996513634
 31
0.0
 11
193.568568454786
 21
15.56585996513634
 31
0.0
 11
193.5495639837478
 21
15.56585996513634
 31
0.0
 11
193.5495639837478
 21
15.58311199790981
 31
0.0
 11
193.5495639837478
 21
15.62425146067731
 31
0.0
 11
193.5495639837478
 21
15.67335340010949
 31
0.0
 11
193.5495639837478
 21
15.71449286287698
 31
0.0
 11
193.5495639837478
 21
15.73174489565045
 31
0.0
 11
193.568759848601
 21
15.73174489565045
 31
0.0
 11
193.6193671286684
 21
15.73174489565045
 31
0.0
 11
193.690915352212
 21
15.73174489565045
 31
0.0
 11
193.7729340474937
 21
15.73174489565045
 31
0.0
 11
193.8549527427754
 21
15.73174489565045
 31
0.0
 11
193.926500966319
 21
15.73174489565045
 31
0.0
 11
193.9771082463865
 21
15.73174489565045
 31
0.0
 11
193.9963041112396
 21
15.73174489565045
 31
0.0
 11
193.9963041112396
 21
15.74926552655218
 31
0.0
 11
193.9963041112396
 21
15.79622081736882
 31
0.0
 11
193.9963041112396
 21
15.86420086526753
 31
0.0
 11
193.9963041112396
 21
15.94479576741548
 31
0.0
 11
193.9963041112396
 21
16.02959562097985
 31
0.0
 11
193.9963041112396
 21
16.11019052312781
 31
0.0
 11
193.9963041112396
 21
16.17817057102652
 31
0.0
 11
193.9963041112396
 21
16.22512586184316
 31
0.0
 11
193.9963041112396
 21
16.24264649274489
 31
0.0
 11
194.0135484112112
 21
16.24165806167518
 31
0.0
 11
194.0566591611401
 21
16.2391869840009
 31
0.0
 11
194.1127031360478
 21
16.23597458302434
 31
0.0
 11
194.1687471109554
 21
16.23276218204779
 31
0.0
 11
194.2118578608843
 21
16.23029110437351
 31
0.0
 11
194.2291021608559
 21
16.2293026733038
 31
0.0
 11
194.2143774674851
 21
16.2055629337264
 31
0.0
 11
194.175621051109
 21
16.19183767331311
 31
0.0
 11
194.175621051109
 21
16.17206806177292
 31
0.0
 11
194.175621051109
 21
16.11994817680332
 31
0.0
 11
194.175621051109
 21
16.04626144288078
 31
0.0
 11
194.175621051109
 21
15.96179128448178
 31
0.0
 11
194.175621051109
 21
15.87732112608278
 31
0.0
 11
194.175621051109
 21
15.80363439216024
 31
0.0
 11
194.175621051109
 21
15.75151450719064
 31
0.0
 11
194.175621051109
 21
15.73174489565045
 31
0.0
 11
194.1916227112936
 21
15.73174489565045
 31
0.0
 11
194.232890150717
 21
15.73174489565045
 31
0.0
 11
194.2893170576837
 21
15.73174489565045
 31
0.0
 11
194.3507971204982
 21
15.73174489565045
 31
0.0
 11
194.4072240274649
 21
15.73174489565045
 31
0.0
 11
194.4484914668883
 21
15.73174489565045
 31
0.0
 11
194.4644931270729
 21
15.73174489565045
 31
0.0
 11
194.4728206422925
 21
15.73451387455921
 31
0.0
 11
194.4882860277004
 21
15.73965626396118
 31
0.0
 11
194.49661354292
 21
15.74242524286994
 31
0.0
 11
194.5091363776005
 21
15.73490952398294
 31
0.0
 11
194.5389985218386
 21
15.71698742509854
 31
0.0
 11
194.5746404359293
 21
15.69559653288167
 31
0.0
 11
194.6045025801674
 21
15.67767443399728
 31
0.0
 11
194.6170254148479
 21
15.67015871511027
 31
0.0
  0
SPLINE
  5
B1
102
{ACAD_REACTORS
330
CE
102
}
330
48
100
AcDbEntity
  8
_U_30EC_U_30A4_U_30E4_U_30FC_1
  6
Continuous
 62
     2
100
AcDbSpline
210
0.0
220
0.0
230
1.0
 70
    11
 71
     3
 72
   124
 73
   120
 74
   118
 42
0.000000001
 43
0.0000000001
 44
0.00000001
 40
0.0
 40
0.0
 40
0.0
 40
0.0
 40
0.0278187229624226
 40
0.1011590162383985
 40
0.2048470170590239
 40
0.3237088716558961
 40
0.4425707262522
 40
0.5462587270699263
 40
0.6195990203312082
 40
0.647417752257866
 40
0.6750060736115224
 40
0.7357003855242759
 40
0.7963946998054492
 40
0.8239830245571784
 40
0.8540933811103162
 40
0.9373396629409274
 40
1.063094687343265
 40
1.220731268638103
 40
1.399622220914778
 40
1.589140358637762
 40
1.778658496423928
 40
1.957549448940596
 40
2.115186030873246
 40
2.240941056914521
 40
2.324187341760619
 40
2.354297700109469
 40
2.381886024671975
 40
2.442580338710564
 40
2.503274652750588
 40
2.530862977314695
 40
2.560983949278648
 40
2.640393784453022
 40
2.752662861759245
 40
2.881361560118234
 40
3.010060258455337
 40
3.122329335705513
 40
3.201739170818098
 40
3.231860142753487
 40
3.264298024030542
 40
3.352343701778415
 40
3.482095226868938
 40
3.639650650173196
 40
3.811108022565652
 40
3.982565394928158
 40
4.140120818152739
 40
4.26987234314145
 40
4.357918020802511
 40
4.390355902044139
 40
4.423256253992709
 40
4.508104530073259
 40
4.624121560637026
 40
4.750528176031783
 40
4.866545206602258
 40
4.951393482692244
 40
4.984293834645645
 40
5.01145083324256
 40
5.071196230152345
 40
5.130941627057424
 40
5.158098625649088
 40
5.190998977601779
 40
5.275847253689604
 40
5.391864284257095
 40
5.51827089964864
 40
5.63428793020968
 40
5.719136206288353
 40
5.752036558236269
 40
5.782130946283295
 40
5.86278390622947
 40
5.979550131775336
 40
6.117984316640743
 40
6.263641154588288
 40
6.402075339414494
 40
6.518841564908288
 40
6.59949452481587
 40
6.629588912849107
 40
6.654403028226684
 40
6.713575149488451
 40
6.784199939329796
 40
6.843372060493898
 40
6.868186175803116
 40
6.896246243202217
 40
6.939586233758584
 40
6.967846564565212
 40
7.043584251090151
 40
7.153234334452009
 40
7.283231855734758
 40
7.420011856035792
 40
7.550009376580144
 40
7.659659458835543
 40
7.735397144417536
 40
7.763657474851708
 40
7.796409728011366
 40
7.88087606509664
 40
7.996370852466026
 40
8.12220844641892
 40
8.237703224799514
 40
8.322169562011236
 40
8.354921815206222
 40
8.382078813308002
 40
8.441824209207308
 40
8.501569605240459
 40
8.528726603486037
 40
8.561478856696057
 40
8.645945193878108
 40
8.761439980865648
 40
8.88727758076479
 40
9.002772362001311
 40
9.087238696661503
 40
9.119990949235985
 40
9.152428830613685
 40
9.2404745086389
 40
9.37022603414985
 40
9.527781457984732
 40
9.699238830981722
 40
9.87069620397891
 40
10.02825162781433
 40
10.15800315332595
 40
10.2460488313515
 40
10.27848670378552
 40
10.27848670378552
 40
10.27848670378552
 40
10.27848670378552
 10
195.3821827564384
 20
14.01410517385757
 30
0.0
 10
195.3914554737524
 20
14.01410498511274
 30
0.0
 10
195.4251744536861
 20
14.01410430876714
 30
0.0
 10
195.4934706812466
 20
14.01411807243305
 30
0.0
 10
195.592014171158
 20
14.01403224219544
 30
0.0
 10
195.7062066464812
 20
14.0144175561225
 30
0.0
 10
195.8185894417072
 20
14.01300835897545
 30
0.0
 10
195.9214376600118
 20
14.01719117422243
 30
0.0
 10
195.980683987485
 20
14.00823089251983
 30
0.0
 10
196.0371265937034
 20
14.0216443452606
 30
0.0
 10
196.0246255586956
 20
13.97087198613361
 30
0.0
 10
196.0329549635704
 20
13.92589320939067
 30
0.0
 10
196.0248170841121
 20
13.88056752990488
 30
0.0
 10
196.0370529214458
 20
13.82931932408465
 30
0.0
 10
195.9747773490334
 20
13.84447955365276
 30
0.0
 10
195.9060513026869
 20
13.83359750710742
 30
0.0
 10
195.7782756749592
 20
13.83911304747972
 30
0.0
 10
195.6262984511643
 20
13.83700851253698
 30
0.0
 10
195.4502695972523
 20
13.83771002588473
 30
0.0
 10
195.2644431934287
 20
13.83745237531291
 30
0.0
 10
195.0786167437175
 20
13.83771005144603
 30
0.0
 10
194.9025880142169
 20
13.83700841847731
 30
0.0
 10
194.7506104154194
 20
13.83911332229988
 30
0.0
 10
194.6228357664554
 20
13.8335968076764
 30
0.0
 10
194.554107783658
 20
13.84448077125942
 30
0.0
 10
194.4918349042883
 20
13.82931786684209
 30
0.0
 10
194.5040616290017
 20
13.88057510805171
 30
0.0
 10
194.4960004462597
 20
13.92582473272425
 30
0.0
 10
194.5040675809892
 20
13.97106357955323
 30
0.0
 10
194.4918238487083
 20
14.02234176909958
 30
0.0
 10
194.5525017120698
 20
14.00749577363135
 30
0.0
 10
194.6162810745737
 20
14.01756448170735
 30
0.0
 10
194.7277314353503
 20
14.01294644212
 30
0.0
 10
194.8497533443823
 20
14.01413328905468
 30
0.0
 10
194.9719538137824
 20
14.01515863900635
 30
0.0
 10
195.0829794287393
 20
14.01092475623402
 30
0.0
 10
195.1476517413958
 20
14.02018584521739
 30
0.0
 10
195.2091162810503
 20
14.00604423049682
 30
0.0
 10
195.1930065601337
 20
14.07235527884516
 30
0.0
 10
195.204298032736
 20
14.14447790121976
 30
0.0
 10
195.1987400822561
 20
14.27513760888286
 30
0.0
 10
195.2008035061691
 20
14.42607323708241
 30
0.0
 10
195.2000167127295
 20
14.59335873107886
 30
0.0
 10
195.2007845215628
 20
14.76061110332302
 30
0.0
 10
195.198803878563
 20
14.91163289269914
 30
0.0
 10
195.2041306156621
 20
15.04206069552994
 30
0.0
 10
195.1933101388426
 20
15.11465442605899
 30
0.0
 10
195.2090326429876
 20
15.18150469436798
 30
0.0
 10
195.1432708132491
 20
15.16580512490824
 30
0.0
 10
195.0756367830764
 20
15.17609243083996
 30
0.0
 10
194.961588529381
 20
15.17113786847121
 30
0.0
 10
194.8451242674903
 20
15.17414128030475
 30
0.0
 10
194.7306554121477
 20
15.16880303143389
 30
0.0
 10
194.6640324657812
 20
15.18001268074824
 30
0.0
 10
194.5990769715186
 20
15.16349132665011
 30
0.0
 10
194.6107989758707
 20
15.21473720477058
 30
0.0
 10
194.6032830189122
 20
15.25950333784091
 30
0.0
 10
194.6107989878834
 20
15.30426944897961
 30
0.0
 10
194.5990769505347
 20
15.35551536129741
 30
0.0
 10
194.6640326339199
 20
15.33899381766815
 30
0.0
 10
194.7306533339822
 20
15.35020571373943
 30
0.0
 10
194.8451352858064
 20
15.34485436710665
 30
0.0
 10
194.9615454436963
 20
15.34791188771117
 30
0.0
 10
195.0757660174641
 20
15.34278499010708
 30
0.0
 10
195.1430150439228
 20
15.35345733355599
 30
0.0
 10
195.2083325941439
 20
15.33742082669076
 30
0.0
 10
195.1941391448553
 20
15.39949685750053
 30
0.0
 10
195.2036059462996
 20
15.46586761628763
 30
0.0
 10
195.1990269004085
 20
15.58239972741966
 30
0.0
 10
195.2007696555949
 20
15.71426685022376
 30
0.0
 10
195.1997551495392
 20
15.85615960150273
 30
0.0
 10
195.2017191344372
 20
15.9876905070258
 30
0.0
 10
195.1964668553852
 20
16.10524577283002
 30
0.0
 10
195.2073408763474
 20
16.16947789001584
 30
0.0
 10
195.1919536641855
 20
16.23108802545047
 30
0.0
 10
195.2407591537801
 20
16.21702407382111
 30
0.0
 10
195.2853995564727
 20
16.21954742075314
 30
0.0
 10
195.3538643946744
 20
16.21512797401709
 30
0.0
 10
195.3959106169103
 20
16.20613025544036
 30
0.0
 10
195.4487544758776
 20
16.21411714866509
 30
0.0
 10
195.4207035002014
 20
16.17113917611674
 30
0.0
 10
195.3749142248595
 20
16.18259552043835
 30
0.0
 10
195.3869539073266
 20
16.12173520005137
 30
0.0
 10
195.3796086070643
 20
16.05769299468773
 30
0.0
 10
195.3831195826162
 20
15.94909368863911
 30
0.0
 10
195.3819806760175
 20
15.82494319144753
 30
0.0
 10
195.3819174780263
 20
15.69189719829878
 30
0.0
 10
195.3832872966868
 20
15.56797381249555
 30
0.0
 10
195.3791638801314
 20
15.45868337849339
 30
0.0
 10
195.3877763103565
 20
15.3960858009417
 30
0.0
 10
195.3746757454402
 20
15.33740133296365
 30
0.0
 10
195.4393884328199
 20
15.35362113810902
 30
0.0
 10
195.5060405953157
 20
15.34270260383311
 30
0.0
 10
195.6198779541103
 20
15.34793740173756
 30
0.0
 10
195.7357259122097
 20
15.34485547516913
 30
0.0
 10
195.8496924263281
 20
15.35018259812513
 30
0.0
 10
195.9160341018099
 20
15.33904208166542
 30
0.0
 10
195.9807188525481
 20
15.35546979593177
 30
0.0
 10
195.9689820772723
 20
15.3042592521005
 30
0.0
 10
195.9765168063042
 20
15.25950334121001
 30
0.0
 10
195.9689820992259
 20
15.21474739010027
 30
0.0
 10
195.9807188140737
 20
15.16353690871041
 30
0.0
 10
195.9160344075253
 20
15.1799642779422
 30
0.0
 10
195.8496886430826
 20
15.1688278444727
 30
0.0
 10
195.7357459487013
 20
15.1741311589312
 30
0.0
 10
195.6197995623055
 20
15.17114764593544
 30
0.0
 10
195.5062756882124
 20
15.17606892268393
 30
0.0
 10
195.4389231318805
 20
15.1658508751352
 30
0.0
 10
195.3734285122496
 20
15.18145996138816
 30
0.0
 10
195.3891713619218
 20
15.11463851827411
 30
0.0
 10
195.3783275998215
 20
15.04207057815878
 30
0.0
 10
195.3836581629792
 20
14.91162247614416
 30
0.0
 10
195.3817136151857
 20
14.76064558185226
 30
0.0
 10
195.3823133683214
 20
14.59322243934158
 30
0.0
 10
195.3821506559606
 20
14.42656176118371
 30
0.0
 10
195.3821895488135
 20
14.27360142921636
 30
0.0
 10
195.38218164131
 20
14.14849178985705
 30
0.0
 10
195.3821828382745
 20
14.0650789099142
 30
0.0
 10
195.3821827716209
 20
14.02491778281976
 30
0.0
 10
195.3821827564384
 20
14.01410517385757
 30
0.0
 11
195.3821827564384
 21
14.01410517385757
 31
0.0
 11
195.4100014883675
 21
14.01410517385757
 31
0.0
 11
195.4833417816353
 21
14.01410517385757
 31
0.0
 11
195.5870297824623
 21
14.01410517385757
 31
0.0
 11
195.7058916370687
 21
14.01410517385757
 31
0.0
 11
195.8247534916752
 21
14.01410517385757
 31
0.0
 11
195.9284414925021
 21
14.01410517385757
 31
0.0
 11
196.0017817857699
 21
14.01410517385757
 31
0.0
 11
196.0296005176991
 21
14.01410517385757
 31
0.0
 11
196.0296005176991
 21
13.9865168492117
 31
0.0
 11
196.0296005176991
 21
13.92582253499077
 31
0.0
 11
196.0296005176991
 21
13.86512822076984
 31
0.0
 11
196.0296005176991
 21
13.83753989612397
 31
0.0
 11
195.9994901593494
 21
13.83753989612397
 31
0.0
 11
195.9162438745005
 21
13.83753989612397
 31
0.0
 11
195.7904888484522
 21
13.83753989612397
 31
0.0
 11
195.6328522665042
 21
13.83753989612397
 31
0.0
 11
195.4539613139565
 21
13.83753989612397
 31
0.0
 11
195.2644431761089
 21
13.83753989612397
 31
0.0
 11
195.0749250382613
 21
13.83753989612397
 31
0.0
 11
194.8960340857136
 21
13.83753989612397
 31
0.0
 11
194.7383975037656
 21
13.83753989612397
 31
0.0
 11
194.6126424777173
 21
13.83753989612397
 31
0.0
 11
194.5293961928683
 21
13.83753989612397
 31
0.0
 11
194.4992858345187
 21
13.83753989612397
 31
0.0
 11
194.4992858345187
 21
13.86512822076984
 31
0.0
 11
194.4992858345187
 21
13.92582253499077
 31
0.0
 11
194.4992858345187
 21
13.9865168492117
 31
0.0
 11
194.4992858345187
 21
14.01410517385757
 31
0.0
 11
194.5294068064947
 21
14.01410517385757
 31
0.0
 11
194.608816641704
 21
14.01410517385757
 31
0.0
 11
194.721085719069
 21
14.01410517385757
 31
0.0
 11
194.8497844175118
 21
14.01410517385757
 31
0.0
 11
194.9784831159546
 21
14.01410517385757
 31
0.0
 11
195.0907521933196
 21
14.01410517385757
 31
0.0
 11
195.1701620285289
 21
14.01410517385757
 31
0.0
 11
195.2002830005049
 21
14.01410517385757
 31
0.0
 11
195.2002830005049
 21
14.04654305523835
 31
0.0
 11
195.2002830005049
 21
14.1345887332719
 31
0.0
 11
195.2002830005049
 21
14.26434025879503
 31
0.0
 11
195.2002830005049
 21
14.42189568264454
 31
0.0
 11
195.2002830005049
 21
14.59335305565724
 31
0.0
 11
195.2002830005049
 21
14.76481042866994
 31
0.0
 11
195.2002830005049
 21
14.92236585251944
 31
0.0
 11
195.2002830005049
 21
15.05211737804257
 31
0.0
 11
195.2002830005049
 21
15.14016305607612
 31
0.0
 11
195.2002830005049
 21
15.1726009374569
 31
0.0
 11
195.1673826485529
 21
15.1726009374569
 31
0.0
 11
195.0825343724663
 21
15.1726009374569
 31
0.0
 11
194.9665173418989
 21
15.1726009374569
 31
0.0
 11
194.8401107265045
 21
15.1726009374569
 31
0.0
 11
194.724093695937
 21
15.1726009374569
 31
0.0
 11
194.6392454198503
 21
15.1726009374569
 31
0.0
 11
194.6063450678984
 21
15.1726009374569
 31
0.0
 11
194.6063450678984
 21
15.19975793614802
 31
0.0
 11
194.6063450678984
 21
15.2595033332685
 31
0.0
 11
194.6063450678984
 21
15.31924873038898
 31
0.0
 11
194.6063450678984
 21
15.3464057290801
 31
0.0
 11
194.6392454198504
 21
15.3464057290801
 31
0.0
 11
194.724093695937
 21
15.3464057290801
 31
0.0
 11
194.8401107265045
 21
15.3464057290801
 31
0.0
 11
194.9665173418989
 21
15.3464057290801
 31
0.0
 11
195.0825343724663
 21
15.3464057290801
 31
0.0
 11
195.1673826485529
 21
15.3464057290801
 31
0.0
 11
195.2002830005049
 21
15.3464057290801
 31
0.0
 11
195.2002830005049
 21
15.3765001173137
 31
0.0
 11
195.2002830005049
 21
15.45715307777974
 31
0.0
 11
195.2002830005049
 21
15.57391930412609
 31
0.0
 11
195.2002830005049
 21
15.71235349000063
 31
0.0
 11
195.2002830005049
 21
15.85801032905124
 31
0.0
 11
195.2002830005049
 21
15.99644451492578
 31
0.0
 11
195.2002830005049
 21
16.11321074127214
 31
0.0
 11
195.2002830005049
 21
16.19386370173817
 31
0.0
 11
195.2002830005049
 21
16.22395808997177
 31
0.0
 11
195.2250405288619
 21
16.22228324219442
 31
0.0
 11
195.284077711867
 21
16.21828937441765
 31
0.0
 11
195.3545414464215
 21
16.21352249997441
 31
0.0
 11
195.4135786294266
 21
16.20952863219765
 31
0.0
 11
195.4383361577836
 21
16.20785378442029
 31
0.0
 11
195.4233067224031
 21
16.18415814206509
 31
0.0
 11
195.3821827564384
 21
16.17047697887404
 31
0.0
 11
195.3821827564384
 21
16.14221664794832
 31
0.0
 11
195.3821827564384
 21
16.0664789610674
 31
0.0
 11
195.3821827564384
 21
15.95682887707561
 31
0.0
 11
195.3821827564384
 21
15.82683135481731
 31
0.0
 11
195.3821827564384
 21
15.69005135313683
 31
0.0
 11
195.3821827564384
 21
15.56005383087853
 31
0.0
 11
195.3821827564384
 21
15.45040374688674
 31
0.0
 11
195.3821827564384
 21
15.37466606000582
 31
0.0
 11
195.3821827564384
 21
15.3464057290801
 31
0.0
 11
195.4149350096116
 21
15.3464057290801
 31
0.0
 11
195.4994013467423
 21
15.3464057290801
 31
0.0
 11
195.6148961342477
 21
15.3464057290801
 31
0.0
 11
195.7407337385446
 21
15.3464057290801
 31
0.0
 11
195.8562285260499
 21
15.3464057290801
 31
0.0
 11
195.9406948631807
 21
15.3464057290801
 31
0.0
 11
195.9734471163539
 21
15.3464057290801
 31
0.0
 11
195.9734471163539
 21
15.31924873038898
 31
0.0
 11
195.9734471163539
 21
15.2595033332685
 31
0.0
 11
195.9734471163539
 21
15.19975793614802
 31
0.0
 11
195.9734471163539
 21
15.1726009374569
 31
0.0
 11
195.9406948631807
 21
15.1726009374569
 31
0.0
 11
195.85622852605
 21
15.1726009374569
 31
0.0
 11
195.7407337385446
 21
15.1726009374569
 31
0.0
 11
195.6148961342477
 21
15.1726009374569
 31
0.0
 11
195.4994013467423
 21
15.1726009374569
 31
0.0
 11
195.4149350096116
 21
15.1726009374569
 31
0.0
 11
195.3821827564384
 21
15.1726009374569
 31
0.0
 11
195.3821827564384
 21
15.14016305607612
 31
0.0
 11
195.3821827564384
 21
15.05211737804257
 31
0.0
 11
195.3821827564384
 21
14.92236585251945
 31
0.0
 11
195.3821827564384
 21
14.76481042866994
 31
0.0
 11
195.3821827564384
 21
14.59335305565724
 31
0.0
 11
195.3821827564384
 21
14.42189568264453
 31
0.0
 11
195.3821827564384
 21
14.26434025879503
 31
0.0
 11
195.3821827564384
 21
14.1345887332719
 31
0.0
 11
195.3821827564384
 21
14.04654305523835
 31
0.0
 11
195.3821827564384
 21
14.01410517385757
 31
0.0
  0
SPLINE
  5
B2
102
{ACAD_REACTORS
330
CF
102
}
330
48
100
AcDbEntity
  8
_U_30EC_U_30A4_U_30E4_U_30FC_1
  6
Continuous
 62
     2
100
AcDbSpline
210
0.0
220
0.0
230
1.0
 70
     8
 71
     3
 72
    62
 73
    58
 74
    56
 42
0.000000001
 43
0.0000000001
 44
0.00000001
 40
0.0
 40
0.0
 40
0.0
 40
0.0
 40
0.0598250028308485
 40
0.2024846486897047
 40
0.3727558389220178
 40
0.5154154847934933
 40
0.5752404975784202
 40
0.9332326775486095
 40
1.290451762839343
 40
1.602077253145751
 40
1.699931634112021
 40
1.799359756424981
 40
2.270120149657026
 40
2.804661928461488
 40
2.882342287383201
 40
3.076543185719052
 40
3.329004354835511
 40
3.581465524568339
 40
3.775666424543623
 40
3.853346784558243
 40
3.899120679594988
 40
3.984129341791986
 40
4.029903236817335
 40
4.105797496059491
 40
4.295533144152452
 40
4.542189486611697
 40
4.788845828875649
 40
4.978581476410033
 40
5.054475735244278
 40
5.621734664339284
 40
6.130867242037311
 40
6.225249780948515
 40
6.318913039727165
 40
6.663579954558725
 40
7.047498900224553
 40
7.435230791575485
 40
7.498943906667897
 40
7.650875181209834
 40
7.832212509001316
 40
7.984143783696702
 40
8.047856898902829
 40
8.091554632732338
 40
8.172707566964
 40
8.216405300767725
 40
8.289021782160582
 40
8.462184160756927
 40
8.668861838005036
 40
8.84202421526357
 40
8.914640695474766
 40
8.989881580860972
 40
9.155411528826875
 40
9.320941477743656
 40
9.396182352486905
 40
9.454709011143452
 40
9.583467660170387
 40
9.712226309012665
 40
9.770752957989119
 40
9.770752957989119
 40
9.770752957989119
 40
9.770752957989119
 10
187.1521871691833
 20
14.9398028819595
 30
0.0
 10
187.1322348171623
 20
14.93980875568671
 30
0.0
 10
187.0647037716465
 20
14.93982863806157
 30
0.0
 10
186.9410612161788
 20
14.93949362520326
 30
0.0
 10
186.7863180150057
 20
14.94107673750512
 30
0.0
 10
186.669734948248
 20
14.93686078860495
 30
0.0
 10
186.4550942634241
 20
14.95215205331626
 30
0.0
 10
186.8518948407229
 20
14.59198721286193
 30
0.0
 10
186.8945656069268
 20
14.37510503397166
 30
0.0
 10
187.3189162146612
 20
14.19325062511443
 30
0.0
 10
187.1439821496074
 20
14.08985196568072
 30
0.0
 10
187.0194523925084
 20
13.87831523212725
 30
0.0
 10
186.7666277235942
 20
14.34806081001559
 30
0.0
 10
186.4797602893627
 20
14.99511516984522
 30
0.0
 10
186.4906335926659
 20
14.68782672154694
 30
0.0
 10
186.488289277796
 20
14.52288616971778
 30
0.0
 10
186.4861096126411
 20
14.28879670711693
 30
0.0
 10
186.4980774396346
 20
14.04498072421783
 30
0.0
 10
186.4687984740631
 20
13.89855796860984
 30
0.0
 10
186.511452262547
 20
13.75113490174538
 30
0.0
 10
186.4239814005639
 20
13.7668579730622
 30
0.0
 10
186.3768527606744
 20
13.76694303543455
 30
0.0
 10
186.2898973207713
 20
13.75109425482909
 30
0.0
 10
186.3313474021722
 20
13.89527771422762
 30
0.0
 10
186.3029875004286
 20
14.03855052698455
 30
0.0
 10
186.31459737753
 20
14.27674947365265
 30
0.0
 10
186.3124175648272
 20
14.50517235240347
 30
0.0
 10
186.3103111127993
 20
14.66705729375995
 30
0.0
 10
186.3208035438323
 20
14.98153709333753
 30
0.0
 10
186.0128963252894
 20
14.29229470872436
 30
0.0
 10
185.7055258267455
 20
13.81476750243051
 30
0.0
 10
185.5851367066275
 20
14.03741112637426
 30
0.0
 10
185.4074607910723
 20
14.15011034955569
 30
0.0
 10
185.8853326362895
 20
14.32548143465462
 30
0.0
 10
185.9353959057207
 20
14.56091929252032
 30
0.0
 10
186.3583799621717
 20
14.95322989344607
 30
0.0
 10
186.127675427354
 20
14.93655307029066
 30
0.0
 10
186.0049685859341
 20
14.94269518948771
 30
0.0
 10
185.8325483095662
 20
14.93312822699573
 30
0.0
 10
185.7213224694449
 20
14.95448818489666
 30
0.0
 10
185.6025779627449
 20
14.9213626535742
 30
0.0
 10
185.6183169706686
 20
15.00203900606883
 30
0.0
 10
185.6178550933763
 20
15.04645414290854
 30
0.0
 10
185.6027881889932
 20
15.12967081778533
 30
0.0
 10
185.7372380935444
 20
15.09062651983884
 30
0.0
 10
185.8619755545747
 20
15.11739729328423
 30
0.0
 10
186.0628755237279
 20
15.10063949044053
 30
0.0
 10
186.1921540949353
 20
15.12204225913005
 30
0.0
 10
186.3328419928294
 20
15.08868778853421
 30
0.0
 10
186.2980927452615
 20
15.22651875785069
 30
0.0
 10
186.3222185666713
 20
15.34963257349481
 30
0.0
 10
186.2967086182393
 20
15.47024055670336
 30
0.0
 10
186.3333251146684
 20
15.60539865141495
 30
0.0
 10
186.2211417027769
 20
15.58094545781891
 30
0.0
 10
186.1280356457136
 20
15.59307749842022
 30
0.0
 10
186.0191547579819
 20
15.58957630069994
 30
0.0
 10
185.9569697640964
 20
15.58981755951603
 30
0.0
 10
185.9375369557246
 20
15.58989295124144
 30
0.0
 11
187.1521871691833
 21
14.9398028819595
 31
0.0
 11
187.0923621563982
 21
14.9398028819595
 31
0.0
 11
186.949702510526
 21
14.9398028819595
 31
0.0
 11
186.7794313202914
 21
14.9398028819595
 31
0.0
 11
186.6367716744192
 21
14.9398028819595
 31
0.0
 11
186.5769466616341
 21
14.9398028819595
 31
0.0
 11
186.7679960754843
 21
14.63705127966891
 31
0.0
 11
186.994127278563
 21
14.36051890576684
 31
0.0
 11
187.2244526173372
 21
14.15061253493456
 31
0.0
 11
187.1521596330704
 21
14.08466403668716
 31
0.0
 11
187.0879364402643
 21
14.00876059052559
 31
0.0
 11
186.7732818215558
 21
14.35891458349363
 31
0.0
 11
186.4886640249976
 21
14.81138295143601
 31
0.0
 11
186.4886640249976
 21
14.73370259137313
 31
0.0
 11
186.4886640249976
 21
14.53950169121593
 31
0.0
 11
186.4886640249976
 21
14.28704052101157
 31
0.0
 11
186.4886640249976
 21
14.0345793508072
 31
0.0
 11
186.4886640249976
 21
13.84037845065
 31
0.0
 11
186.4886640249976
 21
13.76269809058712
 31
0.0
 11
186.4428901295605
 21
13.76269809058712
 31
0.0
 11
186.3578814666058
 21
13.76269809058712
 31
0.0
 11
186.3121075711687
 21
13.76269809058712
 31
0.0
 11
186.3121075711687
 21
13.8385923498274
 31
0.0
 11
186.3121075711687
 21
14.02832799792812
 31
0.0
 11
186.3121075711687
 21
14.27498434045904
 31
0.0
 11
186.3121075711687
 21
14.52164068298997
 31
0.0
 11
186.3121075711687
 21
14.71137633109067
 31
0.0
 11
186.3121075711687
 21
14.78727059033096
 31
0.0
 11
185.9987626399267
 21
14.31440946197694
 31
0.0
 11
185.6352328662148
 21
13.95795177109383
 31
0.0
 11
185.5773927461628
 21
14.03253450545022
 31
0.0
 11
185.5094852305342
 21
14.09704322939242
 31
0.0
 11
185.7750721898319
 21
14.3167221979589
 31
0.0
 11
186.0233764972061
 21
14.60953395971697
 31
0.0
 11
186.226498280526
 21
14.9398028819595
 31
0.0
 11
186.1627851652721
 21
14.9398028819595
 31
0.0
 11
186.0108538904359
 21
14.9398028819595
 31
0.0
 11
185.8295165624056
 21
14.9398028819595
 31
0.0
 11
185.6775852875694
 21
14.9398028819595
 31
0.0
 11
185.6138721723155
 21
14.9398028819595
 31
0.0
 11
185.6138721723155
 21
14.98350061600208
 31
0.0
 11
185.6138721723155
 21
15.0646535506526
 31
0.0
 11
185.6138721723155
 21
15.10835128469518
 31
0.0
 11
185.6864886537962
 21
15.10835128469518
 31
0.0
 11
185.8596510327118
 21
15.10835128469518
 31
0.0
 11
186.0663287107724
 21
15.10835128469518
 31
0.0
 11
186.239491089688
 21
15.10835128469518
 31
0.0
 11
186.3121075711687
 21
15.10835128469518
 31
0.0
 11
186.3121075711687
 21
15.18359217009304
 31
0.0
 11
186.3121075711687
 21
15.34912211796831
 31
0.0
 11
186.3121075711687
 21
15.51465206584359
 31
0.0
 11
186.3121075711687
 21
15.58989295124144
 31
0.0
 11
186.2535809125055
 21
15.58989295124144
 31
0.0
 11
186.1248222634467
 21
15.58989295124144
 31
0.0
 11
185.9960636143877
 21
15.58989295124144
 31
0.0
 11
185.9375369557246
 21
15.58989295124144
 31
0.0
  0
SPLINE
  5
B3
102
{ACAD_REACTORS
330
CF
102
}
330
48
100
AcDbEntity
  8
_U_30EC_U_30A4_U_30E4_U_30FC_1
  6
Continuous
 62
     2
100
AcDbSpline
210
0.0
220
0.0
230
1.0
 70
     8
 71
     3
 72
    70
 73
    66
 74
    64
 42
0.000000001
 43
0.0000000001
 44
0.00000001
 40
0.0
 40
0.0
 40
0.0
 40
0.0
 40
0.0241731073021472
 40
0.0846058988987013
 40
0.1631685280353284
 40
0.2417311571789756
 40
0.3021639488292751
 40
0.3263370654895541
 40
0.3533118254248881
 40
0.4228783438922076
 40
0.5179999095313313
 40
0.621639823946596
 40
0.7167613891499528
 40
0.7863279069649686
 40
0.8133026791761623
 40
0.837294399877146
 40
0.8945054261372656
 40
0.9627895541962423
 40
1.020000580349053
 40
1.043992300975151
 40
1.071934345522872
 40
1.113121768772888
 40
1.145225199332213
 40
1.225483775412741
 40
1.329819923771447
 40
1.434156071994332
 40
1.514414647795748
 40
1.546518078208354
 40
1.578974764260128
 40
1.662678849314122
 40
1.777131373668343
 40
1.901833377474734
 40
2.016285900500524
 40
2.099989982527891
 40
2.13244666657025
 40
2.158782354485973
 40
2.216720867907767
 40
2.274659381334194
 40
2.30099506925613
 40
2.333451754066102
 40
2.417155836543783
 40
2.531608358985222
 40
2.656310362283717
 40
2.77076288638885
 40
2.854466971340015
 40
2.886923657363822
 40
2.913597976833255
 40
2.982389642875058
 40
3.07645171694692
 40
3.178937260458532
 40
3.272999334739934
 40
3.341791001059153
 40
3.368465320663466
 40
3.396976080738687
 40
3.472140811845923
 40
3.578408190308613
 40
3.700226892456049
 40
3.822045594634266
 40
3.928312973256373
 40
4.00347770531477
 40
4.031988456866836
 40
4.058324144797636
 40
4.116262658236801
 40
4.174201171400604
 40
4.200536849608538
 40
4.200536849608538
 40
4.200536849608538
 40
4.200536849608538
 10
185.9857704961609
 20
15.75844135397706
 30
0.0
 10
185.9938259544679
 20
15.75844359811687
 30
0.0
 10
186.0220200663241
 20
15.75845146032799
 30
0.0
 10
186.0765534803672
 20
15.75830754828372
 30
0.0
 10
186.1482891808604
 20
15.75909120499899
 30
0.0
 10
186.2236240137062
 20
15.75627570463812
 30
0.0
 10
186.2713052366439
 20
15.76298403400958
 30
0.0
 10
186.3195071245616
 20
15.75197563692433
 30
0.0
 10
186.3062571799873
 20
15.80546402997034
 30
0.0
 10
186.3151093964538
 20
15.86049583543092
 30
0.0
 10
186.3108698036285
 20
15.95419908726109
 30
0.0
 10
186.313348348128
 20
16.04959482218532
 30
0.0
 10
186.3090938706059
 20
16.14356821983386
 30
0.0
 10
186.3179818665847
 20
16.19795062438011
 30
0.0
 10
186.3046977409945
 20
16.25233997691459
 30
0.0
 10
186.3514119277109
 20
16.23842216335357
 30
0.0
 10
186.3943254545736
 20
16.24103877374042
 30
0.0
 10
186.4605443456685
 20
16.23648422450754
 30
0.0
 10
186.5013342271798
 20
16.2277816213416
 30
0.0
 10
186.5525145690818
 20
16.23531799890194
 30
0.0
 10
186.5253720487201
 20
16.19349970223286
 30
0.0
 10
186.4803096055707
 20
16.20284992072595
 30
0.0
 10
186.4942065045051
 20
16.13841207371837
 30
0.0
 10
186.4858414431653
 20
16.07378219627397
 30
0.0
 10
186.4903632178398
 20
15.97529141193888
 30
0.0
 10
186.4854741311167
 20
15.8759593284257
 30
0.0
 10
186.4950258992082
 20
15.8129311555297
 30
0.0
 10
186.47997614552
 20
15.7496401149979
 30
0.0
 10
186.5449159457208
 20
15.7651507294427
 30
0.0
 10
186.6116246399497
 20
15.75499387697814
 30
0.0
 10
186.7241435470827
 20
15.75988800099368
 30
0.0
 10
186.8390235448954
 20
15.75691204732785
 30
0.0
 10
186.9519871999746
 20
15.76221664184992
 30
0.0
 10
187.0176267597678
 20
15.75107306472089
 30
0.0
 10
187.0816276691053
 20
15.76744532319859
 30
0.0
 10
187.0703142889189
 20
15.71761689905275
 30
0.0
 10
187.077533987151
 20
15.67416715212124
 30
0.0
 10
187.0703142611269
 20
15.63071745587445
 30
0.0
 10
187.0816277175994
 20
15.58088895196876
 30
0.0
 10
187.0176263598972
 20
15.59726166091362
 30
0.0
 10
186.9519921240459
 20
15.58611271661588
 30
0.0
 10
186.838997431733
 20
15.59144857206854
 30
0.0
 10
186.7242456548644
 20
15.58834345663822
 30
0.0
 10
186.611318368686
 20
15.59364894682588
 30
0.0
 10
186.5455220903585
 20
15.58257300019594
 30
0.0
 10
186.4816097975358
 20
15.59887597847617
 30
0.0
 10
186.4936015165126
 20
15.54423524395742
 30
0.0
 10
186.4862104613006
 20
15.48854295047842
 30
0.0
 10
186.4892684841982
 20
15.3964968914057
 30
0.0
 10
186.4893422785683
 20
15.30179109873102
 30
0.0
 10
186.4860313578359
 20
15.20952782902266
 30
0.0
 10
186.4939505989903
 20
15.1543576873614
 30
0.0
 10
186.4815076611617
 20
15.10058169100137
 30
0.0
 10
186.5389116551632
 20
15.11453768862782
 30
0.0
 10
186.5994708140382
 20
15.10511457884227
 30
0.0
 10
186.7048680855081
 20
15.10942885928705
 30
0.0
 10
186.8204294070622
 20
15.10835504612032
 30
0.0
 10
186.9359688877797
 20
15.10725965900995
 30
0.0
 10
187.0414181130841
 20
15.11162525770633
 30
0.0
 10
187.1018680471804
 20
15.10209426030672
 30
0.0
 10
187.159283773911
 20
15.11617289606381
 30
0.0
 10
187.1477773876709
 20
15.06707153265683
 30
0.0
 10
187.153756678175
 20
15.02564658018649
 30
0.0
 10
187.1520311050801
 20
14.97651677966696
 30
0.0
 10
187.1521500122971
 20
14.94854428447608
 30
0.0
 10
187.1521871691833
 20
14.9398028819595
 30
0.0
 11
185.9857704961609
 21
15.75844135397706
 31
0.0
 11
186.0099436128282
 21
15.75844135397706
 31
0.0
 11
186.0703764044962
 21
15.75844135397706
 31
0.0
 11
186.1489390336648
 21
15.75844135397706
 31
0.0
 11
186.2275016628334
 21
15.75844135397706
 31
0.0
 11
186.2879344545015
 21
15.75844135397706
 31
0.0
 11
186.3121075711687
 21
15.75844135397706
 31
0.0
 11
186.3121075711687
 21
15.78541612620064
 31
0.0
 11
186.3121075711687
 21
15.85498264404039
 31
0.0
 11
186.3121075711687
 21
15.95010420924985
 31
0.0
 11
186.3121075711687
 21
16.05374412358255
 31
0.0
 11
186.3121075711687
 21
16.14886568879201
 31
0.0
 11
186.3121075711687
 21
16.21843220663177
 31
0.0
 11
186.3121075711687
 21
16.24540697885535
 31
0.0
 11
186.3360407604892
 21
16.24373213107799
 31
0.0
 11
186.3931122119458
 21
16.2397382633012
 31
0.0
 11
186.461229750781
 21
16.23497138885795
 31
0.0
 11
186.5183012022376
 21
16.23097752108116
 31
0.0
 11
186.5422343915581
 21
16.2293026733038
 31
0.0
 11
186.5274972731229
 21
16.2055629337264
 31
0.0
 11
186.4886640249976
 21
16.19183767331311
 31
0.0
 11
186.4886640249976
 21
16.15973424225118
 31
0.0
 11
186.4886640249976
 21
16.07947566459636
 31
0.0
 11
186.4886640249976
 21
15.97513951364508
 31
0.0
 11
186.4886640249976
 21
15.87080336269381
 31
0.0
 11
186.4886640249976
 21
15.79054478503899
 31
0.0
 11
186.4886640249976
 21
15.75844135397706
 31
0.0
 11
186.5211207110824
 21
15.75844135397706
 31
0.0
 11
186.6048247962486
 21
15.75844135397706
 31
0.0
 11
186.7192773208634
 21
15.75844135397706
 31
0.0
 11
186.8439793252946
 21
15.75844135397706
 31
0.0
 11
186.9584318499095
 21
15.75844135397706
 31
0.0
 11
187.0421359350756
 21
15.75844135397706
 31
0.0
 11
187.0745926211604
 21
15.75844135397706
 31
0.0
 11
187.0745926211604
 21
15.73210566604962
 31
0.0
 11
187.0745926211604
 21
15.67416715260925
 31
0.0
 11
187.0745926211604
 21
15.61622863916888
 31
0.0
 11
187.0745926211604
 21
15.58989295124144
 31
0.0
 11
187.0421359350756
 21
15.58989295124144
 31
0.0
 11
186.9584318499095
 21
15.58989295124144
 31
0.0
 11
186.8439793252946
 21
15.58989295124144
 31
0.0
 11
186.7192773208634
 21
15.58989295124144
 31
0.0
 11
186.6048247962485
 21
15.58989295124144
 31
0.0
 11
186.5211207110824
 21
15.58989295124144
 31
0.0
 11
186.4886640249976
 21
15.58989295124144
 31
0.0
 11
186.4886640249976
 21
15.56321863152022
 31
0.0
 11
186.4886640249976
 21
15.49442696487075
 31
0.0
 11
186.4886640249976
 21
15.40036489006434
 31
0.0
 11
186.4886640249976
 21
15.29787934587228
 31
0.0
 11
186.4886640249976
 21
15.20381727106587
 31
0.0
 11
186.4886640249976
 21
15.1350256044164
 31
0.0
 11
186.4886640249976
 21
15.10835128469518
 31
0.0
 11
186.5171747850993
 21
15.10835128469518
 31
0.0
 11
186.5923395162766
 21
15.10835128469518
 31
0.0
 11
186.6986068948376
 21
15.10835128469518
 31
0.0
 11
186.8204255970904
 21
15.10835128469518
 31
0.0
 11
186.9422442993433
 21
15.10835128469518
 31
0.0
 11
187.0485116779043
 21
15.10835128469518
 31
0.0
 11
187.1236764090816
 21
15.10835128469518
 31
0.0
 11
187.1521871691833
 21
15.10835128469518
 31
0.0
 11
187.1521871691833
 21
15.08201559676773
 31
0.0
 11
187.1521871691833
 21
15.02407708332734
 31
0.0
 11
187.1521871691833
 21
14.96613856988695
 31
0.0
 11
187.1521871691833
 21
14.9398028819595
 31
0.0
  0
SPLINE
  5
B4
102
{ACAD_REACTORS
330
CF
102
}
330
48
100
AcDbEntity
  8
_U_30EC_U_30A4_U_30E4_U_30FC_1
  6
Continuous
 62
     2
100
AcDbSpline
210
0.0
220
0.0
230
1.0
 70
     8
 71
     3
 72
    24
 73
    20
 74
    18
 42
0.000000001
 43
0.0000000001
 44
0.00000001
 40
0.0
 40
0.0
 40
0.0
 40
0.0
 40
0.2211075008753627
 40
0.4273218586245431
 40
0.5080174679238696
 40
0.5914835907869576
 40
0.8143265690191936
 40
1.054651302686497
 40
1.295452694023082
 40
1.518109231328725
 40
1.540864321905367
 40
1.595126460622628
 40
1.659890947895969
 40
1.714153085187355
 40
1.736908174961655
 40
1.764951100735365
 40
1.801562291221009
 40
1.953914424543679
 40
2.126104167379755
 40
2.126104167379755
 40
2.126104167379755
 40
2.126104167379755
 10
185.9375369556889
 20
15.58989295113016
 30
0.0
 10
185.9112579081812
 20
15.53097628234374
 30
0.0
 10
185.8604698894426
 20
15.41711139679254
 30
0.0
 10
185.8131784839112
 20
15.14441958233114
 30
0.0
 10
185.7043482802618
 20
15.24445482575456
 30
0.0
 10
185.5514800279638
 20
15.27118593367329
 30
0.0
 10
185.7686155181199
 20
15.48518135017633
 30
0.0
 10
185.7838483674381
 20
15.70332117782486
 30
0.0
 10
185.8906889492001
 20
15.88451579066427
 30
0.0
 10
185.8305380947077
 20
16.16913226311397
 30
0.0
 10
185.9334317395402
 20
16.14114089222451
 30
0.0
 10
185.977993346815
 20
16.13243251602299
 30
0.0
 10
186.0380842395398
 20
16.12139654183354
 30
0.0
 10
186.0756619587439
 20
16.1076752305556
 30
0.0
 10
186.1252466928607
 20
16.10756076160222
 30
0.0
 10
186.0930158919326
 20
16.07306592398622
 30
0.0
 10
186.017180222188
 20
16.08404104537967
 30
0.0
 10
186.0429447159694
 20
15.8985896958245
 30
0.0
 10
186.0055896763849
 20
15.8070231354959
 30
0.0
 10
185.9857704961609
 20
15.75844135397706
 30
0.0
 11
185.9375369556889
 21
15.58989295113016
 31
0.0
 11
185.8616471328553
 21
15.38221708318559
 31
0.0
 11
185.7717402238433
 21
15.19663392356192
 31
0.0
 11
185.701149392311
 21
15.23573272563551
 31
0.0
 11
185.6245525192652
 21
15.26889163187719
 31
0.0
 11
185.7214026947456
 21
15.46958801203538
 31
0.0
 11
185.7994641467471
 21
15.69688163177024
 31
0.0
 11
185.858971692972
 21
15.93021436608691
 31
0.0
 11
185.9001601511226
 21
16.14902808999053
 31
0.0
 11
185.9224183822215
 21
16.14429889221394
 31
0.0
 11
185.975495702534
 21
16.13302157443899
 31
0.0
 11
186.0388460525845
 21
16.11956154999791
 31
0.0
 11
186.0919233728971
 21
16.10828423222296
 31
0.0
 11
186.1141816039959
 21
16.10355503444637
 31
0.0
 11
186.0964097157461
 21
16.08186250841009
 31
0.0
 11
186.0606122998071
 21
16.07418628445367
 31
0.0
 11
186.028195330148
 21
15.92532288171314
 31
0.0
 11
185.9857704961609
 21
15.75844135397706
 31
0.0
  0
LWPOLYLINE
  5
B5
102
{ACAD_REACTORS
330
D0
102
}
330
48
100
AcDbEntity
  8
_U_30EC_U_30A4_U_30E4_U_30FC_1
  6
Continuous
 62
     2
100
AcDbPolyline
 90
        5
 70
     1
 43
0.0
 10
191.1602971697032
 20
15.39722336795625
 10
192.4578138032673
 20
15.39722336795625
 10
192.4578138032673
 20
15.22875434022057
 10
191.1602971697032
 20
15.22875434022057
 10
191.1602971697032
 20
15.39722336795625
  0
MTEXT
  5
B7
330
48
100
AcDbEntity
  8
1
 62
   250
100
AcDbMText
 10
25.0
 20
5.0
 30
0.0
 40
3.5
 41
0.0
 71
     4
 72
     1
  1
備考欄の文字列 原点位置=4
  7
CONVERTER_11
 73
     1
 44
0.54545454545455
  0
MTEXT
  5
B8
330
48
100
AcDbEntity
  8
1
 62
     2
100
AcDbMText
 10
89.50000000000003
 20
24.00000000000001
 30
0.0
 40
3.5
 41
0.0
 71
     5
 72
     1
  1
尺度
  7
CONVERTER_11
 73
     1
 44
0.54545454545455
  0
MTEXT
  5
B9
330
48
100
AcDbEntity
  8
1
 62
     2
100
AcDbMText
 10
135.5
 20
25.00000000000001
 30
0.0
 40
3.0
 41
0.0
 71
     5
 72
     1
  1
製図
  7
CONVERTER_11
 73
     1
 44
0.59090909090909
  0
MTEXT
  5
BA
330
48
100
AcDbEntity
  8
1
 62
     2
100
AcDbMText
 10
152.5000000000001
 20
25.00000000000001
 30
0.0
 40
3.0
 41
0.0
 71
     5
 72
     1
  1
設計
  7
CONVERTER_11
 73
     1
 44
0.59090909090909
  0
MTEXT
  5
BB
330
48
100
AcDbEntity
  8
1
 62
     2
100
AcDbMText
 10
118.5
 20
25.00000000000001
 30
0.0
 40
3.0
 41
0.0
 71
     5
 72
     1
  1
検図
  7
CONVERTER_11
 73
     1
 44
0.59090909090909
  0
MTEXT
  5
BC
330
48
100
AcDbEntity
  8
1
 62
     2
100
AcDbMText
 10
175.0000000000001
 20
23.50000000000001
 30
0.0
 40
3.5
 41
0.0
 71
     5
 72
     1
  1
第三角法
  7
CONVERTER_11
 73
     1
 44
0.54545454545455
  0
MTEXT
  5
BD
330
48
100
AcDbEntity
  8
1
 62
     2
100
AcDbMText
 10
101.5
 20
25.00000000000001
 30
0.0
 40
3.0
 41
0.0
 71
     5
 72
     1
  1
承認
  7
CONVERTER_11
 73
     1
 44
0.59090909090909
  0
MTEXT
  5
BE
330
48
100
AcDbEntity
  8
1
 62
     2
100
AcDbMText
 10
29.0
 20
14.25
 30
0.0
 40
3.5
 41
0.0
 71
     5
 72
     1
  1
品番
  7
CONVERTER_11
 73
     1
 44
0.72727272727273
  0
MTEXT
  5
BF
330
48
100
AcDbEntity
  8
1
 62
     2
100
AcDbMText
 10
29.0
 20
22.75
 30
0.0
 40
3.5
 41
0.0
 71
     5
 72
     1
  1
品名
  7
CONVERTER_11
 73
     1
 44
0.72727272727273
  0
MTEXT
  5
C0
330
48
100
AcDbEntity
  8
1
 62
     2
100
AcDbMText
 10
29.0
 20
34.0
 30
0.0
 40
3.5
 41
0.0
 71
     5
 72
     1
  1
備考
  7
CONVERTER_11
 73
     1
 44
0.45454545454545
  0
MTEXT
  5
C1
330
48
100
AcDbEntity
  8
1
 62
     2
100
AcDbMText
 10
32.5
 20
282.0000000000002
 30
0.0
 40
5.0
 41
0.0
 71
     5
 72
     1
  1
図番
  7
CONVERTER_11
 73
     1
 44
0.45454545454545
  0
HATCH
  5
C2
330
48
100
AcDbEntity
  8
1
  6
Continuous
 62
     2
100
AcDbHatch
 10
0.0
 20
0.0
 30
0.0
210
0.0
220
0.0
230
1.0
  2
CUSTOM0
 70
     0
 71
     1
 91
        1
 92
        1
 93
        1
 72
     4
 94
        3
 73
     0
 74
     0
 95
       99
 96
       95
 40
0.0
 40
0.0
 40
0.0
 40
0.0
 40
0.0796417172272166
 40
0.1621768542355936
 40
0.2486489160957552
 40
0.3404969668524502
 40
0.43819125111648
 40
0.5434463660244818
 40
0.6518115192846852
 40
0.7530190937886738
 40
0.8492196919724211
 40
0.9419290312997912
 40
1.034249663569963
 40
1.129078600620115
 40
1.226697027573178
 40
1.32722042542164
 40
1.470572134937962
 40
1.595489863371176
 40
1.719934125348339
 40
1.850576620127377
 40
1.98905962998724
 40
2.134139054226886
 40
2.280698007207175
 40
2.424529739039443
 40
2.565929576985765
 40
2.708239260773442
 40
2.861717887443597
 40
3.045168540347305
 40
3.183798301138544
 40
3.314813961455394
 40
3.442083470447247
 40
3.569912708372901
 40
3.702177512509346
 40
3.842307559659463
 40
3.992872223245866
 40
4.156750662218254
 40
4.310981861107561
 40
4.445859909322608
 40
4.572393936131548
 40
4.701656719781917
 40
4.768279086008381
 40
4.835960697898335
 40
4.912788918729261
 40
5.006285208481466
 40
5.026909478751542
 40
5.047533749021107
 40
5.101808031471147
 40
5.162325165538425
 40
5.226919745995782
 40
5.294231806596673
 40
5.364544852554801
 40
5.438319055467796
 40
5.517877651324158
 40
5.607647714861526
 40
5.700449642544374
 40
5.788251142364104
 40
5.87271470603971
 40
5.955167292575151
 40
6.037192395190321
 40
6.120669181469054
 40
6.206848616686274
 40
6.296680855416691
 40
6.442558392872517
 40
6.568190371608167
 40
6.692904567360305
 40
6.824220446557005
 40
6.963121850329347
 40
7.107843738851137
 40
7.253431663907197
 40
7.395187468036568
 40
7.533140753237694
 40
7.670550457175179
 40
7.816236511769211
 40
7.987691657359171
 40
8.14227742196921
 40
8.293662615414993
 40
8.442962460879253
 40
8.591598316185296
 40
8.743678992361774
 40
8.903725323699163
 40
9.076307008890453
 40
9.26557860468048
 40
9.459203795360711
 40
9.617619810273412
 40
9.7536096713618
 40
9.87487330000404
 40
9.95452018497776
 40
10.02416413719243
 40
10.09769764405443
 40
10.1890995592497
 40
10.20974586420137
 40
10.23039218263385
 40
10.30057101881271
 40
10.37632012987553
 40
10.37632012987553
 40
10.37632012987553
 40
10.37632012987553
 10
170.1465954835852
 20
14.13795663215994
 10
170.163221785122
 20
14.11720608845312
 10
170.1970784206578
 20
14.07495111711898
 10
170.2599822541037
 20
14.02029811392073
 10
170.3332500940394
 20
13.9729902512105
 10
170.4175969238637
 20
13.93527231437934
 10
170.5132240615461
 20
13.91040619731952
 10
170.6171853775347
 20
13.90309559345937
 10
170.7224020220405
 20
13.91142322794053
 10
170.8206626371334
 20
13.94149179651527
 10
170.9058986427548
 20
13.98848822971881
 10
170.9779220206104
 20
14.04952991250852
 10
171.0350917709096
 20
14.12412969578586
 10
171.0767868747439
 20
14.21002464660175
 10
171.1026952846292
 20
14.3048585043221
 10
171.1118037332654
 20
14.41854979038367
 10
171.0986864796487
 20
14.54332587770779
 10
171.0325330334414
 20
14.66014719171891
 10
170.9369370919569
 20
14.74512539577375
 10
170.8249681022369
 20
14.81416684459159
 10
170.699365958327
 20
14.87204142045892
 10
170.5656691620857
 20
14.9237372328434
 10
170.431312281883
 20
14.97899092397181
 10
170.3051983986877
 20
15.04939770641648
 10
170.1926579987535
 20
15.1378554073125
 10
170.0969963064459
 20
15.24981067868475
 10
170.0334157151825
 20
15.3994991010138
 10
170.0200706505015
 20
15.55932794385142
 10
170.0320510987449
 20
15.71048405306845
 10
170.071229892884
 20
15.83809244591539
 10
170.1354987750911
 20
15.95080874030845
 10
170.223820499974
 20
16.04648609268688
 10
170.3338091207627
 20
16.12354214985749
 10
170.4632284401266
 20
16.18151396936281
 10
170.6111838967793
 20
16.21739177588821
 10
170.7682069455487
 20
16.22746719050565
 10
170.9174940466431
 20
16.2186363776259
 10
171.059625361417
 20
16.19074899340352
 10
171.1595922609626
 20
16.13413314701136
 10
171.3125074736184
 20
16.08674602105508
 10
171.2455131717169
 20
16.00197553001182
 10
171.2296479120268
 20
15.93438901873486
 10
171.1978750531298
 20
15.86926092793189
 10
171.215020220957
 20
15.76723453256953
 10
171.1666427208232
 20
15.77493211681903
 10
171.1315789440765
 20
15.76806771724807
 10
171.1296697985719
 20
15.83263831158197
 10
171.098569293199
 20
15.87825639621399
 10
171.0664551628455
 20
15.93561036628453
 10
171.0208038475168
 20
15.98540462692557
 10
170.9658508218387
 20
16.02994813718994
 10
170.9010841173009
 20
16.06763988836552
 10
170.8232377310597
 20
16.09283375791352
 10
170.7355160553352
 20
16.09931230998111
 10
170.6452903277806
 20
16.09235709285606
 10
170.5594594694065
 20
16.06909190460921
 10
170.4828343638596
 20
16.03131644107547
 10
170.4165265636202
 20
15.98051641089568
 10
170.3622560536964
 20
15.91731143407214
 10
170.3224925345458
 20
15.84276455710368
 10
170.2976775510589
 20
15.75917313997762
 10
170.289212426287
 20
15.65192948382284
 10
170.3019697987105
 20
15.52965457267562
 10
170.3681548409272
 20
15.41149724291205
 10
170.4640977399833
 20
15.32606325709534
 10
170.5757914963182
 20
15.25583362306717
 10
170.7010863668703
 20
15.19659162305307
 10
170.8349823941448
 20
15.14616708086132
 10
170.9689930333151
 20
15.09322516984383
 10
171.0950885316915
 20
15.02750170625171
 10
171.2076216638418
 20
14.94480352537324
 10
171.3031370284234
 20
14.83996006310072
 10
171.3672706486964
 20
14.69937117251571
 10
171.381110372528
 20
14.54065409451591
 10
171.3673954712231
 20
14.38153155217874
 10
171.3244739153984
 20
14.23483828819211
 10
171.2545906329066
 20
14.10119796587142
 10
171.1574592213829
 20
13.98532387699292
 10
171.0347806023657
 20
13.89089981770088
 10
170.8874408413168
 20
13.82179270651981
 10
170.7177132497125
 20
13.77953210858853
 10
170.5317404979597
 20
13.76781736230407
 10
170.3528955926183
 20
13.77809486683435
 10
170.1881733753744
 20
13.81966573769154
 10
170.0834410841058
 20
13.88797642883943
 10
169.9350960790365
 20
13.93675219032103
 10
169.998037819473
 20
14.0297659129084
 10
170.0072274430059
 20
14.10296536248281
 10
170.0303711301231
 20
14.16936294501345
 10
170.0034588335317
 20
14.26974809527582
 10
170.0521338956339
 20
14.26234033517378
 10
170.0916530580697
 20
14.26894063620895
 10
170.0996204944702
 20
14.19078703218931
 10
170.1305436967924
 20
14.15600927375856
 10
170.1465954835852
 20
14.13795663215994
 97
        1
330
A4
 75
     1
 76
     2
 52
45.0
 41
0.1
 77
     0
 78
     1
 53
45.0
 43
0.0
 44
0.0
 45
-0.282842712474619
 46
0.0
 79
     0
 98
        1
 10
0.0
 20
0.0
  0
HATCH
  5
C3
330
48
100
AcDbEntity
  8
1
  6
Continuous
 62
     2
100
AcDbHatch
 10
0.0
 20
0.0
 30
0.0
210
0.0
220
0.0
230
1.0
  2
CUSTOM1
 70
     0
 71
     1
 91
        2
 92
        1
 93
        1
 72
     4
 94
        3
 73
     0
 74
     0
 95
       57
 96
       53
 40
0.0
 40
0.0
 40
0.0
 40
0.0
 40
0.0471632082809239
 40
0.0914861054632159
 40
0.1357762519702111
 40
0.1826527001609837
 40
0.2295203288571746
 40
0.2737751972220768
 40
0.3181310461542228
 40
0.365260719839852
 40
0.4571007286314316
 40
0.5671851029164937
 40
0.6894623283868326
 40
0.8181758272545703
 40
0.9510087229273834
 40
1.085852229674062
 40
1.218126164475298
 40
1.343545131142389
 40
1.454537202956805
 40
1.567187607530729
 40
1.680710966642319
 40
1.794226869736712
 40
1.90000918424754
 40
2.004085860447876
 40
2.108162674451764
 40
2.214000150155308
 40
2.496038577352123
 40
2.762350745479282
 40
2.997275353279409
 40
3.185110082137737
 40
3.246407890063908
 40
3.312607550212582
 40
3.37887774271157
 40
3.440140399651453
 40
4.100501696006511
 40
4.754913085563565
 40
5.411331693423931
 40
6.077890432568718
 40
6.110575292670997
 40
6.143260152775777
 40
6.367989363395195
 40
6.610525374951566
 40
6.863389136467335
 40
7.119380025547655
 40
7.376036605091127
 40
7.631164770966349
 40
7.876722425456441
 40
8.104953735855974
 40
8.312916685924307
 40
8.497730294941327
 40
8.651018984313895
 40
8.7647388536246
 40
8.7647388536246
 40
8.7647388536246
 40
8.7647388536246
 10
174.7922649500513
 20
13.81626739612927
 10
174.7766616726931
 20
13.81826231079078
 10
174.7463947960302
 20
13.82213201360299
 10
174.7010994202253
 20
13.82341984967269
 10
174.6559553129349
 20
13.82308683554051
 10
174.60990171234
 20
13.82314658674225
 10
174.5640496172097
 20
13.82325813650001
 10
174.5183711648166
 20
13.82277833456592
 10
174.4750811541608
 20
13.82461109618719
 10
174.4039947951514
 20
13.80049556814655
 10
174.4057477261441
 20
13.9218469397725
 10
174.3586196370571
 20
14.00726239751237
 10
174.3191478251761
 20
14.12486929345132
 10
174.2706635532647
 20
14.24232752540441
 10
174.2201017402523
 20
14.3640593576151
 10
174.1718634610477
 20
14.49075967862462
 10
174.1135232947595
 20
14.59933687784955
 10
174.0980892667261
 20
14.75620657134409
 10
173.9566586330636
 20
14.72373446548323
 10
173.8508397414905
 20
14.73512888682178
 10
173.7358569725223
 20
14.73392591514615
 10
173.6253142252141
 20
14.73506945347408
 10
173.5176583522783
 20
14.73418350037526
 10
173.4121322529242
 20
14.73416602390517
 10
173.3109192682013
 20
14.72714032472416
 10
173.1266804827752
 20
14.75135859859866
 10
173.1157393685413
 20
14.44741691121883
 10
173.0087691634749
 20
14.22353177253398
 10
172.9098148604347
 20
14.03895314292498
 10
172.9225090524007
 20
13.79530204804206
 10
172.8050091716397
 20
13.82508046753197
 10
172.7422055868311
 20
13.82258089509604
 10
172.67858720934
 20
13.82344075102805
 10
172.3946014194075
 20
13.78098039941945
 10
173.0251638499382
 20
14.50081952444783
 10
173.1087645289072
 20
15.01276539435728
 10
173.4929252789339
 20
15.53353743550045
 10
173.4777208288565
 20
16.23519626253214
 10
173.7239265722697
 20
16.22345633081256
 10
173.8256346157562
 20
16.23225004452773
 10
173.8249752035819
 20
15.98059650730349
 10
173.9428317155828
 20
15.79818020733956
 10
174.0315515260485
 20
15.55563740662864
 10
174.132229248526
 20
15.32340030530131
 10
174.2311142712243
 20
15.08674644566909
 10
174.3299676990671
 20
14.85461739170098
 10
174.4256166390925
 20
14.63122222788787
 10
174.5159904573271
 20
14.42272549049316
 10
174.5989944568189
 20
14.2330844852932
 10
174.6726088582798
 20
14.06663106068097
 10
174.7342815895546
 20
13.92917699626099
 10
174.7749458885604
 20
13.84999239430034
 10
174.7922649500513
 20
13.81626739612927
 97
        1
330
A5
 92
       16
 93
        1
 72
     4
 94
        3
 73
     0
 74
     0
 95
       25
 96
       21
 40
0.0
 40
0.0
 40
0.0
 40
0.0
 40
0.091147996906539
 40
0.1858117896205802
 40
0.2804128399735343
 40
0.3715889190715647
 40
0.4679080494219561
 40
0.5642683809229231
 40
0.6605683222645559
 40
0.7569653015811109
 40
0.8561348172523592
 40
1.092615965104389
 40
1.374867658141983
 40
1.61134881201172
 40
1.710518328425368
 40
1.809403163726687
 40
2.045205463294189
 40
2.32664691762225
 40
2.562449217190712
 40
2.661334043834031
 40
2.661334043834031
 40
2.661334043834031
 40
2.661334043834031
 10
173.2683700567199
 20
14.88614538197292
 10
173.2987525917922
 20
14.88598079714554
 10
173.3606895889112
 20
14.88564528689922
 10
173.454135696033
 20
14.88269055452
 10
173.5475095236358
 20
14.8797775287715
 10
173.6417760753477
 20
14.87894201643417
 10
173.7354964790967
 20
14.87996644658046
 10
173.8352040303205
 20
14.87916977470972
 10
173.9188949546313
 20
14.88921410235219
 10
174.0637996315046
 20
14.86234617674165
 10
173.9396132444802
 20
15.03665530280049
 10
173.8965867286282
 20
15.19651711006091
 10
173.780892214221
 20
15.45518458550216
 10
173.7017565431257
 20
15.59231052861857
 10
173.6431576621816
 20
15.80937033134077
 10
173.5864803939438
 20
15.59266134213428
 10
173.5052809900477
 20
15.45327012438235
 10
173.4063701281488
 20
15.20406969370195
 10
173.325362509426
 20
15.01925830226073
 10
173.2813683325838
 20
14.91650446856116
 10
173.2683700567199
 20
14.88614538197292
 97
        1
330
A6
 75
     1
 76
     2
 52
45.0
 41
0.1
 77
     0
 78
     1
 53
45.0
 43
0.0
 44
0.0
 45
-0.282842712474619
 46
0.0
 79
     0
 98
        1
 10
0.0
 20
0.0
  0
HATCH
  5
C4
330
48
100
AcDbEntity
  8
1
  6
Continuous
 62
     2
100
AcDbHatch
 10
0.0
 20
0.0
 30
0.0
210
0.0
220
0.0
230
1.0
  2
CUSTOM2
 70
     0
 71
     1
 91
        1
 92
        1
 93
        1
 72
     4
 94
        3
 73
     0
 74
     0
 95
       95
 96
       91
 40
0.0
 40
0.0
 40
0.0
 40
0.0
 40
0.6550406656911896
 40
1.308087289031951
 40
1.420803739835825
 40
1.566130759770822
 40
1.757067341888488
 40
2.006513545026483
 40
2.087328263121573
 40
2.185328872295653
 40
2.294612454748397
 40
2.408936380534849
 40
2.526802767798589
 40
2.646360524615635
 40
2.762535723971602
 40
2.870057342870175
 40
2.966883448431674
 40
3.050803243518325
 40
3.115818222436635
 40
3.156030057150265
 40
3.21391422508011
 40
3.276689026450568
 40
3.342960320981317
 40
3.40423066715051
 40
3.453822809493315
 40
3.532499827188365
 40
3.634775188507109
 40
3.754909333008102
 40
3.889736761660604
 40
4.035769602175166
 40
4.18725668119755
 40
4.3387336856759
 40
4.488478734676063
 40
4.634708317831538
 40
4.771493189921213
 40
4.892686571561143
 40
5.199775528944391
 40
5.460353566929579
 40
5.667603142345454
 40
5.814722905404435
 40
5.828990806219761
 40
5.855488336304487
 40
5.869756237118847
 40
6.189796507762836
 40
6.531890469873039
 40
6.883053637016969
 40
7.230512024911523
 40
7.566966656764552
 40
7.885203559707465
 40
8.172887439719279
 40
8.418011594062799
 40
8.443926721190723
 40
8.51076047061321
 40
8.602145393795722
 40
8.701714041647165
 40
8.793098965075398
 40
8.85993271505797
 40
8.88584784260362
 40
9.242301256612837
 40
9.589275455016779
 40
9.921808543164198
 40
10.2347962429847
 40
10.29968150889189
 40
10.3532349388778
 40
10.40154625355162
 40
10.46482922477829
 40
10.55973900668409
 40
10.69239545985621
 40
10.84920353475676
 40
11.01626328594783
 40
11.18672024367447
 40
11.35372582577216
 40
11.50257442292431
 40
11.61866495023295
 40
11.7132986915288
 40
11.82511050573912
 40
11.94464880845721
 40
12.0692924264251
 40
12.19707290435181
 40
12.32562632860533
 40
12.45034565331283
 40
12.56646595170331
 40
12.67099007414639
 40
12.76077625936787
 40
12.82703233506699
 40
12.87429132785997
 40
12.89831990323337
 40
12.92234847860025
 40
13.53984767410323
 40
14.18294284359363
 40
14.18294284359363
 40
14.18294284359363
 40
14.18294284359363
 10
177.3067935648022
 20
14.70898038201725
 10
177.1752019758551
 20
14.82265058603231
 10
176.9124193802728
 20
15.04964496316154
 10
176.3997393441022
 20
15.89214462956286
 10
176.4106654595363
 20
15.5342337757702
 10
176.4041226527993
 20
15.39267392272133
 10
176.4028026631773
 20
15.19421305299281
 10
176.4018117602538
 20
15.02150296045983
 10
176.4024101751974
 20
14.8786537325758
 10
176.4038994301883
 20
14.78265005413358
 10
176.4055683588473
 20
14.6754550326314
 10
176.407193495462
 20
14.56164211517582
 10
176.4092429501684
 20
14.44441572604587
 10
176.4123165501929
 20
14.3265641123297
 10
176.4156339697043
 20
14.2122808732062
 10
176.4193605340281
 20
14.10521401867277
 10
176.4217338161425
 20
14.01007408766922
 10
176.4278718888359
 20
13.92558557205695
 10
176.4239784495947
 20
13.86923087298142
 10
176.4455230443077
 20
13.79825022472357
 10
176.3680940058617
 20
13.82902677604484
 10
176.3116353240192
 20
13.82011242517615
 10
176.2540495896807
 20
13.82896218398274
 10
176.1690163478474
 20
13.79738225225946
 10
176.2009714146383
 20
13.8809515599219
 10
176.1990705282539
 20
13.94882608968309
 10
176.21079600473
 20
14.05233256764418
 10
176.2164241053
 20
14.17002125616696
 10
176.2237902178941
 20
14.30388609164423
 10
176.2320759701611
 20
14.44764152872632
 10
176.2398851897426
 20
14.59714022843445
 10
176.2457571222659
 20
14.74792549402077
 10
176.2503667817969
 20
14.89699943878438
 10
176.2542632117543
 20
15.04122913163022
 10
176.2570715126564
 20
15.17583905213017
 10
176.2576698755022
 20
15.36469614347354
 10
176.2616023867151
 20
15.58975494313153
 10
176.2442175378498
 20
15.86367091125708
 10
176.2850417342583
 20
16.02787112098596
 10
176.1995153256003
 20
16.22749661465099
 10
176.2660558907688
 20
16.22385458403977
 10
176.2838724273231
 20
16.22413447160854
 10
176.4056801797502
 20
16.22632927398611
 10
176.5080770335463
 20
15.94675118721513
 10
176.7580021509357
 20
15.74563008536007
 10
176.9870035331111
 20
15.47792614987909
 10
177.224515121311
 20
15.22646413862384
 10
177.4486090740772
 20
14.9896997406135
 10
177.6750716283011
 20
14.7321869258308
 10
177.8325687886515
 20
14.61649335056924
 10
178.0472129612675
 20
14.27997152538794
 10
178.0422645974619
 20
14.40464754091602
 10
178.0433931602547
 20
14.46327691935736
 10
178.0428877841517
 20
14.55043662371976
 10
178.0430475158114
 20
14.64416143182872
 10
178.0430054891319
 20
14.73018971297035
 10
178.0430202040374
 20
14.79153891945495
 10
178.0429706255984
 20
14.94135231520993
 10
178.0458811522811
 20
15.17989612510104
 10
178.0259521041163
 20
15.544865098687
 10
178.0750433936247
 20
15.80799631993413
 10
177.9177951509181
 20
16.21928904947752
 10
178.0762112872422
 20
16.16398282551747
 10
178.131168047863
 20
16.16199686500175
 10
178.182788776674
 20
16.16264778248252
 10
178.2713198965366
 20
16.20369527738244
 10
178.2204898303169
 20
16.05696326622985
 10
178.2313389930285
 20
15.95019971954434
 10
178.2166036994847
 20
15.79085705414112
 10
178.2099976446204
 20
15.62853061652875
 10
178.2014961399915
 20
15.45992521892395
 10
178.19432272022
 20
15.29814814703541
 10
178.1889063215389
 20
15.15422331457932
 10
178.1871713967648
 20
15.03437493466925
 10
178.1875440672319
 20
14.92686101590515
 10
178.1873656126262
 20
14.81820024645585
 10
178.187701086314
 20
14.6995357016553
 10
178.1890040622184
 20
14.57555163512741
 10
178.1908887351573
 20
14.44858294171105
 10
178.1925004454853
 20
14.32153861551032
 10
178.194140313743
 20
14.19854884492178
 10
178.1962570745753
 20
14.0830093138376
 10
178.1963848422363
 20
13.98090903955837
 10
178.2006514396554
 20
13.89009848838156
 10
178.1908440085289
 20
13.83213621208786
 10
178.2118474771689
 20
13.76517130132029
 10
178.1725639739896
 20
13.77291153966687
 10
177.9595307117747
 20
13.75755254145192
 10
177.7636297943186
 20
14.31403058094468
 10
177.4611197631544
 20
14.5755603534851
 10
177.3067935648022
 20
14.70898038201725
 97
        1
330
A7
 75
     1
 76
     2
 52
45.0
 41
0.1
 77
     0
 78
     1
 53
45.0
 43
0.0
 44
0.0
 45
-0.282842712474619
 46
0.0
 79
     0
 98
        1
 10
0.0
 20
0.0
  0
HATCH
  5
C5
330
48
100
AcDbEntity
  8
1
  6
Continuous
 62
     2
100
AcDbHatch
 10
0.0
 20
0.0
 30
0.0
210
0.0
220
0.0
230
1.0
  2
CUSTOM3
 70
     0
 71
     1
 91
        1
 92
        1
 93
        1
 72
     4
 94
        3
 73
     0
 74
     0
 95
      110
 96
      106
 40
0.0
 40
0.0
 40
0.0
 40
0.0
 40
0.2203406257277767
 40
0.4407808782838128
 40
0.5952494494615108
 40
0.748843165939311
 40
0.9023581831309664
 40
1.056801968670408
 40
1.210736449099937
 40
1.363041386539872
 40
1.515315729683187
 40
1.669377239148166
 40
1.721611652756661
 40
1.773199502943046
 40
1.824933793210101
 40
1.877110426488087
 40
1.982682281206907
 40
2.078781667087744
 40
2.172809640822465
 40
2.271937807379119
 40
2.378349933379512
 40
2.494131557736701
 40
2.626681683943807
 40
2.783145050796177
 40
2.890701232941024
 40
2.993130312454917
 40
3.099869730691908
 40
3.22023781669141
 40
3.35269548273769
 40
3.48173280638995
 40
3.593499473690472
 40
3.674323013331986
 40
3.817951711952907
 40
3.946167120793847
 40
4.061405053453618
 40
4.166480796003174
 40
4.262478775059296
 40
4.35073667355128
 40
4.433071991254109
 40
4.511216293814655
 40
4.564262454117976
 40
4.618474415571603
 40
4.6701284887542
 40
4.72229687912639
 40
4.819540945314259
 40
4.931194984128116
 40
5.049996040257757
 40
5.168643755415303
 40
5.283970811762515
 40
5.392260784910227
 40
5.486512254876359
 40
5.559178233949729
 40
5.5914258528534
 40
5.626215969637783
 40
5.667155838674323
 40
5.717449290214136
 40
5.738402360944749
 40
5.784499116553716
 40
5.830595872164684
 40
5.851548942897542
 40
5.873019280661657
 40
5.924217778408199
 40
5.985325662817578
 40
6.036524160567595
 40
6.057994498334123
 40
6.236847789607371
 40
6.381409928945537
 40
6.49319042417858
 40
6.57406753423039
 40
6.691018086205427
 40
6.814881554220402
 40
6.944307823240269
 40
7.071266716065893
 40
7.193488604461738
 40
7.30904277312805
 40
7.41400720317062
 40
7.505140441886431
 40
7.531150360599583
 40
7.559221645322178
 40
7.587202218920829
 40
7.612569159499039
 40
7.662550809480914
 40
7.70287887576405
 40
7.857328205230864
 40
8.010799568088482
 40
8.16525639965746
 40
8.322232698713885
 40
8.479564855016486
 40
8.63521623029069
 40
8.790882550925664
 40
8.948305154947258
 40
9.168271839032949
 40
9.387358980987225
 40
9.608047961033469
 40
9.832914234792678
 40
9.858338694963013
 40
9.925366817230017
 40
10.0201307142276
 40
10.12876249858998
 40
10.23739428295248
 40
10.3321581799519
 40
10.39918630222393
 40
10.42461076239782
 40
10.64992019336942
 40
10.87188524531187
 40
10.87188524531187
 40
10.87188524531187
 40
10.87188524531187
 10
179.9057788376619
 20
15.7392326039819
 10
179.9092864933542
 20
15.80616462073804
 10
179.9163033987663
 20
15.94005891915858
 10
179.8198027599072
 20
16.2254855497147
 10
180.0510134726109
 20
16.16284386190283
 10
180.1919290057156
 20
16.17001554055992
 10
180.3490417757589
 20
16.16235883078244
 10
180.5025913427288
 20
16.16252752283041
 10
180.6545104935081
 20
16.16182040535431
 10
180.8142214813232
 20
16.1721015835164
 10
180.9408972601117
 20
16.1549651108075
 10
181.1370821122082
 20
16.22727260107146
 10
181.1034395279078
 20
16.12640699080118
 10
181.1052011317184
 20
16.0761925394767
 10
181.1027342073458
 20
16.02712335586465
 10
181.1347076966012
 20
15.94063490846997
 10
181.0010399903256
 20
15.98997438608337
 10
180.9172208688056
 20
15.98430634314168
 10
180.8173861139324
 20
15.99465516706298
 10
180.7186576720145
 20
16.00086450411086
 10
180.6121532771111
 20
16.00697763816778
 10
180.4910511698059
 20
16.01588883484585
 10
180.3703381502453
 20
16.00521605912383
 10
180.1812553843438
 20
16.06468503080364
 10
180.2129028505311
 20
15.9055832007754
 10
180.1995563316833
 20
15.80839128339904
 10
180.1974958426451
 20
15.69634065110103
 10
180.195818804467
 20
15.5769968562935
 10
180.1973336794233
 20
15.45032592155109
 10
180.195658247867
 20
15.32301588016116
 10
180.2058844271658
 20
15.22451566404464
 10
180.1779006596583
 20
15.08388702625631
 10
180.3508029999306
 20
15.13989551134094
 10
180.4645020202773
 20
15.12719951478499
 10
180.5840151672239
 20
15.13448377051254
 10
180.6888491425072
 20
15.13878017056756
 10
180.7843084898612
 20
15.14330568258977
 10
180.8763823507033
 20
15.151492011462
 10
180.947655178244
 20
15.14643850638112
 10
181.0544931705684
 20
15.18536425031673
 10
181.0226603598037
 20
15.10517122005879
 10
181.0266164503929
 20
15.05562936846033
 10
181.0234502392014
 20
15.0055747803982
 10
181.0550791490584
 20
14.92128847612021
 10
180.9210133677692
 20
14.97425365495158
 10
180.82923227932
 20
14.96540080890441
 10
180.7079729189602
 20
14.97570049965154
 10
180.5914113119771
 20
14.97748911767502
 10
180.4783375745879
 20
14.97787017109694
 10
180.3679246308472
 20
14.9841544947218
 10
180.2898124067841
 20
14.97189133255363
 10
180.1913625833644
 20
15.00453887616125
 10
180.2012355173562
 20
14.94769748054206
 10
180.1973923244402
 20
14.91392130557984
 10
180.1966789884269
 20
14.87119604709411
 10
180.1963369642975
 20
14.83401607262153
 10
180.1963834255346
 20
14.7948723737077
 10
180.1963649429926
 20
14.75716849497685
 10
180.1963703431807
 20
14.71944955232403
 10
180.1963697214201
 20
14.6899432474515
 10
180.1963698151545
 20
14.65873577699301
 10
180.1963704287921
 20
14.61414424908085
 10
180.1963671499336
 20
14.5596395650885
 10
180.1963759623481
 20
14.51505540201448
 10
180.1963359653416
 20
14.4311780858574
 10
180.1976024270255
 20
14.31737520677679
 10
180.1950274117842
 20
14.16830395933709
 10
180.2065009381719
 20
14.06597203813906
 10
180.1823506222265
 20
13.93338903885836
 10
180.3332993946476
 20
13.97895732272021
 10
180.4428436671556
 20
13.96427012162349
 10
180.5733970473921
 20
13.96920435125063
 10
180.6990312209513
 20
13.97257705323362
 10
180.8188730625602
 20
13.97711497498773
 10
180.9391362611427
 20
13.99048536182005
 10
181.0222761663516
 20
13.98068712782597
 10
181.1456080421075
 20
14.04126214623322
 10
181.1244269203958
 20
13.9853246013402
 10
181.1235950270118
 20
13.95939249372346
 10
181.1218963707559
 20
13.93197256190938
 10
181.1217974888831
 20
13.89738195206385
 10
181.120365930133
 20
13.86050408220767
 10
181.1532804192192
 20
13.76846841021807
 10
180.9551306988108
 20
13.84132015974831
 10
180.8300548294892
 20
13.81825726508607
 10
180.6673071295156
 20
13.82454021985787
 10
180.5129366450002
 20
13.82260943909927
 10
180.3566670436944
 20
13.82393762599269
 10
180.1970544465282
 20
13.82059872487863
 10
180.0540326342237
 20
13.83265795728241
 10
179.8197144881628
 20
13.76952001976917
 10
179.9173810751197
 20
14.05620527466318
 10
179.900686878006
 20
14.2498830814266
 10
179.9146296709686
 20
14.47848242880296
 10
179.9142987846632
 20
14.63384593955048
 10
179.9143078119265
 20
14.73966336444127
 10
179.9143055876316
 20
14.80205784124215
 10
179.914306555189
 20
14.89220425248327
 10
179.9143065473262
 20
14.99621167157438
 10
179.9143053861104
 20
15.10022131375296
 10
179.9143090971502
 20
15.19036243688767
 10
179.9143011051052
 20
15.25276803097214
 10
179.9143334275019
 20
15.35868835961119
 10
179.913144078832
 20
15.5162671654474
 10
179.9082216489257
 20
15.66528219822065
 10
179.9057788376619
 20
15.7392326039819
 97
        1
330
A8
 75
     1
 76
     2
 52
45.0
 41
0.1
 77
     0
 78
     1
 53
45.0
 43
0.0
 44
0.0
 45
-0.282842712474619
 46
0.0
 79
     0
 98
        1
 10
0.0
 20
0.0
  0
HATCH
  5
C6
330
48
100
AcDbEntity
  8
1
  6
Continuous
 62
     2
100
AcDbHatch
 10
0.0
 20
0.0
 30
0.0
210
0.0
220
0.0
230
1.0
  2
CUSTOM4
 70
     0
 71
     1
 91
        1
 92
        1
 93
        1
 72
     4
 94
        3
 73
     0
 74
     0
 95
       47
 96
       43
 40
0.0
 40
0.0
 40
0.0
 40
0.0
 40
0.2207912809957077
 40
0.4459404186302887
 40
0.4902387190457982
 40
0.5327473892721771
 40
0.574226045122482
 40
0.6155432630560396
 40
0.6568164066314746
 40
0.6982511618780243
 40
0.740766392931618
 40
0.7851366743173964
 40
1.010288833836196
 40
1.23108050700203
 40
1.451765243652266
 40
1.676638205891555
 40
1.720461045359526
 40
1.830018144043393
 40
1.972442372353026
 40
2.114866600677399
 40
2.224423699395025
 40
2.268246538883266
 40
2.493628801207085
 40
2.715602830286488
 40
2.93421133070624
 40
3.14950236985523
 40
3.231387784850791
 40
3.318231873853826
 40
3.405143198197871
 40
3.486970301720223
 40
3.702258172493662
 40
3.920866283533891
 40
4.142839325931682
 40
4.368221903865132
 40
4.412044743359615
 40
4.521601842095631
 40
4.664026070452111
 40
4.806450298808823
 40
4.916007397546519
 40
4.959830237042842
 40
5.184703515846879
 40
5.405387250767261
 40
5.405387250767261
 40
5.405387250767261
 40
5.405387250767261
 10
182.6507427258645
 20
15.73406440953873
 10
182.6568139420002
 20
15.79758482501209
 10
182.6690762107241
 20
15.92587938689623
 10
182.5604706879416
 20
16.2016622017408
 10
182.6761985896604
 20
16.1718813343205
 10
182.7171842509016
 20
16.16765556262823
 10
182.7591205797519
 20
16.16310446389605
 10
182.800419662571
 20
16.16201982929485
 10
182.8417032115557
 20
16.16310338195228
 10
182.8836148270647
 20
16.16766112711343
 10
182.9245983549019
 20
16.17187430209728
 10
183.0404922843488
 20
16.20177611317534
 10
182.9295652727456
 20
15.92339806609889
 10
182.9574856365268
 20
15.74283140824953
 10
182.9404267346969
 20
15.50961042346472
 10
182.9414637282105
 20
15.34906622543146
 10
182.9414099399405
 20
15.22284817558721
 10
182.9414277372483
 20
15.12428963336241
 10
182.9414188581081
 20
14.99280702442962
 10
182.9414263928035
 20
14.86132844968649
 10
182.9414129405129
 20
14.76276222694089
 10
182.9414531717494
 20
14.63639735624152
 10
182.9406746403817
 20
14.47482068822869
 10
182.9565958319268
 20
14.24361821892915
 10
182.9333468885407
 20
14.05874351972002
 10
183.0360183444366
 20
13.78935602770057
 10
182.8820238362837
 20
13.82660112685817
 10
182.8004129802833
 20
13.82137994680535
 10
182.7188192292583
 20
13.82660620378351
 10
182.5648513666844
 20
13.78937069885388
 10
182.6674183421917
 20
14.05875129862881
 10
182.6442045316088
 20
14.24361585325414
 10
182.6600444655139
 20
14.47482218565638
 10
182.6593296313427
 20
14.63639712308503
 10
182.6593664569907
 20
14.7627623121052
 10
182.659354900027
 20
14.86132756635981
 10
182.6593575019213
 20
14.99281127417219
 10
182.6593648531779
 20
15.124275480312
 10
182.6593442541351
 20
15.22287786275325
 10
182.6594082192028
 20
15.34896149354426
 10
182.6581733947591
 20
15.51210091383772
 10
182.6532040396745
 20
15.6605418377755
 10
182.6507427258645
 20
15.73406440953873
 97
        1
330
A9
 75
     1
 76
     2
 52
45.0
 41
0.1
 77
     0
 78
     1
 53
45.0
 43
0.0
 44
0.0
 45
-0.282842712474619
 46
0.0
 79
     0
 98
        1
 10
0.0
 20
0.0
  0
HATCH
  5
C7
330
48
100
AcDbEntity
  8
1
  6
Continuous
 62
     2
100
AcDbHatch
 10
0.0
 20
0.0
 30
0.0
210
0.0
220
0.0
230
1.0
  2
CUSTOM5
 70
     0
 71
     1
 91
        1
 92
        1
 93
        1
 72
     4
 94
        3
 73
     0
 74
     0
 95
      118
 96
      114
 40
0.0
 40
0.0
 40
0.0
 40
0.0
 40
0.1054708162973728
 40
0.2466098270052242
 40
0.3965912874591581
 40
0.5285525069754204
 40
0.6156245055642794
 40
0.6431434105797924
 40
0.70368500379866
 40
0.7642265984504969
 40
0.7917455052355259
 40
0.9287404319990529
 40
1.106572819088129
 40
1.287544879681129
 40
1.317578308030646
 40
1.399928030857285
 40
1.522968204800059
 40
1.67507298659068
 40
1.844616533180757
 40
2.019973001638822
 40
2.189516548880134
 40
2.341621331585473
 40
2.464661506320609
 40
2.547011229647173
 40
2.577044658168137
 40
2.603797890893179
 40
2.662655002908866
 40
2.72151211494965
 40
2.748265347702801
 40
2.774215307344877
 40
2.845959313407207
 40
2.954338556588408
 40
3.090194227585587
 40
3.244367517100552
 40
3.407699615844312
 40
3.571031714539463
 40
3.725205003920139
 40
3.861060674729642
 40
3.969439917716334
 40
4.041183923629009
 40
4.067133883213002
 40
4.31188674601221
 40
4.547897258335592
 40
4.764747083044033
 40
4.952749679951799
 40
5.045772974195937
 40
5.137862019645047
 40
5.3305431697931
 40
5.553448265244095
 40
5.795083855888276
 40
6.043293412177338
 40
6.285761695541294
 40
6.313902908752806
 40
6.384255941793396
 40
6.475714884766984
 40
6.567173827759018
 40
6.637526860839796
 40
6.665668074074159
 40
6.692018920328132
 40
6.749990782071202
 40
6.80796264379057
 40
6.834313490018045
 40
6.856393084245323
 40
6.913335195649975
 40
6.991194817302611
 40
7.076026942283844
 40
7.153886563725391
 40
7.210828674844945
 40
7.23290826893128
 40
7.258199334923801
 40
7.324875781592449
 40
7.419142481925104
 40
7.527204308842044
 40
7.635266135230618
 40
7.729532834168604
 40
7.796209279292923
 40
7.821500344594869
 40
7.84465298885094
 40
7.89986314054169
 40
7.965759128053828
 40
8.020969279771084
 40
8.04412192404655
 40
8.069356610160622
 40
8.109134395441421
 40
8.132238100191133
 40
8.193147867786495
 40
8.279261678876667
 40
8.37797751267388
 40
8.47669334714666
 40
8.562807160411712
 40
8.623716930826498
 40
8.64682063685345
 40
8.671988793774263
 40
8.734909185828174
 40
8.816705695188888
 40
8.89850220481546
 40
8.96142259737792
 40
8.986590754551033
 40
9.012941600733187
 40
9.070913462380272
 40
9.128885324081768
 40
9.155236170325088
 40
9.18040432792913
 40
9.243324721948204
 40
9.325121234211997
 40
9.406917746637651
 40
9.469838141978107
 40
9.495006288270881
 40
9.517811184379024
 40
9.572192090487023
 40
9.637098333281253
 40
9.691479239515452
 40
9.714284125643491
 40
9.714284125643491
 40
9.714284125643491
 40
9.714284125643491
 10
185.2874469028653
 20
15.26889163187719
 10
185.3090990569038
 20
15.24111869242812
 10
185.3597257109474
 20
15.17618054561238
 10
185.4349383202592
 20
15.06891060312898
 10
185.5248482274346
 20
14.95377438266627
 10
185.5709169676674
 20
14.85357045748315
 10
185.6655825294656
 20
14.78434006814945
 10
185.6204439320414
 20
14.73771639678272
 10
185.5947047785791
 20
14.69660308866039
 10
185.5645196708013
 20
14.66065971727939
 10
185.5193684730563
 20
14.58579782596092
 10
185.4710504458563
 20
14.80782524253606
 10
185.3968539713073
 20
14.84510677337707
 10
185.2836047324606
 20
15.11610202130601
 10
185.288513357817
 20
15.00095328446229
 10
185.2868486556306
 20
14.92836675781627
 10
185.2876830076714
 20
14.80625588483986
 10
185.2873609540264
 20
14.6591380081046
 10
185.2875076912455
 20
14.49307063956557
 10
185.2872950092723
 20
14.32187554608602
 10
185.2879497252034
 20
14.15552828635498
 10
185.2859192461139
 20
14.00935173055693
 10
185.291346039993
 20
13.8847104747461
 10
185.2804930868708
 20
13.81718656540627
 10
185.2956739155555
 20
13.75549061417023
 10
185.2457895108134
 20
13.76727503897002
 10
185.2017150342523
 20
13.7594382277997
 10
185.1582371630201
 20
13.76760441372702
 10
185.1092346786489
 20
13.75538056738469
 10
185.1218731234825
 20
13.80960667249313
 10
185.113018296845
 20
13.86936918907558
 10
185.1175058770314
 20
13.9792202904437
 10
185.1157960135992
 20
14.11029975405678
 10
185.1163550915987
 20
14.26198011444329
 10
185.1161928768695
 20
14.42211074929953
 10
185.1162269924675
 20
14.58236865674567
 10
185.1162514960127
 20
14.7337024752044
 10
185.1161453543227
 20
14.86582156338602
 10
185.116429914193
 20
14.97294802533193
 10
185.1158675547569
 20
15.03808619579475
 10
185.1180765083689
 20
15.16618957858676
 10
185.0319435998604
 20
14.79097610391575
 10
184.95551408185
 20
14.63918193123395
 10
184.8660040767834
 20
14.47766206446307
 10
184.7640413217327
 20
14.20471848820172
 10
184.718797649104
 20
14.36717346596512
 10
184.610235594167
 20
14.45605432058117
 10
184.7995791751753
 20
14.60549794961409
 10
184.85653405457
 20
14.79749136974926
 10
184.9717520993353
 20
15.02899622906755
 10
184.9940151630133
 20
15.21797259759065
 10
185.1771905152139
 20
15.49454089325929
 10
185.0538033597553
 20
15.48698978832094
 10
184.9925684166834
 20
15.48856772366118
 10
184.9081999617065
 20
15.48882592573673
 10
184.8204235085966
 20
15.48544845751206
 10
184.7656768696123
 20
15.4939481498202
 10
184.7104703026025
 20
15.48048561049788
 10
184.7222823035537
 20
15.52931442126763
 10
184.7142496151795
 20
15.57269004896709
 10
184.7228186104678
 20
15.61509438309572
 10
184.7102943409158
 20
15.66267796552119
 10
184.7555101538736
 20
15.65267212995109
 10
184.8014815562725
 20
15.65894105174061
 10
184.8777222047711
 20
15.65593561405872
 10
184.9561296131995
 20
15.65770448278541
 10
185.0323992648934
 20
15.65464793981659
 10
185.0783009459475
 20
15.66103971376176
 10
185.1231733965401
 20
15.65093822978896
 10
185.1105552275635
 20
15.70157201581898
 10
185.1191936582707
 20
15.7550126188207
 10
185.1152361595445
 20
15.8486325513168
 10
185.1162325068335
 20
15.95112606688923
 10
185.1171927413074
 20
16.05353270248163
 10
185.1133211458006
 20
16.1473592960932
 10
185.1217789814366
 20
16.20036542840352
 10
185.1093075932836
 20
16.25211435651187
 10
185.1542106389851
 20
16.23850747226757
 10
185.1955083836772
 20
16.24100480320584
 10
185.259534428105
 20
16.23648060574487
 10
185.2986111148786
 20
16.22781003043307
 10
185.3476543498742
 20
16.23515102070686
 10
185.3225080030591
 20
16.19602896051756
 10
185.2815901333723
 20
16.20563842455808
 10
185.2910109616604
 20
16.15540148169777
 10
185.2855647318746
 20
16.10385945639489
 10
185.2881699601803
 20
16.0195970758452
 10
185.2870102202153
 20
15.92559135583408
 10
185.2883591064232
 20
15.83196865395525
 10
185.2849970101508
 20
15.74679517552222
 10
185.2920959917769
 20
15.69716856072044
 10
185.2812569154545
 20
15.64993694969989
 10
185.3304010225245
 20
15.66201674936851
 10
185.3794877630147
 20
15.65447393363011
 10
185.4573714280641
 20
15.65686070361432
 10
185.5350365172897
 20
15.65899381905415
 10
185.5845393931354
 20
15.65193391922455
 10
185.6344594750639
 20
15.66360151936214
 10
185.622319851688
 20
15.61540235371393
 10
185.6305838229143
 20
15.57249219801236
 10
185.6223198650783
 20
15.52958201851384
 10
185.6344594549855
 20
15.48138288754865
 10
185.5845395158746
 20
15.4930503447151
 10
185.5350350651202
 20
15.48599202435046
 10
185.4573784382973
 20
15.48811665228603
 10
185.379464386576
 20
15.4905338936576
 10
185.3304500352716
 20
15.48291848194485
 10
185.2813246108943
 20
15.49507952557593
 10
185.2915559988571
 20
15.45073013424158
 10
185.2856677678053
 20
15.40925436202911
 10
185.2878788305569
 20
15.34915394315302
 10
185.2874109346146
 20
15.30225782762889
 10
185.2874386992913
 20
15.27650146418196
 10
185.2874469028653
 20
15.26889163187719
 97
        1
330
AA
 75
     1
 76
     2
 52
45.0
 41
0.1
 77
     0
 78
     1
 53
45.0
 43
0.0
 44
0.0
 45
-0.282842712474619
 46
0.0
 79
     0
 98
        1
 10
0.0
 20
0.0
  0
HATCH
  5
C8
330
48
100
AcDbEntity
  8
1
  6
Continuous
 62
     2
100
AcDbHatch
 10
0.0
 20
0.0
 30
0.0
210
0.0
220
0.0
230
1.0
  2
CUSTOM6
 70
     0
 71
     1
 91
        1
 92
        1
 93
        1
 72
     4
 94
        3
 73
     0
 74
     0
 95
       91
 96
       87
 40
0.0
 40
0.0
 40
0.0
 40
0.0
 40
0.0345987051695434
 40
0.1258134969461369
 40
0.2547723404888987
 40
0.4026032099154409
 40
0.5504340793417273
 40
0.6793929228836932
 40
0.7706077146571888
 40
0.8052064287781777
 40
1.124852390615368
 40
1.427402236308964
 40
1.706356627453612
 40
1.955541417875287
 40
2.169485938566431
 40
2.344350786664887
 40
2.480568411562016
 40
2.590440557429011
 40
2.649189927151213
 40
2.749320643306426
 40
2.912632739880121
 40
3.147745656000312
 40
3.244827496385243
 40
3.338490056946779
 40
3.583815413207209
 40
3.761423943238568
 40
3.886956104362732
 40
3.985855451886871
 40
4.091766255337699
 40
4.250186473811892
 40
4.422734315084559
 40
4.628285684838654
 40
4.872093227758496
 40
5.152549652145607
 40
5.464967135837593
 40
5.803201477852506
 40
6.160362988813977
 40
6.193449448276061
 40
6.284170385501715
 40
6.419718138764557
 40
6.587285046385835
 40
6.774063446723721
 40
6.967245678113704
 40
7.154024078817718
 40
7.321590987026076
 40
7.457138740890434
 40
7.54785967855617
 40
7.58094613818273
 40
7.608533084714781
 40
7.669224367077758
 40
7.729915649429973
 40
7.757502595950026
 40
7.790278062553508
 40
7.880146277430978
 40
8.014419963180412
 40
8.180411842397913
 40
8.365434637679382
 40
8.556801071622655
 40
8.741823866830739
 40
8.907815745916306
 40
9.042089431507403
 40
9.131957646249528
 40
9.164733112797105
 40
9.41542506314003
 40
9.667986180958485
 40
9.694169807462623
 40
9.756607686047554
 40
9.83113031532236
 40
9.893568193899767
 40
9.919751820398584
 40
9.950967964690424
 40
9.996421631210536
 40
10.22087981037441
 40
10.4434186619753
 40
10.47847970788842
 40
10.57091337438743
 40
10.70159545461223
 40
10.85140174170351
 40
11.00120802880474
 40
11.13189010907379
 40
11.22432377583004
 40
11.25938480938953
 40
11.28697175596141
 40
11.34766303835915
 40
11.40835432042066
 40
11.435941258921
 40
11.435941258921
 40
11.435941258921
 40
11.435941258921
 10
190.081811433329
 20
15.55242795125077
 10
190.0702785844941
 20
15.55242790287915
 10
190.0283409445
 20
15.55242773704164
 10
189.9434129719026
 20
15.55243125800908
 10
189.8207688553129
 20
15.55240926435879
 10
189.6791206916993
 20
15.55250801177053
 10
189.5379753698491
 20
15.55214686232421
 10
189.4141351317904
 20
15.55321883609088
 10
189.3317217825382
 20
15.55092249091268
 10
189.1727791229692
 20
15.5604856937342
 10
189.3503402353376
 20
15.19785394311371
 10
189.3379739205453
 20
14.95243127723114
 10
189.4064519473866
 20
14.66862501324836
 10
189.469302432097
 20
14.43250999939035
 10
189.5452253431729
 20
14.23326740396129
 10
189.6303189577017
 20
14.07745347451375
 10
189.7244607592935
 20
13.97657857781391
 10
189.8282648207729
 20
13.92465852638967
 10
189.9125872030774
 20
13.97606484379614
 10
189.9351322179453
 20
14.09144544037517
 10
189.9745730975371
 20
14.21885149702381
 10
189.9202919734941
 20
14.53622328086752
 10
190.0451218072474
 20
14.3898218014091
 10
190.2019291513602
 20
14.35795300331167
 10
190.0947720007057
 20
14.1242135776763
 10
190.0808711209867
 20
13.95972776583656
 10
190.0234709467226
 20
13.83130869122485
 10
189.9335020145009
 20
13.76018802352826
 10
189.8095274657879
 20
13.74432324142254
 10
189.6634273196861
 20
13.77993797554172
 10
189.5243894320285
 20
13.90000570500276
 10
189.4102003962145
 20
14.07435682550321
 10
189.3146141301486
 20
14.29946603111239
 10
189.2318652572627
 20
14.56388246006443
 10
189.1807179256411
 20
14.88187933098543
 10
189.077018920734
 20
15.15543728488913
 10
189.204284120852
 20
15.56005818612867
 10
189.0357890623019
 20
15.55112367849678
 10
188.9511995787077
 20
15.55315961418363
 10
188.8189876387628
 20
15.55213937388405
 10
188.6560505094104
 20
15.55253230318429
 10
188.4733759170534
 20
15.55235696313369
 10
188.2847057373383
 20
15.55260105307468
 10
188.101446902019
 20
15.55185657906237
 10
187.9404746832718
 20
15.55416360522426
 10
187.8029808335277
 20
15.54799804883663
 10
187.7289590372312
 20
15.56032838458211
 10
187.6613215186857
 20
15.54329323723556
 10
187.673237371927
 20
15.59524438447527
 10
187.6655677285694
 20
15.64071424966528
 10
187.6732592225116
 20
15.68614453703705
 10
187.6613141797763
 20
15.73802395984571
 10
187.7283588305868
 20
15.72119143490263
 10
187.8017375665678
 20
15.7333540909267
 10
187.9379128305273
 20
15.72727231074958
 10
188.0973811801513
 20
15.72954834315057
 10
188.2789173085837
 20
15.72881233998961
 10
188.4658034862179
 20
15.72905954196132
 10
188.6468012316836
 20
15.72886400799253
 10
188.8080802578879
 20
15.72932234714838
 10
188.9393882124887
 20
15.72812673751205
 10
189.0225051322596
 20
15.73051347319741
 10
189.1556236547814
 20
15.72230605725463
 10
189.0645893502659
 20
15.97752868952654
 10
188.9789633074421
 20
16.24164358328245
 10
189.0990589003456
 20
16.22904442969164
 10
189.1514264948544
 20
16.22694235763075
 10
189.2214497569715
 20
16.22535399889656
 10
189.2671922337818
 20
16.21602567538113
 10
189.3220812646933
 20
16.22545966915426
 10
189.2963574785682
 20
16.17733028655172
 10
189.1825397571452
 20
16.18266829744166
 10
189.3159346621136
 20
15.95449174576775
 10
189.1943658735472
 20
15.72156856595923
 10
189.3223188769412
 20
15.73087258884437
 10
189.4049048406461
 20
15.72801001754679
 10
189.5307214850824
 20
15.72923437412301
 10
189.6741469838059
 20
15.72932431888964
 10
189.8157420951728
 20
15.72746163183852
 10
189.9459127249968
 20
15.73333075937162
 10
190.0193452286191
 20
15.72070340823202
 10
190.0891112922097
 20
15.73877563110412
 10
190.0775772605397
 20
15.68612850546325
 10
190.0833184346683
 20
15.64221317686547
 10
190.0816615770911
 20
15.59089982676549
 10
190.081775756167
 20
15.56158792021635
 10
190.081811433329
 20
15.55242795125077
 97
        1
330
AB
 75
     1
 76
     2
 52
45.0
 41
0.1
 77
     0
 78
     1
 53
45.0
 43
0.0
 44
0.0
 45
-0.282842712474619
 46
0.0
 79
     0
 98
        1
 10
0.0
 20
0.0
  0
HATCH
  5
C9
330
48
100
AcDbEntity
  8
1
  6
Continuous
 62
     2
100
AcDbHatch
 10
0.0
 20
0.0
 30
0.0
210
0.0
220
0.0
230
1.0
  2
CUSTOM7
 70
     0
 71
     1
 91
        1
 92
        1
 93
        1
 72
     4
 94
        3
 73
     0
 74
     0
 95
       75
 96
       71
 40
0.0
 40
0.0
 40
0.0
 40
0.0
 40
0.0342546099129691
 40
0.1245622414432364
 40
0.2522385480897554
 40
0.3985991922940715
 40
0.544959836498091
 40
0.6726361431438905
 40
0.7629437746737049
 40
0.7971983935298079
 40
1.101723623449727
 40
1.408591244036676
 40
1.433332471690381
 40
1.487763172450175
 40
1.542193873082001
 40
1.566935100592549
 40
1.923523931821806
 40
2.271755704953606
 40
2.590579755100848
 40
2.85894330558108
 40
2.8891203393091
 40
2.918305855191046
 40
2.941366645531169
 40
2.996357760973061
 40
3.061992318140606
 40
3.116983433626792
 40
3.140044223997481
 40
3.411273122936373
 40
3.732441619740982
 40
3.76106821753268
 40
3.837787499630246
 40
3.948858699125882
 40
4.08054104910426
 40
4.219093782625647
 40
4.350776132722199
 40
4.461847332405533
 40
4.538566614678267
 40
4.567193212544515
 40
4.594907573998773
 40
4.666381453557312
 40
4.764111044010894
 40
4.870592538125697
 40
4.968322128642091
 40
5.039796008286805
 40
5.067510369784236
 40
5.094263603185448
 40
5.153120716668081
 40
5.211977830150524
 40
5.238731063551528
 40
5.272290535138795
 40
5.3633805294446
 40
5.497618415781306
 40
5.660621563453519
 40
5.83800734174922
 40
6.0153931199106
 40
6.178396267038197
 40
6.312634151842177
 40
6.403724143059167
 40
6.437283612672262
 40
6.464036846260878
 40
6.522893960004492
 40
6.581751071483751
 40
6.608504301590697
 40
6.637253941280845
 40
6.711397748902725
 40
6.812778057283337
 40
6.923237199249114
 40
7.024617507623757
 40
7.098761315207467
 40
7.127510946007417
 40
7.127510946007417
 40
7.127510946007417
 40
7.127510946007417
 10
188.4418622390564
 20
14.95849128473265
 10
188.4418622819707
 20
14.9470731340872
 10
188.4418624481128
 20
14.9055525784263
 10
188.4418593081787
 20
14.82146922003773
 10
188.44187882798
 20
14.70004497322329
 10
188.4417912187738
 20
14.55980494047449
 10
188.442111623523
 20
14.42006556794576
 10
188.4411605909741
 20
14.29745038894929
 10
188.4431978595967
 20
14.21587074438043
 10
188.4349433178746
 20
14.06271267077696
 10
188.74307979409
 20
14.22560236054716
 10
189.0350645173737
 20
14.39482938688003
 10
189.0408354448707
 20
14.25973235781911
 10
189.0455471719891
 20
14.21617221160445
 10
189.0482535411917
 20
14.17211249350545
 10
189.067254567296
 20
14.02272590363136
 10
188.6583942247303
 20
14.08681172241261
 10
188.3793710348832
 20
13.97296341411017
 10
188.1018081587168
 20
13.87364095811144
 10
187.80998371844
 20
13.91630687596354
 10
187.7869144678659
 20
13.81321679744541
 10
187.7537474383334
 20
13.7869109124447
 10
187.7480653962739
 20
13.83455309036304
 10
187.7284214559045
 20
13.8718033611507
 10
187.7095089485624
 20
13.93007387847563
 10
187.6942849867708
 20
13.97385201007806
 10
187.6477246372935
 20
14.08759421046305
 10
187.9890897312451
 20
14.05576301120049
 10
188.2679649367388
 20
14.02161435106481
 10
188.2617753034907
 20
14.16913976479652
 10
188.2630935452773
 20
14.24013150908833
 10
188.2624831689948
 20
14.34719767958661
 10
188.2625871570725
 20
14.47398529785998
 10
188.2629987964055
 20
14.60849243496051
 10
188.2613907841969
 20
14.73395549951185
 10
188.2659902567924
 20
14.84505246719118
 10
188.256418650221
 20
14.90761886800689
 10
188.2704001783691
 20
14.96595388295002
 10
188.2147384386704
 20
14.95289710582239
 10
188.1575655197822
 20
14.961363077495
 10
188.0616048925647
 20
14.95729976080637
 10
187.9633767522822
 20
14.95970889852475
 10
187.8672582457561
 20
14.95551600613389
 10
187.8104648525812
 20
14.96429346441164
 10
187.7550356873385
 20
14.95094936850123
 10
187.7670679427918
 20
15.00036910959257
 10
187.7592003173938
 20
15.04393988030396
 10
187.766629556383
 20
15.08830469118526
 10
187.7551930564144
 20
15.13902297763992
 10
187.8232102370134
 20
15.12162460757743
 10
187.8968496879747
 20
15.13417450237189
 10
188.0325064058211
 20
15.12799677011096
 10
188.1884909024526
 20
15.13029203093085
 10
188.3615926358144
 20
15.1294096826253
 10
188.5346942964182
 20
15.13029207142408
 10
188.6906789811218
 20
15.1279966295555
 10
188.8263351889797
 20
15.13417486262431
 10
188.8999756705654
 20
15.12162394218335
 10
188.9679914174724
 20
15.13902373012143
 10
188.9565590885923
 20
15.08830130414555
 10
188.9639539458297
 20
15.04397060811109
 10
188.9562039912272
 20
15.00028307550196
 10
188.9681203741877
 20
14.95063590098478
 10
188.9108170223618
 20
14.96461411338427
 10
188.8520145789773
 20
14.95539755673254
 10
188.75252936332
 20
14.9595226816493
 10
188.649428009835
 20
14.95822760025888
 10
188.5537846354574
 20
14.95854077077641
 10
188.4857467971617
 20
14.95848776697146
 10
188.4514462213443
 20
14.95849051871657
 10
188.4418622390564
 20
14.95849128473265
 97
        1
330
AC
 75
     1
 76
     2
 52
45.0
 41
0.1
 77
     0
 78
     1
 53
45.0
 43
0.0
 44
0.0
 45
-0.282842712474619
 46
0.0
 79
     0
 98
        1
 10
0.0
 20
0.0
  0
HATCH
  5
CA
330
48
100
AcDbEntity
  8
1
  6
Continuous
 62
     2
100
AcDbHatch
 10
0.0
 20
0.0
 30
0.0
210
0.0
220
0.0
230
1.0
  2
CUSTOM8
 70
     0
 71
     1
 91
        1
 92
        1
 93
        1
 72
     4
 94
        3
 73
     0
 74
     0
 95
       15
 96
       11
 40
0.0
 40
0.0
 40
0.0
 40
0.0
 40
0.2785535985096075
 40
0.5215624748198766
 40
0.6076917376040816
 40
0.6938210001741757
 40
0.9405019146455532
 40
1.221691403489191
 40
1.300471877081127
 40
1.379252341684931
 40
1.379252341684931
 40
1.379252341684931
 40
1.379252341684931
 10
189.5681493631
 20
16.2293026733038
 10
189.6296017794178
 20
16.17691646592714
 10
189.7446649974113
 20
16.07882876798219
 10
190.0397348497245
 20
15.9288978589722
 10
189.9025147631857
 20
15.84343227515015
 10
189.8041227843778
 20
15.71085785201556
 10
189.7130033590649
 20
16.01616985781418
 10
189.3636839480655
 20
16.07967869465377
 10
189.511925837657
 20
16.17896509880878
 10
189.5494081874237
 20
16.21252348402382
 10
189.5681493631
 20
16.2293026733038
 97
        1
330
AD
 75
     1
 76
     2
 52
45.0
 41
0.1
 77
     0
 78
     1
 53
45.0
 43
0.0
 44
0.0
 45
-0.282842712474619
 46
0.0
 79
     0
 98
        1
 10
0.0
 20
0.0
  0
HATCH
  5
CB
330
48
100
AcDbEntity
  8
1
  6
Continuous
 62
     2
100
AcDbHatch
 10
0.0
 20
0.0
 30
0.0
210
0.0
220
0.0
230
1.0
  2
CUSTOM9
 70
     0
 71
     1
 91
        1
 92
        1
 93
        1
 72
     4
 94
        3
 73
     0
 74
     0
 95
       35
 96
       31
 40
0.0
 40
0.0
 40
0.0
 40
0.0
 40
0.0335231036620617
 40
0.0713218571712037
 40
0.4278866681487147
 40
0.8116865841963943
 40
1.198190238000053
 40
1.561379546812683
 40
1.659983174621998
 40
1.759315573807177
 40
2.132719617231037
 40
2.525233363588766
 40
2.910815397779676
 40
3.265244364303264
 40
3.59260672358195
 40
3.964386154603897
 40
4.359942131737743
 40
4.758154118639302
 40
4.843846538699919
 40
4.936650065543181
 40
5.256616602537234
 40
5.581707404415923
 40
5.899719158308064
 40
6.198363494280668
 40
6.466301046615734
 40
6.493895311537056
 40
6.559697020196792
 40
6.638234543442367
 40
6.704036252154092
 40
6.731630508422869
 40
6.731630508422869
 40
6.731630508422869
 40
6.731630508422869
 10
191.9736010568669
 20
16.23463843719133
 10
191.9676006097789
 20
16.22480690542322
 10
191.9548344099157
 20
16.20388988579797
 10
191.7949362006554
 20
16.17127126532688
 10
192.2322025842338
 20
15.88206680336704
 10
192.4345394828261
 20
15.68041138358438
 10
192.6819564267973
 20
15.43749387603273
 10
193.1831513624605
 20
15.36047662757784
 10
193.0125562198971
 20
15.21876939174651
 10
192.93832994632
 20
15.01710366209115
 10
192.6131432248188
 20
15.36956287174722
 10
192.3277741670664
 20
15.53175212559566
 10
192.0337604077658
 20
15.73687130053045
 10
191.8084452691134
 20
16.21827488595455
 10
191.5993085055522
 20
15.75343046609221
 10
191.3207873674835
 20
15.54350952252912
 10
191.0371383177209
 20
15.37424456359983
 10
190.7078639527832
 20
15.00142360907936
 10
190.6277012318224
 20
15.19708014458999
 10
190.4759724909746
 20
15.32491104190602
 10
190.9083395826795
 20
15.40454031765932
 10
191.0962565329765
 20
15.60026634915477
 10
191.3468477420502
 20
15.81632996916753
 10
191.5714350470162
 20
15.9819099230006
 10
191.6259775409712
 20
16.26133964636827
 10
191.7494661029012
 20
16.24737950408079
 10
191.8060273344521
 20
16.24521268867647
 10
191.8761870984945
 20
16.24046859881359
 10
191.9333414022105
 20
16.23709429350541
 10
191.9644190320839
 20
16.23519854711117
 10
191.9736010568669
 20
16.23463843719133
 97
        1
330
AE
 75
     1
 76
     2
 52
45.0
 41
0.1
 77
     0
 78
     1
 53
45.0
 43
0.0
 44
0.0
 45
-0.282842712474619
 46
0.0
 79
     0
 98
        1
 10
0.0
 20
0.0
  0
HATCH
  5
CC
330
48
100
AcDbEntity
  8
1
  6
Continuous
 62
     2
100
AcDbHatch
 10
0.0
 20
0.0
 30
0.0
210
0.0
220
0.0
230
1.0
  2
CUSTOM10
 70
     0
 71
     1
 91
        1
 92
        1
 93
        1
 72
     4
 94
        3
 73
     0
 74
     0
 95
       91
 96
       87
 40
0.0
 40
0.0
 40
0.0
 40
0.0
 40
0.0267532254356701
 40
0.0856103386464155
 40
0.1444674521996709
 40
0.1712206856618621
 40
0.2039416005642643
 40
0.2955601971652591
 40
0.4362601844617309
 40
0.6162252844507641
 40
0.8256392189705088
 40
1.054685709844478
 40
1.293548478893599
 40
1.532411247938342
 40
1.761457738799607
 40
1.970871673298604
 40
2.150836773256828
 40
2.291536760495689
 40
2.383155356836768
 40
2.415876284101416
 40
2.442629517488062
 40
2.501486630949196
 40
2.560343744424347
 40
2.587096977826621
 40
2.617068194441049
 40
2.699247336756218
 40
2.822032643466502
 40
2.97382235325806
 40
3.143014704823503
 40
3.318007936880082
 40
3.487200288186915
 40
3.638989997548452
 40
3.761775303794951
 40
3.843954445753286
 40
3.873925662229982
 40
3.890812773500689
 40
3.907699884771868
 40
3.937960767857474
 40
3.980983618142422
 40
4.19908591522858
 40
4.439444339237384
 40
4.677588241261041
 40
5.050698317837956
 40
5.448212454763398
 40
5.855291218044924
 40
6.138575438885633
 40
6.417434507584495
 40
6.444551104394176
 40
6.5042076173635
 40
6.563864130314896
 40
6.590980727104489
 40
6.848609460381846
 40
7.109611990668784
 40
7.352910904446447
 40
7.557830220705835
 40
7.587518925913729
 40
7.652834077376148
 40
7.718149228846109
 40
7.747837934062388
 40
7.854880190301376
 40
7.976511257403902
 40
8.369487896592732
 40
8.757514959224082
 40
9.126072419331544
 40
9.460639380392609
 40
9.74669559303635
 40
9.777569943119106
 40
9.80705032093223
 40
9.830377336129363
 40
9.886003295436437
 40
9.95239556943035
 40
10.0080215287067
 40
10.03134854388262
 40
10.21356951009636
 40
10.42203479292916
 40
10.66154556731111
 40
10.91693789564353
 40
11.15832906556614
 40
11.18982674596672
 40
11.27286608520456
 40
11.39026653033404
 40
11.5248475284094
 40
11.65942852648499
 40
11.77682897161541
 40
11.8598683108574
 40
11.89136598230485
 40
11.89136598230485
 40
11.89136598230485
 40
11.89136598230485
 10
190.7027885008196
 20
14.70699600701772
 10
190.7028237765288
 20
14.71587847311985
 10
190.7029366710796
 20
14.74430237047347
 10
190.7012984568489
 20
14.79409639169803
 10
190.7069750292911
 20
14.83657564478155
 10
190.6956928731706
 20
14.88730154856848
 10
190.7632296979032
 20
14.8701290074011
 10
190.8388029210701
 20
14.88290227165998
 10
190.9828357056001
 20
14.87629729457383
 10
191.1569419185427
 20
14.87888462206467
 10
191.3639599611003
 20
14.87800591955554
 10
191.5894688172378
 20
14.87828207920028
 10
191.8251162293406
 20
14.87818339658663
 10
192.0607640531349
 20
14.87828184412768
 10
192.2862717580626
 20
14.8780067819079
 10
192.4932934632805
 20
14.87888186270736
 10
192.667388891529
 20
14.87630522678447
 10
192.8114492071986
 20
14.88288290449215
 10
192.8869691915294
 20
14.87016243405605
 10
192.954577603703
 20
14.88726400191688
 10
192.9430840140676
 20
14.83674785802941
 10
192.9505104581734
 20
14.79253252226502
 10
192.9428838927986
 20
14.7486796650361
 10
192.9546489459426
 20
14.69878374479328
 10
192.8930788491983
 20
14.71393227712512
 10
192.8256791738672
 20
14.70310665350673
 10
192.7013004056222
 20
14.70852031626236
 10
192.5554428236572
 20
14.70649205390785
 10
192.3893576440086
 20
14.70715777578387
 10
192.2188412621725
 20
14.70689643521242
 10
192.0519790855389
 20
14.70721553391094
 10
191.9087346827105
 20
14.70635302590762
 10
191.7773313869834
 20
14.70863300482988
 10
191.7239859134656
 20
14.70407704374202
 10
191.6485188456912
 20
14.70999914992877
 10
191.6769075779232
 20
14.70094169343353
 10
191.7033652409542
 20
14.6972591226893
 10
191.6633522907701
 20
14.66654271968277
 10
191.5713663691869
 20
14.67667591174628
 10
191.543939620707
 20
14.43032502247786
 10
191.4478793967234
 20
14.27499558764375
 10
191.1917277964473
 20
13.94525417931569
 10
191.7627537732763
 20
14.08430022210452
 10
192.0173656320517
 20
14.08291779973364
 10
192.6279647048618
 20
13.99790569242087
 10
192.3340698578084
 20
14.29685417558203
 10
192.0133304286516
 20
14.44330856901779
 10
192.1313543360434
 20
14.50025540818287
 10
192.1724716466261
 20
14.52420099873349
 10
192.2156812394412
 20
14.54599758811228
 10
192.3174574094452
 20
14.60928721253902
 10
192.4328867625248
 20
14.35147151408779
 10
192.6329591642277
 20
14.21616041113683
 10
192.7269077387229
 20
14.03792795138879
 10
192.9558829746393
 20
13.87997821027054
 10
192.8596031846709
 20
13.82915972576298
 10
192.816795976378
 20
13.79881292523053
 10
192.7718243528781
 20
13.77466130281461
 10
192.7121720925214
 20
13.72552146747566
 10
192.6789731061325
 20
13.85997475673607
 10
192.5582013350797
 20
14.01594265286583
 10
192.1970976005979
 20
13.88569928059555
 10
191.838506195554
 20
13.90224694409483
 10
191.457092045008
 20
13.89331229351866
 10
191.1703455282892
 20
13.82882671672405
 10
190.8592055599712
 20
13.94230668192828
 10
190.8268737818788
 20
13.83122259927766
 10
190.7896178253318
 20
13.81196313850012
 10
190.7865737632753
 20
13.85874784087296
 10
190.7679892860607
 20
13.89806853919134
 10
190.7512436616778
 20
13.95765983478232
 10
190.7383730915753
 20
14.00201969871283
 10
190.7042327806428
 20
14.091063311202
 10
190.9482714457754
 20
14.02181042943771
 10
191.1441394486671
 20
14.00030369057744
 10
191.2395426381277
 20
14.28226484478462
 10
191.2945135769598
 20
14.44363045421123
 10
191.5159619357157
 20
14.71391177589737
 10
191.3849239381217
 20
14.70548446853735
 10
191.3110026555854
 20
14.70779008496969
 10
191.1977459876244
 20
14.70671378321659
 10
191.0694251807485
 20
14.70707639076509
 10
190.9404252030415
 20
14.70697724466086
 10
190.8287840946292
 20
14.70699932712572
 10
190.7514663970025
 20
14.7069957918967
 10
190.713287653201
 20
14.70699595845081
 10
190.7027885008196
 20
14.70699600701772
 97
        1
330
AF
 75
     1
 76
     2
 52
45.0
 41
0.1
 77
     0
 78
     1
 53
45.0
 43
0.0
 44
0.0
 45
-0.282842712474619
 46
0.0
 79
     0
 98
        1
 10
0.0
 20
0.0
  0
HATCH
  5
CD
330
48
100
AcDbEntity
  8
1
  6
Continuous
 62
     2
100
AcDbHatch
 10
0.0
 20
0.0
 30
0.0
210
0.0
220
0.0
230
1.0
  2
CUSTOM11
 70
     0
 71
     1
 91
        1
 92
        1
 93
        1
 72
     4
 94
        3
 73
     0
 74
     0
 95
      131
 96
      127
 40
0.0
 40
0.0
 40
0.0
 40
0.0
 40
0.0195577029826142
 40
0.0426490537460474
 40
0.2863607575855722
 40
0.534494843618855
 40
0.7842238845572784
 40
0.873731578946695
 40
0.9803832810312678
 40
1.092842274517015
 40
1.199761146656775
 40
1.289788768186481
 40
1.351573580786151
 40
1.37072711756138
 40
1.416400936017773
 40
1.470914848355884
 40
1.516588666791657
 40
1.535742203552737
 40
1.634216592293128
 40
1.760283341174986
 40
1.89796668668207
 40
2.031216387368894
 40
2.049689751137888
 40
2.101115601646823
 40
2.17950257773994
 40
2.278859318314054
 40
2.39319446225871
 40
2.516516648383822
 40
2.642834515405949
 40
2.766156701983453
 40
2.880491846754564
 40
2.979848588358605
 40
3.058235565443782
 40
3.109661416668936
 40
3.128134780704112
 40
3.146783742386428
 40
3.191254343315261
 40
3.244332157315863
 40
3.288802758225738
 40
3.307451719895009
 40
3.327717853844621
 40
3.383747753579982
 40
3.468388665924372
 40
3.574487837698678
 40
3.694892515728781
 40
3.822449946851918
 40
3.950007377920306
 40
4.070412055800398
 40
4.17651122736795
 40
4.261152139501396
 40
4.31718203907659
 40
4.337448172964509
 40
4.620011002696101
 40
4.885096638397465
 40
4.945373043518252
 40
5.014107710488581
 40
5.070481727652016
 40
5.31924695563654
 40
5.584812164506051
 40
5.859000912056938
 40
6.133746937542066
 40
6.40173221296885
 40
6.420736683995441
 40
6.472845717451091
 40
6.550702743894019
 40
6.646951193874227
 40
6.754234497930551
 40
6.865196086587329
 40
6.972479390357788
 40
7.06872783977195
 40
7.146584865450959
 40
7.198693898189188
 40
7.217698368905329
 40
7.234950401630807
 40
7.276089864269854
 40
7.325191803515968
 40
7.366331266090357
 40
7.383583298769708
 40
7.402779163492114
 40
7.453386443254517
 40
7.524934666445547
 40
7.606953361405886
 40
7.688972056429066
 40
7.760520279784317
 40
7.811127559734587
 40
7.830323424546209
 40
7.847844055299839
 40
7.894799345666878
 40
7.962779392744564
 40
8.04337429356061
 40
8.128174145149513
 40
8.208769044817315
 40
8.276749090377015
 40
8.323704379669577
 40
8.341225010056307
 40
8.358497614800456
 40
8.401679126686632
 40
8.45781509218569
 40
8.513951057728095
 40
8.557132569707994
 40
8.574405174505037
 40
8.602340668616373
 40
8.643455660539946
 40
8.663225271966613
 40
8.715345156564258
 40
8.789031889628593
 40
8.87350204552032
 40
8.957972194323942
 40
9.031658925567832
 40
9.08377881123452
 40
9.103548423002982
 40
9.119550083123547
 40
9.160817522379821
 40
9.217244429110215
 40
9.278724491644729
 40
9.335151398295514
 40
9.376418837357837
 40
9.392420497300625
 40
9.401196302734817
 40
9.41749422938424
 40
9.426270027749512
 40
9.440875075477544
 40
9.475702496998725
 40
9.517270709865889
 40
9.552098131994057
 40
9.566703169884265
 40
9.566703169884265
 40
9.566703169884265
 40
9.566703169884265
 10
194.6170254148479
 20
15.67015871511027
 10
194.6134345093371
 20
15.66453690702159
 10
194.6056039123625
 20
15.65227754419115
 10
194.512996897455
 20
15.61601916040948
 10
194.4887622233247
 20
15.40148444212723
 10
194.3858709845939
 20
15.22197284509704
 10
194.1220492364305
 20
15.03615573798147
 10
194.284547156918
 20
14.95959336566081
 10
194.3607225760839
 20
14.89856693195443
 10
194.4492171072758
 20
14.83515804544759
 10
194.5389930233111
 20
14.77525634219561
 10
194.5883817636047
 20
14.72102154849209
 10
194.674570815738
 20
14.69286240541833
 10
194.641126067423
 20
14.65713309652812
 10
194.6214671166311
 20
14.62550387991907
 10
194.5919888217883
 20
14.58475872796069
 10
194.5688989446032
 20
14.55504663489643
 10
194.5380205968358
 20
14.50211422668493
 10
194.472919336574
 20
14.627403349389
 10
194.3796000122415
 20
14.68213900233934
 10
194.2950636285139
 20
14.73916423939342
 10
194.1722498125741
 20
14.89675287427522
 10
194.1764450847301
 20
14.82035806766837
 10
194.1751478652677
 20
14.77361280161295
 10
194.1758126448076
 20
14.69584785812601
 10
194.1755549986957
 20
14.59902068324423
 10
194.1756431239921
 20
14.48650279078809
 10
194.1756077302281
 20
14.365240859457
 10
194.1756511758279
 20
14.24086897858962
 10
194.1755199942405
 20
14.11967683631336
 10
194.1759477562046
 20
14.00691148919744
 10
194.174667820231
 20
13.91082913768745
 10
194.1779759851044
 20
13.83113826468701
 10
194.1715197740086
 20
13.78815175788785
 10
194.1806208705556
 20
13.74955432372043
 10
194.1447910339935
 20
13.75810887724071
 10
194.1115223815253
 20
13.75342519985448
 10
194.0604562576041
 20
13.75351298759785
 10
194.0269723972814
 20
13.75794430283822
 10
193.9907585408754
 20
13.7496079384251
 10
194.0009782568666
 20
13.79145277179285
 10
193.9936487887774
 20
13.83778560820175
 10
193.9973633136103
 20
13.92374831106015
 10
193.9959480554897
 20
14.0260514270485
 10
193.9964105554639
 20
14.14453223931512
 10
193.9962773686231
 20
14.26957683153356
 10
193.9963015910046
 20
14.3947582810705
 10
193.9963354925551
 20
14.51286645379058
 10
193.9962060293133
 20
14.61628748709516
 10
193.9965507549082
 20
14.69932036153666
 10
193.9958698278691
 20
14.75143368521243
 10
193.9994586600623
 20
14.8791290782136
 10
193.7826171386438
 20
14.58048716819614
 10
193.602135492195
 20
14.35263981511506
 10
193.5490322295612
 20
14.49373443289816
 10
193.520042913315
 20
14.54325767560945
 10
193.4196648062819
 20
14.64641779790101
 10
193.7405127723262
 20
14.72695035023783
 10
193.868989700543
 20
14.91066283036434
 10
194.0906454325361
 20
15.11931995771758
 10
194.1770224894067
 20
15.29339211228345
 10
194.4549394229078
 20
15.56967051342513
 10
194.3346247839283
 20
15.56534559551112
 10
194.2863197351349
 20
15.56614856202552
 10
194.2102377454905
 20
15.56574582146583
 10
194.116701000975
 20
15.56590275611608
 10
194.0117594788557
 20
15.56582502576223
 10
193.9033887738717
 20
15.56595464378553
 10
193.7981454235897
 20
15.56554393490691
 10
193.7056237819412
 20
15.5668207367159
 10
193.6268130800707
 20
15.56340766534849
 10
193.5839674565379
 20
15.57023350036319
 10
193.5449499586515
 20
15.56065064201123
 10
193.5526365271864
 20
15.59420779565542
 10
193.5485464404312
 20
15.62523550322232
 10
193.5485531368814
 20
15.672365292709
 10
193.5526239724911
 20
15.70340941646778
 10
193.5449495574583
 20
15.73701861635903
 10
193.5834819405495
 20
15.72748410420872
 10
193.6241228014479
 20
15.73397435498071
 10
193.6951471850463
 20
15.73100150650254
 10
193.7729318149634
 20
15.73174761399158
 10
193.8507292246474
 20
15.73247814044525
 10
193.9217232089908
 20
15.7295423551416
 10
193.9624279791822
 20
15.73595468772952
 10
194.000985348991
 20
15.72650524176004
 10
193.9927342754929
 20
15.76264692158784
 10
193.9982346669358
 20
15.80129837613227
 10
193.9955754206164
 20
15.86913528561839
 10
193.9965815471534
 20
15.94591641538739
 10
193.996017801832
 20
16.02849393582756
 10
193.9970714526593
 20
16.10517329229877
 10
193.994267586313
 20
16.17331990776699
 10
194.0000702721305
 20
16.21132399809345
 10
193.9915654551159
 20
16.24758448077645
 10
194.0255610233125
 20
16.23755723771851
 10
194.0594575683099
 20
16.24073266813705
 10
194.1126669060347
 20
16.23508965640609
 10
194.1660768574483
 20
16.23434774436424
 10
194.199591464949
 20
16.22819223482978
 10
194.2388086183039
 20
16.23346029773592
 10
194.2120263698492
 20
16.19253380793488
 10
194.1708111001723
 20
16.20371204538111
 10
194.1782641540874
 20
16.15867056192123
 10
194.1742227952184
 20
16.11412278028143
 10
194.1761714049641
 20
16.04223572621702
 10
194.1752364849758
 20
15.9616863058877
 10
194.176510719003
 20
15.88173995404994
 10
194.1732043793864
 20
15.80841837083183
 10
194.1802106179961
 20
15.76688643002568
 10
194.1701440380125
 20
15.72752418568112
 10
194.2029814803921
 20
15.73468063430981
 10
194.236457729648
 20
15.73027243137944
 10
194.2915053476019
 20
15.73217943347897
 10
194.3489502595315
 20
15.73185366407288
 10
194.4023026248311
 20
15.73106308733082
 10
194.4398540896638
 20
15.73313959118073
 10
194.4623172523238
 20
15.73022338167109
 10
194.4751678073731
 20
15.73572552644055
 10
194.4858255685888
 20
15.73801118197791
 10
194.4986635650144
 20
15.74494972588053
 10
194.514599103307
 20
15.72853046313672
 10
194.5410623920892
 20
15.71709122319448
 10
194.5726805253757
 20
15.6964468783519
 10
194.5987255892151
 20
15.68116869628294
 10
194.6128517723973
 20
15.67266976323183
 10
194.6170254148479
 20
15.67015871511027
 97
        1
330
B0
 75
     1
 76
     2
 52
45.0
 41
0.1
 77
     0
 78
     1
 53
45.0
 43
0.0
 44
0.0
 45
-0.282842712474619
 46
0.0
 79
     0
 98
        1
 10
0.0
 20
0.0
  0
HATCH
  5
CE
330
48
100
AcDbEntity
  8
1
  6
Continuous
 62
     2
100
AcDbHatch
 10
0.0
 20
0.0
 30
0.0
210
0.0
220
0.0
230
1.0
  2
CUSTOM12
 70
     0
 71
     1
 91
        1
 92
        1
 93
        1
 72
     4
 94
        3
 73
     0
 74
     0
 95
      124
 96
      120
 40
0.0
 40
0.0
 40
0.0
 40
0.0
 40
0.0278187229624226
 40
0.1011590162383985
 40
0.2048470170590239
 40
0.3237088716558961
 40
0.4425707262522
 40
0.5462587270699263
 40
0.6195990203312082
 40
0.647417752257866
 40
0.6750060736115224
 40
0.7357003855242759
 40
0.7963946998054492
 40
0.8239830245571784
 40
0.8540933811103162
 40
0.9373396629409274
 40
1.063094687343265
 40
1.220731268638103
 40
1.399622220914778
 40
1.589140358637762
 40
1.778658496423928
 40
1.957549448940596
 40
2.115186030873246
 40
2.240941056914521
 40
2.324187341760619
 40
2.354297700109469
 40
2.381886024671975
 40
2.442580338710564
 40
2.503274652750588
 40
2.530862977314695
 40
2.560983949278648
 40
2.640393784453022
 40
2.752662861759245
 40
2.881361560118234
 40
3.010060258455337
 40
3.122329335705513
 40
3.201739170818098
 40
3.231860142753487
 40
3.264298024030542
 40
3.352343701778415
 40
3.482095226868938
 40
3.639650650173196
 40
3.811108022565652
 40
3.982565394928158
 40
4.140120818152739
 40
4.26987234314145
 40
4.357918020802511
 40
4.390355902044139
 40
4.423256253992709
 40
4.508104530073259
 40
4.624121560637026
 40
4.750528176031783
 40
4.866545206602258
 40
4.951393482692244
 40
4.984293834645645
 40
5.01145083324256
 40
5.071196230152345
 40
5.130941627057424
 40
5.158098625649088
 40
5.190998977601779
 40
5.275847253689604
 40
5.391864284257095
 40
5.51827089964864
 40
5.63428793020968
 40
5.719136206288353
 40
5.752036558236269
 40
5.782130946283295
 40
5.86278390622947
 40
5.979550131775336
 40
6.117984316640743
 40
6.263641154588288
 40
6.402075339414494
 40
6.518841564908288
 40
6.59949452481587
 40
6.629588912849107
 40
6.654403028226684
 40
6.713575149488451
 40
6.784199939329796
 40
6.843372060493898
 40
6.868186175803116
 40
6.896246243202217
 40
6.939586233758584
 40
6.967846564565212
 40
7.043584251090151
 40
7.153234334452009
 40
7.283231855734758
 40
7.420011856035792
 40
7.550009376580144
 40
7.659659458835543
 40
7.735397144417536
 40
7.763657474851708
 40
7.796409728011366
 40
7.88087606509664
 40
7.996370852466026
 40
8.12220844641892
 40
8.237703224799514
 40
8.322169562011236
 40
8.354921815206222
 40
8.382078813308002
 40
8.441824209207308
 40
8.501569605240459
 40
8.528726603486037
 40
8.561478856696057
 40
8.645945193878108
 40
8.761439980865648
 40
8.88727758076479
 40
9.002772362001311
 40
9.087238696661503
 40
9.119990949235985
 40
9.152428830613685
 40
9.2404745086389
 40
9.37022603414985
 40
9.527781457984732
 40
9.699238830981722
 40
9.87069620397891
 40
10.02825162781433
 40
10.15800315332595
 40
10.2460488313515
 40
10.27848670378552
 40
10.27848670378552
 40
10.27848670378552
 40
10.27848670378552
 10
195.3821827564384
 20
14.01410517385757
 10
195.3914554737524
 20
14.01410498511274
 10
195.4251744536861
 20
14.01410430876714
 10
195.4934706812466
 20
14.01411807243305
 10
195.592014171158
 20
14.01403224219544
 10
195.7062066464812
 20
14.0144175561225
 10
195.8185894417072
 20
14.01300835897545
 10
195.9214376600118
 20
14.01719117422243
 10
195.980683987485
 20
14.00823089251983
 10
196.0371265937034
 20
14.0216443452606
 10
196.0246255586956
 20
13.97087198613361
 10
196.0329549635704
 20
13.92589320939067
 10
196.0248170841121
 20
13.88056752990488
 10
196.0370529214458
 20
13.82931932408465
 10
195.9747773490334
 20
13.84447955365276
 10
195.9060513026869
 20
13.83359750710742
 10
195.7782756749592
 20
13.83911304747972
 10
195.6262984511643
 20
13.83700851253698
 10
195.4502695972523
 20
13.83771002588473
 10
195.2644431934287
 20
13.83745237531291
 10
195.0786167437175
 20
13.83771005144603
 10
194.9025880142169
 20
13.83700841847731
 10
194.7506104154194
 20
13.83911332229988
 10
194.6228357664554
 20
13.8335968076764
 10
194.554107783658
 20
13.84448077125942
 10
194.4918349042883
 20
13.82931786684209
 10
194.5040616290017
 20
13.88057510805171
 10
194.4960004462597
 20
13.92582473272425
 10
194.5040675809892
 20
13.97106357955323
 10
194.4918238487083
 20
14.02234176909958
 10
194.5525017120698
 20
14.00749577363135
 10
194.6162810745737
 20
14.01756448170735
 10
194.7277314353503
 20
14.01294644212
 10
194.8497533443823
 20
14.01413328905468
 10
194.9719538137824
 20
14.01515863900635
 10
195.0829794287393
 20
14.01092475623402
 10
195.1476517413958
 20
14.02018584521739
 10
195.2091162810503
 20
14.00604423049682
 10
195.1930065601337
 20
14.07235527884516
 10
195.204298032736
 20
14.14447790121976
 10
195.1987400822561
 20
14.27513760888286
 10
195.2008035061691
 20
14.42607323708241
 10
195.2000167127295
 20
14.59335873107886
 10
195.2007845215628
 20
14.76061110332302
 10
195.198803878563
 20
14.91163289269914
 10
195.2041306156621
 20
15.04206069552994
 10
195.1933101388426
 20
15.11465442605899
 10
195.2090326429876
 20
15.18150469436798
 10
195.1432708132491
 20
15.16580512490824
 10
195.0756367830764
 20
15.17609243083996
 10
194.961588529381
 20
15.17113786847121
 10
194.8451242674903
 20
15.17414128030475
 10
194.7306554121477
 20
15.16880303143389
 10
194.6640324657812
 20
15.18001268074824
 10
194.5990769715186
 20
15.16349132665011
 10
194.6107989758707
 20
15.21473720477058
 10
194.6032830189122
 20
15.25950333784091
 10
194.6107989878834
 20
15.30426944897961
 10
194.5990769505347
 20
15.35551536129741
 10
194.6640326339199
 20
15.33899381766815
 10
194.7306533339822
 20
15.35020571373943
 10
194.8451352858064
 20
15.34485436710665
 10
194.9615454436963
 20
15.34791188771117
 10
195.0757660174641
 20
15.34278499010708
 10
195.1430150439228
 20
15.35345733355599
 10
195.2083325941439
 20
15.33742082669076
 10
195.1941391448553
 20
15.39949685750053
 10
195.2036059462996
 20
15.46586761628763
 10
195.1990269004085
 20
15.58239972741966
 10
195.2007696555949
 20
15.71426685022376
 10
195.1997551495392
 20
15.85615960150273
 10
195.2017191344372
 20
15.9876905070258
 10
195.1964668553852
 20
16.10524577283002
 10
195.2073408763474
 20
16.16947789001584
 10
195.1919536641855
 20
16.23108802545047
 10
195.2407591537801
 20
16.21702407382111
 10
195.2853995564727
 20
16.21954742075314
 10
195.3538643946744
 20
16.21512797401709
 10
195.3959106169103
 20
16.20613025544036
 10
195.4487544758776
 20
16.21411714866509
 10
195.4207035002014
 20
16.17113917611674
 10
195.3749142248595
 20
16.18259552043835
 10
195.3869539073266
 20
16.12173520005137
 10
195.3796086070643
 20
16.05769299468773
 10
195.3831195826162
 20
15.94909368863911
 10
195.3819806760175
 20
15.82494319144753
 10
195.3819174780263
 20
15.69189719829878
 10
195.3832872966868
 20
15.56797381249555
 10
195.3791638801314
 20
15.45868337849339
 10
195.3877763103565
 20
15.3960858009417
 10
195.3746757454402
 20
15.33740133296365
 10
195.4393884328199
 20
15.35362113810902
 10
195.5060405953157
 20
15.34270260383311
 10
195.6198779541103
 20
15.34793740173756
 10
195.7357259122097
 20
15.34485547516913
 10
195.8496924263281
 20
15.35018259812513
 10
195.9160341018099
 20
15.33904208166542
 10
195.9807188525481
 20
15.35546979593177
 10
195.9689820772723
 20
15.3042592521005
 10
195.9765168063042
 20
15.25950334121001
 10
195.9689820992259
 20
15.21474739010027
 10
195.9807188140737
 20
15.16353690871041
 10
195.9160344075253
 20
15.1799642779422
 10
195.8496886430826
 20
15.1688278444727
 10
195.7357459487013
 20
15.1741311589312
 10
195.6197995623055
 20
15.17114764593544
 10
195.5062756882124
 20
15.17606892268393
 10
195.4389231318805
 20
15.1658508751352
 10
195.3734285122496
 20
15.18145996138816
 10
195.3891713619218
 20
15.11463851827411
 10
195.3783275998215
 20
15.04207057815878
 10
195.3836581629792
 20
14.91162247614416
 10
195.3817136151857
 20
14.76064558185226
 10
195.3823133683214
 20
14.59322243934158
 10
195.3821506559606
 20
14.42656176118371
 10
195.3821895488135
 20
14.27360142921636
 10
195.38218164131
 20
14.14849178985705
 10
195.3821828382745
 20
14.0650789099142
 10
195.3821827716209
 20
14.02491778281976
 10
195.3821827564384
 20
14.01410517385757
 97
        1
330
B1
 75
     1
 76
     2
 52
45.0
 41
0.1
 77
     0
 78
     1
 53
45.0
 43
0.0
 44
0.0
 45
-0.282842712474619
 46
0.0
 79
     0
 98
        1
 10
0.0
 20
0.0
  0
HATCH
  5
CF
330
48
100
AcDbEntity
  8
1
  6
Continuous
 62
     2
100
AcDbHatch
 10
0.0
 20
0.0
 30
0.0
210
0.0
220
0.0
230
1.0
  2
CUSTOM13
 70
     0
 71
     1
 91
        1
 92
        1
 93
        3
 72
     4
 94
        3
 73
     0
 74
     0
 95
       24
 96
       20
 40
0.0
 40
0.0
 40
0.0
 40
0.0
 40
0.2211075008753627
 40
0.4273218586245431
 40
0.5080174679238696
 40
0.5914835907869576
 40
0.8143265690191936
 40
1.054651302686497
 40
1.295452694023082
 40
1.518109231328725
 40
1.540864321905367
 40
1.595126460622628
 40
1.659890947895969
 40
1.714153085187355
 40
1.736908174961655
 40
1.764951100735365
 40
1.801562291221009
 40
1.953914424543679
 40
2.126104167379755
 40
2.126104167379755
 40
2.126104167379755
 40
2.126104167379755
 10
185.9375369556889
 20
15.58989295113016
 10
185.9112579081812
 20
15.53097628234374
 10
185.8604698894426
 20
15.41711139679254
 10
185.8131784839112
 20
15.14441958233114
 10
185.7043482802618
 20
15.24445482575456
 10
185.5514800279638
 20
15.27118593367329
 10
185.7686155181199
 20
15.48518135017633
 10
185.7838483674381
 20
15.70332117782486
 10
185.8906889492001
 20
15.88451579066427
 10
185.8305380947077
 20
16.16913226311397
 10
185.9334317395402
 20
16.14114089222451
 10
185.977993346815
 20
16.13243251602299
 10
186.0380842395398
 20
16.12139654183354
 10
186.0756619587439
 20
16.1076752305556
 10
186.1252466928607
 20
16.10756076160222
 10
186.0930158919326
 20
16.07306592398622
 10
186.017180222188
 20
16.08404104537967
 10
186.0429447159694
 20
15.8985896958245
 10
186.0055896763849
 20
15.8070231354959
 10
185.9857704961609
 20
15.75844135397706
 72
     4
 94
        3
 73
     0
 74
     0
 95
       70
 96
       66
 40
0.0
 40
0.0
 40
0.0
 40
0.0
 40
0.0241731073021472
 40
0.0846058988987013
 40
0.1631685280353284
 40
0.2417311571789756
 40
0.3021639488292751
 40
0.3263370654895541
 40
0.3533118254248881
 40
0.4228783438922076
 40
0.5179999095313313
 40
0.621639823946596
 40
0.7167613891499528
 40
0.7863279069649686
 40
0.8133026791761623
 40
0.837294399877146
 40
0.8945054261372656
 40
0.9627895541962423
 40
1.020000580349053
 40
1.043992300975151
 40
1.071934345522872
 40
1.113121768772888
 40
1.145225199332213
 40
1.225483775412741
 40
1.329819923771447
 40
1.434156071994332
 40
1.514414647795748
 40
1.546518078208354
 40
1.578974764260128
 40
1.662678849314122
 40
1.777131373668343
 40
1.901833377474734
 40
2.016285900500524
 40
2.099989982527891
 40
2.13244666657025
 40
2.158782354485973
 40
2.216720867907767
 40
2.274659381334194
 40
2.30099506925613
 40
2.333451754066102
 40
2.417155836543783
 40
2.531608358985222
 40
2.656310362283717
 40
2.77076288638885
 40
2.854466971340015
 40
2.886923657363822
 40
2.913597976833255
 40
2.982389642875058
 40
3.07645171694692
 40
3.178937260458532
 40
3.272999334739934
 40
3.341791001059153
 40
3.368465320663466
 40
3.396976080738687
 40
3.472140811845923
 40
3.578408190308613
 40
3.700226892456049
 40
3.822045594634266
 40
3.928312973256373
 40
4.00347770531477
 40
4.031988456866836
 40
4.058324144797636
 40
4.116262658236801
 40
4.174201171400604
 40
4.200536849608538
 40
4.200536849608538
 40
4.200536849608538
 40
4.200536849608538
 10
185.9857704961609
 20
15.75844135397706
 10
185.9938259544679
 20
15.75844359811687
 10
186.0220200663241
 20
15.75845146032799
 10
186.0765534803672
 20
15.75830754828372
 10
186.1482891808604
 20
15.75909120499899
 10
186.2236240137062
 20
15.75627570463812
 10
186.2713052366439
 20
15.76298403400958
 10
186.3195071245616
 20
15.75197563692433
 10
186.3062571799873
 20
15.80546402997034
 10
186.3151093964538
 20
15.86049583543092
 10
186.3108698036285
 20
15.95419908726109
 10
186.313348348128
 20
16.04959482218532
 10
186.3090938706059
 20
16.14356821983386
 10
186.3179818665847
 20
16.19795062438011
 10
186.3046977409945
 20
16.25233997691459
 10
186.3514119277109
 20
16.23842216335357
 10
186.3943254545736
 20
16.24103877374042
 10
186.4605443456685
 20
16.23648422450754
 10
186.5013342271798
 20
16.2277816213416
 10
186.5525145690818
 20
16.23531799890194
 10
186.5253720487201
 20
16.19349970223286
 10
186.4803096055707
 20
16.20284992072595
 10
186.4942065045051
 20
16.13841207371837
 10
186.4858414431653
 20
16.07378219627397
 10
186.4903632178398
 20
15.97529141193888
 10
186.4854741311167
 20
15.8759593284257
 10
186.4950258992082
 20
15.8129311555297
 10
186.47997614552
 20
15.7496401149979
 10
186.5449159457208
 20
15.7651507294427
 10
186.6116246399497
 20
15.75499387697814
 10
186.7241435470827
 20
15.75988800099368
 10
186.8390235448954
 20
15.75691204732785
 10
186.9519871999746
 20
15.76221664184992
 10
187.0176267597678
 20
15.75107306472089
 10
187.0816276691053
 20
15.76744532319859
 10
187.0703142889189
 20
15.71761689905275
 10
187.077533987151
 20
15.67416715212124
 10
187.0703142611269
 20
15.63071745587445
 10
187.0816277175994
 20
15.58088895196876
 10
187.0176263598972
 20
15.59726166091362
 10
186.9519921240459
 20
15.58611271661588
 10
186.838997431733
 20
15.59144857206854
 10
186.7242456548644
 20
15.58834345663822
 10
186.611318368686
 20
15.59364894682588
 10
186.5455220903585
 20
15.58257300019594
 10
186.4816097975358
 20
15.59887597847617
 10
186.4936015165126
 20
15.54423524395742
 10
186.4862104613006
 20
15.48854295047842
 10
186.4892684841982
 20
15.3964968914057
 10
186.4893422785683
 20
15.30179109873102
 10
186.4860313578359
 20
15.20952782902266
 10
186.4939505989903
 20
15.1543576873614
 10
186.4815076611617
 20
15.10058169100137
 10
186.5389116551632
 20
15.11453768862782
 10
186.5994708140382
 20
15.10511457884227
 10
186.7048680855081
 20
15.10942885928705
 10
186.8204294070622
 20
15.10835504612032
 10
186.9359688877797
 20
15.10725965900995
 10
187.0414181130841
 20
15.11162525770633
 10
187.1018680471804
 20
15.10209426030672
 10
187.159283773911
 20
15.11617289606381
 10
187.1477773876709
 20
15.06707153265683
 10
187.153756678175
 20
15.02564658018649
 10
187.1520311050801
 20
14.97651677966696
 10
187.1521500122971
 20
14.94854428447608
 10
187.1521871691833
 20
14.9398028819595
 72
     4
 94
        3
 73
     0
 74
     0
 95
       62
 96
       58
 40
0.0
 40
0.0
 40
0.0
 40
0.0
 40
0.0598250028308485
 40
0.2024846486897047
 40
0.3727558389220178
 40
0.5154154847934933
 40
0.5752404975784202
 40
0.9332326775486095
 40
1.290451762839343
 40
1.602077253145751
 40
1.699931634112021
 40
1.799359756424981
 40
2.270120149657026
 40
2.804661928461488
 40
2.882342287383201
 40
3.076543185719052
 40
3.329004354835511
 40
3.581465524568339
 40
3.775666424543623
 40
3.853346784558243
 40
3.899120679594988
 40
3.984129341791986
 40
4.029903236817335
 40
4.105797496059491
 40
4.295533144152452
 40
4.542189486611697
 40
4.788845828875649
 40
4.978581476410033
 40
5.054475735244278
 40
5.621734664339284
 40
6.130867242037311
 40
6.225249780948515
 40
6.318913039727165
 40
6.663579954558725
 40
7.047498900224553
 40
7.435230791575485
 40
7.498943906667897
 40
7.650875181209834
 40
7.832212509001316
 40
7.984143783696702
 40
8.047856898902829
 40
8.091554632732338
 40
8.172707566964
 40
8.216405300767725
 40
8.289021782160582
 40
8.462184160756927
 40
8.668861838005036
 40
8.84202421526357
 40
8.914640695474766
 40
8.989881580860972
 40
9.155411528826875
 40
9.320941477743656
 40
9.396182352486905
 40
9.454709011143452
 40
9.583467660170387
 40
9.712226309012665
 40
9.770752957989119
 40
9.770752957989119
 40
9.770752957989119
 40
9.770752957989119
 10
187.1521871691833
 20
14.9398028819595
 10
187.1322348171623
 20
14.93980875568671
 10
187.0647037716465
 20
14.93982863806157
 10
186.9410612161788
 20
14.93949362520326
 10
186.7863180150057
 20
14.94107673750512
 10
186.669734948248
 20
14.93686078860495
 10
186.4550942634241
 20
14.95215205331626
 10
186.8518948407229
 20
14.59198721286193
 10
186.8945656069268
 20
14.37510503397166
 10
187.3189162146612
 20
14.19325062511443
 10
187.1439821496074
 20
14.08985196568072
 10
187.0194523925084
 20
13.87831523212725
 10
186.7666277235942
 20
14.34806081001559
 10
186.4797602893627
 20
14.99511516984522
 10
186.4906335926659
 20
14.68782672154694
 10
186.488289277796
 20
14.52288616971778
 10
186.4861096126411
 20
14.28879670711693
 10
186.4980774396346
 20
14.04498072421783
 10
186.4687984740631
 20
13.89855796860984
 10
186.511452262547
 20
13.75113490174538
 10
186.4239814005639
 20
13.7668579730622
 10
186.3768527606744
 20
13.76694303543455
 10
186.2898973207713
 20
13.75109425482909
 10
186.3313474021722
 20
13.89527771422762
 10
186.3029875004286
 20
14.03855052698455
 10
186.31459737753
 20
14.27674947365265
 10
186.3124175648272
 20
14.50517235240347
 10
186.3103111127993
 20
14.66705729375995
 10
186.3208035438323
 20
14.98153709333753
 10
186.0128963252894
 20
14.29229470872436
 10
185.7055258267455
 20
13.81476750243051
 10
185.5851367066275
 20
14.03741112637426
 10
185.4074607910723
 20
14.15011034955569
 10
185.8853326362895
 20
14.32548143465462
 10
185.9353959057207
 20
14.56091929252032
 10
186.3583799621717
 20
14.95322989344607
 10
186.127675427354
 20
14.93655307029066
 10
186.0049685859341
 20
14.94269518948771
 10
185.8325483095662
 20
14.93312822699573
 10
185.7213224694449
 20
14.95448818489666
 10
185.6025779627449
 20
14.9213626535742
 10
185.6183169706686
 20
15.00203900606883
 10
185.6178550933763
 20
15.04645414290854
 10
185.6027881889932
 20
15.12967081778533
 10
185.7372380935444
 20
15.09062651983884
 10
185.8619755545747
 20
15.11739729328423
 10
186.0628755237279
 20
15.10063949044053
 10
186.1921540949353
 20
15.12204225913005
 10
186.3328419928294
 20
15.08868778853421
 10
186.2980927452615
 20
15.22651875785069
 10
186.3222185666713
 20
15.34963257349481
 10
186.2967086182393
 20
15.47024055670336
 10
186.3333251146684
 20
15.60539865141495
 10
186.2211417027769
 20
15.58094545781891
 10
186.1280356457136
 20
15.59307749842022
 10
186.0191547579819
 20
15.58957630069994
 10
185.9569697640964
 20
15.58981755951603
 10
185.9375369557246
 20
15.58989295124144
 97
        3
330
B3
330
B4
330
B2
 75
     1
 76
     2
 52
45.0
 41
0.1
 77
     0
 78
     1
 53
45.0
 43
0.0
 44
0.0
 45
-0.282842712474619
 46
0.0
 79
     0
 98
        1
 10
0.0
 20
0.0
  0
HATCH
  5
D0
330
48
100
AcDbEntity
  8
1
  6
Continuous
 62
     2
100
AcDbHatch
 10
0.0
 20
0.0
 30
0.0
210
0.0
220
0.0
230
1.0
  2
CUSTOM14
 70
     0
 71
     1
 91
        1
 92
        1
 93
        4
 72
     1
 10
192.4578138032673
 20
15.22875434022057
 11
191.1602971697032
 21
15.22875434022057
 72
     1
 10
191.1602971697032
 20
15.22875434022057
 11
191.1602971697032
 21
15.39722336795625
 72
     1
 10
191.1602971697032
 20
15.39722336795625
 11
192.4578138032673
 21
15.39722336795625
 72
     1
 10
192.4578138032673
 20
15.39722336795625
 11
192.4578138032673
 21
15.22875434022057
 97
        1
330
B5
 75
     1
 76
     2
 52
45.0
 41
0.1
 77
     0
 78
     1
 53
45.0
 43
0.0
 44
0.0
 45
-0.282842712474619
 46
0.0
 79
     0
 98
        1
 10
0.0
 20
0.0
  0
ENDBLK
  5
4A
330
48
100
AcDbEntity
  8
0
100
AcDbBlockEnd
  0
BLOCK
  5
4D
330
4B
100
AcDbEntity
  8
0
100
AcDbBlockBegin
  2
開示A4枠
 70
     0
 10
0.0
 20
0.0
 30
0.0
  3
開示A4枠
  1

  0
INSERT
  5
4C
330
4B
100
AcDbEntity
  8
1
100
AcDbBlockReference
  2
開示A4
 10
0.0
 20
0.0
 30
0.0
  0
ENDBLK
  5
4E
330
4B
100
AcDbEntity
  8
0
100
AcDbBlockEnd
  0
BLOCK
  5
50
330
4F
100
AcDbEntity
  8
0
100
AcDbBlockBegin
  2
35-19
 70
     0
 10
63.38936749058642
 20
86.931071482486
 30
0.0
  3
35-19
  1

  0
LINE
  5
D1
330
4F
100
AcDbEntity
  8
1
  6
Continuous
 62
     7
100
AcDbLine
 10
98.3622568174811
 20
114.4616470220543
 30
0.0
 11
108.8397568174811
 21
114.4616470220543
 31
0.0
  0
LINE
  5
D2
330
4F
100
AcDbEntity
  8
1
  6
Continuous
 62
     7
100
AcDbLine
 10
99.52425681748109
 20
116.4742900604494
 30
0.0
 11
108.8397568174811
 21
116.4742900604494
 31
0.0
  0
LINE
  5
D3
330
4F
100
AcDbEntity
  8
1
  6
Continuous
 62
     7
100
AcDbLine
 10
99.52425681748109
 20
123.2996470220543
 30
0.0
 11
108.8397568174811
 21
123.2996470220543
 31
0.0
  0
LINE
  5
D4
330
4F
100
AcDbEntity
  8
1
  6
Continuous
 62
     7
100
AcDbLine
 10
108.8397568174811
 20
124.4616470220543
 30
0.0
 11
101.8397568174811
 21
124.4616470220543
 31
0.0
  0
LINE
  5
D5
330
4F
100
AcDbEntity
  8
1
  6
Continuous
 62
     7
100
AcDbLine
 10
98.3622568174811
 20
116.4742900604494
 30
0.0
 11
98.3622568174811
 21
114.4616470220543
 31
0.0
  0
LINE
  5
D6
330
4F
100
AcDbEntity
  8
1
  6
Continuous
 62
     7
100
AcDbLine
 10
98.3622568174811
 20
123.2996470220543
 30
0.0
 11
99.52425681748109
 21
124.4616470220543
 31
0.0
  0
LINE
  5
D7
330
4F
100
AcDbEntity
  8
1
  6
Continuous
 62
     7
100
AcDbLine
 10
99.52425681748109
 20
123.2996470220543
 30
0.0
 11
98.3622568174811
 21
123.2996470220543
 31
0.0
  0
LINE
  5
D8
330
4F
100
AcDbEntity
  8
1
  6
Continuous
 62
     7
100
AcDbLine
 10
98.3622568174811
 20
116.4742900604494
 30
0.0
 11
99.52425681748109
 21
116.4742900604494
 31
0.0
  0
LINE
  5
D9
330
4F
100
AcDbEntity
  8
1
  6
Continuous
 62
     7
100
AcDbLine
 10
98.3622568174811
 20
123.2996470220543
 30
0.0
 11
98.3622568174811
 21
116.4742900604494
 31
0.0
  0
LINE
  5
DA
330
4F
100
AcDbEntity
  8
1
  6
Continuous
 62
     7
100
AcDbLine
 10
108.8397568174811
 20
104.4616470220543
 30
0.0
 11
94.8564420439332
 21
104.4616470220543
 31
0.0
  0
LINE
  5
DB
330
4F
100
AcDbEntity
  8
1
  6
Continuous
 62
     7
100
AcDbLine
 10
94.8564420439332
 20
114.4616470220543
 30
0.0
 11
98.3622568174811
 21
114.4616470220543
 31
0.0
  0
LINE
  5
DC
330
4F
100
AcDbEntity
  8
1
  6
Continuous
 62
     2
100
AcDbLine
 10
99.52425681748109
 20
116.4742900604494
 30
0.0
 11
98.3622568174811
 21
114.4616470220543
 31
0.0
  0
LINE
  5
DD
330
4F
100
AcDbEntity
  8
1
  6
Continuous
 62
     2
100
AcDbLine
 10
99.52425681748109
 20
116.4742900604494
 30
0.0
 11
99.52425681748109
 21
123.2996470220543
 31
0.0
  0
LINE
  5
DE
330
4F
100
AcDbEntity
  8
1
  6
Continuous
 62
     2
100
AcDbLine
 10
99.52425681748109
 20
123.2996470220543
 30
0.0
 11
99.52425681748109
 21
124.4616470220543
 31
0.0
  0
LINE
  5
DF
330
4F
100
AcDbEntity
  8
1
  6
Continuous
 62
     7
100
AcDbLine
 10
100.0414348384115
 20
161.7007877111529
 30
0.0
 11
93.38936749058642
 21
173.2225063329557
 31
0.0
  0
LINE
  5
E0
330
4F
100
AcDbEntity
  8
1
  6
Continuous
 62
     7
100
AcDbLine
 10
115.4918241653061
 20
160.4616470220543
 30
0.0
 11
102.1876894696561
 21
160.4616470220543
 31
0.0
  0
LINE
  5
E1
330
4F
100
AcDbEntity
  8
1
  6
Continuous
 62
     7
100
AcDbLine
 10
124.2901461443757
 20
173.2225063329557
 30
0.0
 11
117.6380787965507
 21
161.7007877111529
 31
0.0
  0
LINE
  5
E2
330
4F
100
AcDbEntity
  8
1
  6
Continuous
 62
     7
100
AcDbLine
 10
117.6380787965507
 20
187.2225063329557
 30
0.0
 11
124.2901461443757
 21
175.7007877111529
 31
0.0
  0
LINE
  5
E3
330
4F
100
AcDbEntity
  8
1
  6
Continuous
 62
     7
100
AcDbLine
 10
102.1876894696561
 20
188.4616470220544
 30
0.0
 11
115.4918241653061
 21
188.4616470220544
 31
0.0
  0
LINE
  5
E4
330
4F
100
AcDbEntity
  8
1
  6
Continuous
 62
     7
100
AcDbLine
 10
93.38936749058642
 20
175.7007877111529
 30
0.0
 11
100.0414348384115
 21
187.2225063329557
 31
0.0
  0
LINE
  5
E5
330
4F
100
AcDbEntity
  8
1
  6
Continuous
 62
     7
100
AcDbLine
 10
101.8397568174811
 20
124.4616470220543
 30
0.0
 11
99.52425681748109
 21
124.4616470220543
 31
0.0
  0
LINE
  5
E6
330
4F
100
AcDbEntity
  8
1
  6
Continuous
 62
     7
100
AcDbLine
 10
108.8397568174811
 20
114.4616470220543
 30
0.0
 11
119.3172568174811
 21
114.4616470220543
 31
0.0
  0
LINE
  5
E7
330
4F
100
AcDbEntity
  8
1
  6
Continuous
 62
     7
100
AcDbLine
 10
108.8397568174811
 20
116.4742900604494
 30
0.0
 11
118.1552568174811
 21
116.4742900604494
 31
0.0
  0
LINE
  5
E8
330
4F
100
AcDbEntity
  8
1
  6
Continuous
 62
     7
100
AcDbLine
 10
108.8397568174811
 20
123.2996470220543
 30
0.0
 11
118.1552568174811
 21
123.2996470220543
 31
0.0
  0
LINE
  5
E9
330
4F
100
AcDbEntity
  8
1
  6
Continuous
 62
     7
100
AcDbLine
 10
115.8397568174811
 20
124.4616470220543
 30
0.0
 11
108.8397568174811
 21
124.4616470220543
 31
0.0
  0
LINE
  5
EA
330
4F
100
AcDbEntity
  8
1
  6
Continuous
 62
     7
100
AcDbLine
 10
119.3172568174811
 20
114.4616470220543
 30
0.0
 11
119.3172568174811
 21
116.4742900604494
 31
0.0
  0
LINE
  5
EB
330
4F
100
AcDbEntity
  8
1
  6
Continuous
 62
     7
100
AcDbLine
 10
118.1552568174811
 20
124.4616470220543
 30
0.0
 11
119.3172568174811
 21
123.2996470220543
 31
0.0
  0
LINE
  5
EC
330
4F
100
AcDbEntity
  8
1
  6
Continuous
 62
     7
100
AcDbLine
 10
119.3172568174811
 20
123.2996470220543
 30
0.0
 11
118.1552568174811
 21
123.2996470220543
 31
0.0
  0
LINE
  5
ED
330
4F
100
AcDbEntity
  8
1
  6
Continuous
 62
     7
100
AcDbLine
 10
118.1552568174811
 20
116.4742900604494
 30
0.0
 11
119.3172568174811
 21
116.4742900604494
 31
0.0
  0
LINE
  5
EE
330
4F
100
AcDbEntity
  8
1
  6
Continuous
 62
     7
100
AcDbLine
 10
119.3172568174811
 20
116.4742900604494
 30
0.0
 11
119.3172568174811
 21
123.2996470220543
 31
0.0
  0
LINE
  5
EF
330
4F
100
AcDbEntity
  8
1
  6
Continuous
 62
     7
100
AcDbLine
 10
122.823071591029
 20
104.4616470220543
 30
0.0
 11
108.8397568174811
 21
104.4616470220543
 31
0.0
  0
LINE
  5
F0
330
4F
100
AcDbEntity
  8
1
  6
Continuous
 62
     7
100
AcDbLine
 10
119.3172568174811
 20
114.4616470220543
 30
0.0
 11
122.823071591029
 21
114.4616470220543
 31
0.0
  0
LINE
  5
F1
330
4F
100
AcDbEntity
  8
1
  6
Continuous
 62
     2
100
AcDbLine
 10
119.3172568174811
 20
114.4616470220543
 30
0.0
 11
118.1552568174811
 21
116.4742900604494
 31
0.0
  0
LINE
  5
F2
330
4F
100
AcDbEntity
  8
1
  6
Continuous
 62
     2
100
AcDbLine
 10
118.1552568174811
 20
123.2996470220543
 30
0.0
 11
118.1552568174811
 21
116.4742900604494
 31
0.0
  0
LINE
  5
F3
330
4F
100
AcDbEntity
  8
1
  6
Continuous
 62
     2
100
AcDbLine
 10
118.1552568174811
 20
124.4616470220543
 30
0.0
 11
118.1552568174811
 21
123.2996470220543
 31
0.0
  0
LINE
  5
F4
330
4F
100
AcDbEntity
  8
1
  6
Continuous
 62
     7
100
AcDbLine
 10
118.1552568174811
 20
124.4616470220543
 30
0.0
 11
115.8397568174811
 21
124.4616470220543
 31
0.0
  0
ARC
  5
F5
330
4F
100
AcDbEntity
  8
1
  6
Continuous
 62
     7
100
AcDbCircle
 10
102.3397568174811
 20
109.4616470220543
 30
0.0
 40
9.000000000000018
100
AcDbArc
 50
146.2510114041115
 51
213.7489885958885
  0
ARC
  5
F6
330
4F
100
AcDbEntity
  8
1
  6
Continuous
 62
     7
100
AcDbCircle
 10
108.8397568174811
 20
174.4616470220544
 30
0.0
 40
15.50000000000002
100
AcDbArc
 50
175.4146209151611
 51
180.0
  0
ARC
  5
F7
330
4F
100
AcDbEntity
  8
1
  6
Continuous
 62
     7
100
AcDbCircle
 10
108.8397568174811
 20
174.4616470220544
 30
0.0
 40
15.5
100
AcDbArc
 50
0.0
 51
4.58537908483895
  0
ARC
  5
F8
330
4F
100
AcDbEntity
  8
1
  6
Continuous
 62
     7
100
AcDbCircle
 10
108.8397568174811
 20
174.4616470220544
 30
0.0
 40
15.50000000000001
100
AcDbArc
 50
235.4146209151611
 51
244.5853790848392
  0
ARC
  5
F9
330
4F
100
AcDbEntity
  8
1
  6
Continuous
 62
     7
100
AcDbCircle
 10
108.8397568174811
 20
174.4616470220544
 30
0.0
 40
15.50000000000006
100
AcDbArc
 50
295.4146209151608
 51
304.5853790848388
  0
ARC
  5
FA
330
4F
100
AcDbEntity
  8
1
  6
Continuous
 62
     7
100
AcDbCircle
 10
108.8397568174811
 20
174.4616470220544
 30
0.0
 40
15.49999999999987
100
AcDbArc
 50
55.41462091516075
 51
64.58537908483916
  0
ARC
  5
FB
330
4F
100
AcDbEntity
  8
1
  6
Continuous
 62
     7
100
AcDbCircle
 10
108.8397568174811
 20
174.4616470220544
 30
0.0
 40
15.49999999999998
100
AcDbArc
 50
115.4146209151608
 51
124.5853790848393
  0
ARC
  5
FC
330
4F
100
AcDbEntity
  8
1
  6
Continuous
 62
     7
100
AcDbCircle
 10
105.9126641406326
 20
109.4618904256884
 30
0.0
 40
3.724974678928941
100
AcDbArc
 50
180.0037439183254
 51
188.0488364048288
  0
ARC
  5
FD
330
4F
100
AcDbEntity
  8
1
  6
Continuous
 62
     7
100
AcDbCircle
 10
106.0351982756193
 20
109.4792179937209
 30
0.0
 40
3.848727896466451
100
AcDbArc
 50
188.048836404828
 51
198.5487843535132
  0
ARC
  5
FE
330
4F
100
AcDbEntity
  8
1
  6
Continuous
 62
     7
100
AcDbCircle
 10
106.3117522550781
 20
109.5720135686873
 30
0.0
 40
4.140435150897724
100
AcDbArc
 50
198.5487843535138
 51
203.4841938141246
  0
ARC
  5
FF
330
4F
100
AcDbEntity
  8
1
  6
Continuous
 62
     7
100
AcDbCircle
 10
106.3368585888447
 20
109.5829218787446
 30
0.0
 40
4.167808846729759
100
AcDbArc
 50
203.4841938141244
 51
208.4865468914072
  0
ARC
  5
100
330
4F
100
AcDbEntity
  8
1
  6
Continuous
 62
     7
100
AcDbCircle
 10
106.6861961470739
 20
109.7724905048066
 30
0.0
 40
4.5652670125492
100
AcDbArc
 50
208.4865468914073
 51
211.9796664925974
  0
ARC
  5
101
330
4F
100
AcDbEntity
  8
1
  6
Continuous
 62
     7
100
AcDbCircle
 10
106.6486174957448
 20
109.7490272966168
 30
0.0
 40
4.520964900023183
100
AcDbArc
 50
211.9796664925977
 51
215.5074239876992
  0
ARC
  5
102
330
4F
100
AcDbEntity
  8
1
  6
Continuous
 62
     7
100
AcDbCircle
 10
107.0165799192956
 20
110.0115642851871
 30
0.0
 40
4.97298482824857
100
AcDbArc
 50
215.5074239876994
 51
218.7681532992448
  0
ARC
  5
103
330
4F
100
AcDbEntity
  8
1
  6
Continuous
 62
     7
100
AcDbCircle
 10
106.9717875939496
 20
109.9755913041673
 30
0.0
 40
4.915535652681434
100
AcDbArc
 50
218.7681532992445
 51
222.1756956390032
  0
ARC
  5
104
330
4F
100
AcDbEntity
  8
1
  6
Continuous
 62
     7
100
AcDbCircle
 10
107.3845719340537
 20
110.3495623466878
 30
0.0
 40
5.472532288289738
100
AcDbArc
 50
222.1756956390036
 51
225.2365260607941
  0
ARC
  5
105
330
4F
100
AcDbEntity
  8
1
  6
Continuous
 62
     7
100
AcDbCircle
 10
107.3231464176357
 20
110.287627576558
 30
0.0
 40
5.385302649873335
100
AcDbArc
 50
225.2365260607936
 51
228.346977483071
  0
ARC
  5
106
330
4F
100
AcDbEntity
  8
1
  6
Continuous
 62
     7
100
AcDbCircle
 10
107.7309147356645
 20
110.7460529032588
 30
0.0
 40
5.998840571561076
100
AcDbArc
 50
228.3469774830714
 51
231.2840993981299
  0
ARC
  5
107
330
4F
100
AcDbEntity
  8
1
  6
Continuous
 62
     7
100
AcDbCircle
 10
107.6597175937232
 20
110.6572348682606
 30
0.0
 40
5.885008781794074
100
AcDbArc
 50
231.2840993981297
 51
234.277968906823
  0
ARC
  5
108
330
4F
100
AcDbEntity
  8
1
  6
Continuous
 62
     7
100
AcDbCircle
 10
108.0678808021018
 20
111.2247934272744
 30
0.0
 40
6.584093842844383
100
AcDbArc
 50
234.2779689068234
 51
236.954053503114
  0
ARC
  5
109
330
4F
100
AcDbEntity
  8
1
  6
Continuous
 62
     7
100
AcDbCircle
 10
107.9754814565145
 20
111.0827603978059
 30
0.0
 40
6.41465057645418
100
AcDbArc
 50
236.9540535031139
 51
239.7868980780787
  0
ARC
  5
10A
330
4F
100
AcDbEntity
  8
1
  6
Continuous
 62
     7
100
AcDbCircle
 10
108.3436807431602
 20
111.7150574883845
 30
0.0
 40
7.146340623838096
100
AcDbArc
 50
239.7868980780785
 51
242.3681986085342
  0
ARC
  5
10B
330
4F
100
AcDbEntity
  8
1
  6
Continuous
 62
     7
100
AcDbCircle
 10
108.2353864909583
 20
111.508189427147
 30
0.0
 40
6.912841073902526
100
AcDbArc
 50
242.3681986085344
 51
245.0368317027572
  0
ARC
  5
10C
330
4F
100
AcDbEntity
  8
1
  6
Continuous
 62
     7
100
AcDbCircle
 10
108.5793214478291
 20
112.2469999125784
 30
0.0
 40
7.727784131999869
100
AcDbArc
 50
245.0368317027571
 51
247.4541607357932
  0
ARC
  5
10D
330
4F
100
AcDbEntity
  8
1
  6
Continuous
 62
     7
100
AcDbCircle
 10
108.4829916115094
 20
112.0149643562217
 30
0.0
 40
7.476547317859975
100
AcDbArc
 50
247.4541607357928
 51
250.8686385437554
  0
ARC
  5
10E
330
4F
100
AcDbEntity
  8
1
  6
Continuous
 62
     7
100
AcDbCircle
 10
108.407352951563
 20
107.107046475965
 30
0.0
 40
7.264019044666552
100
AcDbArc
 50
109.0813961797966
 51
112.5958045406548
  0
ARC
  5
10F
330
4F
100
AcDbEntity
  8
1
  6
Continuous
 62
     7
100
AcDbCircle
 10
108.7135644507497
 20
106.3712687432306
 30
0.0
 40
8.060972214069828
100
AcDbArc
 50
112.5958045406548
 51
114.9132030207952
  0
ARC
  5
110
330
4F
100
AcDbEntity
  8
1
  6
Continuous
 62
     7
100
AcDbCircle
 10
108.1248317213932
 20
107.6388199184434
 30
0.0
 40
6.663369907117383
100
AcDbArc
 50
114.9132030207952
 51
117.681766667914
  0
ARC
  5
111
330
4F
100
AcDbEntity
  8
1
  6
Continuous
 62
     7
100
AcDbCircle
 10
108.4828788947487
 20
106.9563129113344
 30
0.0
 40
7.434092680298924
100
AcDbArc
 50
117.6817666679143
 51
120.1631366454731
  0
ARC
  5
112
330
4F
100
AcDbEntity
  8
1
  6
Continuous
 62
     7
100
AcDbCircle
 10
107.860844922159
 20
108.0266577043958
 30
0.0
 40
6.196124894333011
100
AcDbArc
 50
120.1631366454726
 51
123.0959117733333
  0
ARC
  5
113
330
4F
100
AcDbEntity
  8
1
  6
Continuous
 62
     7
100
AcDbCircle
 10
108.2121271368503
 20
107.4877078192023
 30
0.0
 40
6.839449208430093
100
AcDbArc
 50
123.095911773334
 51
125.6720658167289
  0
ARC
  5
114
330
4F
100
AcDbEntity
  8
1
  6
Continuous
 62
     7
100
AcDbCircle
 10
107.5447268968626
 20
108.4174497393135
 30
0.0
 40
5.694965430324131
100
AcDbArc
 50
125.6720658167284
 51
128.7658658783174
  0
ARC
  5
115
330
4F
100
AcDbEntity
  8
1
  6
Continuous
 62
     7
100
AcDbCircle
 10
107.8672630161324
 20
108.0158059547706
 30
0.0
 40
6.210084133047725
100
AcDbArc
 50
128.7658658783174
 51
131.6030572404803
  0
ARC
  5
116
330
4F
100
AcDbEntity
  8
1
  6
Continuous
 62
     7
100
AcDbCircle
 10
107.2083632085448
 20
108.7578629134972
 30
0.0
 40
5.217714501089127
100
AcDbArc
 50
131.6030572404801
 51
134.8134392156526
  0
ARC
  5
117
330
4F
100
AcDbEntity
  8
1
  6
Continuous
 62
     7
100
AcDbCircle
 10
107.5181039688373
 20
108.446098462972
 30
0.0
 40
5.657187379885778
100
AcDbArc
 50
134.8134392156528
 51
137.7743390845516
  0
ARC
  5
118
330
4F
100
AcDbEntity
  8
1
  6
Continuous
 62
     7
100
AcDbCircle
 10
106.8652335935767
 20
109.0386181921514
 30
0.0
 40
4.775530215019717
100
AcDbArc
 50
137.7743390845525
 51
141.2818119772023
  0
ARC
  5
119
330
4F
100
AcDbEntity
  8
1
  6
Continuous
 62
     7
100
AcDbCircle
 10
107.1419324810921
 20
108.8167963333379
 30
0.0
 40
5.130166946619444
100
AcDbArc
 50
141.2818119772018
 51
144.4426107358563
  0
ARC
  5
11A
330
4F
100
AcDbEntity
  8
1
  6
Continuous
 62
     7
100
AcDbCircle
 10
106.5450434240318
 20
109.2434558531268
 30
0.0
 40
4.396467490258167
100
AcDbArc
 50
144.4426107358556
 51
148.0702987838491
  0
ARC
  5
11B
330
4F
100
AcDbEntity
  8
1
  6
Continuous
 62
     7
100
AcDbCircle
 10
106.8023745846268
 20
109.0830961736775
 30
0.0
 40
4.699674602652082
100
AcDbArc
 50
148.0702987838505
 51
151.4634878321475
  0
ARC
  5
11C
330
4F
100
AcDbEntity
  8
1
  6
Continuous
 62
     7
100
AcDbCircle
 10
106.2271441146415
 20
109.3958956354159
 30
0.0
 40
4.044897085579818
100
AcDbArc
 50
151.4634878321461
 51
155.3549030129406
  0
ARC
  5
11D
330
4F
100
AcDbEntity
  8
1
  6
Continuous
 62
     7
100
AcDbCircle
 10
106.4505265041504
 20
109.2934104387875
 30
0.0
 40
4.290667115222749
100
AcDbArc
 50
155.3549030129408
 51
160.1174418844756
  0
ARC
  5
11E
330
4F
100
AcDbEntity
  8
1
  6
Continuous
 62
     7
100
AcDbCircle
 10
105.9552138532465
 20
109.472540593331
 30
0.0
 40
3.763958244581425
100
AcDbArc
 50
160.1174418844764
 51
164.1890434718284
  0
ARC
  5
11F
330
4F
100
AcDbEntity
  8
1
  6
Continuous
 62
     7
100
AcDbCircle
 10
106.183626213672
 20
109.4078592315289
 30
0.0
 40
4.001352189238238
100
AcDbArc
 50
164.1890434718283
 51
169.2385133807394
  0
ARC
  5
120
330
4F
100
AcDbEntity
  8
1
  6
Continuous
 62
     7
100
AcDbCircle
 10
105.8812216186686
 20
109.4653353513237
 30
0.0
 40
3.693533990578994
100
AcDbArc
 50
169.238513380738
 51
180.0572150510196
  0
ARC
  5
121
330
4F
100
AcDbEntity
  8
1
  6
Continuous
 62
     7
100
AcDbCircle
 10
108.8397568174811
 20
174.4616470220544
 30
0.0
 40
15.50000000000001
100
AcDbArc
 50
180.0
 51
184.5853790848395
  0
ARC
  5
122
330
4F
100
AcDbEntity
  8
1
  6
Continuous
 62
     7
100
AcDbCircle
 10
108.8397568174811
 20
174.4616470220544
 30
0.0
 40
15.49999999999995
100
AcDbArc
 50
355.4146209151604
 51
0.0
  0
ARC
  5
123
330
4F
100
AcDbEntity
  8
1
  6
Continuous
 62
     7
100
AcDbCircle
 10
108.6948019674093
 20
112.5951996102756
 30
0.0
 40
8.093885892300046
100
AcDbArc
 50
253.9522408081808
 51
257.9776955561796
  0
ARC
  5
124
330
4F
100
AcDbEntity
  8
1
  6
Continuous
 62
     7
100
AcDbCircle
 10
108.745926861798
 20
112.7729340244024
 30
0.0
 40
8.278827171605732
100
AcDbArc
 50
250.8686385437554
 51
253.9522408081805
  0
ARC
  5
125
330
4F
100
AcDbEntity
  8
1
  6
Continuous
 62
     7
100
AcDbCircle
 10
108.8391153995214
 20
113.2728436800337
 30
0.0
 40
8.786726315461319
100
AcDbArc
 50
257.9776955561794
 51
262.4501434029834
  0
ARC
  5
126
330
4F
100
AcDbEntity
  8
1
  6
Continuous
 62
     7
100
AcDbCircle
 10
108.8384261648065
 20
113.2676433938411
 30
0.0
 40
8.781480553269068
100
AcDbArc
 50
262.4501434029837
 51
270.0086819963993
  0
ARC
  5
127
330
4F
100
AcDbEntity
  8
1
  6
Continuous
 62
     7
100
AcDbCircle
 10
108.8412592161573
 20
105.6643956131022
 30
0.0
 40
8.772788890413997
100
AcDbArc
 50
90.00981228487178
 51
95.30602625889607
  0
ARC
  5
128
330
4F
100
AcDbEntity
  8
1
  6
Continuous
 62
     7
100
AcDbCircle
 10
108.8513382756784
 20
105.555870754473
 30
0.0
 40
8.881780781769821
100
AcDbArc
 50
95.30602625889547
 51
101.9723391673758
  0
ARC
  5
129
330
4F
100
AcDbEntity
  8
1
  6
Continuous
 62
     7
100
AcDbCircle
 10
108.6472439860216
 20
106.518343458107
 30
0.0
 40
7.897906712434208
100
AcDbArc
 50
101.9723391673762
 51
106.0977244682657
  0
ARC
  5
12A
330
4F
100
AcDbEntity
  8
1
  6
Continuous
 62
     7
100
AcDbCircle
 10
108.8297288066984
 20
105.8860157117561
 30
0.0
 40
8.556039745021591
100
AcDbArc
 50
106.0977244682653
 51
109.0813961797965
  0
ARC
  5
12B
330
4F
100
AcDbEntity
  8
1
  6
Continuous
 62
     7
100
AcDbCircle
 10
115.3397568174811
 20
109.4616470220543
 30
0.0
 40
9.000000000000018
100
AcDbArc
 50
326.2510114041115
 51
33.74898859588851
  0
ARC
  5
12C
330
4F
100
AcDbEntity
  8
1
  6
Continuous
 62
     7
100
AcDbCircle
 10
111.7668494943296
 20
109.4618904256884
 30
0.0
 40
3.724974678928956
100
AcDbArc
 50
351.9511635951709
 51
359.9962560816746
  0
ARC
  5
12D
330
4F
100
AcDbEntity
  8
1
  6
Continuous
 62
     7
100
AcDbCircle
 10
111.6443153593429
 20
109.4792179937209
 30
0.0
 40
3.848727896466433
100
AcDbArc
 50
341.4512156464869
 51
351.9511635951718
  0
ARC
  5
12E
330
4F
100
AcDbEntity
  8
1
  6
Continuous
 62
     7
100
AcDbCircle
 10
111.3677613798841
 20
109.5720135686873
 30
0.0
 40
4.140435150897685
100
AcDbArc
 50
336.5158061858754
 51
341.4512156464863
  0
ARC
  5
12F
330
4F
100
AcDbEntity
  8
1
  6
Continuous
 62
     7
100
AcDbCircle
 10
111.3426550461175
 20
109.5829218787446
 30
0.0
 40
4.16780884672974
100
AcDbArc
 50
331.5134531085927
 51
336.5158061858755
  0
ARC
  5
130
330
4F
100
AcDbEntity
  8
1
  6
Continuous
 62
     7
100
AcDbCircle
 10
110.9933174878883
 20
109.7724905048066
 30
0.0
 40
4.565267012549243
100
AcDbArc
 50
328.0203335074026
 51
331.5134531085927
  0
ARC
  5
131
330
4F
100
AcDbEntity
  8
1
  6
Continuous
 62
     7
100
AcDbCircle
 10
111.0308961392174
 20
109.7490272966168
 30
0.0
 40
4.520964900023126
100
AcDbArc
 50
324.4925760123008
 51
328.0203335074023
  0
ARC
  5
132
330
4F
100
AcDbEntity
  8
1
  6
Continuous
 62
     7
100
AcDbCircle
 10
110.6629337156665
 20
110.0115642851871
 30
0.0
 40
4.972984828248741
100
AcDbArc
 50
321.231846700756
 51
324.4925760123014
  0
ARC
  5
133
330
4F
100
AcDbEntity
  8
1
  6
Continuous
 62
     7
100
AcDbCircle
 10
110.7077260410125
 20
109.9755913041673
 30
0.0
 40
4.915535652681426
100
AcDbArc
 50
317.8243043609974
 51
321.2318467007563
  0
ARC
  5
134
330
4F
100
AcDbEntity
  8
1
  6
Continuous
 62
     7
100
AcDbCircle
 10
110.2949417009084
 20
110.3495623466878
 30
0.0
 40
5.472532288289782
100
AcDbArc
 50
314.7634739392067
 51
317.8243043609971
  0
ARC
  5
135
330
4F
100
AcDbEntity
  8
1
  6
Continuous
 62
     7
100
AcDbCircle
 10
110.3563672173264
 20
110.287627576558
 30
0.0
 40
5.385302649873512
100
AcDbArc
 50
311.6530225169298
 51
314.7634739392073
  0
ARC
  5
136
330
4F
100
AcDbEntity
  8
1
  6
Continuous
 62
     7
100
AcDbCircle
 10
109.9485988992977
 20
110.7460529032588
 30
0.0
 40
5.99884057156103
100
AcDbArc
 50
308.7159006018701
 51
311.6530225169286
  0
ARC
  5
137
330
4F
100
AcDbEntity
  8
1
  6
Continuous
 62
     7
100
AcDbCircle
 10
110.019796041239
 20
110.6572348682606
 30
0.0
 40
5.885008781794001
100
AcDbArc
 50
305.7220310931761
 51
308.7159006018703
  0
ARC
  5
138
330
4F
100
AcDbEntity
  8
1
  6
Continuous
 62
     7
100
AcDbCircle
 10
109.6116328328604
 20
111.2247934272744
 30
0.0
 40
6.584093842844335
100
AcDbArc
 50
303.0459464968862
 51
305.722031093176
  0
ARC
  5
139
330
4F
100
AcDbEntity
  8
1
  6
Continuous
 62
     7
100
AcDbCircle
 10
109.7040321784477
 20
111.0827603978059
 30
0.0
 40
6.414650576454201
100
AcDbArc
 50
300.2131019219206
 51
303.0459464968861
  0
ARC
  5
13A
330
4F
100
AcDbEntity
  8
1
  6
Continuous
 62
     7
100
AcDbCircle
 10
109.3358328918019
 20
111.7150574883845
 30
0.0
 40
7.146340623838179
100
AcDbArc
 50
297.6318013914665
 51
300.2131019219215
  0
ARC
  5
13B
330
4F
100
AcDbEntity
  8
1
  6
Continuous
 62
     7
100
AcDbCircle
 10
109.4441271440039
 20
111.508189427147
 30
0.0
 40
6.912841073902496
100
AcDbArc
 50
294.9631682972428
 51
297.6318013914656
  0
ARC
  5
13C
330
4F
100
AcDbEntity
  8
1
  6
Continuous
 62
     7
100
AcDbCircle
 10
109.1001921871331
 20
112.2469999125784
 30
0.0
 40
7.727784131999828
100
AcDbArc
 50
292.5458392642067
 51
294.9631682972429
  0
ARC
  5
13D
330
4F
100
AcDbEntity
  8
1
  6
Continuous
 62
     7
100
AcDbCircle
 10
109.1965220234528
 20
112.0149643562217
 30
0.0
 40
7.476547317859986
100
AcDbArc
 50
289.1313614562446
 51
292.5458392642071
  0
ARC
  5
13E
330
4F
100
AcDbEntity
  8
1
  6
Continuous
 62
     7
100
AcDbCircle
 10
109.2721606833992
 20
107.107046475965
 30
0.0
 40
7.264019044666533
100
AcDbArc
 50
67.40419545934532
 51
70.91860382020337
  0
ARC
  5
13F
330
4F
100
AcDbEntity
  8
1
  6
Continuous
 62
     7
100
AcDbCircle
 10
108.9659491842125
 20
106.3712687432306
 30
0.0
 40
8.060972214069865
100
AcDbArc
 50
65.08679697920478
 51
67.40419545934527
  0
ARC
  5
140
330
4F
100
AcDbEntity
  8
1
  6
Continuous
 62
     7
100
AcDbCircle
 10
109.5546819135689
 20
107.6388199184434
 30
0.0
 40
6.663369907117359
100
AcDbArc
 50
62.3182333320852
 51
65.08679697920408
  0
ARC
  5
141
330
4F
100
AcDbEntity
  8
1
  6
Continuous
 62
     7
100
AcDbCircle
 10
109.1966347402135
 20
106.9563129113344
 30
0.0
 40
7.434092680298946
100
AcDbArc
 50
59.8368633545268
 51
62.31823333208564
  0
ARC
  5
142
330
4F
100
AcDbEntity
  8
1
  6
Continuous
 62
     7
100
AcDbCircle
 10
109.8186687128031
 20
108.0266577043958
 30
0.0
 40
6.196124894333042
100
AcDbArc
 50
56.9040882266659
 51
59.8368633545266
  0
ARC
  5
143
330
4F
100
AcDbEntity
  8
1
  6
Continuous
 62
     7
100
AcDbCircle
 10
109.4673864981119
 20
107.4877078192023
 30
0.0
 40
6.839449208430093
100
AcDbArc
 50
54.32793418327111
 51
56.90408822666602
  0
ARC
  5
144
330
4F
100
AcDbEntity
  8
1
  6
Continuous
 62
     7
100
AcDbCircle
 10
110.1347867380995
 20
108.4174497393135
 30
0.0
 40
5.694965430324256
100
AcDbArc
 50
51.2341341216819
 51
54.32793418327075
  0
ARC
  5
145
330
4F
100
AcDbEntity
  8
1
  6
Continuous
 62
     7
100
AcDbCircle
 10
109.8122506188298
 20
108.0158059547706
 30
0.0
 40
6.210084133047683
100
AcDbArc
 50
48.39694275951969
 51
51.23413412168257
  0
ARC
  5
146
330
4F
100
AcDbEntity
  8
1
  6
Continuous
 62
     7
100
AcDbCircle
 10
110.4711504264173
 20
108.7578629134972
 30
0.0
 40
5.21771450108916
100
AcDbArc
 50
45.18656078434653
 51
48.39694275951909
  0
ARC
  5
147
330
4F
100
AcDbEntity
  8
1
  6
Continuous
 62
     7
100
AcDbCircle
 10
110.1614096661249
 20
108.446098462972
 30
0.0
 40
5.65718737988582
100
AcDbArc
 50
42.22566091544839
 51
45.18656078434714
  0
ARC
  5
148
330
4F
100
AcDbEntity
  8
1
  6
Continuous
 62
     7
100
AcDbCircle
 10
110.8142800413855
 20
109.0386181921514
 30
0.0
 40
4.775530215019723
100
AcDbArc
 50
38.71818802279773
 51
42.22566091544758
  0
ARC
  5
149
330
4F
100
AcDbEntity
  8
1
  6
Continuous
 62
     7
100
AcDbCircle
 10
110.5375811538701
 20
108.8167963333379
 30
0.0
 40
5.130166946619448
100
AcDbArc
 50
35.5573892641436
 51
38.71818802279807
  0
ARC
  5
14A
330
4F
100
AcDbEntity
  8
1
  6
Continuous
 62
     7
100
AcDbCircle
 10
111.1344702109303
 20
109.2434558531268
 30
0.0
 40
4.396467490258258
100
AcDbArc
 50
31.9297012161502
 51
35.55738926414369
  0
ARC
  5
14B
330
4F
100
AcDbEntity
  8
1
  6
Continuous
 62
     7
100
AcDbCircle
 10
110.8771390503354
 20
109.0830961736775
 30
0.0
 40
4.699674602652096
100
AcDbArc
 50
28.53651216785256
 51
31.92970121614954
  0
ARC
  5
14C
330
4F
100
AcDbEntity
  8
1
  6
Continuous
 62
     7
100
AcDbCircle
 10
111.4523695203206
 20
109.3958956354159
 30
0.0
 40
4.044897085579848
100
AcDbArc
 50
24.64509698705951
 51
28.53651216785322
  0
ARC
  5
14D
330
4F
100
AcDbEntity
  8
1
  6
Continuous
 62
     7
100
AcDbCircle
 10
111.2289871308118
 20
109.2934104387875
 30
0.0
 40
4.290667115222623
100
AcDbArc
 50
19.88255811552486
 51
24.64509698705988
  0
ARC
  5
14E
330
4F
100
AcDbEntity
  8
1
  6
Continuous
 62
     7
100
AcDbCircle
 10
111.7242997817157
 20
109.472540593331
 30
0.0
 40
3.763958244581334
100
AcDbArc
 50
15.81095652817206
 51
19.88255811552411
  0
ARC
  5
14F
330
4F
100
AcDbEntity
  8
1
  6
Continuous
 62
     7
100
AcDbCircle
 10
111.4958874212902
 20
109.4078592315289
 30
0.0
 40
4.001352189238257
100
AcDbArc
 50
10.76148661926062
 51
15.81095652817209
  0
ARC
  5
150
330
4F
100
AcDbEntity
  8
1
  6
Continuous
 62
     7
100
AcDbCircle
 10
111.7982920162935
 20
109.4653353513237
 30
0.0
 40
3.693533990578997
100
AcDbArc
 50
359.9427849489804
 51
10.76148661926174
  0
ARC
  5
151
330
4F
100
AcDbEntity
  8
1
  6
Continuous
 62
     7
100
AcDbCircle
 10
108.9847116675528
 20
112.5951996102756
 30
0.0
 40
8.09388589230006
100
AcDbArc
 50
282.0223044438209
 51
286.0477591918198
  0
ARC
  5
152
330
4F
100
AcDbEntity
  8
1
  6
Continuous
 62
     7
100
AcDbCircle
 10
108.9335867731642
 20
112.7729340244024
 30
0.0
 40
8.278827171605815
100
AcDbArc
 50
286.0477591918196
 51
289.1313614562447
  0
ARC
  5
153
330
4F
100
AcDbEntity
  8
1
  6
Continuous
 62
     7
100
AcDbCircle
 10
108.8403982354408
 20
113.2728436800337
 30
0.0
 40
8.786726315461276
100
AcDbArc
 50
277.5498565970166
 51
282.0223044438205
  0
ARC
  5
154
330
4F
100
AcDbEntity
  8
1
  6
Continuous
 62
     7
100
AcDbCircle
 10
108.8410874701556
 20
113.2676433938411
 30
0.0
 40
8.781480553269114
100
AcDbArc
 50
269.9913180036013
 51
277.549856597017
  0
ARC
  5
155
330
4F
100
AcDbEntity
  8
1
  6
Continuous
 62
     7
100
AcDbCircle
 10
108.8382544188049
 20
105.6643956131022
 30
0.0
 40
8.772788890414011
100
AcDbArc
 50
84.69397374110386
 51
89.99018771512813
  0
ARC
  5
156
330
4F
100
AcDbEntity
  8
1
  6
Continuous
 62
     7
100
AcDbCircle
 10
108.8281753592837
 20
105.555870754473
 30
0.0
 40
8.881780781769848
100
AcDbArc
 50
78.02766083262368
 51
84.69397374110389
  0
ARC
  5
157
330
4F
100
AcDbEntity
  8
1
  6
Continuous
 62
     7
100
AcDbCircle
 10
109.0322696489406
 20
106.518343458107
 30
0.0
 40
7.897906712434225
100
AcDbArc
 50
73.90227553173435
 51
78.0276608326239
  0
ARC
  5
158
330
4F
100
AcDbEntity
  8
1
  6
Continuous
 62
     7
100
AcDbCircle
 10
108.8497848282637
 20
105.8860157117561
 30
0.0
 40
8.556039745021634
100
AcDbArc
 50
70.91860382020283
 51
73.90227553173398
  0
CIRCLE
  5
159
330
4F
100
AcDbEntity
  8
1
  6
Continuous
 62
     7
100
AcDbCircle
 10
108.8397568174811
 20
174.4616470220544
 30
0.0
 40
10.47749999999999
  0
CIRCLE
  5
15A
330
4F
100
AcDbEntity
  8
1
  6
Continuous
 62
     7
100
AcDbCircle
 10
108.8397568174811
 20
174.4616470220544
 30
0.0
 40
7.0
  0
CIRCLE
  5
15B
330
4F
100
AcDbEntity
  8
1
  6
Continuous
 62
     7
100
AcDbCircle
 10
108.8397568174811
 20
174.4616470220544
 30
0.0
 40
13.9833147735479
  0
CIRCLE
  5
15C
330
4F
100
AcDbEntity
  8
1
  6
Continuous
 62
     2
100
AcDbCircle
 10
108.8397568174811
 20
174.4616470220544
 30
0.0
 40
9.3155
  0
ENDBLK
  5
51
330
4F
100
AcDbEntity
  8
0
100
AcDbBlockEnd
  0
BLOCK
  5
17C
330
175
100
AcDbEntity
  8
0
100
AcDbBlockBegin
  2
*D4
 70
     1
 10
0.0
 20
0.0
 30
0.0
  3
*D4
  1

  0
LINE
  5
176
330
175
100
AcDbEntity
  8
0
  6
Continuous
 62
     2
100
AcDbLine
 10
93.3397568174811
 20
198.9616470220544
 30
0.0
 11
124.3397568174811
 21
198.9616470220544
 31
0.0
  0
LINE
  5
177
330
175
100
AcDbEntity
  8
0
  6
Continuous
 62
     2
100
AcDbLine
 10
124.3397568174811
 20
174.4616470220544
 30
0.0
 11
124.3397568174811
 21
199.9616470220544
 31
0.0
  0
LINE
  5
178
330
175
100
AcDbEntity
  8
0
  6
Continuous
 62
     2
100
AcDbLine
 10
93.3397568174811
 20
174.4616470220544
 30
0.0
 11
93.3397568174811
 21
199.9616470220544
 31
0.0
  0
SOLID
  5
179
330
175
100
AcDbEntity
  8
0
 62
     2
100
AcDbTrace
 10
96.8397568174811
 20
199.4224307636103
 30
0.0
 11
96.8397568174811
 21
198.5008632804985
 31
0.0
 12
93.3397568174811
 22
198.9616470220544
 32
0.0
 13
93.3397568174811
 23
198.9616470220544
 33
0.0
  0
SOLID
  5
17A
330
175
100
AcDbEntity
  8
0
 62
     2
100
AcDbTrace
 10
120.8397568174811
 20
198.5008632804985
 30
0.0
 11
120.8397568174811
 21
199.4224307636103
 31
0.0
 12
124.3397568174811
 22
198.9616470220544
 32
0.0
 13
124.3397568174811
 23
198.9616470220544
 33
0.0
  0
MTEXT
  5
17B
330
175
100
AcDbEntity
  8
0
 62
     7
100
AcDbMText
 10
105.9697568174895
 20
199.9616400649781
 30
0.0
 40
3.5
 41
0.0
 71
     7
 72
     1
  1
\C7;{\Fgdt;n}\C7;31
  7
CONVERTER_12
 11
0.9999999999970619
 21
2.424068405545306E-6
 31
0.0
 73
     1
 44
0.60024009603842
  0
ENDBLK
  5
17D
330
175
100
AcDbEntity
  8
0
100
AcDbBlockEnd
  0
BLOCK
  5
187
330
180
100
AcDbEntity
  8
0
100
AcDbBlockBegin
  2
*D5
 70
     1
 10
0.0
 20
0.0
 30
0.0
  3
*D5
  1

  0
LINE
  5
181
330
180
100
AcDbEntity
  8
1
  6
Continuous
 62
     2
100
AcDbLine
 10
74.40833917915477
 20
124.4616470220544
 30
0.0
 11
74.40833917915477
 21
104.4616470220544
 31
0.0
  0
LINE
  5
182
330
180
100
AcDbEntity
  8
1
  6
Continuous
 62
     2
100
AcDbLine
 10
94.8564420439332
 20
104.4616470220544
 30
0.0
 11
73.40833917915477
 21
104.4616470220544
 31
0.0
  0
LINE
  5
183
330
180
100
AcDbEntity
  8
1
  6
Continuous
 62
     2
100
AcDbLine
 10
99.52425681748109
 20
124.4616470220544
 30
0.0
 11
73.40833917915477
 21
124.4616470220544
 31
0.0
  0
SOLID
  5
184
330
180
100
AcDbEntity
  8
1
 62
     2
100
AcDbTrace
 10
74.86912292071065
 20
120.9616470220544
 30
0.0
 11
73.94755543759888
 21
120.9616470220544
 31
0.0
 12
74.40833917915477
 22
124.4616470220544
 32
0.0
 13
74.40833917915477
 23
124.4616470220544
 33
0.0
  0
SOLID
  5
185
330
180
100
AcDbEntity
  8
1
 62
     2
100
AcDbTrace
 10
73.94755543759888
 20
107.9616470220544
 30
0.0
 11
74.86912292071065
 21
107.9616470220544
 31
0.0
 12
74.40833917915477
 22
104.4616470220544
 32
0.0
 13
74.40833917915477
 23
104.4616470220544
 33
0.0
  0
MTEXT
  5
186
330
180
100
AcDbEntity
  8
1
 62
     7
100
AcDbMText
 10
73.40833917915477
 20
111.5168184058282
 30
0.0
 40
3.5
 41
0.0
 71
     7
 72
     1
  1
20
  7
CONVERTER_12
 11
0.0
 21
1.0
 31
0.0
 73
     1
 44
0.60024009603842
  0
ENDBLK
  5
188
330
180
100
AcDbEntity
  8
0
100
AcDbBlockEnd
  0
BLOCK
  5
192
330
18B
100
AcDbEntity
  8
0
100
AcDbBlockBegin
  2
*D6
 70
     1
 10
0.0
 20
0.0
 30
0.0
  3
*D6
  1

  0
LINE
  5
18C
330
18B
100
AcDbEntity
  8
1
  6
Continuous
 62
     2
100
AcDbLine
 10
133.1692426597978
 20
188.4616470220544
 30
0.0
 11
133.1692426597978
 21
160.4616470220544
 31
0.0
  0
LINE
  5
18D
330
18B
100
AcDbEntity
  8
1
  6
Continuous
 62
     2
100
AcDbLine
 10
115.4918241653062
 20
160.4616470220544
 30
0.0
 11
134.1692426597978
 21
160.4616470220544
 31
0.0
  0
LINE
  5
18E
330
18B
100
AcDbEntity
  8
1
  6
Continuous
 62
     2
100
AcDbLine
 10
115.4918241653062
 20
188.4616470220544
 30
0.0
 11
134.1692426597978
 21
188.4616470220544
 31
0.0
  0
SOLID
  5
18F
330
18B
100
AcDbEntity
  8
1
 62
     2
100
AcDbTrace
 10
133.6300264013537
 20
184.9616470220544
 30
0.0
 11
132.7084589182419
 21
184.9616470220544
 31
0.0
 12
133.1692426597978
 22
188.4616470220544
 32
0.0
 13
133.1692426597978
 23
188.4616470220544
 33
0.0
  0
SOLID
  5
190
330
18B
100
AcDbEntity
  8
1
 62
     2
100
AcDbTrace
 10
132.7084589182419
 20
163.9616470220544
 30
0.0
 11
133.6300264013537
 21
163.9616470220544
 31
0.0
 12
133.1692426597978
 22
160.4616470220544
 32
0.0
 13
133.1692426597978
 23
160.4616470220544
 33
0.0
  0
MTEXT
  5
191
330
18B
100
AcDbEntity
  8
1
 62
     7
100
AcDbMText
 10
132.1692426597978
 20
172.0091507127364
 30
0.0
 40
3.5
 41
0.0
 71
     7
 72
     1
  1
28
  7
CONVERTER_12
 11
0.0
 21
1.0
 31
0.0
 73
     1
 44
0.60024009603842
  0
ENDBLK
  5
193
330
18B
100
AcDbEntity
  8
0
100
AcDbBlockEnd
  0
BLOCK
  5
19D
330
196
100
AcDbEntity
  8
0
100
AcDbBlockBegin
  2
*D7
 70
     1
 10
0.0
 20
0.0
 30
0.0
  3
*D7
  1

  0
LINE
  5
197
330
196
100
AcDbEntity
  8
1
  6
Continuous
 62
     2
100
AcDbLine
 10
82.40055247737716
 20
124.4616470220543
 30
0.0
 11
82.40055247737716
 21
114.4616470220543
 31
0.0
  0
LINE
  5
198
330
196
100
AcDbEntity
  8
1
  6
Continuous
 62
     2
100
AcDbLine
 10
98.3622568174811
 20
114.4616470220543
 30
0.0
 11
81.40055247737716
 21
114.4616470220543
 31
0.0
  0
LINE
  5
199
330
196
100
AcDbEntity
  8
1
  6
Continuous
 62
     2
100
AcDbLine
 10
99.52425681748109
 20
124.4616470220543
 30
0.0
 11
81.40055247737716
 21
124.4616470220543
 31
0.0
  0
SOLID
  5
19A
330
196
100
AcDbEntity
  8
1
 62
     2
100
AcDbTrace
 10
82.86133621893305
 20
120.9616470220543
 30
0.0
 11
81.93976873582127
 21
120.9616470220543
 31
0.0
 12
82.40055247737716
 22
124.4616470220543
 32
0.0
 13
82.40055247737716
 23
124.4616470220543
 33
0.0
  0
SOLID
  5
19B
330
196
100
AcDbEntity
  8
1
 62
     2
100
AcDbTrace
 10
81.93976873582127
 20
117.9616470220543
 30
0.0
 11
82.86133621893305
 21
117.9616470220543
 31
0.0
 12
82.40055247737716
 22
114.4616470220543
 32
0.0
 13
82.40055247737716
 23
114.4616470220543
 33
0.0
  0
MTEXT
  5
19C
330
196
100
AcDbEntity
  8
1
 62
     7
100
AcDbMText
 10
81.40055247737716
 20
117.2710720319404
 30
0.0
 40
3.5
 41
0.0
 71
     7
 72
     1
  1
10
  7
CONVERTER_12
 11
0.0
 21
1.0
 31
0.0
 73
     1
 44
0.60024009603842
  0
ENDBLK
  5
19E
330
196
100
AcDbEntity
  8
0
100
AcDbBlockEnd
  0
ENDSEC
  0
SECTION
  2
ENTITIES
  0
INSERT
  5
52
330
1F
100
AcDbEntity
  8
0
100
AcDbBlockReference
  2
開示A4枠
 10
0.0
 20
0.0
 30
0.0
  0
INSERT
  5
53
330
1F
100
AcDbEntity
  8
1
100
AcDbBlockReference
  2
35-19
 10
63.38936749058642
 20
86.931071482486
 30
0.0
  0
LINE
  5
15D
330
1F
100
AcDbEntity
  8
1
  6
DASH_CENTER
 62
     2
100
AcDbLine
 10
108.8397568174811
 20
191.3153880292485
 30
0.0
 11
108.8397568174811
 21
157.7551002594644
 31
0.0
  0
LINE
  5
15E
330
1F
100
AcDbEntity
  8
0
  6
DASH_CENTER
 62
     2
100
AcDbLine
 10
90.61220286064653
 20
174.4616470220544
 30
0.0
 11
128.1122028606465
 21
174.4616470220544
 31
0.0
  0
LINE
  5
15F
330
1F
100
AcDbEntity
  8
0
  6
DASH_CENTER
 62
     2
100
AcDbLine
 10
108.8397568174811
 20
127.7444602149533
 30
0.0
 11
108.8397568174811
 21
101.2271550444134
 31
0.0
  0
LINE
  5
160
330
1F
100
AcDbEntity
  8
1
  6
DASH_CENTER
 62
     2
100
AcDbLine
 10
108.8397568174811
 20
123.2996470220543
 30
0.0
 11
108.8397568174811
 21
124.4616470220543
 31
0.0
  0
SOLID
  5
161
330
1F
100
AcDbEntity
  8
1
 62
     2
100
AcDbTrace
 10
120.6682063916429
 20
123.2093963802913
 30
0.0
 11
121.4663072433193
 21
122.7486126387354
 31
0.0
 12
119.3172568174811
 22
119.9479155962678
 32
0.0
 13
119.3172568174811
 23
119.9479155962678
 33
0.0
  0
LEADER
  5
162
330
1F
100
AcDbEntity
  8
1
  6
Continuous
 62
     2
100
AcDbLeader
  3
Standard
 71
     0
 76
     3
 10
119.3172568174811
 20
119.9479155962678
 30
0.0
 10
125.6098837038817
 20
130.8470650765876
 30
0.0
 10
141.0745533331921
 20
130.8470650765876
 30
0.0
  0
SOLID
  5
163
330
1F
100
AcDbEntity
  8
1
 62
     2
100
AcDbTrace
 10
123.9888072433193
 20
101.6609499795867
 30
0.0
 11
123.1907063916429
 21
101.2001662380308
 31
0.0
 12
121.8397568174811
 22
104.4616470220543
 32
0.0
 13
121.8397568174811
 23
104.4616470220543
 33
0.0
  0
LEADER
  5
164
330
1F
100
AcDbEntity
  8
1
  6
Continuous
 62
     2
100
AcDbLeader
  3
Standard
 71
     0
 76
     3
 10
121.8397568174811
 20
104.4616470220543
 30
0.0
 10
128.1611054795251
 20
93.51274996703648
 30
0.0
 10
149.9807329624442
 20
93.51274996703648
 30
0.0
  0
MTEXT
  5
166
330
1F
100
AcDbEntity
  8
1
 62
     7
100
AcDbMText
 10
157.5
 20
12.5
 30
0.0
 40
2.5
 41
0.0
 71
     5
 72
     1
  1
9
  7
CONVERTER_12
 73
     1
 44
0.7202881152461
  0
MTEXT
  5
167
330
1F
100
AcDbEntity
  8
1
 62
     7
100
AcDbMText
 10
151.75
 20
12.5
 30
0.0
 40
2.5
 41
0.0
 71
     5
 72
     1
  1
03
  7
CONVERTER_12
 73
     1
 44
0.7202881152461
  0
MTEXT
  5
168
330
1F
100
AcDbEntity
  8
1
 62
     7
100
AcDbMText
 10
140.5
 20
12.5
 30
0.0
 40
2.5
 41
0.0
 71
     5
 72
     1
  1
9
  7
CONVERTER_12
 73
     1
 44
0.7202881152461
  0
MTEXT
  5
169
330
1F
100
AcDbEntity
  8
1
 62
     7
100
AcDbMText
 10
134.75
 20
12.5
 30
0.0
 40
2.5
 41
0.0
 71
     5
 72
     1
  1
03
  7
CONVERTER_12
 73
     1
 44
0.7202881152461
  0
MTEXT
  5
16A
330
1F
100
AcDbEntity
  8
1
 62
     7
100
AcDbMText
 10
123.5
 20
12.5
 30
0.0
 40
2.5
 41
0.0
 71
     5
 72
     1
  1
9
  7
CONVERTER_12
 73
     1
 44
0.7202881152461
  0
MTEXT
  5
16B
330
1F
100
AcDbEntity
  8
1
 62
     7
100
AcDbMText
 10
117.75
 20
12.5
 30
0.0
 40
2.5
 41
0.0
 71
     5
 72
     1
  1
03
  7
CONVERTER_12
 73
     1
 44
0.7202881152461
  0
MTEXT
  5
16C
330
1F
100
AcDbEntity
  8
1
 62
     7
100
AcDbMText
 10
100.75
 20
12.5
 30
0.0
 40
2.5
 41
0.0
 71
     5
 72
     1
  1
03
  7
CONVERTER_12
 73
     1
 44
0.7202881152461
  0
MTEXT
  5
16D
330
1F
100
AcDbEntity
  8
1
 62
     7
100
AcDbMText
 10
106.5
 20
12.5
 30
0.0
 40
2.5
 41
0.0
 71
     5
 72
     1
  1
9
  7
CONVERTER_12
 73
     1
 44
0.7202881152461
  0
TEXT
  5
16E
330
1F
100
AcDbEntity
  8
1
 62
     7
100
AcDbText
 10
127.8680544002579
 20
132.1752556603236
 30
0.0
 40
3.5
  1
G1/2
 41
0.9
  7
CONVERTER_12
100
AcDbText
  0
TEXT
  5
16F
330
1F
100
AcDbEntity
  8
1
 62
     7
100
AcDbText
 10
130.1433564032598
 20
94.90378200471568
 30
0.0
 40
3.5
  1
W26山20
 41
0.89
  7
CONVERTER_11
100
AcDbText
  0
MTEXT
  5
170
330
1F
100
AcDbEntity
  8
1
 62
     7
100
AcDbMText
 10
93.75000000000003
 20
17.0
 30
0.0
 40
3.5
 41
0.0
 71
     5
 72
     1
  1
1
  7
CONVERTER_12
 73
     1
 44
0.7202881152461
  0
MTEXT
  5
171
330
1F
100
AcDbEntity
  8
1
 62
     7
100
AcDbMText
 10
57.0
 20
14.25
 30
0.0
 40
3.5
 41
0.0
 71
     5
 72
     1
  1
T25-6
  7
CONVERTER_12
 73
     1
 44
0.7202881152461
  0
MTEXT
  5
172
330
1F
100
AcDbEntity
  8
1
 62
     7
100
AcDbMText
 10
57.0
 20
22.75000000000001
 30
0.0
 40
3.5
 41
0.0
 71
     5
 72
     1
  1
シャワアダプター
  7
CONVERTER_11
 73
     1
 44
0.54545454545455
  0
MTEXT
  5
173
330
1F
100
AcDbEntity
  8
1
 62
     7
100
AcDbMText
 10
85.25000000000003
 20
17.0
 30
0.0
 40
3.5
 41
0.0
 71
     5
 72
     1
  1
1
  7
CONVERTER_12
 73
     1
 44
0.7202881152461
  0
MTEXT
  5
174
330
1F
100
AcDbEntity
  8
0
 62
     7
100
AcDbMText
 10
34.0
 20
34.0
 30
0.0
 40
3.5
 41
0.0
 71
     4
 72
     1
  1
自在水栓、混合栓パイプ取付用
  7
CONVERTER_11
 73
     1
 44
0.63636363636364
  0
DIMENSION
  5
17F
330
1F
100
AcDbEntity
  8
0
100
AcDbDimension
  2
*D4
 10
93.3397568174811
 20
198.9616470220544
 30
0.0
 11
108.8397568174811
 21
201.7116470220544
 31
0.0
 70
    32
  1
<>
 71
     5
 42
-1.0
 53
0.00013888888889
  3
ME10_DIM_10
100
AcDbAlignedDimension
 13
124.3397568174811
 23
174.4616470220544
 33
0.0
 14
93.33975681748109
 24
174.4616470220544
 34
0.0
100
AcDbRotatedDimension
  0
DIMENSION
  5
18A
330
1F
100
AcDbEntity
  8
1
100
AcDbDimension
  2
*D5
 10
74.40833917915477
 20
124.4616470220544
 30
0.0
 11
71.65833917915477
 21
114.1418184058282
 31
0.0
 70
    32
  1
<>
 71
     5
 42
-1.0
 53
90.0
  3
ME10_DIM_11
100
AcDbAlignedDimension
 13
94.8564420439332
 23
104.4616470220543
 33
0.0
 14
99.52425681748109
 24
124.4616470220543
 34
0.0
 50
90.0
100
AcDbRotatedDimension
  0
DIMENSION
  5
195
330
1F
100
AcDbEntity
  8
1
100
AcDbDimension
  2
*D6
 10
133.1692426597978
 20
188.4616470220544
 30
0.0
 11
130.4192426597978
 21
174.6341507127364
 31
0.0
 70
    32
  1
<>
 71
     5
 42
-1.0
 53
90.0
  3
ME10_DIM_12
100
AcDbAlignedDimension
 13
115.4918241653061
 23
160.4616470220543
 33
0.0
 14
115.4918241653061
 24
188.4616470220544
 34
0.0
 50
90.0
100
AcDbRotatedDimension
  0
DIMENSION
  5
1A0
330
1F
100
AcDbEntity
  8
1
100
AcDbDimension
  2
*D7
 10
82.40055247737716
 20
124.4616470220543
 30
0.0
 11
79.65055247737716
 21
119.3710720319404
 31
0.0
 70
    32
  1
<>
 71
     5
 42
-1.0
 53
90.0
  3
ME10_DIM_13
100
AcDbAlignedDimension
 13
98.3622568174811
 23
114.4616470220543
 33
0.0
 14
99.52425681748109
 24
124.4616470220543
 34
0.0
 50
90.0
100
AcDbRotatedDimension
  0
ENDSEC
  0
SECTION
  2
OBJECTS
  0
DICTIONARY
  5
C
330
0
100
AcDbDictionary
281
     1
  3
ACAD_GROUP
350
D
  3
ACAD_LAYOUT
350
1A
  3
ACAD_MATERIAL
350
3B
  3
ACAD_MLEADERSTYLE
350
1A3
  3
ACAD_MLINESTYLE
350
17
  3
ACAD_PLOTSETTINGS
350
19
  3
ACAD_PLOTSTYLENAME
350
E
  3
ACAD_VISUALSTYLE
350
2A
  3
AcDbVariableDictionary
350
1A1
  0
DICTIONARY
  5
D
102
{ACAD_REACTORS
330
C
102
}
330
C
100
AcDbDictionary
281
     1
  0
DICTIONARY
  5
1A
102
{ACAD_REACTORS
330
C
102
}
330
C
100
AcDbDictionary
281
     1
  3
Layout1
350
1E
  3
Layout2
350
26
  3
Model
350
22
  0
DICTIONARY
  5
3B
102
{ACAD_REACTORS
330
C
102
}
330
C
100
AcDbDictionary
281
     1
  3
ByBlock
350
3D
  3
ByLayer
350
3C
  3
Global
350
3E
  0
DICTIONARY
  5
1A3
102
{ACAD_REACTORS
330
C
102
}
330
C
100
AcDbDictionary
281
     1
  0
DICTIONARY
  5
17
102
{ACAD_REACTORS
330
C
102
}
330
C
100
AcDbDictionary
281
     1
  3
Standard
350
18
  0
DICTIONARY
  5
19
102
{ACAD_REACTORS
330
C
102
}
330
C
100
AcDbDictionary
281
     1
  0
ACDBDICTIONARYWDFLT
  5
E
102
{ACAD_REACTORS
330
C
102
}
330
C
100
AcDbDictionary
281
     1
  3
Normal
350
F
100
AcDbDictionaryWithDefault
340
F
  0
DICTIONARY
  5
2A
102
{ACAD_REACTORS
330
C
102
}
330
C
100
AcDbDictionary
281
     1
  3
2dWireframe
350
2F
  3
3D Hidden
350
31
  3
3dWireframe
350
30
  3
Basic
350
32
  3
Brighten
350
36
  3
ColorChange
350
3A
  3
Conceptual
350
34
  3
Dim
350
35
  3
Facepattern
350
39
  3
Flat
350
2B
  3
FlatWithEdges
350
2C
  3
Gouraud
350
2D
  3
GouraudWithEdges
350
2E
  3
Linepattern
350
38
  3
Realistic
350
33
  3
Thicken
350
37
  0
DICTIONARY
  5
1A1
102
{ACAD_REACTORS
330
C
102
}
330
C
100
AcDbDictionary
281
     1
  3
DIMASSOC
350
1A4
  3
HIDETEXT
350
1A5
  0
LAYOUT
  5
1E
102
{ACAD_REACTORS
330
1A
102
}
330
1A
100
AcDbPlotSettings
  1

  2
none_device
  4

  6

 40
0.0
 41
0.0
 42
0.0
 43
0.0
 44
0.0
 45
0.0
 46
0.0
 47
0.0
 48
0.0
 49
0.0
140
0.0
141
0.0
142
1.0
143
1.0
 70
   688
 72
     0
 73
     0
 74
     5
  7

 75
    16
147
1.0
148
0.0
149
0.0
100
AcDbLayout
  1
Layout1
 70
     1
 71
     1
 10
0.0
 20
0.0
 11
12.0
 21
9.0
 12
0.0
 22
0.0
 32
0.0
 14
1.00000000000000E+20
 24
1.00000000000000E+20
 34
1.00000000000000E+20
 15
-1.00000000000000E+20
 25
-1.00000000000000E+20
 35
-1.00000000000000E+20
146
0.0
 13
0.0
 23
0.0
 33
0.0
 16
1.0
 26
0.0
 36
0.0
 17
0.0
 27
1.0
 37
0.0
 76
     0
330
1B
  0
LAYOUT
  5
26
102
{ACAD_REACTORS
330
1A
102
}
330
1A
100
AcDbPlotSettings
  1

  2
none_device
  4

  6

 40
0.0
 41
0.0
 42
0.0
 43
0.0
 44
0.0
 45
0.0
 46
0.0
 47
0.0
 48
0.0
 49
0.0
140
0.0
141
0.0
142
1.0
143
1.0
 70
   688
 72
     0
 73
     0
 74
     5
  7

 75
    16
147
1.0
148
0.0
149
0.0
100
AcDbLayout
  1
Layout2
 70
     1
 71
     2
 10
0.0
 20
0.0
 11
0.0
 21
0.0
 12
0.0
 22
0.0
 32
0.0
 14
0.0
 24
0.0
 34
0.0
 15
0.0
 25
0.0
 35
0.0
146
0.0
 13
0.0
 23
0.0
 33
0.0
 16
1.0
 26
0.0
 36
0.0
 17
0.0
 27
1.0
 37
0.0
 76
     0
330
23
  0
LAYOUT
  5
22
102
{ACAD_REACTORS
330
1A
102
}
330
1A
100
AcDbPlotSettings
  1

  2
none_device
  4

  6

 40
0.0
 41
0.0
 42
0.0
 43
0.0
 44
0.0
 45
0.0
 46
0.0
 47
0.0
 48
0.0
 49
0.0
140
0.0
141
0.0
142
1.0
143
1.0
 70
  1712
 72
     0
 73
     0
 74
     0
  7

 75
     0
147
1.0
148
0.0
149
0.0
100
AcDbLayout
  1
Model
 70
     1
 71
     0
 10
0.0
 20
0.0
 11
12.0
 21
9.0
 12
0.0
 22
0.0
 32
0.0
 14
0.0
 24
0.0
 34
0.0
 15
210.0000000000001
 25
297.0000000000001
 35
0.0
146
0.0
 13
0.0
 23
0.0
 33
0.0
 16
1.0
 26
0.0
 36
0.0
 17
0.0
 27
1.0
 37
0.0
 76
     0
330
1F
331
29
  0
MATERIAL
  5
3D
102
{ACAD_REACTORS
330
3B
102
}
102
{ACAD_XDICTIONARY
360
1C8
102
}
330
3B
100
AcDbMaterial
  1
ByBlock
  0
MATERIAL
  5
3C
102
{ACAD_REACTORS
330
3B
102
}
102
{ACAD_XDICTIONARY
360
1C6
102
}
330
3B
100
AcDbMaterial
  1
ByLayer
  0
MATERIAL
  5
3E
102
{ACAD_REACTORS
330
3B
102
}
102
{ACAD_XDICTIONARY
360
1CA
102
}
330
3B
100
AcDbMaterial
  1
Global
  0
MLINESTYLE
  5
18
102
{ACAD_REACTORS
330
17
102
}
330
17
100
AcDbMlineStyle
  2
Standard
 70
     0
  3

 62
   256
 51
90.0
 52
90.0
 71
     2
 49
0.5
 62
   256
  6
BYLAYER
 49
-0.5
 62
   256
  6
BYLAYER
  0
ACDBPLACEHOLDER
  5
F
102
{ACAD_REACTORS
330
E
102
}
330
E
  0
VISUALSTYLE
  5
2F
102
{ACAD_REACTORS
330
2A
102
}
102
{ACAD_XDICTIONARY
360
1AE
102
}
330
2A
100
AcDbVisualStyle
  2
2dWireframe
 70
     4
 71
     0
 72
     2
 73
     0
 90
        0
 40
-0.6
 41
-30.0
 62
     5
 63
     7
 74
     1
 91
        4
 64
     7
 65
   257
 75
     1
175
     1
 42
1.0
 92
        0
 66
   257
 43
1.0
 76
     1
 77
     6
 78
     2
 67
     7
 79
     5
170
     0
171
     0
290
     0
174
     0
 93
        1
 44
0.0
173
     0
291
     0
 45
0.0
1001
ACAD
1000
AcDbSavedByObjectVersion
1070
     0
  0
VISUALSTYLE
  5
31
102
{ACAD_REACTORS
330
2A
102
}
102
{ACAD_XDICTIONARY
360
1B2
102
}
330
2A
100
AcDbVisualStyle
  2
3D Hidden
 70
     6
 71
     1
 72
     2
 73
     2
 90
        0
 40
-0.6
 41
-30.0
 62
     5
 63
     7
 74
     2
 91
        2
 64
     7
 65
   257
 75
     2
175
     1
 42
40.0
 92
        0
 66
   257
 43
1.0
 76
     1
 77
     6
 78
     2
 67
     7
 79
     3
170
     0
171
     0
290
     0
174
     0
 93
        1
 44
0.0
173
     0
291
     0
 45
0.0
1001
ACAD
1000
AcDbSavedByObjectVersion
1070
     0
  0
VISUALSTYLE
  5
30
102
{ACAD_REACTORS
330
2A
102
}
102
{ACAD_XDICTIONARY
360
1B0
102
}
330
2A
100
AcDbVisualStyle
  2
3dWireframe
 70
     5
 71
     0
 72
     2
 73
     0
 90
        0
 40
-0.6
 41
-30.0
 62
     5
 63
     7
 74
     1
 91
        4
 64
     7
 65
   257
 75
     1
175
     1
 42
1.0
 92
        0
 66
   257
 43
1.0
 76
     1
 77
     6
 78
     2
 67
     7
 79
     5
170
     0
171
     0
290
     0
174
     0
 93
        1
 44
0.0
173
     0
291
     0
 45
0.0
1001
ACAD
1000
AcDbSavedByObjectVersion
1070
     0
  0
VISUALSTYLE
  5
32
102
{ACAD_REACTORS
330
2A
102
}
102
{ACAD_XDICTIONARY
360
1B4
102
}
330
2A
100
AcDbVisualStyle
  2
Basic
 70
     7
 71
     1
 72
     0
 73
     1
 90
        0
 40
-0.6
 41
-30.0
 62
     5
 63
     7
 74
     0
 91
        4
 64
     7
 65
   257
 75
     1
175
     1
 42
1.0
 92
        8
 66
     7
 43
1.0
 76
     1
 77
     6
 78
     2
 67
     7
 79
     5
170
     0
171
     0
290
     0
174
     0
 93
        1
 44
0.0
173
     0
291
     1
 45
0.0
1001
ACAD
1000
AcDbSavedByObjectVersion
1070
     0
  0
VISUALSTYLE
  5
36
102
{ACAD_REACTORS
330
2A
102
}
102
{ACAD_XDICTIONARY
360
1BC
102
}
330
2A
100
AcDbVisualStyle
  2
Brighten
 70
    12
 71
     2
 72
     2
 73
     0
 90
        0
 40
-0.6
 41
-30.0
 62
     5
 63
     7
 74
     1
 91
        4
 64
     7
 65
   257
 75
     1
175
     1
 42
1.0
 92
        8
 66
     7
 43
1.0
 76
     1
 77
     6
 78
     2
 67
     7
 79
     5
170
     0
171
     0
290
     0
174
     0
 93
        1
 44
50.0
173
     0
291
     1
 45
0.0
1001
ACAD
1000
AcDbSavedByObjectVersion
1070
     0
  0
VISUALSTYLE
  5
3A
102
{ACAD_REACTORS
330
2A
102
}
102
{ACAD_XDICTIONARY
360
1C4
102
}
330
2A
100
AcDbVisualStyle
  2
ColorChange
 70
    16
 71
     2
 72
     2
 73
     3
 90
        0
 40
-0.6
 41
-30.0
 62
     5
 63
     8
 74
     1
 91
        4
 64
     7
 65
   257
 75
     1
175
     1
 42
1.0
 92
        8
 66
     8
 43
1.0
 76
     1
 77
     6
 78
     2
 67
     7
 79
     5
170
     0
171
     0
290
     0
174
     0
 93
        1
 44
0.0
173
     0
291
     1
 45
0.0
1001
ACAD
1000
AcDbSavedByObjectVersion
1070
     0
  0
VISUALSTYLE
  5
34
102
{ACAD_REACTORS
330
2A
102
}
102
{ACAD_XDICTIONARY
360
1B8
102
}
330
2A
100
AcDbVisualStyle
  2
Conceptual
 70
     9
 71
     3
 72
     2
 73
     0
 90
        0
 40
-0.6
 41
-30.0
 62
     5
 63
     7
 74
     2
 91
        2
 64
     7
 65
   257
 75
     1
175
     1
 42
40.0
 92
        8
 66
     7
 43
1.0
 76
     1
 77
     6
 78
     2
 67
     7
 79
     3
170
     0
171
     0
290
     0
174
     0
 93
        1
 44
0.0
173
     0
291
     0
 45
0.0
1001
ACAD
1000
AcDbSavedByObjectVersion
1070
     0
  0
VISUALSTYLE
  5
35
102
{ACAD_REACTORS
330
2A
102
}
102
{ACAD_XDICTIONARY
360
1BA
102
}
330
2A
100
AcDbVisualStyle
  2
Dim
 70
    11
 71
     2
 72
     2
 73
     0
 90
        0
 40
-0.6
 41
-30.0
 62
     5
 63
     7
 74
     1
 91
        4
 64
     7
 65
   257
 75
     1
175
     1
 42
1.0
 92
        8
 66
     7
 43
1.0
 76
     1
 77
     6
 78
     2
 67
     7
 79
     5
170
     0
171
     0
290
     0
174
     0
 93
        1
 44
-50.0
173
     0
291
     1
 45
0.0
1001
ACAD
1000
AcDbSavedByObjectVersion
1070
     0
  0
VISUALSTYLE
  5
39
102
{ACAD_REACTORS
330
2A
102
}
102
{ACAD_XDICTIONARY
360
1C2
102
}
330
2A
100
AcDbVisualStyle
  2
Facepattern
 70
    15
 71
     2
 72
     2
 73
     0
 90
        0
 40
-0.6
 41
-30.0
 62
     5
 63
     7
 74
     1
 91
        4
 64
     7
 65
   257
 75
     1
175
     1
 42
1.0
 92
        8
 66
     7
 43
1.0
 76
     1
 77
     6
 78
     2
 67
     7
 79
     5
170
     0
171
     0
290
     0
174
     0
 93
        1
 44
0.0
173
     0
291
     1
 45
0.0
1001
ACAD
1000
AcDbSavedByObjectVersion
1070
     0
  0
VISUALSTYLE
  5
2B
102
{ACAD_REACTORS
330
2A
102
}
102
{ACAD_XDICTIONARY
360
1A6
102
}
330
2A
100
AcDbVisualStyle
  2
Flat
 70
     0
 71
     2
 72
     1
 73
     1
 90
        2
 40
-0.6
 41
30.0
 62
     5
 63
     7
 74
     0
 91
        4
 64
     7
 65
   257
 75
     1
175
     1
 42
1.0
 92
        8
 66
     7
 43
1.0
 76
     1
 77
     6
 78
     2
 67
     7
 79
     5
170
     0
171
     0
290
     0
174
     0
 93
       13
 44
0.0
173
     0
291
     1
 45
0.0
1001
ACAD
1000
AcDbSavedByObjectVersion
1070
     0
  0
VISUALSTYLE
  5
2C
102
{ACAD_REACTORS
330
2A
102
}
102
{ACAD_XDICTIONARY
360
1A8
102
}
330
2A
100
AcDbVisualStyle
  2
FlatWithEdges
 70
     1
 71
     2
 72
     1
 73
     1
 90
        2
 40
-0.6
 41
30.0
 62
     5
 63
     7
 74
     1
 91
        4
 64
     7
 65
   257
 75
     1
175
     1
 42
1.0
 92
        0
 66
   257
 43
1.0
 76
     1
 77
     6
 78
     2
 67
     7
 79
     5
170
     0
171
     0
290
     0
174
     0
 93
       13
 44
0.0
173
     0
291
     1
 45
0.0
1001
ACAD
1000
AcDbSavedByObjectVersion
1070
     0
  0
VISUALSTYLE
  5
2D
102
{ACAD_REACTORS
330
2A
102
}
102
{ACAD_XDICTIONARY
360
1AA
102
}
330
2A
100
AcDbVisualStyle
  2
Gouraud
 70
     2
 71
     2
 72
     2
 73
     1
 90
        2
 40
-0.6
 41
30.0
 62
     5
 63
     7
 74
     0
 91
        4
 64
     7
 65
   257
 75
     1
175
     1
 42
1.0
 92
        0
 66
     7
 43
1.0
 76
     1
 77
     6
 78
     2
 67
     7
 79
     5
170
     0
171
     0
290
     0
174
     0
 93
       13
 44
0.0
173
     0
291
     1
 45
0.0
1001
ACAD
1000
AcDbSavedByObjectVersion
1070
     0
  0
VISUALSTYLE
  5
2E
102
{ACAD_REACTORS
330
2A
102
}
102
{ACAD_XDICTIONARY
360
1AC
102
}
330
2A
100
AcDbVisualStyle
  2
GouraudWithEdges
 70
     3
 71
     2
 72
     2
 73
     1
 90
        2
 40
-0.6
 41
30.0
 62
     5
 63
     7
 74
     1
 91
        4
 64
     7
 65
   257
 75
     1
175
     1
 42
1.0
 92
        0
 66
   257
 43
1.0
 76
     1
 77
     6
 78
     2
 67
     7
 79
     5
170
     0
171
     0
290
     0
174
     0
 93
       13
 44
0.0
173
     0
291
     1
 45
0.0
1001
ACAD
1000
AcDbSavedByObjectVersion
1070
     0
  0
VISUALSTYLE
  5
38
102
{ACAD_REACTORS
330
2A
102
}
102
{ACAD_XDICTIONARY
360
1C0
102
}
330
2A
100
AcDbVisualStyle
  2
Linepattern
 70
    14
 71
     2
 72
     2
 73
     0
 90
        0
 40
-0.6
 41
-30.0
 62
     5
 63
     7
 74
     1
 91
        4
 64
     7
 65
   257
 75
     7
175
     7
 42
1.0
 92
        8
 66
     7
 43
1.0
 76
     1
 77
     6
 78
     2
 67
     7
 79
     5
170
     0
171
     0
290
     0
174
     0
 93
        1
 44
0.0
173
     0
291
     1
 45
0.0
1001
ACAD
1000
AcDbSavedByObjectVersion
1070
     0
  0
VISUALSTYLE
  5
33
102
{ACAD_REACTORS
330
2A
102
}
102
{ACAD_XDICTIONARY
360
1B6
102
}
330
2A
100
AcDbVisualStyle
  2
Realistic
 70
     8
 71
     2
 72
     2
 73
     0
 90
        0
 40
-0.6
 41
-30.0
 62
     5
 63
     7
 74
     1
 91
        0
 64
     7
 65
   257
 75
     1
175
     1
 42
1.0
 92
        8
 66
     8
 43
1.0
 76
     1
 77
     6
 78
     2
 67
     7
 79
     5
170
     0
171
     0
290
     0
174
     0
 93
       13
 44
0.0
173
     0
291
     0
 45
0.0
1001
ACAD
1000
AcDbSavedByObjectVersion
1070
     0
  0
VISUALSTYLE
  5
37
102
{ACAD_REACTORS
330
2A
102
}
102
{ACAD_XDICTIONARY
360
1BE
102
}
330
2A
100
AcDbVisualStyle
  2
Thicken
 70
    13
 71
     2
 72
     2
 73
     0
 90
        0
 40
-0.6
 41
-30.0
 62
     5
 63
     7
 74
     1
 91
        4
 64
     7
 65
   257
 75
     1
175
     1
 42
1.0
 92
       12
 66
     7
 43
1.0
 76
     1
 77
     6
 78
     2
 67
     7
 79
     5
170
     0
171
     0
290
     0
174
     0
 93
        1
 44
0.0
173
     0
291
     1
 45
0.0
1001
ACAD
1000
AcDbSavedByObjectVersion
1070
     0
  0
DICTIONARYVAR
  5
1A4
102
{ACAD_REACTORS
330
1A1
102
}
330
1A1
100
DictionaryVariables
280
     0
  1
2
  0
DICTIONARYVAR
  5
1A5
102
{ACAD_REACTORS
330
1A1
102
}
330
1A1
100
DictionaryVariables
280
     0
  1
1
  0
DICTIONARY
  5
1C8
330
3D
100
AcDbDictionary
280
     1
281
     1
  3
ACAD_XREC_ROUNDTRIP
360
1C9
  0
DICTIONARY
  5
1C6
330
3C
100
AcDbDictionary
280
     1
281
     1
  3
ACAD_XREC_ROUNDTRIP
360
1C7
  0
DICTIONARY
  5
1CA
330
3E
100
AcDbDictionary
280
     1
281
     1
  3
ACAD_XREC_ROUNDTRIP
360
1CB
  0
DICTIONARY
  5
1AE
330
2F
100
AcDbDictionary
280
     1
281
     1
  3
ACAD_XREC_ROUNDTRIP
360
1AF
  0
DICTIONARY
  5
1B2
330
31
100
AcDbDictionary
280
     1
281
     1
  3
ACAD_XREC_ROUNDTRIP
360
1B3
  0
DICTIONARY
  5
1B0
330
30
100
AcDbDictionary
280
     1
281
     1
  3
ACAD_XREC_ROUNDTRIP
360
1B1
  0
DICTIONARY
  5
1B4
330
32
100
AcDbDictionary
280
     1
281
     1
  3
ACAD_XREC_ROUNDTRIP
360
1B5
  0
DICTIONARY
  5
1BC
330
36
100
AcDbDictionary
280
     1
281
     1
  3
ACAD_XREC_ROUNDTRIP
360
1BD
  0
DICTIONARY
  5
1C4
330
3A
100
AcDbDictionary
280
     1
281
     1
  3
ACAD_XREC_ROUNDTRIP
360
1C5
  0
DICTIONARY
  5
1B8
330
34
100
AcDbDictionary
280
     1
281
     1
  3
ACAD_XREC_ROUNDTRIP
360
1B9
  0
DICTIONARY
  5
1BA
330
35
100
AcDbDictionary
280
     1
281
     1
  3
ACAD_XREC_ROUNDTRIP
360
1BB
  0
DICTIONARY
  5
1C2
330
39
100
AcDbDictionary
280
     1
281
     1
  3
ACAD_XREC_ROUNDTRIP
360
1C3
  0
DICTIONARY
  5
1A6
330
2B
100
AcDbDictionary
280
     1
281
     1
  3
ACAD_XREC_ROUNDTRIP
360
1A7
  0
DICTIONARY
  5
1A8
330
2C
100
AcDbDictionary
280
     1
281
     1
  3
ACAD_XREC_ROUNDTRIP
360
1A9
  0
DICTIONARY
  5
1AA
330
2D
100
AcDbDictionary
280
     1
281
     1
  3
ACAD_XREC_ROUNDTRIP
360
1AB
  0
DICTIONARY
  5
1AC
330
2E
100
AcDbDictionary
280
     1
281
     1
  3
ACAD_XREC_ROUNDTRIP
360
1AD
  0
DICTIONARY
  5
1C0
330
38
100
AcDbDictionary
280
     1
281
     1
  3
ACAD_XREC_ROUNDTRIP
360
1C1
  0
DICTIONARY
  5
1B6
330
33
100
AcDbDictionary
280
     1
281
     1
  3
ACAD_XREC_ROUNDTRIP
360
1B7
  0
DICTIONARY
  5
1BE
330
37
100
AcDbDictionary
280
     1
281
     1
  3
ACAD_XREC_ROUNDTRIP
360
1BF
  0
XRECORD
  5
1C9
102
{ACAD_REACTORS
330
1C8
102
}
330
1C8
100
AcDbXrecord
280
     1
102
MATERIAL
148
0.0
149
0.0
149
0.0
 93
        0
 94
      127
282
     0
 72
     1
 77
     1
171
     1
175
     1
179
     1
273
     0
  0
XRECORD
  5
1C7
102
{ACAD_REACTORS
330
1C6
102
}
330
1C6
100
AcDbXrecord
280
     1
102
MATERIAL
148
0.0
149
0.0
149
0.0
 93
        0
 94
      127
282
     0
 72
     1
 77
     1
171
     1
175
     1
179
     1
273
     0
  0
XRECORD
  5
1CB
102
{ACAD_REACTORS
330
1CA
102
}
330
1CA
100
AcDbXrecord
280
     1
102
MATERIAL
148
0.0
149
0.0
149
0.0
 93
        0
 94
      127
282
     0
 72
     1
 77
     1
171
     1
175
     1
179
     1
273
     0
  0
XRECORD
  5
1AF
102
{ACAD_REACTORS
330
1AE
102
}
330
1AE
100
AcDbXrecord
280
     1
102
RTVSPropertyOp0
 70
     1
102
RTVSPropertyOp1
 70
     1
102
RTVSPropertyOp2
 70
     1
102
RTVSPropertyOp3
 70
     1
102
RTVSPropertyOp4
 70
     1
102
RTVSPropertyOp5
 70
     1
102
RTVSPropertyOp6
 70
     1
102
RTVSPropertyOp7
 70
     1
102
RTVSPropertyOp8
 70
     1
102
RTVSPropertyOp9
 70
     1
102
RTVSPropertyOp10
 70
     1
102
RTVSPropertyOp11
 70
     1
102
RTVSPropertyOp12
 70
     1
102
RTVSPropertyOp13
 70
     1
102
RTVSPropertyOp14
 70
     1
102
RTVSPropertyOp15
 70
     1
102
RTVSPropertyOp16
 70
     1
102
RTVSPropertyOp17
 70
     1
102
RTVSPropertyOp18
 70
     1
102
RTVSPropertyOp19
 70
     1
102
RTVSPropertyOp20
 70
     1
102
RTVSPropertyOp21
 70
     1
102
RTVSPropertyOp22
 70
     1
102
RTVSPropertyOp23
 70
     1
102
RTVSPropertyOp24
 70
     1
102
RTVSPropertyOp25
 70
     1
102
RTVSPropertyOp26
 70
     1
102
RTVSPropertyOp27
 70
     1
102
RTVSPropertyOp28
 70
     1
102
RTVSPropertyOp29
 70
     1
102
RTVSPropertyOp30
 70
     1
102
RTVSPropertyOp31
 70
     1
102
RTVSPropertyOp32
 70
     1
  0
XRECORD
  5
1B3
102
{ACAD_REACTORS
330
1B2
102
}
330
1B2
100
AcDbXrecord
280
     1
102
RTVSPropertyOp0
 70
     1
102
RTVSPropertyOp1
 70
     1
102
RTVSPropertyOp2
 70
     1
102
RTVSPropertyOp3
 70
     1
102
RTVSPropertyOp4
 70
     1
102
RTVSPropertyOp5
 70
     1
102
RTVSPropertyOp6
 70
     1
102
RTVSPropertyOp7
 70
     1
102
RTVSPropertyOp8
 70
     1
102
RTVSPropertyOp9
 70
     1
102
RTVSPropertyOp10
 70
     1
102
RTVSPropertyOp11
 70
     1
102
RTVSPropertyOp12
 70
     1
102
RTVSPropertyOp13
 70
     1
102
RTVSPropertyOp14
 70
     1
102
RTVSPropertyOp15
 70
     1
102
RTVSPropertyOp16
 70
     1
102
RTVSPropertyOp17
 70
     1
102
RTVSPropertyOp18
 70
     1
102
RTVSPropertyOp19
 70
     1
102
RTVSPropertyOp20
 70
     1
102
RTVSPropertyOp21
 70
     1
102
RTVSPropertyOp22
 70
     1
102
RTVSPropertyOp23
 70
     1
102
RTVSPropertyOp24
 70
     1
102
RTVSPropertyOp25
 70
     1
102
RTVSPropertyOp26
 70
     1
102
RTVSPropertyOp27
 70
     1
102
RTVSPropertyOp28
 70
     1
102
RTVSPropertyOp29
 70
     1
102
RTVSPropertyOp30
 70
     1
102
RTVSPropertyOp31
 70
     1
102
RTVSPropertyOp32
 70
     1
  0
XRECORD
  5
1B1
102
{ACAD_REACTORS
330
1B0
102
}
330
1B0
100
AcDbXrecord
280
     1
102
RTVSPropertyOp0
 70
     1
102
RTVSPropertyOp1
 70
     1
102
RTVSPropertyOp2
 70
     1
102
RTVSPropertyOp3
 70
     1
102
RTVSPropertyOp4
 70
     1
102
RTVSPropertyOp5
 70
     1
102
RTVSPropertyOp6
 70
     1
102
RTVSPropertyOp7
 70
     1
102
RTVSPropertyOp8
 70
     1
102
RTVSPropertyOp9
 70
     1
102
RTVSPropertyOp10
 70
     1
102
RTVSPropertyOp11
 70
     1
102
RTVSPropertyOp12
 70
     1
102
RTVSPropertyOp13
 70
     1
102
RTVSPropertyOp14
 70
     1
102
RTVSPropertyOp15
 70
     1
102
RTVSPropertyOp16
 70
     1
102
RTVSPropertyOp17
 70
     1
102
RTVSPropertyOp18
 70
     1
102
RTVSPropertyOp19
 70
     1
102
RTVSPropertyOp20
 70
     1
102
RTVSPropertyOp21
 70
     1
102
RTVSPropertyOp22
 70
     1
102
RTVSPropertyOp23
 70
     1
102
RTVSPropertyOp24
 70
     1
102
RTVSPropertyOp25
 70
     1
102
RTVSPropertyOp26
 70
     1
102
RTVSPropertyOp27
 70
     1
102
RTVSPropertyOp28
 70
     1
102
RTVSPropertyOp29
 70
     1
102
RTVSPropertyOp30
 70
     1
102
RTVSPropertyOp31
 70
     1
102
RTVSPropertyOp32
 70
     1
  0
XRECORD
  5
1B5
102
{ACAD_REACTORS
330
1B4
102
}
330
1B4
100
AcDbXrecord
280
     1
102
RTVSPropertyOp0
 70
     1
102
RTVSPropertyOp1
 70
     1
102
RTVSPropertyOp2
 70
     1
102
RTVSPropertyOp3
 70
     1
102
RTVSPropertyOp4
 70
     1
102
RTVSPropertyOp5
 70
     1
102
RTVSPropertyOp6
 70
     1
102
RTVSPropertyOp7
 70
     1
102
RTVSPropertyOp8
 70
     1
102
RTVSPropertyOp9
 70
     1
102
RTVSPropertyOp10
 70
     1
102
RTVSPropertyOp11
 70
     1
102
RTVSPropertyOp12
 70
     1
102
RTVSPropertyOp13
 70
     1
102
RTVSPropertyOp14
 70
     1
102
RTVSPropertyOp15
 70
     1
102
RTVSPropertyOp16
 70
     1
102
RTVSPropertyOp17
 70
     1
102
RTVSPropertyOp18
 70
     1
102
RTVSPropertyOp19
 70
     1
102
RTVSPropertyOp20
 70
     1
102
RTVSPropertyOp21
 70
     1
102
RTVSPropertyOp22
 70
     1
102
RTVSPropertyOp23
 70
     1
102
RTVSPropertyOp24
 70
     1
102
RTVSPropertyOp25
 70
     1
102
RTVSPropertyOp26
 70
     1
102
RTVSPropertyOp27
 70
     1
102
RTVSPropertyOp28
 70
     1
102
RTVSPropertyOp29
 70
     1
102
RTVSPropertyOp30
 70
     1
102
RTVSPropertyOp31
 70
     1
102
RTVSPropertyOp32
 70
     1
  0
XRECORD
  5
1BD
102
{ACAD_REACTORS
330
1BC
102
}
330
1BC
100
AcDbXrecord
280
     1
102
RTVSPropertyOp0
 70
     1
102
RTVSPropertyOp1
 70
     1
102
RTVSPropertyOp2
 70
     1
102
RTVSPropertyOp3
 70
     1
102
RTVSPropertyOp4
 70
     1
102
RTVSPropertyOp5
 70
     1
102
RTVSPropertyOp6
 70
     1
102
RTVSPropertyOp7
 70
     1
102
RTVSPropertyOp8
 70
     1
102
RTVSPropertyOp9
 70
     1
102
RTVSPropertyOp10
 70
     1
102
RTVSPropertyOp11
 70
     1
102
RTVSPropertyOp12
 70
     1
102
RTVSPropertyOp13
 70
     1
102
RTVSPropertyOp14
 70
     1
102
RTVSPropertyOp15
 70
     1
102
RTVSPropertyOp16
 70
     1
102
RTVSPropertyOp17
 70
     1
102
RTVSPropertyOp18
 70
     1
102
RTVSPropertyOp19
 70
     1
102
RTVSPropertyOp20
 70
     1
102
RTVSPropertyOp21
 70
     1
102
RTVSPropertyOp22
 70
     1
102
RTVSPropertyOp23
 70
     1
102
RTVSPropertyOp24
 70
     1
102
RTVSPropertyOp25
 70
     1
102
RTVSPropertyOp26
 70
     1
102
RTVSPropertyOp27
 70
     1
102
RTVSPropertyOp28
 70
     1
102
RTVSPropertyOp29
 70
     1
102
RTVSPropertyOp30
 70
     1
102
RTVSPropertyOp31
 70
     1
102
RTVSPropertyOp32
 70
     1
  0
XRECORD
  5
1C5
102
{ACAD_REACTORS
330
1C4
102
}
330
1C4
100
AcDbXrecord
280
     1
102
RTVSPropertyOp0
 70
     1
102
RTVSPropertyOp1
 70
     1
102
RTVSPropertyOp2
 70
     1
102
RTVSPropertyOp3
 70
     1
102
RTVSPropertyOp4
 70
     1
102
RTVSPropertyOp5
 70
     1
102
RTVSPropertyOp6
 70
     1
102
RTVSPropertyOp7
 70
     1
102
RTVSPropertyOp8
 70
     1
102
RTVSPropertyOp9
 70
     1
102
RTVSPropertyOp10
 70
     1
102
RTVSPropertyOp11
 70
     1
102
RTVSPropertyOp12
 70
     1
102
RTVSPropertyOp13
 70
     1
102
RTVSPropertyOp14
 70
     1
102
RTVSPropertyOp15
 70
     1
102
RTVSPropertyOp16
 70
     1
102
RTVSPropertyOp17
 70
     1
102
RTVSPropertyOp18
 70
     1
102
RTVSPropertyOp19
 70
     1
102
RTVSPropertyOp20
 70
     1
102
RTVSPropertyOp21
 70
     1
102
RTVSPropertyOp22
 70
     1
102
RTVSPropertyOp23
 70
     1
102
RTVSPropertyOp24
 70
     1
102
RTVSPropertyOp25
 70
     1
102
RTVSPropertyOp26
 70
     1
102
RTVSPropertyOp27
 70
     1
102
RTVSPropertyOp28
 70
     1
102
RTVSPropertyOp29
 70
     1
102
RTVSPropertyOp30
 70
     1
102
RTVSPropertyOp31
 70
     1
102
RTVSPropertyOp32
 70
     1
  0
XRECORD
  5
1B9
102
{ACAD_REACTORS
330
1B8
102
}
330
1B8
100
AcDbXrecord
280
     1
102
RTVSPropertyOp0
 70
     1
102
RTVSPropertyOp1
 70
     1
102
RTVSPropertyOp2
 70
     1
102
RTVSPropertyOp3
 70
     1
102
RTVSPropertyOp4
 70
     1
102
RTVSPropertyOp5
 70
     1
102
RTVSPropertyOp6
 70
     1
102
RTVSPropertyOp7
 70
     1
102
RTVSPropertyOp8
 70
     1
102
RTVSPropertyOp9
 70
     1
102
RTVSPropertyOp10
 70
     1
102
RTVSPropertyOp11
 70
     1
102
RTVSPropertyOp12
 70
     1
102
RTVSPropertyOp13
 70
     1
102
RTVSPropertyOp14
 70
     1
102
RTVSPropertyOp15
 70
     1
102
RTVSPropertyOp16
 70
     1
102
RTVSPropertyOp17
 70
     1
102
RTVSPropertyOp18
 70
     1
102
RTVSPropertyOp19
 70
     1
102
RTVSPropertyOp20
 70
     1
102
RTVSPropertyOp21
 70
     1
102
RTVSPropertyOp22
 70
     1
102
RTVSPropertyOp23
 70
     1
102
RTVSPropertyOp24
 70
     1
102
RTVSPropertyOp25
 70
     1
102
RTVSPropertyOp26
 70
     1
102
RTVSPropertyOp27
 70
     1
102
RTVSPropertyOp28
 70
     1
102
RTVSPropertyOp29
 70
     1
102
RTVSPropertyOp30
 70
     1
102
RTVSPropertyOp31
 70
     1
102
RTVSPropertyOp32
 70
     1
  0
XRECORD
  5
1BB
102
{ACAD_REACTORS
330
1BA
102
}
330
1BA
100
AcDbXrecord
280
     1
102
RTVSPropertyOp0
 70
     1
102
RTVSPropertyOp1
 70
     1
102
RTVSPropertyOp2
 70
     1
102
RTVSPropertyOp3
 70
     1
102
RTVSPropertyOp4
 70
     1
102
RTVSPropertyOp5
 70
     1
102
RTVSPropertyOp6
 70
     1
102
RTVSPropertyOp7
 70
     1
102
RTVSPropertyOp8
 70
     1
102
RTVSPropertyOp9
 70
     1
102
RTVSPropertyOp10
 70
     1
102
RTVSPropertyOp11
 70
     1
102
RTVSPropertyOp12
 70
     1
102
RTVSPropertyOp13
 70
     1
102
RTVSPropertyOp14
 70
     1
102
RTVSPropertyOp15
 70
     1
102
RTVSPropertyOp16
 70
     1
102
RTVSPropertyOp17
 70
     1
102
RTVSPropertyOp18
 70
     1
102
RTVSPropertyOp19
 70
     1
102
RTVSPropertyOp20
 70
     1
102
RTVSPropertyOp21
 70
     1
102
RTVSPropertyOp22
 70
     1
102
RTVSPropertyOp23
 70
     1
102
RTVSPropertyOp24
 70
     1
102
RTVSPropertyOp25
 70
     1
102
RTVSPropertyOp26
 70
     1
102
RTVSPropertyOp27
 70
     1
102
RTVSPropertyOp28
 70
     1
102
RTVSPropertyOp29
 70
     1
102
RTVSPropertyOp30
 70
     1
102
RTVSPropertyOp31
 70
     1
102
RTVSPropertyOp32
 70
     1
  0
XRECORD
  5
1C3
102
{ACAD_REACTORS
330
1C2
102
}
330
1C2
100
AcDbXrecord
280
     1
102
RTVSPropertyOp0
 70
     1
102
RTVSPropertyOp1
 70
     1
102
RTVSPropertyOp2
 70
     1
102
RTVSPropertyOp3
 70
     1
102
RTVSPropertyOp4
 70
     1
102
RTVSPropertyOp5
 70
     1
102
RTVSPropertyOp6
 70
     1
102
RTVSPropertyOp7
 70
     1
102
RTVSPropertyOp8
 70
     1
102
RTVSPropertyOp9
 70
     1
102
RTVSPropertyOp10
 70
     1
102
RTVSPropertyOp11
 70
     1
102
RTVSPropertyOp12
 70
     1
102
RTVSPropertyOp13
 70
     1
102
RTVSPropertyOp14
 70
     1
102
RTVSPropertyOp15
 70
     1
102
RTVSPropertyOp16
 70
     1
102
RTVSPropertyOp17
 70
     1
102
RTVSPropertyOp18
 70
     1
102
RTVSPropertyOp19
 70
     1
102
RTVSPropertyOp20
 70
     1
102
RTVSPropertyOp21
 70
     1
102
RTVSPropertyOp22
 70
     1
102
RTVSPropertyOp23
 70
     1
102
RTVSPropertyOp24
 70
     1
102
RTVSPropertyOp25
 70
     1
102
RTVSPropertyOp26
 70
     1
102
RTVSPropertyOp27
 70
     1
102
RTVSPropertyOp28
 70
     1
102
RTVSPropertyOp29
 70
     1
102
RTVSPropertyOp30
 70
     1
102
RTVSPropertyOp31
 70
     1
102
RTVSPropertyOp32
 70
     1
  0
XRECORD
  5
1A7
102
{ACAD_REACTORS
330
1A6
102
}
330
1A6
100
AcDbXrecord
280
     1
102
RTVSPropertyOp0
 70
     1
102
RTVSPropertyOp1
 70
     1
102
RTVSPropertyOp2
 70
     1
102
RTVSPropertyOp3
 70
     1
102
RTVSPropertyOp4
 70
     1
102
RTVSPropertyOp5
 70
     1
102
RTVSPropertyOp6
 70
     1
102
RTVSPropertyOp7
 70
     1
102
RTVSPropertyOp8
 70
     1
102
RTVSPropertyOp9
 70
     1
102
RTVSPropertyOp10
 70
     1
102
RTVSPropertyOp11
 70
     1
102
RTVSPropertyOp12
 70
     1
102
RTVSPropertyOp13
 70
     1
102
RTVSPropertyOp14
 70
     1
102
RTVSPropertyOp15
 70
     1
102
RTVSPropertyOp16
 70
     1
102
RTVSPropertyOp17
 70
     1
102
RTVSPropertyOp18
 70
     1
102
RTVSPropertyOp19
 70
     1
102
RTVSPropertyOp20
 70
     1
102
RTVSPropertyOp21
 70
     1
102
RTVSPropertyOp22
 70
     1
102
RTVSPropertyOp23
 70
     1
102
RTVSPropertyOp24
 70
     1
102
RTVSPropertyOp25
 70
     1
102
RTVSPropertyOp26
 70
     1
102
RTVSPropertyOp27
 70
     1
102
RTVSPropertyOp28
 70
     1
102
RTVSPropertyOp29
 70
     1
102
RTVSPropertyOp30
 70
     1
102
RTVSPropertyOp31
 70
     1
102
RTVSPropertyOp32
 70
     1
  0
XRECORD
  5
1A9
102
{ACAD_REACTORS
330
1A8
102
}
330
1A8
100
AcDbXrecord
280
     1
102
RTVSPropertyOp0
 70
     1
102
RTVSPropertyOp1
 70
     1
102
RTVSPropertyOp2
 70
     1
102
RTVSPropertyOp3
 70
     1
102
RTVSPropertyOp4
 70
     1
102
RTVSPropertyOp5
 70
     1
102
RTVSPropertyOp6
 70
     1
102
RTVSPropertyOp7
 70
     1
102
RTVSPropertyOp8
 70
     1
102
RTVSPropertyOp9
 70
     1
102
RTVSPropertyOp10
 70
     1
102
RTVSPropertyOp11
 70
     1
102
RTVSPropertyOp12
 70
     1
102
RTVSPropertyOp13
 70
     1
102
RTVSPropertyOp14
 70
     1
102
RTVSPropertyOp15
 70
     1
102
RTVSPropertyOp16
 70
     1
102
RTVSPropertyOp17
 70
     1
102
RTVSPropertyOp18
 70
     1
102
RTVSPropertyOp19
 70
     1
102
RTVSPropertyOp20
 70
     1
102
RTVSPropertyOp21
 70
     1
102
RTVSPropertyOp22
 70
     1
102
RTVSPropertyOp23
 70
     1
102
RTVSPropertyOp24
 70
     1
102
RTVSPropertyOp25
 70
     1
102
RTVSPropertyOp26
 70
     1
102
RTVSPropertyOp27
 70
     1
102
RTVSPropertyOp28
 70
     1
102
RTVSPropertyOp29
 70
     1
102
RTVSPropertyOp30
 70
     1
102
RTVSPropertyOp31
 70
     1
102
RTVSPropertyOp32
 70
     1
  0
XRECORD
  5
1AB
102
{ACAD_REACTORS
330
1AA
102
}
330
1AA
100
AcDbXrecord
280
     1
102
RTVSPropertyOp0
 70
     1
102
RTVSPropertyOp1
 70
     1
102
RTVSPropertyOp2
 70
     1
102
RTVSPropertyOp3
 70
     1
102
RTVSPropertyOp4
 70
     1
102
RTVSPropertyOp5
 70
     1
102
RTVSPropertyOp6
 70
     1
102
RTVSPropertyOp7
 70
     1
102
RTVSPropertyOp8
 70
     1
102
RTVSPropertyOp9
 70
     1
102
RTVSPropertyOp10
 70
     1
102
RTVSPropertyOp11
 70
     1
102
RTVSPropertyOp12
 70
     1
102
RTVSPropertyOp13
 70
     1
102
RTVSPropertyOp14
 70
     1
102
RTVSPropertyOp15
 70
     1
102
RTVSPropertyOp16
 70
     1
102
RTVSPropertyOp17
 70
     1
102
RTVSPropertyOp18
 70
     1
102
RTVSPropertyOp19
 70
     1
102
RTVSPropertyOp20
 70
     1
102
RTVSPropertyOp21
 70
     1
102
RTVSPropertyOp22
 70
     1
102
RTVSPropertyOp23
 70
     1
102
RTVSPropertyOp24
 70
     1
102
RTVSPropertyOp25
 70
     1
102
RTVSPropertyOp26
 70
     1
102
RTVSPropertyOp27
 70
     1
102
RTVSPropertyOp28
 70
     1
102
RTVSPropertyOp29
 70
     1
102
RTVSPropertyOp30
 70
     1
102
RTVSPropertyOp31
 70
     1
102
RTVSPropertyOp32
 70
     1
  0
XRECORD
  5
1AD
102
{ACAD_REACTORS
330
1AC
102
}
330
1AC
100
AcDbXrecord
280
     1
102
RTVSPropertyOp0
 70
     1
102
RTVSPropertyOp1
 70
     1
102
RTVSPropertyOp2
 70
     1
102
RTVSPropertyOp3
 70
     1
102
RTVSPropertyOp4
 70
     1
102
RTVSPropertyOp5
 70
     1
102
RTVSPropertyOp6
 70
     1
102
RTVSPropertyOp7
 70
     1
102
RTVSPropertyOp8
 70
     1
102
RTVSPropertyOp9
 70
     1
102
RTVSPropertyOp10
 70
     1
102
RTVSPropertyOp11
 70
     1
102
RTVSPropertyOp12
 70
     1
102
RTVSPropertyOp13
 70
     1
102
RTVSPropertyOp14
 70
     1
102
RTVSPropertyOp15
 70
     1
102
RTVSPropertyOp16
 70
     1
102
RTVSPropertyOp17
 70
     1
102
RTVSPropertyOp18
 70
     1
102
RTVSPropertyOp19
 70
     1
102
RTVSPropertyOp20
 70
     1
102
RTVSPropertyOp21
 70
     1
102
RTVSPropertyOp22
 70
     1
102
RTVSPropertyOp23
 70
     1
102
RTVSPropertyOp24
 70
     1
102
RTVSPropertyOp25
 70
     1
102
RTVSPropertyOp26
 70
     1
102
RTVSPropertyOp27
 70
     1
102
RTVSPropertyOp28
 70
     1
102
RTVSPropertyOp29
 70
     1
102
RTVSPropertyOp30
 70
     1
102
RTVSPropertyOp31
 70
     1
102
RTVSPropertyOp32
 70
     1
  0
XRECORD
  5
1C1
102
{ACAD_REACTORS
330
1C0
102
}
330
1C0
100
AcDbXrecord
280
     1
102
RTVSPropertyOp0
 70
     1
102
RTVSPropertyOp1
 70
     1
102
RTVSPropertyOp2
 70
     1
102
RTVSPropertyOp3
 70
     1
102
RTVSPropertyOp4
 70
     1
102
RTVSPropertyOp5
 70
     1
102
RTVSPropertyOp6
 70
     1
102
RTVSPropertyOp7
 70
     1
102
RTVSPropertyOp8
 70
     1
102
RTVSPropertyOp9
 70
     1
102
RTVSPropertyOp10
 70
     1
102
RTVSPropertyOp11
 70
     1
102
RTVSPropertyOp12
 70
     1
102
RTVSPropertyOp13
 70
     1
102
RTVSPropertyOp14
 70
     1
102
RTVSPropertyOp15
 70
     1
102
RTVSPropertyOp16
 70
     1
102
RTVSPropertyOp17
 70
     1
102
RTVSPropertyOp18
 70
     1
102
RTVSPropertyOp19
 70
     1
102
RTVSPropertyOp20
 70
     1
102
RTVSPropertyOp21
 70
     1
102
RTVSPropertyOp22
 70
     1
102
RTVSPropertyOp23
 70
     1
102
RTVSPropertyOp24
 70
     1
102
RTVSPropertyOp25
 70
     1
102
RTVSPropertyOp26
 70
     1
102
RTVSPropertyOp27
 70
     1
102
RTVSPropertyOp28
 70
     1
102
RTVSPropertyOp29
 70
     1
102
RTVSPropertyOp30
 70
     1
102
RTVSPropertyOp31
 70
     1
102
RTVSPropertyOp32
 70
     1
  0
XRECORD
  5
1B7
102
{ACAD_REACTORS
330
1B6
102
}
330
1B6
100
AcDbXrecord
280
     1
102
RTVSPropertyOp0
 70
     1
102
RTVSPropertyOp1
 70
     1
102
RTVSPropertyOp2
 70
     1
102
RTVSPropertyOp3
 70
     1
102
RTVSPropertyOp4
 70
     1
102
RTVSPropertyOp5
 70
     1
102
RTVSPropertyOp6
 70
     1
102
RTVSPropertyOp7
 70
     1
102
RTVSPropertyOp8
 70
     1
102
RTVSPropertyOp9
 70
     1
102
RTVSPropertyOp10
 70
     1
102
RTVSPropertyOp11
 70
     1
102
RTVSPropertyOp12
 70
     1
102
RTVSPropertyOp13
 70
     1
102
RTVSPropertyOp14
 70
     1
102
RTVSPropertyOp15
 70
     1
102
RTVSPropertyOp16
 70
     1
102
RTVSPropertyOp17
 70
     1
102
RTVSPropertyOp18
 70
     1
102
RTVSPropertyOp19
 70
     1
102
RTVSPropertyOp20
 70
     1
102
RTVSPropertyOp21
 70
     1
102
RTVSPropertyOp22
 70
     1
102
RTVSPropertyOp23
 70
     1
102
RTVSPropertyOp24
 70
     1
102
RTVSPropertyOp25
 70
     1
102
RTVSPropertyOp26
 70
     1
102
RTVSPropertyOp27
 70
     1
102
RTVSPropertyOp28
 70
     1
102
RTVSPropertyOp29
 70
     1
102
RTVSPropertyOp30
 70
     1
102
RTVSPropertyOp31
 70
     1
102
RTVSPropertyOp32
 70
     1
  0
XRECORD
  5
1BF
102
{ACAD_REACTORS
330
1BE
102
}
330
1BE
100
AcDbXrecord
280
     1
102
RTVSPropertyOp0
 70
     1
102
RTVSPropertyOp1
 70
     1
102
RTVSPropertyOp2
 70
     1
102
RTVSPropertyOp3
 70
     1
102
RTVSPropertyOp4
 70
     1
102
RTVSPropertyOp5
 70
     1
102
RTVSPropertyOp6
 70
     1
102
RTVSPropertyOp7
 70
     1
102
RTVSPropertyOp8
 70
     1
102
RTVSPropertyOp9
 70
     1
102
RTVSPropertyOp10
 70
     1
102
RTVSPropertyOp11
 70
     1
102
RTVSPropertyOp12
 70
     1
102
RTVSPropertyOp13
 70
     1
102
RTVSPropertyOp14
 70
     1
102
RTVSPropertyOp15
 70
     1
102
RTVSPropertyOp16
 70
     1
102
RTVSPropertyOp17
 70
     1
102
RTVSPropertyOp18
 70
     1
102
RTVSPropertyOp19
 70
     1
102
RTVSPropertyOp20
 70
     1
102
RTVSPropertyOp21
 70
     1
102
RTVSPropertyOp22
 70
     1
102
RTVSPropertyOp23
 70
     1
102
RTVSPropertyOp24
 70
     1
102
RTVSPropertyOp25
 70
     1
102
RTVSPropertyOp26
 70
     1
102
RTVSPropertyOp27
 70
     1
102
RTVSPropertyOp28
 70
     1
102
RTVSPropertyOp29
 70
     1
102
RTVSPropertyOp30
 70
     1
102
RTVSPropertyOp31
 70
     1
102
RTVSPropertyOp32
 70
     1
  0
ENDSEC
  0
EOF
