  0
SECTION
  2
HEADER
  9
$ACADVER
  1
AC1015
  9
$ACADMAINTVER
 70
     6
  9
$DWGCODEPAGE
  3
DOS932
  9
$INSBASE
 10
0.0
 20
0.0
 30
0.0
  9
$EXTMIN
 10
0.0
 20
0.0
 30
0.0
  9
$EXTMAX
 10
315.0
 20
445.5
 30
0.0
  9
$LIMMIN
 10
0.0
 20
0.0
  9
$LIMMAX
 10
12.0
 20
9.0
  9
$ORTHOMODE
 70
     0
  9
$REGENMODE
 70
     1
  9
$FILLMODE
 70
     1
  9
$QTEXTMODE
 70
     0
  9
$MIRRTEXT
 70
     1
  9
$LTSCALE
 40
1.0
  9
$ATTMODE
 70
     1
  9
$TEXTSIZE
 40
0.2
  9
$TRACEWID
 40
0.05
  9
$TEXTSTYLE
  7
Standard
  9
$CLAYER
  8
0
  9
$CELTYPE
  6
ByLayer
  9
$CECOLOR
 62
   256
  9
$CELTSCALE
 40
1.0
  9
$DISPSILH
 70
     0
  9
$DIMSCALE
 40
1.0
  9
$DIMASZ
 40
0.18
  9
$DIMEXO
 40
0.0625
  9
$DIMDLI
 40
0.38
  9
$DIMRND
 40
0.0
  9
$DIMDLE
 40
0.0
  9
$DIMEXE
 40
0.18
  9
$DIMTP
 40
0.0
  9
$DIMTM
 40
0.0
  9
$DIMTXT
 40
0.18
  9
$DIMCEN
 40
0.09
  9
$DIMTSZ
 40
0.0
  9
$DIMTOL
 70
     0
  9
$DIMLIM
 70
     0
  9
$DIMTIH
 70
     1
  9
$DIMTOH
 70
     1
  9
$DIMSE1
 70
     0
  9
$DIMSE2
 70
     0
  9
$DIMTAD
 70
     0
  9
$DIMZIN
 70
     0
  9
$DIMBLK
  1

  9
$DIMASO
 70
     1
  9
$DIMSHO
 70
     1
  9
$DIMPOST
  1

  9
$DIMAPOST
  1

  9
$DIMALT
 70
     0
  9
$DIMALTD
 70
     2
  9
$DIMALTF
 40
25.4
  9
$DIMLFAC
 40
1.0
  9
$DIMTOFL
 70
     0
  9
$DIMTVP
 40
0.0
  9
$DIMTIX
 70
     0
  9
$DIMSOXD
 70
     0
  9
$DIMSAH
 70
     0
  9
$DIMBLK1
  1

  9
$DIMBLK2
  1

  9
$DIMSTYLE
  2
Standard
  9
$DIMCLRD
 70
     0
  9
$DIMCLRE
 70
     0
  9
$DIMCLRT
 70
     0
  9
$DIMTFAC
 40
1.0
  9
$DIMGAP
 40
0.09
  9
$DIMJUST
 70
     0
  9
$DIMSD1
 70
     0
  9
$DIMSD2
 70
     0
  9
$DIMTOLJ
 70
     1
  9
$DIMTZIN
 70
     0
  9
$DIMALTZ
 70
     0
  9
$DIMALTTZ
 70
     0
  9
$DIMUPT
 70
     0
  9
$DIMDEC
 70
     4
  9
$DIMTDEC
 70
     4
  9
$DIMALTU
 70
     2
  9
$DIMALTTD
 70
     2
  9
$DIMTXSTY
  7
Standard
  9
$DIMAUNIT
 70
     0
  9
$DIMADEC
 70
     0
  9
$DIMALTRND
 40
0.0
  9
$DIMAZIN
 70
     0
  9
$DIMDSEP
 70
    46
  9
$DIMATFIT
 70
     3
  9
$DIMFRAC
 70
     0
  9
$DIMLDRBLK
  1

  9
$DIMLUNIT
 70
     2
  9
$DIMLWD
 70
    -2
  9
$DIMLWE
 70
    -2
  9
$DIMTMOVE
 70
     0
  9
$LUNITS
 70
     2
  9
$LUPREC
 70
     4
  9
$SKETCHINC
 40
0.1
  9
$FILLETRAD
 40
0.5
  9
$AUNITS
 70
     0
  9
$AUPREC
 70
     0
  9
$MENU
  1
.
  9
$ELEVATION
 40
0.0
  9
$PELEVATION
 40
0.0
  9
$THICKNESS
 40
0.0
  9
$LIMCHECK
 70
     0
  9
$CHAMFERA
 40
0.5
  9
$CHAMFERB
 40
0.5
  9
$CHAMFERC
 40
1.0
  9
$CHAMFERD
 40
0.0
  9
$SKPOLY
 70
     0
  9
$TDCREATE
 40
2456135.687810868
  9
$TDUCREATE
 40
2456135.312810868
  9
$TDUPDATE
 40
2456135.68781088
  9
$TDUUPDATE
 40
2456135.31281088
  9
$TDINDWG
 40
0.0000000116
  9
$TDUSRTIMER
 40
0.0000000116
  9
$USRTIMER
 70
     1
  9
$ANGBASE
 50
0.0
  9
$ANGDIR
 70
     0
  9
$PDMODE
 70
     0
  9
$PDSIZE
 40
0.0
  9
$PLINEWID
 40
0.0
  9
$SPLFRAME
 70
     0
  9
$SPLINETYPE
 70
     6
  9
$SPLINESEGS
 70
     8
  9
$HANDSEED
  5
287
  9
$SURFTAB1
 70
     6
  9
$SURFTAB2
 70
     6
  9
$SURFTYPE
 70
     6
  9
$SURFU
 70
     6
  9
$SURFV
 70
     6
  9
$UCSBASE
  2

  9
$UCSNAME
  2

  9
$UCSORG
 10
0.0
 20
0.0
 30
0.0
  9
$UCSXDIR
 10
1.0
 20
0.0
 30
0.0
  9
$UCSYDIR
 10
0.0
 20
1.0
 30
0.0
  9
$UCSORTHOREF
  2

  9
$UCSORTHOVIEW
 70
     0
  9
$UCSORGTOP
 10
0.0
 20
0.0
 30
0.0
  9
$UCSORGBOTTOM
 10
0.0
 20
0.0
 30
0.0
  9
$UCSORGLEFT
 10
0.0
 20
0.0
 30
0.0
  9
$UCSORGRIGHT
 10
0.0
 20
0.0
 30
0.0
  9
$UCSORGFRONT
 10
0.0
 20
0.0
 30
0.0
  9
$UCSORGBACK
 10
0.0
 20
0.0
 30
0.0
  9
$PUCSBASE
  2

  9
$PUCSNAME
  2

  9
$PUCSORG
 10
0.0
 20
0.0
 30
0.0
  9
$PUCSXDIR
 10
1.0
 20
0.0
 30
0.0
  9
$PUCSYDIR
 10
0.0
 20
1.0
 30
0.0
  9
$PUCSORTHOREF
  2

  9
$PUCSORTHOVIEW
 70
     0
  9
$PUCSORGTOP
 10
0.0
 20
0.0
 30
0.0
  9
$PUCSORGBOTTOM
 10
0.0
 20
0.0
 30
0.0
  9
$PUCSORGLEFT
 10
0.0
 20
0.0
 30
0.0
  9
$PUCSORGRIGHT
 10
0.0
 20
0.0
 30
0.0
  9
$PUCSORGFRONT
 10
0.0
 20
0.0
 30
0.0
  9
$PUCSORGBACK
 10
0.0
 20
0.0
 30
0.0
  9
$USERI1
 70
     0
  9
$USERI2
 70
     0
  9
$USERI3
 70
     0
  9
$USERI4
 70
     0
  9
$USERI5
 70
     0
  9
$USERR1
 40
13.2
  9
$USERR2
 40
0.0
  9
$USERR3
 40
0.0
  9
$USERR4
 40
0.0
  9
$USERR5
 40
0.0
  9
$WORLDVIEW
 70
     1
  9
$SHADEDGE
 70
     3
  9
$SHADEDIF
 70
    70
  9
$TILEMODE
 70
     1
  9
$MAXACTVP
 70
    64
  9
$PINSBASE
 10
0.0
 20
0.0
 30
0.0
  9
$PLIMCHECK
 70
     0
  9
$PEXTMIN
 10
1.00000000000000E+20
 20
1.00000000000000E+20
 30
1.00000000000000E+20
  9
$PEXTMAX
 10
-1.00000000000000E+20
 20
-1.00000000000000E+20
 30
-1.00000000000000E+20
  9
$PLIMMIN
 10
0.0
 20
0.0
  9
$PLIMMAX
 10
12.0
 20
9.0
  9
$UNITMODE
 70
     0
  9
$VISRETAIN
 70
     1
  9
$PLINEGEN
 70
     0
  9
$PSLTSCALE
 70
     1
  9
$TREEDEPTH
 70
  3020
  9
$CMLSTYLE
  2
Standard
  9
$CMLJUST
 70
     0
  9
$CMLSCALE
 40
1.0
  9
$PROXYGRAPHICS
 70
     1
  9
$MEASUREMENT
 70
     1
  9
$CELWEIGHT
370
    -1
  9
$ENDCAPS
280
     0
  9
$JOINSTYLE
280
     0
  9
$LWDISPLAY
290
     0
  9
$INSUNITS
 70
     1
  9
$HYPERLINKBASE
  1

  9
$STYLESHEET
  1

  9
$XEDIT
290
     1
  9
$CEPSNTYPE
380
     0
  9
$PSTYLEMODE
290
     0
  9
$FINGERPRINTGUID
  2
{FAEB1C30-E019-11D5-929B-00C0DF256EC4}
  9
$VERSIONGUID
  2
{FAEB1C32-E019-11D5-929B-00C0DF256EC4}
  9
$EXTNAMES
290
     1
  9
$PSVPSCALE
 40
0.0
  9
$OLESTARTUP
290
     0
  0
ENDSEC
  0
SECTION
  2
CLASSES
  0
CLASS
  1
ACDBDICTIONARYWDFLT
  2
AcDbDictionaryWithDefault
  3
ObjectDBX Classes
 90
        0
280
     0
281
     0
  0
CLASS
  1
TABLESTYLE
  2
AcDbTableStyle
  3
ObjectDBX Classes
 90
     2047
280
     0
281
     0
  0
CLASS
  1
DICTIONARYVAR
  2
AcDbDictionaryVar
  3
ObjectDBX Classes
 90
        0
280
     0
281
     0
  0
CLASS
  1

  2
exOdDbCircle
  3

 90
        0
280
     0
281
     1
  0
CLASS
  1

  2
exOdDbSpline
  3

 90
        0
280
     0
281
     1
  0
CLASS
  1
ACDBPLACEHOLDER
  2
AcDbPlaceHolder
  3
ObjectDBX Classes
 90
        0
280
     0
281
     0
  0
CLASS
  1
LAYOUT
  2
AcDbLayout
  3
ObjectDBX Classes
 90
        0
280
     0
281
     0
  0
ENDSEC
  0
SECTION
  2
TABLES
  0
TABLE
  2
VPORT
  5
8
330
0
100
AcDbSymbolTable
 70
     2
  0
VPORT
  5
29
330
8
100
AcDbSymbolTableRecord
100
AcDbViewportTableRecord
  2
*Active
 70
     0
 10
0.0
 20
0.0
 11
1.0
 21
1.0
 12
157.5
 22
222.75
 13
0.0
 23
0.0
 14
0.5
 24
0.5
 15
0.5
 25
0.5
 16
0.0
 26
0.0
 36
1.0
 17
0.0
 27
0.0
 37
0.0
 40
490.05
 41
1.60267857142857
 42
50.0
 43
0.0
 44
0.0
 50
0.0
 51
0.0
 71
     0
 72
   100
 73
     1
 74
     3
 75
     0
 76
     0
 77
     0
 78
     0
281
     0
 65
     1
110
0.0
120
0.0
130
0.0
111
1.0
121
0.0
131
0.0
112
0.0
122
1.0
132
0.0
 79
     0
146
0.0
  0
ENDTAB
  0
TABLE
  2
LTYPE
  5
5
330
0
100
AcDbSymbolTable
 70
     8
  0
LTYPE
  5
14
330
5
100
AcDbSymbolTableRecord
100
AcDbLinetypeTableRecord
  2
ByBlock
 70
     0
  3

 72
    65
 73
     0
 40
0.0
  0
LTYPE
  5
15
330
5
100
AcDbSymbolTableRecord
100
AcDbLinetypeTableRecord
  2
ByLayer
 70
     0
  3

 72
    65
 73
     0
 40
0.0
  0
LTYPE
  5
16
330
5
100
AcDbSymbolTableRecord
100
AcDbLinetypeTableRecord
  2
Continuous
 70
     0
  3
Solid line
 72
    65
 73
     0
 40
0.0
  0
LTYPE
  5
2E
330
5
100
AcDbSymbolTableRecord
100
AcDbLinetypeTableRecord
  2
DASHED
 70
     0
  3
Dashed
 72
    65
 73
     2
 40
15.0
 49
7.0
 74
     0
 49
-8.0
 74
     0
  0
LTYPE
  5
2F
330
5
100
AcDbSymbolTableRecord
100
AcDbLinetypeTableRecord
  2
DOTTED
 70
     0
  3
Dotted
 72
    65
 73
     2
 40
1.0
 49
0.0
 74
     0
 49
-1.0
 74
     0
  0
LTYPE
  5
30
330
5
100
AcDbSymbolTableRecord
100
AcDbLinetypeTableRecord
  2
DOT_CENTER
 70
     0
  3
Dot_Center
 72
    65
 73
     4
 40
14.0
 49
12.0
 74
     0
 49
-1.0
 74
     0
 49
0.0
 74
     0
 49
-1.0
 74
     0
  0
LTYPE
  5
31
330
5
100
AcDbSymbolTableRecord
100
AcDbLinetypeTableRecord
  2
LONG_DASHED
 70
     0
  3
Long_Dashed
 72
    65
 73
     2
 40
15.0
 49
10.0
 74
     0
 49
-5.0
 74
     0
  0
LTYPE
  5
32
330
5
100
AcDbSymbolTableRecord
100
AcDbLinetypeTableRecord
  2
DASH_CENTER
 70
     0
  3
Dash_Center
 72
    65
 73
     4
 40
14.0
 49
11.0
 74
     0
 49
-1.0
 74
     0
 49
1.0
 74
     0
 49
-1.0
 74
     0
  0
LTYPE
  5
33
330
5
100
AcDbSymbolTableRecord
100
AcDbLinetypeTableRecord
  2
PHANTOM
 70
     0
  3
Phantom
 72
    65
 73
     6
 40
13.0
 49
10.0
 74
     0
 49
-1.0
 74
     0
 49
0.0
 74
     0
 49
-1.0
 74
     0
 49
0.0
 74
     0
 49
-1.0
 74
     0
  0
LTYPE
  5
34
330
5
100
AcDbSymbolTableRecord
100
AcDbLinetypeTableRecord
  2
CENTER_DASH_DASH
 70
     0
  3
Center_Dash_Dash
 72
    65
 73
     6
 40
14.0
 49
9.0
 74
     0
 49
-1.0
 74
     0
 49
1.0
 74
     0
 49
-1.0
 74
     0
 49
1.0
 74
     0
 49
-1.0
 74
     0
  0
ENDTAB
  0
TABLE
  2
LAYER
  5
2
330
0
100
AcDbSymbolTable
 70
     2
  0
LAYER
  5
10
330
2
100
AcDbSymbolTableRecord
100
AcDbLayerTableRecord
  2
0
 70
     0
 62
     7
  6
Continuous
370
    -3
390
F
  0
LAYER
  5
35
330
2
100
AcDbSymbolTableRecord
100
AcDbLayerTableRecord
  2
1
 70
     0
 62
     7
  6
Continuous
370
    -3
390
F
  0
ENDTAB
  0
TABLE
  2
STYLE
  5
3
330
0
100
AcDbSymbolTable
 70
     3
  0
STYLE
  5
11
330
3
100
AcDbSymbolTableRecord
100
AcDbTextStyleTableRecord
  2
Standard
 70
     0
 40
0.0
 41
1.0
 50
0.0
 71
     0
 42
0.2
  3
txt
  4

  0
STYLE
  5
AD
330
3
100
AcDbSymbolTableRecord
100
AcDbTextStyleTableRecord
  2
CONVERTER_1
 70
     0
 40
0.0
 41
0.89
 50
0.0
 71
     0
 42
0.2
  3
msmincho.ttc
  4

1001
ACAD
1000
MS Mincho
1071
    32785
  0
STYLE
  5
23C
330
3
100
AcDbSymbolTableRecord
100
AcDbTextStyleTableRecord
  2
CONVERTER_2
 70
     0
 40
0.0
 41
0.9
 50
0.0
 71
     0
 42
0.2
  3
txt.shx
  4

  0
ENDTAB
  0
TABLE
  2
VIEW
  5
6
330
0
100
AcDbSymbolTable
 70
     0
  0
ENDTAB
  0
TABLE
  2
UCS
  5
7
330
0
100
AcDbSymbolTable
 70
     0
  0
ENDTAB
  0
TABLE
  2
APPID
  5
9
330
0
100
AcDbSymbolTable
 70
     1
  0
APPID
  5
12
330
9
100
AcDbSymbolTableRecord
100
AcDbRegAppTableRecord
  2
ACAD
 70
     0
  0
ENDTAB
  0
TABLE
  2
DIMSTYLE
  5
A
330
0
100
AcDbSymbolTable
 70
     7
100
AcDbDimStyleTable
  0
DIMSTYLE
105
27
330
A
100
AcDbSymbolTableRecord
100
AcDbDimStyleTableRecord
  2
Standard
 70
     0
340
11
  0
DIMSTYLE
105
24D
102
{ACAD_REACTORS
330
24E
102
}
330
A
100
AcDbSymbolTableRecord
100
AcDbDimStyleTableRecord
  2
ME10_DIM_0
 70
     0
 41
5.25
 42
0.0
 44
1.5
 73
     0
 74
     0
 77
     1
 78
     8
140
5.25
147
0.625
172
     1
173
     1
176
     2
177
     2
178
     7
271
     2
340
23C
  0
DIMSTYLE
105
259
102
{ACAD_REACTORS
330
25A
102
}
330
A
100
AcDbSymbolTableRecord
100
AcDbDimStyleTableRecord
  2
ME10_DIM_1
 70
     0
  3
{\Fgdt;n}<>
 41
5.25
 42
0.0
 44
1.5
 73
     0
 74
     0
 77
     1
 78
     8
140
5.25
147
0.625
172
     1
173
     1
176
     2
177
     2
178
     7
271
     2
340
23C
  0
DIMSTYLE
105
264
102
{ACAD_REACTORS
330
265
102
}
330
A
100
AcDbSymbolTableRecord
100
AcDbDimStyleTableRecord
  2
ME10_DIM_2
 70
     0
  3
{\Fgdt;n}<>
 41
5.25
 42
0.0
 44
1.5
 73
     0
 74
     0
 77
     1
 78
     8
140
5.25
147
0.625
172
     1
173
     1
176
     2
177
     2
178
     7
271
     2
340
23C
  0
DIMSTYLE
105
26F
102
{ACAD_REACTORS
330
270
102
}
330
A
100
AcDbSymbolTableRecord
100
AcDbDimStyleTableRecord
  2
ME10_DIM_3
 70
     0
 41
5.25
 42
0.0
 44
1.5
 73
     0
 74
     0
 77
     1
 78
     8
140
5.25
147
0.625
172
     1
173
     1
176
     2
177
     2
178
     7
271
     2
340
23C
  0
DIMSTYLE
105
27A
102
{ACAD_REACTORS
330
27B
102
}
330
A
100
AcDbSymbolTableRecord
100
AcDbDimStyleTableRecord
  2
ME10_DIM_4
 70
     0
 41
5.25
 42
0.0
 44
1.5
 73
     0
 74
     0
 77
     1
 78
     8
140
5.25
147
0.625
172
     1
173
     1
176
     2
177
     2
178
     7
271
     2
340
23C
  0
DIMSTYLE
105
285
102
{ACAD_REACTORS
330
286
102
}
330
A
100
AcDbSymbolTableRecord
100
AcDbDimStyleTableRecord
  2
ME10_DIM_5
 70
     0
 41
5.25
 42
0.0
 44
1.5
 73
     0
 74
     0
 77
     1
 78
     8
140
5.25
147
0.625
172
     1
173
     1
176
     2
177
     2
178
     7
271
     2
340
23C
  0
ENDTAB
  0
TABLE
  2
BLOCK_RECORD
  5
1
330
0
100
AcDbSymbolTable
 70
    18
  0
BLOCK_RECORD
  5
1F
330
1
100
AcDbSymbolTableRecord
100
AcDbBlockTableRecord
  2
*Model_Space
340
22
  0
BLOCK_RECORD
  5
1B
330
1
100
AcDbSymbolTableRecord
100
AcDbBlockTableRecord
  2
*Paper_Space
340
1E
  0
BLOCK_RECORD
  5
23
330
1
100
AcDbSymbolTableRecord
100
AcDbBlockTableRecord
  2
*Paper_Space0
340
26
  0
BLOCK_RECORD
  5
36
330
1
100
AcDbSymbolTableRecord
100
AcDbBlockTableRecord
  2
_J__A4
340
0
102
{BLKREFS
331
5A
102
}
  0
BLOCK_RECORD
  5
39
330
1
100
AcDbSymbolTableRecord
100
AcDbBlockTableRecord
  2
81-93A
340
0
102
{BLKREFS
331
3D
102
}
  0
BLOCK_RECORD
  5
3C
330
1
100
AcDbSymbolTableRecord
100
AcDbBlockTableRecord
  2
81-93AX
340
0
102
{BLKREFS
331
5B
102
}
  0
BLOCK_RECORD
  5
40
330
1
100
AcDbSymbolTableRecord
100
AcDbBlockTableRecord
  2
88-249
340
0
102
{BLKREFS
331
44
102
}
  0
BLOCK_RECORD
  5
43
330
1
100
AcDbSymbolTableRecord
100
AcDbBlockTableRecord
  2
88-249X__1
340
0
102
{BLKREFS
331
5C
102
}
  0
BLOCK_RECORD
  5
47
330
1
100
AcDbSymbolTableRecord
100
AcDbBlockTableRecord
  2
33-147
340
0
102
{BLKREFS
331
5D
102
}
  0
BLOCK_RECORD
  5
4A
330
1
100
AcDbSymbolTableRecord
100
AcDbBlockTableRecord
  2
81-100X-W-4
340
0
102
{BLKREFS
331
5E
102
}
  0
BLOCK_RECORD
  5
4D
330
1
100
AcDbSymbolTableRecord
100
AcDbBlockTableRecord
  2
32-178
340
0
102
{BLKREFS
331
5F
102
}
  0
BLOCK_RECORD
  5
50
330
1
100
AcDbSymbolTableRecord
100
AcDbBlockTableRecord
  2
30-139A
340
0
102
{BLKREFS
331
60
102
}
  0
BLOCK_RECORD
  5
53
330
1
100
AcDbSymbolTableRecord
100
AcDbBlockTableRecord
  2
84-177
340
0
102
{BLKREFS
331
57
102
}
  0
BLOCK_RECORD
  5
56
330
1
100
AcDbSymbolTableRecord
100
AcDbBlockTableRecord
  2
88-249X__2
340
0
102
{BLKREFS
331
61
102
}
  0
BLOCK_RECORD
  5
244
330
1
100
AcDbSymbolTableRecord
100
AcDbBlockTableRecord
  2
*D012
340
0
  0
BLOCK_RECORD
  5
24F
330
1
100
AcDbSymbolTableRecord
100
AcDbBlockTableRecord
  2
*D113
340
0
  0
BLOCK_RECORD
  5
25B
330
1
100
AcDbSymbolTableRecord
100
AcDbBlockTableRecord
  2
*D214
340
0
  0
BLOCK_RECORD
  5
266
330
1
100
AcDbSymbolTableRecord
100
AcDbBlockTableRecord
  2
*D315
340
0
  0
BLOCK_RECORD
  5
271
330
1
100
AcDbSymbolTableRecord
100
AcDbBlockTableRecord
  2
*D416
340
0
  0
BLOCK_RECORD
  5
27C
330
1
100
AcDbSymbolTableRecord
100
AcDbBlockTableRecord
  2
*D517
340
0
  0
ENDTAB
  0
ENDSEC
  0
SECTION
  2
BLOCKS
  0
BLOCK
  5
20
330
1F
100
AcDbEntity
  8
0
100
AcDbBlockBegin
  2
*Model_Space
 70
     0
 71
     0
 10
0.0
 20
0.0
 30
0.0
  3
*Model_Space
  1

  0
ENDBLK
  5
21
330
1F
100
AcDbEntity
  8
0
100
AcDbBlockEnd
  0
BLOCK
  5
1C
330
1B
100
AcDbEntity
 67
     1
  8
0
100
AcDbBlockBegin
  2
*Paper_Space
 70
     0
 71
     0
 10
0.0
 20
0.0
 30
0.0
  3
*Paper_Space
  1

  0
ENDBLK
  5
1D
330
1B
100
AcDbEntity
 67
     1
  8
0
100
AcDbBlockEnd
  0
BLOCK
  5
24
330
23
100
AcDbEntity
  8
0
100
AcDbBlockBegin
  2
*Paper_Space0
 70
     0
 71
     0
 10
0.0
 20
0.0
 30
0.0
  3
*Paper_Space0
  1

  0
ENDBLK
  5
25
330
23
100
AcDbEntity
  8
0
100
AcDbBlockEnd
  0
BLOCK
  5
37
330
36
100
AcDbEntity
  8
0
100
AcDbBlockBegin
  2
_J__A4
 70
     0
 71
     0
 10
0.0
 20
0.0
 30
0.0
  3
_J__A4
  1

  0
POINT
  5
62
330
36
100
AcDbEntity
  8
1
 62
     4
100
AcDbPoint
 10
34.0
 20
34.00000000000001
 30
0.0
  0
POINT
  5
63
330
36
100
AcDbEntity
  8
1
 62
     4
100
AcDbPoint
 10
57.0
 20
12.25
 30
0.0
  0
POINT
  5
64
330
36
100
AcDbEntity
  8
1
 62
     4
100
AcDbPoint
 10
57.0
 20
20.75000000000001
 30
0.0
  0
POINT
  5
65
330
36
100
AcDbEntity
  8
1
 62
     4
100
AcDbPoint
 10
57.0
 20
24.75000000000001
 30
0.0
  0
POINT
  5
66
330
36
100
AcDbEntity
  8
1
 62
     4
100
AcDbPoint
 10
57.0
 20
16.25
 30
0.0
  0
POINT
  5
67
330
36
100
AcDbEntity
  8
1
 62
     4
100
AcDbPoint
 10
157.5
 20
19.00000000000001
 30
0.0
  0
POINT
  5
68
330
36
100
AcDbEntity
  8
1
 62
     4
100
AcDbPoint
 10
47.5
 20
282.0000000000003
 30
0.0
  0
POINT
  5
69
330
36
100
AcDbEntity
  8
1
 62
     4
100
AcDbPoint
 10
57.0
 20
22.75000000000001
 30
0.0
  0
POINT
  5
6A
330
36
100
AcDbEntity
  8
1
 62
     4
100
AcDbPoint
 10
57.0
 20
14.25
 30
0.0
  0
POINT
  5
6B
330
36
100
AcDbEntity
  8
1
 62
     4
100
AcDbPoint
 10
157.5
 20
12.5
 30
0.0
  0
POINT
  5
6C
330
36
100
AcDbEntity
  8
1
 62
     4
100
AcDbPoint
 10
163.25
 20
12.5
 30
0.0
  0
POINT
  5
6D
330
36
100
AcDbEntity
  8
1
 62
     4
100
AcDbPoint
 10
151.75
 20
12.5
 30
0.0
  0
POINT
  5
6E
330
36
100
AcDbEntity
  8
1
 62
     4
100
AcDbPoint
 10
134.75
 20
12.5
 30
0.0
  0
POINT
  5
6F
330
36
100
AcDbEntity
  8
1
 62
     4
100
AcDbPoint
 10
146.25
 20
12.5
 30
0.0
  0
POINT
  5
70
330
36
100
AcDbEntity
  8
1
 62
     4
100
AcDbPoint
 10
140.5
 20
12.5
 30
0.0
  0
POINT
  5
71
330
36
100
AcDbEntity
  8
1
 62
     4
100
AcDbPoint
 10
140.5
 20
19.00000000000001
 30
0.0
  0
POINT
  5
72
330
36
100
AcDbEntity
  8
1
 62
     4
100
AcDbPoint
 10
117.75
 20
12.5
 30
0.0
  0
POINT
  5
73
330
36
100
AcDbEntity
  8
1
 62
     4
100
AcDbPoint
 10
129.25
 20
12.5
 30
0.0
  0
POINT
  5
74
330
36
100
AcDbEntity
  8
1
 62
     4
100
AcDbPoint
 10
123.5
 20
12.5
 30
0.0
  0
POINT
  5
75
330
36
100
AcDbEntity
  8
1
 62
     4
100
AcDbPoint
 10
123.5
 20
19.00000000000001
 30
0.0
  0
POINT
  5
76
330
36
100
AcDbEntity
  8
1
 62
     4
100
AcDbPoint
 10
100.75
 20
12.5
 30
0.0
  0
POINT
  5
77
330
36
100
AcDbEntity
  8
1
 62
     4
100
AcDbPoint
 10
112.25
 20
12.5
 30
0.0
  0
POINT
  5
78
330
36
100
AcDbEntity
  8
1
 62
     4
100
AcDbPoint
 10
106.5
 20
12.5
 30
0.0
  0
POINT
  5
79
330
36
100
AcDbEntity
  8
1
 62
     4
100
AcDbPoint
 10
106.5
 20
19.00000000000001
 30
0.0
  0
POINT
  5
7A
330
36
100
AcDbEntity
  8
1
 62
     4
100
AcDbPoint
 10
85.25
 20
17.0
 30
0.0
  0
POINT
  5
7B
330
36
100
AcDbEntity
  8
1
 62
     4
100
AcDbPoint
 10
93.75
 20
17.0
 30
0.0
  0
LINE
  5
7C
330
36
100
AcDbEntity
  8
1
  6
Continuous
 62
     2
100
AcDbLine
 10
81.0
 20
27.00000000000001
 30
0.0
 11
81.0
 21
10.0
 31
0.0
  0
LINE
  5
7D
330
36
100
AcDbEntity
  8
1
  6
DOT_CENTER
 62
     2
100
AcDbLine
 10
187.0
 20
26.50000000000001
 30
0.0
 11
187.0
 21
20.50000000000001
 31
0.0
  0
LINE
  5
7E
330
36
100
AcDbEntity
  8
1
  6
DOT_CENTER
 62
     2
100
AcDbLine
 10
184.0
 20
23.50000000000001
 30
0.0
 11
197.0
 21
23.50000000000001
 31
0.0
  0
LINE
  5
7F
330
36
100
AcDbEntity
  8
1
  6
Continuous
 62
     7
100
AcDbLine
 10
196.0
 20
21.50000000000001
 30
0.0
 11
191.0
 21
22.30000000000001
 31
0.0
  0
LINE
  5
80
330
36
100
AcDbEntity
  8
1
  6
Continuous
 62
     7
100
AcDbLine
 10
196.0
 20
25.50000000000001
 30
0.0
 11
196.0
 21
21.50000000000001
 31
0.0
  0
LINE
  5
81
330
36
100
AcDbEntity
  8
1
  6
Continuous
 62
     7
100
AcDbLine
 10
191.0
 20
24.70000000000001
 30
0.0
 11
196.0
 21
25.50000000000001
 31
0.0
  0
LINE
  5
82
330
36
100
AcDbEntity
  8
1
  6
Continuous
 62
     7
100
AcDbLine
 10
191.0
 20
24.70000000000001
 30
0.0
 11
191.0
 21
22.30000000000001
 31
0.0
  0
LINE
  5
83
330
36
100
AcDbEntity
  8
1
  6
Continuous
 62
     2
100
AcDbLine
 10
33.0
 20
27.0
 30
0.0
 11
33.0
 21
10.0
 31
0.0
  0
LINE
  5
84
330
36
100
AcDbEntity
  8
1
  6
Continuous
 62
     2
100
AcDbLine
 10
25.0
 20
18.50000000000001
 30
0.0
 11
81.0
 21
18.50000000000001
 31
0.0
  0
LINE
  5
85
330
36
100
AcDbEntity
  8
1
  6
Continuous
 62
     7
100
AcDbLine
 10
200.0
 20
287.0000000000003
 30
0.0
 11
105.0
 21
287.0000000000003
 31
0.0
  0
LINE
  5
86
330
36
100
AcDbEntity
  8
1
  6
Continuous
 62
     7
100
AcDbLine
 10
200.0
 20
10.0
 30
0.0
 11
200.0
 21
148.5
 31
0.0
  0
LINE
  5
87
330
36
100
AcDbEntity
  8
1
  6
Continuous
 62
     7
100
AcDbLine
 10
25.0
 20
10.0
 30
0.0
 11
105.0
 21
10.0
 31
0.0
  0
LINE
  5
88
330
36
100
AcDbEntity
  8
1
  6
PHANTOM
 62
     4
100
AcDbLine
 10
0.0
 20
297.0
 30
0.0
 11
0.0
 21
0.0
 31
0.0
  0
LINE
  5
89
330
36
100
AcDbEntity
  8
1
  6
PHANTOM
 62
     4
100
AcDbLine
 10
210.0
 20
297.0
 30
0.0
 11
0.0
 21
297.0
 31
0.0
  0
LINE
  5
8A
330
36
100
AcDbEntity
  8
1
  6
PHANTOM
 62
     4
100
AcDbLine
 10
210.0
 20
0.0
 30
0.0
 11
210.0
 21
297.0
 31
0.0
  0
LINE
  5
8B
330
36
100
AcDbEntity
  8
1
  6
PHANTOM
 62
     4
100
AcDbLine
 10
0.0
 20
0.0
 30
0.0
 11
210.0
 21
0.0
 31
0.0
  0
LINE
  5
8C
330
36
100
AcDbEntity
  8
1
  6
Continuous
 62
     7
100
AcDbLine
 10
25.0
 20
41.0
 30
0.0
 11
200.0
 21
41.0
 31
0.0
  0
LINE
  5
8D
330
36
100
AcDbEntity
  8
1
  6
Continuous
 62
     7
100
AcDbLine
 10
200.0
 20
27.00000000000001
 30
0.0
 11
25.0
 21
27.00000000000001
 31
0.0
  0
LINE
  5
8E
330
36
100
AcDbEntity
  8
1
  6
Continuous
 62
     2
100
AcDbLine
 10
33.0
 20
41.00000000000001
 30
0.0
 11
33.0
 21
27.0
 31
0.0
  0
LINE
  5
8F
330
36
100
AcDbEntity
  8
1
  6
Continuous
 62
     2
100
AcDbLine
 10
55.0
 20
287.0000000000003
 30
0.0
 11
55.0
 21
277.0000000000003
 31
0.0
  0
LINE
  5
90
330
36
100
AcDbEntity
  8
1
  6
Continuous
 62
     2
100
AcDbLine
 10
40.0
 20
287.0000000000003
 30
0.0
 11
40.0
 21
277.0000000000003
 31
0.0
  0
LINE
  5
91
330
36
100
AcDbEntity
  8
1
  6
Continuous
 62
     7
100
AcDbLine
 10
25.0
 20
10.0
 30
0.0
 11
25.0
 21
148.5
 31
0.0
  0
LINE
  5
92
330
36
100
AcDbEntity
  8
1
  6
Continuous
 62
     2
100
AcDbLine
 10
55.0
 20
277.0000000000003
 30
0.0
 11
25.0
 21
277.0000000000003
 31
0.0
  0
LINE
  5
93
330
36
100
AcDbEntity
  8
1
  6
Continuous
 62
     2
100
AcDbLine
 10
166.0
 20
27.00000000000001
 30
0.0
 11
166.0
 21
10.0
 31
0.0
  0
LINE
  5
94
330
36
100
AcDbEntity
  8
1
  6
Continuous
 62
     2
100
AcDbLine
 10
132.0
 20
27.00000000000001
 30
0.0
 11
132.0
 21
9.99999999999999
 31
0.0
  0
LINE
  5
95
330
36
100
AcDbEntity
  8
1
  6
Continuous
 62
     2
100
AcDbLine
 10
149.0
 20
27.00000000000001
 30
0.0
 11
149.0
 21
10.0
 31
0.0
  0
LINE
  5
96
330
36
100
AcDbEntity
  8
1
  6
Continuous
 62
     2
100
AcDbLine
 10
115.0
 20
27.00000000000001
 30
0.0
 11
115.0
 21
9.99999999999999
 31
0.0
  0
LINE
  5
97
330
36
100
AcDbEntity
  8
1
  6
Continuous
 62
     2
100
AcDbLine
 10
98.0
 20
27.00000000000001
 30
0.0
 11
98.0
 21
9.99999999999999
 31
0.0
  0
LINE
  5
98
330
36
100
AcDbEntity
  8
1
  6
Continuous
 62
     2
100
AcDbLine
 10
166.0
 20
20.00000000000001
 30
0.0
 11
200.0
 21
20.00000000000001
 31
0.0
  0
LINE
  5
99
330
36
100
AcDbEntity
  8
1
  6
Continuous
 62
     2
100
AcDbLine
 10
105.0
 20
287.0000000000003
 30
0.0
 11
105.0
 21
292.0000000000003
 31
0.0
  0
LINE
  5
9A
330
36
100
AcDbEntity
  8
1
  6
Continuous
 62
     7
100
AcDbLine
 10
105.0
 20
287.0000000000003
 30
0.0
 11
25.0
 21
287.0000000000003
 31
0.0
  0
LINE
  5
9B
330
36
100
AcDbEntity
  8
1
  6
Continuous
 62
     2
100
AcDbLine
 10
25.0
 20
148.5
 30
0.0
 11
20.0
 21
148.5
 31
0.0
  0
LINE
  5
9C
330
36
100
AcDbEntity
  8
1
  6
Continuous
 62
     7
100
AcDbLine
 10
25.0
 20
148.5
 30
0.0
 11
25.0
 21
287.0000000000003
 31
0.0
  0
LINE
  5
9D
330
36
100
AcDbEntity
  8
1
  6
Continuous
 62
     2
100
AcDbLine
 10
200.0
 20
148.5
 30
0.0
 11
205.0
 21
148.5
 31
0.0
  0
LINE
  5
9E
330
36
100
AcDbEntity
  8
1
  6
Continuous
 62
     7
100
AcDbLine
 10
200.0
 20
148.5
 30
0.0
 11
200.0
 21
287.0000000000003
 31
0.0
  0
LINE
  5
9F
330
36
100
AcDbEntity
  8
1
  6
Continuous
 62
     2
100
AcDbLine
 10
105.0
 20
10.0
 30
0.0
 11
105.0
 21
5.0
 31
0.0
  0
LINE
  5
A0
330
36
100
AcDbEntity
  8
1
  6
Continuous
 62
     7
100
AcDbLine
 10
105.0
 20
10.0
 30
0.0
 11
200.0
 21
10.0
 31
0.0
  0
CIRCLE
  5
A1
330
36
100
AcDbEntity
  8
1
  6
DOT_CENTER
 62
     7
100
AcDbCircle
 10
89.5
 20
18.0
 30
0.0
 40
0.1000000000000227
  0
CIRCLE
  5
A2
330
36
100
AcDbEntity
  8
1
  6
DOT_CENTER
 62
     7
100
AcDbCircle
 10
89.5
 20
16.0
 30
0.0
 40
0.1000000000000227
  0
CIRCLE
  5
A3
330
36
100
AcDbEntity
  8
1
  6
Continuous
 62
     7
100
AcDbCircle
 10
187.0
 20
23.50000000000001
 30
0.0
 40
2.0
  0
CIRCLE
  5
A4
330
36
100
AcDbEntity
  8
1
  6
Continuous
 62
     7
100
AcDbCircle
 10
187.0
 20
23.50000000000001
 30
0.0
 40
1.200000000000102
  0
CIRCLE
  5
A5
330
36
100
AcDbEntity
  8
1
  6
Continuous
 62
     7
100
AcDbCircle
 10
154.5
 20
12.5
 30
0.0
 40
0.3000000000000114
  0
CIRCLE
  5
A6
330
36
100
AcDbEntity
  8
1
  6
Continuous
 62
     7
100
AcDbCircle
 10
160.5
 20
12.5
 30
0.0
 40
0.3000000000000114
  0
CIRCLE
  5
A7
330
36
100
AcDbEntity
  8
1
  6
Continuous
 62
     7
100
AcDbCircle
 10
143.5
 20
12.5
 30
0.0
 40
0.3000000000000114
  0
CIRCLE
  5
A8
330
36
100
AcDbEntity
  8
1
  6
Continuous
 62
     7
100
AcDbCircle
 10
137.5
 20
12.5
 30
0.0
 40
0.3000000000000114
  0
CIRCLE
  5
A9
330
36
100
AcDbEntity
  8
1
  6
Continuous
 62
     7
100
AcDbCircle
 10
126.5
 20
12.5
 30
0.0
 40
0.2999999999999972
  0
CIRCLE
  5
AA
330
36
100
AcDbEntity
  8
1
  6
Continuous
 62
     7
100
AcDbCircle
 10
120.5
 20
12.5
 30
0.0
 40
0.2999999999999972
  0
CIRCLE
  5
AB
330
36
100
AcDbEntity
  8
1
  6
Continuous
 62
     7
100
AcDbCircle
 10
109.5
 20
12.5
 30
0.0
 40
0.2999999999999972
  0
CIRCLE
  5
AC
330
36
100
AcDbEntity
  8
1
  6
Continuous
 62
     7
100
AcDbCircle
 10
103.5
 20
12.5
 30
0.0
 40
0.2999999999999972
  0
MTEXT
  5
AE
330
36
100
AcDbEntity
  8
1
 62
   250
100
AcDbMText
 10
25.0
 20
5.0
 30
0.0
 40
3.5
 41
0.0
 71
     4
 72
     1
  1
備考欄の文字列 原点位置=4
  7
CONVERTER_1
 73
     1
 44
0.7202881152461
  0
MTEXT
  5
AF
330
36
100
AcDbEntity
  8
1
 62
     2
100
AcDbMText
 10
89.5
 20
24.00000000000001
 30
0.0
 40
3.5
 41
0.0
 71
     5
 72
     1
  1
尺度
  7
CONVERTER_1
 73
     1
 44
0.7202881152461
  0
MTEXT
  5
B0
330
36
100
AcDbEntity
  8
1
 62
     2
100
AcDbMText
 10
135.5
 20
25.00000000000001
 30
0.0
 40
3.0
 41
0.0
 71
     5
 72
     1
  1
製図
  7
CONVERTER_1
 73
     1
 44
0.78031212484994
  0
MTEXT
  5
B1
330
36
100
AcDbEntity
  8
1
 62
     2
100
AcDbMText
 10
152.5
 20
25.00000000000001
 30
0.0
 40
3.0
 41
0.0
 71
     5
 72
     1
  1
設計
  7
CONVERTER_1
 73
     1
 44
0.78031212484994
  0
MTEXT
  5
B2
330
36
100
AcDbEntity
  8
1
 62
     2
100
AcDbMText
 10
118.5
 20
25.00000000000001
 30
0.0
 40
3.0
 41
0.0
 71
     5
 72
     1
  1
検図
  7
CONVERTER_1
 73
     1
 44
0.78031212484994
  0
MTEXT
  5
B3
330
36
100
AcDbEntity
  8
1
 62
     2
100
AcDbMText
 10
175.0
 20
23.50000000000001
 30
0.0
 40
3.5
 41
0.0
 71
     5
 72
     1
  1
第三角法
  7
CONVERTER_1
 73
     1
 44
0.7202881152461
  0
MTEXT
  5
B4
330
36
100
AcDbEntity
  8
1
 62
     2
100
AcDbMText
 10
101.5
 20
25.00000000000001
 30
0.0
 40
3.0
 41
0.0
 71
     5
 72
     1
  1
承認
  7
CONVERTER_1
 73
     1
 44
0.78031212484994
  0
MTEXT
  5
B5
330
36
100
AcDbEntity
  8
1
 62
     2
100
AcDbMText
 10
29.0
 20
14.25
 30
0.0
 40
3.5
 41
0.0
 71
     5
 72
     1
  1
品番
  7
CONVERTER_1
 73
     1
 44
0.96038415366146
  0
MTEXT
  5
B6
330
36
100
AcDbEntity
  8
1
 62
     2
100
AcDbMText
 10
29.0
 20
22.75
 30
0.0
 40
3.5
 41
0.0
 71
     5
 72
     1
  1
品名
  7
CONVERTER_1
 73
     1
 44
0.96038415366146
  0
MTEXT
  5
B7
330
36
100
AcDbEntity
  8
1
 62
     2
100
AcDbMText
 10
29.0
 20
34.00000000000001
 30
0.0
 40
3.5
 41
0.0
 71
     5
 72
     1
  1
備考
  7
CONVERTER_1
 73
     1
 44
0.60024009603842
  0
MTEXT
  5
B8
330
36
100
AcDbEntity
  8
1
 62
     2
100
AcDbMText
 10
32.5
 20
282.0000000000003
 30
0.0
 40
5.0
 41
0.0
 71
     5
 72
     1
  1
図番
  7
CONVERTER_1
 73
     1
 44
0.60024009603842
  0
MTEXT
  5
B9
330
36
100
AcDbEntity
  8
1
 62
     7
100
AcDbMText
 10
171.5
 20
15.0
 30
0.0
 40
2.5
 41
0.0
 71
     5
 72
     1
  1
株式会社
  7
CONVERTER_1
 73
     1
 44
1.32052821128451
  0
MTEXT
  5
BA
330
36
100
AcDbEntity
  8
1
 62
     7
100
AcDbMText
 10
188.5
 20
15.0
 30
0.0
 40
3.0
 41
0.0
 71
     5
 72
     1
  1
三栄水栓製作所
  7
CONVERTER_1
 73
     1
 44
1.32052821128451
  0
ENDBLK
  5
38
330
36
100
AcDbEntity
  8
0
100
AcDbBlockEnd
  0
BLOCK
  5
3A
330
39
100
AcDbEntity
  8
0
100
AcDbBlockBegin
  2
81-93A
 70
     0
 71
     0
 10
632.0830452281496
 20
173.0106491186841
 30
0.0
  3
81-93A
  1

  0
LINE
  5
BB
330
39
100
AcDbEntity
  8
0
  6
Continuous
 62
     7
100
AcDbLine
 10
260.3587594321716
 20
284.7661691305469
 30
0.0
 11
260.3587594321716
 21
284.0661691305469
 31
0.0
  0
LINE
  5
BC
330
39
100
AcDbEntity
  8
0
  6
Continuous
 62
     7
100
AcDbLine
 10
263.4570621728373
 20
284.7661691305469
 30
0.0
 11
263.4570621728373
 21
284.0661691305469
 31
0.0
  0
LINE
  5
BD
330
39
100
AcDbEntity
  8
0
  6
Continuous
 62
     7
100
AcDbLine
 10
260.3587594321716
 20
288.7661691305472
 30
0.0
 11
260.3587594321716
 21
289.4661691305471
 31
0.0
  0
LINE
  5
BE
330
39
100
AcDbEntity
  8
0
  6
Continuous
 62
     7
100
AcDbLine
 10
263.4570621728373
 20
288.7661691305472
 30
0.0
 11
263.4570621728373
 21
289.4661691305471
 31
0.0
  0
LINE
  5
BF
330
39
100
AcDbEntity
  8
0
  6
Continuous
 62
     7
100
AcDbLine
 10
263.4570621728373
 20
289.4661691305471
 30
0.0
 11
253.8804042965624
 21
289.4661691305473
 31
0.0
  0
LINE
  5
C0
330
39
100
AcDbEntity
  8
0
  6
Continuous
 62
     7
100
AcDbLine
 10
260.9643713272415
 20
288.7661691305472
 30
0.0
 11
260.9643713272415
 21
287.266169130547
 31
0.0
  0
LINE
  5
C1
330
39
100
AcDbEntity
  8
0
  6
Continuous
 62
     7
100
AcDbLine
 10
260.9643713272415
 20
286.266169130547
 30
0.0
 11
260.9643713272415
 21
284.766169130547
 31
0.0
  0
LINE
  5
C2
330
39
100
AcDbEntity
  8
0
  6
Continuous
 62
     7
100
AcDbLine
 10
261.2265140332787
 20
287.266169130547
 30
0.0
 11
261.2265140332787
 21
286.266169130547
 31
0.0
  0
LINE
  5
C3
330
39
100
AcDbEntity
  8
0
  6
Continuous
 62
     7
100
AcDbLine
 10
264.5504102965627
 20
288.7661691305472
 30
0.0
 11
264.7504102965627
 21
288.5661691305471
 31
0.0
  0
LINE
  5
C4
330
39
100
AcDbEntity
  8
0
  6
Continuous
 62
     7
100
AcDbLine
 10
264.7504102965627
 20
284.966169130547
 30
0.0
 11
264.5504102965627
 21
284.766169130547
 31
0.0
  0
LINE
  5
C5
330
39
100
AcDbEntity
  8
0
  6
Continuous
 62
     7
100
AcDbLine
 10
264.7504102965627
 20
288.5661691305471
 30
0.0
 11
264.7504102965627
 21
284.966169130547
 31
0.0
  0
LINE
  5
C6
330
39
100
AcDbEntity
  8
0
  6
Continuous
 62
     7
100
AcDbLine
 10
263.4570621728373
 20
284.0661691305469
 30
0.0
 11
253.8804042965624
 21
284.0661691305469
 31
0.0
  0
LINE
  5
C7
330
39
100
AcDbEntity
  8
0
  6
Continuous
 62
     7
100
AcDbLine
 10
253.8804042965624
 20
284.766169130547
 30
0.0
 11
264.5504102965627
 21
284.766169130547
 31
0.0
  0
LINE
  5
C8
330
39
100
AcDbEntity
  8
0
  6
Continuous
 62
     7
100
AcDbLine
 10
253.8804042965624
 20
284.966169130547
 30
0.0
 11
264.7504102965627
 21
284.966169130547
 31
0.0
  0
LINE
  5
C9
330
39
100
AcDbEntity
  8
0
  6
Continuous
 62
     7
100
AcDbLine
 10
253.8804042965624
 20
286.266169130547
 30
0.0
 11
264.7504102965627
 21
286.266169130547
 31
0.0
  0
LINE
  5
CA
330
39
100
AcDbEntity
  8
0
  6
Continuous
 62
     7
100
AcDbLine
 10
253.8804042965624
 20
287.266169130547
 30
0.0
 11
264.7504102965627
 21
287.266169130547
 31
0.0
  0
LINE
  5
CB
330
39
100
AcDbEntity
  8
0
  6
Continuous
 62
     7
100
AcDbLine
 10
253.8804042965624
 20
288.5661691305471
 30
0.0
 11
264.7504102965627
 21
288.5661691305471
 31
0.0
  0
LINE
  5
CC
330
39
100
AcDbEntity
  8
0
  6
Continuous
 62
     7
100
AcDbLine
 10
253.8804042965624
 20
288.7661691305472
 30
0.0
 11
264.5504102965627
 21
288.7661691305472
 31
0.0
  0
LINE
  5
CD
330
39
100
AcDbEntity
  8
0
  6
Continuous
 62
     7
100
AcDbLine
 10
260.8715235146439
 20
148.9846738116192
 30
0.0
 11
260.9504102965627
 21
149.1846738116191
 31
0.0
  0
LINE
  5
CE
330
39
100
AcDbEntity
  8
0
  6
Continuous
 62
     7
100
AcDbLine
 10
261.7504102965627
 20
142.9633681494512
 30
0.0
 11
261.9504102965627
 21
143.0502229062438
 31
0.0
  0
LINE
  5
CF
330
39
100
AcDbEntity
  8
0
  6
Continuous
 62
     7
100
AcDbLine
 10
261.7504102965627
 20
140.634673811619
 30
0.0
 11
263.3004102965627
 21
140.634673811619
 31
0.0
  0
LINE
  5
D0
330
39
100
AcDbEntity
  8
0
  6
Continuous
 62
     7
100
AcDbLine
 10
253.8804042965625
 20
145.3846738116188
 30
0.0
 11
257.0060712006206
 21
145.384673811619
 31
0.0
  0
LINE
  5
D1
330
39
100
AcDbEntity
  8
0
  6
Continuous
 62
     7
100
AcDbLine
 10
261.1809224855985
 20
143.7690865191184
 30
0.0
 11
261.9504102965627
 21
143.0502229062438
 31
0.0
  0
LINE
  5
D2
330
39
100
AcDbEntity
  8
0
  6
Continuous
 62
     7
100
AcDbLine
 10
261.9504102965627
 20
143.0502229062438
 30
0.0
 11
261.9504102965627
 21
140.634673811619
 31
0.0
  0
LINE
  5
D3
330
39
100
AcDbEntity
  8
0
  6
Continuous
 62
     7
100
AcDbLine
 10
260.8715235146439
 20
148.9846738116192
 30
0.0
 11
264.6879578807877
 21
145.4193206537741
 31
0.0
  0
LINE
  5
D4
330
39
100
AcDbEntity
  8
0
  6
Continuous
 62
     7
100
AcDbLine
 10
260.8715235146439
 20
148.9846738116192
 30
0.0
 11
253.8804042965624
 21
148.9846738116192
 31
0.0
  0
LINE
  5
D5
330
39
100
AcDbEntity
  8
0
  6
Continuous
 62
     7
100
AcDbLine
 10
262.7744014223274
 20
144.0594713263261
 30
0.0
 11
263.4570621728372
 21
144.790206777576
 31
0.0
  0
LINE
  5
D6
330
39
100
AcDbEntity
  8
0
  6
Continuous
 62
     7
100
AcDbLine
 10
260.6241731783227
 20
143.0575717032433
 30
0.0
 11
261.7504102965627
 21
142.0054291322561
 31
0.0
  0
LINE
  5
D7
330
39
100
AcDbEntity
  8
0
  6
Continuous
 62
     7
100
AcDbLine
 10
257.0060712006206
 20
144.4846738116188
 30
0.0
 11
253.8804042965624
 21
144.4846738116188
 31
0.0
  0
LINE
  5
D8
330
39
100
AcDbEntity
  8
0
  6
Continuous
 62
     7
100
AcDbLine
 10
260.3587594321716
 20
147.684673811619
 30
0.0
 11
263.4570621728372
 21
144.790206777576
 31
0.0
  0
LINE
  5
D9
330
39
100
AcDbEntity
  8
0
  6
Continuous
 62
     7
100
AcDbLine
 10
259.9643255225773
 20
146.684673811619
 30
0.0
 11
262.7744014223274
 21
144.0594713263261
 31
0.0
  0
LINE
  5
DA
330
39
100
AcDbEntity
  8
0
  6
Continuous
 62
     7
100
AcDbLine
 10
259.9643255225773
 20
146.684673811619
 30
0.0
 11
253.8804042965625
 21
146.684673811619
 31
0.0
  0
LINE
  5
DB
330
39
100
AcDbEntity
  8
0
  6
Continuous
 62
     7
100
AcDbLine
 10
260.3587594321716
 20
147.684673811619
 30
0.0
 11
253.8804042965625
 21
147.684673811619
 31
0.0
  0
LINE
  5
DC
330
39
100
AcDbEntity
  8
0
  6
Continuous
 62
     7
100
AcDbLine
 10
264.7504102965627
 20
146.5926128288142
 30
0.0
 11
264.7504102965627
 21
145.634673811619
 31
0.0
  0
LINE
  5
DD
330
39
100
AcDbEntity
  8
0
  6
Continuous
 62
     7
100
AcDbLine
 10
261.2265140332787
 20
149.8846738116191
 30
0.0
 11
264.7504102965627
 21
146.5926128288142
 31
0.0
  0
LINE
  5
DE
330
39
100
AcDbEntity
  8
0
  6
Continuous
 62
     7
100
AcDbLine
 10
261.2265140332787
 20
149.8846738116191
 30
0.0
 11
253.8804042965624
 21
149.8846738116191
 31
0.0
  0
LINE
  5
DF
330
39
100
AcDbEntity
  8
0
  6
Continuous
 62
     7
100
AcDbLine
 10
261.1020357036796
 20
143.5690865191183
 30
0.0
 11
261.7504102965627
 21
142.9633681494512
 31
0.0
  0
LINE
  5
E0
330
39
100
AcDbEntity
  8
0
  6
Continuous
 62
     7
100
AcDbLine
 10
260.9504102965627
 20
149.1846738116191
 30
0.0
 11
264.7504102965627
 21
145.634673811619
 31
0.0
  0
LINE
  5
E1
330
39
100
AcDbEntity
  8
0
  6
Continuous
 62
     7
100
AcDbLine
 10
263.3004102965627
 20
140.634673811619
 30
0.0
 11
264.7504102965627
 21
145.634673811619
 31
0.0
  0
LINE
  5
E2
330
39
100
AcDbEntity
  8
0
  6
Continuous
 62
     7
100
AcDbLine
 10
263.3004102965627
 20
140.634673811619
 30
0.0
 11
263.3004102965627
 21
139.934673811619
 31
0.0
  0
LINE
  5
E3
330
39
100
AcDbEntity
  8
0
  6
Continuous
 62
     7
100
AcDbLine
 10
263.0004102965627
 20
139.634673811619
 30
0.0
 11
261.7504102965627
 21
139.634673811619
 31
0.0
  0
LINE
  5
E4
330
39
100
AcDbEntity
  8
0
  6
Continuous
 62
     7
100
AcDbLine
 10
261.7504102965627
 20
139.634673811619
 30
0.0
 11
261.7504102965627
 21
142.9633681494512
 31
0.0
  0
LINE
  5
E5
330
39
100
AcDbEntity
  8
0
  6
Continuous
 62
     7
100
AcDbLine
 10
253.8804042965624
 20
145.1846738116189
 30
0.0
 11
257.0060712006206
 21
145.184673811619
 31
0.0
  0
LINE
  5
E6
330
39
100
AcDbEntity
  8
0
  6
Continuous
 62
     7
100
AcDbLine
 10
253.8804042965624
 20
149.1846738116191
 30
0.0
 11
260.9504102965627
 21
149.1846738116191
 31
0.0
  0
ARC
  5
E7
330
39
100
AcDbEntity
  8
0
  6
Continuous
 62
     7
100
AcDbCircle
 10
263.0004102965627
 20
139.934673811619
 30
0.0
 40
0.3000000000000115
100
AcDbArc
 50
-89.99999846475728
 51
-0.00000307046373
  0
ARC
  5
E8
330
39
100
AcDbEntity
  8
1
  6
Continuous
 62
     7
100
AcDbCircle
 10
257.0060712006208
 20
139.184673811619
 30
0.0
 40
6.199999999999974
100
AcDbArc
 50
46.9480850065131
 51
90.00000000000158
  0
ARC
  5
E9
330
39
100
AcDbEntity
  8
1
  6
Continuous
 62
     7
100
AcDbCircle
 10
257.0060712006208
 20
139.184673811619
 30
0.0
 40
5.299999999999826
100
AcDbArc
 50
46.94808500651303
 51
90.00000000000185
  0
ARC
  5
EA
330
39
100
AcDbEntity
  8
1
  6
Continuous
 62
     7
100
AcDbCircle
 10
257.0060712006208
 20
139.184673811619
 30
0.0
 40
5.999999999999894
100
AcDbArc
 50
46.94808500651326
 51
90.00000000000163
  0
ENDBLK
  5
3B
330
39
100
AcDbEntity
  8
0
100
AcDbBlockEnd
  0
BLOCK
  5
3E
330
3C
100
AcDbEntity
  8
0
100
AcDbBlockBegin
  2
81-93AX
 70
     0
 71
     0
 10
236.6004102965627
 20
139.6346738116191
 30
0.0
  3
81-93AX
  1

  0
INSERT
  5
3D
330
3C
100
AcDbEntity
  8
0
100
AcDbBlockReference
  2
81-93A
 10
632.0830452281496
 20
173.0106491186841
 30
0.0
  0
ENDBLK
  5
3F
330
3C
100
AcDbEntity
  8
0
100
AcDbBlockEnd
  0
BLOCK
  5
41
330
40
100
AcDbEntity
  8
0
100
AcDbBlockBegin
  2
88-249
 70
     0
 71
     0
 10
231.9343568398223
 20
-50.66174386397292
 30
0.0
  3
88-249
  1

  0
LINE
  5
EB
330
40
100
AcDbEntity
  8
1
  6
Continuous
 62
     7
100
AcDbLine
 10
232.378573285619
 20
308.7661691305564
 30
0.0
 11
231.8785732856047
 21
308.766169130547
 31
0.0
  0
LINE
  5
EC
330
40
100
AcDbEntity
  8
1
  6
Continuous
 62
     7
100
AcDbLine
 10
233.8785732856055
 20
286.7661691305472
 30
0.0
 11
233.8785732856053
 21
307.2661691305488
 31
0.0
  0
LINE
  5
ED
330
40
100
AcDbEntity
  8
1
  6
Continuous
 62
     7
100
AcDbLine
 10
231.3785732856066
 20
308.2661691305497
 30
0.0
 11
231.3785732856148
 21
286.7661691305523
 31
0.0
  0
LINE
  5
EE
330
40
100
AcDbEntity
  8
1
  6
Continuous
 62
     7
100
AcDbLine
 10
231.8785732856047
 20
264.7661691305471
 30
0.0
 11
232.378573285619
 21
264.7661691305378
 31
0.0
  0
LINE
  5
EF
330
40
100
AcDbEntity
  8
1
  6
Continuous
 62
     7
100
AcDbLine
 10
233.8785732856053
 20
266.2661691305455
 30
0.0
 11
233.8785732856055
 21
286.7661691305472
 31
0.0
  0
LINE
  5
F0
330
40
100
AcDbEntity
  8
1
  6
Continuous
 62
     7
100
AcDbLine
 10
231.3785732856148
 20
286.7661691305418
 30
0.0
 11
231.3785732856066
 21
265.2661691305444
 31
0.0
  0
LINE
  5
F1
330
40
100
AcDbEntity
  8
1
  6
Continuous
 62
     7
100
AcDbLine
 10
232.378573285619
 20
169.1846738116285
 30
0.0
 11
231.8785732856047
 21
169.1846738116191
 31
0.0
  0
LINE
  5
F2
330
40
100
AcDbEntity
  8
1
  6
Continuous
 62
     7
100
AcDbLine
 10
233.8785732856059
 20
126.6846738116167
 30
0.0
 11
233.8785732856053
 21
167.6846738116207
 31
0.0
  0
LINE
  5
F3
330
40
100
AcDbEntity
  8
1
  6
Continuous
 62
     7
100
AcDbLine
 10
231.3785732856066
 20
168.6846738116217
 30
0.0
 11
231.3785732856317
 21
125.6846738116184
 31
0.0
  0
LINE
  5
F4
330
40
100
AcDbEntity
  8
1
  6
Continuous
 62
     7
100
AcDbLine
 10
231.8785732856155
 20
125.1846738116199
 30
0.0
 11
232.3785732856125
 21
125.1846738116191
 31
0.0
  0
ARC
  5
F5
330
40
100
AcDbEntity
  8
1
  6
Continuous
 62
     7
100
AcDbCircle
 10
73.5684967181181
 20
147.1846738116191
 30
0.0
 40
21.99999999999992
100
AcDbArc
 50
120.7547036330311
 51
59.24529636696837
  0
ARC
  5
F6
330
40
100
AcDbEntity
  8
1
  6
Continuous
 62
     7
100
AcDbCircle
 10
232.3785732856191
 20
307.2661691305565
 30
0.0
 40
1.499999999986216
100
AcDbArc
 50
-0.00000000029312
 51
59.99999999999548
  0
ARC
  5
F7
330
40
100
AcDbEntity
  8
1
  6
Continuous
 62
     7
100
AcDbCircle
 10
231.8785732856039
 20
308.2661691305485
 30
0.0
 40
0.4999999999984652
100
AcDbArc
 50
89.99999999990881
 51
179.9999999998632
  0
ARC
  5
F8
330
40
100
AcDbEntity
  8
1
  6
Continuous
 62
     7
100
AcDbCircle
 10
232.3785732856191
 20
307.2661691305565
 30
0.0
 40
1.499999999993997
100
AcDbArc
 50
59.99999999999548
 51
90.00000000000325
  0
ARC
  5
F9
330
40
100
AcDbEntity
  8
1
  6
Continuous
 62
     7
100
AcDbCircle
 10
232.3785732856191
 20
266.2661691305376
 30
0.0
 40
1.499999999993997
100
AcDbArc
 50
-59.99999999999548
 51
0.0000000003018
  0
ARC
  5
FA
330
40
100
AcDbEntity
  8
1
  6
Continuous
 62
     7
100
AcDbCircle
 10
231.8785732856039
 20
265.2661691305457
 30
0.0
 40
0.4999999999972999
100
AcDbArc
 50
-179.9999999998567
 51
-89.99999999990881
  0
ARC
  5
FB
330
40
100
AcDbEntity
  8
1
  6
Continuous
 62
     7
100
AcDbCircle
 10
232.3785732856191
 20
266.2661691305376
 30
0.0
 40
1.49999999999983
100
AcDbArc
 50
-90.00000000000325
 51
-59.99999999999548
  0
ARC
  5
FC
330
40
100
AcDbEntity
  8
1
  6
Continuous
 62
     7
100
AcDbCircle
 10
232.3785732856191
 20
167.6846738116285
 30
0.0
 40
1.499999999986216
100
AcDbArc
 50
-0.00000000029746
 51
59.99999999999766
  0
ARC
  5
FD
330
40
100
AcDbEntity
  8
1
  6
Continuous
 62
     7
100
AcDbCircle
 10
231.8785732856039
 20
168.6846738116204
 30
0.0
 40
0.4999999999986926
100
AcDbArc
 50
89.99999999990881
 51
179.9999999998502
  0
ARC
  5
FE
330
40
100
AcDbEntity
  8
1
  6
Continuous
 62
     7
100
AcDbCircle
 10
232.3785732856136
 20
126.6846738116167
 30
0.0
 40
1.499999999997598
100
AcDbArc
 50
-90.00000000004233
 51
0.00000000008359
  0
ARC
  5
FF
330
40
100
AcDbEntity
  8
1
  6
Continuous
 62
     7
100
AcDbCircle
 10
231.8785732856158
 20
125.6846738116188
 30
0.0
 40
0.5000000000067075
100
AcDbArc
 50
-179.9999999995538
 51
-90.00000000003583
  0
ARC
  5
100
330
40
100
AcDbEntity
  8
1
  6
Continuous
 62
     7
100
AcDbCircle
 10
232.3785732856191
 20
167.6846738116285
 30
0.0
 40
1.499999999994095
100
AcDbArc
 50
59.99999999999766
 51
90.00000000000325
  0
ENDBLK
  5
42
330
40
100
AcDbEntity
  8
0
100
AcDbBlockEnd
  0
BLOCK
  5
45
330
43
100
AcDbEntity
  8
0
100
AcDbBlockBegin
  2
88-249X__1
 70
     0
 71
     0
 10
228.9285732856051
 20
123.4775567685761
 30
0.0
  3
88-249X__1
  1

  0
INSERT
  5
44
330
43
100
AcDbEntity
  8
0
100
AcDbBlockReference
  2
88-249
 10
231.9343568398223
 20
-50.66174386397292
 30
0.0
  0
ENDBLK
  5
46
330
43
100
AcDbEntity
  8
0
100
AcDbBlockEnd
  0
BLOCK
  5
48
330
47
100
AcDbEntity
  8
0
100
AcDbBlockBegin
  2
33-147
 70
     0
 71
     0
 10
254.0824793315039
 20
-60.5040514543479
 30
0.0
  3
33-147
  1

  0
LINE
  5
101
330
47
100
AcDbEntity
  8
0
  6
Continuous
 62
     7
100
AcDbLine
 10
237.8804042965624
 20
293.5661691305471
 30
0.0
 11
236.9198010658981
 21
294.5577595622008
 31
0.0
  0
LINE
  5
102
330
47
100
AcDbEntity
  8
0
  6
Continuous
 62
     7
100
AcDbLine
 10
239.8804042965624
 20
293.5661691305471
 30
0.0
 11
241.4304042965627
 21
295.166169130547
 31
0.0
  0
LINE
  5
103
330
47
100
AcDbEntity
  8
0
  6
Continuous
 62
     7
100
AcDbLine
 10
235.4833206203196
 20
295.166169130547
 30
0.0
 11
233.8804102965625
 21
295.166169130547
 31
0.0
  0
LINE
  5
104
330
47
100
AcDbEntity
  8
1
  6
Continuous
 62
     7
100
AcDbLine
 10
233.8804102965625
 20
295.166169130547
 30
0.0
 11
233.8804102965626
 21
286.7661691305469
 31
0.0
  0
LINE
  5
105
330
47
100
AcDbEntity
  8
1
  6
Continuous
 62
     7
100
AcDbLine
 10
253.8804042965624
 20
293.7661691305468
 30
0.0
 11
253.8804042965624
 21
286.766169130547
 31
0.0
  0
LINE
  5
106
330
47
100
AcDbEntity
  8
0
  6
Continuous
 62
     7
100
AcDbLine
 10
237.8804042965624
 20
293.5661691305471
 30
0.0
 11
239.8804042965624
 21
293.5661691305471
 31
0.0
  0
LINE
  5
107
330
47
100
AcDbEntity
  8
0
  6
Continuous
 62
     7
100
AcDbLine
 10
242.8804042965628
 20
294.616169130547
 30
0.0
 11
253.3804042965624
 21
294.616169130547
 31
0.0
  0
LINE
  5
108
330
47
100
AcDbEntity
  8
0
  6
Continuous
 62
     2
100
AcDbLine
 10
242.3804042965624
 20
295.166169130547
 30
0.0
 11
242.2919303193385
 21
295.166169130547
 31
0.0
  0
LINE
  5
109
330
47
100
AcDbEntity
  8
0
  6
Continuous
 62
     2
100
AcDbLine
 10
242.3804042965624
 20
295.166169130547
 30
0.0
 11
242.4399183340176
 21
295.1007036893462
 31
0.0
  0
LINE
  5
10A
330
47
100
AcDbEntity
  8
0
  6
Continuous
 62
     7
100
AcDbLine
 10
242.2919303193385
 20
295.166169130547
 30
0.0
 11
241.4304042965627
 21
295.166169130547
 31
0.0
  0
LINE
  5
10B
330
47
100
AcDbEntity
  8
0
  6
Continuous
 62
     7
100
AcDbLine
 10
242.4399183340176
 20
295.1007036893462
 30
0.0
 11
242.8804042965628
 21
294.616169130547
 31
0.0
  0
LINE
  5
10C
330
47
100
AcDbEntity
  8
1
  6
Continuous
 62
     7
100
AcDbLine
 10
216.7804042965626
 20
298.766169130547
 30
0.0
 11
216.7804042965625
 21
286.7661691305469
 31
0.0
  0
LINE
  5
10D
330
47
100
AcDbEntity
  8
0
  6
Continuous
 62
     7
100
AcDbLine
 10
253.8804042965624
 20
293.7661691305468
 30
0.0
 11
253.8804042965624
 21
294.116169130547
 31
0.0
  0
LINE
  5
10E
330
47
100
AcDbEntity
  8
1
  6
Continuous
 62
     7
100
AcDbLine
 10
239.8804042965624
 20
293.5661691305471
 30
0.0
 11
239.8804042965624
 21
286.766169130547
 31
0.0
  0
LINE
  5
10F
330
47
100
AcDbEntity
  8
1
  6
Continuous
 62
     7
100
AcDbLine
 10
237.8804042965624
 20
293.5661691305471
 30
0.0
 11
237.8804042965624
 21
286.766169130547
 31
0.0
  0
LINE
  5
110
330
47
100
AcDbEntity
  8
1
  6
Continuous
 62
     7
100
AcDbLine
 10
242.8804042965628
 20
294.616169130547
 30
0.0
 11
242.8804042965628
 21
286.766169130547
 31
0.0
  0
LINE
  5
111
330
47
100
AcDbEntity
  8
1
  6
Continuous
 62
     7
100
AcDbLine
 10
241.4304042965627
 20
295.166169130547
 30
0.0
 11
241.4304042965627
 21
286.766169130547
 31
0.0
  0
LINE
  5
112
330
47
100
AcDbEntity
  8
1
  6
Continuous
 62
     7
100
AcDbLine
 10
216.7804042965626
 20
298.766169130547
 30
0.0
 11
231.3785732856114
 21
298.766169130547
 31
0.0
  0
LINE
  5
113
330
47
100
AcDbEntity
  8
1
  6
Continuous
 62
     7
100
AcDbLine
 10
230.3804102965625
 20
297.0962961494694
 30
0.0
 11
217.7804042965626
 21
297.0962961494694
 31
0.0
  0
LINE
  5
114
330
47
100
AcDbEntity
  8
1
  6
Continuous
 62
     7
100
AcDbLine
 10
217.780404296562
 20
288.4360421116251
 30
0.0
 11
230.3804102965625
 21
288.4360421116251
 31
0.0
  0
LINE
  5
115
330
47
100
AcDbEntity
  8
0
  6
Continuous
 62
     7
100
AcDbLine
 10
236.9198010658981
 20
278.9745786988933
 30
0.0
 11
237.8804042965624
 21
279.9661691305471
 31
0.0
  0
LINE
  5
116
330
47
100
AcDbEntity
  8
0
  6
Continuous
 62
     7
100
AcDbLine
 10
241.4304042965627
 20
278.3661691305472
 30
0.0
 11
239.8804042965624
 21
279.9661691305471
 31
0.0
  0
LINE
  5
117
330
47
100
AcDbEntity
  8
0
  6
Continuous
 62
     7
100
AcDbLine
 10
233.8804102965625
 20
278.3661691305472
 30
0.0
 11
235.4833206203196
 21
278.3661691305472
 31
0.0
  0
LINE
  5
118
330
47
100
AcDbEntity
  8
1
  6
Continuous
 62
     7
100
AcDbLine
 10
233.8804102965626
 20
286.7661691305469
 30
0.0
 11
233.8804102965625
 21
278.3661691305472
 31
0.0
  0
LINE
  5
119
330
47
100
AcDbEntity
  8
1
  6
Continuous
 62
     7
100
AcDbLine
 10
253.8804042965624
 20
286.766169130547
 30
0.0
 11
253.8804042965624
 21
279.7661691305474
 31
0.0
  0
LINE
  5
11A
330
47
100
AcDbEntity
  8
0
  6
Continuous
 62
     7
100
AcDbLine
 10
239.8804042965624
 20
279.9661691305471
 30
0.0
 11
237.8804042965624
 21
279.9661691305471
 31
0.0
  0
LINE
  5
11B
330
47
100
AcDbEntity
  8
0
  6
Continuous
 62
     7
100
AcDbLine
 10
253.3804042965624
 20
278.9161691305473
 30
0.0
 11
242.8804042965628
 21
278.9161691305473
 31
0.0
  0
LINE
  5
11C
330
47
100
AcDbEntity
  8
0
  6
Continuous
 62
     2
100
AcDbLine
 10
242.2919303193385
 20
278.3661691305472
 30
0.0
 11
242.3804042965624
 21
278.3661691305472
 31
0.0
  0
LINE
  5
11D
330
47
100
AcDbEntity
  8
0
  6
Continuous
 62
     2
100
AcDbLine
 10
242.4399183340176
 20
278.4316345717479
 30
0.0
 11
242.3804042965624
 21
278.3661691305472
 31
0.0
  0
LINE
  5
11E
330
47
100
AcDbEntity
  8
0
  6
Continuous
 62
     7
100
AcDbLine
 10
241.4304042965627
 20
278.3661691305472
 30
0.0
 11
242.2919303193385
 21
278.3661691305472
 31
0.0
  0
LINE
  5
11F
330
47
100
AcDbEntity
  8
0
  6
Continuous
 62
     7
100
AcDbLine
 10
242.8804042965628
 20
278.9161691305473
 30
0.0
 11
242.4399183340176
 21
278.4316345717479
 31
0.0
  0
LINE
  5
120
330
47
100
AcDbEntity
  8
1
  6
Continuous
 62
     7
100
AcDbLine
 10
216.7804042965625
 20
286.7661691305469
 30
0.0
 11
216.7804042965626
 21
274.7661691305471
 31
0.0
  0
LINE
  5
121
330
47
100
AcDbEntity
  8
0
  6
Continuous
 62
     7
100
AcDbLine
 10
253.8804042965624
 20
279.4161691305473
 30
0.0
 11
253.8804042965624
 21
279.7661691305474
 31
0.0
  0
LINE
  5
122
330
47
100
AcDbEntity
  8
1
  6
Continuous
 62
     7
100
AcDbLine
 10
239.8804042965624
 20
286.766169130547
 30
0.0
 11
239.8804042965624
 21
279.9661691305471
 31
0.0
  0
LINE
  5
123
330
47
100
AcDbEntity
  8
1
  6
Continuous
 62
     7
100
AcDbLine
 10
237.8804042965624
 20
286.766169130547
 30
0.0
 11
237.8804042965624
 21
279.9661691305471
 31
0.0
  0
LINE
  5
124
330
47
100
AcDbEntity
  8
1
  6
Continuous
 62
     7
100
AcDbLine
 10
242.8804042965628
 20
286.766169130547
 30
0.0
 11
242.8804042965628
 21
278.9161691305473
 31
0.0
  0
LINE
  5
125
330
47
100
AcDbEntity
  8
1
  6
Continuous
 62
     7
100
AcDbLine
 10
241.4304042965627
 20
286.766169130547
 30
0.0
 11
241.4304042965627
 21
278.3661691305472
 31
0.0
  0
LINE
  5
126
330
47
100
AcDbEntity
  8
1
  6
Continuous
 62
     7
100
AcDbLine
 10
231.3785732856114
 20
274.7661691305471
 30
0.0
 11
216.7804042965626
 21
274.7661691305471
 31
0.0
  0
LINE
  5
127
330
47
100
AcDbEntity
  8
1
  6
Continuous
 62
     7
100
AcDbLine
 10
217.7804042965626
 20
276.4360421116247
 30
0.0
 11
230.3804102965625
 21
276.4360421116247
 31
0.0
  0
LINE
  5
128
330
47
100
AcDbEntity
  8
1
  6
Continuous
 62
     7
100
AcDbLine
 10
230.3804102965625
 20
285.096296149469
 30
0.0
 11
217.7804042965626
 21
285.096296149469
 31
0.0
  0
LINE
  5
129
330
47
100
AcDbEntity
  8
0
  6
Continuous
 62
     7
100
AcDbLine
 10
236.9198010658981
 20
139.3930833799654
 30
0.0
 11
237.8804042965624
 21
140.384673811619
 31
0.0
  0
LINE
  5
12A
330
47
100
AcDbEntity
  8
0
  6
Continuous
 62
     7
100
AcDbLine
 10
241.4304042965627
 20
138.7846738116192
 30
0.0
 11
239.8804042965624
 21
140.384673811619
 31
0.0
  0
LINE
  5
12B
330
47
100
AcDbEntity
  8
0
  6
Continuous
 62
     7
100
AcDbLine
 10
233.8804102965625
 20
138.7846738116192
 30
0.0
 11
235.4833206203196
 21
138.7846738116192
 31
0.0
  0
LINE
  5
12C
330
47
100
AcDbEntity
  8
0
  6
Continuous
 62
     7
100
AcDbLine
 10
241.4304042965627
 20
138.7846738116192
 30
0.0
 11
242.2919303193385
 21
138.7846738116192
 31
0.0
  0
LINE
  5
12D
330
47
100
AcDbEntity
  8
0
  6
Continuous
 62
     7
100
AcDbLine
 10
242.8804042965628
 20
139.3346738116192
 30
0.0
 11
242.4399183340176
 21
138.8501392528199
 31
0.0
  0
LINE
  5
12E
330
47
100
AcDbEntity
  8
1
  6
PHANTOM
 62
     4
100
AcDbLine
 10
238.8804042965624
 20
158.5846738116189
 30
0.0
 11
238.8804042965624
 21
135.7846738116192
 31
0.0
  0
LINE
  5
12F
330
47
100
AcDbEntity
  8
1
  6
Continuous
 62
     7
100
AcDbLine
 10
217.7804042965626
 20
134.1846738116193
 30
0.0
 11
230.3804102965625
 21
134.1846738116191
 31
0.0
  0
LINE
  5
130
330
47
100
AcDbEntity
  8
1
  6
Continuous
 62
     7
100
AcDbLine
 10
216.7804042965626
 20
135.1846738116191
 30
0.0
 11
217.7804042965626
 21
134.1846738116193
 31
0.0
  0
LINE
  5
131
330
47
100
AcDbEntity
  8
1
  6
Continuous
 62
     7
100
AcDbLine
 10
230.3804102965625
 20
134.1846738116191
 30
0.0
 11
231.3804102965625
 21
135.1846738116191
 31
0.0
  0
LINE
  5
132
330
47
100
AcDbEntity
  8
0
  6
Continuous
 62
     7
100
AcDbLine
 10
237.8804042965624
 20
153.9846738116192
 30
0.0
 11
236.9198010658981
 21
154.9762642432728
 31
0.0
  0
LINE
  5
133
330
47
100
AcDbEntity
  8
0
  6
Continuous
 62
     7
100
AcDbLine
 10
239.8804042965624
 20
153.9846738116192
 30
0.0
 11
241.4304042965627
 21
155.584673811619
 31
0.0
  0
LINE
  5
134
330
47
100
AcDbEntity
  8
0
  6
Continuous
 62
     7
100
AcDbLine
 10
235.4833206203196
 20
155.584673811619
 30
0.0
 11
233.8804102965625
 21
155.584673811619
 31
0.0
  0
LINE
  5
135
330
47
100
AcDbEntity
  8
1
  6
Continuous
 62
     7
100
AcDbLine
 10
253.8804042965624
 20
154.1846738116188
 30
0.0
 11
253.8804042965624
 21
139.8346738116192
 31
0.0
  0
LINE
  5
136
330
47
100
AcDbEntity
  8
0
  6
Continuous
 62
     7
100
AcDbLine
 10
237.8804042965624
 20
153.9846738116192
 30
0.0
 11
239.8804042965624
 21
153.9846738116192
 31
0.0
  0
LINE
  5
137
330
47
100
AcDbEntity
  8
0
  6
Continuous
 62
     7
100
AcDbLine
 10
242.8804042965628
 20
155.0346738116191
 30
0.0
 11
253.3804042965624
 21
155.0346738116191
 31
0.0
  0
LINE
  5
138
330
47
100
AcDbEntity
  8
0
  6
Continuous
 62
     7
100
AcDbLine
 10
242.2919303193385
 20
155.584673811619
 30
0.0
 11
241.4304042965627
 21
155.584673811619
 31
0.0
  0
LINE
  5
139
330
47
100
AcDbEntity
  8
0
  6
Continuous
 62
     7
100
AcDbLine
 10
242.4399183340176
 20
155.5192083704183
 30
0.0
 11
242.8804042965628
 21
155.0346738116191
 31
0.0
  0
LINE
  5
13A
330
47
100
AcDbEntity
  8
1
  6
Continuous
 62
     7
100
AcDbLine
 10
216.7804042965626
 20
159.1846738116191
 30
0.0
 11
216.7804042965626
 21
135.1846738116191
 31
0.0
  0
LINE
  5
13B
330
47
100
AcDbEntity
  8
1
  6
Continuous
 62
     7
100
AcDbLine
 10
230.3804102965625
 20
160.1846738116191
 30
0.0
 11
217.7804042965626
 21
160.1846738116191
 31
0.0
  0
LINE
  5
13C
330
47
100
AcDbEntity
  8
1
  6
Continuous
 62
     7
100
AcDbLine
 10
217.7804042965626
 20
160.1846738116191
 30
0.0
 11
216.7804042965626
 21
159.1846738116191
 31
0.0
  0
LINE
  5
13D
330
47
100
AcDbEntity
  8
1
  6
Continuous
 62
     7
100
AcDbLine
 10
231.3804102965625
 20
159.1846738116191
 30
0.0
 11
230.3804102965625
 21
160.1846738116191
 31
0.0
  0
LINE
  5
13E
330
47
100
AcDbEntity
  8
0
  6
Continuous
 62
     7
100
AcDbLine
 10
253.8804042965624
 20
154.1846738116188
 30
0.0
 11
253.8804042965624
 21
154.5346738116191
 31
0.0
  0
LINE
  5
13F
330
47
100
AcDbEntity
  8
0
  6
Continuous
 62
     7
100
AcDbLine
 10
253.3804042965624
 20
139.3346738116192
 30
0.0
 11
242.8804042965628
 21
139.3346738116192
 31
0.0
  0
LINE
  5
140
330
47
100
AcDbEntity
  8
1
  6
Continuous
 62
     7
100
AcDbLine
 10
242.8804042965628
 20
155.0346738116191
 30
0.0
 11
242.8804042965628
 21
139.3346738116192
 31
0.0
  0
LINE
  5
141
330
47
100
AcDbEntity
  8
1
  6
Continuous
 62
     7
100
AcDbLine
 10
241.4304042965627
 20
155.584673811619
 30
0.0
 11
241.4304042965627
 21
138.7846738116192
 31
0.0
  0
LINE
  5
142
330
47
100
AcDbEntity
  8
1
  6
Continuous
 62
     7
100
AcDbLine
 10
237.8804042965624
 20
140.384673811619
 30
0.0
 11
239.8804042965624
 21
140.384673811619
 31
0.0
  0
LINE
  5
143
330
47
100
AcDbEntity
  8
1
  6
Continuous
 62
     7
100
AcDbLine
 10
239.8804042965624
 20
140.384673811619
 30
0.0
 11
239.8804042965624
 21
153.9846738116192
 31
0.0
  0
LINE
  5
144
330
47
100
AcDbEntity
  8
1
  6
Continuous
 62
     7
100
AcDbLine
 10
237.8804042965624
 20
153.9846738116192
 30
0.0
 11
237.8804042965624
 21
140.384673811619
 31
0.0
  0
LINE
  5
145
330
47
100
AcDbEntity
  8
1
  6
Continuous
 62
     7
100
AcDbLine
 10
242.3804042965624
 20
139.2846738116192
 30
0.0
 11
242.3804042965624
 21
155.084673811619
 31
0.0
  0
LINE
  5
146
330
47
100
AcDbEntity
  8
1
  6
Continuous
 62
     7
100
AcDbLine
 10
217.780404296562
 20
142.1846738116193
 30
0.0
 11
230.3804102965625
 21
142.1846738116193
 31
0.0
  0
LINE
  5
147
330
47
100
AcDbEntity
  8
1
  6
Continuous
 62
     7
100
AcDbLine
 10
217.780404296562
 20
152.1846738116193
 30
0.0
 11
230.3804102965625
 21
152.1846738116193
 31
0.0
  0
LINE
  5
148
330
47
100
AcDbEntity
  8
1
  6
Continuous
 62
     7
100
AcDbLine
 10
217.780404296562
 20
155.0769786570325
 30
0.0
 11
230.3804102965625
 21
155.0769786570325
 31
0.0
  0
LINE
  5
149
330
47
100
AcDbEntity
  8
1
  6
Continuous
 62
     7
100
AcDbLine
 10
217.780404296562
 20
160.0769786570325
 30
0.0
 11
230.3804102965625
 21
160.0769786570325
 31
0.0
  0
LINE
  5
14A
330
47
100
AcDbEntity
  8
1
  6
Continuous
 62
     7
100
AcDbLine
 10
230.3804102965625
 20
134.2923689662059
 30
0.0
 11
217.780404296562
 21
134.2923689662059
 31
0.0
  0
LINE
  5
14B
330
47
100
AcDbEntity
  8
1
  6
Continuous
 62
     7
100
AcDbLine
 10
230.3804102965625
 20
139.2923689662059
 30
0.0
 11
217.780404296562
 21
139.2923689662059
 31
0.0
  0
ARC
  5
14C
330
47
100
AcDbEntity
  8
1
  6
Continuous
 62
     7
100
AcDbCircle
 10
242.2919303193385
 20
294.966169130547
 30
0.0
 40
0.1999999999998945
100
AcDbArc
 50
42.27368900609812
 51
90.0
  0
ARC
  5
14D
330
47
100
AcDbEntity
  8
1
  6
Continuous
 62
     7
100
AcDbCircle
 10
221.5067486261615
 20
292.7661691305473
 30
0.0
 40
9.873797214888702
100
AcDbArc
 50
-26.01122926143393
 51
26.01122926143334
  0
ARC
  5
14E
330
47
100
AcDbEntity
  8
1
  6
Continuous
 62
     7
100
AcDbCircle
 10
226.6540659669627
 20
292.7661691305473
 30
0.0
 40
9.873797214887834
100
AcDbArc
 50
153.9887707385643
 51
-153.9887707385653
  0
ARC
  5
14F
330
47
100
AcDbEntity
  8
1
  6
Continuous
 62
     7
100
AcDbCircle
 10
242.2919303193385
 20
278.5661691305471
 30
0.0
 40
0.1999999999999318
100
AcDbArc
 50
-90.0
 51
-42.27368900609812
  0
ARC
  5
150
330
47
100
AcDbEntity
  8
1
  6
Continuous
 62
     7
100
AcDbCircle
 10
221.5067486261615
 20
280.7661691305469
 30
0.0
 40
9.873797214888702
100
AcDbArc
 50
-26.01122926143393
 51
26.01122926143334
  0
ARC
  5
151
330
47
100
AcDbEntity
  8
1
  6
Continuous
 62
     7
100
AcDbCircle
 10
226.6540659669627
 20
280.7661691305469
 30
0.0
 40
9.873797214887834
100
AcDbArc
 50
153.9887707385643
 51
-153.9887707385638
  0
ARC
  5
152
330
47
100
AcDbEntity
  8
1
  6
Continuous
 62
     7
100
AcDbCircle
 10
242.2919303193385
 20
138.9846738116192
 30
0.0
 40
0.1999999999999886
100
AcDbArc
 50
-90.0
 51
-42.27368900611619
  0
ARC
  5
153
330
47
100
AcDbEntity
  8
1
  6
Continuous
 62
     7
100
AcDbCircle
 10
242.2919303193385
 20
155.384673811619
 30
0.0
 40
0.199999999999971
100
AcDbArc
 50
42.27368900612222
 51
90.0
  0
ARC
  5
154
330
47
100
AcDbEntity
  8
1
  6
Continuous
 62
     7
100
AcDbCircle
 10
229.7804042965685
 20
147.1846738116191
 30
0.0
 40
13.00000000000606
100
AcDbArc
 50
157.3801350519698
 51
-157.3801350519714
  0
ARC
  5
155
330
47
100
AcDbEntity
  8
1
  6
Continuous
 62
     7
100
AcDbCircle
 10
220.4054042965638
 20
157.5769786570322
 30
0.0
 40
3.625000000001493
100
AcDbArc
 50
136.3971810273127
 51
-136.3971810273191
  0
ARC
  5
156
330
47
100
AcDbEntity
  8
1
  6
Continuous
 62
     7
100
AcDbCircle
 10
227.755410296563
 20
157.5769786570322
 30
0.0
 40
3.624999999999433
100
AcDbArc
 50
-43.60281897270595
 51
43.60281897271246
  0
ARC
  5
157
330
47
100
AcDbEntity
  8
1
  6
Continuous
 62
     7
100
AcDbCircle
 10
218.3804102965641
 20
147.1846738116191
 30
0.0
 40
12.99999999999846
100
AcDbArc
 50
-22.61986494804232
 51
22.61986494804393
  0
ARC
  5
158
330
47
100
AcDbEntity
  8
1
  6
Continuous
 62
     7
100
AcDbCircle
 10
220.4054042965638
 20
136.7923689662058
 30
0.0
 40
3.625000000001375
100
AcDbArc
 50
136.3971810273146
 51
-136.3971810273172
  0
ARC
  5
159
330
47
100
AcDbEntity
  8
1
  6
Continuous
 62
     7
100
AcDbCircle
 10
227.755410296563
 20
136.7923689662058
 30
0.0
 40
3.624999999999551
100
AcDbArc
 50
-43.6028189727079
 51
43.6028189727105
  0
ARC
  5
15A
330
47
100
AcDbEntity
  8
0
  6
Continuous
 62
     7
100
AcDbCircle
 10
253.3804042965625
 20
294.116169130547
 30
0.0
 40
0.4999999999999147
100
AcDbArc
 50
0.0
 51
90.00000000000978
  0
ARC
  5
15B
330
47
100
AcDbEntity
  8
0
  6
Continuous
 62
     7
100
AcDbCircle
 10
235.4833206203193
 20
293.166169130547
 30
0.0
 40
2.000000000000143
100
AcDbArc
 50
44.09061955078609
 51
89.99999999999105
  0
ARC
  5
15C
330
47
100
AcDbEntity
  8
0
  6
Continuous
 62
     7
100
AcDbCircle
 10
253.3804042965625
 20
279.4161691305471
 30
0.0
 40
0.4999999999997726
100
AcDbArc
 50
-90.00000000000978
 51
0.00000000002606
  0
ARC
  5
15D
330
47
100
AcDbEntity
  8
0
  6
Continuous
 62
     7
100
AcDbCircle
 10
235.4833206203193
 20
280.3661691305472
 30
0.0
 40
2.0
100
AcDbArc
 50
-89.99999999999105
 51
-44.09061955078843
  0
ARC
  5
15E
330
47
100
AcDbEntity
  8
0
  6
Continuous
 62
     7
100
AcDbCircle
 10
253.3804042965625
 20
139.8346738116192
 30
0.0
 40
0.5
100
AcDbArc
 50
-90.00000000000978
 51
0.0
  0
ARC
  5
15F
330
47
100
AcDbEntity
  8
0
  6
Continuous
 62
     7
100
AcDbCircle
 10
235.4833206203193
 20
140.7846738116192
 30
0.0
 40
2.0
100
AcDbArc
 50
-89.99999999999105
 51
-44.09061955078726
  0
ARC
  5
160
330
47
100
AcDbEntity
  8
0
  6
Continuous
 62
     7
100
AcDbCircle
 10
253.3804042965625
 20
154.5346738116191
 30
0.0
 40
0.4999999999999147
100
AcDbArc
 50
0.0
 51
90.00000000000978
  0
ARC
  5
161
330
47
100
AcDbEntity
  8
0
  6
Continuous
 62
     7
100
AcDbCircle
 10
235.4833206203193
 20
153.584673811619
 30
0.0
 40
2.000000000000163
100
AcDbArc
 50
44.09061955078668
 51
89.99999999999105
  0
ENDBLK
  5
49
330
47
100
AcDbEntity
  8
0
100
AcDbBlockEnd
  0
BLOCK
  5
4B
330
4A
100
AcDbEntity
  8
0
100
AcDbBlockBegin
  2
81-100X-W-4
 70
     0
 71
     0
 10
4.62689383375738
 20
-68.46191908799329
 30
0.0
  3
81-100X-W-4
  1

  0
LINE
  5
162
330
4A
100
AcDbEntity
  8
1
  6
Continuous
 62
     7
100
AcDbLine
 10
196.7804042965626
 20
255.7661691305436
 30
0.0
 11
196.7804042965625
 21
271.266169130547
 31
0.0
  0
LINE
  5
163
330
4A
100
AcDbEntity
  8
1
  6
Continuous
 62
     7
100
AcDbLine
 10
188.7804042965626
 20
255.7661691305436
 30
0.0
 11
188.7804042965627
 21
271.266169130547
 31
0.0
  0
LINE
  5
164
330
4A
100
AcDbEntity
  8
1
  6
PHANTOM
 62
     5
100
AcDbLine
 10
223.780404296566
 20
290.7661691305469
 30
0.0
 11
208.2804042965626
 21
290.7661691305468
 31
0.0
  0
LINE
  5
165
330
4A
100
AcDbEntity
  8
1
  6
PHANTOM
 62
     5
100
AcDbLine
 10
223.780404296566
 20
282.7661691305469
 30
0.0
 11
208.2804042965626
 21
282.7661691305472
 31
0.0
  0
LINE
  5
166
330
4A
100
AcDbEntity
  8
1
  6
Continuous
 62
     7
100
AcDbLine
 10
177.2804042965626
 20
168.1817622206588
 30
0.0
 11
177.2804042965626
 21
180.6817622206587
 31
0.0
  0
LINE
  5
167
330
4A
100
AcDbEntity
  8
1
  6
Continuous
 62
     7
100
AcDbLine
 10
208.2804042965626
 20
168.1817622206588
 30
0.0
 11
208.2804042965626
 21
180.6817622206587
 31
0.0
  0
LINE
  5
168
330
4A
100
AcDbEntity
  8
1
  6
Continuous
 62
     7
100
AcDbLine
 10
188.7804042965626
 20
191.9750047144821
 30
0.0
 11
188.7804042965626
 21
178.1300047144821
 31
0.0
  0
LINE
  5
169
330
4A
100
AcDbEntity
  8
1
  6
Continuous
 62
     7
100
AcDbLine
 10
196.7804042965626
 20
191.9750047144821
 30
0.0
 11
196.7804042965626
 21
178.1300047144821
 31
0.0
  0
LINE
  5
16A
330
4A
100
AcDbEntity
  8
1
  6
Continuous
 62
     7
100
AcDbLine
 10
208.2804042965626
 20
168.1817622206588
 30
0.0
 11
177.2804042965626
 21
168.1817622206588
 31
0.0
  0
LINE
  5
16B
330
4A
100
AcDbEntity
  8
1
  6
Continuous
 62
     7
100
AcDbLine
 10
89.28040429656269
 20
168.3817622206587
 30
0.0
 11
89.28040429656269
 21
173.8493497046653
 31
0.0
  0
LINE
  5
16C
330
4A
100
AcDbEntity
  8
1
  6
Continuous
 62
     7
100
AcDbLine
 10
58.28040429656281
 20
168.3817622206587
 30
0.0
 11
58.28040429656269
 21
178.1014626494187
 31
0.0
  0
LINE
  5
16D
330
4A
100
AcDbEntity
  8
1
  6
Continuous
 62
     7
100
AcDbLine
 10
89.28040429656269
 20
173.8493497046653
 30
0.0
 11
89.28040429656269
 21
180.6817622206587
 31
0.0
  0
LINE
  5
16E
330
4A
100
AcDbEntity
  8
1
  6
Continuous
 62
     7
100
AcDbLine
 10
58.28040429656269
 20
178.1014626494187
 30
0.0
 11
58.28040429656269
 21
180.6817622206587
 31
0.0
  0
LINE
  5
16F
330
4A
100
AcDbEntity
  8
1
  6
Continuous
 62
     7
100
AcDbLine
 10
58.48040429656291
 20
168.1817622206588
 30
0.0
 11
89.08040429656271
 21
168.1817622206588
 31
0.0
  0
ARC
  5
170
330
4A
100
AcDbEntity
  8
1
  6
Continuous
 62
     7
100
AcDbCircle
 10
192.7804042965627
 20
255.7661691305436
 30
0.0
 40
4.000000000000085
100
AcDbArc
 50
180.0
 51
-90.0
  0
ARC
  5
171
330
4A
100
AcDbEntity
  8
1
  6
Continuous
 62
     7
100
AcDbCircle
 10
192.7804042965627
 20
255.7661691305436
 30
0.0
 40
3.999999999999915
100
AcDbArc
 50
-90.0
 51
0.0
  0
ARC
  5
172
330
4A
100
AcDbEntity
  8
1
  6
Continuous
 62
     7
100
AcDbCircle
 10
192.7804042965626
 20
286.766169130547
 30
0.0
 40
15.50000000000014
100
AcDbArc
 50
104.5102424632999
 51
-104.8001821076384
  0
ARC
  5
173
330
4A
100
AcDbEntity
  8
1
  6
Continuous
 62
     7
100
AcDbCircle
 10
192.7804042965627
 20
302.7661691305589
 30
0.0
 40
3.999999999999915
100
AcDbArc
 50
0.0
 51
180.0
  0
ARC
  5
174
330
4A
100
AcDbEntity
  8
1
  6
Continuous
 62
     7
100
AcDbCircle
 10
192.7804042965626
 20
286.766169130547
 30
0.0
 40
15.49999999999981
100
AcDbArc
 50
-75.15543763223188
 51
75.48975753550424
  0
ARC
  5
175
330
4A
100
AcDbEntity
  8
1
  6
PHANTOM
 62
     5
100
AcDbCircle
 10
223.780404296566
 20
286.7661691305472
 30
0.0
 40
4.000000000000284
100
AcDbArc
 50
-90.0
 51
90.0
  0
ARC
  5
176
330
4A
100
AcDbEntity
  8
1
  6
PHANTOM
 62
     5
100
AcDbCircle
 10
176.7804042965508
 20
286.7661691305472
 30
0.0
 40
3.999999999999773
100
AcDbArc
 50
90.0
 51
-90.0
  0
ARC
  5
177
330
4A
100
AcDbEntity
  8
1
  6
Continuous
 62
     7
100
AcDbCircle
 10
192.7804042965627
 20
178.1300047144821
 30
0.0
 40
4.000000000000085
100
AcDbArc
 50
180.0
 51
-90.0
  0
ARC
  5
178
330
4A
100
AcDbEntity
  8
1
  6
Continuous
 62
     7
100
AcDbCircle
 10
192.7804042965627
 20
178.1300047144821
 30
0.0
 40
3.999999999999915
100
AcDbArc
 50
-90.0
 51
0.0
  0
ARC
  5
179
330
4A
100
AcDbEntity
  8
1
  6
Continuous
 62
     7
100
AcDbCircle
 10
192.7804042965626
 20
180.6817622206588
 30
0.0
 40
15.5
100
AcDbArc
 50
-0.00000000000042
 51
90.0
  0
ARC
  5
17A
330
4A
100
AcDbEntity
  8
1
  6
PHANTOM
 62
     5
100
AcDbCircle
 10
200.2804042965625
 20
136.1817622206587
 30
0.0
 40
60.00000000000008
100
AcDbArc
 50
104.3754486442838
 51
112.8901275578422
  0
ARC
  5
17B
330
4A
100
AcDbEntity
  8
1
  6
PHANTOM
 62
     5
100
AcDbCircle
 10
220.968865835024
 20
185.1817622206587
 30
0.0
 40
6.811538461538448
100
AcDbArc
 50
-67.1098724421571
 51
67.1098724421571
  0
ARC
  5
17C
330
4A
100
AcDbEntity
  8
1
  6
PHANTOM
 62
     5
100
AcDbCircle
 10
209.2804042965625
 20
173.477561377554
 30
0.0
 40
1.000000000000076
100
AcDbArc
 50
95.64477755237114
 51
-179.9999999999951
  0
ARC
  5
17D
330
4A
100
AcDbEntity
  8
1
  6
PHANTOM
 62
     5
100
AcDbCircle
 10
176.2804042965626
 20
176.9104779675533
 30
0.0
 40
1.0
100
AcDbArc
 50
0.0
 51
69.86322997162861
  0
ARC
  5
17E
330
4A
100
AcDbEntity
  8
1
  6
PHANTOM
 62
     5
100
AcDbCircle
 10
179.5919427581008
 20
185.1817622206587
 30
0.0
 40
6.811538461538404
100
AcDbArc
 50
112.890127557842
 51
-112.890127557842
  0
ARC
  5
17F
330
4A
100
AcDbEntity
  8
1
  6
PHANTOM
 62
     5
100
AcDbCircle
 10
200.2804042965625
 20
136.1817622206587
 30
0.0
 40
59.99999999999997
100
AcDbArc
 50
67.10987244215792
 51
94.75792333515034
  0
ARC
  5
180
330
4A
100
AcDbEntity
  8
1
  6
PHANTOM
 62
     5
100
AcDbCircle
 10
201.7804042965625
 20
224.2899529233493
 30
0.0
 40
50.36409174372096
100
AcDbArc
 50
-81.54905272994577
 51
-64.30370272447517
  0
ARC
  5
181
330
4A
100
AcDbEntity
  8
1
  6
PHANTOM
 62
     5
100
AcDbCircle
 10
198.780404296562
 20
171.7655096376775
 30
0.0
 40
22.97585351646978
100
AcDbArc
 50
161.8919979119752
 51
164.645355441447
  0
ARC
  5
182
330
4A
100
AcDbEntity
  8
1
  6
Continuous
 62
     7
100
AcDbCircle
 10
192.7804042965626
 20
180.6817622206588
 30
0.0
 40
15.5
100
AcDbArc
 50
90.0
 51
-179.9999999999996
  0
ARC
  5
183
330
4A
100
AcDbEntity
  8
1
  6
Continuous
 62
     7
100
AcDbCircle
 10
192.7804042965627
 20
191.9750047144821
 30
0.0
 40
3.999999999999915
100
AcDbArc
 50
0.0
 51
90.0
  0
ARC
  5
184
330
4A
100
AcDbEntity
  8
1
  6
Continuous
 62
     7
100
AcDbCircle
 10
192.7804042965627
 20
191.9750047144821
 30
0.0
 40
3.999999999999886
100
AcDbArc
 50
90.0
 51
180.0
  0
ARC
  5
185
330
4A
100
AcDbEntity
  8
1
  6
Continuous
 62
     7
100
AcDbCircle
 10
73.78040429656269
 20
180.6817622206588
 30
0.0
 40
15.50000000000011
100
AcDbArc
 50
80.63114817634506
 51
90.0
  0
ARC
  5
186
330
4A
100
AcDbEntity
  8
1
  6
Continuous
 62
     7
100
AcDbCircle
 10
73.78040429656269
 20
180.6817622206588
 30
0.0
 40
15.50000000000012
100
AcDbArc
 50
118.5022238030828
 51
-179.9999999999996
  0
ARC
  5
187
330
4A
100
AcDbEntity
  8
1
  6
Continuous
 62
     7
100
AcDbCircle
 10
73.78040429656269
 20
180.6817622206588
 30
0.0
 40
15.5
100
AcDbArc
 50
90.0
 51
118.5022238030828
  0
ARC
  5
188
330
4A
100
AcDbEntity
  8
1
  6
Continuous
 62
     7
100
AcDbCircle
 10
73.78040429656269
 20
180.6817622206588
 30
0.0
 40
15.5
100
AcDbArc
 50
-0.00000000000042
 51
80.63114817634506
  0
ARC
  5
189
330
4A
100
AcDbEntity
  8
1
  6
Continuous
 62
     7
100
AcDbCircle
 10
60.78040429656249
 20
185.1817622206587
 30
0.0
 40
6.999999999999956
100
AcDbArc
 50
132.6228546078165
 51
180.0
  0
ARC
  5
18A
330
4A
100
AcDbEntity
  8
1
  6
Continuous
 62
     7
100
AcDbCircle
 10
81.28040429656249
 20
136.1817622206587
 30
0.0
 40
60.00000000000014
100
AcDbArc
 50
104.3754486442836
 51
113.4127194836073
  0
ARC
  5
18B
330
4A
100
AcDbEntity
  8
1
  6
Continuous
 62
     7
100
AcDbCircle
 10
60.78040429656249
 20
185.1817622206587
 30
0.0
 40
7.0
100
AcDbArc
 50
180.0
 51
-132.622854607816
  0
ARC
  5
18C
330
4A
100
AcDbEntity
  8
1
  6
Continuous
 62
     7
100
AcDbCircle
 10
81.28040429656249
 20
234.1817622206587
 30
0.0
 40
59.99999999999994
100
AcDbArc
 50
-81.51555025862352
 51
-66.58728051639206
  0
ARC
  5
18D
330
4A
100
AcDbEntity
  8
1
  6
Continuous
 62
     7
100
AcDbCircle
 10
101.7804042965625
 20
185.1817622206587
 30
0.0
 40
7.000000000000095
100
AcDbArc
 50
-47.37714539216644
 51
0.0
  0
ARC
  5
18E
330
4A
100
AcDbEntity
  8
1
  6
Continuous
 62
     7
100
AcDbCircle
 10
81.28040429656249
 20
234.1817622206587
 30
0.0
 40
60.00000000000016
100
AcDbArc
 50
-113.4127194836072
 51
-113.1688797851184
  0
ARC
  5
18F
330
4A
100
AcDbEntity
  8
1
  6
Continuous
 62
     7
100
AcDbCircle
 10
81.28040429656249
 20
136.1817622206587
 30
0.0
 40
59.99999999999999
100
AcDbArc
 50
66.58728051639343
 51
90.0
  0
ARC
  5
190
330
4A
100
AcDbEntity
  8
1
  6
Continuous
 62
     7
100
AcDbCircle
 10
101.7804042965625
 20
185.1817622206587
 30
0.0
 40
7.0
100
AcDbArc
 50
0.0
 51
47.37714539219543
  0
ARC
  5
191
330
4A
100
AcDbEntity
  8
1
  6
Continuous
 62
     7
100
AcDbCircle
 10
81.28040429656249
 20
136.1817622206587
 30
0.0
 40
60.0
100
AcDbArc
 50
90.0
 51
94.75792333514457
  0
SPLINE
  5
192
330
4A
100
AcDbEntity
  8
1
  6
Continuous
 62
     7
100
AcDbSpline
210
0.0
220
0.0
230
1.0
 70
     8
 71
     3
 72
    45
 73
    41
 74
    39
 42
0.0000000001
 43
0.0000000001
 44
0.00000001
 40
0.0
 40
0.0
 40
0.0
 40
0.0
 40
0.2515580409742237
 40
0.500357098843382
 40
1.027744579339429
 40
1.565299685290588
 40
2.103968653040209
 40
2.63845552265988
 40
3.158849510527857
 40
3.680544992854179
 40
4.208285926235928
 40
4.735602079356044
 40
5.27160067918507
 40
5.808858201113584
 40
6.363074898772501
 40
6.912072920542698
 40
7.485196161788819
 40
8.081410284389161
 40
8.717965296988911
 40
9.330831433977046
 40
9.871732394618853
 40
10.41263335526069
 40
11.02549949224878
 40
11.66205450484853
 40
12.25826862744892
 40
12.83139186869499
 40
13.3803898904652
 40
13.9346065881241
 40
14.47186411005263
 40
15.00786270988164
 40
15.53517886300187
 40
16.06291979638352
 40
16.58461527870983
 40
17.10500926657781
 40
17.63949613619743
 40
18.17816510394711
 40
18.71572020989821
 40
19.24310769039431
 40
19.49190674826347
 40
19.7434647892377
 40
19.7434647892377
 40
19.7434647892377
 40
19.7434647892377
 10
188.7804042965627
 20
302.7661691305589
 30
0.0
 10
188.7762074836944
 20
302.6824356310644
 30
0.0
 10
188.7678598868415
 20
302.5158869859852
 30
0.0
 10
188.7762330605996
 20
302.17232983058
 30
0.0
 10
188.8930392317625
 20
301.7448982697976
 30
0.0
 10
189.1037293018842
 20
301.2543289219925
 30
0.0
 10
189.2968018305389
 20
300.7529531626129
 30
0.0
 10
189.4587848100294
 20
300.2465827887856
 30
0.0
 10
189.5802489379423
 20
299.7350507556131
 30
0.0
 10
189.6945596193809
 20
299.2243989074482
 30
0.0
 10
189.834269533768
 20
298.7174975325493
 30
0.0
 10
189.992196467826
 20
298.211176930838
 30
0.0
 10
190.1601351124472
 20
297.7047285916116
 30
0.0
 10
190.3458439397853
 20
297.194895771772
 30
0.0
 10
190.5534850477316
 20
296.6888472720638
 30
0.0
 10
190.784208132263
 20
296.1798982437756
 30
0.0
 10
191.0394235490772
 20
295.6666008053877
 30
0.0
 10
191.3619987254162
 20
295.1567701161717
 30
0.0
 10
191.7590338812325
 20
294.6833302794305
 30
0.0
 10
192.2181368657384
 20
294.2974075769017
 30
0.0
 10
192.7804042965626
 20
294.0994865377066
 30
0.0
 10
193.3426717273867
 20
294.2974075769016
 30
0.0
 10
193.8017747118928
 20
294.6833302794306
 30
0.0
 10
194.198809867709
 20
295.1567701161716
 30
0.0
 10
194.521385044048
 20
295.6666008053878
 30
0.0
 10
194.7766004608622
 20
296.1798982437756
 30
0.0
 10
195.0073235453936
 20
296.6888472720639
 30
0.0
 10
195.2149646533399
 20
297.1948957717719
 30
0.0
 10
195.400673480678
 20
297.7047285916116
 30
0.0
 10
195.5686121252992
 20
298.211176930838
 30
0.0
 10
195.7265390593572
 20
298.7174975325494
 30
0.0
 10
195.8662489737444
 20
299.2243989074482
 30
0.0
 10
195.9805596551829
 20
299.7350507556132
 30
0.0
 10
196.1020237830958
 20
300.2465827887855
 30
0.0
 10
196.2640067625862
 20
300.752953162613
 30
0.0
 10
196.4570792912411
 20
301.2543289219923
 30
0.0
 10
196.6677693613627
 20
301.7448982697977
 30
0.0
 10
196.7845755325255
 20
302.17232983058
 30
0.0
 10
196.7929487062838
 20
302.5158869859852
 30
0.0
 10
196.7846011094309
 20
302.6824356310644
 30
0.0
 10
196.7804042965626
 20
302.7661691305589
 30
0.0
 11
188.7804042965627
 21
302.7661691305589
 31
0.0
 11
188.7709542241526
 21
302.5147886537708
 31
0.0
 11
188.7804042965626
 21
302.266169130547
 31
0.0
 11
188.9032283229999
 21
301.7532833605029
 31
0.0
 11
189.1004906943421
 21
301.2532303145302
 31
0.0
 11
189.2923770704698
 21
300.7498975464006
 31
0.0
 11
189.4535536498867
 21
300.2402914985133
 31
0.0
 11
189.5790505112891
 21
299.7352564102399
 31
0.0
 11
189.6982141786712
 21
299.2273526824964
 31
0.0
 11
189.837119342244
 21
298.71822023578
 31
0.0
 11
189.9928160589524
 21
298.2144138664796
 31
0.0
 11
190.1624615969084
 21
297.7059702703253
 31
0.0
 11
190.3472052517511
 21
297.2014750504628
 31
0.0
 11
190.5572252466931
 21
296.6885932417695
 31
0.0
 11
190.7838125749669
 21
296.188536234446
 31
0.0
 11
191.0444488488615
 21
295.6781060409946
 31
0.0
 11
191.3653169903704
 21
295.1755974184291
 31
0.0
 11
191.7775287555639
 21
294.6905368606614
 31
0.0
 11
192.2611213250021
 21
294.3140489742017
 31
0.0
 11
192.7804042965626
 21
294.1626586024123
 31
0.0
 11
193.2996872681231
 21
294.3140489742017
 31
0.0
 11
193.7832798375613
 21
294.6905368606614
 31
0.0
 11
194.1954916027548
 21
295.1755974184291
 31
0.0
 11
194.5163597442637
 21
295.6781060409947
 31
0.0
 11
194.7769960181583
 21
296.188536234446
 31
0.0
 11
195.0035833464321
 21
296.6885932417695
 31
0.0
 11
195.2136033413741
 21
297.2014750504628
 31
0.0
 11
195.3983469962168
 21
297.7059702703253
 31
0.0
 11
195.5679925341728
 21
298.2144138664796
 31
0.0
 11
195.7236892508812
 21
298.7182202357801
 31
0.0
 11
195.862594414454
 21
299.2273526824964
 31
0.0
 11
195.9817580818361
 21
299.7352564102399
 31
0.0
 11
196.1072549432385
 21
300.2402914985133
 31
0.0
 11
196.2684315226554
 21
300.7498975464005
 31
0.0
 11
196.4603178987831
 21
301.2532303145302
 31
0.0
 11
196.6575802701253
 21
301.7532833605029
 31
0.0
 11
196.7804042965626
 21
302.266169130547
 31
0.0
 11
196.7898543689727
 21
302.5147886537708
 31
0.0
 11
196.7804042965626
 21
302.7661691305589
 31
0.0
  0
SPLINE
  5
193
330
4A
100
AcDbEntity
  8
1
  6
Continuous
 62
     7
100
AcDbSpline
210
0.0
220
0.0
230
1.0
 70
     8
 71
     3
 72
    39
 73
    35
 74
    33
 42
0.0000000001
 43
0.0000000001
 44
0.00000001
 40
0.0
 40
0.0
 40
0.0
 40
0.0
 40
0.8141162243080911
 40
1.628044439849524
 40
2.441115339998822
 40
3.254737864899971
 40
4.070360162078258
 40
4.884586783357291
 40
5.720631086340625
 40
6.557054741919551
 40
7.416022363946977
 40
8.280509960877588
 40
9.173609243004918
 40
10.04242609387247
 40
10.88855170782889
 40
11.82821403936097
 40
13.05005335067996
 40
13.8983672207837
 40
14.74668109088743
 40
15.96852040220643
 40
16.9081827337385
 40
17.75430834769492
 40
18.62312519856252
 40
19.51622448068984
 40
20.38071207762046
 40
21.23967969964784
 40
22.07610335522672
 40
22.91214765821011
 40
23.72637427948914
 40
24.54199657666743
 40
25.35561910156858
 40
26.16869000171788
 40
26.98261821725931
 40
27.7967344415674
 40
27.7967344415674
 40
27.7967344415674
 40
27.7967344415674
 10
188.7804042965627
 20
271.266169130547
 30
0.0
 10
188.8017936056255
 20
271.5366968559644
 30
0.0
 10
188.8445672841891
 20
272.077689832201
 30
0.0
 10
188.9059814417213
 20
272.8890792452124
 30
0.0
 10
188.9619306078307
 20
273.7006952921369
 30
0.0
 10
189.0117380572002
 20
274.5133055928617
 30
0.0
 10
189.0546171969386
 20
275.3265976608104
 30
0.0
 10
189.1379197769864
 20
276.1453638124052
 30
0.0
 10
189.3102424779931
 20
276.957606827161
 30
0.0
 10
189.5459702515509
 20
277.7681673885182
 30
0.0
 10
189.8182573151373
 20
278.5770495150369
 30
0.0
 10
190.1270713535643
 20
279.3930018956902
 30
0.0
 10
190.4608579062535
 20
280.2020864811703
 30
0.0
 10
190.8086591231455
 20
281.0001453669342
 30
0.0
 10
191.1672339413995
 20
281.8042612898163
 30
0.0
 10
191.6089077022914
 20
282.726993095122
 30
0.0
 10
191.9714720545379
 20
283.5661720997803
 30
0.0
 10
192.7804042965626
 20
284.5333948689186
 30
0.0
 10
193.5893365385873
 20
283.5661720997803
 30
0.0
 10
193.9519008908339
 20
282.726993095122
 30
0.0
 10
194.3935746517258
 20
281.8042612898163
 30
0.0
 10
194.7521494699797
 20
281.0001453669343
 30
0.0
 10
195.099950686872
 20
280.2020864811703
 30
0.0
 10
195.4337372395609
 20
279.3930018956901
 30
0.0
 10
195.7425512779881
 20
278.577049515037
 30
0.0
 10
196.0148383415742
 20
277.7681673885182
 30
0.0
 10
196.2505661151321
 20
276.957606827161
 30
0.0
 10
196.4228888161387
 20
276.1453638124051
 30
0.0
 10
196.5061913961867
 20
275.3265976608104
 30
0.0
 10
196.549070535925
 20
274.5133055928619
 30
0.0
 10
196.5988779852946
 20
273.7006952921369
 30
0.0
 10
196.654827151404
 20
272.8890792452124
 30
0.0
 10
196.7162413089362
 20
272.0776898322009
 30
0.0
 10
196.7590149874997
 20
271.5366968559644
 30
0.0
 10
196.7804042965625
 20
271.266169130547
 30
0.0
 11
188.7804042965627
 21
271.266169130547
 31
0.0
 11
188.8441183811511
 21
272.0777883405875
 31
0.0
 11
188.9050933363361
 21
272.8894293911108
 31
0.0
 11
188.9608895279112
 21
273.700583552584
 31
0.0
 11
189.0105412836348
 21
274.5126896516746
 31
0.0
 11
189.0612675428525
 21
275.3267330032721
 31
0.0
 11
189.1514506069085
 21
276.1359499122384
 31
0.0
 11
189.3201721795975
 21
276.9547924535492
 31
0.0
 11
189.5493373265197
 21
277.7592101728021
 31
0.0
 11
189.8226601989804
 21
278.5735319661254
 31
0.0
 11
190.1275492959739
 21
279.3824704333659
 31
0.0
 11
190.4667816641518
 21
280.2086349013242
 31
0.0
 11
190.8124419276504
 21
281.0057306939297
 31
0.0
 11
191.1593198413244
 21
281.7774847140672
 31
0.0
 11
191.5566892158556
 21
282.6289909544935
 31
0.0
 11
192.129483265145
 21
283.7082491626082
 31
0.0
 11
192.7804042965626
 21
284.2522512150572
 31
0.0
 11
193.4313253279802
 21
283.7082491626082
 31
0.0
 11
194.0041193772696
 21
282.6289909544935
 31
0.0
 11
194.4014887518008
 21
281.7774847140672
 31
0.0
 11
194.7483666654748
 21
281.0057306939297
 31
0.0
 11
195.0940269289736
 21
280.2086349013242
 31
0.0
 11
195.4332592971514
 21
279.3824704333659
 31
0.0
 11
195.7381483941449
 21
278.5735319661254
 31
0.0
 11
196.0114712666055
 21
277.7592101728021
 31
0.0
 11
196.2406364135277
 21
276.9547924535492
 31
0.0
 11
196.4093579862167
 21
276.1359499122384
 31
0.0
 11
196.4995410502727
 21
275.3267330032721
 31
0.0
 11
196.5502673094904
 21
274.5126896516746
 31
0.0
 11
196.599919065214
 21
273.700583552584
 31
0.0
 11
196.6557152567891
 21
272.8894293911108
 31
0.0
 11
196.7166902119742
 21
272.0777883405875
 31
0.0
 11
196.7804042965625
 21
271.266169130547
 31
0.0
  0
SPLINE
  5
194
330
4A
100
AcDbEntity
  8
1
  6
PHANTOM
 62
     5
100
AcDbSpline
210
0.0
220
0.0
230
1.0
 70
     8
 71
     3
 72
    11
 73
     7
 74
     5
 42
0.0000000001
 43
0.0000000001
 44
0.00000001
 40
0.0
 40
0.0
 40
0.0
 40
0.0
 40
1.627362306127765
 40
3.254723788708712
 40
4.679656436324828
 40
6.102973956353269
 40
6.102973956353269
 40
6.102973956353269
 40
6.102973956353269
 10
208.2804042965626
 20
290.7661691305468
 30
0.0
 10
207.739519770818
 20
290.7235911653507
 30
0.0
 10
206.6577509930501
 20
290.6384352565058
 30
0.0
 10
205.1027902823861
 20
290.5337824215155
 30
0.0
 10
203.607153258175
 20
290.4686493507085
 30
0.0
 10
202.682941566962
 20
290.2408769345978
 30
0.0
 10
202.2210977629094
 20
290.1270553068095
 30
0.0
 11
208.2804042965626
 21
290.7661691305468
 31
0.0
 11
206.6578222314519
 21
290.6415275749307
 31
0.0
 11
205.0338837754351
 21
290.5360321434748
 31
0.0
 11
203.6135218490486
 21
290.4219924647928
 31
0.0
 11
202.2210977629094
 21
290.1270553068095
 31
0.0
  0
SPLINE
  5
195
330
4A
100
AcDbEntity
  8
1
  6
PHANTOM
 62
     5
100
AcDbSpline
210
0.0
220
0.0
230
1.0
 70
     8
 71
     3
 72
    11
 73
     7
 74
     5
 42
0.0000000001
 43
0.0000000001
 44
0.00000001
 40
0.0
 40
0.0
 40
0.0
 40
0.0
 40
1.62736229655055
 40
3.254723794995928
 40
4.774672820495149
 40
6.292029154081845
 40
6.292029154081845
 40
6.292029154081845
 40
6.292029154081845
 10
208.2804042965626
 20
282.7661691305472
 30
0.0
 10
207.7395256571902
 20
282.8088725060828
 30
0.0
 10
206.6577686437078
 20
282.8942792362112
 30
0.0
 10
205.0711497315405
 20
282.9992203058989
 30
0.0
 10
203.5123661504442
 20
283.0725012239765
 30
0.0
 10
202.5281945420321
 20
283.3211594422038
 30
0.0
 10
202.0365287900546
 20
283.4453824220229
 30
0.0
 11
208.2804042965626
 21
282.7661691305472
 31
0.0
 11
206.6578222818318
 21
282.8908112169648
 31
0.0
 11
205.033883775435
 21
282.9963061176194
 31
0.0
 11
203.5192127615323
 21
283.1228634554509
 31
0.0
 11
202.0365287900546
 21
283.4453824220229
 31
0.0
  0
SPLINE
  5
196
330
4A
100
AcDbEntity
  8
1
  6
CENTER_DASH_DASH
 62
     5
100
AcDbSpline
210
0.0
220
0.0
230
1.0
 70
     8
 71
     3
 72
    21
 73
    17
 74
    15
 42
0.0000000001
 43
0.0000000001
 44
0.00000001
 40
0.0
 40
0.0
 40
0.0
 40
0.0
 40
0.7749719984795448
 40
1.560575477743598
 40
2.098829850240684
 40
2.633634806614134
 40
3.154127843440949
 40
3.675731115106013
 40
4.203264514802553
 40
4.730795434016304
 40
5.267551132551112
 40
5.804042085046172
 40
6.355268267478516
 40
6.90729395467047
 40
7.490153747323873
 40
8.0710641856879
 40
8.0710641856879
 40
8.0710641856879
 40
8.0710641856879
 10
176.7804042965508
 20
290.766169130547
 30
0.0
 10
177.0416868507874
 20
290.7651117567536
 30
0.0
 10
177.5678363732268
 20
290.7629825035471
 30
0.0
 10
178.2158557751571
 20
290.469960499802
 30
0.0
 10
178.7941788320639
 20
290.2529497433292
 30
0.0
 10
179.2998061774115
 20
290.0871902691468
 30
0.0
 10
179.8114063274433
 20
289.9657416875169
 30
0.0
 10
180.3221538004177
 20
289.8520978424984
 30
0.0
 10
180.829090668969
 20
289.712604034426
 30
0.0
 10
181.335580957909
 20
289.5543574658708
 30
0.0
 10
181.8419446980948
 20
289.3859323756946
 30
0.0
 10
182.3508635373659
 20
289.200736083667
 30
0.0
 10
182.8574468775275
 20
288.9949124794744
 30
0.0
 10
183.3685489004133
 20
288.7613031712718
 30
0.0
 10
183.881203802505
 20
288.5055974624745
 30
0.0
 10
184.2050040131587
 20
288.2913311155401
 30
0.0
 10
184.3666329303623
 20
288.1843773937427
 30
0.0
 11
176.7804042965508
 21
290.766169130547
 31
0.0
 11
177.5533229987615
 21
290.7097929103803
 31
0.0
 11
178.2933431125795
 21
290.4460827327675
 31
0.0
 11
178.7969113972598
 21
290.2559860411172
 31
0.0
 11
179.3062819285963
 21
290.0930197772231
 31
0.0
 11
179.8112956368226
 21
289.9670270953376
 31
0.0
 11
180.3192207446132
 21
289.8483592484386
 31
0.0
 11
180.8282101897876
 21
289.709718588831
 31
0.0
 11
181.33215956063
 21
289.5537573681573
 31
0.0
 11
181.8412120638042
 21
289.3835450627217
 31
0.0
 11
182.3450983766469
 21
289.1993681753585
 31
0.0
 11
182.8555980550514
 21
288.9914249558299
 31
0.0
 11
183.3580371926637
 21
288.7627608521427
 31
0.0
 11
183.8757868349528
 21
288.4950654173637
 31
0.0
 11
184.3666329303623
 21
288.1843773937427
 31
0.0
  0
SPLINE
  5
197
330
4A
100
AcDbEntity
  8
1
  6
PHANTOM
 62
     5
100
AcDbSpline
210
0.0
220
0.0
230
1.0
 70
     8
 71
     3
 72
    21
 73
    17
 74
    15
 42
0.0000000001
 43
0.0000000001
 44
0.00000001
 40
0.0
 40
0.0
 40
0.0
 40
0.0
 40
0.7749720052011209
 40
1.560575494798548
 40
2.098829937346509
 40
2.633634843274712
 40
3.154127789326032
 40
3.675731131074375
 40
4.203264985874584
 40
4.730795272054445
 40
5.267548101709438
 40
5.804042472301869
 40
6.355284711503399
 40
6.907291301742224
 40
7.293040206215171
 40
7.678301848668722
 40
7.678301848668722
 40
7.678301848668722
 40
7.678301848668722
 10
176.7804042965508
 20
282.7661691305472
 30
0.0
 10
177.041686850065
 20
282.7672264891967
 30
0.0
 10
177.5678363722363
 20
282.7693557119127
 30
0.0
 10
178.2158558667793
 20
283.0623775919123
 30
0.0
 10
178.7941786686965
 20
283.2793890024612
 30
0.0
 10
179.2998061021285
 20
283.445148327694
 30
0.0
 10
179.8114066969841
 20
283.5665947909907
 30
0.0
 10
180.322154350325
 20
283.6802391665401
 30
0.0
 10
180.829088641225
 20
283.8197412654977
 30
0.0
 10
181.3355799104236
 20
283.9779838969874
 30
0.0
 10
181.8419477140409
 20
284.1463848368002
 30
0.0
 10
182.3508911841184
 20
284.3315708715851
 30
0.0
 10
182.8573485222323
 20
284.5375845982462
 30
0.0
 10
183.3089843635475
 20
284.7435870225724
 30
0.0
 10
183.7046745241046
 20
284.9387948339821
 30
0.0
 10
183.9272025059686
 20
285.0675086234132
 30
0.0
 10
184.0383961804606
 20
285.1318248459608
 30
0.0
 11
176.7804042965508
 21
282.7661691305472
 31
0.0
 11
177.5533230100586
 21
282.8225452882287
 31
0.0
 11
178.2933431125796
 21
283.0862555283267
 31
0.0
 11
178.7969113284392
 21
283.2763526006307
 31
0.0
 11
179.3062819285964
 21
283.4393184838713
 31
0.0
 11
179.8112958830863
 21
283.5653098036501
 31
0.0
 11
180.3192207446132
 21
283.6839790126554
 31
0.0
 11
180.8282092587275
 21
283.8226248220407
 31
0.0
 11
181.33215956063
 21
283.9785808929369
 31
0.0
 11
181.8412156254563
 21
284.1487734985523
 31
0.0
 11
182.3450983766469
 21
284.3329700857356
 31
0.0
 11
182.8555842225247
 21
284.5409898142191
 31
0.0
 11
183.3580371926637
 21
284.7695774089515
 31
0.0
 11
183.7028009223595
 21
284.9426097411567
 31
0.0
 11
184.0383961804606
 21
285.1318248459608
 31
0.0
  0
ARC
  5
198
330
4A
100
AcDbEntity
  8
1
  6
Continuous
 62
     7
100
AcDbCircle
 10
57.28040429656269
 20
178.1014626494187
 30
0.0
 40
1.0
100
AcDbArc
 50
0.0
 51
66.83112021488958
  0
ARC
  5
199
330
4A
100
AcDbEntity
  8
1
  6
Continuous
 62
     7
100
AcDbCircle
 10
59.42606522409281
 20
183.7101081591408
 30
0.0
 40
4.999999999999972
100
AcDbArc
 50
-132.6228546078174
 51
-113.4127194836089
  0
ARC
  5
19A
330
4A
100
AcDbEntity
  8
1
  6
Continuous
 62
     7
100
AcDbCircle
 10
59.42606522409281
 20
186.6534162821765
 30
0.0
 40
5.00000000000007
100
AcDbArc
 50
113.4127194836088
 51
132.6228546078172
  0
ARC
  5
19B
330
4A
100
AcDbEntity
  8
1
  6
Continuous
 62
     7
100
AcDbCircle
 10
58.48040429656251
 20
168.3817622206587
 30
0.0
 40
0.1999999999997044
100
AcDbArc
 50
180.0
 51
-89.99999999988602
  0
ARC
  5
19C
330
4A
100
AcDbEntity
  8
1
  6
Continuous
 62
     7
100
AcDbCircle
 10
89.08040429656271
 20
168.3817622206587
 30
0.0
 40
0.1999999999998749
100
AcDbArc
 50
-90.0
 51
0.0
  0
ARC
  5
19D
330
4A
100
AcDbEntity
  8
1
  6
Continuous
 62
     7
100
AcDbCircle
 10
90.28040429656269
 20
173.8493497046653
 30
0.0
 40
1.000000000000079
100
AcDbArc
 50
98.48444974137665
 51
180.0
  0
ARC
  5
19E
330
4A
100
AcDbEntity
  8
1
  6
Continuous
 62
     7
100
AcDbCircle
 10
103.1347433690328
 20
183.7101081591412
 30
0.0
 40
4.999999999999964
100
AcDbArc
 50
-66.58728051639076
 51
-47.37714539216673
  0
ARC
  5
19F
330
4A
100
AcDbEntity
  8
1
  6
Continuous
 62
     7
100
AcDbCircle
 10
103.1347433690319
 20
186.6534162821766
 30
0.0
 40
4.999999999999951
100
AcDbArc
 50
47.37714539219634
 51
66.58728051639585
  0
ENDBLK
  5
4C
330
4A
100
AcDbEntity
  8
0
100
AcDbBlockEnd
  0
BLOCK
  5
4E
330
4D
100
AcDbEntity
  8
0
100
AcDbBlockBegin
  2
32-178
 70
     0
 71
     0
 10
328.2506413836212
 20
-44.05223348934602
 30
0.0
  3
32-178
  1

  0
LINE
  5
1A0
330
4D
100
AcDbEntity
  8
1
  6
Continuous
 62
     7
100
AcDbLine
 10
163.9222622982724
 20
298.7575054242125
 30
0.0
 11
163.9222622982724
 21
286.766169130547
 31
0.0
  0
LINE
  5
1A1
330
4D
100
AcDbEntity
  8
1
  6
Continuous
 62
     7
100
AcDbLine
 10
176.9222622982724
 20
286.766169130547
 30
0.0
 11
176.9222622982724
 21
298.7661691305472
 31
0.0
  0
LINE
  5
1A2
330
4D
100
AcDbEntity
  8
1
  6
Continuous
 62
     7
100
AcDbLine
 10
176.9222622982724
 20
298.7661691305472
 30
0.0
 11
163.9222622982724
 21
298.7661691305472
 31
0.0
  0
LINE
  5
1A3
330
4D
100
AcDbEntity
  8
1
  6
Continuous
 62
     7
100
AcDbLine
 10
164.9309260046071
 20
297.0962961494693
 30
0.0
 11
175.9222622982724
 21
297.0962961494693
 31
0.0
  0
LINE
  5
1A4
330
4D
100
AcDbEntity
  8
1
  6
Continuous
 62
     7
100
AcDbLine
 10
175.9222622982724
 20
288.4360421116248
 30
0.0
 11
164.9309260046071
 21
288.4360421116248
 31
0.0
  0
LINE
  5
1A5
330
4D
100
AcDbEntity
  8
1
  6
Continuous
 62
     7
100
AcDbLine
 10
163.9222622982724
 20
286.766169130547
 30
0.0
 11
163.9222622982724
 21
274.7748328368815
 31
0.0
  0
LINE
  5
1A6
330
4D
100
AcDbEntity
  8
1
  6
Continuous
 62
     7
100
AcDbLine
 10
176.9222622982724
 20
274.7661691305468
 30
0.0
 11
176.9222622982724
 21
286.766169130547
 31
0.0
  0
LINE
  5
1A7
330
4D
100
AcDbEntity
  8
1
  6
Continuous
 62
     7
100
AcDbLine
 10
163.9222622982724
 20
274.7661691305468
 30
0.0
 11
176.9222622982724
 21
274.7661691305468
 31
0.0
  0
LINE
  5
1A8
330
4D
100
AcDbEntity
  8
1
  6
Continuous
 62
     7
100
AcDbLine
 10
175.9222622982724
 20
276.4360421116247
 30
0.0
 11
164.9309260046071
 21
276.4360421116247
 31
0.0
  0
LINE
  5
1A9
330
4D
100
AcDbEntity
  8
1
  6
Continuous
 62
     7
100
AcDbLine
 10
164.9309260046071
 20
285.0962961494691
 30
0.0
 11
175.9222622982724
 21
285.0962961494691
 31
0.0
  0
LINE
  5
1AA
330
4D
100
AcDbEntity
  8
1
  6
Continuous
 62
     7
100
AcDbLine
 10
176.9222622982724
 20
135.1846738116192
 30
0.0
 11
176.9222622982724
 21
159.1846738116191
 31
0.0
  0
LINE
  5
1AB
330
4D
100
AcDbEntity
  8
1
  6
Continuous
 62
     7
100
AcDbLine
 10
164.9222622982724
 20
134.1846738116193
 30
0.0
 11
175.9222622982724
 21
134.1846738116191
 31
0.0
  0
LINE
  5
1AC
330
4D
100
AcDbEntity
  8
1
  6
Continuous
 62
     7
100
AcDbLine
 10
163.9222622982724
 20
135.1846738116191
 30
0.0
 11
164.9222622982724
 21
134.1846738116193
 31
0.0
  0
LINE
  5
1AD
330
4D
100
AcDbEntity
  8
1
  6
Continuous
 62
     7
100
AcDbLine
 10
175.9222622982724
 20
134.1846738116191
 30
0.0
 11
176.9222622982724
 21
135.1846738116192
 31
0.0
  0
LINE
  5
1AE
330
4D
100
AcDbEntity
  8
1
  6
Continuous
 62
     7
100
AcDbLine
 10
163.9222622982724
 20
159.1846738116191
 30
0.0
 11
163.9222622982724
 21
135.1846738116191
 31
0.0
  0
LINE
  5
1AF
330
4D
100
AcDbEntity
  8
1
  6
Continuous
 62
     7
100
AcDbLine
 10
175.9222622982724
 20
160.1846738116191
 30
0.0
 11
164.9222622982724
 21
160.1846738116191
 31
0.0
  0
LINE
  5
1B0
330
4D
100
AcDbEntity
  8
1
  6
Continuous
 62
     7
100
AcDbLine
 10
164.9222622982724
 20
160.1846738116191
 30
0.0
 11
163.9222622982724
 21
159.1846738116191
 31
0.0
  0
LINE
  5
1B1
330
4D
100
AcDbEntity
  8
1
  6
Continuous
 62
     7
100
AcDbLine
 10
176.9222622982724
 20
159.1846738116191
 30
0.0
 11
175.9222622982724
 21
160.1846738116191
 31
0.0
  0
LINE
  5
1B2
330
4D
100
AcDbEntity
  8
1
  6
Continuous
 62
     7
100
AcDbLine
 10
164.9222622982718
 20
142.1846738116193
 30
0.0
 11
175.9222622982724
 21
142.1846738116193
 31
0.0
  0
LINE
  5
1B3
330
4D
100
AcDbEntity
  8
1
  6
Continuous
 62
     7
100
AcDbLine
 10
164.9222622982718
 20
152.1846738116193
 30
0.0
 11
175.9222622982724
 21
152.1846738116188
 31
0.0
  0
LINE
  5
1B4
330
4D
100
AcDbEntity
  8
1
  6
Continuous
 62
     7
100
AcDbLine
 10
164.9222622982718
 20
155.0769786570325
 30
0.0
 11
175.9222622982724
 21
155.0769786570325
 31
0.0
  0
LINE
  5
1B5
330
4D
100
AcDbEntity
  8
1
  6
Continuous
 62
     7
100
AcDbLine
 10
164.9222622982718
 20
160.0769786570325
 30
0.0
 11
175.9222622982724
 21
160.0769786570325
 31
0.0
  0
LINE
  5
1B6
330
4D
100
AcDbEntity
  8
1
  6
Continuous
 62
     7
100
AcDbLine
 10
175.9222622982724
 20
134.2923689662059
 30
0.0
 11
164.9222622982718
 21
134.2923689662059
 31
0.0
  0
LINE
  5
1B7
330
4D
100
AcDbEntity
  8
1
  6
Continuous
 62
     7
100
AcDbLine
 10
175.9222622982724
 20
139.2923689662059
 30
0.0
 11
164.9222622982718
 21
139.2923689662059
 31
0.0
  0
LINE
  5
1B8
330
4D
100
AcDbEntity
  8
1
  6
Continuous
 62
     7
100
AcDbLine
 10
61.5684967181181
 20
152.184673811619
 30
0.0
 11
61.5684967181181
 21
142.184673811619
 31
0.0
  0
LINE
  5
1B9
330
4D
100
AcDbEntity
  8
1
  6
Continuous
 62
     7
100
AcDbLine
 10
63.23836969919591
 20
139.2923689662057
 30
0.0
 11
71.89862373704031
 21
134.2923689662058
 31
0.0
  0
LINE
  5
1BA
330
4D
100
AcDbEntity
  8
1
  6
Continuous
 62
     7
100
AcDbLine
 10
75.238369699196
 20
134.2923689662058
 30
0.0
 11
83.8986237370402
 21
139.2923689662057
 31
0.0
  0
LINE
  5
1BB
330
4D
100
AcDbEntity
  8
1
  6
Continuous
 62
     7
100
AcDbLine
 10
85.5684967181181
 20
142.1846738116192
 30
0.0
 11
85.5684967181181
 21
152.1846738116189
 31
0.0
  0
LINE
  5
1BC
330
4D
100
AcDbEntity
  8
1
  6
Continuous
 62
     7
100
AcDbLine
 10
83.89862373704031
 20
155.0769786570323
 30
0.0
 11
75.23836969919591
 21
160.0769786570323
 31
0.0
  0
LINE
  5
1BD
330
4D
100
AcDbEntity
  8
1
  6
Continuous
 62
     7
100
AcDbLine
 10
71.89862373704031
 20
160.0769786570323
 30
0.0
 11
63.23836969919591
 21
155.0769786570323
 31
0.0
  0
ARC
  5
1BE
330
4D
100
AcDbEntity
  8
1
  6
Continuous
 62
     7
100
AcDbCircle
 10
167.0472622982724
 20
292.766169130547
 30
0.0
 40
9.875000000000009
100
AcDbArc
 50
-26.00782388564574
 51
26.00782388564633
  0
ARC
  5
1BF
330
4D
100
AcDbEntity
  8
1
  6
Continuous
 62
     7
100
AcDbCircle
 10
173.7210695460853
 20
292.766169130547
 30
0.0
 40
9.798807247812961
100
AcDbArc
 50
153.7746061724992
 51
-153.7746061724998
  0
ARC
  5
1C0
330
4D
100
AcDbEntity
  8
1
  6
Continuous
 62
     7
100
AcDbCircle
 10
167.0472622982724
 20
280.7661691305469
 30
0.0
 40
9.875000000000009
100
AcDbArc
 50
-26.00782388564574
 51
26.00782388564544
  0
ARC
  5
1C1
330
4D
100
AcDbEntity
  8
1
  6
Continuous
 62
     7
100
AcDbCircle
 10
173.7210695460853
 20
280.7661691305469
 30
0.0
 40
9.798807247812887
100
AcDbArc
 50
153.7746061725001
 51
-153.7746061724998
  0
ARC
  5
1C2
330
4D
100
AcDbEntity
  8
1
  6
Continuous
 62
     7
100
AcDbCircle
 10
176.9222622982783
 20
147.1846738116191
 30
0.0
 40
13.00000000000608
100
AcDbArc
 50
157.3801350519698
 51
-157.3801350519714
  0
ARC
  5
1C3
330
4D
100
AcDbEntity
  8
1
  6
Continuous
 62
     7
100
AcDbCircle
 10
167.5472622982736
 20
157.5769786570322
 30
0.0
 40
3.625000000001513
100
AcDbArc
 50
136.397181027313
 51
-136.3971810273195
  0
ARC
  5
1C4
330
4D
100
AcDbEntity
  8
1
  6
Continuous
 62
     7
100
AcDbCircle
 10
173.2972622982729
 20
157.5769786570322
 30
0.0
 40
3.624999999999433
100
AcDbArc
 50
-43.60281897270595
 51
43.60281897271246
  0
ARC
  5
1C5
330
4D
100
AcDbEntity
  8
1
  6
Continuous
 62
     7
100
AcDbCircle
 10
163.922262298274
 20
147.1846738116191
 30
0.0
 40
12.99999999999843
100
AcDbArc
 50
-22.61986494804236
 51
22.61986494804201
  0
ARC
  5
1C6
330
4D
100
AcDbEntity
  8
1
  6
Continuous
 62
     7
100
AcDbCircle
 10
167.5472622982736
 20
136.7923689662058
 30
0.0
 40
3.625000000001396
100
AcDbArc
 50
136.3971810273149
 51
-136.3971810273175
  0
ARC
  5
1C7
330
4D
100
AcDbEntity
  8
1
  6
Continuous
 62
     7
100
AcDbCircle
 10
173.2972622982729
 20
136.7923689662058
 30
0.0
 40
3.624999999999551
100
AcDbArc
 50
-43.6028189727079
 51
43.6028189727105
  0
ARC
  5
1C8
330
4D
100
AcDbEntity
  8
1
  6
Continuous
 62
     7
100
AcDbCircle
 10
73.5684967181181
 20
147.1846738116191
 30
0.0
 40
13.00000000000003
100
AcDbArc
 50
-97.38013505195947
 51
-90.0
  0
ARC
  5
1C9
330
4D
100
AcDbEntity
  8
1
  6
Continuous
 62
     7
100
AcDbCircle
 10
73.5684967181181
 20
147.1846738116191
 30
0.0
 40
12.99999999999996
100
AcDbArc
 50
142.6198649480406
 51
157.3801350519599
  0
ARC
  5
1CA
330
4D
100
AcDbEntity
  8
1
  6
Continuous
 62
     7
100
AcDbCircle
 10
73.5684967181181
 20
147.1846738116191
 30
0.0
 40
13.00000000000003
100
AcDbArc
 50
-157.3801350519592
 51
-142.6198649480399
  0
ARC
  5
1CB
330
4D
100
AcDbEntity
  8
1
  6
Continuous
 62
     7
100
AcDbCircle
 10
73.5684967181181
 20
147.1846738116191
 30
0.0
 40
13.00000000000009
100
AcDbArc
 50
-90.0
 51
-82.61986494804003
  0
ARC
  5
1CC
330
4D
100
AcDbEntity
  8
1
  6
Continuous
 62
     7
100
AcDbCircle
 10
73.5684967181181
 20
147.1846738116191
 30
0.0
 40
13.00000000000001
100
AcDbArc
 50
-37.38013505196033
 51
-22.61986494803997
  0
ARC
  5
1CD
330
4D
100
AcDbEntity
  8
1
  6
Continuous
 62
     7
100
AcDbCircle
 10
73.5684967181181
 20
147.1846738116191
 30
0.0
 40
12.99999999999992
100
AcDbArc
 50
22.61986494803962
 51
37.38013505195932
  0
ARC
  5
1CE
330
4D
100
AcDbEntity
  8
1
  6
Continuous
 62
     7
100
AcDbCircle
 10
73.5684967181181
 20
147.1846738116191
 30
0.0
 40
12.99999999999995
100
AcDbArc
 50
82.61986494804036
 51
90.0
  0
ARC
  5
1CF
330
4D
100
AcDbEntity
  8
1
  6
Continuous
 62
     7
100
AcDbCircle
 10
73.5684967181181
 20
147.1846738116191
 30
0.0
 40
12.99999999999992
100
AcDbArc
 50
90.0
 51
97.38013505195953
  0
CIRCLE
  5
1D0
330
4D
100
AcDbEntity
  8
1
  6
Continuous
 62
     7
100
AcDbCircle
 10
73.5684967181181
 20
147.1846738116191
 30
0.0
 40
11.99999999999992
  0
CIRCLE
  5
1D1
330
4D
100
AcDbEntity
  8
1
  6
Continuous
 62
     7
100
AcDbCircle
 10
73.5684967181181
 20
147.1846738116191
 30
0.0
 40
10.99133629366511
  0
CIRCLE
  5
1D2
330
4D
100
AcDbEntity
  8
1
  6
Continuous
 62
     2
100
AcDbCircle
 10
73.5684967181181
 20
147.1846738116191
 30
0.0
 40
10.39999999999992
  0
CIRCLE
  5
1D3
330
4D
100
AcDbEntity
  8
1
  6
Continuous
 62
     7
100
AcDbCircle
 10
73.5684967181181
 20
147.1846738116191
 30
0.0
 40
9.237999999999914
  0
CIRCLE
  5
1D4
330
4D
100
AcDbEntity
  8
1
  6
Continuous
 62
     7
100
AcDbCircle
 10
73.5684967181181
 20
147.1846738116191
 30
0.0
 40
7.499999999999801
  0
ENDBLK
  5
4F
330
4D
100
AcDbEntity
  8
0
100
AcDbBlockEnd
  0
BLOCK
  5
51
330
50
100
AcDbEntity
  8
0
100
AcDbBlockBegin
  2
30-139A
 70
     0
 71
     0
 10
181.0804042965626
 20
367.3925877710998
 30
0.0
  3
30-139A
  1

  0
LINE
  5
1D5
330
50
100
AcDbEntity
  8
1
  6
Continuous
 62
     7
100
AcDbLine
 10
205.4804042965627
 20
298.266169130547
 30
0.0
 11
205.4804042965627
 21
295.6521130871562
 31
0.0
  0
LINE
  5
1D6
330
50
100
AcDbEntity
  8
1
  6
Continuous
 62
     7
100
AcDbLine
 10
180.0804042965624
 20
298.266169130547
 30
0.0
 11
180.0804042965624
 21
295.6521130871561
 31
0.0
  0
LINE
  5
1D7
330
50
100
AcDbEntity
  8
1
  6
Continuous
 62
     7
100
AcDbLine
 10
181.0804042965624
 20
274.266169130547
 30
0.0
 11
183.615252906651
 21
274.266169130547
 31
0.0
  0
LINE
  5
1D8
330
50
100
AcDbEntity
  8
1
  6
Continuous
 62
     7
100
AcDbLine
 10
181.0804042965624
 20
299.266169130547
 30
0.0
 11
183.6152529066509
 21
299.266169130547
 31
0.0
  0
LINE
  5
1D9
330
50
100
AcDbEntity
  8
1
  6
Continuous
 62
     2
100
AcDbLine
 10
214.7804042965626
 20
296.0041691305473
 30
0.0
 11
212.7677612581677
 21
297.1661691305471
 31
0.0
  0
LINE
  5
1DA
330
50
100
AcDbEntity
  8
1
  6
Continuous
 62
     7
100
AcDbLine
 10
212.7677612581677
 20
297.1661691305471
 30
0.0
 11
212.5945561774109
 21
297.266169130547
 31
0.0
  0
LINE
  5
1DB
330
50
100
AcDbEntity
  8
1
  6
Continuous
 62
     2
100
AcDbLine
 10
212.7677612581677
 20
276.366169130547
 30
0.0
 11
214.7804042965626
 21
277.5281691305469
 31
0.0
  0
LINE
  5
1DC
330
50
100
AcDbEntity
  8
1
  6
Continuous
 62
     2
100
AcDbLine
 10
214.7804042965626
 20
277.5281691305469
 30
0.0
 11
215.7804042965626
 21
277.5281691305469
 31
0.0
  0
LINE
  5
1DD
330
50
100
AcDbEntity
  8
1
  6
Continuous
 62
     7
100
AcDbLine
 10
212.5945561774109
 20
276.266169130547
 30
0.0
 11
212.7677612581677
 21
276.366169130547
 31
0.0
  0
LINE
  5
1DE
330
50
100
AcDbEntity
  8
1
  6
Continuous
 62
     7
100
AcDbLine
 10
205.4804042965623
 20
276.266169130547
 30
0.0
 11
212.5945561774109
 21
276.266169130547
 31
0.0
  0
LINE
  5
1DF
330
50
100
AcDbEntity
  8
1
  6
Continuous
 62
     7
100
AcDbLine
 10
212.5945561774109
 20
297.266169130547
 30
0.0
 11
205.4804042965623
 21
297.266169130547
 31
0.0
  0
LINE
  5
1E0
330
50
100
AcDbEntity
  8
1
  6
Continuous
 62
     7
100
AcDbLine
 10
214.7804042965626
 20
276.366169130547
 30
0.0
 11
214.7804042965626
 21
286.7661691305472
 31
0.0
  0
LINE
  5
1E1
330
50
100
AcDbEntity
  8
1
  6
Continuous
 62
     7
100
AcDbLine
 10
212.7677612581677
 20
297.1661691305471
 30
0.0
 11
215.7804042965626
 21
297.1661691305471
 31
0.0
  0
LINE
  5
1E2
330
50
100
AcDbEntity
  8
1
  6
Continuous
 62
     7
100
AcDbLine
 10
212.5945561774109
 20
276.266169130547
 30
0.0
 11
212.5945561774109
 21
286.766169130547
 31
0.0
  0
LINE
  5
1E3
330
50
100
AcDbEntity
  8
1
  6
Continuous
 62
     7
100
AcDbLine
 10
201.9455556864743
 20
299.266169130547
 30
0.0
 11
204.4804042965627
 21
299.266169130547
 31
0.0
  0
LINE
  5
1E4
330
50
100
AcDbEntity
  8
1
  6
Continuous
 62
     7
100
AcDbLine
 10
179.2157443303121
 20
294.266169130547
 30
0.0
 11
176.9222622982724
 21
294.266169130547
 31
0.0
  0
LINE
  5
1E5
330
50
100
AcDbEntity
  8
1
  6
Continuous
 62
     7
100
AcDbLine
 10
180.0804042965626
 20
277.8802251739379
 30
0.0
 11
180.0804042965626
 21
275.766169130547
 31
0.0
  0
LINE
  5
1E6
330
50
100
AcDbEntity
  8
1
  6
Continuous
 62
     7
100
AcDbLine
 10
201.9455556864742
 20
274.266169130547
 30
0.0
 11
204.4804042965627
 21
274.266169130547
 31
0.0
  0
LINE
  5
1E7
330
50
100
AcDbEntity
  8
1
  6
Continuous
 62
     7
100
AcDbLine
 10
205.4804042965627
 20
277.8802251739379
 30
0.0
 11
205.4804042965627
 21
275.766169130547
 31
0.0
  0
LINE
  5
1E8
330
50
100
AcDbEntity
  8
1
  6
Continuous
 62
     7
100
AcDbLine
 10
215.7804042965626
 20
276.366169130547
 30
0.0
 11
212.7677612581677
 21
276.366169130547
 31
0.0
  0
LINE
  5
1E9
330
50
100
AcDbEntity
  8
1
  6
Continuous
 62
     7
100
AcDbLine
 10
212.5945561774109
 20
286.766169130547
 30
0.0
 11
212.5945561774109
 21
297.266169130547
 31
0.0
  0
LINE
  5
1EA
330
50
100
AcDbEntity
  8
1
  6
Continuous
 62
     7
100
AcDbLine
 10
214.7804042965626
 20
286.7661691305472
 30
0.0
 11
214.7804042965626
 21
297.1661691305471
 31
0.0
  0
LINE
  5
1EB
330
50
100
AcDbEntity
  8
1
  6
Continuous
 62
     2
100
AcDbLine
 10
215.7804042965626
 20
296.0041691305473
 30
0.0
 11
214.7804042965626
 21
296.0041691305473
 31
0.0
  0
LINE
  5
1EC
330
50
100
AcDbEntity
  8
1
  6
Continuous
 62
     7
100
AcDbLine
 10
176.9222622982724
 20
279.266169130547
 30
0.0
 11
179.2157443303121
 21
279.266169130547
 31
0.0
  0
LINE
  5
1ED
330
50
100
AcDbEntity
  8
1
  6
Continuous
 62
     7
100
AcDbLine
 10
214.7804042965626
 20
136.7846738116191
 30
0.0
 11
212.7677612581677
 21
136.7846738116191
 31
0.0
  0
LINE
  5
1EE
330
50
100
AcDbEntity
  8
0
  6
Continuous
 62
     7
100
AcDbLine
 10
214.7804042965626
 20
137.9466738116189
 30
0.0
 11
214.7804042965626
 21
136.7846738116191
 31
0.0
  0
LINE
  5
1EF
330
50
100
AcDbEntity
  8
1
  6
Continuous
 62
     7
100
AcDbLine
 10
214.7804042965626
 20
157.5846738116192
 30
0.0
 11
216.7804042965626
 21
157.5846738116192
 31
0.0
  0
LINE
  5
1F0
330
50
100
AcDbEntity
  8
0
  6
Continuous
 62
     7
100
AcDbLine
 10
214.7804042965626
 20
156.4226738116193
 30
0.0
 11
214.7804042965626
 21
157.5846738116192
 31
0.0
  0
LINE
  5
1F1
330
50
100
AcDbEntity
  8
1
  6
Continuous
 62
     7
100
AcDbLine
 10
181.5304042965627
 20
159.1846738116191
 30
0.0
 11
181.5304042965627
 21
168.1817622206588
 31
0.0
  0
LINE
  5
1F2
330
50
100
AcDbEntity
  8
1
  6
Continuous
 62
     7
100
AcDbLine
 10
181.5304042965627
 20
159.1846738116191
 30
0.0
 11
181.0804042965627
 21
159.1846738116191
 31
0.0
  0
LINE
  5
1F3
330
50
100
AcDbEntity
  8
1
  6
Continuous
 62
     7
100
AcDbLine
 10
204.0304042965627
 20
168.1817622206588
 30
0.0
 11
204.0304042965627
 21
159.1846738116191
 31
0.0
  0
LINE
  5
1F4
330
50
100
AcDbEntity
  8
1
  6
Continuous
 62
     7
100
AcDbLine
 10
204.4804042965624
 20
159.1846738116191
 30
0.0
 11
204.0304042965627
 21
159.1846738116191
 31
0.0
  0
LINE
  5
1F5
330
50
100
AcDbEntity
  8
1
  6
Continuous
 62
     7
100
AcDbLine
 10
180.0804042965627
 20
158.1846738116191
 30
0.0
 11
180.0804042965627
 21
154.6846738116191
 31
0.0
  0
LINE
  5
1F6
330
50
100
AcDbEntity
  8
1
  6
Continuous
 62
     7
100
AcDbLine
 10
180.0804042965627
 20
154.6846738116191
 30
0.0
 11
176.9222622982725
 21
154.6846738116191
 31
0.0
  0
LINE
  5
1F7
330
50
100
AcDbEntity
  8
1
  6
Continuous
 62
     7
100
AcDbLine
 10
181.0804042965628
 20
135.1846738116191
 30
0.0
 11
204.4804042965623
 21
135.1846738116191
 31
0.0
  0
LINE
  5
1F8
330
50
100
AcDbEntity
  8
1
  6
Continuous
 62
     7
100
AcDbLine
 10
180.0804042965626
 20
139.6846738116191
 30
0.0
 11
180.0804042965628
 21
136.1846738116191
 31
0.0
  0
LINE
  5
1F9
330
50
100
AcDbEntity
  8
1
  6
Continuous
 62
     7
100
AcDbLine
 10
176.9222622982724
 20
139.6846738116193
 30
0.0
 11
180.0804042965626
 21
139.6846738116191
 31
0.0
  0
LINE
  5
1FA
330
50
100
AcDbEntity
  8
1
  6
Continuous
 62
     7
100
AcDbLine
 10
205.4804042965623
 20
136.1846738116191
 30
0.0
 11
205.4804042965623
 21
136.6846738116191
 31
0.0
  0
LINE
  5
1FB
330
50
100
AcDbEntity
  8
1
  6
Continuous
 62
     7
100
AcDbLine
 10
205.4804042965623
 20
136.6846738116191
 30
0.0
 11
212.5945561774108
 21
136.6846738116191
 31
0.0
  0
LINE
  5
1FC
330
50
100
AcDbEntity
  8
1
  6
Continuous
 62
     7
100
AcDbLine
 10
212.5945561774108
 20
136.6846738116191
 30
0.0
 11
212.7677612581677
 21
136.7846738116191
 31
0.0
  0
LINE
  5
1FD
330
50
100
AcDbEntity
  8
1
  6
Continuous
 62
     2
100
AcDbLine
 10
214.7804042965626
 20
137.9466738116189
 30
0.0
 11
216.7804042965626
 21
137.9466738116189
 31
0.0
  0
LINE
  5
1FE
330
50
100
AcDbEntity
  8
1
  6
Continuous
 62
     7
100
AcDbLine
 10
216.7804042965626
 20
136.7846738116191
 30
0.0
 11
214.7804042965626
 21
136.7846738116191
 31
0.0
  0
LINE
  5
1FF
330
50
100
AcDbEntity
  8
1
  6
Continuous
 62
     2
100
AcDbLine
 10
212.7677612581677
 20
136.7846738116191
 30
0.0
 11
214.7804042965626
 21
137.9466738116189
 31
0.0
  0
LINE
  5
200
330
50
100
AcDbEntity
  8
1
  6
Continuous
 62
     7
100
AcDbLine
 10
212.7677612581677
 20
157.5846738116192
 30
0.0
 11
212.5945561774108
 21
157.6846738116191
 31
0.0
  0
LINE
  5
201
330
50
100
AcDbEntity
  8
1
  6
Continuous
 62
     2
100
AcDbLine
 10
216.7804042965626
 20
156.4226738116193
 30
0.0
 11
214.7804042965626
 21
156.4226738116193
 31
0.0
  0
LINE
  5
202
330
50
100
AcDbEntity
  8
1
  6
Continuous
 62
     7
100
AcDbLine
 10
212.7677612581677
 20
157.5846738116192
 30
0.0
 11
214.7804042965626
 21
157.5846738116192
 31
0.0
  0
LINE
  5
203
330
50
100
AcDbEntity
  8
1
  6
Continuous
 62
     2
100
AcDbLine
 10
214.7804042965626
 20
156.4226738116193
 30
0.0
 11
212.7677612581677
 21
157.5846738116192
 31
0.0
  0
LINE
  5
204
330
50
100
AcDbEntity
  8
1
  6
Continuous
 62
     7
100
AcDbLine
 10
212.5945561774108
 20
157.6846738116191
 30
0.0
 11
205.4804042965623
 21
157.6846738116191
 31
0.0
  0
LINE
  5
205
330
50
100
AcDbEntity
  8
1
  6
Continuous
 62
     7
100
AcDbLine
 10
205.4804042965624
 20
158.1846738116191
 30
0.0
 11
205.4804042965623
 21
157.6846738116191
 31
0.0
  0
LINE
  5
206
330
50
100
AcDbEntity
  8
1
  6
Continuous
 62
     7
100
AcDbLine
 10
214.7804042965626
 20
156.4226738116193
 30
0.0
 11
214.7804042965626
 21
137.9466738116189
 31
0.0
  0
LINE
  5
207
330
50
100
AcDbEntity
  8
1
  6
Continuous
 62
     7
100
AcDbLine
 10
205.4804042965623
 20
157.6846738116191
 30
0.0
 11
205.4804042965623
 21
136.6846738116191
 31
0.0
  0
LINE
  5
208
330
50
100
AcDbEntity
  8
1
  6
Continuous
 62
     7
100
AcDbLine
 10
180.0804042965627
 20
154.6846738116191
 30
0.0
 11
180.0804042965626
 21
139.6846738116191
 31
0.0
  0
LINE
  5
209
330
50
100
AcDbEntity
  8
1
  6
Continuous
 62
     7
100
AcDbLine
 10
181.5304042965627
 20
159.1846738116191
 30
0.0
 11
204.4804042965624
 21
159.1846738116191
 31
0.0
  0
LINE
  5
20A
330
50
100
AcDbEntity
  8
1
  6
Continuous
 62
     7
100
AcDbLine
 10
62.31849671811821
 20
159.1846738116191
 30
0.0
 11
62.31849671811821
 21
168.1817622206588
 31
0.0
  0
LINE
  5
20B
330
50
100
AcDbEntity
  8
1
  6
Continuous
 62
     7
100
AcDbLine
 10
62.31849671811821
 20
159.1846738116191
 30
0.0
 11
61.8684967181182
 21
159.1846738116191
 31
0.0
  0
LINE
  5
20C
330
50
100
AcDbEntity
  8
1
  6
Continuous
 62
     7
100
AcDbLine
 10
84.81849671811821
 20
168.1817622206588
 30
0.0
 11
84.81849671811821
 21
159.1846738116191
 31
0.0
  0
LINE
  5
20D
330
50
100
AcDbEntity
  8
1
  6
Continuous
 62
     7
100
AcDbLine
 10
85.26849671811792
 20
159.1846738116191
 30
0.0
 11
84.81849671811821
 21
159.1846738116191
 31
0.0
  0
LINE
  5
20E
330
50
100
AcDbEntity
  8
1
  6
Continuous
 62
     7
100
AcDbLine
 10
60.8684967181182
 20
158.1846738116191
 30
0.0
 11
60.8684967181182
 21
154.6846738116191
 31
0.0
  0
LINE
  5
20F
330
50
100
AcDbEntity
  8
1
  6
Continuous
 62
     7
100
AcDbLine
 10
61.86849671811839
 20
135.1846738116191
 30
0.0
 11
70.3531064089446
 21
135.1846738116191
 31
0.0
  0
LINE
  5
210
330
50
100
AcDbEntity
  8
1
  6
Continuous
 62
     7
100
AcDbLine
 10
86.2684967181178
 20
136.1846738116191
 30
0.0
 11
86.2684967181178
 21
136.6846738116191
 31
0.0
  0
LINE
  5
211
330
50
100
AcDbEntity
  8
1
  6
Continuous
 62
     7
100
AcDbLine
 10
86.26849671811792
 20
158.1846738116191
 30
0.0
 11
86.2684967181178
 21
157.6846738116191
 31
0.0
  0
LINE
  5
212
330
50
100
AcDbEntity
  8
1
  6
Continuous
 62
     7
100
AcDbLine
 10
86.2684967181178
 20
157.6846738116191
 30
0.0
 11
86.2684967181178
 21
136.6846738116191
 31
0.0
  0
LINE
  5
213
330
50
100
AcDbEntity
  8
1
  6
Continuous
 62
     7
100
AcDbLine
 10
60.8684967181182
 20
154.6846738116191
 30
0.0
 11
60.86849671811839
 21
136.1846738116191
 31
0.0
  0
LINE
  5
214
330
50
100
AcDbEntity
  8
1
  6
Continuous
 62
     7
100
AcDbLine
 10
62.31849671811821
 20
159.1846738116191
 30
0.0
 11
70.3531064089448
 21
159.1846738116191
 31
0.0
  0
LINE
  5
215
330
50
100
AcDbEntity
  8
1
  6
Continuous
 62
     7
100
AcDbLine
 10
76.7838870272918
 20
135.1846738116191
 30
0.0
 11
85.2684967181178
 21
135.1846738116191
 31
0.0
  0
LINE
  5
216
330
50
100
AcDbEntity
  8
1
  6
Continuous
 62
     7
100
AcDbLine
 10
76.7838870272914
 20
159.1846738116191
 30
0.0
 11
85.26849671811792
 21
159.1846738116191
 31
0.0
  0
ARC
  5
217
330
50
100
AcDbEntity
  8
1
  6
Continuous
 62
     7
100
AcDbCircle
 10
181.3304042965624
 20
275.516169130547
 30
0.0
 40
1.274754878398001
100
AcDbArc
 50
168.690067525978
 51
-101.3099324740202
  0
ARC
  5
218
330
50
100
AcDbEntity
  8
1
  6
Continuous
 62
     7
100
AcDbCircle
 10
181.0804042965624
 20
298.266169130547
 30
0.0
 40
1.0
100
AcDbArc
 50
90.0
 51
180.0
  0
ARC
  5
219
330
50
100
AcDbEntity
  8
1
  6
Continuous
 62
     7
100
AcDbCircle
 10
204.4804042965627
 20
298.266169130547
 30
0.0
 40
1.0
100
AcDbArc
 50
0.0
 51
90.0
  0
ARC
  5
21A
330
50
100
AcDbEntity
  8
1
  6
Continuous
 62
     7
100
AcDbCircle
 10
204.2304042965627
 20
275.516169130547
 30
0.0
 40
1.274754878398196
100
AcDbArc
 50
-78.69006752597979
 51
11.30993247402021
  0
ARC
  5
21B
330
50
100
AcDbEntity
  8
1
  6
Continuous
 62
     7
100
AcDbCircle
 10
181.0804042965628
 20
136.1846738116191
 30
0.0
 40
1.0
100
AcDbArc
 50
180.0
 51
-90.0
  0
ARC
  5
21C
330
50
100
AcDbEntity
  8
1
  6
Continuous
 62
     7
100
AcDbCircle
 10
181.0804042965627
 20
158.1846738116191
 30
0.0
 40
1.0
100
AcDbArc
 50
90.0
 51
180.0
  0
ARC
  5
21D
330
50
100
AcDbEntity
  8
1
  6
Continuous
 62
     7
100
AcDbCircle
 10
204.4804042965623
 20
136.1846738116191
 30
0.0
 40
1.0
100
AcDbArc
 50
-90.0
 51
0.0
  0
ARC
  5
21E
330
50
100
AcDbEntity
  8
1
  6
Continuous
 62
     7
100
AcDbCircle
 10
204.4804042965624
 20
158.1846738116191
 30
0.0
 40
1.0
100
AcDbArc
 50
0.0
 51
90.0
  0
ARC
  5
21F
330
50
100
AcDbEntity
  8
1
  6
Continuous
 62
     7
100
AcDbCircle
 10
61.86849671811839
 20
136.1846738116191
 30
0.0
 40
1.0
100
AcDbArc
 50
180.0
 51
-90.0
  0
ARC
  5
220
330
50
100
AcDbEntity
  8
1
  6
Continuous
 62
     7
100
AcDbCircle
 10
61.8684967181182
 20
158.1846738116191
 30
0.0
 40
1.0
100
AcDbArc
 50
90.0
 51
180.0
  0
ARC
  5
221
330
50
100
AcDbEntity
  8
1
  6
Continuous
 62
     7
100
AcDbCircle
 10
85.2684967181178
 20
136.1846738116191
 30
0.0
 40
1.0
100
AcDbArc
 50
-90.0
 51
0.0
  0
ARC
  5
222
330
50
100
AcDbEntity
  8
1
  6
Continuous
 62
     7
100
AcDbCircle
 10
85.26849671811792
 20
158.1846738116191
 30
0.0
 40
1.0
100
AcDbArc
 50
0.0
 51
90.0
  0
ENDBLK
  5
52
330
50
100
AcDbEntity
  8
0
100
AcDbBlockEnd
  0
BLOCK
  5
54
330
53
100
AcDbEntity
  8
0
100
AcDbBlockBegin
  2
84-177
 70
     0
 71
     0
 10
11.47321249857839
 20
202.9052237649055
 30
0.0
  3
84-177
  1

  0
LINE
  5
223
330
53
100
AcDbEntity
  8
1
  6
Continuous
 62
     7
100
AcDbLine
 10
230.0268569059672
 20
130.5311101591674
 30
0.0
 11
230.4804102965602
 21
130.0775567685743
 31
0.0
  0
LINE
  5
224
330
53
100
AcDbEntity
  8
1
  6
Continuous
 62
     7
100
AcDbLine
 10
229.8804102965595
 20
131.3775567685753
 30
0.0
 11
229.8804102965576
 21
130.8846635497589
 31
0.0
  0
LINE
  5
225
330
53
100
AcDbEntity
  8
1
  6
Continuous
 62
     7
100
AcDbLine
 10
230.8804102965575
 20
130.0775567685716
 30
0.0
 11
231.1804102965606
 21
130.3775567685741
 31
0.0
  0
LINE
  5
226
330
53
100
AcDbEntity
  8
1
  6
Continuous
 62
     7
100
AcDbLine
 10
230.4804102965602
 20
130.0775567685743
 30
0.0
 11
230.8804102965575
 21
130.0775567685716
 31
0.0
  0
LINE
  5
227
330
53
100
AcDbEntity
  8
1
  6
Continuous
 62
     7
100
AcDbLine
 10
231.1804102965606
 20
130.3775567685741
 30
0.0
 11
231.378573285629
 21
130.3775567685744
 31
0.0
  0
LINE
  5
228
330
53
100
AcDbEntity
  8
1
  6
Continuous
 62
     7
100
AcDbLine
 10
229.8804102965595
 20
131.3775567685753
 30
0.0
 11
231.3804102965628
 21
131.3775567685773
 31
0.0
  0
ARC
  5
229
330
53
100
AcDbEntity
  8
1
  6
Continuous
 62
     7
100
AcDbCircle
 10
230.3804102965645
 20
130.884663549763
 30
0.0
 40
0.5000000000068781
100
AcDbArc
 50
-179.999999999531
 51
-135.0000000001382
  0
ENDBLK
  5
55
330
53
100
AcDbEntity
  8
0
100
AcDbBlockEnd
  0
BLOCK
  5
58
330
56
100
AcDbEntity
  8
0
100
AcDbBlockBegin
  2
88-249X__2
 70
     0
 71
     0
 10
227.9285732856051
 20
133.4775567685762
 30
0.0
  3
88-249X__2
  1

  0
INSERT
  5
57
330
56
100
AcDbEntity
  8
1
100
AcDbBlockReference
  2
84-177
 10
11.47321249857839
 20
202.9052237649055
 30
0.0
  0
LINE
  5
22A
330
56
100
AcDbEntity
  8
1
  6
PHANTOM
 62
     4
100
AcDbLine
 10
225.2804042965627
 20
147.1846738116191
 30
0.0
 11
236.1121945069224
 21
147.1846738116191
 31
0.0
  0
ENDBLK
  5
59
330
56
100
AcDbEntity
  8
0
100
AcDbBlockEnd
  0
BLOCK
  5
24B
330
244
100
AcDbEntity
  8
0
100
AcDbBlockBegin
  2
*D012
 70
     1
 71
     0
 10
0.0
 20
0.0
 30
0.0
  3
*D012
  1

  0
LINE
  5
245
330
244
100
AcDbEntity
  8
1
  6
Continuous
 62
     2
100
AcDbLine
 10
148.9222622982724
 20
286.766169130547
 30
0.0
 11
148.9222622982724
 21
251.7661691305436
 31
0.0
  0
LINE
  5
246
330
244
100
AcDbEntity
  8
1
  6
Continuous
 62
     2
100
AcDbLine
 10
159.4222622982724
 20
286.766169130547
 30
0.0
 11
147.4222622982724
 21
286.766169130547
 31
0.0
  0
LINE
  5
247
330
244
100
AcDbEntity
  8
1
  6
Continuous
 62
     2
100
AcDbLine
 10
192.7804042965627
 20
251.7661691305436
 30
0.0
 11
147.4222622982724
 21
251.7661691305436
 31
0.0
  0
SOLID
  5
248
330
244
100
AcDbEntity
  8
1
 62
     2
100
AcDbTrace
 10
149.6134379106062
 20
281.516169130547
 30
0.0
 11
148.2310866859386
 21
281.516169130547
 31
0.0
 12
148.9222622982724
 22
286.766169130547
 32
0.0
 13
148.9222622982724
 23
286.766169130547
 33
0.0
  0
SOLID
  5
249
330
244
100
AcDbEntity
  8
1
 62
     2
100
AcDbTrace
 10
148.2310866859386
 20
257.0161691305436
 30
0.0
 11
149.6134379106062
 21
257.0161691305436
 31
0.0
 12
148.9222622982724
 22
251.7661691305436
 32
0.0
 13
148.9222622982724
 23
251.7661691305436
 33
0.0
  0
MTEXT
  5
24A
330
244
100
AcDbEntity
  8
1
 62
     7
100
AcDbMText
 10
147.4222622982724
 20
265.3286691305453
 30
0.0
 40
5.25
 41
0.0
 71
     7
 72
     1
  1
35
  7
CONVERTER_2
 11
0.0
 21
1.0
 31
0.0
 73
     1
 44
0.60024009603842
  0
ENDBLK
  5
24C
330
244
100
AcDbEntity
  8
0
100
AcDbBlockEnd
  0
BLOCK
  5
257
330
24F
100
AcDbEntity
  8
0
100
AcDbBlockBegin
  2
*D113
 70
     1
 71
     0
 10
0.0
 20
0.0
 30
0.0
  3
*D113
  1

  0
LINE
  5
250
330
24F
100
AcDbEntity
  8
1
  6
Continuous
 62
     2
100
AcDbLine
 10
279.7504102965627
 20
155.0346738116191
 30
0.0
 11
279.7504102965627
 21
192.561496764188
 31
0.0
  0
LINE
  5
251
330
24F
100
AcDbEntity
  8
1
  6
Continuous
 62
     2
100
AcDbLine
 10
279.7504102965627
 20
139.3346738116192
 30
0.0
 11
279.7504102965627
 21
155.0346738116191
 31
0.0
  0
LINE
  5
252
330
24F
100
AcDbEntity
  8
1
  6
Continuous
 62
     2
100
AcDbLine
 10
253.3804042965624
 20
139.3346738116192
 30
0.0
 11
281.2504102965627
 21
139.3346738116192
 31
0.0
  0
LINE
  5
253
330
24F
100
AcDbEntity
  8
1
  6
Continuous
 62
     2
100
AcDbLine
 10
253.3804042965624
 20
155.0346738116191
 30
0.0
 11
281.2504102965627
 21
155.0346738116191
 31
0.0
  0
SOLID
  5
254
330
24F
100
AcDbEntity
  8
1
 62
     2
100
AcDbTrace
 10
279.0592346842288
 20
144.5846738116192
 30
0.0
 11
280.4415859088965
 21
144.5846738116192
 31
0.0
 12
279.7504102965627
 22
139.3346738116192
 32
0.0
 13
279.7504102965627
 23
139.3346738116192
 33
0.0
  0
SOLID
  5
255
330
24F
100
AcDbEntity
  8
1
 62
     2
100
AcDbTrace
 10
280.4415859088965
 20
149.7846738116191
 30
0.0
 11
279.0592346842288
 21
149.7846738116191
 31
0.0
 12
279.7504102965627
 22
155.0346738116191
 32
0.0
 13
279.7504102965627
 23
155.0346738116191
 33
0.0
  0
MTEXT
  5
256
330
24F
100
AcDbEntity
  8
1
 62
     7
100
AcDbMText
 10
277.7254102965627
 20
171.088996764188
 30
0.0
 40
5.25
 41
0.0
 71
     7
 72
     1
  1
\C7;{\Fgdt;n}\C7;15,7
  7
CONVERTER_2
 11
0.0
 21
1.0
 31
0.0
 73
     1
 44
0.60024009603842
  0
ENDBLK
  5
258
330
24F
100
AcDbEntity
  8
0
100
AcDbBlockEnd
  0
BLOCK
  5
262
330
25B
100
AcDbEntity
  8
0
100
AcDbBlockBegin
  2
*D214
 70
     1
 71
     0
 10
0.0
 20
0.0
 30
0.0
  3
*D214
  1

  0
LINE
  5
25C
330
25B
100
AcDbEntity
  8
1
  6
Continuous
 62
     2
100
AcDbLine
 10
291.7504102965627
 20
125.1846738116199
 30
0.0
 11
291.7504102965627
 21
169.1846738116285
 31
0.0
  0
LINE
  5
25D
330
25B
100
AcDbEntity
  8
1
  6
Continuous
 62
     2
100
AcDbLine
 10
231.8785732856155
 20
125.1846738116199
 30
0.0
 11
293.2504102965627
 21
125.1846738116199
 31
0.0
  0
LINE
  5
25E
330
25B
100
AcDbEntity
  8
1
  6
Continuous
 62
     2
100
AcDbLine
 10
232.378573285619
 20
169.1846738116285
 30
0.0
 11
293.2504102965627
 21
169.1846738116285
 31
0.0
  0
SOLID
  5
25F
330
25B
100
AcDbEntity
  8
1
 62
     2
100
AcDbTrace
 10
291.0592346842288
 20
130.4346738116199
 30
0.0
 11
292.4415859088965
 21
130.4346738116199
 31
0.0
 12
291.7504102965627
 22
125.1846738116199
 32
0.0
 13
291.7504102965627
 23
125.1846738116199
 33
0.0
  0
SOLID
  5
260
330
25B
100
AcDbEntity
  8
1
 62
     2
100
AcDbTrace
 10
292.4415859088965
 20
163.9346738116285
 30
0.0
 11
291.0592346842288
 21
163.9346738116285
 31
0.0
 12
291.7504102965627
 22
169.1846738116285
 32
0.0
 13
291.7504102965627
 23
169.1846738116285
 33
0.0
  0
MTEXT
  5
261
330
25B
100
AcDbEntity
  8
1
 62
     7
100
AcDbMText
 10
290.2504102965627
 20
137.7871738116191
 30
0.0
 40
5.25
 41
0.0
 71
     7
 72
     1
  1
\C7;{\Fgdt;n}\C7;44
  7
CONVERTER_2
 11
0.0
 21
1.0
 31
0.0
 73
     1
 44
0.60024009603842
  0
ENDBLK
  5
263
330
25B
100
AcDbEntity
  8
0
100
AcDbBlockEnd
  0
BLOCK
  5
26D
330
266
100
AcDbEntity
  8
0
100
AcDbBlockBegin
  2
*D315
 70
     1
 71
     0
 10
0.0
 20
0.0
 30
0.0
  3
*D315
  1

  0
LINE
  5
267
330
266
100
AcDbEntity
  8
1
  6
Continuous
 62
     2
100
AcDbLine
 10
192.7804042965626
 20
212.475004714482
 30
0.0
 11
264.7504102965627
 21
212.475004714482
 31
0.0
  0
LINE
  5
268
330
266
100
AcDbEntity
  8
1
  6
Continuous
 62
     2
100
AcDbLine
 10
192.7804042965626
 20
199.1817622206588
 30
0.0
 11
192.7804042965626
 21
213.975004714482
 31
0.0
  0
LINE
  5
269
330
266
100
AcDbEntity
  8
1
  6
Continuous
 62
     2
100
AcDbLine
 10
264.7504102965627
 20
145.634673811619
 30
0.0
 11
264.7504102965627
 21
213.975004714482
 31
0.0
  0
SOLID
  5
26A
330
266
100
AcDbEntity
  8
1
 62
     2
100
AcDbTrace
 10
198.0304042965626
 20
213.1661803268158
 30
0.0
 11
198.0304042965626
 21
211.7838291021482
 31
0.0
 12
192.7804042965626
 22
212.475004714482
 32
0.0
 13
192.7804042965626
 23
212.475004714482
 33
0.0
  0
SOLID
  5
26B
330
266
100
AcDbEntity
  8
1
 62
     2
100
AcDbTrace
 10
259.5004102965627
 20
211.7838291021482
 30
0.0
 11
259.5004102965627
 21
213.1661803268158
 31
0.0
 12
264.7504102965627
 22
212.475004714482
 32
0.0
 13
264.7504102965627
 23
212.475004714482
 33
0.0
  0
MTEXT
  5
26C
330
266
100
AcDbEntity
  8
1
 62
     7
100
AcDbMText
 10
224.8506687020602
 20
213.975004714482
 30
0.0
 40
5.25
 41
0.0
 71
     7
 72
     1
  1
72
  7
CONVERTER_2
 11
0.9999999999970621
 21
2.424068405545307E-6
 31
0.0
 73
     1
 44
0.60024009603842
  0
ENDBLK
  5
26E
330
266
100
AcDbEntity
  8
0
100
AcDbBlockEnd
  0
BLOCK
  5
278
330
271
100
AcDbEntity
  8
0
100
AcDbBlockBegin
  2
*D416
 70
     1
 71
     0
 10
0.0
 20
0.0
 30
0.0
  3
*D416
  1

  0
LINE
  5
272
330
271
100
AcDbEntity
  8
1
  6
Continuous
 62
     2
100
AcDbLine
 10
172.7804042965628
 20
212.475004714482
 30
0.0
 11
192.7804042965626
 21
212.475004714482
 31
0.0
  0
LINE
  5
273
330
271
100
AcDbEntity
  8
1
  6
Continuous
 62
     2
100
AcDbLine
 10
192.7804042965626
 20
199.1817622206588
 30
0.0
 11
192.7804042965626
 21
213.975004714482
 31
0.0
  0
LINE
  5
274
330
271
100
AcDbEntity
  8
1
  6
Continuous
 62
     2
100
AcDbLine
 10
172.7804042965628
 20
152.184673811619
 30
0.0
 11
172.7804042965628
 21
213.975004714482
 31
0.0
  0
SOLID
  5
275
330
271
100
AcDbEntity
  8
1
 62
     2
100
AcDbTrace
 10
178.0304042965628
 20
213.1661803268158
 30
0.0
 11
178.0304042965628
 21
211.7838291021482
 31
0.0
 12
172.7804042965628
 22
212.475004714482
 32
0.0
 13
172.7804042965628
 23
212.475004714482
 33
0.0
  0
SOLID
  5
276
330
271
100
AcDbEntity
  8
1
 62
     2
100
AcDbTrace
 10
187.5304042965626
 20
211.7838291021482
 30
0.0
 11
187.5304042965626
 21
213.1661803268158
 31
0.0
 12
192.7804042965626
 22
212.475004714482
 32
0.0
 13
192.7804042965626
 23
212.475004714482
 33
0.0
  0
MTEXT
  5
277
330
271
100
AcDbEntity
  8
1
 62
     7
100
AcDbMText
 10
178.9700389657262
 20
213.975004714482
 30
0.0
 40
5.25
 41
0.0
 71
     7
 72
     1
  1
20
  7
CONVERTER_2
 11
0.9999999999970621
 21
2.424068405545307E-6
 31
0.0
 73
     1
 44
0.60024009603842
  0
ENDBLK
  5
279
330
271
100
AcDbEntity
  8
0
100
AcDbBlockEnd
  0
BLOCK
  5
283
330
27C
100
AcDbEntity
  8
0
100
AcDbBlockBegin
  2
*D517
 70
     1
 71
     0
 10
0.0
 20
0.0
 30
0.0
  3
*D517
  1

  0
LINE
  5
27D
330
27C
100
AcDbEntity
  8
1
  6
Continuous
 62
     2
100
AcDbLine
 10
120.0226115513882
 20
147.1846738116191
 30
0.0
 11
120.0226115513882
 21
196.1817622206587
 31
0.0
  0
LINE
  5
27E
330
27C
100
AcDbEntity
  8
1
  6
Continuous
 62
     2
100
AcDbLine
 10
98.56696929122393
 20
147.1846738116191
 30
0.0
 11
121.5226115513882
 21
147.1846738116191
 31
0.0
  0
LINE
  5
27F
330
27C
100
AcDbEntity
  8
1
  6
Continuous
 62
     2
100
AcDbLine
 10
81.28040429656249
 20
196.1817622206587
 30
0.0
 11
121.5226115513882
 21
196.1817622206587
 31
0.0
  0
SOLID
  5
280
330
27C
100
AcDbEntity
  8
1
 62
     2
100
AcDbTrace
 10
119.3314359390544
 20
152.4346738116191
 30
0.0
 11
120.713787163722
 21
152.4346738116191
 31
0.0
 12
120.0226115513882
 22
147.1846738116191
 32
0.0
 13
120.0226115513882
 23
147.1846738116191
 33
0.0
  0
SOLID
  5
281
330
27C
100
AcDbEntity
  8
1
 62
     2
100
AcDbTrace
 10
120.713787163722
 20
190.9317622206587
 30
0.0
 11
119.3314359390544
 21
190.9317622206587
 31
0.0
 12
120.0226115513882
 22
196.1817622206587
 32
0.0
 13
120.0226115513882
 23
196.1817622206587
 33
0.0
  0
MTEXT
  5
282
330
27C
100
AcDbEntity
  8
1
 62
     7
100
AcDbMText
 10
118.5226115513882
 20
167.7797400239897
 30
0.0
 40
5.25
 41
0.0
 71
     7
 72
     1
  1
49
  7
CONVERTER_2
 11
0.0
 21
1.0
 31
0.0
 73
     1
 44
0.60024009603842
  0
ENDBLK
  5
284
330
27C
100
AcDbEntity
  8
0
100
AcDbBlockEnd
  0
ENDSEC
  0
SECTION
  2
ENTITIES
  0
INSERT
  5
5A
330
1F
100
AcDbEntity
  8
1
100
AcDbBlockReference
  2
_J__A4
 10
0.0
 20
0.0
 30
0.0
 41
1.5
 42
1.5
 43
1.5
  0
INSERT
  5
5B
330
1F
100
AcDbEntity
  8
1
100
AcDbBlockReference
  2
81-93AX
 10
236.6004102965627
 20
139.6346738116191
 30
0.0
  0
INSERT
  5
5C
330
1F
100
AcDbEntity
  8
1
100
AcDbBlockReference
  2
88-249X__1
 10
228.9285732856051
 20
123.4775567685761
 30
0.0
  0
INSERT
  5
5D
330
1F
100
AcDbEntity
  8
0
100
AcDbBlockReference
  2
33-147
 10
254.0824793315039
 20
-60.5040514543479
 30
0.0
  0
INSERT
  5
5E
330
1F
100
AcDbEntity
  8
0
100
AcDbBlockReference
  2
81-100X-W-4
 10
4.62689383375738
 20
-68.46191908799329
 30
0.0
  0
INSERT
  5
5F
330
1F
100
AcDbEntity
  8
0
100
AcDbBlockReference
  2
32-178
 10
328.2506413836212
 20
-44.05223348934602
 30
0.0
  0
INSERT
  5
60
330
1F
100
AcDbEntity
  8
1
100
AcDbBlockReference
  2
30-139A
 10
181.0804042965626
 20
367.3925877710998
 30
0.0
  0
INSERT
  5
61
330
1F
100
AcDbEntity
  8
1
100
AcDbBlockReference
  2
88-249X__2
 10
227.9285732856051
 20
133.4775567685762
 30
0.0
  0
LINE
  5
22B
330
1F
100
AcDbEntity
  8
1
  6
DASH_CENTER
 62
     2
100
AcDbLine
 10
238.8804042965624
 20
158.4846738116192
 30
0.0
 11
238.8804042965624
 21
135.884673811619
 31
0.0
  0
LINE
  5
22C
330
1F
100
AcDbEntity
  8
1
  6
DASH_CENTER
 62
     2
100
AcDbLine
 10
192.7804042965627
 20
247.2661691305437
 30
0.0
 11
192.7804042965627
 21
311.2661691305589
 31
0.0
  0
LINE
  5
22D
330
1F
100
AcDbEntity
  8
1
  6
DASH_CENTER
 62
     2
100
AcDbLine
 10
269.2504102965627
 20
286.766169130547
 30
0.0
 11
159.4222622982724
 21
286.766169130547
 31
0.0
  0
LINE
  5
22E
330
1F
100
AcDbEntity
  8
1
  6
DASH_CENTER
 62
     2
100
AcDbLine
 10
192.7804042965626
 20
130.6846738116191
 30
0.0
 11
192.7804042965626
 21
199.1817622206588
 31
0.0
  0
LINE
  5
22F
330
1F
100
AcDbEntity
  8
1
  6
Continuous
 62
     2
100
AcDbLine
 10
198.1521357133692
 20
241.551023876899
 30
0.0
 11
211.1521357133692
 21
241.551023876899
 31
0.0
  0
LINE
  5
230
330
1F
100
AcDbEntity
  8
1
  6
Continuous
 62
     2
100
AcDbLine
 10
220.3252238962073
 20
255.457829184556
 30
0.0
 11
232.8252238962073
 21
255.457829184556
 31
0.0
  0
LINE
  5
231
330
1F
100
AcDbEntity
  8
1
  6
DASH_CENTER
 62
     2
100
AcDbLine
 10
160.9222622982724
 20
147.1846738116191
 30
0.0
 11
267.7504102965627
 21
147.1846738116191
 31
0.0
  0
LINE
  5
232
330
1F
100
AcDbEntity
  8
1
  6
DASH_CENTER
 62
     2
100
AcDbLine
 10
48.5699435887702
 20
147.1846738116191
 30
0.0
 11
98.5669692912239
 21
147.1846738116191
 31
0.0
  0
LINE
  5
233
330
1F
100
AcDbEntity
  8
1
  6
DASH_CENTER
 62
     2
100
AcDbLine
 10
73.5684967181181
 20
199.1817622206588
 30
0.0
 11
73.5684967181181
 21
122.1846738116199
 31
0.0
  0
LINE
  5
234
330
1F
100
AcDbEntity
  8
0
  6
PHANTOM
 62
     4
100
AcDbLine
 10
172.7804042965628
 20
142.184673811619
 30
0.0
 11
172.7804042965628
 21
152.184673811619
 31
0.0
  0
ARC
  5
235
330
1F
100
AcDbEntity
  8
1
  6
Continuous
 62
     2
100
AcDbCircle
 10
190.264733503373
 20
286.4663573929422
 30
0.0
 40
36.50000000000001
100
AcDbArc
 50
-75.00000000000004
 51
-24.99999999999995
  0
SOLID
  5
236
330
1F
100
AcDbEntity
  8
1
 62
     2
100
AcDbTrace
 10
161.8958379370298
 20
132.1401598288504
 30
0.0
 11
160.698686659515
 21
132.8313354411842
 31
0.0
 12
163.9222622982724
 22
137.0323810048856
 32
0.0
 13
163.9222622982724
 23
137.0323810048856
 33
0.0
  0
LEADER
  5
237
330
1F
100
AcDbEntity
  8
1
  6
Continuous
 62
     2
100
AcDbLeader
  3
Standard
 71
     0
 76
     3
 10
163.9222622982724
 20
137.0323810048856
 30
0.0
 10
154.977896408215
 20
121.5402848418203
 30
0.0
 10
136.8328091240014
 20
121.5402848418203
 30
0.0
  0
SOLID
  5
238
330
1F
100
AcDbEntity
  8
1
 62
     2
100
AcDbTrace
 10
204.4442361615373
 20
253.5854909825478
 30
0.0
 11
204.8977820245885
 21
252.2796613388157
 31
0.0
 12
199.711628649615
 22
251.2100647333912
 32
0.0
 13
199.711628649615
 23
251.2100647333912
 33
0.0
  0
LEADER
  5
239
330
1F
100
AcDbEntity
  8
1
  6
Continuous
 62
     2
100
AcDbLeader
  3
Standard
 71
     0
 76
     2
 10
199.711628649615
 20
251.2100647333912
 30
0.0
 10
200.9095075253606
 20
251.6261167131718
 30
0.0
  0
SOLID
  5
23A
330
1F
100
AcDbEntity
  8
1
 62
     2
100
AcDbTrace
 10
221.3280198218168
 20
266.1446551323506
 30
0.0
 11
220.1295324868206
 21
266.8335114426171
 31
0.0
 12
223.3449677302107
 22
271.0407908394067
 32
0.0
 13
223.3449677302107
 23
271.0407908394067
 33
0.0
  0
LEADER
  5
23B
330
1F
100
AcDbEntity
  8
1
  6
Continuous
 62
     2
100
AcDbLeader
  3
Standard
 71
     0
 76
     2
 10
223.3449677302107
 20
271.0407908394067
 30
0.0
 10
222.3100753172127
 20
269.2402622943729
 30
0.0
  0
MTEXT
  5
23D
330
1F
100
AcDbEntity
  8
1
 62
     7
100
AcDbMText
 10
140.625
 20
25.5
 30
0.0
 40
5.25
 41
0.0
 71
     5
 72
     1
  1
1,5
  7
CONVERTER_2
 73
     1
 44
0.7202881152461
  0
MTEXT
  5
23E
330
1F
100
AcDbEntity
  8
1
 62
     7
100
AcDbMText
 10
127.875
 20
25.5
 30
0.0
 40
5.25
 41
0.0
 71
     5
 72
     1
  1
1
  7
CONVERTER_2
 73
     1
 44
0.7202881152461
  0
MTEXT
  5
23F
330
1F
100
AcDbEntity
  8
1
 62
     7
100
AcDbMText
 10
145.5587597013164
 20
126.0402848418203
 30
0.0
 40
5.25
 41
0.0
 71
     5
 72
     1
  1
G1/2
  7
CONVERTER_2
 73
     1
 44
0.7202881152461
  0
MTEXT
  5
240
330
1F
100
AcDbEntity
  8
0
 62
     7
100
AcDbMText
 10
85.5
 20
34.12500000000001
 30
0.0
 40
5.25
 41
0.0
 71
     5
 72
     1
  1
食器洗い機用バルブ
  7
CONVERTER_1
 73
     1
 44
1.32052821128451
  0
MTEXT
  5
241
330
1F
100
AcDbEntity
  8
0
 62
     7
100
AcDbMText
 10
85.5
 20
21.37499999999999
 30
0.0
 40
5.25
 41
0.0
 71
     5
 72
     1
  1
V275TV-13
  7
CONVERTER_2
 73
     1
 44
0.84033613445378
  0
MTEXT
  5
242
330
1F
100
AcDbEntity
  8
1
 62
     7
100
AcDbMText
 10
226.4620993811552
 20
259.8565384763962
 30
0.0
 40
5.25
 41
0.0
 71
     5
 72
     1
  1
吐水
  7
CONVERTER_1
 73
     1
 44
0.7202881152461
  0
MTEXT
  5
243
330
1F
100
AcDbEntity
  8
1
 62
     7
100
AcDbMText
 10
204.8371309987988
 20
245.5110230050597
 30
0.0
 40
5.25
 41
0.0
 71
     5
 72
     1
  1
止水
  7
CONVERTER_1
 73
     1
 44
0.7202881152461
  0
DIMENSION
  5
24E
330
1F
100
AcDbEntity
  8
1
100
AcDbDimension
  2
*D012
 10
148.9222622982724
 20
286.766169130547
 30
0.0
 11
144.7972622982724
 21
269.2661691305453
 31
0.0
  1
<>
 71
     5
 42
0.0
 53
90.0
  3
ME10_DIM_0
100
AcDbAlignedDimension
 13
192.7804042965627
 23
251.7661691305437
 33
0.0
 14
159.4222622982724
 24
286.766169130547
 34
0.0
 50
90.0
100
AcDbRotatedDimension
  0
DIMENSION
  5
25A
330
1F
100
AcDbEntity
  8
1
100
AcDbDimension
  2
*D113
 10
279.7504102965627
 20
139.3346738116192
 30
0.0
 11
275.3629102965627
 21
182.980246764188
 31
0.0
  1
<>
 71
     5
 42
0.0
 53
90.0
  3
ME10_DIM_1
100
AcDbAlignedDimension
 13
253.3804042965624
 23
155.0346738116191
 33
0.0
 14
253.3804042965624
 24
139.3346738116192
 34
0.0
 50
90.0
100
AcDbRotatedDimension
  0
DIMENSION
  5
265
330
1F
100
AcDbEntity
  8
1
100
AcDbDimension
  2
*D214
 10
291.7504102965627
 20
125.1846738116199
 30
0.0
 11
287.6254102965627
 21
147.1846738116191
 31
0.0
  1
<>
 71
     5
 42
0.0
 53
90.0
  3
ME10_DIM_2
100
AcDbAlignedDimension
 13
232.378573285619
 23
169.1846738116285
 33
0.0
 14
231.8785732856155
 24
125.1846738116199
 34
0.0
 50
90.0
100
AcDbRotatedDimension
  0
DIMENSION
  5
270
330
1F
100
AcDbEntity
  8
1
100
AcDbDimension
  2
*D315
 10
192.7804042965626
 20
212.475004714482
 30
0.0
 11
228.7881687020602
 21
216.600004714482
 31
0.0
  1
72
 71
     5
 42
0.0
 53
0.00013888888889
  3
ME10_DIM_3
100
AcDbAlignedDimension
 13
264.7504102965627
 23
145.634673811619
 33
0.0
 14
192.7804042965626
 24
199.1817622206588
 34
0.0
100
AcDbRotatedDimension
  0
DIMENSION
  5
27B
330
1F
100
AcDbEntity
  8
1
100
AcDbDimension
  2
*D416
 10
172.7804042965628
 20
212.475004714482
 30
0.0
 11
182.9075389657262
 21
216.600004714482
 31
0.0
  1
<>
 71
     5
 42
0.0
 53
0.00013888888889
  3
ME10_DIM_4
100
AcDbAlignedDimension
 13
192.7804042965626
 23
199.1817622206588
 33
0.0
 14
172.7804042965628
 24
152.184673811619
 34
0.0
100
AcDbRotatedDimension
  0
DIMENSION
  5
286
330
1F
100
AcDbEntity
  8
1
100
AcDbDimension
  2
*D517
 10
120.0226115513882
 20
147.1846738116191
 30
0.0
 11
115.8976115513882
 21
171.7172400239897
 31
0.0
  1
<>
 71
     5
 42
0.0
 53
90.0
  3
ME10_DIM_5
100
AcDbAlignedDimension
 13
81.28040429656249
 23
196.1817622206587
 33
0.0
 14
98.5669692912239
 24
147.1846738116191
 34
0.0
 50
90.0
100
AcDbRotatedDimension
  0
ENDSEC
  0
SECTION
  2
OBJECTS
  0
DICTIONARY
  5
C
330
0
100
AcDbDictionary
281
     1
  3
ACAD_GROUP
350
D
  3
ACAD_LAYOUT
350
1A
  3
ACAD_MLINESTYLE
350
17
  3
ACAD_PLOTSETTINGS
350
19
  3
ACAD_PLOTSTYLENAME
350
E
  3
ACAD_TABLESTYLE
350
2A
  3
AcDbVariableDictionary
350
2C
  0
DICTIONARY
  5
D
102
{ACAD_REACTORS
330
C
102
}
330
C
100
AcDbDictionary
281
     1
  0
DICTIONARY
  5
1A
102
{ACAD_REACTORS
330
C
102
}
330
C
100
AcDbDictionary
281
     1
  3
Layout1
350
1E
  3
Layout2
350
26
  3
Model
350
22
  0
DICTIONARY
  5
17
102
{ACAD_REACTORS
330
C
102
}
330
C
100
AcDbDictionary
281
     1
  3
Standard
350
18
  0
DICTIONARY
  5
19
102
{ACAD_REACTORS
330
C
102
}
330
C
100
AcDbDictionary
281
     1
  0
ACDBDICTIONARYWDFLT
  5
E
102
{ACAD_REACTORS
330
C
102
}
330
C
100
AcDbDictionary
281
     1
  3
Normal
350
F
100
AcDbDictionaryWithDefault
340
F
  0
DICTIONARY
  5
2A
102
{ACAD_REACTORS
330
C
102
}
330
C
100
AcDbDictionary
281
     1
  3
Standard
350
2B
  0
DICTIONARY
  5
2C
102
{ACAD_REACTORS
330
C
102
}
330
C
100
AcDbDictionary
281
     1
  3
CTABLESTYLE
350
2D
  0
LAYOUT
  5
1E
102
{ACAD_REACTORS
330
1A
102
}
330
1A
100
AcDbPlotSettings
  1

  2

  4

  6

 40
0.0
 41
0.0
 42
0.0
 43
0.0
 44
0.0
 45
0.0
 46
0.0
 47
0.0
 48
0.0
 49
0.0
140
0.0
141
0.0
142
1.0
143
1.0
 70
   688
 72
     0
 73
     0
 74
     5
  7

 75
    16
147
1.0
148
0.0
149
0.0
100
AcDbLayout
  1
Layout1
 70
     1
 71
     1
 10
0.0
 20
0.0
 11
12.0
 21
9.0
 12
0.0
 22
0.0
 32
0.0
 14
1.00000000000000E+20
 24
1.00000000000000E+20
 34
1.00000000000000E+20
 15
-1.00000000000000E+20
 25
-1.00000000000000E+20
 35
-1.00000000000000E+20
146
0.0
 13
0.0
 23
0.0
 33
0.0
 16
1.0
 26
0.0
 36
0.0
 17
0.0
 27
1.0
 37
0.0
 76
     0
330
1B
  0
LAYOUT
  5
26
102
{ACAD_REACTORS
330
1A
102
}
330
1A
100
AcDbPlotSettings
  1

  2

  4

  6

 40
0.0
 41
0.0
 42
0.0
 43
0.0
 44
0.0
 45
0.0
 46
0.0
 47
0.0
 48
0.0
 49
0.0
140
0.0
141
0.0
142
1.0
143
1.0
 70
   688
 72
     0
 73
     0
 74
     5
  7

 75
    16
147
1.0
148
0.0
149
0.0
100
AcDbLayout
  1
Layout2
 70
     1
 71
     2
 10
0.0
 20
0.0
 11
0.0
 21
0.0
 12
0.0
 22
0.0
 32
0.0
 14
0.0
 24
0.0
 34
0.0
 15
0.0
 25
0.0
 35
0.0
146
0.0
 13
0.0
 23
0.0
 33
0.0
 16
1.0
 26
0.0
 36
0.0
 17
0.0
 27
1.0
 37
0.0
 76
     0
330
23
  0
LAYOUT
  5
22
102
{ACAD_REACTORS
330
1A
102
}
330
1A
100
AcDbPlotSettings
  1

  2

  4

  6

 40
0.0
 41
0.0
 42
0.0
 43
0.0
 44
0.0
 45
0.0
 46
0.0
 47
0.0
 48
0.0
 49
0.0
140
0.0
141
0.0
142
1.0
143
1.0
 70
  1712
 72
     0
 73
     0
 74
     0
  7

 75
     0
147
1.0
148
0.0
149
0.0
100
AcDbLayout
  1
Model
 70
     1
 71
     0
 10
0.0
 20
0.0
 11
0.0
 21
0.0
 12
0.0
 22
0.0
 32
0.0
 14
0.0
 24
0.0
 34
0.0
 15
315.0
 25
445.5
 35
0.0
146
0.0
 13
0.0
 23
0.0
 33
0.0
 16
1.0
 26
0.0
 36
0.0
 17
0.0
 27
1.0
 37
0.0
 76
     0
330
1F
  0
MLINESTYLE
  5
18
102
{ACAD_REACTORS
330
17
102
}
330
17
100
AcDbMlineStyle
  2
Standard
 70
     0
  3

 62
   256
 51
90.0
 52
90.0
 71
     2
 49
0.5
 62
   256
  6
BYLAYER
 49
-0.5
 62
   256
  6
BYLAYER
  0
ACDBPLACEHOLDER
  5
F
102
{ACAD_REACTORS
330
E
102
}
330
E
  0
TABLESTYLE
  5
2B
102
{ACAD_REACTORS
330
2A
102
}
330
2A
100
AcDbTableStyle
  3
Standard
 70
     0
 71
     0
 40
0.06
 41
0.06
280
     0
281
     0
  7
Standard
140
0.18
170
     2
 62
     0
 63
     7
283
     0
274
    -2
284
     1
 64
     0
275
    -2
285
     1
 65
     0
276
    -2
286
     1
 66
     0
277
    -2
287
     1
 67
     0
278
    -2
288
     1
 68
     0
279
    -2
289
     1
 69
     0
  7
Standard
140
0.25
170
     5
 62
     0
 63
     7
283
     0
274
    -2
284
     1
 64
     0
275
    -2
285
     1
 65
     0
276
    -2
286
     1
 66
     0
277
    -2
287
     1
 67
     0
278
    -2
288
     1
 68
     0
279
    -2
289
     1
 69
     0
  7
Standard
140
0.18
170
     5
 62
     0
 63
     7
283
     0
274
    -2
284
     1
 64
     0
275
    -2
285
     1
 65
     0
276
    -2
286
     1
 66
     0
277
    -2
287
     1
 67
     0
278
    -2
288
     1
 68
     0
279
    -2
289
     1
 69
     0
  0
DICTIONARYVAR
  5
2D
102
{ACAD_REACTORS
330
2C
102
}
330
2C
100
DictionaryVariables
280
     0
  1
Standard
  0
ENDSEC
  0
EOF
