  0
SECTION
  2
HEADER
  9
$ACADVER
  1
AC1015
  9
$ACADMAINTVER
 70
     6
  9
$DWGCODEPAGE
  3
DOS932
  9
$INSBASE
 10
0.0
 20
0.0
 30
0.0
  9
$EXTMIN
 10
0.0
 20
0.0
 30
0.0
  9
$EXTMAX
 10
420.0000000000002
 20
594.0
 30
0.0
  9
$LIMMIN
 10
0.0
 20
0.0
  9
$LIMMAX
 10
12.0
 20
9.0
  9
$ORTHOMODE
 70
     0
  9
$REGENMODE
 70
     1
  9
$FILLMODE
 70
     1
  9
$QTEXTMODE
 70
     0
  9
$MIRRTEXT
 70
     1
  9
$LTSCALE
 40
1.0
  9
$ATTMODE
 70
     1
  9
$TEXTSIZE
 40
0.2
  9
$TRACEWID
 40
0.05
  9
$TEXTSTYLE
  7
Standard
  9
$CLAYER
  8
0
  9
$CELTYPE
  6
ByLayer
  9
$CECOLOR
 62
   256
  9
$CELTSCALE
 40
1.0
  9
$DISPSILH
 70
     0
  9
$DIMSCALE
 40
1.0
  9
$DIMASZ
 40
0.18
  9
$DIMEXO
 40
0.0625
  9
$DIMDLI
 40
0.38
  9
$DIMRND
 40
0.0
  9
$DIMDLE
 40
0.0
  9
$DIMEXE
 40
0.18
  9
$DIMTP
 40
0.0
  9
$DIMTM
 40
0.0
  9
$DIMTXT
 40
0.18
  9
$DIMCEN
 40
0.09
  9
$DIMTSZ
 40
0.0
  9
$DIMTOL
 70
     0
  9
$DIMLIM
 70
     0
  9
$DIMTIH
 70
     1
  9
$DIMTOH
 70
     1
  9
$DIMSE1
 70
     0
  9
$DIMSE2
 70
     0
  9
$DIMTAD
 70
     0
  9
$DIMZIN
 70
     0
  9
$DIMBLK
  1

  9
$DIMASO
 70
     1
  9
$DIMSHO
 70
     1
  9
$DIMPOST
  1

  9
$DIMAPOST
  1

  9
$DIMALT
 70
     0
  9
$DIMALTD
 70
     2
  9
$DIMALTF
 40
25.4
  9
$DIMLFAC
 40
1.0
  9
$DIMTOFL
 70
     0
  9
$DIMTVP
 40
0.0
  9
$DIMTIX
 70
     0
  9
$DIMSOXD
 70
     0
  9
$DIMSAH
 70
     0
  9
$DIMBLK1
  1

  9
$DIMBLK2
  1

  9
$DIMSTYLE
  2
Standard
  9
$DIMCLRD
 70
     0
  9
$DIMCLRE
 70
     0
  9
$DIMCLRT
 70
     0
  9
$DIMTFAC
 40
1.0
  9
$DIMGAP
 40
0.09
  9
$DIMJUST
 70
     0
  9
$DIMSD1
 70
     0
  9
$DIMSD2
 70
     0
  9
$DIMTOLJ
 70
     1
  9
$DIMTZIN
 70
     0
  9
$DIMALTZ
 70
     0
  9
$DIMALTTZ
 70
     0
  9
$DIMUPT
 70
     0
  9
$DIMDEC
 70
     4
  9
$DIMTDEC
 70
     4
  9
$DIMALTU
 70
     2
  9
$DIMALTTD
 70
     2
  9
$DIMTXSTY
  7
Standard
  9
$DIMAUNIT
 70
     0
  9
$DIMADEC
 70
     0
  9
$DIMALTRND
 40
0.0
  9
$DIMAZIN
 70
     0
  9
$DIMDSEP
 70
    46
  9
$DIMATFIT
 70
     3
  9
$DIMFRAC
 70
     0
  9
$DIMLDRBLK
  1

  9
$DIMLUNIT
 70
     2
  9
$DIMLWD
 70
    -2
  9
$DIMLWE
 70
    -2
  9
$DIMTMOVE
 70
     0
  9
$LUNITS
 70
     2
  9
$LUPREC
 70
     4
  9
$SKETCHINC
 40
0.1
  9
$FILLETRAD
 40
0.5
  9
$AUNITS
 70
     0
  9
$AUPREC
 70
     0
  9
$MENU
  1
.
  9
$ELEVATION
 40
0.0
  9
$PELEVATION
 40
0.0
  9
$THICKNESS
 40
0.0
  9
$LIMCHECK
 70
     0
  9
$CHAMFERA
 40
0.5
  9
$CHAMFERB
 40
0.5
  9
$CHAMFERC
 40
1.0
  9
$CHAMFERD
 40
0.0
  9
$SKPOLY
 70
     0
  9
$TDCREATE
 40
2456142.674457824
  9
$TDUCREATE
 40
2456142.299457824
  9
$TDUPDATE
 40
2456142.674457836
  9
$TDUUPDATE
 40
2456142.299457836
  9
$TDINDWG
 40
0.0000000116
  9
$TDUSRTIMER
 40
0.0000000116
  9
$USRTIMER
 70
     1
  9
$ANGBASE
 50
0.0
  9
$ANGDIR
 70
     0
  9
$PDMODE
 70
     0
  9
$PDSIZE
 40
0.0
  9
$PLINEWID
 40
0.0
  9
$SPLFRAME
 70
     0
  9
$SPLINETYPE
 70
     6
  9
$SPLINESEGS
 70
     8
  9
$HANDSEED
  5
4DB
  9
$SURFTAB1
 70
     6
  9
$SURFTAB2
 70
     6
  9
$SURFTYPE
 70
     6
  9
$SURFU
 70
     6
  9
$SURFV
 70
     6
  9
$UCSBASE
  2

  9
$UCSNAME
  2

  9
$UCSORG
 10
0.0
 20
0.0
 30
0.0
  9
$UCSXDIR
 10
1.0
 20
0.0
 30
0.0
  9
$UCSYDIR
 10
0.0
 20
1.0
 30
0.0
  9
$UCSORTHOREF
  2

  9
$UCSORTHOVIEW
 70
     0
  9
$UCSORGTOP
 10
0.0
 20
0.0
 30
0.0
  9
$UCSORGBOTTOM
 10
0.0
 20
0.0
 30
0.0
  9
$UCSORGLEFT
 10
0.0
 20
0.0
 30
0.0
  9
$UCSORGRIGHT
 10
0.0
 20
0.0
 30
0.0
  9
$UCSORGFRONT
 10
0.0
 20
0.0
 30
0.0
  9
$UCSORGBACK
 10
0.0
 20
0.0
 30
0.0
  9
$PUCSBASE
  2

  9
$PUCSNAME
  2

  9
$PUCSORG
 10
0.0
 20
0.0
 30
0.0
  9
$PUCSXDIR
 10
1.0
 20
0.0
 30
0.0
  9
$PUCSYDIR
 10
0.0
 20
1.0
 30
0.0
  9
$PUCSORTHOREF
  2

  9
$PUCSORTHOVIEW
 70
     0
  9
$PUCSORGTOP
 10
0.0
 20
0.0
 30
0.0
  9
$PUCSORGBOTTOM
 10
0.0
 20
0.0
 30
0.0
  9
$PUCSORGLEFT
 10
0.0
 20
0.0
 30
0.0
  9
$PUCSORGRIGHT
 10
0.0
 20
0.0
 30
0.0
  9
$PUCSORGFRONT
 10
0.0
 20
0.0
 30
0.0
  9
$PUCSORGBACK
 10
0.0
 20
0.0
 30
0.0
  9
$USERI1
 70
     0
  9
$USERI2
 70
     0
  9
$USERI3
 70
     0
  9
$USERI4
 70
     0
  9
$USERI5
 70
     0
  9
$USERR1
 40
13.2
  9
$USERR2
 40
0.0
  9
$USERR3
 40
0.0
  9
$USERR4
 40
0.0
  9
$USERR5
 40
0.0
  9
$WORLDVIEW
 70
     1
  9
$SHADEDGE
 70
     3
  9
$SHADEDIF
 70
    70
  9
$TILEMODE
 70
     1
  9
$MAXACTVP
 70
    64
  9
$PINSBASE
 10
0.0
 20
0.0
 30
0.0
  9
$PLIMCHECK
 70
     0
  9
$PEXTMIN
 10
1.00000000000000E+20
 20
1.00000000000000E+20
 30
1.00000000000000E+20
  9
$PEXTMAX
 10
-1.00000000000000E+20
 20
-1.00000000000000E+20
 30
-1.00000000000000E+20
  9
$PLIMMIN
 10
0.0
 20
0.0
  9
$PLIMMAX
 10
12.0
 20
9.0
  9
$UNITMODE
 70
     0
  9
$VISRETAIN
 70
     1
  9
$PLINEGEN
 70
     0
  9
$PSLTSCALE
 70
     1
  9
$TREEDEPTH
 70
  3020
  9
$CMLSTYLE
  2
Standard
  9
$CMLJUST
 70
     0
  9
$CMLSCALE
 40
1.0
  9
$PROXYGRAPHICS
 70
     1
  9
$MEASUREMENT
 70
     1
  9
$CELWEIGHT
370
    -1
  9
$ENDCAPS
280
     0
  9
$JOINSTYLE
280
     0
  9
$LWDISPLAY
290
     0
  9
$INSUNITS
 70
     1
  9
$HYPERLINKBASE
  1

  9
$STYLESHEET
  1

  9
$XEDIT
290
     1
  9
$CEPSNTYPE
380
     0
  9
$PSTYLEMODE
290
     0
  9
$FINGERPRINTGUID
  2
{FAEB1C30-E019-11D5-929B-00C0DF256EC4}
  9
$VERSIONGUID
  2
{FAEB1C32-E019-11D5-929B-00C0DF256EC4}
  9
$EXTNAMES
290
     1
  9
$PSVPSCALE
 40
0.0
  9
$OLESTARTUP
290
     0
  0
ENDSEC
  0
SECTION
  2
CLASSES
  0
CLASS
  1
ACDBDICTIONARYWDFLT
  2
AcDbDictionaryWithDefault
  3
ObjectDBX Classes
 90
        0
280
     0
281
     0
  0
CLASS
  1
TABLESTYLE
  2
AcDbTableStyle
  3
ObjectDBX Classes
 90
     2047
280
     0
281
     0
  0
CLASS
  1
DICTIONARYVAR
  2
AcDbDictionaryVar
  3
ObjectDBX Classes
 90
        0
280
     0
281
     0
  0
CLASS
  1

  2
exOdDbCircle
  3

 90
        0
280
     0
281
     1
  0
CLASS
  1

  2
exOdDbSpline
  3

 90
        0
280
     0
281
     1
  0
CLASS
  1
ACDBPLACEHOLDER
  2
AcDbPlaceHolder
  3
ObjectDBX Classes
 90
        0
280
     0
281
     0
  0
CLASS
  1
LAYOUT
  2
AcDbLayout
  3
ObjectDBX Classes
 90
        0
280
     0
281
     0
  0
ENDSEC
  0
SECTION
  2
TABLES
  0
TABLE
  2
VPORT
  5
8
330
0
100
AcDbSymbolTable
 70
     2
  0
VPORT
  5
29
330
8
100
AcDbSymbolTableRecord
100
AcDbViewportTableRecord
  2
*Active
 70
     0
 10
0.0
 20
0.0
 11
1.0
 21
1.0
 12
210.0000000000001
 22
297.0
 13
0.0
 23
0.0
 14
0.5
 24
0.5
 15
0.5
 25
0.5
 16
0.0
 26
0.0
 36
1.0
 17
0.0
 27
0.0
 37
0.0
 40
653.4000000000001
 41
1.60267857142857
 42
50.0
 43
0.0
 44
0.0
 50
0.0
 51
0.0
 71
     0
 72
   100
 73
     1
 74
     3
 75
     0
 76
     0
 77
     0
 78
     0
281
     0
 65
     1
110
0.0
120
0.0
130
0.0
111
1.0
121
0.0
131
0.0
112
0.0
122
1.0
132
0.0
 79
     0
146
0.0
  0
ENDTAB
  0
TABLE
  2
LTYPE
  5
5
330
0
100
AcDbSymbolTable
 70
     8
  0
LTYPE
  5
14
330
5
100
AcDbSymbolTableRecord
100
AcDbLinetypeTableRecord
  2
ByBlock
 70
     0
  3

 72
    65
 73
     0
 40
0.0
  0
LTYPE
  5
15
330
5
100
AcDbSymbolTableRecord
100
AcDbLinetypeTableRecord
  2
ByLayer
 70
     0
  3

 72
    65
 73
     0
 40
0.0
  0
LTYPE
  5
16
330
5
100
AcDbSymbolTableRecord
100
AcDbLinetypeTableRecord
  2
Continuous
 70
     0
  3
Solid line
 72
    65
 73
     0
 40
0.0
  0
LTYPE
  5
2E
330
5
100
AcDbSymbolTableRecord
100
AcDbLinetypeTableRecord
  2
DASHED
 70
     0
  3
Dashed
 72
    65
 73
     2
 40
15.0
 49
7.0
 74
     0
 49
-8.0
 74
     0
  0
LTYPE
  5
2F
330
5
100
AcDbSymbolTableRecord
100
AcDbLinetypeTableRecord
  2
DOTTED
 70
     0
  3
Dotted
 72
    65
 73
     2
 40
1.0
 49
0.0
 74
     0
 49
-1.0
 74
     0
  0
LTYPE
  5
30
330
5
100
AcDbSymbolTableRecord
100
AcDbLinetypeTableRecord
  2
DOT_CENTER
 70
     0
  3
Dot_Center
 72
    65
 73
     4
 40
14.0
 49
12.0
 74
     0
 49
-1.0
 74
     0
 49
0.0
 74
     0
 49
-1.0
 74
     0
  0
LTYPE
  5
31
330
5
100
AcDbSymbolTableRecord
100
AcDbLinetypeTableRecord
  2
LONG_DASHED
 70
     0
  3
Long_Dashed
 72
    65
 73
     2
 40
15.0
 49
10.0
 74
     0
 49
-5.0
 74
     0
  0
LTYPE
  5
32
330
5
100
AcDbSymbolTableRecord
100
AcDbLinetypeTableRecord
  2
DASH_CENTER
 70
     0
  3
Dash_Center
 72
    65
 73
     4
 40
14.0
 49
11.0
 74
     0
 49
-1.0
 74
     0
 49
1.0
 74
     0
 49
-1.0
 74
     0
  0
LTYPE
  5
33
330
5
100
AcDbSymbolTableRecord
100
AcDbLinetypeTableRecord
  2
PHANTOM
 70
     0
  3
Phantom
 72
    65
 73
     6
 40
13.0
 49
10.0
 74
     0
 49
-1.0
 74
     0
 49
0.0
 74
     0
 49
-1.0
 74
     0
 49
0.0
 74
     0
 49
-1.0
 74
     0
  0
LTYPE
  5
34
330
5
100
AcDbSymbolTableRecord
100
AcDbLinetypeTableRecord
  2
CENTER_DASH_DASH
 70
     0
  3
Center_Dash_Dash
 72
    65
 73
     6
 40
14.0
 49
9.0
 74
     0
 49
-1.0
 74
     0
 49
1.0
 74
     0
 49
-1.0
 74
     0
 49
1.0
 74
     0
 49
-1.0
 74
     0
  0
ENDTAB
  0
TABLE
  2
LAYER
  5
2
330
0
100
AcDbSymbolTable
 70
     2
  0
LAYER
  5
10
330
2
100
AcDbSymbolTableRecord
100
AcDbLayerTableRecord
  2
0
 70
     0
 62
     7
  6
Continuous
370
    -3
390
F
  0
LAYER
  5
35
330
2
100
AcDbSymbolTableRecord
100
AcDbLayerTableRecord
  2
1
 70
     0
 62
     7
  6
Continuous
370
    -3
390
F
  0
ENDTAB
  0
TABLE
  2
STYLE
  5
3
330
0
100
AcDbSymbolTable
 70
     3
  0
STYLE
  5
11
330
3
100
AcDbSymbolTableRecord
100
AcDbTextStyleTableRecord
  2
Standard
 70
     0
 40
0.0
 41
1.0
 50
0.0
 71
     0
 42
0.2
  3
txt
  4

  0
STYLE
  5
3BD
330
3
100
AcDbSymbolTableRecord
100
AcDbTextStyleTableRecord
  2
CONVERTER_1
 70
     0
 40
0.0
 41
0.89
 50
0.0
 71
     0
 42
0.2
  3
msmincho.ttc
  4

1001
ACAD
1000
MS Mincho
1071
    32785
  0
STYLE
  5
476
330
3
100
AcDbSymbolTableRecord
100
AcDbTextStyleTableRecord
  2
CONVERTER_2
 70
     0
 40
0.0
 41
0.9
 50
0.0
 71
     0
 42
0.2
  3
txt.shx
  4

  0
ENDTAB
  0
TABLE
  2
VIEW
  5
6
330
0
100
AcDbSymbolTable
 70
     0
  0
ENDTAB
  0
TABLE
  2
UCS
  5
7
330
0
100
AcDbSymbolTable
 70
     0
  0
ENDTAB
  0
TABLE
  2
APPID
  5
9
330
0
100
AcDbSymbolTable
 70
     1
  0
APPID
  5
12
330
9
100
AcDbSymbolTableRecord
100
AcDbRegAppTableRecord
  2
ACAD
 70
     0
  0
ENDTAB
  0
TABLE
  2
DIMSTYLE
  5
A
330
0
100
AcDbSymbolTable
 70
     9
100
AcDbDimStyleTable
  0
DIMSTYLE
105
27
330
A
100
AcDbSymbolTableRecord
100
AcDbDimStyleTableRecord
  2
Standard
 70
     0
340
11
  0
DIMSTYLE
105
48A
102
{ACAD_REACTORS
330
48B
102
}
330
A
100
AcDbSymbolTableRecord
100
AcDbDimStyleTableRecord
  2
ME10_DIM_0
 70
     0
  3
{\Fgdt;n}<>
 41
7.0
 42
0.0
 44
2.0
 73
     0
 74
     0
 77
     1
 78
     8
140
7.0
147
0.625
172
     1
173
     1
176
     2
177
     2
178
     7
271
     2
340
476
  0
DIMSTYLE
105
495
102
{ACAD_REACTORS
330
496
102
}
330
A
100
AcDbSymbolTableRecord
100
AcDbDimStyleTableRecord
  2
ME10_DIM_1
 70
     0
 41
7.0
 42
0.0
 44
2.0
 73
     0
 74
     0
 77
     1
 78
     8
140
7.0
147
0.625
172
     1
173
     1
176
     2
177
     2
178
     7
271
     2
340
476
  0
DIMSTYLE
105
4A0
102
{ACAD_REACTORS
330
4A1
102
}
330
A
100
AcDbSymbolTableRecord
100
AcDbDimStyleTableRecord
  2
ME10_DIM_2
 70
     0
 41
7.0
 42
0.0
 44
2.0
 73
     0
 74
     0
 77
     1
 78
     8
140
7.0
147
0.625
172
     1
173
     1
176
     2
177
     2
178
     7
271
     2
340
476
  0
DIMSTYLE
105
4AD
102
{ACAD_REACTORS
330
4AE
102
}
330
A
100
AcDbSymbolTableRecord
100
AcDbDimStyleTableRecord
  2
ME10_DIM_3
 70
     0
  3
{\Fgdt;n}<>
 41
7.0
 42
0.0
 44
2.0
 73
     0
 74
     0
 77
     1
 78
     8
140
7.0
147
0.625
172
     1
173
     1
176
     2
177
     2
178
     7
271
     2
340
476
  0
DIMSTYLE
105
4B8
102
{ACAD_REACTORS
330
4B9
102
}
330
A
100
AcDbSymbolTableRecord
100
AcDbDimStyleTableRecord
  2
ME10_DIM_4
 70
     0
 41
7.0
 42
0.0
 44
2.0
 73
     0
 74
     0
 77
     1
 78
     8
140
7.0
147
0.625
172
     1
173
     1
176
     2
177
     2
178
     7
271
     2
340
476
  0
DIMSTYLE
105
4C3
102
{ACAD_REACTORS
330
4C4
102
}
330
A
100
AcDbSymbolTableRecord
100
AcDbDimStyleTableRecord
  2
ME10_DIM_5
 70
     0
 41
7.0
 42
0.0
 44
2.0
 73
     0
 74
     0
 77
     1
 78
     8
140
7.0
147
0.625
172
     1
173
     1
176
     2
177
     2
178
     7
271
     2
340
476
  0
DIMSTYLE
105
4CE
102
{ACAD_REACTORS
330
4CF
102
}
330
A
100
AcDbSymbolTableRecord
100
AcDbDimStyleTableRecord
  2
ME10_DIM_6
 70
     0
 41
7.0
 42
0.0
 44
2.0
 73
     0
 74
     0
 77
     1
 78
     8
140
7.0
147
0.625
172
     1
173
     1
176
     2
177
     2
178
     7
271
     2
340
476
  0
DIMSTYLE
105
4D9
102
{ACAD_REACTORS
330
4DA
102
}
330
A
100
AcDbSymbolTableRecord
100
AcDbDimStyleTableRecord
  2
ME10_DIM_7
 70
     0
  3
{\Fgdt;n}<>
 41
7.0
 42
0.0
 44
2.0
 73
     0
 74
     0
 77
     1
 78
     8
140
7.0
147
0.625
172
     1
173
     1
176
     2
177
     2
178
     7
271
     2
340
476
  0
ENDTAB
  0
TABLE
  2
BLOCK_RECORD
  5
1
330
0
100
AcDbSymbolTable
 70
    30
  0
BLOCK_RECORD
  5
1F
330
1
100
AcDbSymbolTableRecord
100
AcDbBlockTableRecord
  2
*Model_Space
340
22
  0
BLOCK_RECORD
  5
1B
330
1
100
AcDbSymbolTableRecord
100
AcDbBlockTableRecord
  2
*Paper_Space
340
1E
  0
BLOCK_RECORD
  5
23
330
1
100
AcDbSymbolTableRecord
100
AcDbBlockTableRecord
  2
*Paper_Space0
340
26
  0
BLOCK_RECORD
  5
36
330
1
100
AcDbSymbolTableRecord
100
AcDbBlockTableRecord
  2
72-50-C2K__1
340
0
102
{BLKREFS
331
3D
102
}
  0
BLOCK_RECORD
  5
39
330
1
100
AcDbSymbolTableRecord
100
AcDbBlockTableRecord
  2
72-50-C2K__2
340
0
102
{BLKREFS
331
3E
102
}
  0
BLOCK_RECORD
  5
3C
330
1
100
AcDbSymbolTableRecord
100
AcDbBlockTableRecord
  2
72-50-2X
340
0
102
{BLKREFS
331
81
102
}
  0
BLOCK_RECORD
  5
41
330
1
100
AcDbSymbolTableRecord
100
AcDbBlockTableRecord
  2
14-39C-M11K
340
0
102
{BLKREFS
331
5A
102
}
  0
BLOCK_RECORD
  5
44
330
1
100
AcDbSymbolTableRecord
100
AcDbBlockTableRecord
  2
81-93AK
340
0
102
{BLKREFS
331
5B
102
}
  0
BLOCK_RECORD
  5
47
330
1
100
AcDbSymbolTableRecord
100
AcDbBlockTableRecord
  2
35-326-M11K
340
0
102
{BLKREFS
331
5C
102
}
  0
BLOCK_RECORD
  5
4A
330
1
100
AcDbSymbolTableRecord
100
AcDbBlockTableRecord
  2
32-26-M1K
340
0
102
{BLKREFS
331
5D
102
}
  0
BLOCK_RECORD
  5
4D
330
1
100
AcDbSymbolTableRecord
100
AcDbBlockTableRecord
  2
30-329-M11K
340
0
102
{BLKREFS
331
5E
102
}
  0
BLOCK_RECORD
  5
50
330
1
100
AcDbSymbolTableRecord
100
AcDbBlockTableRecord
  2
33-333-M11K
340
0
102
{BLKREFS
331
5F
102
}
  0
BLOCK_RECORD
  5
53
330
1
100
AcDbSymbolTableRecord
100
AcDbBlockTableRecord
  2
35-325-M11K
340
0
102
{BLKREFS
331
60
102
}
  0
BLOCK_RECORD
  5
56
330
1
100
AcDbSymbolTableRecord
100
AcDbBlockTableRecord
  2
35-205-C2K
340
0
102
{BLKREFS
331
61
102
}
  0
BLOCK_RECORD
  5
59
330
1
100
AcDbSymbolTableRecord
100
AcDbBlockTableRecord
  2
Y1735ATVF-13
340
0
102
{BLKREFS
331
82
102
}
  0
BLOCK_RECORD
  5
64
330
1
100
AcDbSymbolTableRecord
100
AcDbBlockTableRecord
  2
R68-1__3
340
0
102
{BLKREFS
331
83
102
}
  0
BLOCK_RECORD
  5
67
330
1
100
AcDbSymbolTableRecord
100
AcDbBlockTableRecord
  2
R68-15A
340
0
102
{BLKREFS
331
84
102
}
  0
BLOCK_RECORD
  5
6A
330
1
100
AcDbSymbolTableRecord
100
AcDbBlockTableRecord
  2
88-249K
340
0
102
{BLKREFS
331
71
102
}
  0
BLOCK_RECORD
  5
6D
330
1
100
AcDbSymbolTableRecord
100
AcDbBlockTableRecord
  2
84-177K
340
0
102
{BLKREFS
331
72
102
}
  0
BLOCK_RECORD
  5
70
330
1
100
AcDbSymbolTableRecord
100
AcDbBlockTableRecord
  2
88-249X
340
0
102
{BLKREFS
331
85
102
}
  0
BLOCK_RECORD
  5
75
330
1
100
AcDbSymbolTableRecord
100
AcDbBlockTableRecord
  2
81-100-W-4
340
0
102
{BLKREFS
331
86
102
}
  0
BLOCK_RECORD
  5
78
330
1
100
AcDbSymbolTableRecord
100
AcDbBlockTableRecord
  2
22-2A-M2
340
0
102
{BLKREFS
331
87
102
}
  0
BLOCK_RECORD
  5
7B
330
1
100
AcDbSymbolTableRecord
100
AcDbBlockTableRecord
  2
_J__A4
340
0
102
{BLKREFS
331
88
102
}
  0
BLOCK_RECORD
  5
7E
330
1
100
AcDbSymbolTableRecord
100
AcDbBlockTableRecord
  2
R68-1__4
340
0
102
{BLKREFS
331
89
102
}
  0
BLOCK_RECORD
  5
481
330
1
100
AcDbSymbolTableRecord
100
AcDbBlockTableRecord
  2
*D022
340
0
  0
BLOCK_RECORD
  5
48C
330
1
100
AcDbSymbolTableRecord
100
AcDbBlockTableRecord
  2
*D123
340
0
  0
BLOCK_RECORD
  5
497
330
1
100
AcDbSymbolTableRecord
100
AcDbBlockTableRecord
  2
*D224
340
0
  0
BLOCK_RECORD
  5
4A2
330
1
100
AcDbSymbolTableRecord
100
AcDbBlockTableRecord
  2
*D325
340
0
  0
BLOCK_RECORD
  5
4AF
330
1
100
AcDbSymbolTableRecord
100
AcDbBlockTableRecord
  2
*D426
340
0
  0
BLOCK_RECORD
  5
4BA
330
1
100
AcDbSymbolTableRecord
100
AcDbBlockTableRecord
  2
*D527
340
0
  0
BLOCK_RECORD
  5
4C5
330
1
100
AcDbSymbolTableRecord
100
AcDbBlockTableRecord
  2
*D628
340
0
  0
BLOCK_RECORD
  5
4D0
330
1
100
AcDbSymbolTableRecord
100
AcDbBlockTableRecord
  2
*D729
340
0
  0
ENDTAB
  0
ENDSEC
  0
SECTION
  2
BLOCKS
  0
BLOCK
  5
20
330
1F
100
AcDbEntity
  8
0
100
AcDbBlockBegin
  2
*Model_Space
 70
     0
 71
     0
 10
0.0
 20
0.0
 30
0.0
  3
*Model_Space
  1

  0
ENDBLK
  5
21
330
1F
100
AcDbEntity
  8
0
100
AcDbBlockEnd
  0
BLOCK
  5
1C
330
1B
100
AcDbEntity
 67
     1
  8
0
100
AcDbBlockBegin
  2
*Paper_Space
 70
     0
 71
     0
 10
0.0
 20
0.0
 30
0.0
  3
*Paper_Space
  1

  0
ENDBLK
  5
1D
330
1B
100
AcDbEntity
 67
     1
  8
0
100
AcDbBlockEnd
  0
BLOCK
  5
24
330
23
100
AcDbEntity
  8
0
100
AcDbBlockBegin
  2
*Paper_Space0
 70
     0
 71
     0
 10
0.0
 20
0.0
 30
0.0
  3
*Paper_Space0
  1

  0
ENDBLK
  5
25
330
23
100
AcDbEntity
  8
0
100
AcDbBlockEnd
  0
BLOCK
  5
37
330
36
100
AcDbEntity
  8
0
100
AcDbBlockBegin
  2
72-50-C2K__1
 70
     0
 71
     0
 10
438.1963052546869
 20
711.9461124150871
 30
0.0
  3
72-50-C2K__1
  1

  0
LINE
  5
8A
330
36
100
AcDbEntity
  8
1
  6
Continuous
 62
     7
100
AcDbLine
 10
159.3227083056092
 20
485.4550894174502
 30
0.0
 11
161.5427304949701
 21
485.4550894174502
 31
0.0
  0
LINE
  5
8B
330
36
100
AcDbEntity
  8
1
  6
Continuous
 62
     7
100
AcDbLine
 10
161.5427304949701
 20
485.4550894174502
 30
0.0
 11
166.2427304949699
 21
485.4550894174502
 31
0.0
  0
LINE
  5
8C
330
36
100
AcDbEntity
  8
1
  6
Continuous
 62
     7
100
AcDbLine
 10
163.328043942716
 20
500.4550894174502
 30
0.0
 11
163.1690972290191
 21
500.590174713559
 31
0.0
  0
LINE
  5
8D
330
36
100
AcDbEntity
  8
1
  6
Continuous
 62
     7
100
AcDbLine
 10
160.0927304949703
 20
500.4550894174502
 30
0.0
 11
160.0927304949703
 21
500.9050894174502
 31
0.0
  0
LINE
  5
8E
330
36
100
AcDbEntity
  8
0
  6
Continuous
 62
     7
100
AcDbLine
 10
162.125733117063
 20
514.668281777828
 30
0.0
 11
160.967739995039
 21
514.6406116752842
 31
0.0
  0
LINE
  5
8F
330
36
100
AcDbEntity
  8
0
  6
Continuous
 62
     7
100
AcDbLine
 10
160.5462323529403
 20
514.0435433886221
 30
0.0
 11
162.125733117063
 21
514.668281777828
 31
0.0
  0
LINE
  5
90
330
36
100
AcDbEntity
  8
1
  6
Continuous
 62
     7
100
AcDbLine
 10
162.125733117063
 20
514.668281777828
 30
0.0
 11
160.2399098699441
 21
514.220398756637
 31
0.0
  0
LINE
  5
91
330
36
100
AcDbEntity
  8
1
  6
Continuous
 62
     7
100
AcDbLine
 10
161.5427304949701
 20
515.4550894174502
 30
0.0
 11
160.967739995039
 21
514.6406116752842
 31
0.0
  0
LINE
  5
92
330
36
100
AcDbEntity
  8
1
  6
Continuous
 62
     7
100
AcDbLine
 10
162.8765207630629
 20
513.655035124689
 30
0.0
 11
160.0927304949703
 21
512.6379414046921
 31
0.0
  0
LINE
  5
93
330
36
100
AcDbEntity
  8
1
  6
Continuous
 62
     7
100
AcDbLine
 10
163.5427304949701
 20
513.2703987566381
 30
0.0
 11
159.5427304949701
 21
512.3203987566371
 31
0.0
  0
LINE
  5
94
330
36
100
AcDbEntity
  8
1
  6
Continuous
 62
     7
100
AcDbLine
 10
163.1336681212413
 20
513.034226485049
 30
0.0
 11
160.0927304949703
 21
512.0028561085831
 31
0.0
  0
LINE
  5
95
330
36
100
AcDbEntity
  8
1
  6
Continuous
 62
     7
100
AcDbLine
 10
161.5427304949701
 20
515.4550894174502
 30
0.0
 11
162.8765207630629
 21
513.655035124689
 31
0.0
  0
LINE
  5
96
330
36
100
AcDbEntity
  8
1
  6
Continuous
 62
     7
100
AcDbLine
 10
160.0927304949703
 20
512.9486930525482
 30
0.0
 11
160.0927304949703
 21
512.6379414046921
 31
0.0
  0
LINE
  5
97
330
36
100
AcDbEntity
  8
1
  6
Continuous
 62
     7
100
AcDbLine
 10
160.5462323529403
 20
514.0435433886221
 30
0.0
 11
160.0927304949703
 21
512.9486930525482
 31
0.0
  0
LINE
  5
98
330
36
100
AcDbEntity
  8
1
  6
Continuous
 62
     7
100
AcDbLine
 10
160.2399098699441
 20
514.220398756637
 30
0.0
 11
160.967739995039
 21
514.6406116752842
 31
0.0
  0
LINE
  5
99
330
36
100
AcDbEntity
  8
1
  6
Continuous
 62
     7
100
AcDbLine
 10
160.2399098699441
 20
514.220398756637
 30
0.0
 11
160.5462323529403
 21
514.0435433886221
 31
0.0
  0
LINE
  5
9A
330
36
100
AcDbEntity
  8
1
  6
Continuous
 62
     7
100
AcDbLine
 10
163.1336681212413
 20
513.034226485049
 30
0.0
 11
163.1690972290191
 21
512.9528561085822
 31
0.0
  0
LINE
  5
9B
330
36
100
AcDbEntity
  8
1
  6
Continuous
 62
     7
100
AcDbLine
 10
163.5427304949701
 20
513.2703987566381
 30
0.0
 11
162.8765207630629
 21
513.655035124689
 31
0.0
  0
LINE
  5
9C
330
36
100
AcDbEntity
  8
1
  6
Continuous
 62
     7
100
AcDbLine
 10
163.5427304949701
 20
513.2703987566381
 30
0.0
 11
163.1336681212413
 21
513.034226485049
 31
0.0
  0
LINE
  5
9D
330
36
100
AcDbEntity
  8
1
  6
Continuous
 62
     7
100
AcDbLine
 10
163.1690972290191
 20
510.090174713559
 30
0.0
 11
160.0927304949703
 21
509.1401747135581
 31
0.0
  0
LINE
  5
9E
330
36
100
AcDbEntity
  8
1
  6
Continuous
 62
     7
100
AcDbLine
 10
163.5427304949701
 20
509.772632065504
 30
0.0
 11
159.5427304949701
 21
508.8226320655042
 31
0.0
  0
LINE
  5
9F
330
36
100
AcDbEntity
  8
1
  6
Continuous
 62
     7
100
AcDbLine
 10
163.1690972290191
 20
509.4550894174502
 30
0.0
 11
160.0927304949703
 21
508.5050894174492
 31
0.0
  0
LINE
  5
A0
330
36
100
AcDbEntity
  8
1
  6
Continuous
 62
     7
100
AcDbLine
 10
163.1690972290191
 20
508.190174713558
 30
0.0
 11
160.0927304949703
 21
507.2401747135582
 31
0.0
  0
LINE
  5
A1
330
36
100
AcDbEntity
  8
1
  6
Continuous
 62
     7
100
AcDbLine
 10
163.5427304949701
 20
507.8726320655042
 30
0.0
 11
159.5427304949701
 21
506.9226320655041
 31
0.0
  0
LINE
  5
A2
330
36
100
AcDbEntity
  8
1
  6
Continuous
 62
     7
100
AcDbLine
 10
163.1690972290191
 20
507.5550894174501
 30
0.0
 11
160.0927304949703
 21
506.6050894174512
 31
0.0
  0
LINE
  5
A3
330
36
100
AcDbEntity
  8
1
  6
Continuous
 62
     7
100
AcDbLine
 10
163.1690972290191
 20
506.2901747135591
 30
0.0
 11
160.0927304949703
 21
505.340174713559
 31
0.0
  0
LINE
  5
A4
330
36
100
AcDbEntity
  8
1
  6
Continuous
 62
     7
100
AcDbLine
 10
163.5427304949701
 20
505.9726320655052
 30
0.0
 11
159.5427304949701
 21
505.022632065504
 31
0.0
  0
LINE
  5
A5
330
36
100
AcDbEntity
  8
1
  6
Continuous
 62
     7
100
AcDbLine
 10
163.1690972290191
 20
505.6550894174502
 30
0.0
 11
160.0927304949703
 21
504.7050894174502
 31
0.0
  0
LINE
  5
A6
330
36
100
AcDbEntity
  8
1
  6
Continuous
 62
     7
100
AcDbLine
 10
163.1690972290191
 20
504.3901747135581
 30
0.0
 11
160.0927304949703
 21
503.440174713558
 31
0.0
  0
LINE
  5
A7
330
36
100
AcDbEntity
  8
1
  6
Continuous
 62
     7
100
AcDbLine
 10
163.5427304949701
 20
504.0726320655042
 30
0.0
 11
159.5427304949701
 21
503.1226320655042
 31
0.0
  0
LINE
  5
A8
330
36
100
AcDbEntity
  8
1
  6
Continuous
 62
     7
100
AcDbLine
 10
163.1690972290191
 20
503.7550894174492
 30
0.0
 11
160.0927304949703
 21
502.8050894174501
 31
0.0
  0
LINE
  5
A9
330
36
100
AcDbEntity
  8
1
  6
Continuous
 62
     7
100
AcDbLine
 10
163.1690972290191
 20
502.4901747135582
 30
0.0
 11
160.0927304949703
 21
501.5401747135591
 31
0.0
  0
LINE
  5
AA
330
36
100
AcDbEntity
  8
1
  6
Continuous
 62
     7
100
AcDbLine
 10
163.5427304949701
 20
502.1726320655041
 30
0.0
 11
159.5427304949701
 21
501.2226320655052
 31
0.0
  0
LINE
  5
AB
330
36
100
AcDbEntity
  8
1
  6
Continuous
 62
     7
100
AcDbLine
 10
163.1690972290191
 20
501.8550894174512
 30
0.0
 11
160.0927304949703
 21
500.9050894174502
 31
0.0
  0
LINE
  5
AC
330
36
100
AcDbEntity
  8
1
  6
Continuous
 62
     7
100
AcDbLine
 10
163.1690972290191
 20
500.590174713559
 30
0.0
 11
162.7316531119593
 21
500.4550894174502
 31
0.0
  0
LINE
  5
AD
330
36
100
AcDbEntity
  8
1
  6
Continuous
 62
     7
100
AcDbLine
 10
160.0927304949703
 20
509.1401747135581
 30
0.0
 11
160.0927304949703
 21
510.4050894174502
 31
0.0
  0
LINE
  5
AE
330
36
100
AcDbEntity
  8
1
  6
Continuous
 62
     7
100
AcDbLine
 10
160.0927304949703
 20
507.2401747135582
 30
0.0
 11
160.0927304949703
 21
508.5050894174492
 31
0.0
  0
LINE
  5
AF
330
36
100
AcDbEntity
  8
1
  6
Continuous
 62
     7
100
AcDbLine
 10
160.0927304949703
 20
505.340174713559
 30
0.0
 11
160.0927304949703
 21
506.6050894174512
 31
0.0
  0
LINE
  5
B0
330
36
100
AcDbEntity
  8
1
  6
Continuous
 62
     7
100
AcDbLine
 10
160.0927304949703
 20
503.440174713558
 30
0.0
 11
160.0927304949703
 21
504.7050894174502
 31
0.0
  0
LINE
  5
B1
330
36
100
AcDbEntity
  8
1
  6
Continuous
 62
     7
100
AcDbLine
 10
160.0927304949703
 20
501.5401747135591
 30
0.0
 11
160.0927304949703
 21
502.8050894174501
 31
0.0
  0
LINE
  5
B2
330
36
100
AcDbEntity
  8
1
  6
Continuous
 62
     7
100
AcDbLine
 10
163.1690972290191
 20
510.090174713559
 30
0.0
 11
163.1690972290191
 21
511.3550894174512
 31
0.0
  0
LINE
  5
B3
330
36
100
AcDbEntity
  8
1
  6
Continuous
 62
     7
100
AcDbLine
 10
163.1690972290191
 20
508.190174713558
 30
0.0
 11
163.1690972290191
 21
509.4550894174502
 31
0.0
  0
LINE
  5
B4
330
36
100
AcDbEntity
  8
1
  6
Continuous
 62
     7
100
AcDbLine
 10
163.1690972290191
 20
506.2901747135591
 30
0.0
 11
163.1690972290191
 21
507.5550894174501
 31
0.0
  0
LINE
  5
B5
330
36
100
AcDbEntity
  8
1
  6
Continuous
 62
     7
100
AcDbLine
 10
163.1690972290191
 20
504.3901747135581
 30
0.0
 11
163.1690972290191
 21
505.6550894174502
 31
0.0
  0
LINE
  5
B6
330
36
100
AcDbEntity
  8
1
  6
Continuous
 62
     7
100
AcDbLine
 10
163.1690972290191
 20
502.4901747135582
 30
0.0
 11
163.1690972290191
 21
503.7550894174492
 31
0.0
  0
LINE
  5
B7
330
36
100
AcDbEntity
  8
1
  6
Continuous
 62
     7
100
AcDbLine
 10
163.1690972290191
 20
500.590174713559
 30
0.0
 11
163.1690972290191
 21
501.8550894174512
 31
0.0
  0
LINE
  5
B8
330
36
100
AcDbEntity
  8
1
  6
Continuous
 62
     7
100
AcDbLine
 10
160.0927304949703
 20
501.5401747135591
 30
0.0
 11
159.5427304949701
 21
501.2226320655052
 31
0.0
  0
LINE
  5
B9
330
36
100
AcDbEntity
  8
1
  6
Continuous
 62
     7
100
AcDbLine
 10
159.5427304949701
 20
501.2226320655052
 30
0.0
 11
160.0927304949703
 21
500.9050894174502
 31
0.0
  0
LINE
  5
BA
330
36
100
AcDbEntity
  8
1
  6
Continuous
 62
     7
100
AcDbLine
 10
160.0927304949703
 20
503.440174713558
 30
0.0
 11
159.5427304949701
 21
503.1226320655042
 31
0.0
  0
LINE
  5
BB
330
36
100
AcDbEntity
  8
1
  6
Continuous
 62
     7
100
AcDbLine
 10
159.5427304949701
 20
503.1226320655042
 30
0.0
 11
160.0927304949703
 21
502.8050894174501
 31
0.0
  0
LINE
  5
BC
330
36
100
AcDbEntity
  8
1
  6
Continuous
 62
     7
100
AcDbLine
 10
160.0927304949703
 20
505.340174713559
 30
0.0
 11
159.5427304949701
 21
505.022632065504
 31
0.0
  0
LINE
  5
BD
330
36
100
AcDbEntity
  8
1
  6
Continuous
 62
     7
100
AcDbLine
 10
159.5427304949701
 20
505.022632065504
 30
0.0
 11
160.0927304949703
 21
504.7050894174502
 31
0.0
  0
LINE
  5
BE
330
36
100
AcDbEntity
  8
1
  6
Continuous
 62
     7
100
AcDbLine
 10
159.5427304949701
 20
506.9226320655041
 30
0.0
 11
160.0927304949703
 21
506.6050894174512
 31
0.0
  0
LINE
  5
BF
330
36
100
AcDbEntity
  8
1
  6
Continuous
 62
     7
100
AcDbLine
 10
160.0927304949703
 20
507.2401747135582
 30
0.0
 11
159.5427304949701
 21
506.9226320655041
 31
0.0
  0
LINE
  5
C0
330
36
100
AcDbEntity
  8
1
  6
Continuous
 62
     7
100
AcDbLine
 10
159.5427304949701
 20
508.8226320655042
 30
0.0
 11
160.0927304949703
 21
508.5050894174492
 31
0.0
  0
LINE
  5
C1
330
36
100
AcDbEntity
  8
1
  6
Continuous
 62
     7
100
AcDbLine
 10
160.0927304949703
 20
509.1401747135581
 30
0.0
 11
159.5427304949701
 21
508.8226320655042
 31
0.0
  0
LINE
  5
C2
330
36
100
AcDbEntity
  8
1
  6
Continuous
 62
     7
100
AcDbLine
 10
159.5427304949701
 20
512.3203987566371
 30
0.0
 11
160.0927304949703
 21
512.0028561085831
 31
0.0
  0
LINE
  5
C3
330
36
100
AcDbEntity
  8
1
  6
Continuous
 62
     7
100
AcDbLine
 10
160.0927304949703
 20
512.6379414046921
 30
0.0
 11
159.5427304949701
 21
512.3203987566371
 31
0.0
  0
LINE
  5
C4
330
36
100
AcDbEntity
  8
1
  6
Continuous
 62
     7
100
AcDbLine
 10
163.5427304949701
 20
509.772632065504
 30
0.0
 11
163.1690972290191
 21
510.090174713559
 31
0.0
  0
LINE
  5
C5
330
36
100
AcDbEntity
  8
1
  6
Continuous
 62
     7
100
AcDbLine
 10
163.1690972290191
 20
509.4550894174502
 30
0.0
 11
163.5427304949701
 21
509.772632065504
 31
0.0
  0
LINE
  5
C6
330
36
100
AcDbEntity
  8
1
  6
Continuous
 62
     7
100
AcDbLine
 10
163.5427304949701
 20
507.8726320655042
 30
0.0
 11
163.1690972290191
 21
508.190174713558
 31
0.0
  0
LINE
  5
C7
330
36
100
AcDbEntity
  8
1
  6
Continuous
 62
     7
100
AcDbLine
 10
163.1690972290191
 20
507.5550894174501
 30
0.0
 11
163.5427304949701
 21
507.8726320655042
 31
0.0
  0
LINE
  5
C8
330
36
100
AcDbEntity
  8
1
  6
Continuous
 62
     7
100
AcDbLine
 10
163.1690972290191
 20
505.6550894174502
 30
0.0
 11
163.5427304949701
 21
505.9726320655052
 31
0.0
  0
LINE
  5
C9
330
36
100
AcDbEntity
  8
1
  6
Continuous
 62
     7
100
AcDbLine
 10
163.5427304949701
 20
505.9726320655052
 30
0.0
 11
163.1690972290191
 21
506.2901747135591
 31
0.0
  0
LINE
  5
CA
330
36
100
AcDbEntity
  8
1
  6
Continuous
 62
     7
100
AcDbLine
 10
163.1690972290191
 20
503.7550894174492
 30
0.0
 11
163.5427304949701
 21
504.0726320655042
 31
0.0
  0
LINE
  5
CB
330
36
100
AcDbEntity
  8
1
  6
Continuous
 62
     7
100
AcDbLine
 10
163.5427304949701
 20
504.0726320655042
 30
0.0
 11
163.1690972290191
 21
504.3901747135581
 31
0.0
  0
LINE
  5
CC
330
36
100
AcDbEntity
  8
1
  6
Continuous
 62
     7
100
AcDbLine
 10
163.1690972290191
 20
501.8550894174512
 30
0.0
 11
163.5427304949701
 21
502.1726320655041
 31
0.0
  0
LINE
  5
CD
330
36
100
AcDbEntity
  8
1
  6
Continuous
 62
     7
100
AcDbLine
 10
163.5427304949701
 20
502.1726320655041
 30
0.0
 11
163.1690972290191
 21
502.4901747135582
 31
0.0
  0
LINE
  5
CE
330
36
100
AcDbEntity
  8
1
  6
Continuous
 62
     7
100
AcDbLine
 10
163.1690972290191
 20
511.3550894174512
 30
0.0
 11
160.0927304949703
 21
510.4050894174502
 31
0.0
  0
LINE
  5
CF
330
36
100
AcDbEntity
  8
1
  6
Continuous
 62
     7
100
AcDbLine
 10
159.5427304949701
 20
510.7226320655052
 30
0.0
 11
160.0927304949703
 21
510.4050894174502
 31
0.0
  0
LINE
  5
D0
330
36
100
AcDbEntity
  8
1
  6
Continuous
 62
     7
100
AcDbLine
 10
163.5427304949701
 20
511.6726320655041
 30
0.0
 11
159.5427304949701
 21
510.7226320655052
 31
0.0
  0
LINE
  5
D1
330
36
100
AcDbEntity
  8
1
  6
Continuous
 62
     7
100
AcDbLine
 10
163.1690972290191
 20
511.3550894174512
 30
0.0
 11
163.5427304949701
 21
511.6726320655041
 31
0.0
  0
LINE
  5
D2
330
36
100
AcDbEntity
  8
1
  6
Continuous
 62
     7
100
AcDbLine
 10
163.5427304949701
 20
511.6726320655041
 30
0.0
 11
163.1690972290191
 21
511.9901747135582
 31
0.0
  0
LINE
  5
D3
330
36
100
AcDbEntity
  8
1
  6
Continuous
 62
     7
100
AcDbLine
 10
163.1690972290191
 20
511.9901747135582
 30
0.0
 11
160.0927304949703
 21
511.0401747135591
 31
0.0
  0
LINE
  5
D4
330
36
100
AcDbEntity
  8
1
  6
Continuous
 62
     7
100
AcDbLine
 10
160.0927304949703
 20
511.0401747135591
 30
0.0
 11
159.5427304949701
 21
510.7226320655052
 31
0.0
  0
LINE
  5
D5
330
36
100
AcDbEntity
  8
1
  6
Continuous
 62
     7
100
AcDbLine
 10
160.0927304949703
 20
511.0401747135591
 30
0.0
 11
160.0927304949703
 21
512.0028561085831
 31
0.0
  0
LINE
  5
D6
330
36
100
AcDbEntity
  8
1
  6
Continuous
 62
     7
100
AcDbLine
 10
163.1690972290191
 20
511.9901747135582
 30
0.0
 11
163.1690972290191
 21
512.9528561085822
 31
0.0
  0
LINE
  5
D7
330
36
100
AcDbEntity
  8
0
  6
Continuous
 62
     7
100
AcDbLine
 10
164.14273049497
 20
231.7468236467651
 30
0.0
 11
162.0427304949701
 21
231.7468236467651
 31
0.0
  0
LINE
  5
D8
330
36
100
AcDbEntity
  8
0
  6
Continuous
 62
     7
100
AcDbLine
 10
162.0427304949701
 20
231.7468236467651
 30
0.0
 11
162.0427304949701
 21
233.8468236467652
 31
0.0
  0
LINE
  5
D9
330
36
100
AcDbEntity
  8
0
  6
Continuous
 62
     7
100
AcDbLine
 10
162.0427304949701
 20
233.8468236467652
 30
0.0
 11
161.0427304949701
 21
233.8468236467652
 31
0.0
  0
LINE
  5
DA
330
36
100
AcDbEntity
  8
0
  6
Continuous
 62
     7
100
AcDbLine
 10
161.0427304949701
 20
233.8468236467652
 30
0.0
 11
161.0427304949701
 21
231.7468236467651
 31
0.0
  0
LINE
  5
DB
330
36
100
AcDbEntity
  8
0
  6
Continuous
 62
     7
100
AcDbLine
 10
161.0427304949701
 20
231.7468236467651
 30
0.0
 11
158.9427304949702
 21
231.7468236467651
 31
0.0
  0
LINE
  5
DC
330
36
100
AcDbEntity
  8
0
  6
Continuous
 62
     7
100
AcDbLine
 10
158.9427304949702
 20
231.7468236467651
 30
0.0
 11
158.9427304949702
 21
230.7468236467651
 31
0.0
  0
LINE
  5
DD
330
36
100
AcDbEntity
  8
0
  6
Continuous
 62
     7
100
AcDbLine
 10
158.9427304949702
 20
230.7468236467651
 30
0.0
 11
161.0427304949701
 21
230.7468236467651
 31
0.0
  0
LINE
  5
DE
330
36
100
AcDbEntity
  8
0
  6
Continuous
 62
     7
100
AcDbLine
 10
161.0427304949701
 20
230.7468236467651
 30
0.0
 11
161.0427304949701
 21
228.6468236467651
 31
0.0
  0
LINE
  5
DF
330
36
100
AcDbEntity
  8
0
  6
Continuous
 62
     7
100
AcDbLine
 10
161.0427304949701
 20
228.6468236467651
 30
0.0
 11
162.0427304949701
 21
228.6468236467651
 31
0.0
  0
LINE
  5
E0
330
36
100
AcDbEntity
  8
0
  6
Continuous
 62
     7
100
AcDbLine
 10
162.0427304949701
 20
228.6468236467651
 30
0.0
 11
162.0427304949701
 21
230.7468236467651
 31
0.0
  0
LINE
  5
E1
330
36
100
AcDbEntity
  8
0
  6
Continuous
 62
     7
100
AcDbLine
 10
162.0427304949701
 20
230.7468236467651
 30
0.0
 11
164.14273049497
 21
230.7468236467651
 31
0.0
  0
LINE
  5
E2
330
36
100
AcDbEntity
  8
0
  6
Continuous
 62
     7
100
AcDbLine
 10
164.14273049497
 20
230.7468236467651
 30
0.0
 11
164.14273049497
 21
231.7468236467651
 31
0.0
  0
LINE
  5
E3
330
36
100
AcDbEntity
  8
1
  6
Continuous
 62
     7
100
AcDbLine
 10
341.9104797161569
 20
229.620456912716
 30
0.0
 11
342.8731611111809
 21
229.620456912716
 31
0.0
  0
LINE
  5
E4
330
36
100
AcDbEntity
  8
1
  6
Continuous
 62
     7
100
AcDbLine
 10
340.960479716158
 20
232.6968236467651
 30
0.0
 11
341.923161111182
 21
232.6968236467651
 31
0.0
  0
LINE
  5
E5
330
36
100
AcDbEntity
  8
1
  6
Continuous
 62
     7
100
AcDbLine
 10
340.960479716158
 20
232.6968236467651
 30
0.0
 11
340.6429370681042
 21
233.2468236467651
 31
0.0
  0
LINE
  5
E6
330
36
100
AcDbEntity
  8
1
  6
Continuous
 62
     7
100
AcDbLine
 10
341.9104797161569
 20
229.620456912716
 30
0.0
 11
340.960479716158
 21
232.6968236467651
 31
0.0
  0
LINE
  5
E7
330
36
100
AcDbEntity
  8
1
  6
Continuous
 62
     7
100
AcDbLine
 10
341.5929370681031
 20
229.2468236467651
 30
0.0
 11
341.9104797161569
 21
229.620456912716
 31
0.0
  0
LINE
  5
E8
330
36
100
AcDbEntity
  8
1
  6
Continuous
 62
     7
100
AcDbLine
 10
341.2753944200501
 20
229.620456912716
 30
0.0
 11
341.5929370681031
 21
229.2468236467651
 31
0.0
  0
LINE
  5
E9
330
36
100
AcDbEntity
  8
1
  6
Continuous
 62
     7
100
AcDbLine
 10
341.5929370681031
 20
229.2468236467651
 30
0.0
 11
340.6429370681042
 21
233.2468236467651
 31
0.0
  0
LINE
  5
EA
330
36
100
AcDbEntity
  8
1
  6
Continuous
 62
     7
100
AcDbLine
 10
340.6429370681042
 20
233.2468236467651
 30
0.0
 11
340.325394420049
 21
232.6968236467651
 31
0.0
  0
LINE
  5
EB
330
36
100
AcDbEntity
  8
1
  6
Continuous
 62
     7
100
AcDbLine
 10
341.2753944200501
 20
229.620456912716
 30
0.0
 11
340.325394420049
 21
232.6968236467651
 31
0.0
  0
LINE
  5
EC
330
36
100
AcDbEntity
  8
1
  6
Continuous
 62
     7
100
AcDbLine
 10
332.0929370681031
 20
229.2468236467651
 30
0.0
 11
332.4104797161569
 21
229.620456912716
 31
0.0
  0
LINE
  5
ED
330
36
100
AcDbEntity
  8
1
  6
Continuous
 62
     7
100
AcDbLine
 10
331.7753944200501
 20
229.620456912716
 30
0.0
 11
332.0929370681031
 21
229.2468236467651
 31
0.0
  0
LINE
  5
EE
330
36
100
AcDbEntity
  8
1
  6
Continuous
 62
     7
100
AcDbLine
 10
333.9929370681032
 20
229.2468236467651
 30
0.0
 11
334.310479716157
 21
229.620456912716
 31
0.0
  0
LINE
  5
EF
330
36
100
AcDbEntity
  8
1
  6
Continuous
 62
     7
100
AcDbLine
 10
333.675394420048
 20
229.620456912716
 30
0.0
 11
333.9929370681032
 21
229.2468236467651
 31
0.0
  0
LINE
  5
F0
330
36
100
AcDbEntity
  8
1
  6
Continuous
 62
     7
100
AcDbLine
 10
335.8929370681042
 20
229.2468236467651
 30
0.0
 11
336.210479716158
 21
229.620456912716
 31
0.0
  0
LINE
  5
F1
330
36
100
AcDbEntity
  8
1
  6
Continuous
 62
     7
100
AcDbLine
 10
335.575394420049
 20
229.620456912716
 30
0.0
 11
335.8929370681042
 21
229.2468236467651
 31
0.0
  0
LINE
  5
F2
330
36
100
AcDbEntity
  8
1
  6
Continuous
 62
     7
100
AcDbLine
 10
337.475394420049
 20
229.620456912716
 30
0.0
 11
337.7929370681029
 21
229.2468236467651
 31
0.0
  0
LINE
  5
F3
330
36
100
AcDbEntity
  8
1
  6
Continuous
 62
     7
100
AcDbLine
 10
337.7929370681029
 20
229.2468236467651
 30
0.0
 11
338.1104797161572
 21
229.620456912716
 31
0.0
  0
LINE
  5
F4
330
36
100
AcDbEntity
  8
1
  6
Continuous
 62
     7
100
AcDbLine
 10
339.3753944200491
 20
229.620456912716
 30
0.0
 11
339.692937068103
 21
229.2468236467651
 31
0.0
  0
LINE
  5
F5
330
36
100
AcDbEntity
  8
1
  6
Continuous
 62
     7
100
AcDbLine
 10
339.692937068103
 20
229.2468236467651
 30
0.0
 11
340.0104797161582
 21
229.620456912716
 31
0.0
  0
LINE
  5
F6
330
36
100
AcDbEntity
  8
1
  6
Continuous
 62
     7
100
AcDbLine
 10
342.5582464072911
 20
232.6968236467651
 30
0.0
 11
342.2407037592359
 21
233.2468236467651
 31
0.0
  0
LINE
  5
F7
330
36
100
AcDbEntity
  8
1
  6
Continuous
 62
     7
100
AcDbLine
 10
342.2407037592359
 20
233.2468236467651
 30
0.0
 11
341.923161111182
 21
232.6968236467651
 31
0.0
  0
LINE
  5
F8
330
36
100
AcDbEntity
  8
1
  6
Continuous
 62
     7
100
AcDbLine
 10
339.060479716157
 20
232.6968236467651
 30
0.0
 11
338.7429370681032
 21
233.2468236467651
 31
0.0
  0
LINE
  5
F9
330
36
100
AcDbEntity
  8
1
  6
Continuous
 62
     7
100
AcDbLine
 10
338.7429370681032
 20
233.2468236467651
 30
0.0
 11
338.425394420048
 21
232.6968236467651
 31
0.0
  0
LINE
  5
FA
330
36
100
AcDbEntity
  8
1
  6
Continuous
 62
     7
100
AcDbLine
 10
337.1604797161569
 20
232.6968236467651
 30
0.0
 11
336.8429370681031
 21
233.2468236467651
 31
0.0
  0
LINE
  5
FB
330
36
100
AcDbEntity
  8
1
  6
Continuous
 62
     7
100
AcDbLine
 10
336.8429370681031
 20
233.2468236467651
 30
0.0
 11
336.5253944200501
 21
232.6968236467651
 31
0.0
  0
LINE
  5
FC
330
36
100
AcDbEntity
  8
1
  6
Continuous
 62
     7
100
AcDbLine
 10
334.942937068103
 20
233.2468236467651
 30
0.0
 11
334.6253944200491
 21
232.6968236467651
 31
0.0
  0
LINE
  5
FD
330
36
100
AcDbEntity
  8
1
  6
Continuous
 62
     7
100
AcDbLine
 10
335.2604797161582
 20
232.6968236467651
 30
0.0
 11
334.942937068103
 21
233.2468236467651
 31
0.0
  0
LINE
  5
FE
330
36
100
AcDbEntity
  8
1
  6
Continuous
 62
     7
100
AcDbLine
 10
333.0429370681029
 20
233.2468236467651
 30
0.0
 11
332.725394420049
 21
232.6968236467651
 31
0.0
  0
LINE
  5
FF
330
36
100
AcDbEntity
  8
1
  6
Continuous
 62
     7
100
AcDbLine
 10
333.3604797161572
 20
232.6968236467651
 30
0.0
 11
333.0429370681029
 21
233.2468236467651
 31
0.0
  0
LINE
  5
100
330
36
100
AcDbEntity
  8
1
  6
Continuous
 62
     7
100
AcDbLine
 10
331.1429370681042
 20
233.2468236467651
 30
0.0
 11
330.825394420049
 21
232.6968236467651
 31
0.0
  0
LINE
  5
101
330
36
100
AcDbEntity
  8
1
  6
Continuous
 62
     7
100
AcDbLine
 10
331.460479716158
 20
232.6968236467651
 30
0.0
 11
331.1429370681042
 21
233.2468236467651
 31
0.0
  0
LINE
  5
102
330
36
100
AcDbEntity
  8
1
  6
Continuous
 62
     7
100
AcDbLine
 10
330.5104797161582
 20
229.620456912716
 30
0.0
 11
331.7753944200501
 21
229.620456912716
 31
0.0
  0
LINE
  5
103
330
36
100
AcDbEntity
  8
1
  6
Continuous
 62
     7
100
AcDbLine
 10
332.4104797161569
 20
229.620456912716
 30
0.0
 11
333.675394420048
 21
229.620456912716
 31
0.0
  0
LINE
  5
104
330
36
100
AcDbEntity
  8
1
  6
Continuous
 62
     7
100
AcDbLine
 10
334.310479716157
 20
229.620456912716
 30
0.0
 11
335.575394420049
 21
229.620456912716
 31
0.0
  0
LINE
  5
105
330
36
100
AcDbEntity
  8
1
  6
Continuous
 62
     7
100
AcDbLine
 10
336.210479716158
 20
229.620456912716
 30
0.0
 11
337.475394420049
 21
229.620456912716
 31
0.0
  0
LINE
  5
106
330
36
100
AcDbEntity
  8
1
  6
Continuous
 62
     7
100
AcDbLine
 10
338.1104797161572
 20
229.620456912716
 30
0.0
 11
339.3753944200491
 21
229.620456912716
 31
0.0
  0
LINE
  5
107
330
36
100
AcDbEntity
  8
1
  6
Continuous
 62
     7
100
AcDbLine
 10
340.0104797161582
 20
229.620456912716
 30
0.0
 11
341.2753944200501
 21
229.620456912716
 31
0.0
  0
LINE
  5
108
330
36
100
AcDbEntity
  8
1
  6
Continuous
 62
     7
100
AcDbLine
 10
331.460479716158
 20
232.6968236467651
 30
0.0
 11
332.725394420049
 21
232.6968236467651
 31
0.0
  0
LINE
  5
109
330
36
100
AcDbEntity
  8
1
  6
Continuous
 62
     7
100
AcDbLine
 10
333.3604797161572
 20
232.6968236467651
 30
0.0
 11
334.6253944200491
 21
232.6968236467651
 31
0.0
  0
LINE
  5
10A
330
36
100
AcDbEntity
  8
1
  6
Continuous
 62
     7
100
AcDbLine
 10
335.2604797161582
 20
232.6968236467651
 30
0.0
 11
336.5253944200501
 21
232.6968236467651
 31
0.0
  0
LINE
  5
10B
330
36
100
AcDbEntity
  8
1
  6
Continuous
 62
     7
100
AcDbLine
 10
337.1604797161569
 20
232.6968236467651
 30
0.0
 11
338.425394420048
 21
232.6968236467651
 31
0.0
  0
LINE
  5
10C
330
36
100
AcDbEntity
  8
1
  6
Continuous
 62
     7
100
AcDbLine
 10
339.060479716157
 20
232.6968236467651
 30
0.0
 11
340.325394420049
 21
232.6968236467651
 31
0.0
  0
LINE
  5
10D
330
36
100
AcDbEntity
  8
1
  6
Continuous
 62
     7
100
AcDbLine
 10
330.5104797161582
 20
229.620456912716
 30
0.0
 11
330.3753944200491
 21
230.0579010297761
 31
0.0
  0
LINE
  5
10E
330
36
100
AcDbEntity
  8
1
  6
Continuous
 62
     7
100
AcDbLine
 10
331.7753944200501
 20
229.620456912716
 30
0.0
 11
330.825394420049
 21
232.6968236467651
 31
0.0
  0
LINE
  5
10F
330
36
100
AcDbEntity
  8
1
  6
Continuous
 62
     7
100
AcDbLine
 10
332.0929370681031
 20
229.2468236467651
 30
0.0
 11
331.1429370681042
 21
233.2468236467651
 31
0.0
  0
LINE
  5
110
330
36
100
AcDbEntity
  8
1
  6
Continuous
 62
     7
100
AcDbLine
 10
332.4104797161569
 20
229.620456912716
 30
0.0
 11
331.460479716158
 21
232.6968236467651
 31
0.0
  0
LINE
  5
111
330
36
100
AcDbEntity
  8
1
  6
Continuous
 62
     7
100
AcDbLine
 10
333.675394420048
 20
229.620456912716
 30
0.0
 11
332.725394420049
 21
232.6968236467651
 31
0.0
  0
LINE
  5
112
330
36
100
AcDbEntity
  8
1
  6
Continuous
 62
     7
100
AcDbLine
 10
333.9929370681032
 20
229.2468236467651
 30
0.0
 11
333.0429370681029
 21
233.2468236467651
 31
0.0
  0
LINE
  5
113
330
36
100
AcDbEntity
  8
1
  6
Continuous
 62
     7
100
AcDbLine
 10
334.310479716157
 20
229.620456912716
 30
0.0
 11
333.3604797161572
 21
232.6968236467651
 31
0.0
  0
LINE
  5
114
330
36
100
AcDbEntity
  8
1
  6
Continuous
 62
     7
100
AcDbLine
 10
335.575394420049
 20
229.620456912716
 30
0.0
 11
334.6253944200491
 21
232.6968236467651
 31
0.0
  0
LINE
  5
115
330
36
100
AcDbEntity
  8
1
  6
Continuous
 62
     7
100
AcDbLine
 10
335.8929370681042
 20
229.2468236467651
 30
0.0
 11
334.942937068103
 21
233.2468236467651
 31
0.0
  0
LINE
  5
116
330
36
100
AcDbEntity
  8
1
  6
Continuous
 62
     7
100
AcDbLine
 10
336.210479716158
 20
229.620456912716
 30
0.0
 11
335.2604797161582
 21
232.6968236467651
 31
0.0
  0
LINE
  5
117
330
36
100
AcDbEntity
  8
1
  6
Continuous
 62
     7
100
AcDbLine
 10
337.475394420049
 20
229.620456912716
 30
0.0
 11
336.5253944200501
 21
232.6968236467651
 31
0.0
  0
LINE
  5
118
330
36
100
AcDbEntity
  8
1
  6
Continuous
 62
     7
100
AcDbLine
 10
337.7929370681029
 20
229.2468236467651
 30
0.0
 11
336.8429370681031
 21
233.2468236467651
 31
0.0
  0
LINE
  5
119
330
36
100
AcDbEntity
  8
1
  6
Continuous
 62
     7
100
AcDbLine
 10
338.1104797161572
 20
229.620456912716
 30
0.0
 11
337.1604797161569
 21
232.6968236467651
 31
0.0
  0
LINE
  5
11A
330
36
100
AcDbEntity
  8
1
  6
Continuous
 62
     7
100
AcDbLine
 10
339.3753944200491
 20
229.620456912716
 30
0.0
 11
338.425394420048
 21
232.6968236467651
 31
0.0
  0
LINE
  5
11B
330
36
100
AcDbEntity
  8
1
  6
Continuous
 62
     7
100
AcDbLine
 10
339.692937068103
 20
229.2468236467651
 30
0.0
 11
338.7429370681032
 21
233.2468236467651
 31
0.0
  0
LINE
  5
11C
330
36
100
AcDbEntity
  8
1
  6
Continuous
 62
     7
100
AcDbLine
 10
340.0104797161582
 20
229.620456912716
 30
0.0
 11
339.060479716157
 21
232.6968236467651
 31
0.0
  0
LINE
  5
11D
330
36
100
AcDbEntity
  8
1
  6
Continuous
 62
     7
100
AcDbLine
 10
343.1907037592371
 20
229.2468236467651
 30
0.0
 11
342.954531487648
 21
229.6558860204941
 31
0.0
  0
LINE
  5
11E
330
36
100
AcDbEntity
  8
1
  6
Continuous
 62
     7
100
AcDbLine
 10
343.1907037592371
 20
229.2468236467651
 30
0.0
 11
343.575340127288
 21
229.913033378672
 31
0.0
  0
LINE
  5
11F
330
36
100
AcDbEntity
  8
1
  6
Continuous
 62
     7
100
AcDbLine
 10
342.954531487648
 20
229.6558860204941
 30
0.0
 11
342.8731611111809
 21
229.620456912716
 31
0.0
  0
LINE
  5
120
330
36
100
AcDbEntity
  8
1
  6
Continuous
 62
     7
100
AcDbLine
 10
344.140703759236
 20
232.5496442717902
 30
0.0
 11
343.9638483912211
 21
232.2433217887951
 31
0.0
  0
LINE
  5
121
330
36
100
AcDbEntity
  8
1
  6
Continuous
 62
     7
100
AcDbLine
 10
344.140703759236
 20
232.5496442717902
 30
0.0
 11
344.5609166778829
 21
231.8218141466962
 31
0.0
  0
LINE
  5
122
330
36
100
AcDbEntity
  8
1
  6
Continuous
 62
     7
100
AcDbLine
 10
343.9638483912211
 20
232.2433217887951
 30
0.0
 11
342.8689980551469
 21
232.6968236467651
 31
0.0
  0
LINE
  5
123
330
36
100
AcDbEntity
  8
1
  6
Continuous
 62
     7
100
AcDbLine
 10
342.8689980551469
 20
232.6968236467651
 30
0.0
 11
342.5582464072911
 21
232.6968236467651
 31
0.0
  0
LINE
  5
124
330
36
100
AcDbEntity
  8
1
  6
Continuous
 62
     7
100
AcDbLine
 10
345.3753944200491
 20
231.2468236467651
 30
0.0
 11
343.575340127288
 21
229.913033378672
 31
0.0
  0
LINE
  5
125
330
36
100
AcDbEntity
  8
1
  6
Continuous
 62
     7
100
AcDbLine
 10
342.954531487648
 20
229.6558860204941
 30
0.0
 11
341.923161111182
 21
232.6968236467651
 31
0.0
  0
LINE
  5
126
330
36
100
AcDbEntity
  8
1
  6
Continuous
 62
     7
100
AcDbLine
 10
343.1907037592371
 20
229.2468236467651
 30
0.0
 11
342.2407037592359
 21
233.2468236467651
 31
0.0
  0
LINE
  5
127
330
36
100
AcDbEntity
  8
1
  6
Continuous
 62
     7
100
AcDbLine
 10
343.575340127288
 20
229.913033378672
 30
0.0
 11
342.5582464072911
 21
232.6968236467651
 31
0.0
  0
LINE
  5
128
330
36
100
AcDbEntity
  8
1
  6
Continuous
 62
     7
100
AcDbLine
 10
345.3753944200491
 20
231.2468236467651
 30
0.0
 11
344.5609166778829
 21
231.8218141466962
 31
0.0
  0
LINE
  5
129
330
36
100
AcDbEntity
  8
1
  6
Continuous
 62
     7
100
AcDbLine
 10
344.588586780427
 20
230.6638210246722
 30
0.0
 11
344.140703759236
 21
232.5496442717902
 31
0.0
  0
LINE
  5
12A
330
36
100
AcDbEntity
  8
0
  6
Continuous
 62
     7
100
AcDbLine
 10
343.9638483912211
 20
232.2433217887951
 30
0.0
 11
344.588586780427
 21
230.6638210246722
 31
0.0
  0
LINE
  5
12B
330
36
100
AcDbEntity
  8
0
  6
Continuous
 62
     7
100
AcDbLine
 10
344.588586780427
 20
230.6638210246722
 30
0.0
 11
344.5609166778829
 21
231.8218141466962
 31
0.0
  0
LINE
  5
12C
330
36
100
AcDbEntity
  8
1
  6
Continuous
 62
     7
100
AcDbLine
 10
330.3753944200491
 20
232.6968236467651
 30
0.0
 11
330.825394420049
 21
232.6968236467651
 31
0.0
  0
LINE
  5
12D
330
36
100
AcDbEntity
  8
1
  6
Continuous
 62
     7
100
AcDbLine
 10
330.3753944200491
 20
229.4615101990191
 30
0.0
 11
330.5104797161582
 21
229.620456912716
 31
0.0
  0
LINE
  5
12E
330
36
100
AcDbEntity
  8
1
  6
Continuous
 62
     7
100
AcDbLine
 10
315.3753944200491
 20
231.2468236467651
 30
0.0
 11
315.3753944200491
 21
226.546823646765
 31
0.0
  0
LINE
  5
12F
330
36
100
AcDbEntity
  8
1
  6
Continuous
 62
     7
100
AcDbLine
 10
315.3753944200491
 20
235.9468236467651
 30
0.0
 11
315.3753944200491
 21
231.2468236467651
 31
0.0
  0
ARC
  5
130
330
36
100
AcDbEntity
  8
0
  6
Continuous
 62
     7
100
AcDbCircle
 10
161.5427304949701
 20
488.6230894174491
 30
0.0
 40
5.668000000010068
100
AcDbArc
 50
-90.0
 51
-33.98164658396404
  0
ARC
  5
131
330
36
100
AcDbEntity
  8
0
  6
Continuous
 62
     7
100
AcDbCircle
 10
161.5427304949701
 20
488.6230894174491
 30
0.0
 40
5.668000000009878
100
AcDbArc
 50
-105.345777321695
 51
-90.0
  0
ARC
  5
132
330
36
100
AcDbEntity
  8
0
  6
Continuous
 62
     7
100
AcDbCircle
 10
318.5433944200479
 20
231.2468236467651
 30
0.0
 40
5.667999999999327
100
AcDbArc
 50
123.9816465839625
 51
180.0
  0
ARC
  5
133
330
36
100
AcDbEntity
  8
0
  6
Continuous
 62
     7
100
AcDbCircle
 10
318.5433944200479
 20
231.2468236467651
 30
0.0
 40
5.66800000000967
100
AcDbArc
 50
180.0
 51
-123.9816465839618
  0
CIRCLE
  5
134
330
36
100
AcDbEntity
  8
1
  6
Continuous
 62
     7
100
AcDbCircle
 10
161.5427304949701
 20
231.2468236467651
 30
0.0
 40
4.69999999999979
  0
ENDBLK
  5
38
330
36
100
AcDbEntity
  8
0
100
AcDbBlockEnd
  0
BLOCK
  5
3A
330
39
100
AcDbEntity
  8
0
100
AcDbBlockBegin
  2
72-50-C2K__2
 70
     0
 71
     0
 10
258.854481630164
 20
591.592297076859
 30
0.0
  3
72-50-C2K__2
  1

  0
LINE
  5
135
330
39
100
AcDbEntity
  8
0
  6
Continuous
 62
     7
100
AcDbLine
 10
119.14273049497
 20
230.7468236467651
 30
0.0
 11
119.14273049497
 21
231.7468236467651
 31
0.0
  0
LINE
  5
136
330
39
100
AcDbEntity
  8
0
  6
Continuous
 62
     7
100
AcDbLine
 10
117.0427304949701
 20
230.7468236467651
 30
0.0
 11
119.14273049497
 21
230.7468236467651
 31
0.0
  0
LINE
  5
137
330
39
100
AcDbEntity
  8
0
  6
Continuous
 62
     7
100
AcDbLine
 10
117.0427304949701
 20
228.6468236467651
 30
0.0
 11
117.0427304949701
 21
230.7468236467651
 31
0.0
  0
LINE
  5
138
330
39
100
AcDbEntity
  8
0
  6
Continuous
 62
     7
100
AcDbLine
 10
116.0427304949701
 20
228.6468236467651
 30
0.0
 11
117.0427304949701
 21
228.6468236467651
 31
0.0
  0
LINE
  5
139
330
39
100
AcDbEntity
  8
0
  6
Continuous
 62
     7
100
AcDbLine
 10
116.0427304949701
 20
230.7468236467651
 30
0.0
 11
116.0427304949701
 21
228.6468236467651
 31
0.0
  0
LINE
  5
13A
330
39
100
AcDbEntity
  8
0
  6
Continuous
 62
     7
100
AcDbLine
 10
113.9427304949702
 20
230.7468236467651
 30
0.0
 11
116.0427304949701
 21
230.7468236467651
 31
0.0
  0
LINE
  5
13B
330
39
100
AcDbEntity
  8
0
  6
Continuous
 62
     7
100
AcDbLine
 10
113.9427304949702
 20
231.7468236467651
 30
0.0
 11
113.9427304949702
 21
230.7468236467651
 31
0.0
  0
LINE
  5
13C
330
39
100
AcDbEntity
  8
0
  6
Continuous
 62
     7
100
AcDbLine
 10
116.0427304949701
 20
231.7468236467651
 30
0.0
 11
113.9427304949702
 21
231.7468236467651
 31
0.0
  0
LINE
  5
13D
330
39
100
AcDbEntity
  8
0
  6
Continuous
 62
     7
100
AcDbLine
 10
116.0427304949701
 20
233.8468236467652
 30
0.0
 11
116.0427304949701
 21
231.7468236467651
 31
0.0
  0
LINE
  5
13E
330
39
100
AcDbEntity
  8
0
  6
Continuous
 62
     7
100
AcDbLine
 10
117.0427304949701
 20
233.8468236467652
 30
0.0
 11
116.0427304949701
 21
233.8468236467652
 31
0.0
  0
LINE
  5
13F
330
39
100
AcDbEntity
  8
0
  6
Continuous
 62
     7
100
AcDbLine
 10
117.0427304949701
 20
231.7468236467651
 30
0.0
 11
117.0427304949701
 21
233.8468236467652
 31
0.0
  0
LINE
  5
140
330
39
100
AcDbEntity
  8
0
  6
Continuous
 62
     7
100
AcDbLine
 10
119.14273049497
 20
231.7468236467651
 30
0.0
 11
117.0427304949701
 21
231.7468236467651
 31
0.0
  0
LINE
  5
141
330
39
100
AcDbEntity
  8
1
  6
Continuous
 62
     7
100
AcDbLine
 10
118.1690972290191
 20
511.9901747135582
 30
0.0
 11
118.1690972290191
 21
512.9528561085822
 31
0.0
  0
LINE
  5
142
330
39
100
AcDbEntity
  8
1
  6
Continuous
 62
     7
100
AcDbLine
 10
115.0927304949703
 20
511.0401747135591
 30
0.0
 11
115.0927304949703
 21
512.0028561085831
 31
0.0
  0
LINE
  5
143
330
39
100
AcDbEntity
  8
1
  6
Continuous
 62
     7
100
AcDbLine
 10
115.0927304949703
 20
511.0401747135591
 30
0.0
 11
114.5427304949701
 21
510.7226320655052
 31
0.0
  0
LINE
  5
144
330
39
100
AcDbEntity
  8
1
  6
Continuous
 62
     7
100
AcDbLine
 10
118.1690972290191
 20
511.9901747135582
 30
0.0
 11
115.0927304949703
 21
511.0401747135591
 31
0.0
  0
LINE
  5
145
330
39
100
AcDbEntity
  8
1
  6
Continuous
 62
     7
100
AcDbLine
 10
118.5427304949701
 20
511.6726320655041
 30
0.0
 11
118.1690972290191
 21
511.9901747135582
 31
0.0
  0
LINE
  5
146
330
39
100
AcDbEntity
  8
1
  6
Continuous
 62
     7
100
AcDbLine
 10
118.1690972290191
 20
511.3550894174512
 30
0.0
 11
118.5427304949701
 21
511.6726320655041
 31
0.0
  0
LINE
  5
147
330
39
100
AcDbEntity
  8
1
  6
Continuous
 62
     7
100
AcDbLine
 10
118.5427304949701
 20
511.6726320655041
 30
0.0
 11
114.5427304949701
 21
510.7226320655052
 31
0.0
  0
LINE
  5
148
330
39
100
AcDbEntity
  8
1
  6
Continuous
 62
     7
100
AcDbLine
 10
114.5427304949701
 20
510.7226320655052
 30
0.0
 11
115.0927304949703
 21
510.4050894174502
 31
0.0
  0
LINE
  5
149
330
39
100
AcDbEntity
  8
1
  6
Continuous
 62
     7
100
AcDbLine
 10
118.1690972290191
 20
511.3550894174512
 30
0.0
 11
115.0927304949703
 21
510.4050894174502
 31
0.0
  0
LINE
  5
14A
330
39
100
AcDbEntity
  8
1
  6
Continuous
 62
     7
100
AcDbLine
 10
118.5427304949701
 20
502.1726320655041
 30
0.0
 11
118.1690972290191
 21
502.4901747135582
 31
0.0
  0
LINE
  5
14B
330
39
100
AcDbEntity
  8
1
  6
Continuous
 62
     7
100
AcDbLine
 10
118.1690972290191
 20
501.8550894174512
 30
0.0
 11
118.5427304949701
 21
502.1726320655041
 31
0.0
  0
LINE
  5
14C
330
39
100
AcDbEntity
  8
1
  6
Continuous
 62
     7
100
AcDbLine
 10
118.5427304949701
 20
504.0726320655042
 30
0.0
 11
118.1690972290191
 21
504.3901747135581
 31
0.0
  0
LINE
  5
14D
330
39
100
AcDbEntity
  8
1
  6
Continuous
 62
     7
100
AcDbLine
 10
118.1690972290191
 20
503.7550894174492
 30
0.0
 11
118.5427304949701
 21
504.0726320655042
 31
0.0
  0
LINE
  5
14E
330
39
100
AcDbEntity
  8
1
  6
Continuous
 62
     7
100
AcDbLine
 10
118.5427304949701
 20
505.9726320655052
 30
0.0
 11
118.1690972290191
 21
506.2901747135591
 31
0.0
  0
LINE
  5
14F
330
39
100
AcDbEntity
  8
1
  6
Continuous
 62
     7
100
AcDbLine
 10
118.1690972290191
 20
505.6550894174502
 30
0.0
 11
118.5427304949701
 21
505.9726320655052
 31
0.0
  0
LINE
  5
150
330
39
100
AcDbEntity
  8
1
  6
Continuous
 62
     7
100
AcDbLine
 10
118.1690972290191
 20
507.5550894174501
 30
0.0
 11
118.5427304949701
 21
507.8726320655042
 31
0.0
  0
LINE
  5
151
330
39
100
AcDbEntity
  8
1
  6
Continuous
 62
     7
100
AcDbLine
 10
118.5427304949701
 20
507.8726320655042
 30
0.0
 11
118.1690972290191
 21
508.190174713558
 31
0.0
  0
LINE
  5
152
330
39
100
AcDbEntity
  8
1
  6
Continuous
 62
     7
100
AcDbLine
 10
118.1690972290191
 20
509.4550894174502
 30
0.0
 11
118.5427304949701
 21
509.772632065504
 31
0.0
  0
LINE
  5
153
330
39
100
AcDbEntity
  8
1
  6
Continuous
 62
     7
100
AcDbLine
 10
118.5427304949701
 20
509.772632065504
 30
0.0
 11
118.1690972290191
 21
510.090174713559
 31
0.0
  0
LINE
  5
154
330
39
100
AcDbEntity
  8
1
  6
Continuous
 62
     7
100
AcDbLine
 10
115.0927304949703
 20
512.6379414046921
 30
0.0
 11
114.5427304949701
 21
512.3203987566371
 31
0.0
  0
LINE
  5
155
330
39
100
AcDbEntity
  8
1
  6
Continuous
 62
     7
100
AcDbLine
 10
114.5427304949701
 20
512.3203987566371
 30
0.0
 11
115.0927304949703
 21
512.0028561085831
 31
0.0
  0
LINE
  5
156
330
39
100
AcDbEntity
  8
1
  6
Continuous
 62
     7
100
AcDbLine
 10
115.0927304949703
 20
509.1401747135581
 30
0.0
 11
114.5427304949701
 21
508.8226320655042
 31
0.0
  0
LINE
  5
157
330
39
100
AcDbEntity
  8
1
  6
Continuous
 62
     7
100
AcDbLine
 10
114.5427304949701
 20
508.8226320655042
 30
0.0
 11
115.0927304949703
 21
508.5050894174492
 31
0.0
  0
LINE
  5
158
330
39
100
AcDbEntity
  8
1
  6
Continuous
 62
     7
100
AcDbLine
 10
115.0927304949703
 20
507.2401747135582
 30
0.0
 11
114.5427304949701
 21
506.9226320655041
 31
0.0
  0
LINE
  5
159
330
39
100
AcDbEntity
  8
1
  6
Continuous
 62
     7
100
AcDbLine
 10
114.5427304949701
 20
506.9226320655041
 30
0.0
 11
115.0927304949703
 21
506.6050894174512
 31
0.0
  0
LINE
  5
15A
330
39
100
AcDbEntity
  8
1
  6
Continuous
 62
     7
100
AcDbLine
 10
114.5427304949701
 20
505.022632065504
 30
0.0
 11
115.0927304949703
 21
504.7050894174502
 31
0.0
  0
LINE
  5
15B
330
39
100
AcDbEntity
  8
1
  6
Continuous
 62
     7
100
AcDbLine
 10
115.0927304949703
 20
505.340174713559
 30
0.0
 11
114.5427304949701
 21
505.022632065504
 31
0.0
  0
LINE
  5
15C
330
39
100
AcDbEntity
  8
1
  6
Continuous
 62
     7
100
AcDbLine
 10
114.5427304949701
 20
503.1226320655042
 30
0.0
 11
115.0927304949703
 21
502.8050894174501
 31
0.0
  0
LINE
  5
15D
330
39
100
AcDbEntity
  8
1
  6
Continuous
 62
     7
100
AcDbLine
 10
115.0927304949703
 20
503.440174713558
 30
0.0
 11
114.5427304949701
 21
503.1226320655042
 31
0.0
  0
LINE
  5
15E
330
39
100
AcDbEntity
  8
1
  6
Continuous
 62
     7
100
AcDbLine
 10
114.5427304949701
 20
501.2226320655052
 30
0.0
 11
115.0927304949703
 21
500.9050894174502
 31
0.0
  0
LINE
  5
15F
330
39
100
AcDbEntity
  8
1
  6
Continuous
 62
     7
100
AcDbLine
 10
115.0927304949703
 20
501.5401747135591
 30
0.0
 11
114.5427304949701
 21
501.2226320655052
 31
0.0
  0
LINE
  5
160
330
39
100
AcDbEntity
  8
1
  6
Continuous
 62
     7
100
AcDbLine
 10
118.1690972290191
 20
500.590174713559
 30
0.0
 11
118.1690972290191
 21
501.8550894174512
 31
0.0
  0
LINE
  5
161
330
39
100
AcDbEntity
  8
1
  6
Continuous
 62
     7
100
AcDbLine
 10
118.1690972290191
 20
502.4901747135582
 30
0.0
 11
118.1690972290191
 21
503.7550894174492
 31
0.0
  0
LINE
  5
162
330
39
100
AcDbEntity
  8
1
  6
Continuous
 62
     7
100
AcDbLine
 10
118.1690972290191
 20
504.3901747135581
 30
0.0
 11
118.1690972290191
 21
505.6550894174502
 31
0.0
  0
LINE
  5
163
330
39
100
AcDbEntity
  8
1
  6
Continuous
 62
     7
100
AcDbLine
 10
118.1690972290191
 20
506.2901747135591
 30
0.0
 11
118.1690972290191
 21
507.5550894174501
 31
0.0
  0
LINE
  5
164
330
39
100
AcDbEntity
  8
1
  6
Continuous
 62
     7
100
AcDbLine
 10
118.1690972290191
 20
508.190174713558
 30
0.0
 11
118.1690972290191
 21
509.4550894174502
 31
0.0
  0
LINE
  5
165
330
39
100
AcDbEntity
  8
1
  6
Continuous
 62
     7
100
AcDbLine
 10
118.1690972290191
 20
510.090174713559
 30
0.0
 11
118.1690972290191
 21
511.3550894174512
 31
0.0
  0
LINE
  5
166
330
39
100
AcDbEntity
  8
1
  6
Continuous
 62
     7
100
AcDbLine
 10
115.0927304949703
 20
501.5401747135591
 30
0.0
 11
115.0927304949703
 21
502.8050894174501
 31
0.0
  0
LINE
  5
167
330
39
100
AcDbEntity
  8
1
  6
Continuous
 62
     7
100
AcDbLine
 10
115.0927304949703
 20
503.440174713558
 30
0.0
 11
115.0927304949703
 21
504.7050894174502
 31
0.0
  0
LINE
  5
168
330
39
100
AcDbEntity
  8
1
  6
Continuous
 62
     7
100
AcDbLine
 10
115.0927304949703
 20
505.340174713559
 30
0.0
 11
115.0927304949703
 21
506.6050894174512
 31
0.0
  0
LINE
  5
169
330
39
100
AcDbEntity
  8
1
  6
Continuous
 62
     7
100
AcDbLine
 10
115.0927304949703
 20
507.2401747135582
 30
0.0
 11
115.0927304949703
 21
508.5050894174492
 31
0.0
  0
LINE
  5
16A
330
39
100
AcDbEntity
  8
1
  6
Continuous
 62
     7
100
AcDbLine
 10
115.0927304949703
 20
509.1401747135581
 30
0.0
 11
115.0927304949703
 21
510.4050894174502
 31
0.0
  0
LINE
  5
16B
330
39
100
AcDbEntity
  8
1
  6
Continuous
 62
     7
100
AcDbLine
 10
118.1690972290191
 20
500.590174713559
 30
0.0
 11
117.7316531119593
 21
500.4550894174502
 31
0.0
  0
LINE
  5
16C
330
39
100
AcDbEntity
  8
1
  6
Continuous
 62
     7
100
AcDbLine
 10
118.1690972290191
 20
501.8550894174512
 30
0.0
 11
115.0927304949703
 21
500.9050894174502
 31
0.0
  0
LINE
  5
16D
330
39
100
AcDbEntity
  8
1
  6
Continuous
 62
     7
100
AcDbLine
 10
118.5427304949701
 20
502.1726320655041
 30
0.0
 11
114.5427304949701
 21
501.2226320655052
 31
0.0
  0
LINE
  5
16E
330
39
100
AcDbEntity
  8
1
  6
Continuous
 62
     7
100
AcDbLine
 10
118.1690972290191
 20
502.4901747135582
 30
0.0
 11
115.0927304949703
 21
501.5401747135591
 31
0.0
  0
LINE
  5
16F
330
39
100
AcDbEntity
  8
1
  6
Continuous
 62
     7
100
AcDbLine
 10
118.1690972290191
 20
503.7550894174492
 30
0.0
 11
115.0927304949703
 21
502.8050894174501
 31
0.0
  0
LINE
  5
170
330
39
100
AcDbEntity
  8
1
  6
Continuous
 62
     7
100
AcDbLine
 10
118.5427304949701
 20
504.0726320655042
 30
0.0
 11
114.5427304949701
 21
503.1226320655042
 31
0.0
  0
LINE
  5
171
330
39
100
AcDbEntity
  8
1
  6
Continuous
 62
     7
100
AcDbLine
 10
118.1690972290191
 20
504.3901747135581
 30
0.0
 11
115.0927304949703
 21
503.440174713558
 31
0.0
  0
LINE
  5
172
330
39
100
AcDbEntity
  8
1
  6
Continuous
 62
     7
100
AcDbLine
 10
118.1690972290191
 20
505.6550894174502
 30
0.0
 11
115.0927304949703
 21
504.7050894174502
 31
0.0
  0
LINE
  5
173
330
39
100
AcDbEntity
  8
1
  6
Continuous
 62
     7
100
AcDbLine
 10
118.5427304949701
 20
505.9726320655052
 30
0.0
 11
114.5427304949701
 21
505.022632065504
 31
0.0
  0
LINE
  5
174
330
39
100
AcDbEntity
  8
1
  6
Continuous
 62
     7
100
AcDbLine
 10
118.1690972290191
 20
506.2901747135591
 30
0.0
 11
115.0927304949703
 21
505.340174713559
 31
0.0
  0
LINE
  5
175
330
39
100
AcDbEntity
  8
1
  6
Continuous
 62
     7
100
AcDbLine
 10
118.1690972290191
 20
507.5550894174501
 30
0.0
 11
115.0927304949703
 21
506.6050894174512
 31
0.0
  0
LINE
  5
176
330
39
100
AcDbEntity
  8
1
  6
Continuous
 62
     7
100
AcDbLine
 10
118.5427304949701
 20
507.8726320655042
 30
0.0
 11
114.5427304949701
 21
506.9226320655041
 31
0.0
  0
LINE
  5
177
330
39
100
AcDbEntity
  8
1
  6
Continuous
 62
     7
100
AcDbLine
 10
118.1690972290191
 20
508.190174713558
 30
0.0
 11
115.0927304949703
 21
507.2401747135582
 31
0.0
  0
LINE
  5
178
330
39
100
AcDbEntity
  8
1
  6
Continuous
 62
     7
100
AcDbLine
 10
118.1690972290191
 20
509.4550894174502
 30
0.0
 11
115.0927304949703
 21
508.5050894174492
 31
0.0
  0
LINE
  5
179
330
39
100
AcDbEntity
  8
1
  6
Continuous
 62
     7
100
AcDbLine
 10
118.5427304949701
 20
509.772632065504
 30
0.0
 11
114.5427304949701
 21
508.8226320655042
 31
0.0
  0
LINE
  5
17A
330
39
100
AcDbEntity
  8
1
  6
Continuous
 62
     7
100
AcDbLine
 10
118.1690972290191
 20
510.090174713559
 30
0.0
 11
115.0927304949703
 21
509.1401747135581
 31
0.0
  0
LINE
  5
17B
330
39
100
AcDbEntity
  8
1
  6
Continuous
 62
     7
100
AcDbLine
 10
118.5427304949701
 20
513.2703987566381
 30
0.0
 11
118.1336681212413
 21
513.034226485049
 31
0.0
  0
LINE
  5
17C
330
39
100
AcDbEntity
  8
1
  6
Continuous
 62
     7
100
AcDbLine
 10
118.5427304949701
 20
513.2703987566381
 30
0.0
 11
117.8765207630629
 21
513.655035124689
 31
0.0
  0
LINE
  5
17D
330
39
100
AcDbEntity
  8
1
  6
Continuous
 62
     7
100
AcDbLine
 10
118.1336681212413
 20
513.034226485049
 30
0.0
 11
118.1690972290191
 21
512.9528561085822
 31
0.0
  0
LINE
  5
17E
330
39
100
AcDbEntity
  8
1
  6
Continuous
 62
     7
100
AcDbLine
 10
115.2399098699441
 20
514.220398756637
 30
0.0
 11
115.5462323529403
 21
514.0435433886221
 31
0.0
  0
LINE
  5
17F
330
39
100
AcDbEntity
  8
1
  6
Continuous
 62
     7
100
AcDbLine
 10
115.2399098699441
 20
514.220398756637
 30
0.0
 11
115.967739995039
 21
514.6406116752842
 31
0.0
  0
LINE
  5
180
330
39
100
AcDbEntity
  8
1
  6
Continuous
 62
     7
100
AcDbLine
 10
115.5462323529403
 20
514.0435433886221
 30
0.0
 11
115.0927304949703
 21
512.9486930525482
 31
0.0
  0
LINE
  5
181
330
39
100
AcDbEntity
  8
1
  6
Continuous
 62
     7
100
AcDbLine
 10
115.0927304949703
 20
512.9486930525482
 30
0.0
 11
115.0927304949703
 21
512.6379414046921
 31
0.0
  0
LINE
  5
182
330
39
100
AcDbEntity
  8
1
  6
Continuous
 62
     7
100
AcDbLine
 10
116.5427304949701
 20
515.4550894174502
 30
0.0
 11
117.8765207630629
 21
513.655035124689
 31
0.0
  0
LINE
  5
183
330
39
100
AcDbEntity
  8
1
  6
Continuous
 62
     7
100
AcDbLine
 10
118.1336681212413
 20
513.034226485049
 30
0.0
 11
115.0927304949703
 21
512.0028561085831
 31
0.0
  0
LINE
  5
184
330
39
100
AcDbEntity
  8
1
  6
Continuous
 62
     7
100
AcDbLine
 10
118.5427304949701
 20
513.2703987566381
 30
0.0
 11
114.5427304949701
 21
512.3203987566371
 31
0.0
  0
LINE
  5
185
330
39
100
AcDbEntity
  8
1
  6
Continuous
 62
     7
100
AcDbLine
 10
117.8765207630629
 20
513.655035124689
 30
0.0
 11
115.0927304949703
 21
512.6379414046921
 31
0.0
  0
LINE
  5
186
330
39
100
AcDbEntity
  8
1
  6
Continuous
 62
     7
100
AcDbLine
 10
116.5427304949701
 20
515.4550894174502
 30
0.0
 11
115.967739995039
 21
514.6406116752842
 31
0.0
  0
LINE
  5
187
330
39
100
AcDbEntity
  8
1
  6
Continuous
 62
     7
100
AcDbLine
 10
117.125733117063
 20
514.668281777828
 30
0.0
 11
115.2399098699441
 21
514.220398756637
 31
0.0
  0
LINE
  5
188
330
39
100
AcDbEntity
  8
0
  6
Continuous
 62
     7
100
AcDbLine
 10
115.5462323529403
 20
514.0435433886221
 30
0.0
 11
117.125733117063
 21
514.668281777828
 31
0.0
  0
LINE
  5
189
330
39
100
AcDbEntity
  8
0
  6
Continuous
 62
     7
100
AcDbLine
 10
117.125733117063
 20
514.668281777828
 30
0.0
 11
115.967739995039
 21
514.6406116752842
 31
0.0
  0
LINE
  5
18A
330
39
100
AcDbEntity
  8
1
  6
Continuous
 62
     7
100
AcDbLine
 10
115.0927304949703
 20
500.4550894174502
 30
0.0
 11
115.0927304949703
 21
500.9050894174502
 31
0.0
  0
LINE
  5
18B
330
39
100
AcDbEntity
  8
1
  6
Continuous
 62
     7
100
AcDbLine
 10
118.328043942716
 20
500.4550894174502
 30
0.0
 11
118.1690972290191
 21
500.590174713559
 31
0.0
  0
LINE
  5
18C
330
39
100
AcDbEntity
  8
1
  6
Continuous
 62
     7
100
AcDbLine
 10
116.5427304949701
 20
485.4550894174502
 30
0.0
 11
118.762752684331
 21
485.4550894174502
 31
0.0
  0
LINE
  5
18D
330
39
100
AcDbEntity
  8
1
  6
Continuous
 62
     7
100
AcDbLine
 10
111.8427304949703
 20
485.4550894174502
 30
0.0
 11
116.5427304949701
 21
485.4550894174502
 31
0.0
  0
ARC
  5
18E
330
39
100
AcDbEntity
  8
0
  6
Continuous
 62
     7
100
AcDbCircle
 10
116.5427304949701
 20
488.6230894174491
 30
0.0
 40
5.668000000010068
100
AcDbArc
 50
-90.0
 51
-74.65422267827505
  0
ARC
  5
18F
330
39
100
AcDbEntity
  8
0
  6
Continuous
 62
     7
100
AcDbCircle
 10
116.5427304949701
 20
488.6230894174491
 30
0.0
 40
5.667999999999205
100
AcDbArc
 50
-146.018353416036
 51
-90.0
  0
CIRCLE
  5
190
330
39
100
AcDbEntity
  8
1
  6
Continuous
 62
     7
100
AcDbCircle
 10
116.5427304949701
 20
231.2468236467651
 30
0.0
 40
4.699999999999804
  0
ENDBLK
  5
3B
330
39
100
AcDbEntity
  8
0
100
AcDbBlockEnd
  0
BLOCK
  5
3F
330
3C
100
AcDbEntity
  8
0
100
AcDbBlockBegin
  2
72-50-2X
 70
     0
 71
     0
 10
111.8427304949703
 20
226.546823646765
 30
0.0
  3
72-50-2X
  1

  0
INSERT
  5
3D
330
3C
100
AcDbEntity
  8
0
100
AcDbBlockReference
  2
72-50-C2K__1
 10
438.1963052546869
 20
711.9461124150871
 30
0.0
  0
INSERT
  5
3E
330
3C
100
AcDbEntity
  8
0
100
AcDbBlockReference
  2
72-50-C2K__2
 10
258.854481630164
 20
591.592297076859
 30
0.0
  0
LINE
  5
191
330
3C
100
AcDbEntity
  8
1
  6
PHANTOM
 62
     4
100
AcDbLine
 10
139.0427304949701
 20
513.1870894174501
 30
0.0
 11
139.0427304949701
 21
496.21108941745
 31
0.0
  0
ENDBLK
  5
40
330
3C
100
AcDbEntity
  8
0
100
AcDbBlockEnd
  0
BLOCK
  5
42
330
41
100
AcDbEntity
  8
0
100
AcDbBlockBegin
  2
14-39C-M11K
 70
     0
 71
     0
 10
-246.23266817734
 20
216.3893482289202
 30
0.0
  3
14-39C-M11K
  1

  0
LINE
  5
192
330
41
100
AcDbEntity
  8
1
  6
Continuous
 62
     7
100
AcDbLine
 10
138.2927304949701
 20
311.9018139060552
 30
0.0
 11
138.2927304949701
 21
310.9439238388741
 31
0.0
  0
LINE
  5
193
330
41
100
AcDbEntity
  8
1
  6
Continuous
 62
     7
100
AcDbLine
 10
139.7927304949701
 20
311.9018139060552
 30
0.0
 11
139.7927304949701
 21
310.9439238388741
 31
0.0
  0
LINE
  5
194
330
41
100
AcDbEntity
  8
1
  6
Continuous
 62
     7
100
AcDbLine
 10
139.7927304949701
 20
310.9439238388741
 30
0.0
 11
139.7927304949701
 21
310.2433072266681
 31
0.0
  0
LINE
  5
195
330
41
100
AcDbEntity
  8
1
  6
Continuous
 62
     7
100
AcDbLine
 10
138.2927304949701
 20
310.9439238388741
 30
0.0
 11
138.2927304949701
 21
310.2433072266681
 31
0.0
  0
ARC
  5
196
330
41
100
AcDbEntity
  8
1
  6
Continuous
 62
     7
100
AcDbCircle
 10
139.0427304949701
 20
305.5962607978811
 30
0.0
 40
6.19999999999979
100
AcDbArc
 50
0.0
 51
83.05204300630342
  0
ARC
  5
197
330
41
100
AcDbEntity
  8
1
  6
Continuous
 62
     7
100
AcDbCircle
 10
139.0427304949701
 20
305.5962607978811
 30
0.0
 40
6.200000000000068
100
AcDbArc
 50
96.94795699369659
 51
180.0
  0
ARC
  5
198
330
41
100
AcDbEntity
  8
1
  6
Continuous
 62
     7
100
AcDbCircle
 10
139.0427304949701
 20
305.5962607978811
 30
0.0
 40
6.350000000000357
100
AcDbArc
 50
96.78305146338342
 51
180.0
  0
ARC
  5
199
330
41
100
AcDbEntity
  8
1
  6
Continuous
 62
     7
100
AcDbCircle
 10
139.0427304949701
 20
305.5962607978811
 30
0.0
 40
3.80000000000021
100
AcDbArc
 50
0.0
 51
180.0
  0
ARC
  5
19A
330
41
100
AcDbEntity
  8
1
  6
Continuous
 62
     7
100
AcDbCircle
 10
139.0427304949701
 20
305.5962607978811
 30
0.0
 40
6.350000000000357
100
AcDbArc
 50
83.21694853661658
 51
96.78305146338342
  0
ARC
  5
19B
330
41
100
AcDbEntity
  8
1
  6
Continuous
 62
     7
100
AcDbCircle
 10
139.0427304949701
 20
305.5962607978811
 30
0.0
 40
6.349999999999909
100
AcDbArc
 50
0.0
 51
83.21694853661658
  0
ARC
  5
19C
330
41
100
AcDbEntity
  8
1
  6
Continuous
 62
     7
100
AcDbCircle
 10
139.0427304949701
 20
305.5962607978811
 30
0.0
 40
5.400000000000272
100
AcDbArc
 50
97.98355614555501
 51
180.0
  0
ARC
  5
19D
330
41
100
AcDbEntity
  8
1
  6
Continuous
 62
     7
100
AcDbCircle
 10
139.0427304949701
 20
305.5962607978811
 30
0.0
 40
5.400000000001
100
AcDbArc
 50
0.0
 51
82.016443854445
  0
ARC
  5
19E
330
41
100
AcDbEntity
  8
1
  6
Continuous
 62
     7
100
AcDbCircle
 10
139.0427304949701
 20
305.5962607978811
 30
0.0
 40
4.70717967697241
100
AcDbArc
 50
80.83192841090165
 51
99.16807158909836
  0
ARC
  5
19F
330
41
100
AcDbEntity
  8
1
  6
Continuous
 62
     7
100
AcDbCircle
 10
139.0427304949701
 20
305.5962607978811
 30
0.0
 40
5.400000000000554
100
AcDbArc
 50
-68.26153920847146
 51
0.0
  0
ARC
  5
1A0
330
41
100
AcDbEntity
  8
1
  6
Continuous
 62
     7
100
AcDbCircle
 10
139.0427304949701
 20
305.5962607978811
 30
0.0
 40
6.349999999999869
100
AcDbArc
 50
-71.64156292466092
 51
0.0
  0
ARC
  5
1A1
330
41
100
AcDbEntity
  8
1
  6
Continuous
 62
     7
100
AcDbCircle
 10
139.0427304949701
 20
305.5962607978811
 30
0.0
 40
3.799999999999943
100
AcDbArc
 50
-58.24313614068621
 51
0.0
  0
ARC
  5
1A2
330
41
100
AcDbEntity
  8
1
  6
Continuous
 62
     7
100
AcDbCircle
 10
139.0427304949701
 20
305.5962607978811
 30
0.0
 40
6.199999999999939
100
AcDbArc
 50
-71.18093663100299
 51
0.0
  0
ARC
  5
1A3
330
41
100
AcDbEntity
  8
1
  6
Continuous
 62
     7
100
AcDbCircle
 10
139.0427304949701
 20
305.5962607978811
 30
0.0
 40
3.80000000000021
100
AcDbArc
 50
180.0
 51
-121.7568638593021
  0
ARC
  5
1A4
330
41
100
AcDbEntity
  8
1
  6
Continuous
 62
     7
100
AcDbCircle
 10
139.0427304949701
 20
305.5962607978811
 30
0.0
 40
5.400000000000091
100
AcDbArc
 50
180.0
 51
-111.7384607915232
  0
ARC
  5
1A5
330
41
100
AcDbEntity
  8
1
  6
Continuous
 62
     7
100
AcDbCircle
 10
139.0427304949701
 20
305.5962607978811
 30
0.0
 40
6.19999999999979
100
AcDbArc
 50
180.0
 51
-108.8190633689891
  0
ARC
  5
1A6
330
41
100
AcDbEntity
  8
1
  6
Continuous
 62
     7
100
AcDbCircle
 10
139.0427304949701
 20
305.5962607978811
 30
0.0
 40
6.349999999999
100
AcDbArc
 50
180.0
 51
-108.3584370753313
  0
ENDBLK
  5
43
330
41
100
AcDbEntity
  8
0
100
AcDbBlockEnd
  0
BLOCK
  5
45
330
44
100
AcDbEntity
  8
0
100
AcDbBlockBegin
  2
81-93AK
 70
     0
 71
     0
 10
-717.2559727704629
 20
1546.982899940016
 30
0.0
  3
81-93AK
  1

  0
LINE
  5
1A7
330
44
100
AcDbEntity
  8
0
  6
Continuous
 62
     7
100
AcDbLine
 10
232.140728849359
 20
307.5962607978811
 30
0.0
 11
232.2196156312782
 21
307.396260797881
 31
0.0
  0
LINE
  5
1A8
330
44
100
AcDbEntity
  8
0
  6
Continuous
 62
     7
100
AcDbLine
 10
231.140728849359
 20
301.4618098925062
 30
0.0
 11
231.3407288493593
 21
301.374955135713
 31
0.0
  0
LINE
  5
1A9
330
44
100
AcDbEntity
  8
0
  6
Continuous
 62
     7
100
AcDbLine
 10
229.7907288493591
 20
299.0462607978811
 30
0.0
 11
231.3407288493593
 21
299.0462607978811
 31
0.0
  0
LINE
  5
1AA
330
44
100
AcDbEntity
  8
0
  6
Continuous
 62
     7
100
AcDbLine
 10
236.0850679453022
 20
303.7962607978811
 30
0.0
 11
239.0253944200492
 21
303.7962607978811
 31
0.0
  0
LINE
  5
1AB
330
44
100
AcDbEntity
  8
0
  6
Continuous
 62
     7
100
AcDbLine
 10
231.140728849359
 20
301.4618098925062
 30
0.0
 11
231.9102166603241
 21
302.1806735053801
 31
0.0
  0
LINE
  5
1AC
330
44
100
AcDbEntity
  8
0
  6
Continuous
 62
     7
100
AcDbLine
 10
231.140728849359
 20
299.0462607978811
 30
0.0
 11
231.140728849359
 21
301.4618098925062
 31
0.0
  0
LINE
  5
1AD
330
44
100
AcDbEntity
  8
0
  6
Continuous
 62
     7
100
AcDbLine
 10
228.403181265134
 20
303.830907640036
 30
0.0
 11
232.2196156312782
 21
307.396260797881
 31
0.0
  0
LINE
  5
1AE
330
44
100
AcDbEntity
  8
0
  6
Continuous
 62
     7
100
AcDbLine
 10
229.6340769730853
 20
303.2017937638382
 30
0.0
 11
230.3167377235952
 21
302.4710583125882
 31
0.0
  0
LINE
  5
1AF
330
44
100
AcDbEntity
  8
0
  6
Continuous
 62
     7
100
AcDbLine
 10
231.3407288493593
 20
300.4170161185182
 30
0.0
 11
232.466965967599
 21
301.4691586895051
 31
0.0
  0
LINE
  5
1B0
330
44
100
AcDbEntity
  8
0
  6
Continuous
 62
     7
100
AcDbLine
 10
229.6340769730853
 20
303.2017937638382
 30
0.0
 11
232.7323797137512
 21
306.0962607978811
 31
0.0
  0
LINE
  5
1B1
330
44
100
AcDbEntity
  8
0
  6
Continuous
 62
     7
100
AcDbLine
 10
230.3167377235952
 20
302.4710583125882
 30
0.0
 11
233.126813623345
 21
305.0962607978811
 31
0.0
  0
LINE
  5
1B2
330
44
100
AcDbEntity
  8
0
  6
Continuous
 62
     7
100
AcDbLine
 10
228.3407288493593
 20
304.0462607978811
 30
0.0
 11
228.3407288493593
 21
305.0041998150762
 31
0.0
  0
LINE
  5
1B3
330
44
100
AcDbEntity
  8
0
  6
Continuous
 62
     7
100
AcDbLine
 10
228.3407288493593
 20
305.0041998150762
 30
0.0
 11
231.8646251126431
 21
308.2962607978811
 31
0.0
  0
LINE
  5
1B4
330
44
100
AcDbEntity
  8
0
  6
Continuous
 62
     7
100
AcDbLine
 10
231.3407288493593
 20
301.374955135713
 30
0.0
 11
231.9891034422433
 21
301.9806735053801
 31
0.0
  0
LINE
  5
1B5
330
44
100
AcDbEntity
  8
0
  6
Continuous
 62
     7
100
AcDbLine
 10
228.3407288493593
 20
304.0462607978811
 30
0.0
 11
232.140728849359
 21
307.5962607978811
 31
0.0
  0
LINE
  5
1B6
330
44
100
AcDbEntity
  8
0
  6
Continuous
 62
     7
100
AcDbLine
 10
228.3407288493593
 20
304.0462607978811
 30
0.0
 11
229.7907288493591
 21
299.0462607978811
 31
0.0
  0
LINE
  5
1B7
330
44
100
AcDbEntity
  8
0
  6
Continuous
 62
     7
100
AcDbLine
 10
229.7907288493591
 20
298.3462607978811
 30
0.0
 11
229.7907288493591
 21
299.0462607978811
 31
0.0
  0
LINE
  5
1B8
330
44
100
AcDbEntity
  8
0
  6
Continuous
 62
     7
100
AcDbLine
 10
231.3407288493593
 20
298.0462607978811
 30
0.0
 11
230.0907288493593
 21
298.0462607978811
 31
0.0
  0
LINE
  5
1B9
330
44
100
AcDbEntity
  8
0
  6
Continuous
 62
     7
100
AcDbLine
 10
231.3407288493593
 20
301.374955135713
 30
0.0
 11
231.3407288493593
 21
298.0462607978811
 31
0.0
  0
LINE
  5
1BA
330
44
100
AcDbEntity
  8
0
  6
Continuous
 62
     7
100
AcDbLine
 10
236.0850679453022
 20
303.5962607978811
 30
0.0
 11
239.0253944200492
 21
303.5962607978811
 31
0.0
  0
LINE
  5
1BB
330
44
100
AcDbEntity
  8
0
  6
Continuous
 62
     7
100
AcDbLine
 10
232.140728849359
 20
307.5962607978811
 30
0.0
 11
239.0253944200492
 21
307.5962607978811
 31
0.0
  0
LINE
  5
1BC
330
44
100
AcDbEntity
  8
0
  6
Continuous
 62
     7
100
AcDbLine
 10
239.0253944200492
 20
308.2962607978811
 30
0.0
 11
231.8646251126431
 21
308.2962607978811
 31
0.0
  0
LINE
  5
1BD
330
44
100
AcDbEntity
  8
0
  6
Continuous
 62
     7
100
AcDbLine
 10
239.0253944200492
 20
307.396260797881
 30
0.0
 11
232.2196156312782
 21
307.396260797881
 31
0.0
  0
LINE
  5
1BE
330
44
100
AcDbEntity
  8
0
  6
Continuous
 62
     7
100
AcDbLine
 10
239.0253944200492
 20
306.0962607978811
 30
0.0
 11
232.7323797137512
 21
306.0962607978811
 31
0.0
  0
LINE
  5
1BF
330
44
100
AcDbEntity
  8
0
  6
Continuous
 62
     7
100
AcDbLine
 10
239.0253944200492
 20
305.0962607978811
 30
0.0
 11
233.126813623345
 21
305.0962607978811
 31
0.0
  0
LINE
  5
1C0
330
44
100
AcDbEntity
  8
0
  6
Continuous
 62
     7
100
AcDbLine
 10
239.0253944200492
 20
302.896260797881
 30
0.0
 11
236.0850679453022
 21
302.896260797881
 31
0.0
  0
LINE
  5
1C1
330
44
100
AcDbEntity
  8
0
  6
Continuous
 62
     7
100
AcDbLine
 10
140.8427304949703
 20
398.3250893987702
 30
0.0
 11
140.8427304949703
 21
409.00508939877
 31
0.0
  0
LINE
  5
1C2
330
44
100
AcDbEntity
  8
0
  6
Continuous
 62
     7
100
AcDbLine
 10
137.2427304949699
 20
398.3250893987702
 30
0.0
 11
137.2427304949699
 21
409.00508939877
 31
0.0
  0
LINE
  5
1C3
330
44
100
AcDbEntity
  8
0
  6
Continuous
 62
     7
100
AcDbLine
 10
141.7427304949699
 20
402.716740263161
 30
0.0
 11
141.0427304949701
 21
402.716740263161
 31
0.0
  0
LINE
  5
1C4
330
44
100
AcDbEntity
  8
0
  6
Continuous
 62
     7
100
AcDbLine
 10
141.7427304949699
 20
399.618437522495
 30
0.0
 11
141.0427304949701
 21
399.618437522495
 31
0.0
  0
LINE
  5
1C5
330
44
100
AcDbEntity
  8
0
  6
Continuous
 62
     7
100
AcDbLine
 10
136.3427304949703
 20
402.716740263161
 30
0.0
 11
137.0427304949701
 21
402.716740263161
 31
0.0
  0
LINE
  5
1C6
330
44
100
AcDbEntity
  8
0
  6
Continuous
 62
     7
100
AcDbLine
 10
136.3427304949703
 20
399.618437522495
 30
0.0
 11
137.0427304949701
 21
399.618437522495
 31
0.0
  0
LINE
  5
1C7
330
44
100
AcDbEntity
  8
0
  6
Continuous
 62
     7
100
AcDbLine
 10
138.5427304949701
 20
402.1111283680912
 30
0.0
 11
137.0427304949701
 21
402.1111283680912
 31
0.0
  0
LINE
  5
1C8
330
44
100
AcDbEntity
  8
0
  6
Continuous
 62
     7
100
AcDbLine
 10
141.0427304949701
 20
402.1111283680912
 30
0.0
 11
139.5427304949701
 21
402.1111283680912
 31
0.0
  0
LINE
  5
1C9
330
44
100
AcDbEntity
  8
0
  6
Continuous
 62
     7
100
AcDbLine
 10
139.5427304949701
 20
401.848985662054
 30
0.0
 11
138.5427304949701
 21
401.848985662054
 31
0.0
  0
LINE
  5
1CA
330
44
100
AcDbEntity
  8
0
  6
Continuous
 62
     7
100
AcDbLine
 10
139.5427304949701
 20
398.3250893987702
 30
0.0
 11
139.5427304949701
 21
409.00508939877
 31
0.0
  0
LINE
  5
1CB
330
44
100
AcDbEntity
  8
0
  6
Continuous
 62
     7
100
AcDbLine
 10
138.5427304949701
 20
398.3250893987702
 30
0.0
 11
138.5427304949701
 21
409.00508939877
 31
0.0
  0
LINE
  5
1CC
330
44
100
AcDbEntity
  8
0
  6
Continuous
 62
     7
100
AcDbLine
 10
139.8427304949703
 20
307.5962607978811
 30
0.0
 11
140.8427304949703
 21
307.5962607978811
 31
0.0
  0
LINE
  5
1CD
330
44
100
AcDbEntity
  8
0
  6
Continuous
 62
     7
100
AcDbLine
 10
137.2427304949699
 20
307.5962607978811
 30
0.0
 11
138.2427304949699
 21
307.5962607978811
 31
0.0
  0
LINE
  5
1CE
330
44
100
AcDbEntity
  8
0
  6
Continuous
 62
     7
100
AcDbLine
 10
138.5427304949701
 20
305.0041998150762
 30
0.0
 11
139.5427304949701
 21
305.0041998150762
 31
0.0
  0
LINE
  5
1CF
330
44
100
AcDbEntity
  8
0
  6
Continuous
 62
     7
100
AcDbLine
 10
138.5427304949701
 20
308.2962607978811
 30
0.0
 11
139.5427304949701
 21
308.2962607978811
 31
0.0
  0
LINE
  5
1D0
330
44
100
AcDbEntity
  8
0
  6
Continuous
 62
     7
100
AcDbLine
 10
139.5427304949701
 20
308.2962607978811
 30
0.0
 11
139.5427304949701
 21
304.0462607978811
 31
0.0
  0
LINE
  5
1D1
330
44
100
AcDbEntity
  8
0
  6
Continuous
 62
     7
100
AcDbLine
 10
137.0427304949701
 20
307.396260797881
 30
0.0
 11
137.2427304949699
 21
307.5962607978811
 31
0.0
  0
LINE
  5
1D2
330
44
100
AcDbEntity
  8
0
  6
Continuous
 62
     7
100
AcDbLine
 10
141.042730494971
 20
307.396260797881
 30
0.0
 11
140.8427304949703
 21
307.5962607978811
 31
0.0
  0
LINE
  5
1D3
330
44
100
AcDbEntity
  8
0
  6
Continuous
 62
     7
100
AcDbLine
 10
138.0427304949701
 20
298.0462607978811
 30
0.0
 11
137.0427304949701
 21
299.0462607978811
 31
0.0
  0
LINE
  5
1D4
330
44
100
AcDbEntity
  8
0
  6
Continuous
 62
     7
100
AcDbLine
 10
140.042730494971
 20
298.0462607978811
 30
0.0
 11
141.042730494971
 21
299.0462607978811
 31
0.0
  0
LINE
  5
1D5
330
44
100
AcDbEntity
  8
0
  6
Continuous
 62
     7
100
AcDbLine
 10
137.0427304949701
 20
304.0462607978811
 30
0.0
 11
141.042730494971
 21
304.0462607978811
 31
0.0
  0
LINE
  5
1D6
330
44
100
AcDbEntity
  8
0
  6
Continuous
 62
     7
100
AcDbLine
 10
137.0427304949701
 20
299.0462607978811
 30
0.0
 11
141.042730494971
 21
299.0462607978811
 31
0.0
  0
LINE
  5
1D7
330
44
100
AcDbEntity
  8
0
  6
Continuous
 62
     7
100
AcDbLine
 10
141.042730494971
 20
299.0462607978811
 30
0.0
 11
141.042730494971
 21
307.396260797881
 31
0.0
  0
LINE
  5
1D8
330
44
100
AcDbEntity
  8
0
  6
Continuous
 62
     7
100
AcDbLine
 10
137.0427304949701
 20
299.0462607978811
 30
0.0
 11
137.0427304949701
 21
307.396260797881
 31
0.0
  0
LINE
  5
1D9
330
44
100
AcDbEntity
  8
0
  6
Continuous
 62
     7
100
AcDbLine
 10
140.042730494971
 20
298.0462607978811
 30
0.0
 11
138.0427304949701
 21
298.0462607978811
 31
0.0
  0
LINE
  5
1DA
330
44
100
AcDbEntity
  8
0
  6
Continuous
 62
     7
100
AcDbLine
 10
137.2427304949699
 20
398.3250893987702
 30
0.0
 11
137.0427304949701
 21
398.52508939877
 31
0.0
  0
LINE
  5
1DB
330
44
100
AcDbEntity
  8
0
  6
Continuous
 62
     7
100
AcDbLine
 10
141.0427304949701
 20
398.52508939877
 30
0.0
 11
140.8427304949703
 21
398.3250893987702
 31
0.0
  0
LINE
  5
1DC
330
44
100
AcDbEntity
  8
0
  6
Continuous
 62
     7
100
AcDbLine
 10
140.8427304949703
 20
398.3250893987702
 30
0.0
 11
137.2427304949699
 21
398.3250893987702
 31
0.0
  0
LINE
  5
1DD
330
44
100
AcDbEntity
  8
0
  6
Continuous
 62
     7
100
AcDbLine
 10
141.0427304949701
 20
398.52508939877
 30
0.0
 11
141.0427304949701
 21
409.00508939877
 31
0.0
  0
LINE
  5
1DE
330
44
100
AcDbEntity
  8
0
  6
Continuous
 62
     7
100
AcDbLine
 10
137.0427304949701
 20
398.52508939877
 30
0.0
 11
137.0427304949701
 21
409.00508939877
 31
0.0
  0
LINE
  5
1DF
330
44
100
AcDbEntity
  8
0
  6
Continuous
 62
     7
100
AcDbLine
 10
138.5427304949701
 20
308.2962607978811
 30
0.0
 11
138.5427304949701
 21
304.0462607978811
 31
0.0
  0
LINE
  5
1E0
330
44
100
AcDbEntity
  8
0
  6
Continuous
 62
     7
100
AcDbLine
 10
141.7427304949699
 20
409.00508939877
 30
0.0
 11
141.7427304949699
 21
399.618437522495
 31
0.0
  0
LINE
  5
1E1
330
44
100
AcDbEntity
  8
0
  6
Continuous
 62
     7
100
AcDbLine
 10
136.3427304949703
 20
409.00508939877
 30
0.0
 11
136.3427304949703
 21
399.618437522495
 31
0.0
  0
ARC
  5
1E2
330
44
100
AcDbEntity
  8
0
  6
Continuous
 62
     7
100
AcDbCircle
 10
230.0907288493593
 20
298.3462607978811
 30
0.0
 40
0.3000000000001823
100
AcDbArc
 50
-179.9999969295363
 51
-90.0000015351613
  0
ARC
  5
1E3
330
44
100
AcDbEntity
  8
1
  6
Continuous
 62
     7
100
AcDbCircle
 10
236.0850679453013
 20
297.5962607978811
 30
0.0
 40
6.199999999999989
100
AcDbArc
 50
89.9999999999916
 51
133.05191499349
  0
ARC
  5
1E4
330
44
100
AcDbEntity
  8
1
  6
Continuous
 62
     7
100
AcDbCircle
 10
236.0850679453013
 20
297.5962607978811
 30
0.0
 40
5.299999999999898
100
AcDbArc
 50
89.99999999999017
 51
133.0519149934922
  0
ARC
  5
1E5
330
44
100
AcDbEntity
  8
0
  6
Continuous
 62
     7
100
AcDbCircle
 10
138.2427304949699
 20
307.896260797881
 30
0.0
 40
0.2999999999998978
100
AcDbArc
 50
-90.000001535335
 51
0.0
  0
ARC
  5
1E6
330
44
100
AcDbEntity
  8
0
  6
Continuous
 62
     7
100
AcDbCircle
 10
139.8427304949703
 20
307.896260797881
 30
0.0
 40
0.3000000000002108
100
AcDbArc
 50
-179.9999969295363
 51
-90.00000153516672
  0
ARC
  5
1E7
330
44
100
AcDbEntity
  8
1
  6
Continuous
 62
     7
100
AcDbCircle
 10
236.0850679453013
 20
297.5962607978811
 30
0.0
 40
6.0
100
AcDbArc
 50
89.99999999999132
 51
133.0519149934831
  0
ENDBLK
  5
46
330
44
100
AcDbEntity
  8
0
100
AcDbBlockEnd
  0
BLOCK
  5
48
330
47
100
AcDbEntity
  8
0
100
AcDbBlockBegin
  2
35-326-M11K
 70
     0
 71
     0
 10
345.1253944200491
 20
136.6968236467651
 30
0.0
  3
35-326-M11K
  1

  0
LINE
  5
1E8
330
47
100
AcDbEntity
  8
1
  6
Continuous
 62
     7
100
AcDbLine
 10
149.983884842871
 20
500.4550894174502
 30
0.0
 11
149.983884842871
 21
508.94308941745
 31
0.0
  0
LINE
  5
1E9
330
47
100
AcDbEntity
  8
1
  6
Continuous
 62
     2
100
AcDbLine
 10
130.1908848428709
 20
500.4550894174502
 30
0.0
 11
130.1908848428709
 21
508.94308941745
 31
0.0
  0
LINE
  5
1EA
330
47
100
AcDbEntity
  8
1
  6
Continuous
 62
     2
100
AcDbLine
 10
130.1908848428709
 20
508.94308941745
 30
0.0
 11
130.1908848428709
 21
510.10508941745
 31
0.0
  0
LINE
  5
1EB
330
47
100
AcDbEntity
  8
1
  6
Continuous
 62
     2
100
AcDbLine
 10
148.8218848428703
 20
508.94308941745
 30
0.0
 11
148.8218848428703
 21
500.4550894174502
 31
0.0
  0
LINE
  5
1EC
330
47
100
AcDbEntity
  8
1
  6
Continuous
 62
     7
100
AcDbLine
 10
130.1908848428709
 20
508.94308941745
 30
0.0
 11
148.8218848428703
 21
508.94308941745
 31
0.0
  0
LINE
  5
1ED
330
47
100
AcDbEntity
  8
1
  6
Continuous
 62
     7
100
AcDbLine
 10
139.506384842872
 20
510.10508941745
 30
0.0
 11
148.8218848428703
 21
510.10508941745
 31
0.0
  0
LINE
  5
1EE
330
47
100
AcDbEntity
  8
1
  6
Continuous
 62
     7
100
AcDbLine
 10
148.8218848428703
 20
510.10508941745
 30
0.0
 11
149.983884842871
 21
508.94308941745
 31
0.0
  0
LINE
  5
1EF
330
47
100
AcDbEntity
  8
1
  6
Continuous
 62
     7
100
AcDbLine
 10
148.8218848428703
 20
508.94308941745
 30
0.0
 11
149.983884842871
 21
508.94308941745
 31
0.0
  0
LINE
  5
1F0
330
47
100
AcDbEntity
  8
1
  6
Continuous
 62
     7
100
AcDbLine
 10
129.0288848428711
 20
508.94308941745
 30
0.0
 11
130.1908848428709
 21
508.94308941745
 31
0.0
  0
LINE
  5
1F1
330
47
100
AcDbEntity
  8
1
  6
Continuous
 62
     7
100
AcDbLine
 10
130.1908848428709
 20
510.10508941745
 30
0.0
 11
139.506384842872
 21
510.10508941745
 31
0.0
  0
LINE
  5
1F2
330
47
100
AcDbEntity
  8
1
  6
Continuous
 62
     7
100
AcDbLine
 10
129.0288848428711
 20
508.94308941745
 30
0.0
 11
130.1908848428709
 21
510.10508941745
 31
0.0
  0
LINE
  5
1F3
330
47
100
AcDbEntity
  8
1
  6
Continuous
 62
     2
100
AcDbLine
 10
148.8218848428703
 20
510.10508941745
 30
0.0
 11
148.8218848428703
 21
508.94308941745
 31
0.0
  0
LINE
  5
1F4
330
47
100
AcDbEntity
  8
1
  6
Continuous
 62
     7
100
AcDbLine
 10
129.0288848428711
 20
508.94308941745
 30
0.0
 11
129.0288848428711
 21
500.4550894174502
 31
0.0
  0
LINE
  5
1F5
330
47
100
AcDbEntity
  8
1
  6
Continuous
 62
     7
100
AcDbLine
 10
316.1253944200491
 20
138.219323646766
 30
0.0
 11
316.1253944200491
 21
136.6968236467651
 31
0.0
  0
LINE
  5
1F6
330
47
100
AcDbEntity
  8
1
  6
Continuous
 62
     7
100
AcDbLine
 10
316.1253944200491
 20
136.6968236467651
 30
0.0
 11
293.6253944200491
 21
136.6968236467651
 31
0.0
  0
LINE
  5
1F7
330
47
100
AcDbEntity
  8
1
  6
Continuous
 62
     7
100
AcDbLine
 10
293.1253944200491
 20
160.6968236467651
 30
0.0
 11
293.6253944200491
 21
160.6968236467651
 31
0.0
  0
LINE
  5
1F8
330
47
100
AcDbEntity
  8
1
  6
Continuous
 62
     7
100
AcDbLine
 10
316.1253944200491
 20
160.6968236467651
 30
0.0
 11
316.1253944200491
 21
159.1743236467662
 31
0.0
  0
LINE
  5
1F9
102
{ACAD_REACTORS
330
22B
330
22B
102
}
330
47
100
AcDbEntity
  8
1
  6
Continuous
 62
     7
100
AcDbLine
 10
316.1253944200491
 20
138.219323646766
 30
0.0
 11
318.1380374584439
 21
138.219323646766
 31
0.0
  0
LINE
  5
1FA
102
{ACAD_REACTORS
330
22B
330
22B
102
}
330
47
100
AcDbEntity
  8
1
  6
Continuous
 62
     7
100
AcDbLine
 10
318.1380374584439
 20
138.219323646766
 30
0.0
 11
318.1380374584439
 21
139.381323646767
 31
0.0
  0
LINE
  5
1FB
330
47
100
AcDbEntity
  8
1
  6
Continuous
 62
     7
100
AcDbLine
 10
338.9633944200493
 20
159.1743236467662
 30
0.0
 11
330.3753944200491
 21
159.1743236467662
 31
0.0
  0
LINE
  5
1FC
102
{ACAD_REACTORS
330
22C
330
22C
102
}
330
47
100
AcDbEntity
  8
1
  6
Continuous
 62
     7
100
AcDbLine
 10
318.1380374584439
 20
159.1743236467662
 30
0.0
 11
318.1380374584439
 21
158.0123236467662
 31
0.0
  0
LINE
  5
1FD
330
47
100
AcDbEntity
  8
1
  6
Continuous
 62
     2
100
AcDbLine
 10
340.1253944200491
 20
139.381323646767
 30
0.0
 11
338.9633944200493
 21
139.381323646767
 31
0.0
  0
LINE
  5
1FE
102
{ACAD_REACTORS
330
22B
330
22B
102
}
330
47
100
AcDbEntity
  8
1
  6
Continuous
 62
     2
100
AcDbLine
 10
318.1380374584439
 20
139.381323646767
 30
0.0
 11
316.1253944200491
 21
138.219323646766
 31
0.0
  0
LINE
  5
1FF
102
{ACAD_REACTORS
330
22C
330
22C
102
}
330
47
100
AcDbEntity
  8
1
  6
Continuous
 62
     2
100
AcDbLine
 10
318.1380374584439
 20
158.0123236467662
 30
0.0
 11
316.1253944200491
 21
159.1743236467662
 31
0.0
  0
LINE
  5
200
330
47
100
AcDbEntity
  8
1
  6
Continuous
 62
     2
100
AcDbLine
 10
318.1380374584439
 20
158.0123236467662
 30
0.0
 11
321.3753944200491
 21
158.0123236467662
 31
0.0
  0
LINE
  5
201
330
47
100
AcDbEntity
  8
1
  6
Continuous
 62
     7
100
AcDbLine
 10
338.9633944200493
 20
159.1743236467662
 30
0.0
 11
340.1253944200491
 21
158.0123236467662
 31
0.0
  0
LINE
  5
202
330
47
100
AcDbEntity
  8
1
  6
Continuous
 62
     7
100
AcDbLine
 10
340.1253944200491
 20
158.0123236467662
 30
0.0
 11
340.1253944200491
 21
148.6968236467651
 31
0.0
  0
LINE
  5
203
102
{ACAD_REACTORS
330
22C
330
22C
102
}
330
47
100
AcDbEntity
  8
1
  6
Continuous
 62
     7
100
AcDbLine
 10
318.1380374584439
 20
159.1743236467662
 30
0.0
 11
316.1253944200491
 21
159.1743236467662
 31
0.0
  0
LINE
  5
204
330
47
100
AcDbEntity
  8
1
  6
Continuous
 62
     7
100
AcDbLine
 10
338.9633944200493
 20
159.1743236467662
 30
0.0
 11
338.9633944200493
 21
158.0123236467662
 31
0.0
  0
LINE
  5
205
330
47
100
AcDbEntity
  8
1
  6
Continuous
 62
     7
100
AcDbLine
 10
338.9633944200493
 20
139.381323646767
 30
0.0
 11
338.9633944200493
 21
138.219323646766
 31
0.0
  0
LINE
  5
206
330
47
100
AcDbEntity
  8
1
  6
Continuous
 62
     7
100
AcDbLine
 10
318.1380374584439
 20
138.219323646766
 30
0.0
 11
321.3753944200491
 21
138.219323646766
 31
0.0
  0
LINE
  5
207
330
47
100
AcDbEntity
  8
1
  6
Continuous
 62
     7
100
AcDbLine
 10
340.1253944200491
 20
139.381323646767
 30
0.0
 11
338.9633944200493
 21
138.219323646766
 31
0.0
  0
LINE
  5
208
330
47
100
AcDbEntity
  8
1
  6
Continuous
 62
     7
100
AcDbLine
 10
340.1253944200491
 20
148.6968236467651
 30
0.0
 11
340.1253944200491
 21
139.381323646767
 31
0.0
  0
LINE
  5
209
330
47
100
AcDbEntity
  8
1
  6
Continuous
 62
     7
100
AcDbLine
 10
316.1253944200491
 20
159.1743236467662
 30
0.0
 11
316.1253944200491
 21
157.6968236467651
 31
0.0
  0
LINE
  5
20A
330
47
100
AcDbEntity
  8
1
  6
Continuous
 62
     7
100
AcDbLine
 10
318.1380374584439
 20
139.381323646767
 30
0.0
 11
318.1380374584439
 21
158.0123236467662
 31
0.0
  0
LINE
  5
20B
330
47
100
AcDbEntity
  8
1
  6
Continuous
 62
     7
100
AcDbLine
 10
338.9633944200493
 20
158.0123236467662
 30
0.0
 11
338.9633944200493
 21
139.381323646767
 31
0.0
  0
LINE
  5
20C
330
47
100
AcDbEntity
  8
1
  6
Continuous
 62
     2
100
AcDbLine
 10
338.9633944200493
 20
139.381323646767
 30
0.0
 11
330.3753944200491
 21
139.381323646767
 31
0.0
  0
LINE
  5
20D
330
47
100
AcDbEntity
  8
1
  6
Continuous
 62
     2
100
AcDbLine
 10
338.9633944200493
 20
158.0123236467662
 30
0.0
 11
340.1253944200491
 21
158.0123236467662
 31
0.0
  0
LINE
  5
20E
330
47
100
AcDbEntity
  8
1
  6
Continuous
 62
     7
100
AcDbLine
 10
316.1253944200491
 20
157.6968236467651
 30
0.0
 11
316.1253944200491
 21
139.6968236467651
 31
0.0
  0
LINE
  5
20F
330
47
100
AcDbEntity
  8
1
  6
Continuous
 62
     7
100
AcDbLine
 10
293.6253944200491
 20
160.6968236467651
 30
0.0
 11
293.6253944200491
 21
157.6968236467651
 31
0.0
  0
LINE
  5
210
330
47
100
AcDbEntity
  8
1
  6
Continuous
 62
     7
100
AcDbLine
 10
293.6253944200491
 20
160.6968236467651
 30
0.0
 11
316.1253944200491
 21
160.6968236467651
 31
0.0
  0
LINE
  5
211
330
47
100
AcDbEntity
  8
1
  6
Continuous
 62
     7
100
AcDbLine
 10
293.6253944200491
 20
157.6968236467651
 30
0.0
 11
316.1253944200491
 21
157.6968236467651
 31
0.0
  0
LINE
  5
212
330
47
100
AcDbEntity
  8
1
  6
Continuous
 62
     7
100
AcDbLine
 10
293.6253944200491
 20
136.6968236467651
 30
0.0
 11
293.6253944200491
 21
139.6968236467651
 31
0.0
  0
LINE
  5
213
330
47
100
AcDbEntity
  8
1
  6
Continuous
 62
     7
100
AcDbLine
 10
293.6253944200491
 20
136.6968236467651
 30
0.0
 11
293.1253944200491
 21
136.6968236467651
 31
0.0
  0
LINE
  5
214
330
47
100
AcDbEntity
  8
1
  6
Continuous
 62
     7
100
AcDbLine
 10
293.1253944200491
 20
136.6968236467651
 30
0.0
 11
293.1253944200491
 21
140.557413348715
 31
0.0
  0
LINE
  5
215
330
47
100
AcDbEntity
  8
1
  6
Continuous
 62
     7
100
AcDbLine
 10
316.1253944200491
 20
139.6968236467651
 30
0.0
 11
316.1253944200491
 21
138.219323646766
 31
0.0
  0
LINE
  5
216
330
47
100
AcDbEntity
  8
1
  6
Continuous
 62
     7
100
AcDbLine
 10
293.6253944200491
 20
157.6968236467651
 30
0.0
 11
293.1253944200491
 21
156.8362339448152
 31
0.0
  0
LINE
  5
217
330
47
100
AcDbEntity
  8
1
  6
Continuous
 62
     7
100
AcDbLine
 10
293.1253944200491
 20
156.8362339448152
 30
0.0
 11
293.1253944200491
 21
160.6968236467651
 31
0.0
  0
LINE
  5
218
330
47
100
AcDbEntity
  8
1
  6
Continuous
 62
     7
100
AcDbLine
 10
293.6253944200491
 20
139.6968236467651
 30
0.0
 11
293.1253944200491
 21
140.557413348715
 31
0.0
  0
LINE
  5
219
330
47
100
AcDbEntity
  8
1
  6
Continuous
 62
     7
100
AcDbLine
 10
293.6253944200491
 20
139.6968236467651
 30
0.0
 11
316.1253944200491
 21
139.6968236467651
 31
0.0
  0
LINE
  5
21A
330
47
100
AcDbEntity
  8
1
  6
Continuous
 62
     7
100
AcDbLine
 10
293.1253944200491
 20
140.557413348715
 30
0.0
 11
293.1253944200491
 21
156.8362339448152
 31
0.0
  0
LINE
  5
21B
330
47
100
AcDbEntity
  8
1
  6
Continuous
 62
     2
100
AcDbLine
 10
330.3753944200491
 20
158.0123236467662
 30
0.0
 11
338.9633944200493
 21
158.0123236467662
 31
0.0
  0
LINE
  5
21C
330
47
100
AcDbEntity
  8
1
  6
Continuous
 62
     7
100
AcDbLine
 10
321.3753944200491
 20
159.1743236467662
 30
0.0
 11
318.1380374584439
 21
159.1743236467662
 31
0.0
  0
LINE
  5
21D
330
47
100
AcDbEntity
  8
1
  6
Continuous
 62
     2
100
AcDbLine
 10
321.3753944200491
 20
139.381323646767
 30
0.0
 11
318.1380374584439
 21
139.381323646767
 31
0.0
  0
LINE
  5
21E
330
47
100
AcDbEntity
  8
1
  6
Continuous
 62
     7
100
AcDbLine
 10
330.3753944200491
 20
138.219323646766
 30
0.0
 11
338.9633944200493
 21
138.219323646766
 31
0.0
  0
LINE
  5
21F
330
47
100
AcDbEntity
  8
1
  6
Continuous
 62
     7
100
AcDbLine
 10
127.0427304949701
 20
157.6968236467651
 30
0.0
 11
127.0427304949701
 21
139.6968236467651
 31
0.0
  0
LINE
  5
220
330
47
100
AcDbEntity
  8
1
  6
Continuous
 62
     7
100
AcDbLine
 10
130.0427304949701
 20
136.6968236467651
 30
0.0
 11
148.0427304949701
 21
136.6968236467651
 31
0.0
  0
LINE
  5
221
330
47
100
AcDbEntity
  8
1
  6
Continuous
 62
     7
100
AcDbLine
 10
151.0427304949701
 20
139.6968236467651
 30
0.0
 11
151.0427304949701
 21
157.6968236467651
 31
0.0
  0
LINE
  5
222
330
47
100
AcDbEntity
  8
1
  6
Continuous
 62
     7
100
AcDbLine
 10
130.0427304949701
 20
160.6968236467651
 30
0.0
 11
148.0427304949701
 21
160.6968236467651
 31
0.0
  0
ARC
  5
223
330
47
100
AcDbEntity
  8
1
  6
Continuous
 62
     7
100
AcDbCircle
 10
139.0427304949701
 20
148.6968236467651
 30
0.0
 40
15.0
100
AcDbArc
 50
126.869897645844
 51
143.130102354156
  0
ARC
  5
224
330
47
100
AcDbEntity
  8
1
  6
Continuous
 62
     7
100
AcDbCircle
 10
139.0427304949701
 20
148.6968236467651
 30
0.0
 40
15.0
100
AcDbArc
 50
-143.130102354156
 51
-126.869897645844
  0
ARC
  5
225
330
47
100
AcDbEntity
  8
1
  6
Continuous
 62
     7
100
AcDbCircle
 10
139.0427304949701
 20
148.6968236467651
 30
0.0
 40
15.0
100
AcDbArc
 50
-53.13010235415598
 51
-36.86989764584402
  0
ARC
  5
226
330
47
100
AcDbEntity
  8
1
  6
Continuous
 62
     7
100
AcDbCircle
 10
139.0427304949701
 20
148.6968236467651
 30
0.0
 40
15.0
100
AcDbArc
 50
36.86989764584402
 51
53.13010235415598
  0
ARC
  5
227
330
47
100
AcDbEntity
  8
1
  6
Continuous
 62
     7
100
AcDbCircle
 10
139.0427304949701
 20
148.6968236467651
 30
0.0
 40
14.50000000000014
100
AcDbArc
 50
34.14842434494788
 51
55.85157565505315
  0
ARC
  5
228
330
47
100
AcDbEntity
  8
1
  6
Continuous
 62
     7
100
AcDbCircle
 10
139.0427304949701
 20
148.6968236467651
 30
0.0
 40
14.49999999999997
100
AcDbArc
 50
124.1484243449469
 51
145.8515756550521
  0
ARC
  5
229
330
47
100
AcDbEntity
  8
1
  6
Continuous
 62
     7
100
AcDbCircle
 10
139.0427304949701
 20
148.6968236467651
 30
0.0
 40
14.50000000000014
100
AcDbArc
 50
-145.8515756550521
 51
-124.1484243449469
  0
ARC
  5
22A
330
47
100
AcDbEntity
  8
1
  6
Continuous
 62
     7
100
AcDbCircle
 10
139.0427304949701
 20
148.6968236467651
 30
0.0
 40
14.49999999999997
100
AcDbArc
 50
-55.85157565505315
 51
-34.14842434494788
  0
HATCH
  5
22B
330
47
100
AcDbEntity
  8
1
  6
Continuous
 62
     2
100
AcDbHatch
 10
0.0
 20
0.0
 30
0.0
210
0.0
220
0.0
230
1.0
  2
_USER
 70
     0
 71
     1
 91
        1
 92
        1
 93
        3
 72
     1
 10
316.1253944200491
 20
138.219323646766
 11
318.1380374584439
 21
138.219323646766
 72
     1
 10
318.1380374584439
 20
138.219323646766
 11
318.1380374584439
 21
139.381323646767
 72
     1
 10
318.1380374584439
 20
139.381323646767
 11
316.1253944200491
 21
138.219323646766
 97
        3
330
1F9
330
1FA
330
1FE
 75
     1
 76
     0
 52
45.0
 41
2.0
 77
     0
 78
     1
 53
45.0
 43
0.0
 44
0.0
 45
-1.414213562373095
 46
1.414213562373095
 79
     0
 98
        1
 10
0.0
 20
0.0
  0
HATCH
  5
22C
330
47
100
AcDbEntity
  8
1
  6
Continuous
 62
     2
100
AcDbHatch
 10
0.0
 20
0.0
 30
0.0
210
0.0
220
0.0
230
1.0
  2
_USER
 70
     0
 71
     1
 91
        1
 92
        1
 93
        3
 72
     1
 10
316.1253944200491
 20
159.1743236467662
 11
318.1380374584439
 21
159.1743236467662
 72
     1
 10
318.1380374584439
 20
159.1743236467662
 11
318.1380374584439
 21
158.0123236467662
 72
     1
 10
318.1380374584439
 20
158.0123236467662
 11
316.1253944200491
 21
159.1743236467662
 97
        3
330
1FC
330
203
330
1FF
 75
     1
 76
     0
 52
45.0
 41
2.0
 77
     0
 78
     1
 53
45.0
 43
0.0
 44
0.0
 45
-1.414213562373095
 46
1.414213562373095
 79
     0
 98
        1
 10
0.0
 20
0.0
  0
ENDBLK
  5
49
330
47
100
AcDbEntity
  8
0
100
AcDbBlockEnd
  0
BLOCK
  5
4B
330
4A
100
AcDbEntity
  8
0
100
AcDbBlockBegin
  2
32-26-M1K
 70
     0
 71
     0
 10
733.0201713895742
 20
68.30650818973004
 30
0.0
  3
32-26-M1K
  1

  0
LINE
  5
22D
330
4A
100
AcDbEntity
  8
1
  6
Continuous
 62
     7
100
AcDbLine
 10
293.265151398404
 20
175.1968236467651
 30
0.0
 11
315.9856374416929
 21
175.1968236467651
 31
0.0
  0
LINE
  5
22E
330
4A
100
AcDbEntity
  8
1
  6
Continuous
 62
     7
100
AcDbLine
 10
293.265151398404
 20
161.6968236467651
 30
0.0
 11
315.9856374416929
 21
161.6968236467651
 31
0.0
  0
LINE
  5
22F
330
4A
100
AcDbEntity
  8
1
  6
Continuous
 62
     7
100
AcDbLine
 10
151.0427304949701
 20
169.1968236467651
 30
0.0
 11
151.0427304949701
 21
162.3846458202731
 31
0.0
  0
LINE
  5
230
330
4A
100
AcDbEntity
  8
1
  6
Continuous
 62
     7
100
AcDbLine
 10
127.4324874733263
 20
161.6968236467651
 30
0.0
 11
150.6529735166139
 21
161.6968236467651
 31
0.0
  0
LINE
  5
231
330
4A
100
AcDbEntity
  8
1
  6
Continuous
 62
     7
100
AcDbLine
 10
150.6529735166139
 20
175.1968236467651
 30
0.0
 11
127.4324874733263
 21
175.1968236467651
 31
0.0
  0
LINE
  5
232
330
4A
100
AcDbEntity
  8
1
  6
Continuous
 62
     7
100
AcDbLine
 10
127.0427304949701
 20
174.5090014732562
 30
0.0
 11
127.0427304949701
 21
162.3846458202731
 31
0.0
  0
LINE
  5
233
330
4A
100
AcDbEntity
  8
1
  6
Continuous
 62
     7
100
AcDbLine
 10
151.0427304949701
 20
174.5090014732562
 30
0.0
 11
151.0427304949701
 21
169.1968236467651
 31
0.0
  0
ARC
  5
234
330
4A
100
AcDbEntity
  8
1
  6
Continuous
 62
     7
100
AcDbCircle
 10
304.428372445924
 20
168.4465492832742
 30
0.0
 40
5.987636470587779
100
AcDbArc
 50
128.1048327060183
 51
179.9973746118083
  0
ARC
  5
235
330
4A
100
AcDbEntity
  8
1
  6
Continuous
 62
     7
100
AcDbCircle
 10
304.6763283382709
 20
168.6471313646891
 30
0.0
 40
6.238808798172676
100
AcDbArc
 50
-178.1601039686543
 51
-90.46777054110557
  0
ARC
  5
236
330
4A
100
AcDbEntity
  8
1
  6
Continuous
 62
     7
100
AcDbCircle
 10
304.6409407310009
 20
168.1754979868872
 30
0.0
 40
6.332098487497178
100
AcDbArc
 50
90.14067041142293
 51
128.10483270602
  0
ARC
  5
237
330
4A
100
AcDbEntity
  8
1
  6
Continuous
 62
     7
100
AcDbCircle
 10
304.3753944200491
 20
168.4468236467651
 30
0.0
 40
13.00000000000052
100
AcDbArc
 50
148.719332847953
 51
-148.719332847953
  0
ARC
  5
238
330
4A
100
AcDbEntity
  8
1
  6
Continuous
 62
     7
100
AcDbCircle
 10
304.8753944200491
 20
168.4468236467651
 30
0.0
 40
12.99999999999945
100
AcDbArc
 50
-31.28066715204993
 51
31.28066715204993
  0
ARC
  5
239
330
4A
100
AcDbEntity
  8
1
  6
Continuous
 62
     7
100
AcDbCircle
 10
304.6098481090969
 20
168.1754979868872
 30
0.0
 40
6.332098487497639
100
AcDbArc
 50
51.89516729397997
 51
89.85932958857399
  0
ARC
  5
23A
330
4A
100
AcDbEntity
  8
1
  6
Continuous
 62
     7
100
AcDbCircle
 10
304.5744605018269
 20
168.6471313646891
 30
0.0
 40
6.238808798172743
100
AcDbArc
 50
-89.53222945889078
 51
-1.83989603134555
  0
ARC
  5
23B
330
4A
100
AcDbEntity
  8
1
  6
Continuous
 62
     7
100
AcDbCircle
 10
304.8224163941743
 20
168.4465492832742
 30
0.0
 40
5.987636470587782
100
AcDbArc
 50
0.00262538819167
 51
51.89516729398555
  0
ARC
  5
23C
330
4A
100
AcDbEntity
  8
1
  6
Continuous
 62
     7
100
AcDbCircle
 10
139.5427304949701
 20
168.4468236467651
 30
0.0
 40
13.00000000000002
100
AcDbArc
 50
27.79577249602812
 51
31.28066715205
  0
ARC
  5
23D
330
4A
100
AcDbEntity
  8
1
  6
Continuous
 62
     7
100
AcDbCircle
 10
138.5427304949701
 20
168.4468236467651
 30
0.0
 40
13.00000000000043
100
AcDbArc
 50
-152.2042275039684
 51
-148.71933284795
  0
ARC
  5
23E
330
4A
100
AcDbEntity
  8
1
  6
Continuous
 62
     7
100
AcDbCircle
 10
138.5427304949701
 20
168.4468236467651
 30
0.0
 40
12.99999999999941
100
AcDbArc
 50
148.71933284795
 51
152.2042275039719
  0
ARC
  5
23F
330
4A
100
AcDbEntity
  8
1
  6
Continuous
 62
     7
100
AcDbCircle
 10
139.5427304949701
 20
168.4468236467651
 30
0.0
 40
12.99999999999942
100
AcDbArc
 50
-31.28066715205
 51
-27.79577249603155
  0
SPLINE
  5
240
330
4A
100
AcDbEntity
  8
1
  6
Continuous
 62
     7
100
AcDbSpline
210
0.0
220
0.0
230
1.0
 70
    11
 71
     3
 72
    79
 73
    75
 74
    73
 42
0.0000000001
 43
0.0000000001
 44
0.00000001
 40
0.0
 40
0.0
 40
0.0
 40
0.0
 40
0.4678744007734951
 40
0.935753192786981
 40
1.407485930134732
 40
1.879230484327847
 40
2.358135841895071
 40
2.837057239130392
 40
3.325463367260745
 40
3.813886402175946
 40
4.312879557179369
 40
4.811888069867528
 40
5.321250498094663
 40
5.830625406987861
 40
6.34893665871056
 40
6.86725694934215
 40
7.392112797560892
 40
7.916974076741714
 40
8.445280254639636
 40
8.973588240303894
 40
9.501896225968078
 40
10.03020240386517
 40
10.55506368304693
 40
11.07991953126645
 40
11.59823982189727
 40
12.11655107361886
 40
12.62592598251211
 40
13.1352884107391
 40
13.63429692342692
 40
14.13329007843078
 40
14.62171311334635
 40
15.11011924147701
 40
15.58904063871173
 40
16.06794599627901
 40
16.53969055047248
 40
17.01142328782049
 40
17.47930207983382
 40
17.9471764806073
 40
18.41505088138111
 40
18.88292967339423
 40
19.35466241074213
 40
19.82640696493559
 40
20.30531232250257
 40
20.78423371973758
 40
21.27263984786855
 40
21.76106288278391
 40
22.26005603778747
 40
22.7590645504756
 40
23.26842697870201
 40
23.77780188759571
 40
24.29611313931744
 40
24.81443342994815
 40
25.33928927816735
 40
25.86415055734944
 40
26.39245673524695
 40
26.92076472091071
 40
27.44907270657498
 40
27.97737888447286
 40
28.50224016365348
 40
29.02709601187237
 40
29.54541630250413
 40
30.06372755422663
 40
30.57310246312006
 40
31.08246489134686
 40
31.58147340403486
 40
32.08046655903846
 40
32.56888959395345
 40
33.05729572208413
 40
33.53621711931915
 40
34.01512247688669
 40
34.48686703107948
 40
34.95859976842746
 40
35.42647856044103
 40
35.89435296121455
 40
35.89435296121455
 40
35.89435296121455
 40
35.89435296121455
 10
133.0427304949701
 20
162.3846458202731
 30
0.0
 10
132.8867105339005
 20
162.3891256388758
 30
0.0
 10
132.5746691474343
 20
162.3980853181268
 30
0.0
 10
132.1098850252323
 20
162.4699851853952
 30
0.0
 10
131.652914409059
 20
162.584218781892
 30
0.0
 10
131.2057332247336
 20
162.7441472671717
 30
0.0
 10
130.7737678715698
 20
162.9470070994742
 30
0.0
 10
130.357957493408
 20
163.1923058134297
 30
0.0
 10
129.964032211138
 20
163.4768327674732
 30
0.0
 10
129.5923279890928
 20
163.8000628008076
 30
0.0
 10
129.2482483293747
 20
164.1574740258783
 30
0.0
 10
128.9319525740307
 20
164.5486587514588
 30
0.0
 10
128.6479991631085
 20
164.9681002065609
 30
0.0
 10
128.3966556406778
 20
165.4152161053815
 30
0.0
 10
128.1813211656875
 20
165.8840315967296
 30
0.0
 10
128.0024545330145
 20
166.3734077791663
 30
0.0
 10
127.8622103073939
 20
166.8774840571251
 30
0.0
 10
127.761125771747
 20
167.3942255078531
 30
0.0
 10
127.7002287168085
 20
167.9183857464864
 30
0.0
 10
127.6798743903323
 20
168.4468236467655
 30
0.0
 10
127.7002287168091
 20
168.9752615470416
 30
0.0
 10
127.7611257717468
 20
169.4994217856834
 30
0.0
 10
127.8622103073946
 20
170.0161632363808
 30
0.0
 10
128.0024545330138
 20
170.5202395144546
 30
0.0
 10
128.1813211656883
 20
171.0096156964685
 30
0.0
 10
128.3966556406779
 20
171.4784311893778
 30
0.0
 10
128.6479991631084
 20
171.9255470824665
 30
0.0
 10
128.9319525740307
 20
172.3449885587361
 30
0.0
 10
129.2482483293745
 20
172.7361732068566
 30
0.0
 10
129.5923279890929
 20
173.0935847177242
 30
0.0
 10
129.9640322111379
 20
173.4168137060831
 30
0.0
 10
130.3579574934077
 20
173.7013445172304
 30
0.0
 10
130.7737678715696
 20
173.9466291036772
 30
0.0
 10
131.2057332247339
 20
174.1495411801948
 30
0.0
 10
131.652914409059
 20
174.3092774721394
 30
0.0
 10
132.1098850252321
 20
174.4242241174586
 30
0.0
 10
132.5746691474343
 20
174.4934835266376
 30
0.0
 10
133.0427304949702
 20
174.5167604101547
 30
0.0
 10
133.5107918425061
 20
174.4934835266377
 30
0.0
 10
133.9755759647083
 20
174.4242241174585
 30
0.0
 10
134.4325465808812
 20
174.3092774721393
 30
0.0
 10
134.8797277652063
 20
174.1495411801949
 30
0.0
 10
135.3116931183704
 20
173.9466291036769
 30
0.0
 10
135.7275034965325
 20
173.7013445172304
 30
0.0
 10
136.1214287788026
 20
173.4168137060833
 30
0.0
 10
136.4931330008474
 20
173.0935847177241
 30
0.0
 10
136.8372126605659
 20
172.7361732068568
 30
0.0
 10
137.1535084159097
 20
172.3449885587365
 30
0.0
 10
137.4374618268306
 20
171.9255470824659
 30
0.0
 10
137.6888053492625
 20
171.4784311893781
 30
0.0
 10
137.9041398242523
 20
171.0096156964685
 30
0.0
 10
138.0830064569262
 20
170.5202395144547
 30
0.0
 10
138.2232506825458
 20
170.0161632363808
 30
0.0
 10
138.3243352181934
 20
169.4994217856834
 30
0.0
 10
138.385232273131
 20
168.9752615470414
 30
0.0
 10
138.4055865996081
 20
168.4468236467654
 30
0.0
 10
138.385232273131
 20
167.9183857464865
 30
0.0
 10
138.3243352181938
 20
167.394225507853
 30
0.0
 10
138.2232506825451
 20
166.8774840571255
 30
0.0
 10
138.0830064569263
 20
166.3734077791661
 30
0.0
 10
137.9041398242518
 20
165.8840315967299
 30
0.0
 10
137.6888053492627
 20
165.4152161053812
 30
0.0
 10
137.437461826831
 20
164.9681002065612
 30
0.0
 10
137.1535084159098
 20
164.5486587514587
 30
0.0
 10
136.8372126605659
 20
164.1574740258782
 30
0.0
 10
136.4931330008475
 20
163.8000628008078
 30
0.0
 10
136.1214287788027
 20
163.4768327674729
 30
0.0
 10
135.7275034965322
 20
163.1923058134299
 30
0.0
 10
135.3116931183707
 20
162.947007099474
 30
0.0
 10
134.8797277652068
 20
162.744147267172
 30
0.0
 10
134.4325465808814
 20
162.5842187818919
 30
0.0
 10
133.975575964708
 20
162.4699851853953
 30
0.0
 10
133.510791842506
 20
162.3980853181267
 30
0.0
 10
133.1987504560397
 20
162.3891256388758
 30
0.0
 10
133.0427304949701
 20
162.3846458202731
 30
0.0
 11
133.0427304949701
 21
162.3846458202731
 31
0.0
 11
132.5754291619162
 21
162.4077957452238
 31
0.0
 11
132.1126584705542
 21
162.4767439230991
 31
0.0
 11
131.6551335653107
 21
162.5916470847943
 31
0.0
 11
131.2108462139602
 21
162.750239877319
 31
0.0
 11
130.7772810046677
 21
162.9536398546979
 31
0.0
 11
130.3646948342673
 21
163.1968236467651
 31
0.0
 11
129.9686123370421
 21
163.482584388273
 31
0.0
 11
129.599914212972
 21
163.8029260095821
 31
0.0
 11
129.2536528314112
 21
164.1622270315398
 31
0.0
 11
128.9397418222573
 21
164.55013085218
 31
0.0
 11
128.6540030978761
 21
164.9717983333526
 31
0.0
 11
128.4042366661499
 21
165.415734733519
 31
0.0
 11
128.1877327000169
 21
165.886662101922
 31
0.0
 11
128.0096697978413
 21
166.373436717683
 31
0.0
 11
127.8688716100448
 21
166.8790546878172
 31
0.0
 11
127.768029931962
 21
167.3941375145012
 31
0.0
 11
127.7070080008561
 21
167.9189076942268
 31
0.0
 11
127.6866591735632
 21
168.4468236467651
 31
0.0
 11
127.7070080008564
 21
168.9747395993033
 31
0.0
 11
127.768029931962
 21
169.4995097790281
 31
0.0
 11
127.8688716100452
 21
170.014592605713
 31
0.0
 11
128.0096697978413
 21
170.5202105758481
 31
0.0
 11
128.1877327000173
 21
171.0069851916081
 31
0.0
 11
128.4042366661499
 21
171.4779125600101
 31
0.0
 11
128.6540030978761
 21
171.9218489601766
 31
0.0
 11
128.9397418222573
 21
172.343516441349
 31
0.0
 11
129.2536528314108
 21
172.731420261989
 31
0.0
 11
129.599914212972
 21
173.090721283947
 31
0.0
 11
129.9686123370421
 21
173.4110629052567
 31
0.0
 11
130.3646948342673
 21
173.6968236467651
 31
0.0
 11
130.7772810046674
 21
173.9400074388317
 31
0.0
 11
131.2108462139602
 21
174.14340741621
 31
0.0
 11
131.6551335653107
 21
174.3020002087358
 31
0.0
 11
132.1126584705542
 21
174.416903370432
 31
0.0
 11
132.5754291619162
 21
174.4858515483065
 31
0.0
 11
133.0427304949701
 21
174.5090014732562
 31
0.0
 11
133.5100318280244
 21
174.4858515483065
 31
0.0
 11
133.9728025193861
 21
174.416903370432
 31
0.0
 11
134.4303274246295
 21
174.3020002087357
 31
0.0
 11
134.87461477598
 21
174.14340741621
 31
0.0
 11
135.3081799852725
 21
173.9400074388316
 31
0.0
 11
135.7207661556729
 21
173.6968236467651
 31
0.0
 11
136.1168486528985
 21
173.4110629052567
 31
0.0
 11
136.4855467769683
 21
173.090721283947
 31
0.0
 11
136.8318081585294
 21
172.7314202619894
 31
0.0
 11
137.145719167683
 21
172.343516441349
 31
0.0
 11
137.4314578920632
 21
171.9218489601766
 31
0.0
 11
137.6812243237903
 21
171.4779125600101
 31
0.0
 11
137.8977282899232
 21
171.0069851916081
 31
0.0
 11
138.0757911920989
 21
170.5202105758481
 31
0.0
 11
138.2165893798951
 21
170.0145926057133
 31
0.0
 11
138.3174310579782
 21
169.4995097790281
 31
0.0
 11
138.3784529890838
 21
168.9747395993029
 31
0.0
 11
138.398801816377
 21
168.4468236467651
 31
0.0
 11
138.3784529890838
 21
167.9189076942268
 31
0.0
 11
138.3174310579782
 21
167.3941375145012
 31
0.0
 11
138.2165893798947
 21
166.8790546878176
 31
0.0
 11
138.0757911920989
 21
166.373436717683
 31
0.0
 11
137.8977282899229
 21
165.886662101922
 31
0.0
 11
137.6812243237903
 21
165.415734733519
 31
0.0
 11
137.4314578920636
 21
164.9717983333526
 31
0.0
 11
137.145719167683
 21
164.55013085218
 31
0.0
 11
136.8318081585294
 21
164.1622270315398
 31
0.0
 11
136.4855467769683
 21
163.8029260095821
 31
0.0
 11
136.1168486528985
 21
163.482584388273
 31
0.0
 11
135.7207661556729
 21
163.1968236467651
 31
0.0
 11
135.3081799852728
 21
162.9536398546979
 31
0.0
 11
134.87461477598
 21
162.750239877319
 31
0.0
 11
134.4303274246298
 21
162.5916470847943
 31
0.0
 11
133.9728025193861
 21
162.4767439230991
 31
0.0
 11
133.510031828024
 21
162.4077957452238
 31
0.0
 11
133.0427304949701
 21
162.3846458202731
 31
0.0
  0
SPLINE
  5
241
330
4A
100
AcDbEntity
  8
1
  6
Continuous
 62
     7
100
AcDbSpline
210
0.0
220
0.0
230
1.0
 70
    11
 71
     3
 72
    79
 73
    75
 74
    73
 42
0.0000000001
 43
0.0000000001
 44
0.00000001
 40
0.0
 40
0.0
 40
0.0
 40
0.0
 40
0.4678744007735235
 40
0.9357531927870937
 40
1.407485930134735
 40
1.879230484327849
 40
2.358135841895073
 40
2.837057239130394
 40
3.32546336726107
 40
3.813886402176056
 40
4.312879557179342
 40
4.811888069867054
 40
5.321250498094317
 40
5.830625406987793
 40
6.348936658710481
 40
6.867256949342081
 40
7.39211279756106
 40
7.916974076741616
 40
8.445280254639537
 40
8.973588240303792
 40
9.501896225967977
 40
10.03020240386507
 40
10.55506368304689
 40
11.07991953126632
 40
11.59823982189714
 40
12.11655107361874
 40
12.62592598251251
 40
13.13528841073935
 40
13.63429692342714
 40
14.1332900784304
 40
14.62171311334575
 40
15.11011924147673
 40
15.58904063871145
 40
16.06794599627873
 40
16.5396905504722
 40
17.0114232878201
 40
17.47930207983355
 40
17.94717648060702
 40
18.41505088138081
 40
18.88292967339384
 40
19.35466241074185
 40
19.82640696493531
 40
20.30531232250229
 40
20.78423371973729
 40
21.27263984786795
 40
21.76106288278352
 40
22.26005603778714
 40
22.75906455047522
 40
23.26842697870165
 40
23.77780188759538
 40
24.29611313931711
 40
24.81443342994782
 40
25.33928927816701
 40
25.86415055734911
 40
26.39245673524662
 40
26.92076472091038
 40
27.44907270657465
 40
27.97737888447253
 40
28.50224016365316
 40
29.02709601187204
 40
29.54541630250379
 40
30.06372755422629
 40
30.57310246311972
 40
31.08246489134659
 40
31.58147340403453
 40
32.08046655903819
 40
32.56888959395339
 40
33.05729572208374
 40
33.53621711931877
 40
34.01512247688631
 40
34.48686703107912
 40
34.95859976842718
 40
35.42647856044064
 40
35.89435296121417
 40
35.89435296121417
 40
35.89435296121417
 40
35.89435296121417
 10
145.0427304949701
 20
162.3846458202731
 30
0.0
 10
145.1987504560397
 20
162.3891256388758
 30
0.0
 10
145.510791842506
 20
162.3980853181267
 30
0.0
 10
145.975575964708
 20
162.4699851853952
 30
0.0
 10
146.4325465808812
 20
162.584218781892
 30
0.0
 10
146.8797277652066
 20
162.7441472671717
 30
0.0
 10
147.3116931183704
 20
162.9470070994742
 30
0.0
 10
147.7275034965322
 20
163.1923058134299
 30
0.0
 10
148.1214287788026
 20
163.4768327674729
 30
0.0
 10
148.4931330008475
 20
163.8000628008077
 30
0.0
 10
148.8372126605655
 20
164.1574740258782
 30
0.0
 10
149.1535084159087
 20
164.5486587514591
 30
0.0
 10
149.4374618268311
 20
164.9681002065609
 30
0.0
 10
149.6888053492625
 20
165.4152161053813
 30
0.0
 10
149.9041398242526
 20
165.8840315967297
 30
0.0
 10
150.0830064569259
 20
166.3734077791663
 30
0.0
 10
150.2232506825457
 20
166.8774840571253
 30
0.0
 10
150.3243352181935
 20
167.3942255078531
 30
0.0
 10
150.3852322731316
 20
167.9183857464865
 30
0.0
 10
150.4055865996079
 20
168.4468236467655
 30
0.0
 10
150.3852322731311
 20
168.9752615470415
 30
0.0
 10
150.3243352181936
 20
169.4994217856835
 30
0.0
 10
150.2232506825451
 20
170.0161632363806
 30
0.0
 10
150.0830064569266
 20
170.5202395144547
 30
0.0
 10
149.9041398242518
 20
171.0096156964684
 30
0.0
 10
149.6888053492626
 20
171.4784311893781
 30
0.0
 10
149.4374618268304
 20
171.925547082466
 30
0.0
 10
149.1535084159088
 20
172.3449885587362
 30
0.0
 10
148.8372126605649
 20
172.7361732068563
 30
0.0
 10
148.4931330008475
 20
173.0935847177244
 30
0.0
 10
148.1214287788026
 20
173.4168137060833
 30
0.0
 10
147.7275034965326
 20
173.7013445172302
 30
0.0
 10
147.3116931183706
 20
173.9466291036772
 30
0.0
 10
146.8797277652064
 20
174.1495411801948
 30
0.0
 10
146.4325465808813
 20
174.3092774721393
 30
0.0
 10
145.9755759647082
 20
174.4242241174586
 30
0.0
 10
145.5107918425059
 20
174.4934835266376
 30
0.0
 10
145.04273049497
 20
174.5167604101547
 30
0.0
 10
144.5746691474342
 20
174.4934835266377
 30
0.0
 10
144.109885025232
 20
174.4242241174585
 30
0.0
 10
143.652914409059
 20
174.3092774721393
 30
0.0
 10
143.2057332247339
 20
174.1495411801949
 30
0.0
 10
142.7737678715698
 20
173.946629103677
 30
0.0
 10
142.3579574934077
 20
173.7013445172305
 30
0.0
 10
141.9640322111379
 20
173.4168137060831
 30
0.0
 10
141.592327989093
 20
173.0935847177242
 30
0.0
 10
141.2482483293743
 20
172.7361732068569
 30
0.0
 10
140.9319525740307
 20
172.3449885587364
 30
0.0
 10
140.6479991631097
 20
171.9255470824659
 30
0.0
 10
140.3966556406778
 20
171.4784311893781
 30
0.0
 10
140.1813211656879
 20
171.0096156964685
 30
0.0
 10
140.002454533014
 20
170.5202395144547
 30
0.0
 10
139.8622103073945
 20
170.0161632363808
 30
0.0
 10
139.7611257717468
 20
169.4994217856834
 30
0.0
 10
139.7002287168091
 20
168.9752615470414
 30
0.0
 10
139.6798743903321
 20
168.4468236467654
 30
0.0
 10
139.7002287168092
 20
167.9183857464865
 30
0.0
 10
139.7611257717464
 20
167.394225507853
 30
0.0
 10
139.8622103073952
 20
166.8774840571254
 30
0.0
 10
140.002454533014
 20
166.3734077791661
 30
0.0
 10
140.1813211656884
 20
165.8840315967299
 30
0.0
 10
140.3966556406775
 20
165.4152161053812
 30
0.0
 10
140.6479991631092
 20
164.9681002065612
 30
0.0
 10
140.9319525740306
 20
164.5486587514587
 30
0.0
 10
141.2482483293744
 20
164.1574740258782
 30
0.0
 10
141.5923279890928
 20
163.8000628008078
 30
0.0
 10
141.9640322111379
 20
163.4768327674731
 30
0.0
 10
142.357957493408
 20
163.1923058134298
 30
0.0
 10
142.7737678715696
 20
162.9470070994741
 30
0.0
 10
143.2057332247334
 20
162.7441472671719
 30
0.0
 10
143.6529144090589
 20
162.5842187818919
 30
0.0
 10
144.1098850252322
 20
162.4699851853953
 30
0.0
 10
144.5746691474342
 20
162.3980853181267
 30
0.0
 10
144.8867105339005
 20
162.3891256388758
 30
0.0
 10
145.0427304949701
 20
162.3846458202731
 30
0.0
 11
145.0427304949701
 21
162.3846458202731
 31
0.0
 11
145.510031828024
 21
162.4077957452238
 31
0.0
 11
145.9728025193861
 21
162.4767439230991
 31
0.0
 11
146.4303274246295
 21
162.5916470847943
 31
0.0
 11
146.87461477598
 21
162.750239877319
 31
0.0
 11
147.3081799852725
 21
162.9536398546979
 31
0.0
 11
147.7207661556729
 21
163.1968236467651
 31
0.0
 11
148.1168486528985
 21
163.482584388273
 31
0.0
 11
148.4855467769683
 21
163.8029260095821
 31
0.0
 11
148.831808158529
 21
164.1622270315398
 31
0.0
 11
149.1457191676821
 21
164.55013085218
 31
0.0
 11
149.4314578920636
 21
164.9717983333526
 31
0.0
 11
149.6812243237903
 21
165.415734733519
 31
0.0
 11
149.8977282899233
 21
165.886662101922
 31
0.0
 11
150.0757911920989
 21
166.373436717683
 31
0.0
 11
150.2165893798951
 21
166.8790546878176
 31
0.0
 11
150.3174310579782
 21
167.3941375145012
 31
0.0
 11
150.3784529890841
 21
167.9189076942268
 31
0.0
 11
150.398801816377
 21
168.4468236467651
 31
0.0
 11
150.3784529890837
 21
168.9747395993033
 31
0.0
 11
150.3174310579782
 21
169.4995097790281
 31
0.0
 11
150.2165893798947
 21
170.014592605713
 31
0.0
 11
150.0757911920989
 21
170.5202105758481
 31
0.0
 11
149.8977282899229
 21
171.0069851916081
 31
0.0
 11
149.6812243237903
 21
171.4779125600101
 31
0.0
 11
149.431457892063
 21
171.9218489601766
 31
0.0
 11
149.1457191676821
 21
172.343516441349
 31
0.0
 11
148.8318081585286
 21
172.731420261989
 31
0.0
 11
148.4855467769683
 21
173.090721283947
 31
0.0
 11
148.1168486528985
 21
173.4110629052567
 31
0.0
 11
147.7207661556729
 21
173.6968236467651
 31
0.0
 11
147.3081799852728
 21
173.9400074388317
 31
0.0
 11
146.87461477598
 21
174.14340741621
 31
0.0
 11
146.4303274246295
 21
174.3020002087358
 31
0.0
 11
145.9728025193861
 21
174.416903370432
 31
0.0
 11
145.510031828024
 21
174.4858515483065
 31
0.0
 11
145.0427304949701
 21
174.5090014732562
 31
0.0
 11
144.5754291619159
 21
174.4858515483065
 31
0.0
 11
144.1126584705542
 21
174.416903370432
 31
0.0
 11
143.6551335653107
 21
174.3020002087357
 31
0.0
 11
143.2108462139602
 21
174.14340741621
 31
0.0
 11
142.7772810046677
 21
173.9400074388316
 31
0.0
 11
142.3646948342673
 21
173.6968236467651
 31
0.0
 11
141.9686123370421
 21
173.4110629052567
 31
0.0
 11
141.599914212972
 21
173.090721283947
 31
0.0
 11
141.2536528314108
 21
172.7314202619894
 31
0.0
 11
140.9397418222573
 21
172.343516441349
 31
0.0
 11
140.6540030978771
 21
171.9218489601766
 31
0.0
 11
140.4042366661499
 21
171.4779125600101
 31
0.0
 11
140.187732700017
 21
171.0069851916081
 31
0.0
 11
140.0096697978413
 21
170.5202105758481
 31
0.0
 11
139.8688716100452
 21
170.0145926057133
 31
0.0
 11
139.768029931962
 21
169.4995097790281
 31
0.0
 11
139.7070080008564
 21
168.9747395993029
 31
0.0
 11
139.6866591735632
 21
168.4468236467651
 31
0.0
 11
139.7070080008564
 21
167.9189076942268
 31
0.0
 11
139.768029931962
 21
167.3941375145012
 31
0.0
 11
139.8688716100455
 21
166.8790546878176
 31
0.0
 11
140.0096697978413
 21
166.373436717683
 31
0.0
 11
140.1877327000173
 21
165.886662101922
 31
0.0
 11
140.4042366661499
 21
165.415734733519
 31
0.0
 11
140.6540030978766
 21
164.9717983333526
 31
0.0
 11
140.9397418222573
 21
164.55013085218
 31
0.0
 11
141.2536528314108
 21
164.1622270315398
 31
0.0
 11
141.599914212972
 21
163.8029260095821
 31
0.0
 11
141.9686123370421
 21
163.482584388273
 31
0.0
 11
142.3646948342673
 21
163.1968236467651
 31
0.0
 11
142.7772810046674
 21
162.9536398546979
 31
0.0
 11
143.2108462139602
 21
162.750239877319
 31
0.0
 11
143.6551335653104
 21
162.5916470847943
 31
0.0
 11
144.1126584705542
 21
162.4767439230991
 31
0.0
 11
144.5754291619162
 21
162.4077957452238
 31
0.0
 11
145.0427304949701
 21
162.3846458202731
 31
0.0
  0
SPLINE
  5
242
330
4A
100
AcDbEntity
  8
1
  6
Continuous
 62
     7
100
AcDbSpline
210
0.0
220
0.0
230
1.0
 70
    11
 71
     3
 72
    79
 73
    75
 74
    73
 42
0.0000000001
 43
0.0000000001
 44
0.00000001
 40
0.0
 40
0.0
 40
0.0
 40
0.0
 40
0.2732520596962421
 40
0.5466869743748867
 40
0.8413986807845618
 40
1.13632758878796
 40
1.467767925675142
 40
1.799287330784485
 40
2.174576154088743
 40
2.549907461000491
 40
2.969561235580756
 40
3.389237629159823
 40
3.849011454341108
 40
4.308799503994233
 40
4.801169042998592
 40
5.293547118901703
 40
5.808782067216429
 40
6.324021649886185
 40
6.851020326127355
 40
7.378020465970057
 40
7.905020605812759
 40
8.432019282053926
 40
8.947258864723676
 40
9.46249381303841
 40
9.954871888942318
 40
10.44724142794699
 40
10.90702947759949
 40
11.36680330278035
 40
11.78647969636014
 40
12.20613347094068
 40
12.58146477785209
 40
12.95675360115576
 40
13.28827300626547
 40
13.6197133431531
 40
13.91464225115589
 40
14.20935395756564
 40
14.48278887224419
 40
14.75604093194055
 40
15.02929299163657
 40
15.30272790631472
 40
15.59743961272348
 40
15.89236852072676
 40
16.22380885761421
 40
16.55532826272444
 40
16.93061708602819
 40
17.30594839293972
 40
17.72560216752005
 40
18.14527856110031
 40
18.60505238628063
 40
19.06484043593363
 40
19.55720997493814
 40
20.04958805084207
 40
20.56482299915684
 40
21.08006258182664
 40
21.60706125806732
 40
22.13406139791049
 40
22.66106153775319
 40
23.18806021399436
 40
23.70329979666412
 40
24.21853474497893
 40
24.71091282088198
 40
25.20328235988628
 40
25.66307040953977
 40
26.12284423472068
 40
26.54252062830006
 40
26.9621744028803
 40
27.33750570979202
 40
27.71279453309652
 40
28.04431393820648
 40
28.37575427509338
 40
28.67068318309697
 40
28.96539488950597
 40
29.23882980418418
 40
29.51208186388013
 40
29.51208186388013
 40
29.51208186388013
 40
29.51208186388013
 10
314.5333640031311
 20
162.3846458202741
 30
0.0
 10
314.6245429520879
 20
162.3893776091892
 30
0.0
 10
314.806961865187
 20
162.3988443534407
 30
0.0
 10
315.0795816807348
 20
162.4724341243525
 30
0.0
 10
315.3438355903602
 20
162.5883899704734
 30
0.0
 10
315.6048225269308
 20
162.7519427575718
 30
0.0
 10
315.8522746544408
 20
162.9550050025298
 30
0.0
 10
316.0935438260864
 20
163.2039541343918
 30
0.0
 10
316.3182605433576
 20
163.4868416775936
 30
0.0
 10
316.5331247121911
 20
163.8129138603608
 30
0.0
 10
316.7293222973082
 20
164.167542113733
 30
0.0
 10
316.9117348417332
 20
164.5606122655735
 30
0.0
 10
317.0738435569022
 20
164.9768654714097
 30
0.0
 10
317.2185697189458
 20
165.4249520824873
 30
0.0
 10
317.3417170050518
 20
165.8906897923674
 30
0.0
 10
317.4445735236325
 20
166.3801927335374
 30
0.0
 10
317.5249265472335
 20
166.8816090218393
 30
0.0
 10
317.5829673647849
 20
167.3976922059114
 30
0.0
 10
317.6179409506899
 20
167.9197796169604
 30
0.0
 10
317.6295693635534
 20
168.4468236467662
 30
0.0
 10
317.6179409506897
 20
168.9738676765654
 30
0.0
 10
317.582967364785
 20
169.4959550876341
 30
0.0
 10
317.5249265472336
 20
170.0120382716354
 30
0.0
 10
317.4445735236322
 20
170.5134545601961
 30
0.0
 10
317.3417170050527
 20
171.0029575004429
 30
0.0
 10
317.2185697189457
 20
171.4686952136622
 30
0.0
 10
317.0738435569023
 20
171.9167818130649
 30
0.0
 10
316.9117348417328
 20
172.3330350605834
 30
0.0
 10
316.7293222973083
 20
172.7261050697789
 30
0.0
 10
316.5331247121914
 20
173.080733826627
 30
0.0
 10
316.3182605433572
 20
173.4068043188647
 30
0.0
 10
316.0935438260861
 20
173.6896977781124
 30
0.0
 10
315.8522746544408
 20
173.9386272725518
 30
0.0
 10
315.6048225269312
 20
174.1417581866002
 30
0.0
 10
315.3438355903604
 20
174.3050814891207
 30
0.0
 10
315.0795816807346
 20
174.421851355787
 30
0.0
 10
314.8069618651871
 20
174.4926117632793
 30
0.0
 10
314.5333640031312
 20
174.5171935872428
 30
0.0
 10
314.2597661410755
 20
174.4926117632792
 30
0.0
 10
313.9871463255284
 20
174.4218513557872
 30
0.0
 10
313.7228924159034
 20
174.3050814891202
 30
0.0
 10
313.4619054793322
 20
174.1417581866005
 30
0.0
 10
313.214453351823
 20
173.9386272725514
 30
0.0
 10
312.9731841801768
 20
173.6896977781126
 30
0.0
 10
312.7484674629056
 20
173.4068043188647
 30
0.0
 10
312.5336032940715
 20
173.0807338266271
 30
0.0
 10
312.337405708954
 20
172.726105069779
 30
0.0
 10
312.1549931645293
 20
172.3330350605839
 30
0.0
 10
311.9928844493605
 20
171.9167818130647
 30
0.0
 10
311.8481582873161
 20
171.4686952136626
 30
0.0
 10
311.7250110012103
 20
171.0029575004427
 30
0.0
 10
311.6221544826304
 20
170.5134545601962
 30
0.0
 10
311.5418014590285
 20
170.0120382716354
 30
0.0
 10
311.483760641477
 20
169.4959550876342
 30
0.0
 10
311.4487870555728
 20
168.9738676765655
 30
0.0
 10
311.4371586427086
 20
168.4468236467664
 30
0.0
 10
311.4487870555723
 20
167.9197796169605
 30
0.0
 10
311.4837606414772
 20
167.3976922059114
 30
0.0
 10
311.5418014590284
 20
166.8816090218393
 30
0.0
 10
311.6221544826303
 20
166.3801927335375
 30
0.0
 10
311.7250110012103
 20
165.8906897923674
 30
0.0
 10
311.8481582873166
 20
165.4249520824872
 30
0.0
 10
311.9928844493595
 20
164.9768654714095
 30
0.0
 10
312.1549931645293
 20
164.5606122655734
 30
0.0
 10
312.3374057089536
 20
164.1675421137327
 30
0.0
 10
312.5336032940717
 20
163.8129138603608
 30
0.0
 10
312.7484674629049
 20
163.4868416775935
 30
0.0
 10
312.9731841801766
 20
163.2039541343916
 30
0.0
 10
313.214453351823
 20
162.9550050025302
 30
0.0
 10
313.4619054793326
 20
162.7519427575716
 30
0.0
 10
313.7228924159034
 20
162.5883899704737
 30
0.0
 10
313.9871463255283
 20
162.4724341243524
 30
0.0
 10
314.2597661410755
 20
162.3988443534407
 30
0.0
 10
314.4421850541743
 20
162.3893776091891
 30
0.0
 10
314.5333640031311
 20
162.3846458202741
 30
0.0
 11
314.5333640031311
 21
162.3846458202741
 31
0.0
 11
314.8055797299116
 21
162.4084215688761
 31
0.0
 11
315.0703413367939
 21
162.4767439230982
 31
0.0
 11
315.3404064134721
 21
162.5947263126896
 31
0.0
 11
315.5910028858973
 21
162.7502398773202
 31
0.0
 11
315.8479543278415
 21
162.9595928171101
 31
0.0
 11
316.0795286127379
 21
163.1968236467651
 31
0.0
 11
316.3137376192711
 21
163.4900604830524
 31
0.0
 11
316.5210749103133
 21
163.8029260095832
 31
0.0
 11
316.7248892382976
 21
164.1697624993546
 31
0.0
 11
316.9022256178039
 21
164.55013085218
 31
0.0
 11
317.0695790617255
 21
164.9783653616832
 31
0.0
 11
317.2113996638352
 21
165.4157347335201
 31
0.0
 11
317.3376102906065
 21
165.8916534667397
 31
0.0
 11
317.4392029514663
 21
166.373436717683
 31
0.0
 11
317.5209335606721
 21
166.8821479908859
 31
0.0
 11
317.578713793079
 21
167.3941375145021
 31
0.0
 11
317.6140063840936
 21
167.9199531074426
 31
0.0
 11
317.6256932223439
 21
168.4468236467651
 31
0.0
 11
317.6140063840936
 21
168.9736941860876
 31
0.0
 11
317.578713793079
 21
169.4995097790281
 31
0.0
 11
317.5209335606721
 21
170.0114993026443
 31
0.0
 11
317.4392029514663
 21
170.5202105758472
 31
0.0
 11
317.3376102906069
 21
171.0019938267914
 31
0.0
 11
317.2113996638352
 21
171.4779125600112
 31
0.0
 11
317.0695790617255
 21
171.9152819318475
 31
0.0
 11
316.9022256178039
 21
172.3435164413502
 31
0.0
 11
316.7248892382976
 21
172.7238847941764
 31
0.0
 11
316.5210749103133
 21
173.0907212839481
 31
0.0
 11
316.3137376192708
 21
173.4035868104783
 31
0.0
 11
316.0795286127379
 21
173.6968236467651
 31
0.0
 11
315.8479543278415
 21
173.9340544764206
 31
0.0
 11
315.5910028858973
 21
174.1434074162112
 31
0.0
 11
315.3404064134725
 21
174.2989209808413
 31
0.0
 11
315.0703413367939
 21
174.416903370432
 31
0.0
 11
314.8055797299118
 21
174.4852257246542
 31
0.0
 11
314.5333640031311
 21
174.5090014732562
 31
0.0
 11
314.2611482763508
 21
174.4852257246541
 31
0.0
 11
313.9963866694691
 21
174.416903370432
 31
0.0
 11
313.7263215927916
 21
174.2989209808413
 31
0.0
 11
313.4757251203662
 21
174.1434074162112
 31
0.0
 11
313.2187736784222
 21
173.9340544764206
 31
0.0
 11
312.9871993935251
 21
173.6968236467651
 31
0.0
 11
312.752990386992
 21
173.4035868104783
 31
0.0
 11
312.5456530959493
 21
173.0907212839481
 31
0.0
 11
312.3418387679649
 21
172.7238847941768
 31
0.0
 11
312.1645023884582
 21
172.3435164413502
 31
0.0
 11
311.9971489445372
 21
171.9152819318478
 31
0.0
 11
311.8553283424269
 21
171.4779125600112
 31
0.0
 11
311.7291177156558
 21
171.0019938267914
 31
0.0
 11
311.6275250547963
 21
170.5202105758472
 31
0.0
 11
311.5457944455901
 21
170.0114993026443
 31
0.0
 11
311.4880142131831
 21
169.4995097790281
 31
0.0
 11
311.4527216221688
 21
168.973694186088
 31
0.0
 11
311.4410347839182
 21
168.4468236467651
 31
0.0
 11
311.4527216221685
 21
167.9199531074426
 31
0.0
 11
311.4880142131831
 21
167.3941375145021
 31
0.0
 11
311.5457944455901
 21
166.8821479908859
 31
0.0
 11
311.6275250547963
 21
166.373436717683
 31
0.0
 11
311.7291177156558
 21
165.8916534667397
 31
0.0
 11
311.8553283424269
 21
165.4157347335201
 31
0.0
 11
311.9971489445366
 21
164.9783653616828
 31
0.0
 11
312.1645023884582
 21
164.55013085218
 31
0.0
 11
312.3418387679645
 21
164.1697624993543
 31
0.0
 11
312.5456530959493
 21
163.8029260095832
 31
0.0
 11
312.7529903869914
 21
163.4900604830524
 31
0.0
 11
312.9871993935251
 21
163.1968236467651
 31
0.0
 11
313.2187736784223
 21
162.9595928171101
 31
0.0
 11
313.4757251203662
 21
162.7502398773202
 31
0.0
 11
313.7263215927916
 21
162.5947263126896
 31
0.0
 11
313.9963866694691
 21
162.4767439230982
 31
0.0
 11
314.2611482763509
 21
162.4084215688761
 31
0.0
 11
314.5333640031311
 21
162.3846458202741
 31
0.0
  0
SPLINE
  5
243
330
4A
100
AcDbEntity
  8
1
  6
Continuous
 62
     7
100
AcDbSpline
210
0.0
220
0.0
230
1.0
 70
    11
 71
     3
 72
    79
 73
    75
 74
    73
 42
0.0000000001
 43
0.0000000001
 44
0.00000001
 40
0.0
 40
0.0
 40
0.0
 40
0.0
 40
0.273252059695959
 40
0.5466869743749888
 40
0.8413986807843514
 40
1.136327588787943
 40
1.467767925674904
 40
1.799287330784843
 40
2.174576154088853
 40
2.549907461000506
 40
2.969561235580662
 40
3.389237629160065
 40
3.849011454341164
 40
4.308799503994271
 40
4.801169042998805
 40
5.293547118901776
 40
5.808782067216439
 40
6.324021649886157
 40
6.851020326127363
 40
7.378020465970081
 40
7.905020605812798
 40
8.432019282054005
 40
8.947258864723763
 40
9.462493813038371
 40
9.954871888942162
 40
10.44724142794698
 40
10.90702947759979
 40
11.36680330278014
 40
11.78647969636029
 40
12.20613347094075
 40
12.58146477785242
 40
12.9567536011555
 40
13.28827300626557
 40
13.61971334315324
 40
13.91464225115618
 40
14.20935395756567
 40
14.48278887224471
 40
14.75604093194067
 40
15.02929299163698
 40
15.30272790631569
 40
15.59743961272452
 40
15.89236852072688
 40
16.22380885761495
 40
16.55532826272526
 40
16.93061708602873
 40
17.30594839294008
 40
17.72560216752054
 40
18.14527856110057
 40
18.60505238628072
 40
19.06484043593376
 40
19.55720997493848
 40
20.04958805084235
 40
20.56482299915711
 40
21.0800625818269
 40
21.60706125806762
 40
22.13406139791078
 40
22.66106153775348
 40
23.18806021399465
 40
23.7032997966644
 40
24.21853474497922
 40
24.71091282088229
 40
25.20328235988671
 40
25.66307040954003
 40
26.12284423472094
 40
26.54252062830029
 40
26.96217440288048
 40
27.3375057097921
 40
27.71279453309618
 40
28.04431393820638
 40
28.37575427509372
 40
28.67068318309703
 40
28.96539488950544
 40
29.23882980418404
 40
29.51208186388045
 40
29.51208186388045
 40
29.51208186388045
 40
29.51208186388045
 10
294.7174248369672
 20
162.3846458202741
 30
0.0
 10
294.6262458880104
 20
162.3893776091892
 30
0.0
 10
294.4438269749114
 20
162.3988443534409
 30
0.0
 10
294.1712071593638
 20
162.4724341243523
 30
0.0
 10
293.9069532497383
 20
162.5883899704736
 30
0.0
 10
293.6459663131674
 20
162.7519427575716
 30
0.0
 10
293.3985141856578
 20
162.9550050025302
 30
0.0
 10
293.1572450140114
 20
163.2039541343913
 30
0.0
 10
292.9325282967405
 20
163.4868416775937
 30
0.0
 10
292.7176641279072
 20
163.8129138603607
 30
0.0
 10
292.5214665427906
 20
164.1675421137333
 30
0.0
 10
292.3390539983643
 20
164.5606122655731
 30
0.0
 10
292.1769452831962
 20
164.9768654714098
 30
0.0
 10
292.0322191211527
 20
165.4249520824874
 30
0.0
 10
291.9090718350455
 20
165.8906897923673
 30
0.0
 10
291.8062153164659
 20
166.3801927335374
 30
0.0
 10
291.7258622928652
 20
166.8816090218394
 30
0.0
 10
291.6678214753144
 20
167.3976922059115
 30
0.0
 10
291.6328478894087
 20
167.9197796169604
 30
0.0
 10
291.6212194765441
 20
168.4468236467662
 30
0.0
 10
291.6328478894086
 20
168.9738676765654
 30
0.0
 10
291.6678214753143
 20
169.4959550876341
 30
0.0
 10
291.7258622928657
 20
170.0120382716354
 30
0.0
 10
291.8062153164661
 20
170.5134545601961
 30
0.0
 10
291.9090718350448
 20
171.0029575004431
 30
0.0
 10
292.0322191211528
 20
171.4686952136622
 30
0.0
 10
292.176945283196
 20
171.9167818130649
 30
0.0
 10
292.3390539983651
 20
172.3330350605837
 30
0.0
 10
292.5214665427893
 20
172.7261050697792
 30
0.0
 10
292.7176641279073
 20
173.080733826627
 30
0.0
 10
292.9325282967408
 20
173.4068043188648
 30
0.0
 10
293.1572450140118
 20
173.6896977781128
 30
0.0
 10
293.3985141856577
 20
173.9386272725517
 30
0.0
 10
293.6459663131669
 20
174.1417581866002
 30
0.0
 10
293.9069532497381
 20
174.3050814891205
 30
0.0
 10
294.1712071593638
 20
174.4218513557872
 30
0.0
 10
294.4438269749114
 20
174.4926117632792
 30
0.0
 10
294.7174248369673
 20
174.5171935872427
 30
0.0
 10
294.9910226990231
 20
174.4926117632791
 30
0.0
 10
295.2636425145708
 20
174.4218513557875
 30
0.0
 10
295.5278964241953
 20
174.3050814891197
 30
0.0
 10
295.7888833607665
 20
174.1417581866002
 30
0.0
 10
296.036335488276
 20
173.9386272725516
 30
0.0
 10
296.2776046599221
 20
173.6896977781127
 30
0.0
 10
296.5023213771939
 20
173.4068043188652
 30
0.0
 10
296.7171855460269
 20
173.0807338266268
 30
0.0
 10
296.9133831311436
 20
172.7261050697787
 30
0.0
 10
297.0957956755693
 20
172.3330350605839
 30
0.0
 10
297.2579043907369
 20
171.9167818130646
 30
0.0
 10
297.4026305527817
 20
171.4686952136624
 30
0.0
 10
297.5257778388886
 20
171.0029575004429
 30
0.0
 10
297.6286343574677
 20
170.513454560196
 30
0.0
 10
297.7089873810698
 20
170.0120382716355
 30
0.0
 10
297.7670281986211
 20
169.4959550876342
 30
0.0
 10
297.8020017845262
 20
168.9738676765655
 30
0.0
 10
297.8136301973896
 20
168.4468236467664
 30
0.0
 10
297.8020017845262
 20
167.9197796169603
 30
0.0
 10
297.7670281986211
 20
167.3976922059115
 30
0.0
 10
297.70898738107
 20
166.8816090218392
 30
0.0
 10
297.6286343574679
 20
166.3801927335375
 30
0.0
 10
297.5257778388881
 20
165.8906897923674
 30
0.0
 10
297.4026305527817
 20
165.4249520824872
 30
0.0
 10
297.2579043907369
 20
164.9768654714101
 30
0.0
 10
297.0957956755693
 20
164.5606122655731
 30
0.0
 10
296.9133831311446
 20
164.1675421137328
 30
0.0
 10
296.7171855460265
 20
163.8129138603609
 30
0.0
 10
296.5023213771936
 20
163.4868416775937
 30
0.0
 10
296.2776046599225
 20
163.2039541343912
 30
0.0
 10
296.0363354882759
 20
162.9550050025302
 30
0.0
 10
295.7888833607657
 20
162.7519427575716
 30
0.0
 10
295.5278964241952
 20
162.5883899704744
 30
0.0
 10
295.2636425145706
 20
162.4724341243521
 30
0.0
 10
294.9910226990232
 20
162.3988443534408
 30
0.0
 10
294.8086037859241
 20
162.3893776091892
 30
0.0
 10
294.7174248369672
 20
162.3846458202741
 30
0.0
 11
294.7174248369672
 21
162.3846458202741
 31
0.0
 11
294.445209110187
 21
162.4084215688761
 31
0.0
 11
294.1804475033043
 21
162.4767439230982
 31
0.0
 11
293.9103824266264
 21
162.5947263126896
 31
0.0
 11
293.659785954201
 21
162.7502398773202
 31
0.0
 11
293.4028345122571
 21
162.9595928171101
 31
0.0
 11
293.1712602273599
 21
163.1968236467651
 31
0.0
 11
292.937051220827
 21
163.4900604830524
 31
0.0
 11
292.729713929785
 21
163.8029260095832
 31
0.0
 11
292.525899601801
 21
164.1697624993546
 31
0.0
 11
292.3485632222939
 21
164.55013085218
 31
0.0
 11
292.1812097783728
 21
164.9783653616832
 31
0.0
 11
292.0393891762631
 21
165.4157347335201
 31
0.0
 11
291.9131785494912
 21
165.8916534667397
 31
0.0
 11
291.811585888632
 21
166.373436717683
 31
0.0
 11
291.7298552794267
 21
166.8821479908859
 31
0.0
 11
291.6720750470201
 21
167.3941375145021
 31
0.0
 11
291.6367824560049
 21
167.9199531074426
 31
0.0
 11
291.6250956177539
 21
168.4468236467651
 31
0.0
 11
291.6367824560049
 21
168.9736941860876
 31
0.0
 11
291.6720750470201
 21
169.4995097790281
 31
0.0
 11
291.729855279427
 21
170.0114993026443
 31
0.0
 11
291.811585888632
 21
170.5202105758472
 31
0.0
 11
291.9131785494909
 21
171.0019938267914
 31
0.0
 11
292.0393891762631
 21
171.4779125600112
 31
0.0
 11
292.1812097783728
 21
171.9152819318478
 31
0.0
 11
292.3485632222939
 21
172.3435164413502
 31
0.0
 11
292.5258996018003
 21
172.7238847941768
 31
0.0
 11
292.729713929785
 21
173.0907212839481
 31
0.0
 11
292.9370512208275
 21
173.4035868104786
 31
0.0
 11
293.1712602273599
 21
173.6968236467651
 31
0.0
 11
293.4028345122567
 21
173.9340544764206
 31
0.0
 11
293.659785954201
 21
174.1434074162112
 31
0.0
 11
293.910382426626
 21
174.2989209808413
 31
0.0
 11
294.1804475033043
 21
174.416903370432
 31
0.0
 11
294.445209110187
 21
174.4852257246542
 31
0.0
 11
294.7174248369672
 21
174.5090014732562
 31
0.0
 11
294.9896405637478
 21
174.4852257246541
 31
0.0
 11
295.2544021706301
 21
174.416903370432
 31
0.0
 11
295.5244672473075
 21
174.2989209808408
 31
0.0
 11
295.7750637197321
 21
174.1434074162112
 31
0.0
 11
296.0320151616769
 21
173.9340544764206
 31
0.0
 11
296.2635894465741
 21
173.6968236467651
 31
0.0
 11
296.4977984531071
 21
173.4035868104786
 31
0.0
 11
296.705135744149
 21
173.0907212839481
 31
0.0
 11
296.9089500721331
 21
172.7238847941764
 31
0.0
 11
297.08628645164
 21
172.3435164413502
 31
0.0
 11
297.2536398955605
 21
171.9152819318478
 31
0.0
 11
297.3954604976709
 21
171.4779125600112
 31
0.0
 11
297.5216711244428
 21
171.0019938267914
 31
0.0
 11
297.623263785302
 21
170.5202105758472
 31
0.0
 11
297.7049943945082
 21
170.0114993026443
 31
0.0
 11
297.7627746269152
 21
169.4995097790281
 31
0.0
 11
297.7980672179299
 21
168.973694186088
 31
0.0
 11
297.8097540561801
 21
168.4468236467651
 31
0.0
 11
297.7980672179299
 21
167.9199531074426
 31
0.0
 11
297.7627746269152
 21
167.3941375145021
 31
0.0
 11
297.7049943945084
 21
166.8821479908859
 31
0.0
 11
297.623263785302
 21
166.373436717683
 31
0.0
 11
297.5216711244425
 21
165.8916534667397
 31
0.0
 11
297.3954604976709
 21
165.4157347335201
 31
0.0
 11
297.2536398955605
 21
164.9783653616832
 31
0.0
 11
297.08628645164
 21
164.55013085218
 31
0.0
 11
296.9089500721337
 21
164.1697624993543
 31
0.0
 11
296.705135744149
 21
163.8029260095832
 31
0.0
 11
296.4977984531071
 21
163.4900604830524
 31
0.0
 11
296.2635894465741
 21
163.1968236467651
 31
0.0
 11
296.0320151616766
 21
162.9595928171101
 31
0.0
 11
295.7750637197321
 21
162.7502398773202
 31
0.0
 11
295.5244672473068
 21
162.5947263126899
 31
0.0
 11
295.2544021706301
 21
162.4767439230982
 31
0.0
 11
294.9896405637479
 21
162.4084215688761
 31
0.0
 11
294.7174248369672
 21
162.3846458202741
 31
0.0
  0
ENDBLK
  5
4C
330
4A
100
AcDbEntity
  8
0
100
AcDbBlockEnd
  0
BLOCK
  5
4E
330
4D
100
AcDbEntity
  8
0
100
AcDbBlockBegin
  2
30-329-M11K
 70
     0
 71
     0
 10
2140.108391455012
 20
-191.974794190905
 30
0.0
  3
30-329-M11K
  1

  0
LINE
  5
244
330
4D
100
AcDbEntity
  8
1
  6
Continuous
 62
     7
100
AcDbLine
 10
325.1253944200491
 20
296.396260797881
 30
0.0
 11
325.6253944200491
 21
296.896260797881
 31
0.0
  0
LINE
  5
245
330
4D
100
AcDbEntity
  8
1
  6
Continuous
 62
     7
100
AcDbLine
 10
325.6253944200491
 20
314.2962607978811
 30
0.0
 11
325.1253944200491
 21
314.7962607978811
 31
0.0
  0
LINE
  5
246
330
4D
100
AcDbEntity
  8
1
  6
Continuous
 62
     7
100
AcDbLine
 10
317.1253944200491
 20
314.7962607978811
 30
0.0
 11
325.1253944200491
 21
314.7962607978811
 31
0.0
  0
LINE
  5
247
330
4D
100
AcDbEntity
  8
1
  6
Continuous
 62
     7
100
AcDbLine
 10
325.6253944200491
 20
314.2962607978811
 30
0.0
 11
325.6253944200491
 21
296.896260797881
 31
0.0
  0
LINE
  5
248
330
4D
100
AcDbEntity
  8
1
  6
Continuous
 62
     7
100
AcDbLine
 10
320.12539442005
 20
282.3744653469291
 30
0.0
 11
320.12539442005
 21
282.3744653469312
 31
0.0
  0
LINE
  5
249
330
4D
100
AcDbEntity
  8
1
  6
Continuous
 62
     7
100
AcDbLine
 10
325.1253944200491
 20
296.396260797881
 30
0.0
 11
321.1253944200491
 21
296.396260797881
 31
0.0
  0
LINE
  5
24A
330
4D
100
AcDbEntity
  8
1
  6
Continuous
 62
     7
100
AcDbLine
 10
284.1253944387292
 20
296.396260797881
 30
0.0
 11
283.6253944506991
 21
296.896260797881
 31
0.0
  0
LINE
  5
24B
330
4D
100
AcDbEntity
  8
1
  6
Continuous
 62
     7
100
AcDbLine
 10
283.6253944387292
 20
314.2962607978811
 30
0.0
 11
284.1253944387292
 21
314.7962607978811
 31
0.0
  0
LINE
  5
24C
330
4D
100
AcDbEntity
  8
1
  6
Continuous
 62
     7
100
AcDbLine
 10
283.6253948672563
 20
314.2962607978811
 30
0.0
 11
283.6253944506991
 21
296.896260797881
 31
0.0
  0
LINE
  5
24D
330
4D
100
AcDbEntity
  8
1
  6
Continuous
 62
     7
100
AcDbLine
 10
284.1253944387292
 20
296.396260797881
 30
0.0
 11
288.1253944200491
 21
296.396260797881
 31
0.0
  0
LINE
  5
24E
330
4D
100
AcDbEntity
  8
1
  6
Continuous
 62
     7
100
AcDbLine
 10
320.12539442005
 20
282.3744653469291
 30
0.0
 11
317.6982484809662
 21
268.6094367090482
 31
0.0
  0
LINE
  5
24F
330
4D
100
AcDbEntity
  8
1
  6
Continuous
 62
     7
100
AcDbLine
 10
292.6253944200491
 20
268.196260797881
 30
0.0
 11
292.0449442356382
 21
268.196260797881
 31
0.0
  0
LINE
  5
250
330
4D
100
AcDbEntity
  8
1
  6
Continuous
 62
     7
100
AcDbLine
 10
289.1253944200491
 20
295.396260797881
 30
0.0
 11
289.1253944200482
 21
282.3744653469312
 31
0.0
  0
LINE
  5
251
330
4D
100
AcDbEntity
  8
1
  6
Continuous
 62
     7
100
AcDbLine
 10
291.5525403591312
 20
268.6094367090482
 30
0.0
 11
289.1253944200482
 21
282.3744653469312
 31
0.0
  0
LINE
  5
252
330
4D
100
AcDbEntity
  8
1
  6
Continuous
 62
     7
100
AcDbLine
 10
292.62539442005
 20
315.2962607978811
 30
0.0
 11
292.62539442005
 21
315.4962607978812
 31
0.0
  0
LINE
  5
253
330
4D
100
AcDbEntity
  8
1
  6
Continuous
 62
     7
100
AcDbLine
 10
292.12539442005
 20
314.7962607978811
 30
0.0
 11
284.1253944387292
 21
314.7962607978811
 31
0.0
  0
LINE
  5
254
330
4D
100
AcDbEntity
  8
1
  6
Continuous
 62
     7
100
AcDbLine
 10
317.20584460446
 20
268.196260797881
 30
0.0
 11
316.6253944200491
 21
268.196260797881
 31
0.0
  0
LINE
  5
255
330
4D
100
AcDbEntity
  8
1
  6
Continuous
 62
     7
100
AcDbLine
 10
292.6253944200491
 20
268.196260797881
 30
0.0
 11
316.6253944200491
 21
268.196260797881
 31
0.0
  0
LINE
  5
256
330
4D
100
AcDbEntity
  8
1
  6
Continuous
 62
     7
100
AcDbLine
 10
289.1253944200482
 20
282.3744653469312
 30
0.0
 11
320.12539442005
 21
282.3744653469312
 31
0.0
  0
LINE
  5
257
330
4D
100
AcDbEntity
  8
1
  6
Continuous
 62
     7
100
AcDbLine
 10
320.12539442005
 20
282.3744653469312
 30
0.0
 11
320.1253944200491
 21
295.396260797881
 31
0.0
  0
LINE
  5
258
330
4D
100
AcDbEntity
  8
1
  6
Continuous
 62
     7
100
AcDbLine
 10
288.1253944200491
 20
296.396260797881
 30
0.0
 11
321.1253944200491
 21
296.396260797881
 31
0.0
  0
LINE
  5
259
330
4D
100
AcDbEntity
  8
1
  6
Continuous
 62
     7
100
AcDbLine
 10
283.6253948672563
 20
314.2962607978811
 30
0.0
 11
295.244562900403
 21
314.2962607978811
 31
0.0
  0
LINE
  5
25A
330
4D
100
AcDbEntity
  8
1
  6
Continuous
 62
     7
100
AcDbLine
 10
317.1253944200491
 20
314.7962607978811
 30
0.0
 11
312.7031416307511
 21
314.7962607978811
 31
0.0
  0
LINE
  5
25B
330
4D
100
AcDbEntity
  8
1
  6
Continuous
 62
     7
100
AcDbLine
 10
316.6253944200491
 20
315.4962607978812
 30
0.0
 11
316.6253944200491
 21
315.2962607978811
 31
0.0
  0
LINE
  5
25C
330
4D
100
AcDbEntity
  8
1
  6
Continuous
 62
     7
100
AcDbLine
 10
314.0062259396962
 20
314.2962607978811
 30
0.0
 11
312.7031416307511
 21
314.7962607978811
 31
0.0
  0
LINE
  5
25D
330
4D
100
AcDbEntity
  8
1
  6
Continuous
 62
     7
100
AcDbLine
 10
314.0062259396962
 20
314.2962607978811
 30
0.0
 11
325.6253944200491
 21
314.2962607978811
 31
0.0
  0
LINE
  5
25E
330
4D
100
AcDbEntity
  8
1
  6
Continuous
 62
     7
100
AcDbLine
 10
312.7031416307511
 20
314.7962607978811
 30
0.0
 11
292.12539442005
 21
314.7962607978811
 31
0.0
  0
LINE
  5
25F
330
4D
100
AcDbEntity
  8
1
  6
Continuous
 62
     7
100
AcDbLine
 10
296.547647209348
 20
314.7962607978811
 30
0.0
 11
295.244562900403
 21
314.2962607978811
 31
0.0
  0
LINE
  5
260
330
4D
100
AcDbEntity
  8
1
  6
Continuous
 62
     7
100
AcDbLine
 10
312.7031416307511
 20
296.396260797881
 30
0.0
 11
314.0062259396962
 21
296.896260797881
 31
0.0
  0
LINE
  5
261
330
4D
100
AcDbEntity
  8
1
  6
Continuous
 62
     7
100
AcDbLine
 10
295.244562900403
 20
296.896260797881
 30
0.0
 11
296.547647209348
 21
296.396260797881
 31
0.0
  0
LINE
  5
262
330
4D
100
AcDbEntity
  8
1
  6
Continuous
 62
     7
100
AcDbLine
 10
295.244562900403
 20
296.896260797881
 30
0.0
 11
283.6253944506991
 21
296.896260797881
 31
0.0
  0
LINE
  5
263
330
4D
100
AcDbEntity
  8
1
  6
Continuous
 62
     7
100
AcDbLine
 10
325.6253944200491
 20
296.896260797881
 30
0.0
 11
314.0062259396962
 21
296.896260797881
 31
0.0
  0
LINE
  5
264
330
4D
100
AcDbEntity
  8
1
  6
Continuous
 62
     7
100
AcDbLine
 10
295.244562900403
 20
314.2962607978811
 30
0.0
 11
295.244562900403
 21
296.896260797881
 31
0.0
  0
LINE
  5
265
330
4D
100
AcDbEntity
  8
1
  6
Continuous
 62
     7
100
AcDbLine
 10
314.0062259396962
 20
296.896260797881
 30
0.0
 11
314.0062259396962
 21
314.2962607978811
 31
0.0
  0
LINE
  5
266
330
4D
100
AcDbEntity
  8
1
  6
Continuous
 62
     7
100
AcDbLine
 10
160.0427304949701
 20
296.896260797881
 30
0.0
 11
159.249412558089
 21
296.896260797881
 31
0.0
  0
LINE
  5
267
330
4D
100
AcDbEntity
  8
1
  6
Continuous
 62
     7
100
AcDbLine
 10
118.0427309421773
 20
314.2962607978811
 30
0.0
 11
118.8360484318503
 21
314.2962607978811
 31
0.0
  0
LINE
  5
268
330
4D
100
AcDbEntity
  8
1
  6
Continuous
 62
     7
100
AcDbLine
 10
154.542730494971
 20
282.3744653469312
 30
0.0
 11
154.5427304949701
 21
289.9837658018851
 31
0.0
  0
LINE
  5
269
330
4D
100
AcDbEntity
  8
1
  6
Continuous
 62
     7
100
AcDbLine
 10
123.5427304949692
 20
282.3744653469312
 30
0.0
 11
154.542730494971
 21
282.3744653469312
 31
0.0
  0
LINE
  5
26A
330
4D
100
AcDbEntity
  8
1
  6
Continuous
 62
     7
100
AcDbLine
 10
127.0427304949701
 20
268.196260797881
 30
0.0
 11
151.0427304949701
 21
268.196260797881
 31
0.0
  0
LINE
  5
26B
330
4D
100
AcDbEntity
  8
1
  6
Continuous
 62
     7
100
AcDbLine
 10
151.623180679381
 20
268.196260797881
 30
0.0
 11
151.0427304949701
 21
268.196260797881
 31
0.0
  0
LINE
  5
26C
330
4D
100
AcDbEntity
  8
1
  6
Continuous
 62
     7
100
AcDbLine
 10
125.9698764340521
 20
268.6094367090482
 30
0.0
 11
123.5427304949692
 21
282.3744653469312
 31
0.0
  0
LINE
  5
26D
330
4D
100
AcDbEntity
  8
1
  6
Continuous
 62
     7
100
AcDbLine
 10
127.0427304949701
 20
268.196260797881
 30
0.0
 11
126.4622803105592
 21
268.196260797881
 31
0.0
  0
LINE
  5
26E
330
4D
100
AcDbEntity
  8
1
  6
Continuous
 62
     7
100
AcDbLine
 10
154.542730494971
 20
282.3744653469291
 30
0.0
 11
152.1155845558872
 21
268.6094367090482
 31
0.0
  0
LINE
  5
26F
330
4D
100
AcDbEntity
  8
1
  6
Continuous
 62
     7
100
AcDbLine
 10
118.5427305136502
 20
296.396260797881
 30
0.0
 11
119.0587369000953
 21
296.396260797881
 31
0.0
  0
LINE
  5
270
330
4D
100
AcDbEntity
  8
1
  6
Continuous
 62
     7
100
AcDbLine
 10
118.0427309421773
 20
314.2962607978811
 30
0.0
 11
118.0427308908841
 21
312.1537005900862
 31
0.0
  0
LINE
  5
271
330
4D
100
AcDbEntity
  8
1
  6
Continuous
 62
     7
100
AcDbLine
 10
118.0427305136502
 20
314.2962607978811
 30
0.0
 11
118.5427305136502
 21
314.7962607978811
 31
0.0
  0
LINE
  5
272
330
4D
100
AcDbEntity
  8
1
  6
Continuous
 62
     7
100
AcDbLine
 10
118.5427305136502
 20
296.396260797881
 30
0.0
 11
118.0427305256201
 21
296.896260797881
 31
0.0
  0
LINE
  5
273
330
4D
100
AcDbEntity
  8
1
  6
Continuous
 62
     7
100
AcDbLine
 10
159.5427304949701
 20
296.396260797881
 30
0.0
 11
159.026724089845
 21
296.396260797881
 31
0.0
  0
LINE
  5
274
330
4D
100
AcDbEntity
  8
1
  6
Continuous
 62
     7
100
AcDbLine
 10
154.542730494971
 20
282.3744653469291
 30
0.0
 11
154.542730494971
 21
282.3744653469312
 31
0.0
  0
LINE
  5
275
330
4D
100
AcDbEntity
  8
1
  6
Continuous
 62
     7
100
AcDbLine
 10
160.0427304949701
 20
314.2962607978811
 30
0.0
 11
160.0427304949701
 21
312.153699322183
 31
0.0
  0
LINE
  5
276
330
4D
100
AcDbEntity
  8
1
  6
Continuous
 62
     7
100
AcDbLine
 10
160.0427304949701
 20
314.2962607978811
 30
0.0
 11
159.5427304949701
 21
314.7962607978811
 31
0.0
  0
LINE
  5
277
330
4D
100
AcDbEntity
  8
1
  6
Continuous
 62
     7
100
AcDbLine
 10
159.5427304949701
 20
296.396260797881
 30
0.0
 11
160.0427304949701
 21
296.896260797881
 31
0.0
  0
LINE
  5
278
330
4D
100
AcDbEntity
  8
1
  6
Continuous
 62
     7
100
AcDbLine
 10
159.026724089845
 20
314.7962607978811
 30
0.0
 11
159.5427304949701
 21
314.7962607978811
 31
0.0
  0
LINE
  5
279
330
4D
100
AcDbEntity
  8
1
  6
Continuous
 62
     7
100
AcDbLine
 10
159.249412558089
 20
314.2962607978811
 30
0.0
 11
160.0427304949701
 21
314.2962607978811
 31
0.0
  0
LINE
  5
27A
330
4D
100
AcDbEntity
  8
1
  6
Continuous
 62
     7
100
AcDbLine
 10
160.0427304949701
 20
299.0388222735792
 30
0.0
 11
160.0427304949701
 21
296.896260797881
 31
0.0
  0
LINE
  5
27B
330
4D
100
AcDbEntity
  8
1
  6
Continuous
 62
     7
100
AcDbLine
 10
123.5427304949701
 20
289.9837658018851
 30
0.0
 11
123.5427304949692
 21
282.3744653469312
 31
0.0
  0
LINE
  5
27C
330
4D
100
AcDbEntity
  8
1
  6
Continuous
 62
     7
100
AcDbLine
 10
118.8360484318503
 20
296.896260797881
 30
0.0
 11
118.0427305256201
 21
296.896260797881
 31
0.0
  0
LINE
  5
27D
330
4D
100
AcDbEntity
  8
1
  6
Continuous
 62
     7
100
AcDbLine
 10
118.0427305769133
 20
299.038822011159
 30
0.0
 11
118.0427305256201
 21
296.896260797881
 31
0.0
  0
LINE
  5
27E
330
4D
100
AcDbEntity
  8
1
  6
Continuous
 62
     7
100
AcDbLine
 10
119.0587369000953
 20
314.7962607978811
 30
0.0
 11
118.5427305136502
 21
314.7962607978811
 31
0.0
  0
LINE
  5
27F
330
4D
100
AcDbEntity
  8
1
  6
Continuous
 62
     7
100
AcDbLine
 10
118.0427304949701
 20
483.985920937097
 30
0.0
 11
118.0427304949701
 21
478.60508941745
 31
0.0
  0
LINE
  5
280
330
4D
100
AcDbEntity
  8
1
  6
Continuous
 62
     7
100
AcDbLine
 10
129.6618989753231
 20
495.60508941745
 30
0.0
 11
148.4235620146171
 21
495.60508941745
 31
0.0
  0
LINE
  5
281
330
4D
100
AcDbEntity
  8
1
  6
Continuous
 62
     7
100
AcDbLine
 10
160.0427304949701
 20
465.224257897803
 30
0.0
 11
160.0427304949701
 21
483.985920937097
 31
0.0
  0
LINE
  5
282
330
4D
100
AcDbEntity
  8
1
  6
Continuous
 62
     7
100
AcDbLine
 10
129.6618989753231
 20
453.60508941745
 30
0.0
 11
132.0427305472001
 21
453.605089483128
 31
0.0
  0
LINE
  5
283
330
4D
100
AcDbEntity
  8
1
  6
Continuous
 62
     7
100
AcDbLine
 10
146.0427304949701
 20
453.60508941745
 30
0.0
 11
148.4235620146171
 21
453.60508941745
 31
0.0
  0
LINE
  5
284
330
4D
100
AcDbEntity
  8
1
  6
Continuous
 62
     7
100
AcDbLine
 10
132.0427305472001
 20
453.605089483128
 30
0.0
 11
146.0427304949701
 21
453.60508941745
 31
0.0
  0
LINE
  5
285
330
4D
100
AcDbEntity
  8
1
  6
Continuous
 62
     7
100
AcDbLine
 10
118.0427304949701
 20
470.60508941745
 30
0.0
 11
118.0427304949701
 21
465.224257897803
 31
0.0
  0
ARC
  5
286
330
4D
100
AcDbEntity
  8
1
  6
Continuous
 62
     7
100
AcDbCircle
 10
139.0427304949701
 20
474.60508941745
 30
0.0
 40
23.00000000000005
100
AcDbArc
 50
114.0706146225668
 51
134.9999999999983
  0
ARC
  5
287
330
4D
100
AcDbEntity
  8
1
  6
Continuous
 62
     7
100
AcDbCircle
 10
139.0427304949701
 20
474.60508941745
 30
0.0
 40
22.99999999999999
100
AcDbArc
 50
134.9999999999983
 51
155.9293853774333
  0
ARC
  5
288
330
4D
100
AcDbEntity
  8
1
  6
Continuous
 62
     7
100
AcDbCircle
 10
139.0427304949701
 20
474.60508941745
 30
0.0
 40
23.00000000000004
100
AcDbArc
 50
24.07061462256674
 51
65.92938537743319
  0
ARC
  5
289
330
4D
100
AcDbEntity
  8
1
  6
Continuous
 62
     7
100
AcDbCircle
 10
139.0427304949701
 20
474.60508941745
 30
0.0
 40
23.00000000000005
100
AcDbArc
 50
-65.92938537743319
 51
-24.07061462256687
  0
ARC
  5
28A
330
4D
100
AcDbEntity
  8
1
  6
Continuous
 62
     7
100
AcDbCircle
 10
139.0427304949701
 20
474.60508941745
 30
0.0
 40
23.00000000000006
100
AcDbArc
 50
-155.9293853774331
 51
-114.0706146225668
  0
ARC
  5
28B
330
4D
100
AcDbEntity
  8
1
  6
Continuous
 62
     7
100
AcDbCircle
 10
139.0427304949701
 20
474.60508941745
 30
0.0
 40
22.50000003932551
100
AcDbArc
 50
111.0394700416588
 51
158.9605268534561
  0
ARC
  5
28C
330
4D
100
AcDbEntity
  8
1
  6
Continuous
 62
     7
100
AcDbCircle
 10
139.0427304949701
 20
474.60508941745
 30
0.0
 40
22.5000000393254
100
AcDbArc
 50
-158.960529958342
 51
-111.0394702966327
  0
ARC
  5
28D
330
4D
100
AcDbEntity
  8
1
  6
Continuous
 62
     7
100
AcDbCircle
 10
139.0427304949701
 20
474.60508941745
 30
0.0
 40
22.50000003932582
100
AcDbArc
 50
-68.96052995833912
 51
-21.03947004166021
  0
ARC
  5
28E
330
4D
100
AcDbEntity
  8
1
  6
Continuous
 62
     7
100
AcDbCircle
 10
139.0427304949701
 20
474.60508941745
 30
0.0
 40
22.5000000393255
100
AcDbArc
 50
21.03947004165872
 51
68.96052995834121
  0
ARC
  5
28F
330
4D
100
AcDbEntity
  8
1
  6
Continuous
 62
     7
100
AcDbCircle
 10
321.1253944200491
 20
295.396260797881
 30
0.0
 40
1.0
100
AcDbArc
 50
90.0
 51
180.0
  0
ARC
  5
290
330
4D
100
AcDbEntity
  8
1
  6
Continuous
 62
     7
100
AcDbCircle
 10
288.1253944200491
 20
295.396260797881
 30
0.0
 40
1.0
100
AcDbArc
 50
0.0
 51
90.0
  0
ARC
  5
291
330
4D
100
AcDbEntity
  8
1
  6
Continuous
 62
     7
100
AcDbCircle
 10
292.12539442005
 20
315.2962607978811
 30
0.0
 40
0.5
100
AcDbArc
 50
-90.0
 51
0.0
  0
ARC
  5
292
330
4D
100
AcDbEntity
  8
1
  6
Continuous
 62
     7
100
AcDbCircle
 10
317.1253944200491
 20
315.2962607978811
 30
0.0
 40
0.5
100
AcDbArc
 50
180.0
 51
-90.0
  0
ARC
  5
293
330
4D
100
AcDbEntity
  8
1
  6
Continuous
 62
     7
100
AcDbCircle
 10
292.0449442356382
 20
268.696260797881
 30
0.0
 40
0.5000000000007178
100
AcDbArc
 50
-170.0000000000954
 51
-90.0
  0
ARC
  5
294
330
4D
100
AcDbEntity
  8
1
  6
Continuous
 62
     7
100
AcDbCircle
 10
317.20584460446
 20
268.696260797881
 30
0.0
 40
0.5
100
AcDbArc
 50
-90.0
 51
-9.9999999999205
  0
ARC
  5
295
330
4D
100
AcDbEntity
  8
1
  6
Continuous
 62
     7
100
AcDbCircle
 10
151.623180679381
 20
268.696260797881
 30
0.0
 40
0.5
100
AcDbArc
 50
-90.0
 51
-9.99999999991937
  0
ARC
  5
296
330
4D
100
AcDbEntity
  8
1
  6
Continuous
 62
     7
100
AcDbCircle
 10
126.4622803105592
 20
268.696260797881
 30
0.0
 40
0.5000000000008578
100
AcDbArc
 50
-170.0000000000982
 51
-90.0
  0
ENDBLK
  5
4F
330
4D
100
AcDbEntity
  8
0
100
AcDbBlockEnd
  0
BLOCK
  5
51
330
50
100
AcDbEntity
  8
0
100
AcDbBlockBegin
  2
33-333-M11K
 70
     0
 71
     0
 10
650.4564743387371
 20
-490.7388748086769
 30
0.0
  3
33-333-M11K
  1

  0
LINE
  5
297
330
50
100
AcDbEntity
  8
1
  6
Continuous
 62
     7
100
AcDbLine
 10
259.0253944200492
 20
298.0962607978802
 30
0.0
 11
259.1253944200491
 21
298.0962607978811
 31
0.0
  0
LINE
  5
298
330
50
100
AcDbEntity
  8
1
  6
Continuous
 62
     7
100
AcDbLine
 10
259.0253944200492
 20
313.096260797882
 30
0.0
 11
259.1253944200491
 21
313.096260797882
 31
0.0
  0
LINE
  5
299
330
50
100
AcDbEntity
  8
1
  6
Continuous
 62
     7
100
AcDbLine
 10
283.6253944387292
 20
313.9962607978812
 30
0.0
 11
261.6253944200491
 21
313.9962607978812
 31
0.0
  0
LINE
  5
29A
330
50
100
AcDbEntity
  8
1
  6
Continuous
 62
     7
100
AcDbLine
 10
261.6253944200491
 20
313.9962607978812
 30
0.0
 11
261.6253944200491
 21
313.096260797882
 31
0.0
  0
LINE
  5
29B
330
50
100
AcDbEntity
  8
1
  6
Continuous
 62
     7
100
AcDbLine
 10
261.6253944200491
 20
298.0962607978802
 30
0.0
 11
261.6253944200491
 21
297.196260797881
 31
0.0
  0
LINE
  5
29C
330
50
100
AcDbEntity
  8
1
  6
Continuous
 62
     7
100
AcDbLine
 10
261.6253944200491
 20
297.196260797881
 30
0.0
 11
283.6253944387292
 21
297.196260797881
 31
0.0
  0
LINE
  5
29D
330
50
100
AcDbEntity
  8
0
  6
Continuous
 62
     7
100
AcDbLine
 10
239.0253944200492
 20
298.8462607978811
 30
0.0
 11
239.0253944200492
 21
298.7462607978812
 31
0.0
  0
LINE
  5
29E
330
50
100
AcDbEntity
  8
0
  6
Continuous
 62
     7
100
AcDbLine
 10
259.0253944200492
 20
313.9962607978812
 30
0.0
 11
257.453821544794
 21
313.9962607978812
 31
0.0
  0
LINE
  5
29F
330
50
100
AcDbEntity
  8
0
  6
Continuous
 62
     7
100
AcDbLine
 10
248.3557271293782
 20
313.446260797881
 30
0.0
 11
247.7917168631691
 21
313.446260797881
 31
0.0
  0
LINE
  5
2A0
330
50
100
AcDbEntity
  8
0
  6
Continuous
 62
     7
100
AcDbLine
 10
250.0253944200492
 20
313.446260797881
 30
0.0
 11
240.0253944200492
 21
313.446260797881
 31
0.0
  0
LINE
  5
2A1
330
50
100
AcDbEntity
  8
0
  6
Continuous
 62
     7
100
AcDbLine
 10
250.5253944200492
 20
297.196260797881
 30
0.0
 11
251.4253944200493
 21
297.196260797881
 31
0.0
  0
LINE
  5
2A2
330
50
100
AcDbEntity
  8
0
  6
Continuous
 62
     7
100
AcDbLine
 10
250.0253944200492
 20
297.7462607978812
 30
0.0
 11
250.5253944200492
 21
297.196260797881
 31
0.0
  0
LINE
  5
2A3
330
50
100
AcDbEntity
  8
0
  6
Continuous
 62
     7
100
AcDbLine
 10
256.039607982422
 20
313.4104743602541
 30
0.0
 11
255.0253944200492
 21
312.396260797881
 31
0.0
  0
LINE
  5
2A4
330
50
100
AcDbEntity
  8
0
  6
Continuous
 62
     7
100
AcDbLine
 10
259.0253944200492
 20
313.9962607978812
 30
0.0
 11
259.0253944200492
 21
313.096260797882
 31
0.0
  0
LINE
  5
2A5
330
50
100
AcDbEntity
  8
0
  6
Continuous
 62
     7
100
AcDbLine
 10
250.5253944200492
 20
313.9962607978812
 30
0.0
 11
250.0253944200492
 21
313.446260797881
 31
0.0
  0
LINE
  5
2A6
330
50
100
AcDbEntity
  8
0
  6
Continuous
 62
     7
100
AcDbLine
 10
251.4253944200493
 20
313.9962607978812
 30
0.0
 11
253.0253944200492
 21
312.396260797881
 31
0.0
  0
LINE
  5
2A7
330
50
100
AcDbEntity
  8
0
  6
Continuous
 62
     7
100
AcDbLine
 10
251.4253944200493
 20
313.9962607978812
 30
0.0
 11
250.5253944200492
 21
313.9962607978812
 31
0.0
  0
LINE
  5
2A8
330
50
100
AcDbEntity
  8
0
  6
Continuous
 62
     7
100
AcDbLine
 10
255.0253944200492
 20
312.396260797881
 30
0.0
 11
253.0253944200492
 21
312.396260797881
 31
0.0
  0
LINE
  5
2A9
330
50
100
AcDbEntity
  8
0
  6
Continuous
 62
     7
100
AcDbLine
 10
255.0253944200492
 20
298.7962607978811
 30
0.0
 11
256.039607982422
 21
297.7820472355081
 31
0.0
  0
LINE
  5
2AA
330
50
100
AcDbEntity
  8
0
  6
Continuous
 62
     7
100
AcDbLine
 10
257.4538215447949
 20
297.196260797881
 30
0.0
 11
259.0253944200492
 21
297.196260797881
 31
0.0
  0
LINE
  5
2AB
330
50
100
AcDbEntity
  8
0
  6
Continuous
 62
     7
100
AcDbLine
 10
259.0253944200492
 20
298.0962607978802
 30
0.0
 11
259.0253944200492
 21
297.196260797881
 31
0.0
  0
LINE
  5
2AC
330
50
100
AcDbEntity
  8
0
  6
Continuous
 62
     7
100
AcDbLine
 10
240.0253944200492
 20
297.7462607978812
 30
0.0
 11
250.0253944200492
 21
297.7462607978812
 31
0.0
  0
LINE
  5
2AD
330
50
100
AcDbEntity
  8
0
  6
Continuous
 62
     7
100
AcDbLine
 10
253.0253944200492
 20
298.7962607978811
 30
0.0
 11
251.4253944200493
 21
297.196260797881
 31
0.0
  0
LINE
  5
2AE
330
50
100
AcDbEntity
  8
0
  6
Continuous
 62
     7
100
AcDbLine
 10
253.0253944200492
 20
298.7962607978811
 30
0.0
 11
255.0253944200492
 21
298.7962607978811
 31
0.0
  0
LINE
  5
2AF
330
50
100
AcDbEntity
  8
1
  6
Continuous
 62
     7
100
AcDbLine
 10
261.6253944200491
 20
313.096260797882
 30
0.0
 11
261.6253944200491
 21
298.0962607978802
 31
0.0
  0
LINE
  5
2B0
330
50
100
AcDbEntity
  8
1
  6
Continuous
 62
     7
100
AcDbLine
 10
259.0253944200492
 20
298.0962607978802
 30
0.0
 11
259.0253944200492
 21
313.096260797882
 31
0.0
  0
LINE
  5
2B1
330
50
100
AcDbEntity
  8
1
  6
Continuous
 62
     7
100
AcDbLine
 10
255.0253944200492
 20
312.396260797881
 30
0.0
 11
255.0253944200492
 21
298.7962607978811
 31
0.0
  0
LINE
  5
2B2
330
50
100
AcDbEntity
  8
1
  6
Continuous
 62
     7
100
AcDbLine
 10
253.0253944200492
 20
298.7962607978811
 30
0.0
 11
253.0253944200492
 21
312.396260797881
 31
0.0
  0
LINE
  5
2B3
330
50
100
AcDbEntity
  8
1
  6
Continuous
 62
     7
100
AcDbLine
 10
251.4253944200493
 20
313.9962607978812
 30
0.0
 11
251.4253944200493
 21
297.196260797881
 31
0.0
  0
LINE
  5
2B4
330
50
100
AcDbEntity
  8
1
  6
Continuous
 62
     7
100
AcDbLine
 10
250.5253944200492
 20
297.196260797881
 30
0.0
 11
250.5253944200492
 21
313.9962607978812
 31
0.0
  0
LINE
  5
2B5
330
50
100
AcDbEntity
  8
1
  6
Continuous
 62
     7
100
AcDbLine
 10
250.0253944200492
 20
313.446260797881
 30
0.0
 11
250.0253944200492
 21
297.7462607978812
 31
0.0
  0
LINE
  5
2B6
330
50
100
AcDbEntity
  8
1
  6
Continuous
 62
     7
100
AcDbLine
 10
239.0253944200492
 20
298.8462607978811
 30
0.0
 11
239.0253944200492
 21
312.446260797881
 31
0.0
  0
LINE
  5
2B7
330
50
100
AcDbEntity
  8
1
  6
Continuous
 62
     7
100
AcDbLine
 10
145.7927304949701
 20
409.00508939877
 30
0.0
 11
132.1927304949702
 21
409.00508939877
 31
0.0
  0
LINE
  5
2B8
330
50
100
AcDbEntity
  8
1
  6
Continuous
 62
     7
100
AcDbLine
 10
131.1927304949702
 20
420.00508939877
 30
0.0
 11
146.89273049497
 21
420.00508939877
 31
0.0
  0
LINE
  5
2B9
330
50
100
AcDbEntity
  8
1
  6
Continuous
 62
     7
100
AcDbLine
 10
147.4427304949702
 20
420.50508939877
 30
0.0
 11
130.64273049497
 21
420.50508939877
 31
0.0
  0
LINE
  5
2BA
330
50
100
AcDbEntity
  8
1
  6
Continuous
 62
     7
100
AcDbLine
 10
130.64273049497
 20
421.4050893987701
 30
0.0
 11
147.4427304949702
 21
421.4050893987701
 31
0.0
  0
LINE
  5
2BB
330
50
100
AcDbEntity
  8
1
  6
Continuous
 62
     7
100
AcDbLine
 10
145.8427304949703
 20
423.00508939877
 30
0.0
 11
132.2427304949699
 21
423.00508939877
 31
0.0
  0
LINE
  5
2BC
330
50
100
AcDbEntity
  8
1
  6
Continuous
 62
     7
100
AcDbLine
 10
132.2427304949699
 20
425.00508939877
 30
0.0
 11
145.8427304949703
 21
425.00508939877
 31
0.0
  0
LINE
  5
2BD
330
50
100
AcDbEntity
  8
1
  6
Continuous
 62
     7
100
AcDbLine
 10
146.542730494971
 20
429.00508939877
 30
0.0
 11
131.5427304949692
 21
429.00508939877
 31
0.0
  0
LINE
  5
2BE
330
50
100
AcDbEntity
  8
1
  6
Continuous
 62
     7
100
AcDbLine
 10
131.5427304949692
 20
431.6050893987701
 30
0.0
 11
146.542730494971
 21
431.6050893987701
 31
0.0
  0
LINE
  5
2BF
330
50
100
AcDbEntity
  8
0
  6
Continuous
 62
     7
100
AcDbLine
 10
145.8427304949703
 20
423.00508939877
 30
0.0
 11
145.8427304949703
 21
425.00508939877
 31
0.0
  0
LINE
  5
2C0
330
50
100
AcDbEntity
  8
0
  6
Continuous
 62
     7
100
AcDbLine
 10
145.8427304949703
 20
423.00508939877
 30
0.0
 11
147.4427304949702
 21
421.4050893987701
 31
0.0
  0
LINE
  5
2C1
330
50
100
AcDbEntity
  8
0
  6
Continuous
 62
     7
100
AcDbLine
 10
146.89273049497
 20
410.00508939877
 30
0.0
 11
146.89273049497
 21
420.00508939877
 31
0.0
  0
LINE
  5
2C2
330
50
100
AcDbEntity
  8
0
  6
Continuous
 62
     7
100
AcDbLine
 10
146.542730494971
 20
429.00508939877
 30
0.0
 11
147.4427304949702
 21
429.00508939877
 31
0.0
  0
LINE
  5
2C3
330
50
100
AcDbEntity
  8
0
  6
Continuous
 62
     7
100
AcDbLine
 10
147.4427304949702
 20
427.4335165235161
 30
0.0
 11
147.4427304949702
 21
429.00508939877
 31
0.0
  0
LINE
  5
2C4
330
50
100
AcDbEntity
  8
0
  6
Continuous
 62
     7
100
AcDbLine
 10
145.8427304949703
 20
425.00508939877
 30
0.0
 11
146.8569440573431
 21
426.019302961143
 31
0.0
  0
LINE
  5
2C5
330
50
100
AcDbEntity
  8
0
  6
Continuous
 62
     7
100
AcDbLine
 10
132.2427304949699
 20
425.00508939877
 30
0.0
 11
132.2427304949699
 21
423.00508939877
 31
0.0
  0
LINE
  5
2C6
330
50
100
AcDbEntity
  8
0
  6
Continuous
 62
     7
100
AcDbLine
 10
130.64273049497
 20
421.4050893987701
 30
0.0
 11
130.64273049497
 21
420.50508939877
 31
0.0
  0
LINE
  5
2C7
330
50
100
AcDbEntity
  8
0
  6
Continuous
 62
     7
100
AcDbLine
 10
130.64273049497
 20
421.4050893987701
 30
0.0
 11
132.2427304949699
 21
423.00508939877
 31
0.0
  0
LINE
  5
2C8
330
50
100
AcDbEntity
  8
0
  6
Continuous
 62
     7
100
AcDbLine
 10
130.64273049497
 20
420.50508939877
 30
0.0
 11
131.1927304949702
 21
420.00508939877
 31
0.0
  0
LINE
  5
2C9
330
50
100
AcDbEntity
  8
0
  6
Continuous
 62
     7
100
AcDbLine
 10
130.64273049497
 20
429.00508939877
 30
0.0
 11
131.5427304949692
 21
429.00508939877
 31
0.0
  0
LINE
  5
2CA
330
50
100
AcDbEntity
  8
0
  6
Continuous
 62
     7
100
AcDbLine
 10
131.2285169325971
 20
426.019302961143
 30
0.0
 11
132.2427304949699
 21
425.00508939877
 31
0.0
  0
LINE
  5
2CB
330
50
100
AcDbEntity
  8
0
  6
Continuous
 62
     7
100
AcDbLine
 10
146.89273049497
 20
420.00508939877
 30
0.0
 11
147.4427304949702
 21
420.50508939877
 31
0.0
  0
LINE
  5
2CC
330
50
100
AcDbEntity
  8
0
  6
Continuous
 62
     7
100
AcDbLine
 10
147.4427304949702
 20
420.50508939877
 30
0.0
 11
147.4427304949702
 21
421.4050893987701
 31
0.0
  0
LINE
  5
2CD
330
50
100
AcDbEntity
  8
0
  6
Continuous
 62
     7
100
AcDbLine
 10
131.1927304949702
 20
420.00508939877
 30
0.0
 11
131.1927304949702
 21
410.00508939877
 31
0.0
  0
LINE
  5
2CE
330
50
100
AcDbEntity
  8
0
  6
Continuous
 62
     7
100
AcDbLine
 10
131.1927304949702
 20
418.335422108099
 30
0.0
 11
131.1927304949702
 21
417.7714118418901
 31
0.0
  0
LINE
  5
2CF
330
50
100
AcDbEntity
  8
0
  6
Continuous
 62
     7
100
AcDbLine
 10
130.64273049497
 20
429.00508939877
 30
0.0
 11
130.64273049497
 21
427.433516523515
 31
0.0
  0
LINE
  5
2D0
330
50
100
AcDbEntity
  8
0
  6
Continuous
 62
     7
100
AcDbLine
 10
145.7927304949701
 20
409.00508939877
 30
0.0
 11
145.89273049497
 21
409.00508939877
 31
0.0
  0
LINE
  5
2D1
330
50
100
AcDbEntity
  8
1
  6
Continuous
 62
     7
100
AcDbLine
 10
147.4427304949702
 20
431.6050893987701
 30
0.0
 11
147.4427304949702
 21
453.60508941745
 31
0.0
  0
LINE
  5
2D2
330
50
100
AcDbEntity
  8
1
  6
Continuous
 62
     7
100
AcDbLine
 10
146.542730494971
 20
431.6050893987701
 30
0.0
 11
147.4427304949702
 21
431.6050893987701
 31
0.0
  0
LINE
  5
2D3
330
50
100
AcDbEntity
  8
1
  6
Continuous
 62
     7
100
AcDbLine
 10
130.64273049497
 20
431.6050893987701
 30
0.0
 11
131.5427304949692
 21
431.6050893987701
 31
0.0
  0
LINE
  5
2D4
330
50
100
AcDbEntity
  8
1
  6
Continuous
 62
     7
100
AcDbLine
 10
130.64273049497
 20
453.60508941745
 30
0.0
 11
130.64273049497
 21
431.6050893987701
 31
0.0
  0
LINE
  5
2D5
330
50
100
AcDbEntity
  8
1
  6
Continuous
 62
     7
100
AcDbLine
 10
131.5427304949692
 20
429.00508939877
 30
0.0
 11
131.5427304949692
 21
429.1050893987701
 31
0.0
  0
LINE
  5
2D6
330
50
100
AcDbEntity
  8
1
  6
Continuous
 62
     7
100
AcDbLine
 10
146.542730494971
 20
429.00508939877
 30
0.0
 11
146.5427304949701
 21
429.1050893987701
 31
0.0
  0
CIRCLE
  5
2D7
330
50
100
AcDbEntity
  8
1
  6
Continuous
 62
     7
100
AcDbCircle
 10
139.0427304949701
 20
305.5962607978811
 30
0.0
 40
7.849999999999909
  0
CIRCLE
  5
2D8
330
50
100
AcDbEntity
  8
1
  6
Continuous
 62
     7
100
AcDbCircle
 10
139.0427304949701
 20
305.5962607978811
 30
0.0
 40
8.400000000000091
  0
ARC
  5
2D9
330
50
100
AcDbEntity
  8
1
  6
Continuous
 62
     7
100
AcDbCircle
 10
240.0253944200492
 20
298.7462607978812
 30
0.0
 40
1.0
100
AcDbArc
 50
180.0
 51
-90.0
  0
ARC
  5
2DA
330
50
100
AcDbEntity
  8
1
  6
Continuous
 62
     7
100
AcDbCircle
 10
240.0253944200492
 20
312.446260797881
 30
0.0
 40
1.0
100
AcDbArc
 50
90.0
 51
180.0
  0
ARC
  5
2DB
330
50
100
AcDbEntity
  8
1
  6
Continuous
 62
     7
100
AcDbCircle
 10
257.453821544794
 20
311.9962607978812
 30
0.0
 40
2.0
100
AcDbArc
 50
90.0
 51
134.9999999999805
  0
ARC
  5
2DC
330
50
100
AcDbEntity
  8
1
  6
Continuous
 62
     7
100
AcDbCircle
 10
257.4538215447949
 20
299.196260797881
 30
0.0
 40
1.999999999999695
100
AcDbArc
 50
-135.0
 51
-90.0
  0
ARC
  5
2DD
330
50
100
AcDbEntity
  8
1
  6
Continuous
 62
     7
100
AcDbCircle
 10
145.4427304949702
 20
427.4335165235161
 30
0.0
 40
1.999999999999875
100
AcDbArc
 50
-45.00000000000404
 51
0.0
  0
ARC
  5
2DE
330
50
100
AcDbEntity
  8
1
  6
Continuous
 62
     7
100
AcDbCircle
 10
132.64273049497
 20
427.433516523515
 30
0.0
 40
2.0
100
AcDbArc
 50
180.0
 51
-135.000000000019
  0
ARC
  5
2DF
330
50
100
AcDbEntity
  8
1
  6
Continuous
 62
     7
100
AcDbCircle
 10
132.1927304949702
 20
410.00508939877
 30
0.0
 40
1.0
100
AcDbArc
 50
180.0
 51
-90.0
  0
ARC
  5
2E0
330
50
100
AcDbEntity
  8
1
  6
Continuous
 62
     7
100
AcDbCircle
 10
145.89273049497
 20
410.00508939877
 30
0.0
 40
1.0
100
AcDbArc
 50
-90.0
 51
0.0
  0
ENDBLK
  5
52
330
50
100
AcDbEntity
  8
0
100
AcDbBlockEnd
  0
BLOCK
  5
54
330
53
100
AcDbEntity
  8
0
100
AcDbBlockBegin
  2
35-325-M11K
 70
     0
 71
     0
 10
1763.299642364738
 20
-1117.072354828638
 30
0.0
  3
35-325-M11K
  1

  0
LINE
  5
2E1
330
53
100
AcDbEntity
  8
1
  6
Continuous
 62
     7
100
AcDbLine
 10
293.8753944200491
 20
243.7468236467651
 30
0.0
 11
293.8753944200491
 21
247.696260797881
 31
0.0
  0
LINE
  5
2E2
330
53
100
AcDbEntity
  8
1
  6
Continuous
 62
     7
100
AcDbLine
 10
315.225394420049
 20
247.8462607978811
 30
0.0
 11
294.0253944200492
 21
247.8462607978811
 31
0.0
  0
LINE
  5
2E3
330
53
100
AcDbEntity
  8
1
  6
Continuous
 62
     7
100
AcDbLine
 10
293.8753944200491
 20
247.696260797881
 30
0.0
 11
315.3753944200491
 21
247.696260797881
 31
0.0
  0
LINE
  5
2E4
330
53
100
AcDbEntity
  8
1
  6
Continuous
 62
     7
100
AcDbLine
 10
293.8753944200491
 20
180.5968236467652
 30
0.0
 11
293.8753944200491
 21
218.7468236467651
 31
0.0
  0
LINE
  5
2E5
330
53
100
AcDbEntity
  8
1
  6
Continuous
 62
     7
100
AcDbLine
 10
294.0253944200492
 20
247.8462607978811
 30
0.0
 11
293.8753944200491
 21
247.696260797881
 31
0.0
  0
LINE
  5
2E6
330
53
100
AcDbEntity
  8
1
  6
Continuous
 62
     7
100
AcDbLine
 10
315.3753944200491
 20
247.696260797881
 30
0.0
 11
315.225394420049
 21
247.8462607978811
 31
0.0
  0
LINE
  5
2E7
330
53
100
AcDbEntity
  8
1
  6
Continuous
 62
     7
100
AcDbLine
 10
294.0253944200492
 20
247.8462607978811
 30
0.0
 11
294.0253944200492
 21
268.196260797881
 31
0.0
  0
LINE
  5
2E8
330
53
100
AcDbEntity
  8
1
  6
Continuous
 62
     7
100
AcDbLine
 10
295.437394420049
 20
177.6968236467651
 30
0.0
 11
294.2753944200492
 21
177.6968236467651
 31
0.0
  0
LINE
  5
2E9
330
53
100
AcDbEntity
  8
1
  6
Continuous
 62
     2
100
AcDbLine
 10
295.437394420049
 20
177.6968236467651
 30
0.0
 11
295.437394420049
 21
175.1968236467651
 31
0.0
  0
LINE
  5
2EA
330
53
100
AcDbEntity
  8
1
  6
Continuous
 62
     7
100
AcDbLine
 10
294.2753944200492
 20
179.6968236467651
 30
0.0
 11
294.2753944200492
 21
179.7094666851601
 31
0.0
  0
LINE
  5
2EB
330
53
100
AcDbEntity
  8
1
  6
Continuous
 62
     2
100
AcDbLine
 10
294.2753944200492
 20
179.7094666851601
 30
0.0
 11
295.437394420049
 21
177.6968236467651
 31
0.0
  0
LINE
  5
2EC
330
53
100
AcDbEntity
  8
1
  6
Continuous
 62
     7
100
AcDbLine
 10
293.8753944200491
 20
180.5968236467652
 30
0.0
 11
294.2753944200492
 21
180.1968236467651
 31
0.0
  0
LINE
  5
2ED
330
53
100
AcDbEntity
  8
1
  6
Continuous
 62
     7
100
AcDbLine
 10
314.975394420049
 20
180.1968236467651
 30
0.0
 11
315.3753944200491
 21
180.5968236467652
 31
0.0
  0
LINE
  5
2EE
330
53
100
AcDbEntity
  8
1
  6
Continuous
 62
     2
100
AcDbLine
 10
313.8133944200492
 20
177.6968236467651
 30
0.0
 11
314.975394420049
 21
179.7094666851601
 31
0.0
  0
LINE
  5
2EF
330
53
100
AcDbEntity
  8
1
  6
Continuous
 62
     7
100
AcDbLine
 10
314.975394420049
 20
179.7094666851601
 30
0.0
 11
314.975394420049
 21
179.6968236467651
 31
0.0
  0
LINE
  5
2F0
330
53
100
AcDbEntity
  8
1
  6
Continuous
 62
     7
100
AcDbLine
 10
314.975394420049
 20
177.6968236467651
 30
0.0
 11
313.8133944200492
 21
177.6968236467651
 31
0.0
  0
LINE
  5
2F1
330
53
100
AcDbEntity
  8
1
  6
Continuous
 62
     7
100
AcDbLine
 10
315.3753944200491
 20
247.696260797881
 30
0.0
 11
315.3753944200491
 21
243.7468236467651
 31
0.0
  0
LINE
  5
2F2
330
53
100
AcDbEntity
  8
1
  6
Continuous
 62
     7
100
AcDbLine
 10
314.975394420049
 20
180.1968236467651
 30
0.0
 11
314.975394420049
 21
175.1968236467651
 31
0.0
  0
LINE
  5
2F3
330
53
100
AcDbEntity
  8
1
  6
Continuous
 62
     7
100
AcDbLine
 10
315.225394420049
 20
268.196260797881
 30
0.0
 11
315.225394420049
 21
247.8462607978811
 31
0.0
  0
LINE
  5
2F4
330
53
100
AcDbEntity
  8
1
  6
Continuous
 62
     7
100
AcDbLine
 10
293.8753944200491
 20
180.5968236467652
 30
0.0
 11
315.3753944200491
 21
180.5968236467652
 31
0.0
  0
LINE
  5
2F5
330
53
100
AcDbEntity
  8
1
  6
Continuous
 62
     7
100
AcDbLine
 10
314.975394420049
 20
180.1968236467651
 30
0.0
 11
294.2753944200492
 21
180.1968236467651
 31
0.0
  0
LINE
  5
2F6
330
53
100
AcDbEntity
  8
1
  6
Continuous
 62
     7
100
AcDbLine
 10
295.437394420049
 20
177.6968236467651
 30
0.0
 11
313.8133944200492
 21
177.6968236467651
 31
0.0
  0
LINE
  5
2F7
330
53
100
AcDbEntity
  8
1
  6
Continuous
 62
     2
100
AcDbLine
 10
313.8133944200492
 20
175.1968236467651
 30
0.0
 11
313.8133944200492
 21
177.6968236467651
 31
0.0
  0
LINE
  5
2F8
330
53
100
AcDbEntity
  8
1
  6
Continuous
 62
     7
100
AcDbLine
 10
294.2753944200492
 20
175.1968236467651
 30
0.0
 11
294.2753944200492
 21
180.1968236467651
 31
0.0
  0
LINE
  5
2F9
330
53
100
AcDbEntity
  8
1
  6
Continuous
 62
     7
100
AcDbLine
 10
315.3753944200491
 20
218.7468236467651
 30
0.0
 11
315.3753944200491
 21
180.5968236467652
 31
0.0
  0
LINE
  5
2FA
330
53
100
AcDbEntity
  8
1
  6
Continuous
 62
     7
100
AcDbLine
 10
149.7927304949701
 20
218.7468236467651
 30
0.0
 11
149.7927304949701
 21
180.5968236467652
 31
0.0
  0
LINE
  5
2FB
330
53
100
AcDbEntity
  8
1
  6
Continuous
 62
     7
100
AcDbLine
 10
128.6927304949702
 20
175.1968236467651
 30
0.0
 11
128.6927304949702
 21
180.1968236467651
 31
0.0
  0
LINE
  5
2FC
330
53
100
AcDbEntity
  8
1
  6
Continuous
 62
     2
100
AcDbLine
 10
148.2307304949702
 20
175.1968236467651
 30
0.0
 11
148.2307304949702
 21
177.6968236467651
 31
0.0
  0
LINE
  5
2FD
330
53
100
AcDbEntity
  8
1
  6
Continuous
 62
     7
100
AcDbLine
 10
129.85473049497
 20
177.6968236467651
 30
0.0
 11
148.2307304949702
 21
177.6968236467651
 31
0.0
  0
LINE
  5
2FE
330
53
100
AcDbEntity
  8
1
  6
Continuous
 62
     7
100
AcDbLine
 10
149.39273049497
 20
180.1968236467651
 30
0.0
 11
128.6927304949702
 21
180.1968236467651
 31
0.0
  0
LINE
  5
2FF
330
53
100
AcDbEntity
  8
1
  6
Continuous
 62
     7
100
AcDbLine
 10
128.2927304949701
 20
180.5968236467652
 30
0.0
 11
149.7927304949701
 21
180.5968236467652
 31
0.0
  0
LINE
  5
300
330
53
100
AcDbEntity
  8
1
  6
Continuous
 62
     7
100
AcDbLine
 10
149.64273049497
 20
268.196260797881
 30
0.0
 11
149.64273049497
 21
247.8462607978811
 31
0.0
  0
LINE
  5
301
330
53
100
AcDbEntity
  8
1
  6
Continuous
 62
     7
100
AcDbLine
 10
149.39273049497
 20
180.1968236467651
 30
0.0
 11
149.39273049497
 21
175.1968236467651
 31
0.0
  0
LINE
  5
302
330
53
100
AcDbEntity
  8
1
  6
Continuous
 62
     7
100
AcDbLine
 10
149.7927304949701
 20
247.696260797881
 30
0.0
 11
149.7927304949701
 21
243.7468236467651
 31
0.0
  0
LINE
  5
303
330
53
100
AcDbEntity
  8
1
  6
Continuous
 62
     7
100
AcDbLine
 10
149.39273049497
 20
177.6968236467651
 30
0.0
 11
148.2307304949702
 21
177.6968236467651
 31
0.0
  0
LINE
  5
304
330
53
100
AcDbEntity
  8
1
  6
Continuous
 62
     7
100
AcDbLine
 10
149.39273049497
 20
179.7094666851601
 30
0.0
 11
149.39273049497
 21
179.6968236467651
 31
0.0
  0
LINE
  5
305
330
53
100
AcDbEntity
  8
1
  6
Continuous
 62
     2
100
AcDbLine
 10
148.2307304949702
 20
177.6968236467651
 30
0.0
 11
149.39273049497
 21
179.7094666851601
 31
0.0
  0
LINE
  5
306
330
53
100
AcDbEntity
  8
1
  6
Continuous
 62
     7
100
AcDbLine
 10
149.39273049497
 20
180.1968236467651
 30
0.0
 11
149.7927304949701
 21
180.5968236467652
 31
0.0
  0
LINE
  5
307
330
53
100
AcDbEntity
  8
1
  6
Continuous
 62
     7
100
AcDbLine
 10
128.2927304949701
 20
180.5968236467652
 30
0.0
 11
128.6927304949702
 21
180.1968236467651
 31
0.0
  0
LINE
  5
308
330
53
100
AcDbEntity
  8
1
  6
Continuous
 62
     2
100
AcDbLine
 10
128.6927304949702
 20
179.7094666851601
 30
0.0
 11
129.85473049497
 21
177.6968236467651
 31
0.0
  0
LINE
  5
309
330
53
100
AcDbEntity
  8
1
  6
Continuous
 62
     7
100
AcDbLine
 10
128.6927304949702
 20
179.6968236467651
 30
0.0
 11
128.6927304949702
 21
179.7094666851601
 31
0.0
  0
LINE
  5
30A
330
53
100
AcDbEntity
  8
1
  6
Continuous
 62
     2
100
AcDbLine
 10
129.85473049497
 20
177.6968236467651
 30
0.0
 11
129.85473049497
 21
175.1968236467651
 31
0.0
  0
LINE
  5
30B
330
53
100
AcDbEntity
  8
1
  6
Continuous
 62
     7
100
AcDbLine
 10
129.85473049497
 20
177.6968236467651
 30
0.0
 11
128.6927304949702
 21
177.6968236467651
 31
0.0
  0
LINE
  5
30C
330
53
100
AcDbEntity
  8
1
  6
Continuous
 62
     7
100
AcDbLine
 10
128.4427304949702
 20
247.8462607978811
 30
0.0
 11
128.4427304949702
 21
268.196260797881
 31
0.0
  0
LINE
  5
30D
330
53
100
AcDbEntity
  8
1
  6
Continuous
 62
     7
100
AcDbLine
 10
149.7927304949701
 20
247.696260797881
 30
0.0
 11
149.64273049497
 21
247.8462607978811
 31
0.0
  0
LINE
  5
30E
330
53
100
AcDbEntity
  8
1
  6
Continuous
 62
     7
100
AcDbLine
 10
128.4427304949702
 20
247.8462607978811
 30
0.0
 11
128.2927304949701
 21
247.696260797881
 31
0.0
  0
LINE
  5
30F
330
53
100
AcDbEntity
  8
1
  6
Continuous
 62
     7
100
AcDbLine
 10
128.2927304949701
 20
180.5968236467652
 30
0.0
 11
128.2927304949701
 21
218.7468236467651
 31
0.0
  0
LINE
  5
310
330
53
100
AcDbEntity
  8
1
  6
Continuous
 62
     7
100
AcDbLine
 10
128.2927304949701
 20
247.696260797881
 30
0.0
 11
149.7927304949701
 21
247.696260797881
 31
0.0
  0
LINE
  5
311
330
53
100
AcDbEntity
  8
1
  6
Continuous
 62
     7
100
AcDbLine
 10
149.64273049497
 20
247.8462607978811
 30
0.0
 11
128.4427304949702
 21
247.8462607978811
 31
0.0
  0
LINE
  5
312
330
53
100
AcDbEntity
  8
1
  6
Continuous
 62
     7
100
AcDbLine
 10
128.2927304949701
 20
243.7468236467651
 30
0.0
 11
128.2927304949701
 21
247.696260797881
 31
0.0
  0
ENDBLK
  5
55
330
53
100
AcDbEntity
  8
0
100
AcDbBlockEnd
  0
BLOCK
  5
57
330
56
100
AcDbEntity
  8
0
100
AcDbBlockBegin
  2
35-205-C2K
 70
     0
 71
     0
 10
454.7459033990601
 20
125.3433689611102
 30
0.0
  3
35-205-C2K
  1

  0
LINE
  5
313
330
56
100
AcDbEntity
  8
1
  6
Continuous
 62
     7
100
AcDbLine
 10
296.0253944200492
 20
160.6968236467651
 30
0.0
 11
296.0253944200492
 21
161.6968236467651
 31
0.0
  0
LINE
  5
314
330
56
100
AcDbEntity
  8
1
  6
Continuous
 62
     7
100
AcDbLine
 10
313.225394420049
 20
161.6968236467651
 30
0.0
 11
313.225394420049
 21
160.6968236467651
 31
0.0
  0
LINE
  5
315
330
56
100
AcDbEntity
  8
1
  6
Continuous
 62
     7
100
AcDbLine
 10
147.64273049497
 20
161.6968236467651
 30
0.0
 11
147.64273049497
 21
160.6968236467651
 31
0.0
  0
LINE
  5
316
330
56
100
AcDbEntity
  8
1
  6
Continuous
 62
     7
100
AcDbLine
 10
130.4427304949702
 20
160.6968236467651
 30
0.0
 11
130.4427304949702
 21
161.6968236467651
 31
0.0
  0
ENDBLK
  5
58
330
56
100
AcDbEntity
  8
0
100
AcDbBlockEnd
  0
BLOCK
  5
62
330
59
100
AcDbEntity
  8
0
100
AcDbBlockBegin
  2
Y1735ATVF-13
 70
     0
 71
     0
 10
118.0427304949701
 20
136.6968236467651
 30
0.0
  3
Y1735ATVF-13
  1

  0
INSERT
  5
5A
330
59
100
AcDbEntity
  8
1
100
AcDbBlockReference
  2
14-39C-M11K
 10
-246.23266817734
 20
216.3893482289202
 30
0.0
  0
INSERT
  5
5B
330
59
100
AcDbEntity
  8
1
100
AcDbBlockReference
  2
81-93AK
 10
-717.2559727704629
 20
1546.982899940016
 30
0.0
  0
INSERT
  5
5C
330
59
100
AcDbEntity
  8
1
100
AcDbBlockReference
  2
35-326-M11K
 10
345.1253944200491
 20
136.6968236467651
 30
0.0
  0
INSERT
  5
5D
330
59
100
AcDbEntity
  8
1
100
AcDbBlockReference
  2
32-26-M1K
 10
733.0201713895742
 20
68.30650818973004
 30
0.0
  0
INSERT
  5
5E
330
59
100
AcDbEntity
  8
1
100
AcDbBlockReference
  2
30-329-M11K
 10
2140.108391455012
 20
-191.974794190905
 30
0.0
  0
INSERT
  5
5F
330
59
100
AcDbEntity
  8
1
100
AcDbBlockReference
  2
33-333-M11K
 10
650.4564743387371
 20
-490.7388748086769
 30
0.0
  0
INSERT
  5
60
330
59
100
AcDbEntity
  8
1
100
AcDbBlockReference
  2
35-325-M11K
 10
1763.299642364738
 20
-1117.072354828638
 30
0.0
  0
INSERT
  5
61
330
59
100
AcDbEntity
  8
0
100
AcDbBlockReference
  2
35-205-C2K
 10
454.7459033990601
 20
125.3433689611102
 30
0.0
  0
LINE
  5
317
330
59
100
AcDbEntity
  8
1
  6
PHANTOM
 62
     4
100
AcDbLine
 10
139.0427304949701
 20
181.1968236467651
 30
0.0
 11
139.0427304949701
 21
155.6968236467651
 31
0.0
  0
ENDBLK
  5
63
330
59
100
AcDbEntity
  8
0
100
AcDbBlockEnd
  0
BLOCK
  5
65
330
64
100
AcDbEntity
  8
0
100
AcDbBlockBegin
  2
R68-1__3
 70
     0
 71
     0
 10
-225.6840508458399
 20
109.07330223144
 30
0.0
  3
R68-1__3
  1

  0
LINE
  5
318
330
64
100
AcDbEntity
  8
1
  6
Continuous
 62
     7
100
AcDbLine
 10
129.3330703567369
 20
495.4550894174502
 30
0.0
 11
108.0427304949701
 21
495.4550894174502
 31
0.0
  0
LINE
  5
319
330
64
100
AcDbEntity
  8
1
  6
Continuous
 62
     7
100
AcDbLine
 10
108.0427304949701
 20
495.4550894174502
 30
0.0
 11
108.0427304949701
 21
500.4550894174502
 31
0.0
  0
LINE
  5
31A
330
64
100
AcDbEntity
  8
1
  6
Continuous
 62
     7
100
AcDbLine
 10
108.0427304949701
 20
500.4550894174502
 30
0.0
 11
170.0427304949701
 21
500.4550894174502
 31
0.0
  0
LINE
  5
31B
330
64
100
AcDbEntity
  8
1
  6
Continuous
 62
     7
100
AcDbLine
 10
170.0427304949701
 20
500.4550894174502
 30
0.0
 11
170.0427304949701
 21
495.4550894174502
 31
0.0
  0
LINE
  5
31C
330
64
100
AcDbEntity
  8
1
  6
Continuous
 62
     7
100
AcDbLine
 10
170.0427304949701
 20
495.4550894174502
 30
0.0
 11
148.7523906332042
 21
495.4550894174502
 31
0.0
  0
LINE
  5
31D
330
64
100
AcDbEntity
  8
1
  6
Continuous
 62
     7
100
AcDbLine
 10
325.3753944200491
 20
218.7468236467651
 30
0.0
 11
325.3753944200491
 21
243.7468236467651
 31
0.0
  0
LINE
  5
31E
330
64
100
AcDbEntity
  8
1
  6
Continuous
 62
     7
100
AcDbLine
 10
330.3753944200491
 20
218.7468236467651
 30
0.0
 11
325.3753944200491
 21
218.7468236467651
 31
0.0
  0
LINE
  5
31F
330
64
100
AcDbEntity
  8
1
  6
Continuous
 62
     7
100
AcDbLine
 10
330.3753944200491
 20
243.7468236467651
 30
0.0
 11
330.3753944200491
 21
218.7468236467651
 31
0.0
  0
LINE
  5
320
330
64
100
AcDbEntity
  8
1
  6
Continuous
 62
     7
100
AcDbLine
 10
325.3753944200491
 20
243.7468236467651
 30
0.0
 11
330.3753944200491
 21
243.7468236467651
 31
0.0
  0
ENDBLK
  5
66
330
64
100
AcDbEntity
  8
0
100
AcDbBlockEnd
  0
BLOCK
  5
68
330
67
100
AcDbEntity
  8
0
100
AcDbBlockBegin
  2
R68-15A
 70
     0
 71
     0
 10
-208.2766939309699
 20
65.26950908012009
 30
0.0
  3
R68-15A
  1

  0
LINE
  5
321
330
67
100
AcDbEntity
  8
1
  6
Continuous
 62
     7
100
AcDbLine
 10
118.762752684331
 20
485.4550894174502
 30
0.0
 11
108.0427304949701
 21
485.4550894174502
 31
0.0
  0
LINE
  5
322
330
67
100
AcDbEntity
  8
1
  6
Continuous
 62
     7
100
AcDbLine
 10
155.7093888283009
 20
490.4550894174502
 30
0.0
 11
170.0427304949701
 21
490.4550894174502
 31
0.0
  0
LINE
  5
323
330
67
100
AcDbEntity
  8
1
  6
Continuous
 62
     7
100
AcDbLine
 10
126.0427304949701
 20
221.7468236467651
 30
0.0
 11
126.0427304949701
 21
218.7468236467651
 31
0.0
  0
LINE
  5
324
330
67
100
AcDbEntity
  8
1
  6
Continuous
 62
     7
100
AcDbLine
 10
126.0427304949701
 20
243.7468236467651
 30
0.0
 11
126.0427304949701
 21
240.7468236467651
 31
0.0
  0
LINE
  5
325
330
67
100
AcDbEntity
  8
1
  6
Continuous
 62
     7
100
AcDbLine
 10
152.0427304949701
 20
218.7468236467651
 30
0.0
 11
152.0427304949701
 21
221.7468236467651
 31
0.0
  0
LINE
  5
326
330
67
100
AcDbEntity
  8
1
  6
Continuous
 62
     7
100
AcDbLine
 10
110.0427304949701
 20
243.7468236467651
 30
0.0
 11
168.0427304949701
 21
243.7468236467651
 31
0.0
  0
LINE
  5
327
330
67
100
AcDbEntity
  8
1
  6
Continuous
 62
     7
100
AcDbLine
 10
108.0427304949701
 20
220.7468236467651
 30
0.0
 11
108.0427304949701
 21
241.7468236467651
 31
0.0
  0
LINE
  5
328
330
67
100
AcDbEntity
  8
1
  6
Continuous
 62
     7
100
AcDbLine
 10
170.0427304949701
 20
241.7468236467651
 30
0.0
 11
170.0427304949701
 21
220.7468236467651
 31
0.0
  0
LINE
  5
329
330
67
100
AcDbEntity
  8
1
  6
Continuous
 62
     7
100
AcDbLine
 10
168.0427304949701
 20
218.7468236467651
 30
0.0
 11
110.0427304949701
 21
218.7468236467651
 31
0.0
  0
LINE
  5
32A
330
67
100
AcDbEntity
  8
1
  6
Continuous
 62
     7
100
AcDbLine
 10
152.0427304949701
 20
240.7468236467651
 30
0.0
 11
139.0427304949701
 21
240.7468236467651
 31
0.0
  0
LINE
  5
32B
330
67
100
AcDbEntity
  8
1
  6
Continuous
 62
     7
100
AcDbLine
 10
125.5427304949701
 20
240.2468236467651
 30
0.0
 11
125.5427304949701
 21
222.2468236467651
 31
0.0
  0
LINE
  5
32C
330
67
100
AcDbEntity
  8
1
  6
Continuous
 62
     7
100
AcDbLine
 10
126.0427304949701
 20
221.7468236467651
 30
0.0
 11
139.0427304949701
 21
221.7468236467651
 31
0.0
  0
LINE
  5
32D
330
67
100
AcDbEntity
  8
1
  6
Continuous
 62
     7
100
AcDbLine
 10
152.5427304949701
 20
222.2468236467651
 30
0.0
 11
152.5427304949701
 21
240.2468236467651
 31
0.0
  0
LINE
  5
32E
330
67
100
AcDbEntity
  8
1
  6
Continuous
 62
     7
100
AcDbLine
 10
152.0427304949701
 20
240.7468236467651
 30
0.0
 11
152.0427304949701
 21
243.7468236467651
 31
0.0
  0
LINE
  5
32F
330
67
100
AcDbEntity
  8
1
  6
Continuous
 62
     7
100
AcDbLine
 10
139.0427304949701
 20
240.7468236467651
 30
0.0
 11
126.0427304949701
 21
240.7468236467651
 31
0.0
  0
LINE
  5
330
330
67
100
AcDbEntity
  8
1
  6
Continuous
 62
     7
100
AcDbLine
 10
139.0427304949701
 20
221.7468236467651
 30
0.0
 11
152.0427304949701
 21
221.7468236467651
 31
0.0
  0
LINE
  5
331
330
67
100
AcDbEntity
  8
1
  6
Continuous
 62
     7
100
AcDbLine
 10
108.0427304949701
 20
485.4550894174502
 30
0.0
 11
108.0427304949701
 21
490.4550894174502
 31
0.0
  0
LINE
  5
332
330
67
100
AcDbEntity
  8
1
  6
Continuous
 62
     7
100
AcDbLine
 10
170.0427304949701
 20
485.4550894174502
 30
0.0
 11
159.3227083056092
 21
485.4550894174502
 31
0.0
  0
LINE
  5
333
330
67
100
AcDbEntity
  8
1
  6
Continuous
 62
     7
100
AcDbLine
 10
170.0427304949701
 20
490.4550894174502
 30
0.0
 11
170.0427304949701
 21
485.4550894174502
 31
0.0
  0
LINE
  5
334
330
67
100
AcDbEntity
  8
1
  6
Continuous
 62
     7
100
AcDbLine
 10
108.0427304949701
 20
490.4550894174502
 30
0.0
 11
122.3760721616393
 21
490.4550894174502
 31
0.0
  0
LINE
  5
335
330
67
100
AcDbEntity
  8
1
  6
Continuous
 62
     7
100
AcDbLine
 10
320.3753944200491
 20
243.7468236467651
 30
0.0
 11
315.3753944200491
 21
243.7468236467651
 31
0.0
  0
LINE
  5
336
330
67
100
AcDbEntity
  8
1
  6
Continuous
 62
     7
100
AcDbLine
 10
315.3753944200491
 20
243.7468236467651
 30
0.0
 11
315.3753944200491
 21
218.7468236467651
 31
0.0
  0
LINE
  5
337
330
67
100
AcDbEntity
  8
1
  6
Continuous
 62
     7
100
AcDbLine
 10
315.3753944200491
 20
218.7468236467651
 30
0.0
 11
320.3753944200491
 21
218.7468236467651
 31
0.0
  0
LINE
  5
338
330
67
100
AcDbEntity
  8
1
  6
Continuous
 62
     7
100
AcDbLine
 10
320.3753944200491
 20
218.7468236467651
 30
0.0
 11
320.3753944200491
 21
243.7468236467651
 31
0.0
  0
LINE
  5
339
330
67
100
AcDbEntity
  8
1
  6
Continuous
 62
     7
100
AcDbLine
 10
315.3753944200491
 20
243.7468236467651
 30
0.0
 11
291.5253944200492
 21
243.7468236467651
 31
0.0
  0
LINE
  5
33A
330
67
100
AcDbEntity
  8
1
  6
Continuous
 62
     7
100
AcDbLine
 10
291.5253944200492
 20
243.7468236467651
 30
0.0
 11
291.5253944200492
 21
240.7468236467651
 31
0.0
  0
LINE
  5
33B
330
67
100
AcDbEntity
  8
1
  6
Continuous
 62
     7
100
AcDbLine
 10
291.5253944200492
 20
218.7468236467651
 30
0.0
 11
315.3753944200491
 21
218.7468236467651
 31
0.0
  0
LINE
  5
33C
330
67
100
AcDbEntity
  8
1
  6
Continuous
 62
     7
100
AcDbLine
 10
291.5253944200492
 20
240.7468236467651
 30
0.0
 11
312.9369472328583
 21
240.7468236467651
 31
0.0
  0
LINE
  5
33D
330
67
100
AcDbEntity
  8
1
  6
Continuous
 62
     7
100
AcDbLine
 10
312.9369472328583
 20
240.7468236467651
 30
0.0
 11
312.9369472328583
 21
232.0798746280161
 31
0.0
  0
LINE
  5
33E
330
67
100
AcDbEntity
  8
1
  6
Continuous
 62
     7
100
AcDbLine
 10
312.9369472328583
 20
221.7468236467651
 30
0.0
 11
291.5253944200492
 21
221.7468236467651
 31
0.0
  0
LINE
  5
33F
330
67
100
AcDbEntity
  8
1
  6
Continuous
 62
     7
100
AcDbLine
 10
291.0253944200492
 20
222.2468236467651
 30
0.0
 11
291.0253944200492
 21
240.2468236467651
 31
0.0
  0
LINE
  5
340
330
67
100
AcDbEntity
  8
1
  6
Continuous
 62
     7
100
AcDbLine
 10
291.5253944200492
 20
221.7468236467651
 30
0.0
 11
291.5253944200492
 21
218.7468236467651
 31
0.0
  0
LINE
  5
341
330
67
100
AcDbEntity
  8
1
  6
Continuous
 62
     7
100
AcDbLine
 10
312.9369472328583
 20
230.4137726655852
 30
0.0
 11
312.9369472328583
 21
221.7468236467651
 31
0.0
  0
ARC
  5
342
330
67
100
AcDbEntity
  8
1
  6
Continuous
 62
     7
100
AcDbCircle
 10
110.0427304949701
 20
241.7468236467651
 30
0.0
 40
2.0
100
AcDbArc
 50
90.0
 51
180.0
  0
ARC
  5
343
330
67
100
AcDbEntity
  8
1
  6
Continuous
 62
     7
100
AcDbCircle
 10
110.0427304949701
 20
220.7468236467651
 30
0.0
 40
2.0
100
AcDbArc
 50
180.0
 51
-90.0
  0
ARC
  5
344
330
67
100
AcDbEntity
  8
1
  6
Continuous
 62
     7
100
AcDbCircle
 10
168.0427304949701
 20
241.7468236467651
 30
0.0
 40
2.0
100
AcDbArc
 50
0.0
 51
90.0
  0
ARC
  5
345
330
67
100
AcDbEntity
  8
1
  6
Continuous
 62
     7
100
AcDbCircle
 10
168.0427304949701
 20
220.7468236467651
 30
0.0
 40
2.0
100
AcDbArc
 50
-90.0
 51
0.0
  0
ARC
  5
346
330
67
100
AcDbEntity
  8
1
  6
Continuous
 62
     7
100
AcDbCircle
 10
152.0427304949701
 20
240.2468236467651
 30
0.0
 40
0.5
100
AcDbArc
 50
0.0
 51
90.0
  0
ARC
  5
347
330
67
100
AcDbEntity
  8
1
  6
Continuous
 62
     7
100
AcDbCircle
 10
126.0427304949701
 20
240.2468236467651
 30
0.0
 40
0.5
100
AcDbArc
 50
90.0
 51
180.0
  0
ARC
  5
348
330
67
100
AcDbEntity
  8
1
  6
Continuous
 62
     7
100
AcDbCircle
 10
126.0427304949701
 20
222.2468236467651
 30
0.0
 40
0.5
100
AcDbArc
 50
180.0
 51
-90.0
  0
ARC
  5
349
330
67
100
AcDbEntity
  8
1
  6
Continuous
 62
     7
100
AcDbCircle
 10
152.0427304949701
 20
222.2468236467651
 30
0.0
 40
0.5
100
AcDbArc
 50
-90.0
 51
0.0
  0
ARC
  5
34A
330
67
100
AcDbEntity
  8
1
  6
Continuous
 62
     7
100
AcDbCircle
 10
291.5253944200492
 20
240.2468236467651
 30
0.0
 40
0.5
100
AcDbArc
 50
90.0
 51
180.0
  0
ARC
  5
34B
330
67
100
AcDbEntity
  8
1
  6
Continuous
 62
     7
100
AcDbCircle
 10
291.5253944200492
 20
222.2468236467651
 30
0.0
 40
0.5
100
AcDbArc
 50
180.0
 51
-90.0
  0
ENDBLK
  5
69
330
67
100
AcDbEntity
  8
0
100
AcDbBlockEnd
  0
BLOCK
  5
6B
330
6A
100
AcDbEntity
  8
0
100
AcDbBlockBegin
  2
88-249K
 70
     0
 71
     0
 10
81.11845568406011
 20
280.5962607978811
 30
0.0
  3
88-249K
  1

  0
LINE
  5
34C
330
6A
100
AcDbEntity
  8
1
  6
Continuous
 62
     7
100
AcDbLine
 10
142.5427304949701
 20
288.6421198007131
 30
0.0
 11
142.5427304949701
 21
286.6679339905741
 31
0.0
  0
LINE
  5
34D
330
6A
100
AcDbEntity
  8
1
  6
Continuous
 62
     7
100
AcDbLine
 10
135.5427304949701
 20
288.6421198007131
 30
0.0
 11
135.5427304949701
 21
286.6679339905741
 31
0.0
  0
LINE
  5
34E
330
6A
100
AcDbEntity
  8
1
  6
Continuous
 62
     7
100
AcDbLine
 10
147.5427304949701
 20
293.709152886993
 30
0.0
 11
147.5427304949701
 21
297.0962607978811
 31
0.0
  0
LINE
  5
34F
330
6A
100
AcDbEntity
  8
1
  6
Continuous
 62
     7
100
AcDbLine
 10
130.5427304949701
 20
293.709152886993
 30
0.0
 11
130.5427304949701
 21
297.0962607978811
 31
0.0
  0
LINE
  5
350
330
6A
100
AcDbEntity
  8
1
  6
Continuous
 62
     7
100
AcDbLine
 10
260.6253944200491
 20
283.5962607978811
 30
0.0
 11
261.1253944200491
 21
283.5962607978811
 31
0.0
  0
LINE
  5
351
330
6A
100
AcDbEntity
  8
1
  6
Continuous
 62
     7
100
AcDbLine
 10
261.6253944200491
 20
284.0962607978811
 30
0.0
 11
261.6253944200491
 21
298.0962607978811
 31
0.0
  0
LINE
  5
352
330
6A
100
AcDbEntity
  8
1
  6
Continuous
 62
     7
100
AcDbLine
 10
261.1253944200491
 20
327.5962607978811
 30
0.0
 11
260.6253944200491
 21
327.5962607978811
 31
0.0
  0
LINE
  5
353
330
6A
100
AcDbEntity
  8
1
  6
Continuous
 62
     7
100
AcDbLine
 10
261.6253944200491
 20
298.0962607978811
 30
0.0
 11
261.6253944200491
 21
327.0962607978811
 31
0.0
  0
LINE
  5
354
330
6A
100
AcDbEntity
  8
1
  6
Continuous
 62
     7
100
AcDbLine
 10
259.1253944200491
 20
298.0962607978811
 30
0.0
 11
259.1253944200491
 21
326.0962607978811
 31
0.0
  0
LINE
  5
355
330
6A
100
AcDbEntity
  8
1
  6
Continuous
 62
     7
100
AcDbLine
 10
259.1253944200491
 20
298.0962607978811
 30
0.0
 11
259.1253944200491
 21
285.0962607978811
 31
0.0
  0
LINE
  5
356
330
6A
100
AcDbEntity
  8
1
  6
Continuous
 62
     7
100
AcDbLine
 10
146.5427304949701
 20
429.1050893987701
 30
0.0
 11
159.5427304949701
 21
429.1050893987701
 31
0.0
  0
LINE
  5
357
330
6A
100
AcDbEntity
  8
1
  6
Continuous
 62
     7
100
AcDbLine
 10
146.5427304949701
 20
429.1050893987701
 30
0.0
 11
118.5427304949701
 21
429.1050893987701
 31
0.0
  0
LINE
  5
358
330
6A
100
AcDbEntity
  8
1
  6
Continuous
 62
     7
100
AcDbLine
 10
146.5427304949701
 20
431.6050893987701
 30
0.0
 11
117.5427304949701
 21
431.6050893987701
 31
0.0
  0
LINE
  5
359
330
6A
100
AcDbEntity
  8
1
  6
Continuous
 62
     7
100
AcDbLine
 10
117.0427304949701
 20
431.1050893987701
 30
0.0
 11
117.0427304949701
 21
430.6050893987701
 31
0.0
  0
LINE
  5
35A
330
6A
100
AcDbEntity
  8
1
  6
Continuous
 62
     7
100
AcDbLine
 10
160.5427304949701
 20
431.6050893987701
 30
0.0
 11
146.5427304949701
 21
431.6050893987701
 31
0.0
  0
LINE
  5
35B
330
6A
100
AcDbEntity
  8
1
  6
Continuous
 62
     7
100
AcDbLine
 10
161.0427304949701
 20
430.6050893987701
 30
0.0
 11
161.0427304949701
 21
431.1050893987701
 31
0.0
  0
LINE
  5
35C
330
6A
100
AcDbEntity
  8
1
  6
Continuous
 62
     7
100
AcDbLine
 10
146.39273049497
 20
301.5296282843631
 30
0.0
 11
146.39273049497
 21
301.365628432555
 31
0.0
  0
LINE
  5
35D
330
6A
100
AcDbEntity
  8
1
  6
Continuous
 62
     7
100
AcDbLine
 10
131.6927304949702
 20
301.5296282843631
 30
0.0
 11
131.6927304949702
 21
301.365628432555
 31
0.0
  0
ARC
  5
35E
330
6A
100
AcDbEntity
  8
1
  6
Continuous
 62
     7
100
AcDbCircle
 10
139.0427304949701
 20
297.0962607978811
 30
0.0
 40
8.499999999999952
100
AcDbArc
 50
-8.79741070998499
 51
0.0
  0
ARC
  5
35F
330
6A
100
AcDbEntity
  8
1
  6
Continuous
 62
     7
100
AcDbCircle
 10
139.0427304949701
 20
297.0962607978811
 30
0.0
 40
8.5
100
AcDbArc
 50
0.0
 51
30.15086218433237
  0
ARC
  5
360
330
6A
100
AcDbEntity
  8
1
  6
Continuous
 62
     7
100
AcDbCircle
 10
139.0427304949701
 20
297.0962607978811
 30
0.0
 40
8.499999999999995
100
AcDbArc
 50
149.8491378156676
 51
180.0
  0
ARC
  5
361
330
6A
100
AcDbEntity
  8
1
  6
Continuous
 62
     7
100
AcDbCircle
 10
139.0427304949701
 20
297.0962607978811
 30
0.0
 40
9.149999999999819
100
AcDbArc
 50
-67.51052821354251
 51
-21.72645528753566
  0
ARC
  5
362
330
6A
100
AcDbEntity
  8
1
  6
Continuous
 62
     7
100
AcDbCircle
 10
139.0427304949701
 20
297.0962607978811
 30
0.0
 40
10.99999999999988
100
AcDbArc
 50
-108.5530045350209
 51
-71.44699546497913
  0
ARC
  5
363
330
6A
100
AcDbEntity
  8
1
  6
Continuous
 62
     7
100
AcDbCircle
 10
139.0427304949701
 20
297.0962607978811
 30
0.0
 40
9.150000000000027
100
AcDbArc
 50
-158.2735447124643
 51
-112.4894717864575
  0
ARC
  5
364
330
6A
100
AcDbEntity
  8
1
  6
Continuous
 62
     7
100
AcDbCircle
 10
139.0427304949701
 20
297.0962607978811
 30
0.0
 40
8.5
100
AcDbArc
 50
180.0
 51
-171.202589290015
  0
CIRCLE
  5
365
330
6A
100
AcDbEntity
  8
1
  6
Continuous
 62
     7
100
AcDbCircle
 10
139.0427304949701
 20
305.5962607978811
 30
0.0
 40
22.0
  0
ARC
  5
366
330
6A
100
AcDbEntity
  8
1
  6
Continuous
 62
     7
100
AcDbCircle
 10
261.1253944200491
 20
284.0962607978811
 30
0.0
 40
0.5
100
AcDbArc
 50
-90.0
 51
0.0
  0
ARC
  5
367
330
6A
100
AcDbEntity
  8
1
  6
Continuous
 62
     7
100
AcDbCircle
 10
260.6253944200491
 20
285.0962607978811
 30
0.0
 40
1.5
100
AcDbArc
 50
180.0
 51
-90.0
  0
ARC
  5
368
330
6A
100
AcDbEntity
  8
1
  6
Continuous
 62
     7
100
AcDbCircle
 10
261.1253944200491
 20
327.0962607978811
 30
0.0
 40
0.5
100
AcDbArc
 50
0.0
 51
90.0
  0
ARC
  5
369
330
6A
100
AcDbEntity
  8
1
  6
Continuous
 62
     7
100
AcDbCircle
 10
260.6253944200491
 20
326.0962607978811
 30
0.0
 40
1.5
100
AcDbArc
 50
90.0
 51
180.0
  0
ARC
  5
36A
330
6A
100
AcDbEntity
  8
1
  6
Continuous
 62
     7
100
AcDbCircle
 10
118.5427304949701
 20
430.6050893987701
 30
0.0
 40
1.5
100
AcDbArc
 50
180.0
 51
-90.0
  0
ARC
  5
36B
330
6A
100
AcDbEntity
  8
1
  6
Continuous
 62
     7
100
AcDbCircle
 10
117.5427304949701
 20
431.1050893987701
 30
0.0
 40
0.5
100
AcDbArc
 50
90.0
 51
180.0
  0
ARC
  5
36C
330
6A
100
AcDbEntity
  8
1
  6
Continuous
 62
     7
100
AcDbCircle
 10
159.5427304949701
 20
430.6050893987701
 30
0.0
 40
1.5
100
AcDbArc
 50
-90.0
 51
0.0
  0
ARC
  5
36D
330
6A
100
AcDbEntity
  8
1
  6
Continuous
 62
     7
100
AcDbCircle
 10
160.5427304949701
 20
431.1050893987701
 30
0.0
 40
0.5
100
AcDbArc
 50
0.0
 51
90.0
  0
ENDBLK
  5
6C
330
6A
100
AcDbEntity
  8
0
100
AcDbBlockEnd
  0
BLOCK
  5
6E
330
6D
100
AcDbEntity
  8
0
100
AcDbBlockBegin
  2
84-177K
 70
     0
 71
     0
 10
89.16210444316016
 20
263.6254253581481
 30
0.0
  3
84-177K
  1

  0
LINE
  5
36E
330
6D
100
AcDbEntity
  8
1
  6
Continuous
 62
     7
100
AcDbLine
 10
147.4427304949702
 20
295.796260797882
 30
0.0
 11
147.4427304949702
 21
297.096260797882
 31
0.0
  0
LINE
  5
36F
330
6D
100
AcDbEntity
  8
1
  6
Continuous
 62
     7
100
AcDbLine
 10
130.64273049497
 20
295.796260797882
 30
0.0
 11
130.64273049497
 21
297.096260797882
 31
0.0
  0
LINE
  5
370
330
6D
100
AcDbEntity
  8
1
  6
Continuous
 62
     7
100
AcDbLine
 10
147.4427304949702
 20
293.865161913601
 30
0.0
 11
147.4427304949702
 21
295.796260797882
 31
0.0
  0
LINE
  5
371
330
6D
100
AcDbEntity
  8
1
  6
Continuous
 62
     7
100
AcDbLine
 10
130.64273049497
 20
293.865161913601
 30
0.0
 11
130.64273049497
 21
295.796260797882
 31
0.0
  0
LINE
  5
372
330
6D
100
AcDbEntity
  8
1
  6
Continuous
 62
     7
100
AcDbLine
 10
262.5253944200542
 20
288.4962607978812
 30
0.0
 11
262.978947810647
 21
288.9498141884742
 31
0.0
  0
LINE
  5
373
330
6D
100
AcDbEntity
  8
1
  6
Continuous
 62
     7
100
AcDbLine
 10
263.125394420056
 20
289.3033675790662
 30
0.0
 11
263.1253944200523
 21
289.796260797882
 31
0.0
  0
LINE
  5
374
330
6D
100
AcDbEntity
  8
1
  6
Continuous
 62
     7
100
AcDbLine
 10
261.825394420054
 20
288.79626079788
 30
0.0
 11
262.1253944200573
 21
288.4962607978791
 31
0.0
  0
LINE
  5
375
330
6D
100
AcDbEntity
  8
1
  6
Continuous
 62
     7
100
AcDbLine
 10
262.1253944200573
 20
288.4962607978791
 30
0.0
 11
262.5253944200542
 21
288.4962607978812
 31
0.0
  0
LINE
  5
376
330
6D
100
AcDbEntity
  8
1
  6
Continuous
 62
     7
100
AcDbLine
 10
261.625394420051
 20
289.7962607978832
 30
0.0
 11
263.1253944200523
 21
289.796260797882
 31
0.0
  0
LINE
  5
377
330
6D
100
AcDbEntity
  8
1
  6
Continuous
 62
     7
100
AcDbLine
 10
261.625394420051
 20
289.7962607978832
 30
0.0
 11
261.6253944200491
 21
288.79626079788
 31
0.0
  0
LINE
  5
378
330
6D
100
AcDbEntity
  8
1
  6
Continuous
 62
     7
100
AcDbLine
 10
261.6253944200491
 20
288.79626079788
 30
0.0
 11
261.825394420054
 21
288.79626079788
 31
0.0
  0
ARC
  5
379
330
6D
100
AcDbEntity
  8
1
  6
Continuous
 62
     7
100
AcDbCircle
 10
139.0427304949701
 20
297.096260797882
 30
0.0
 40
8.399999999999398
100
AcDbArc
 50
149.6054060395957
 51
180.0
  0
ARC
  5
37A
330
6D
100
AcDbEntity
  8
1
  6
Continuous
 62
     7
100
AcDbCircle
 10
139.0427304949701
 20
297.096260797882
 30
0.0
 40
9.000000000000185
100
AcDbArc
 50
-158.9605302186813
 51
-21.03946978131869
  0
ARC
  5
37B
330
6D
100
AcDbEntity
  8
1
  6
Continuous
 62
     7
100
AcDbCircle
 10
139.0427304949701
 20
297.096260797882
 30
0.0
 40
8.400000000000091
100
AcDbArc
 50
0.0
 51
30.39459396040962
  0
ARC
  5
37C
330
6D
100
AcDbEntity
  8
1
  6
Continuous
 62
     7
100
AcDbCircle
 10
262.62539442005
 20
289.3033675790691
 30
0.0
 40
0.5000000000038225
100
AcDbArc
 50
-44.99999999982958
 51
-0.0000000003322
  0
ENDBLK
  5
6F
330
6D
100
AcDbEntity
  8
0
100
AcDbBlockEnd
  0
BLOCK
  5
73
330
70
100
AcDbEntity
  8
0
100
AcDbBlockBegin
  2
88-249X
 70
     0
 71
     0
 10
-92.1966402260598
 20
258.5894849090901
 30
0.0
  3
88-249X
  1

  0
INSERT
  5
71
330
70
100
AcDbEntity
  8
0
100
AcDbBlockReference
  2
88-249K
 10
81.11845568406011
 20
280.5962607978811
 30
0.0
  0
INSERT
  5
72
330
70
100
AcDbEntity
  8
0
100
AcDbBlockReference
  2
84-177K
 10
89.16210444316016
 20
263.6254253581481
 30
0.0
  0
LINE
  5
37D
330
70
100
AcDbEntity
  8
1
  6
PHANTOM
 62
     4
100
AcDbLine
 10
139.0427304949701
 20
325.2212607978811
 30
0.0
 11
139.0427304949701
 21
309.0962607978811
 31
0.0
  0
LINE
  5
37E
330
70
100
AcDbEntity
  8
1
  6
PHANTOM
 62
     4
100
AcDbLine
 10
139.0427304949701
 20
330.5962607978811
 30
0.0
 11
139.0427304949701
 21
280.5962607978811
 31
0.0
  0
LINE
  5
37F
330
70
100
AcDbEntity
  8
1
  6
PHANTOM
 62
     4
100
AcDbLine
 10
114.0427304949701
 20
305.5962607978811
 30
0.0
 11
164.0427304949701
 21
305.5962607978811
 31
0.0
  0
ENDBLK
  5
74
330
70
100
AcDbEntity
  8
0
100
AcDbBlockEnd
  0
BLOCK
  5
76
330
75
100
AcDbEntity
  8
0
100
AcDbBlockBegin
  2
81-100-W-4
 70
     0
 71
     0
 10
365.5593108169471
 20
527.3383822913122
 30
0.0
  3
81-100-W-4
  1

  0
LINE
  5
380
330
75
100
AcDbEntity
  8
1
  6
Continuous
 62
     7
100
AcDbLine
 10
123.5427304949701
 20
478.60508941745
 30
0.0
 11
108.042730494966
 21
478.60508941745
 31
0.0
  0
LINE
  5
381
330
75
100
AcDbEntity
  8
1
  6
Continuous
 62
     7
100
AcDbLine
 10
123.5427304949701
 20
470.60508941745
 30
0.0
 11
108.042730494966
 21
470.60508941745
 31
0.0
  0
LINE
  5
382
330
75
100
AcDbEntity
  8
1
  6
CENTER_DASH_DASH
 62
     2
100
AcDbLine
 10
143.0427304949701
 20
443.6231341888781
 30
0.0
 11
143.0427304949701
 21
459.1231341888811
 31
0.0
  0
LINE
  5
383
330
75
100
AcDbEntity
  8
1
  6
CENTER_DASH_DASH
 62
     2
100
AcDbLine
 10
135.0427304949701
 20
443.6231341888781
 30
0.0
 11
135.0427304949701
 21
459.1231341888811
 31
0.0
  0
LINE
  5
384
330
75
100
AcDbEntity
  8
0
  6
DASH_CENTER
 62
     2
100
AcDbLine
 10
139.0427304949701
 20
482.1414350695482
 30
0.0
 11
139.0427304949701
 21
481.1414350695482
 31
0.0
  0
LINE
  5
385
330
75
100
AcDbEntity
  8
1
  6
Continuous
 62
     7
100
AcDbLine
 10
320.1253944200491
 20
327.9962607978812
 30
0.0
 11
320.1253944200491
 21
315.4962607978812
 31
0.0
  0
LINE
  5
386
330
75
100
AcDbEntity
  8
1
  6
Continuous
 62
     7
100
AcDbLine
 10
289.1253944200491
 20
327.9962607978812
 30
0.0
 11
289.1253944200491
 21
315.4962607978812
 31
0.0
  0
LINE
  5
387
330
75
100
AcDbEntity
  8
1
  6
Continuous
 62
     7
100
AcDbLine
 10
308.6253944200491
 20
329.444503291704
 30
0.0
 11
308.6253944200491
 21
339.289503291704
 31
0.0
  0
LINE
  5
388
330
75
100
AcDbEntity
  8
1
  6
Continuous
 62
     7
100
AcDbLine
 10
300.6253944200491
 20
329.444503291704
 30
0.0
 11
300.6253944200491
 21
339.289503291704
 31
0.0
  0
LINE
  5
389
330
75
100
AcDbEntity
  8
1
  6
Continuous
 62
     7
100
AcDbLine
 10
320.1253944200491
 20
315.4962607978812
 30
0.0
 11
289.1253944200491
 21
315.4962607978812
 31
0.0
  0
LINE
  5
38A
330
75
100
AcDbEntity
  8
1
  6
PHANTOM
 62
     2
100
AcDbLine
 10
135.0427304949701
 20
324.7920599547761
 30
0.0
 11
135.0427304949701
 21
339.289503291704
 31
0.0
  0
LINE
  5
38B
330
75
100
AcDbEntity
  8
1
  6
PHANTOM
 62
     2
100
AcDbLine
 10
143.0427304949701
 20
324.7920599547761
 30
0.0
 11
143.0427304949701
 21
339.289503291704
 31
0.0
  0
LINE
  5
38C
330
75
100
AcDbEntity
  8
1
  6
Continuous
 62
     7
100
AcDbLine
 10
123.5427304949701
 20
327.9962607978812
 30
0.0
 11
123.5427304949701
 21
321.2087557938771
 31
0.0
  0
LINE
  5
38D
330
75
100
AcDbEntity
  8
1
  6
Continuous
 62
     7
100
AcDbLine
 10
154.5427304949701
 20
327.9962607978812
 30
0.0
 11
154.5427304949701
 21
321.2087557938771
 31
0.0
  0
ARC
  5
38E
330
75
100
AcDbEntity
  8
0
  6
Continuous
 62
     7
100
AcDbCircle
 10
139.0427304949701
 20
474.1414350695482
 30
0.0
 40
10.00000000000028
100
AcDbArc
 50
-134.4270040008042
 51
-45.57299599919585
  0
ARC
  5
38F
330
75
100
AcDbEntity
  8
0
  6
Continuous
 62
     7
100
AcDbCircle
 10
139.0427304949701
 20
474.1414350695482
 30
0.0
 40
10.00000000000003
100
AcDbArc
 50
45.57299599919448
 51
134.4270040008055
  0
ARC
  5
390
330
75
100
AcDbEntity
  8
1
  6
Continuous
 62
     7
100
AcDbCircle
 10
108.042730494966
 20
474.60508941745
 30
0.0
 40
4.0
100
AcDbArc
 50
180.0
 51
-90.0
  0
ARC
  5
391
330
75
100
AcDbEntity
  8
1
  6
Continuous
 62
     7
100
AcDbCircle
 10
108.042730494966
 20
474.60508941745
 30
0.0
 40
4.0
100
AcDbArc
 50
90.0
 51
180.0
  0
ARC
  5
392
330
75
100
AcDbEntity
  8
1
  6
Continuous
 62
     7
100
AcDbCircle
 10
139.0427304949701
 20
474.60508941745
 30
0.0
 40
15.50000000000025
100
AcDbArc
 50
-165.1998178923618
 51
-14.51024246329861
  0
ARC
  5
393
330
75
100
AcDbEntity
  8
1
  6
Continuous
 62
     7
100
AcDbCircle
 10
155.042730494981
 20
474.60508941745
 30
0.0
 40
4.0
100
AcDbArc
 50
-90.0
 51
90.0
  0
ARC
  5
394
330
75
100
AcDbEntity
  8
1
  6
Continuous
 62
     7
100
AcDbCircle
 10
139.0427304949701
 20
474.60508941745
 30
0.0
 40
15.50000000000044
100
AcDbArc
 50
14.51024246449378
 51
165.1554376322336
  0
ARC
  5
395
330
75
100
AcDbEntity
  8
1
  6
CENTER_DASH_DASH
 62
     2
100
AcDbCircle
 10
139.0427304949701
 20
443.6231341888781
 30
0.0
 40
4.0
100
AcDbArc
 50
180.0
 51
0.0
  0
ARC
  5
396
330
75
100
AcDbEntity
  8
1
  6
CENTER_DASH_DASH
 62
     2
100
AcDbCircle
 10
139.0427304949701
 20
490.6231341888931
 30
0.0
 40
4.0
100
AcDbArc
 50
0.0
 51
180.0
  0
ARC
  5
397
330
75
100
AcDbEntity
  8
1
  6
Continuous
 62
     7
100
AcDbCircle
 10
304.6253944200491
 20
329.444503291704
 30
0.0
 40
4.0
100
AcDbArc
 50
-90.0
 51
0.0
  0
ARC
  5
398
330
75
100
AcDbEntity
  8
1
  6
Continuous
 62
     7
100
AcDbCircle
 10
304.6253944200491
 20
329.444503291704
 30
0.0
 40
4.0
100
AcDbArc
 50
180.0
 51
-90.0
  0
ARC
  5
399
330
75
100
AcDbEntity
  8
1
  6
Continuous
 62
     7
100
AcDbCircle
 10
304.6253944200491
 20
327.9962607978812
 30
0.0
 40
15.5
100
AcDbArc
 50
90.0
 51
180.0
  0
ARC
  5
39A
330
75
100
AcDbEntity
  8
1
  6
PHANTOM
 62
     5
100
AcDbCircle
 10
297.1253944200491
 20
283.4962607978812
 30
0.0
 40
59.99999999999962
100
AcDbArc
 50
67.10987244215811
 51
75.62455135571611
  0
ARC
  5
39B
330
75
100
AcDbEntity
  8
1
  6
PHANTOM
 62
     5
100
AcDbCircle
 10
276.4369328815881
 20
332.4962607978812
 30
0.0
 40
6.811538461538301
100
AcDbArc
 50
112.8901275578455
 51
-112.8901275578448
  0
ARC
  5
39C
330
75
100
AcDbEntity
  8
1
  6
PHANTOM
 62
     5
100
AcDbCircle
 10
288.1253944200491
 20
320.7920599547761
 30
0.0
 40
1.0
100
AcDbArc
 50
0.0
 51
84.35522244762039
  0
ARC
  5
39D
330
75
100
AcDbEntity
  8
1
  6
PHANTOM
 62
     5
100
AcDbCircle
 10
321.1253944200491
 20
324.224976544775
 30
0.0
 40
1.00000000000017
100
AcDbArc
 50
110.136770028368
 51
180.0
  0
ARC
  5
39E
330
75
100
AcDbEntity
  8
1
  6
PHANTOM
 62
     5
100
AcDbCircle
 10
317.8138559585111
 20
332.4962607978812
 30
0.0
 40
6.81153846153809
100
AcDbArc
 50
-67.10987244216362
 51
67.10987244216288
  0
ARC
  5
39F
330
75
100
AcDbEntity
  8
1
  6
PHANTOM
 62
     5
100
AcDbCircle
 10
297.1253944200491
 20
283.4962607978812
 30
0.0
 40
59.99999999999961
100
AcDbArc
 50
85.24207666485006
 51
112.8901275578419
  0
ARC
  5
3A0
330
75
100
AcDbEntity
  8
1
  6
PHANTOM
 62
     5
100
AcDbCircle
 10
295.6253944200491
 20
371.604451500571
 30
0.0
 40
50.36409174372017
100
AcDbArc
 50
-115.6962972755249
 51
-98.45094727005417
  0
ARC
  5
3A1
330
75
100
AcDbEntity
  8
1
  6
PHANTOM
 62
     5
100
AcDbCircle
 10
298.62539442005
 20
319.0800082149001
 30
0.0
 40
22.9758535164691
100
AcDbArc
 50
15.35464455855146
 51
18.1080020880252
  0
ARC
  5
3A2
330
75
100
AcDbEntity
  8
1
  6
Continuous
 62
     7
100
AcDbCircle
 10
304.6253944200491
 20
327.9962607978812
 30
0.0
 40
15.5
100
AcDbArc
 50
0.0
 51
90.0
  0
ARC
  5
3A3
330
75
100
AcDbEntity
  8
1
  6
Continuous
 62
     7
100
AcDbCircle
 10
304.6253944200491
 20
339.289503291704
 30
0.0
 40
4.0
100
AcDbArc
 50
90.0
 51
180.0
  0
ARC
  5
3A4
330
75
100
AcDbEntity
  8
1
  6
Continuous
 62
     7
100
AcDbCircle
 10
304.6253944200491
 20
339.289503291704
 30
0.0
 40
4.0
100
AcDbArc
 50
0.0
 51
90.0
  0
ARC
  5
3A5
330
75
100
AcDbEntity
  8
1
  6
PHANTOM
 62
     2
100
AcDbCircle
 10
139.0427304949701
 20
339.289503291704
 30
0.0
 40
4.0
100
AcDbArc
 50
0.0
 51
90.0
  0
ARC
  5
3A6
330
75
100
AcDbEntity
  8
1
  6
PHANTOM
 62
     2
100
AcDbCircle
 10
139.0427304949701
 20
339.289503291704
 30
0.0
 40
4.0
100
AcDbArc
 50
90.0
 51
180.0
  0
ARC
  5
3A7
330
75
100
AcDbEntity
  8
1
  6
Continuous
 62
     7
100
AcDbCircle
 10
139.0427304949701
 20
327.9962607978812
 30
0.0
 40
15.5
100
AcDbArc
 50
0.0
 51
90.0
  0
ARC
  5
3A8
330
75
100
AcDbEntity
  8
1
  6
Continuous
 62
     7
100
AcDbCircle
 10
133.042730494971
 20
319.0800082149001
 30
0.0
 40
22.9758535164691
100
AcDbArc
 50
15.35464455855146
 51
18.1080020880252
  0
ARC
  5
3A9
330
75
100
AcDbEntity
  8
1
  6
Continuous
 62
     7
100
AcDbCircle
 10
130.0427304949701
 20
371.604451500571
 30
0.0
 40
50.36409174372017
100
AcDbArc
 50
-115.6962972755249
 51
-98.45094727005419
  0
ARC
  5
3AA
330
75
100
AcDbEntity
  8
1
  6
Continuous
 62
     7
100
AcDbCircle
 10
131.5427304949701
 20
283.4962607978812
 30
0.0
 40
59.9999999999996
100
AcDbArc
 50
85.24207666485012
 51
112.8901275578419
  0
ARC
  5
3AB
330
75
100
AcDbEntity
  8
1
  6
Continuous
 62
     7
100
AcDbCircle
 10
152.2311920334321
 20
332.4962607978812
 30
0.0
 40
6.811538461538101
100
AcDbArc
 50
-67.10987244216339
 51
67.10987244216264
  0
ARC
  5
3AC
330
75
100
AcDbEntity
  8
1
  6
Continuous
 62
     7
100
AcDbCircle
 10
155.5427304949701
 20
324.224976544775
 30
0.0
 40
1.00000000000017
100
AcDbArc
 50
110.136770028368
 51
180.0
  0
ARC
  5
3AD
330
75
100
AcDbEntity
  8
1
  6
Continuous
 62
     7
100
AcDbCircle
 10
122.5427304949701
 20
320.7920599547761
 30
0.0
 40
1.000000000000178
100
AcDbArc
 50
20.64950927308097
 51
84.35522244762122
  0
ARC
  5
3AE
330
75
100
AcDbEntity
  8
1
  6
Continuous
 62
     7
100
AcDbCircle
 10
110.854268956509
 20
332.4962607978812
 30
0.0
 40
6.811538461538246
100
AcDbArc
 50
112.8901275578444
 51
-112.8901275578437
  0
ARC
  5
3AF
330
75
100
AcDbEntity
  8
1
  6
Continuous
 62
     7
100
AcDbCircle
 10
131.5427304949701
 20
283.4962607978812
 30
0.0
 40
59.99999999999962
100
AcDbArc
 50
67.10987244215811
 51
75.62455135571611
  0
ARC
  5
3B0
330
75
100
AcDbEntity
  8
1
  6
Continuous
 62
     7
100
AcDbCircle
 10
139.0427304949701
 20
327.9962607978812
 30
0.0
 40
15.5
100
AcDbArc
 50
90.0
 51
180.0
  0
ARC
  5
3B1
330
75
100
AcDbEntity
  8
1
  6
PHANTOM
 62
     2
100
AcDbCircle
 10
139.0427304949701
 20
324.7920599547761
 30
0.0
 40
4.0
100
AcDbArc
 50
180.0
 51
-90.0
  0
ARC
  5
3B2
330
75
100
AcDbEntity
  8
1
  6
PHANTOM
 62
     2
100
AcDbCircle
 10
139.0427304949701
 20
324.7920599547761
 30
0.0
 40
4.0
100
AcDbArc
 50
-90.0
 51
0.0
  0
SPLINE
  5
3B3
330
75
100
AcDbEntity
  8
1
  6
CENTER_DASH_DASH
 62
     2
100
AcDbSpline
210
0.0
220
0.0
230
1.0
 70
     8
 71
     3
 72
     9
 73
     5
 74
     3
 42
0.0000000001
 43
0.0000000001
 44
0.00000001
 40
0.0
 40
0.0
 40
0.0
 40
0.0
 40
0.5138980862092885
 40
1.025221895332248
 40
1.025221895332248
 40
1.025221895332248
 40
1.025221895332248
 10
135.0427304949701
 20
490.6231341888931
 30
0.0
 10
135.0329586162364
 20
490.4505025573729
 30
0.0
 10
135.0134638091819
 20
490.106104060451
 30
0.0
 10
135.1187307662757
 20
489.7776287955236
 30
0.0
 10
135.1712320849863
 20
489.6138035549291
 30
0.0
 11
135.0427304949701
 21
490.6231341888931
 31
0.0
 11
135.0447621314998
 21
490.1092401186193
 31
0.0
 11
135.1712320849863
 21
489.6138035549291
 31
0.0
  0
SPLINE
  5
3B4
330
75
100
AcDbEntity
  8
1
  6
CENTER_DASH_DASH
 62
     2
100
AcDbSpline
210
0.0
220
0.0
230
1.0
 70
     8
 71
     3
 72
     9
 73
     5
 74
     3
 42
0.0000000001
 43
0.0000000001
 44
0.00000001
 40
0.0
 40
0.0
 40
0.0
 40
0.0
 40
0.5138980960355185
 40
1.025221894615501
 40
1.025221894615501
 40
1.025221894615501
 40
1.025221894615501
 10
143.0427304949701
 20
490.6231341888931
 30
0.0
 10
143.0525023812433
 20
490.4505025517734
 30
0.0
 10
143.0719972029525
 20
490.1061040505067
 30
0.0
 10
142.9667301582583
 20
489.7776288084203
 30
0.0
 10
142.9142287969032
 20
489.6138035824811
 30
0.0
 11
143.0427304949701
 21
490.6231341888931
 31
0.0
 11
143.0406988541238
 21
490.1092401088101
 31
0.0
 11
142.9142287969032
 21
489.6138035824811
 31
0.0
  0
SPLINE
  5
3B5
330
75
100
AcDbEntity
  8
1
  6
CENTER_DASH_DASH
 62
     2
100
AcDbSpline
210
0.0
220
0.0
230
1.0
 70
     8
 71
     3
 72
     9
 73
     5
 74
     3
 42
0.0000000001
 43
0.0000000001
 44
0.00000001
 40
0.0
 40
0.0
 40
0.0
 40
0.0
 40
0.2489635780295157
 40
0.4978101241250653
 40
0.4978101241250653
 40
0.4978101241250653
 40
0.4978101241250653
 10
135.0427304949701
 20
459.1231341888811
 30
0.0
 10
135.0497000931932
 20
459.2058289581256
 30
0.0
 10
135.0636360133948
 20
459.3711796237445
 30
0.0
 10
135.0769092839868
 20
459.5365848012499
 30
0.0
 10
135.0835443590529
 20
459.6192679471601
 30
0.0
 11
135.0427304949701
 21
459.1231341888811
 31
0.0
 11
135.0634735493354
 21
459.3712321309944
 31
0.0
 11
135.0835443590529
 21
459.6192679471601
 31
0.0
  0
SPLINE
  5
3B6
330
75
100
AcDbEntity
  8
1
  6
CENTER_DASH_DASH
 62
     2
100
AcDbSpline
210
0.0
220
0.0
230
1.0
 70
     8
 71
     3
 72
     9
 73
     5
 74
     3
 42
0.0000000001
 43
0.0000000001
 44
0.00000001
 40
0.0
 40
0.0
 40
0.0
 40
0.0
 40
0.2489358847923007
 40
0.4977559993908504
 40
0.4977559993908504
 40
0.4977559993908504
 40
0.4977559993908504
 10
143.0427304949701
 20
459.1231341888811
 30
0.0
 10
143.0356858908613
 20
459.2058133679923
 30
0.0
 10
143.0215999588094
 20
459.371133275412
 30
0.0
 10
143.0082768160422
 20
459.5365164036098
 30
0.0
 10
143.001616794035
 20
459.6191887349551
 30
0.0
 11
143.0427304949701
 21
459.1231341888811
 31
0.0
 11
143.0217874686817
 21
459.3711875387622
 31
0.0
 11
143.001616794035
 21
459.6191887349551
 31
0.0
  0
SPLINE
  5
3B7
330
75
100
AcDbEntity
  8
1
  6
Continuous
 62
     7
100
AcDbSpline
210
0.0
220
0.0
230
1.0
 70
     8
 71
     3
 72
    45
 73
    41
 74
    39
 42
0.0000000001
 43
0.0000000001
 44
0.00000001
 40
0.0
 40
0.0
 40
0.0
 40
0.0
 40
0.2515580409735577
 40
0.5003570988423086
 40
1.027744579338337
 40
1.565299685289687
 40
2.103968653039419
 40
2.638455522658908
 40
3.158849510526975
 40
3.680544992853408
 40
4.208285926235456
 40
4.7356020793558
 40
5.271600679184188
 40
5.808858201112133
 40
6.363074898771496
 40
6.912072920541611
 40
7.485196161787973
 40
8.081410284388564
 40
8.71796529698849
 40
9.330831433976444
 40
9.871732394617903
 40
10.41263335525952
 40
11.02549949224752
 40
11.66205450484745
 40
12.25826862744818
 40
12.8313918686944
 40
13.3803898904643
 40
13.9346065881234
 40
14.47186411005116
 40
15.00786270988013
 40
15.53517886300034
 40
16.06291979638221
 40
16.58461527870878
 40
17.10500926657695
 40
17.63949613619639
 40
18.17816510394583
 40
18.71572020989731
 40
19.24310769039344
 40
19.4919067482622
 40
19.74346478923577
 40
19.74346478923577
 40
19.74346478923577
 40
19.74346478923577
 10
155.042730494981
 20
470.60508941745
 30
0.0
 10
154.9589969954867
 20
470.6008926045819
 30
0.0
 10
154.7924483504078
 20
470.5925450077294
 30
0.0
 10
154.448891195003
 20
470.6009181814868
 30
0.0
 10
154.0214596342207
 20
470.7177243526501
 30
0.0
 10
153.5308902864152
 20
470.9284144227709
 30
0.0
 10
153.0295145270359
 20
471.1214869514263
 30
0.0
 10
152.5231441532086
 20
471.2834699309172
 30
0.0
 10
152.0116121200359
 20
471.404934058829
 30
0.0
 10
151.5009602718708
 20
471.5192447402677
 30
0.0
 10
150.9940588969719
 20
471.6589546546555
 30
0.0
 10
150.4877382952606
 20
471.8168815887136
 30
0.0
 10
149.9812899560346
 20
471.9848202333348
 30
0.0
 10
149.4714571361949
 20
472.1705290606722
 30
0.0
 10
148.9654086364872
 20
472.3781701686191
 30
0.0
 10
148.4564596081985
 20
472.6088932531502
 30
0.0
 10
147.9431621698106
 20
472.8641086699645
 30
0.0
 10
147.4333314805945
 20
473.1866838463042
 30
0.0
 10
146.9598916438533
 20
473.5837190021201
 30
0.0
 10
146.5739689413245
 20
474.0428219866259
 30
0.0
 10
146.3760479021297
 20
474.6050894174502
 30
0.0
 10
146.5739689413245
 20
475.167356848274
 30
0.0
 10
146.9598916438533
 20
475.62645983278
 30
0.0
 10
147.4333314805945
 20
476.0234949885966
 30
0.0
 10
147.943162169811
 20
476.346070164935
 30
0.0
 10
148.4564596081983
 20
476.6012855817504
 30
0.0
 10
148.9654086364872
 20
476.8320086662807
 30
0.0
 10
149.4714571361951
 20
477.0396497742269
 30
0.0
 10
149.9812899560345
 20
477.2253586015646
 30
0.0
 10
150.4877382952603
 20
477.393297246187
 30
0.0
 10
150.9940588969718
 20
477.5512241802445
 30
0.0
 10
151.500960271871
 20
477.6909340946312
 30
0.0
 10
152.0116121200358
 20
477.8052447760708
 30
0.0
 10
152.5231441532085
 20
477.9267089039832
 30
0.0
 10
153.0295145270357
 20
478.0886918834739
 30
0.0
 10
153.5308902864155
 20
478.2817644121282
 30
0.0
 10
154.0214596342206
 20
478.4924544822496
 30
0.0
 10
154.448891195003
 20
478.6092606534131
 30
0.0
 10
154.7924483504078
 20
478.617633827171
 30
0.0
 10
154.9589969954867
 20
478.6092862303182
 30
0.0
 10
155.042730494981
 20
478.60508941745
 30
0.0
 11
155.042730494981
 21
470.60508941745
 31
0.0
 11
154.7913500181935
 21
470.5956393450403
 31
0.0
 11
154.5427304949701
 21
470.60508941745
 31
0.0
 11
154.029844724926
 21
470.7279134438871
 31
0.0
 11
153.529791678953
 21
470.9251758152291
 31
0.0
 11
153.0264589108234
 21
471.1170621913572
 31
0.0
 11
152.5168528629363
 21
471.2782387707741
 31
0.0
 11
152.0118177746627
 21
471.403735632176
 31
0.0
 11
151.5039140469191
 21
471.5228992995581
 31
0.0
 11
150.9947816002025
 21
471.6618044631314
 31
0.0
 11
150.490975230902
 21
471.8175011798401
 31
0.0
 11
149.9825316347483
 21
471.9871467177959
 31
0.0
 11
149.4780364148862
 21
472.171890372638
 31
0.0
 11
148.9651546061926
 21
472.3819103675805
 31
0.0
 11
148.4650975988691
 21
472.6084976958541
 31
0.0
 11
147.9546674054176
 21
472.8691339697489
 31
0.0
 11
147.4521587828519
 21
473.1900021112581
 31
0.0
 11
146.9670982250841
 21
473.6022138764517
 31
0.0
 11
146.5906103386245
 21
474.0858064458898
 31
0.0
 11
146.4392199668353
 21
474.60508941745
 31
0.0
 11
146.5906103386245
 21
475.1243723890104
 31
0.0
 11
146.9670982250841
 21
475.6079649584485
 31
0.0
 11
147.4521587828519
 21
476.0201767236422
 31
0.0
 11
147.9546674054179
 21
476.3410448651512
 31
0.0
 11
148.4650975988691
 21
476.6016811390462
 31
0.0
 11
148.9651546061926
 21
476.8282684673193
 31
0.0
 11
149.4780364148862
 21
477.0382884622611
 31
0.0
 11
149.9825316347479
 21
477.2230321171037
 31
0.0
 11
150.490975230902
 21
477.3926776550602
 31
0.0
 11
150.9947816002025
 21
477.5483743717684
 31
0.0
 11
151.5039140469191
 21
477.6872795353411
 31
0.0
 11
152.0118177746627
 21
477.8064432027238
 31
0.0
 11
152.5168528629363
 21
477.9319400641261
 31
0.0
 11
153.0264589108234
 21
478.0931166435429
 31
0.0
 11
153.529791678953
 21
478.2850030196701
 31
0.0
 11
154.029844724926
 21
478.4822653910125
 31
0.0
 11
154.5427304949701
 21
478.60508941745
 31
0.0
 11
154.7913500181935
 21
478.6145394898599
 31
0.0
 11
155.042730494981
 21
478.60508941745
 31
0.0
  0
SPLINE
  5
3B8
330
75
100
AcDbEntity
  8
1
  6
Continuous
 62
     7
100
AcDbSpline
210
0.0
220
0.0
230
1.0
 70
     8
 71
     3
 72
    39
 73
    35
 74
    33
 42
0.0000000001
 43
0.0000000001
 44
0.00000001
 40
0.0
 40
0.0
 40
0.0
 40
0.0
 40
0.814116224308195
 40
1.628044439849868
 40
2.441115339998724
 40
3.254737864899366
 40
4.070360162077938
 40
4.884586783356999
 40
5.720631086340418
 40
6.55705474191923
 40
7.416022363947123
 40
8.280509960877543
 40
9.173609243004842
 40
10.04242609387169
 40
10.88855170782825
 40
11.82821403936052
 40
13.05005335067959
 40
13.8983672207835
 40
14.74668109088743
 40
15.96852040220663
 40
16.9081827337387
 40
17.75430834769547
 40
18.62312519856235
 40
19.51622448068959
 40
20.38071207762029
 40
21.23967969964783
 40
22.07610335522667
 40
22.91214765821012
 40
23.72637427948922
 40
24.54199657666776
 40
25.35561910156873
 40
26.16869000171719
 40
26.98261821725888
 40
27.79673444156713
 40
27.79673444156713
 40
27.79673444156713
 40
27.79673444156713
 10
123.5427304949701
 20
470.60508941745
 30
0.0
 10
123.8132582203875
 20
470.6264787265126
 30
0.0
 10
124.3542511966243
 20
470.6692524050758
 30
0.0
 10
125.1656406096356
 20
470.7306665626081
 30
0.0
 10
125.9772566565599
 20
470.7866157287183
 30
0.0
 10
126.7898669572846
 20
470.8364231780871
 30
0.0
 10
127.6031590252331
 20
470.8793023178265
 30
0.0
 10
128.421925176828
 20
470.9626048978739
 30
0.0
 10
129.2341681915837
 20
471.134927598881
 30
0.0
 10
130.0447287529414
 20
471.3706553724382
 30
0.0
 10
130.8536108794601
 20
471.6429424360246
 30
0.0
 10
131.6695632601135
 20
471.9517564744514
 30
0.0
 10
132.4786478455931
 20
472.2855430271411
 30
0.0
 10
133.2767067313567
 20
472.6333442440334
 30
0.0
 10
134.0808226542386
 20
472.9919190622873
 30
0.0
 10
135.0035544595446
 20
473.4335928231788
 30
0.0
 10
135.842733464203
 20
473.7961571754256
 30
0.0
 10
136.8099562333419
 20
474.60508941745
 30
0.0
 10
135.842733464203
 20
475.4140216594747
 30
0.0
 10
135.0035544595447
 20
475.7765860117214
 30
0.0
 10
134.0808226542389
 20
476.2182597726135
 30
0.0
 10
133.2767067313567
 20
476.5768345908666
 30
0.0
 10
132.4786478455932
 20
476.9246358077597
 30
0.0
 10
131.6695632601135
 20
477.2584223604489
 30
0.0
 10
130.85361087946
 20
477.5672363988755
 30
0.0
 10
130.0447287529412
 20
477.8395234624619
 30
0.0
 10
129.2341681915837
 20
478.0752512360189
 30
0.0
 10
128.421925176828
 20
478.2475739370264
 30
0.0
 10
127.6031590252331
 20
478.3308765170744
 30
0.0
 10
126.7898669572845
 20
478.3737556568126
 30
0.0
 10
125.9772566565599
 20
478.4235631061822
 30
0.0
 10
125.1656406096354
 20
478.4795122722906
 30
0.0
 10
124.3542511966243
 20
478.5409264298234
 30
0.0
 10
123.8132582203876
 20
478.5837001083872
 30
0.0
 10
123.5427304949701
 20
478.60508941745
 30
0.0
 11
123.5427304949701
 21
470.60508941745
 31
0.0
 11
124.3543497050107
 21
470.6688035020379
 31
0.0
 11
125.1659907555343
 21
470.7297784572231
 31
0.0
 11
125.977144917007
 21
470.7855746487986
 31
0.0
 11
126.7892510160971
 21
470.835226404522
 31
0.0
 11
127.6032943676949
 21
470.8859526637402
 31
0.0
 11
128.4125112766612
 21
470.9761357277962
 31
0.0
 11
129.231353817972
 21
471.1448573004853
 31
0.0
 11
130.035771537225
 21
471.374022447407
 31
0.0
 11
130.8500933305488
 21
471.6473453198677
 31
0.0
 11
131.6590317977891
 21
471.9522344168611
 31
0.0
 11
132.4851962657472
 21
472.2914667850394
 31
0.0
 11
133.2822920583519
 21
472.6371270485381
 31
0.0
 11
134.0540460784895
 21
472.9840049622122
 31
0.0
 11
134.9055523189161
 21
473.3813743367432
 31
0.0
 11
135.984810527031
 21
473.9541683860325
 31
0.0
 11
136.5288125794803
 21
474.60508941745
 31
0.0
 11
135.984810527031
 21
475.2560104488676
 31
0.0
 11
134.9055523189161
 21
475.8288044981571
 31
0.0
 11
134.0540460784898
 21
476.2261738726883
 31
0.0
 11
133.2822920583519
 21
476.5730517863622
 31
0.0
 11
132.4851962657472
 21
476.9187120498611
 31
0.0
 11
131.6590317977891
 21
477.2579444180392
 31
0.0
 11
130.8500933305485
 21
477.5628335150325
 31
0.0
 11
130.035771537225
 21
477.836156387493
 31
0.0
 11
129.231353817972
 21
478.0653215344148
 31
0.0
 11
128.4125112766612
 21
478.2340431071041
 31
0.0
 11
127.6032943676949
 21
478.3242261711604
 31
0.0
 11
126.7892510160971
 21
478.374952430378
 31
0.0
 11
125.9771449170067
 21
478.4246041861015
 31
0.0
 11
125.1659907555343
 21
478.480400377676
 31
0.0
 11
124.3543497050107
 21
478.5413753328614
 31
0.0
 11
123.5427304949701
 21
478.60508941745
 31
0.0
  0
SOLID
  5
3B9
330
75
100
AcDbEntity
  8
0
 62
     7
100
AcDbTrace
 10
140.8477771175328
 20
483.5889712592453
 30
0.0
 11
141.8480748218049
 21
485.1370510396649
 31
0.0
 12
147.2273426491431
 22
480.5640034488681
 32
0.0
 13
147.2273426491431
 23
480.5640034488681
 33
0.0
  0
LEADER
  5
3BA
330
75
100
AcDbEntity
  8
0
  6
Continuous
 62
     7
100
AcDbLeader
  3
Standard
 71
     0
 76
     3
 10
147.2273426491431
 20
480.5640034488681
 30
0.0
 10
146.5608818237872
 20
480.9946396744831
 30
0.0
 10
145.89442099843
 20
481.4252759000981
 30
0.0
  0
SOLID
  5
3BB
330
75
100
AcDbEntity
  8
0
 62
     7
100
AcDbTrace
 10
142.0435592783163
 20
462.8979990952355
 30
0.0
 11
140.9566715667307
 21
464.386562700232
 31
0.0
 12
147.153496984876
 22
467.770146800407
 32
0.0
 13
147.153496984876
 23
467.770146800407
 33
0.0
  0
LEADER
  5
3BC
330
75
100
AcDbEntity
  8
0
  6
Continuous
 62
     7
100
AcDbLeader
  3
Standard
 71
     0
 76
     3
 10
147.153496984876
 20
467.770146800407
 30
0.0
 10
146.507542646453
 20
467.2984976009232
 30
0.0
 10
145.8615883080299
 20
466.82684840144
 30
0.0
  0
MTEXT
  5
3BE
330
75
100
AcDbEntity
  8
1
 62
     7
100
AcDbMText
 10
143.6646248297482
 20
479.2269837522281
 30
0.0
 40
6.0
 41
0.0
 71
     5
 72
     1
  1
と
  7
CONVERTER_1
 11
-1.0
 21
2.326752072262517E-15
 31
0.0
 73
     1
 44
0.7202881152461
  0
MTEXT
  5
3BF
330
75
100
AcDbEntity
  8
1
 62
     7
100
AcDbMText
 10
139.0427304949701
 20
481.1414350695482
 30
0.0
 40
6.0
 41
0.0
 71
     5
 72
     1
  1
じ
  7
CONVERTER_1
 11
-1.0
 21
1.591988259969090E-15
 31
0.0
 73
     1
 44
0.7202881152461
  0
MTEXT
  5
3C0
330
75
100
AcDbEntity
  8
1
 62
     7
100
AcDbMText
 10
143.6646248297482
 20
469.9831950826722
 30
0.0
 40
6.0
 41
0.0
 71
     5
 72
     1
  1
ひ
  7
CONVERTER_1
 11
-1.0
 21
3.673819061467132E-16
 31
0.0
 73
     1
 44
0.7202881152461
  0
MTEXT
  5
3C1
330
75
100
AcDbEntity
  8
1
 62
     7
100
AcDbMText
 10
139.0427304949701
 20
468.0687437653521
 30
0.0
 40
6.0
 41
0.0
 71
     5
 72
     1
  1
ら
  7
CONVERTER_1
 11
-1.0
 21
6.123031769111886E-16
 31
0.0
 73
     1
 44
0.7202881152461
  0
MTEXT
  5
3C2
330
75
100
AcDbEntity
  8
1
 62
     7
100
AcDbMText
 10
134.420836160192
 20
479.2269837522281
 30
0.0
 40
6.0
 41
0.0
 71
     5
 72
     1
  1
る
  7
CONVERTER_1
 11
-1.0
 21
1.836909530733566E-15
 31
0.0
 73
     1
 44
0.7202881152461
  0
MTEXT
  5
3C3
330
75
100
AcDbEntity
  8
1
 62
     7
100
AcDbMText
 10
134.420836160192
 20
469.9831950826722
 30
0.0
 40
6.0
 41
0.0
 71
     5
 72
     1
  1
く
  7
CONVERTER_1
 11
-1.0
 21
0.0
 31
0.0
 73
     1
 44
0.7202881152461
  0
ENDBLK
  5
77
330
75
100
AcDbEntity
  8
0
100
AcDbBlockEnd
  0
BLOCK
  5
79
330
78
100
AcDbEntity
  8
0
100
AcDbBlockBegin
  2
22-2A-M2
 70
     0
 71
     0
 10
326.7371360085201
 20
-114.7446077473799
 30
0.0
  3
22-2A-M2
  1

  0
LINE
  5
3C4
330
78
100
AcDbEntity
  8
0
  6
Continuous
 62
     7
100
AcDbLine
 10
126.0427304949701
 20
155.0476766078521
 30
0.0
 11
126.0427304949701
 21
142.3459706856802
 31
0.0
  0
LINE
  5
3C5
330
78
100
AcDbEntity
  8
0
  6
Continuous
 62
     7
100
AcDbLine
 10
140.0427304949692
 20
134.2630669170242
 30
0.0
 11
144.258120804144
 21
136.6968236467651
 31
0.0
  0
LINE
  5
3C6
330
78
100
AcDbEntity
  8
0
  6
Continuous
 62
     7
100
AcDbLine
 10
152.0427304949701
 20
142.3459706856791
 30
0.0
 11
152.0427304949701
 21
155.04767660785
 31
0.0
  0
LINE
  5
3C7
330
78
100
AcDbEntity
  8
0
  6
Continuous
 62
     7
100
AcDbLine
 10
133.8273401857971
 20
136.6968236467651
 30
0.0
 11
138.0427304949692
 21
134.2630669170251
 31
0.0
  0
LINE
  5
3C8
330
78
100
AcDbEntity
  8
0
  6
Continuous
 62
     7
100
AcDbLine
 10
327.3753944200491
 20
127.6968236467651
 30
0.0
 11
327.3753944200491
 21
133.7630669170251
 31
0.0
  0
LINE
  5
3C9
330
78
100
AcDbEntity
  8
0
  6
Continuous
 62
     7
100
AcDbLine
 10
330.3753944200491
 20
125.6968236467651
 30
0.0
 11
329.3753944200491
 21
125.6968236467651
 31
0.0
  0
LINE
  5
3CA
330
78
100
AcDbEntity
  8
0
  6
Continuous
 62
     7
100
AcDbLine
 10
322.8091511497903
 20
134.2630669170242
 30
0.0
 11
321.3753944200491
 21
135.6968236467651
 31
0.0
  0
LINE
  5
3CB
330
78
100
AcDbEntity
  8
0
  6
Continuous
 62
     7
100
AcDbLine
 10
326.8753944200491
 20
134.2630669170251
 30
0.0
 11
322.8091511497903
 21
134.2630669170242
 31
0.0
  0
LINE
  5
3CC
330
78
100
AcDbEntity
  8
0
  6
Continuous
 62
     7
100
AcDbLine
 10
321.3753944200491
 20
148.6968236467651
 30
0.0
 11
321.3753944200491
 21
135.6968236467651
 31
0.0
  0
LINE
  5
3CD
330
78
100
AcDbEntity
  8
0
  6
Continuous
 62
     7
100
AcDbLine
 10
330.3753944200491
 20
148.6968236467651
 30
0.0
 11
330.3753944200491
 21
125.6968236467651
 31
0.0
  0
LINE
  5
3CE
330
78
100
AcDbEntity
  8
0
  6
Continuous
 62
     7
100
AcDbLine
 10
327.3753944200491
 20
133.7630669170251
 30
0.0
 11
327.3753944200491
 21
140.6139198781111
 31
0.0
  0
LINE
  5
3CF
330
78
100
AcDbEntity
  8
0
  6
Continuous
 62
     7
100
AcDbLine
 10
327.3753944200491
 20
140.6139198781111
 30
0.0
 11
323.3091511497903
 21
140.6139198781111
 31
0.0
  0
LINE
  5
3D0
330
78
100
AcDbEntity
  8
0
  6
Continuous
 62
     7
100
AcDbLine
 10
327.3753944200491
 20
140.6139198781111
 30
0.0
 11
327.3753944200491
 21
142.3459706856791
 31
0.0
  0
LINE
  5
3D1
330
78
100
AcDbEntity
  8
0
  6
Continuous
 62
     7
100
AcDbLine
 10
322.8091511497903
 20
141.1139198781111
 30
0.0
 11
322.8091511497903
 21
141.8459706856791
 31
0.0
  0
LINE
  5
3D2
330
78
100
AcDbEntity
  8
0
  6
Continuous
 62
     7
100
AcDbLine
 10
323.3091511497903
 20
142.3459706856791
 30
0.0
 11
327.3753944200491
 21
142.3459706856791
 31
0.0
  0
LINE
  5
3D3
330
78
100
AcDbEntity
  8
0
  6
Continuous
 62
     7
100
AcDbLine
 10
327.3753944200491
 20
142.3459706856791
 30
0.0
 11
327.3753944200491
 21
148.6968236467651
 31
0.0
  0
LINE
  5
3D4
330
78
100
AcDbEntity
  8
0
  6
Continuous
 62
     7
100
AcDbLine
 10
327.3753944200491
 20
148.6968236467651
 30
0.0
 11
327.3753944200491
 21
155.0476766078511
 31
0.0
  0
LINE
  5
3D5
330
78
100
AcDbEntity
  8
0
  6
Continuous
 62
     7
100
AcDbLine
 10
327.3753944200491
 20
155.0476766078511
 30
0.0
 11
323.3091511497903
 21
155.0476766078511
 31
0.0
  0
LINE
  5
3D6
330
78
100
AcDbEntity
  8
0
  6
Continuous
 62
     7
100
AcDbLine
 10
322.8091511497903
 20
155.5476766078511
 30
0.0
 11
322.8091511497903
 21
156.2797274154191
 31
0.0
  0
LINE
  5
3D7
330
78
100
AcDbEntity
  8
0
  6
Continuous
 62
     7
100
AcDbLine
 10
327.3753944200491
 20
155.0476766078511
 30
0.0
 11
327.3753944200491
 21
156.7797274154191
 31
0.0
  0
LINE
  5
3D8
330
78
100
AcDbEntity
  8
0
  6
Continuous
 62
     7
100
AcDbLine
 10
323.3091511497903
 20
156.7797274154191
 30
0.0
 11
327.3753944200491
 21
156.7797274154191
 31
0.0
  0
LINE
  5
3D9
330
78
100
AcDbEntity
  8
0
  6
Continuous
 62
     7
100
AcDbLine
 10
327.3753944200491
 20
156.7797274154191
 30
0.0
 11
327.3753944200491
 21
163.630580376506
 31
0.0
  0
LINE
  5
3DA
330
78
100
AcDbEntity
  8
0
  6
Continuous
 62
     7
100
AcDbLine
 10
330.3753944200491
 20
171.6968236467651
 30
0.0
 11
330.3753944200491
 21
148.6968236467651
 31
0.0
  0
LINE
  5
3DB
330
78
100
AcDbEntity
  8
0
  6
Continuous
 62
     7
100
AcDbLine
 10
321.3753944200491
 20
161.6968236467651
 30
0.0
 11
321.3753944200491
 21
148.6968236467651
 31
0.0
  0
LINE
  5
3DC
330
78
100
AcDbEntity
  8
0
  6
Continuous
 62
     7
100
AcDbLine
 10
322.8091511497903
 20
163.130580376506
 30
0.0
 11
326.8753944200491
 21
163.130580376506
 31
0.0
  0
LINE
  5
3DD
330
78
100
AcDbEntity
  8
0
  6
Continuous
 62
     7
100
AcDbLine
 10
321.3753944200491
 20
161.6968236467651
 30
0.0
 11
322.8091511497903
 21
163.130580376506
 31
0.0
  0
LINE
  5
3DE
330
78
100
AcDbEntity
  8
0
  6
Continuous
 62
     7
100
AcDbLine
 10
329.3753944200491
 20
171.6968236467651
 30
0.0
 11
330.3753944200491
 21
171.6968236467651
 31
0.0
  0
LINE
  5
3DF
330
78
100
AcDbEntity
  8
0
  6
Continuous
 62
     7
100
AcDbLine
 10
327.3753944200491
 20
163.630580376506
 30
0.0
 11
327.3753944200491
 21
169.6968236467651
 31
0.0
  0
ARC
  5
3E0
330
78
100
AcDbEntity
  8
0
  6
Continuous
 62
     7
100
AcDbCircle
 10
139.0427304949701
 20
148.6968236467651
 30
0.0
 40
13.0
100
AcDbArc
 50
-112.6198649480404
 51
-67.38013505195957
  0
ARC
  5
3E1
330
78
100
AcDbEntity
  8
0
  6
Continuous
 62
     7
100
AcDbCircle
 10
139.0427304949701
 20
148.6968236467651
 30
0.0
 40
13.0
100
AcDbArc
 50
-22.61986494804043
 51
22.61986494804043
  0
ARC
  5
3E2
330
78
100
AcDbEntity
  8
0
  6
Continuous
 62
     7
100
AcDbCircle
 10
139.0427304949701
 20
148.6968236467651
 30
0.0
 40
13.0
100
AcDbArc
 50
157.3801350519596
 51
-157.3801350519596
  0
ARC
  5
3E3
330
78
100
AcDbEntity
  8
0
  6
Continuous
 62
     7
100
AcDbCircle
 10
139.0427304949701
 20
148.6968236467651
 30
0.0
 40
23.00000000000025
100
AcDbArc
 50
29.99999999999702
 51
58.55101861062109
  0
ARC
  5
3E4
330
78
100
AcDbEntity
  8
0
  6
Continuous
 62
     7
100
AcDbCircle
 10
139.0427304949701
 20
148.6968236467651
 30
0.0
 40
23.00000000000043
100
AcDbArc
 50
121.4489813893789
 51
29.99999999999702
  0
ARC
  5
3E5
330
78
100
AcDbEntity
  8
0
  6
Continuous
 62
     7
100
AcDbCircle
 10
325.6071096515191
 20
137.4384933975671
 30
0.0
 40
4.232245870780267
100
AcDbArc
 50
131.3841936118663
 51
-131.3841936118759
  0
ARC
  5
3E6
330
78
100
AcDbEntity
  8
0
  6
Continuous
 62
     7
100
AcDbCircle
 10
334.3967588331323
 20
148.2992350071741
 30
0.0
 40
13.02743289772173
100
AcDbArc
 50
178.2510991193963
 51
-152.8076557036301
  0
ARC
  5
3E7
330
78
100
AcDbEntity
  8
0
  6
Continuous
 62
     7
100
AcDbCircle
 10
334.3967588331323
 20
149.0944122863562
 30
0.0
 40
13.02743289772129
100
AcDbArc
 50
152.8076557036305
 51
-178.2510991193959
  0
ARC
  5
3E8
330
78
100
AcDbEntity
  8
0
  6
Continuous
 62
     7
100
AcDbCircle
 10
325.6071096515191
 20
159.9551538959631
 30
0.0
 40
4.232245870779457
100
AcDbArc
 50
131.3841936118759
 51
-131.3841936118663
  0
ARC
  5
3E9
330
78
100
AcDbEntity
  8
0
  6
Continuous
 62
     7
100
AcDbCircle
 10
150.0427304949701
 20
155.04767660785
 30
0.0
 40
2.0
100
AcDbArc
 50
0.0
 51
60.00000000000313
  0
ARC
  5
3EA
330
78
100
AcDbEntity
  8
0
  6
Continuous
 62
     7
100
AcDbCircle
 10
128.0427304949701
 20
155.0476766078521
 30
0.0
 40
1.999999999999155
100
AcDbArc
 50
120.000000000014
 51
180.0
  0
ARC
  5
3EB
330
78
100
AcDbEntity
  8
0
  6
Continuous
 62
     7
100
AcDbCircle
 10
128.0427304949692
 20
142.3459706856791
 30
0.0
 40
1.999999999999091
100
AcDbArc
 50
179.9999999999691
 51
-119.9999999999898
  0
ARC
  5
3EC
330
78
100
AcDbEntity
  8
0
  6
Continuous
 62
     7
100
AcDbCircle
 10
139.0427304949692
 20
135.995117724593
 30
0.0
 40
1.999999999999155
100
AcDbArc
 50
-120.000000000014
 51
-59.99999999999906
  0
ARC
  5
3ED
330
78
100
AcDbEntity
  8
0
  6
Continuous
 62
     7
100
AcDbCircle
 10
150.0427304949701
 20
142.3459706856791
 30
0.0
 40
2.000000000000977
100
AcDbArc
 50
-60.00000000001615
 51
0.0
  0
ARC
  5
3EE
330
78
100
AcDbEntity
  8
0
  6
Continuous
 62
     7
100
AcDbCircle
 10
329.3753944200491
 20
127.6968236467651
 30
0.0
 40
2.0
100
AcDbArc
 50
180.0
 51
-90.0
  0
ARC
  5
3EF
330
78
100
AcDbEntity
  8
0
  6
Continuous
 62
     7
100
AcDbCircle
 10
326.8753944200491
 20
133.7630669170242
 30
0.0
 40
0.5
100
AcDbArc
 50
0.00000000010422
 51
90.0
  0
ARC
  5
3F0
330
78
100
AcDbEntity
  8
0
  6
Continuous
 62
     7
100
AcDbCircle
 10
323.3091511497903
 20
141.8459706856791
 30
0.0
 40
0.5
100
AcDbArc
 50
90.0
 51
180.0
  0
ARC
  5
3F1
330
78
100
AcDbEntity
  8
0
  6
Continuous
 62
     7
100
AcDbCircle
 10
323.3091511497903
 20
141.1139198781111
 30
0.0
 40
0.5
100
AcDbArc
 50
180.0
 51
-90.0
  0
ARC
  5
3F2
330
78
100
AcDbEntity
  8
0
  6
Continuous
 62
     7
100
AcDbCircle
 10
323.3091511497903
 20
156.2797274154191
 30
0.0
 40
0.5
100
AcDbArc
 50
90.0
 51
180.0
  0
ARC
  5
3F3
330
78
100
AcDbEntity
  8
0
  6
Continuous
 62
     7
100
AcDbCircle
 10
323.3091511497903
 20
155.5476766078511
 30
0.0
 40
0.5
100
AcDbArc
 50
180.0
 51
-90.0
  0
ARC
  5
3F4
330
78
100
AcDbEntity
  8
0
  6
Continuous
 62
     7
100
AcDbCircle
 10
326.8753944200491
 20
163.630580376506
 30
0.0
 40
0.5
100
AcDbArc
 50
-90.0
 51
0.0
  0
ARC
  5
3F5
330
78
100
AcDbEntity
  8
0
  6
Continuous
 62
     7
100
AcDbCircle
 10
329.3753944200491
 20
169.6968236467651
 30
0.0
 40
2.0
100
AcDbArc
 50
90.0
 51
180.0
  0
ENDBLK
  5
7A
330
78
100
AcDbEntity
  8
0
100
AcDbBlockEnd
  0
BLOCK
  5
7C
330
7B
100
AcDbEntity
  8
0
100
AcDbBlockBegin
  2
_J__A4
 70
     0
 71
     0
 10
11.0
 20
-23.0
 30
0.0
  3
_J__A4
  1

  0
POINT
  5
3F6
330
7B
100
AcDbEntity
  8
1
 62
     4
100
AcDbPoint
 10
93.75000000000011
 20
17.0
 30
0.0
  0
POINT
  5
3F7
330
7B
100
AcDbEntity
  8
1
 62
     4
100
AcDbPoint
 10
85.25000000000011
 20
17.0
 30
0.0
  0
POINT
  5
3F8
330
7B
100
AcDbEntity
  8
1
 62
     4
100
AcDbPoint
 10
106.5000000000001
 20
19.0
 30
0.0
  0
POINT
  5
3F9
330
7B
100
AcDbEntity
  8
1
 62
     4
100
AcDbPoint
 10
106.5000000000001
 20
12.5
 30
0.0
  0
POINT
  5
3FA
330
7B
100
AcDbEntity
  8
1
 62
     4
100
AcDbPoint
 10
112.2500000000001
 20
12.5
 30
0.0
  0
POINT
  5
3FB
330
7B
100
AcDbEntity
  8
1
 62
     4
100
AcDbPoint
 10
100.7500000000001
 20
12.5
 30
0.0
  0
POINT
  5
3FC
330
7B
100
AcDbEntity
  8
1
 62
     4
100
AcDbPoint
 10
123.5000000000001
 20
19.0
 30
0.0
  0
POINT
  5
3FD
330
7B
100
AcDbEntity
  8
1
 62
     4
100
AcDbPoint
 10
123.5000000000001
 20
12.5
 30
0.0
  0
POINT
  5
3FE
330
7B
100
AcDbEntity
  8
1
 62
     4
100
AcDbPoint
 10
129.2500000000001
 20
12.5
 30
0.0
  0
POINT
  5
3FF
330
7B
100
AcDbEntity
  8
1
 62
     4
100
AcDbPoint
 10
117.7500000000001
 20
12.5
 30
0.0
  0
POINT
  5
400
330
7B
100
AcDbEntity
  8
1
 62
     4
100
AcDbPoint
 10
140.5000000000001
 20
19.0
 30
0.0
  0
POINT
  5
401
330
7B
100
AcDbEntity
  8
1
 62
     4
100
AcDbPoint
 10
140.5000000000001
 20
12.5
 30
0.0
  0
POINT
  5
402
330
7B
100
AcDbEntity
  8
1
 62
     4
100
AcDbPoint
 10
146.2500000000001
 20
12.5
 30
0.0
  0
POINT
  5
403
330
7B
100
AcDbEntity
  8
1
 62
     4
100
AcDbPoint
 10
134.7500000000001
 20
12.5
 30
0.0
  0
POINT
  5
404
330
7B
100
AcDbEntity
  8
1
 62
     4
100
AcDbPoint
 10
151.7500000000001
 20
12.5
 30
0.0
  0
POINT
  5
405
330
7B
100
AcDbEntity
  8
1
 62
     4
100
AcDbPoint
 10
163.2500000000001
 20
12.5
 30
0.0
  0
POINT
  5
406
330
7B
100
AcDbEntity
  8
1
 62
     4
100
AcDbPoint
 10
157.5000000000001
 20
12.5
 30
0.0
  0
POINT
  5
407
330
7B
100
AcDbEntity
  8
1
 62
     4
100
AcDbPoint
 10
57.00000000000011
 20
14.25
 30
0.0
  0
POINT
  5
408
330
7B
100
AcDbEntity
  8
1
 62
     4
100
AcDbPoint
 10
57.00000000000011
 20
22.75
 30
0.0
  0
POINT
  5
409
330
7B
100
AcDbEntity
  8
1
 62
     4
100
AcDbPoint
 10
47.5
 20
282.0000000000002
 30
0.0
  0
POINT
  5
40A
330
7B
100
AcDbEntity
  8
1
 62
     4
100
AcDbPoint
 10
157.5000000000001
 20
19.0
 30
0.0
  0
POINT
  5
40B
330
7B
100
AcDbEntity
  8
1
 62
     4
100
AcDbPoint
 10
57.00000000000011
 20
16.25
 30
0.0
  0
POINT
  5
40C
330
7B
100
AcDbEntity
  8
1
 62
     4
100
AcDbPoint
 10
57.00000000000011
 20
24.75
 30
0.0
  0
POINT
  5
40D
330
7B
100
AcDbEntity
  8
1
 62
     4
100
AcDbPoint
 10
57.00000000000011
 20
20.75
 30
0.0
  0
POINT
  5
40E
330
7B
100
AcDbEntity
  8
1
 62
     4
100
AcDbPoint
 10
57.00000000000011
 20
12.25
 30
0.0
  0
POINT
  5
40F
330
7B
100
AcDbEntity
  8
1
 62
     4
100
AcDbPoint
 10
34.0
 20
34.0
 30
0.0
  0
LINE
  5
410
330
7B
100
AcDbEntity
  8
1
  6
Continuous
 62
     7
100
AcDbLine
 10
105.0000000000001
 20
10.0
 30
0.0
 11
200.0000000000001
 21
10.0
 31
0.0
  0
LINE
  5
411
330
7B
100
AcDbEntity
  8
1
  6
Continuous
 62
     2
100
AcDbLine
 10
105.0000000000001
 20
10.0
 30
0.0
 11
105.0000000000001
 21
5.0
 31
0.0
  0
LINE
  5
412
330
7B
100
AcDbEntity
  8
1
  6
Continuous
 62
     7
100
AcDbLine
 10
200.0000000000001
 20
148.5
 30
0.0
 11
200.0000000000001
 21
287.0000000000002
 31
0.0
  0
LINE
  5
413
330
7B
100
AcDbEntity
  8
1
  6
Continuous
 62
     2
100
AcDbLine
 10
200.0000000000001
 20
148.5
 30
0.0
 11
205.0000000000001
 21
148.5
 31
0.0
  0
LINE
  5
414
330
7B
100
AcDbEntity
  8
1
  6
Continuous
 62
     7
100
AcDbLine
 10
25.0
 20
148.5
 30
0.0
 11
25.0
 21
287.0000000000002
 31
0.0
  0
LINE
  5
415
330
7B
100
AcDbEntity
  8
1
  6
Continuous
 62
     2
100
AcDbLine
 10
25.0
 20
148.5
 30
0.0
 11
20.0
 21
148.5
 31
0.0
  0
LINE
  5
416
330
7B
100
AcDbEntity
  8
1
  6
Continuous
 62
     7
100
AcDbLine
 10
105.0000000000001
 20
287.0000000000002
 30
0.0
 11
25.0
 21
287.0000000000002
 31
0.0
  0
LINE
  5
417
330
7B
100
AcDbEntity
  8
1
  6
Continuous
 62
     2
100
AcDbLine
 10
105.0000000000001
 20
287.0000000000002
 30
0.0
 11
105.0000000000001
 21
292.0000000000002
 31
0.0
  0
LINE
  5
418
330
7B
100
AcDbEntity
  8
1
  6
Continuous
 62
     2
100
AcDbLine
 10
166.0000000000001
 20
20.0
 30
0.0
 11
200.0000000000001
 21
20.0
 31
0.0
  0
LINE
  5
419
330
7B
100
AcDbEntity
  8
1
  6
Continuous
 62
     2
100
AcDbLine
 10
98.00000000000011
 20
27.0
 30
0.0
 11
98.00000000000011
 21
10.0
 31
0.0
  0
LINE
  5
41A
330
7B
100
AcDbEntity
  8
1
  6
Continuous
 62
     2
100
AcDbLine
 10
115.0000000000001
 20
27.0
 30
0.0
 11
115.0000000000001
 21
10.0
 31
0.0
  0
LINE
  5
41B
330
7B
100
AcDbEntity
  8
1
  6
Continuous
 62
     2
100
AcDbLine
 10
149.0000000000001
 20
27.0
 30
0.0
 11
149.0000000000001
 21
10.0
 31
0.0
  0
LINE
  5
41C
330
7B
100
AcDbEntity
  8
1
  6
Continuous
 62
     2
100
AcDbLine
 10
132.0000000000001
 20
27.0
 30
0.0
 11
132.0000000000001
 21
10.0
 31
0.0
  0
LINE
  5
41D
330
7B
100
AcDbEntity
  8
1
  6
Continuous
 62
     2
100
AcDbLine
 10
166.0000000000001
 20
27.0
 30
0.0
 11
166.0000000000001
 21
10.0
 31
0.0
  0
LINE
  5
41E
330
7B
100
AcDbEntity
  8
1
  6
Continuous
 62
     2
100
AcDbLine
 10
55.00000000000011
 20
277.0000000000002
 30
0.0
 11
25.0
 21
277.0000000000002
 31
0.0
  0
LINE
  5
41F
330
7B
100
AcDbEntity
  8
1
  6
Continuous
 62
     7
100
AcDbLine
 10
25.0
 20
10.0
 30
0.0
 11
25.0
 21
148.5
 31
0.0
  0
LINE
  5
420
330
7B
100
AcDbEntity
  8
1
  6
Continuous
 62
     2
100
AcDbLine
 10
40.0
 20
287.0000000000002
 30
0.0
 11
40.0
 21
277.0000000000002
 31
0.0
  0
LINE
  5
421
330
7B
100
AcDbEntity
  8
1
  6
Continuous
 62
     2
100
AcDbLine
 10
55.00000000000011
 20
287.0000000000002
 30
0.0
 11
55.00000000000011
 21
277.0000000000002
 31
0.0
  0
LINE
  5
422
330
7B
100
AcDbEntity
  8
1
  6
Continuous
 62
     2
100
AcDbLine
 10
33.0
 20
41.0
 30
0.0
 11
33.0
 21
27.0
 31
0.0
  0
LINE
  5
423
330
7B
100
AcDbEntity
  8
1
  6
Continuous
 62
     7
100
AcDbLine
 10
200.0000000000001
 20
27.0
 30
0.0
 11
25.0
 21
27.0
 31
0.0
  0
LINE
  5
424
330
7B
100
AcDbEntity
  8
1
  6
Continuous
 62
     7
100
AcDbLine
 10
25.0
 20
41.0
 30
0.0
 11
200.0000000000001
 21
41.0
 31
0.0
  0
LINE
  5
425
330
7B
100
AcDbEntity
  8
1
  6
PHANTOM
 62
     4
100
AcDbLine
 10
0.0
 20
0.0
 30
0.0
 11
210.0000000000001
 21
0.0
 31
0.0
  0
LINE
  5
426
330
7B
100
AcDbEntity
  8
1
  6
PHANTOM
 62
     4
100
AcDbLine
 10
210.0000000000001
 20
0.0
 30
0.0
 11
210.0000000000001
 21
297.0
 31
0.0
  0
LINE
  5
427
330
7B
100
AcDbEntity
  8
1
  6
PHANTOM
 62
     4
100
AcDbLine
 10
210.0000000000001
 20
297.0
 30
0.0
 11
0.0
 21
297.0
 31
0.0
  0
LINE
  5
428
330
7B
100
AcDbEntity
  8
1
  6
PHANTOM
 62
     4
100
AcDbLine
 10
0.0
 20
297.0
 30
0.0
 11
0.0
 21
0.0
 31
0.0
  0
LINE
  5
429
330
7B
100
AcDbEntity
  8
1
  6
Continuous
 62
     7
100
AcDbLine
 10
25.0
 20
10.0
 30
0.0
 11
105.0000000000001
 21
10.0
 31
0.0
  0
LINE
  5
42A
330
7B
100
AcDbEntity
  8
1
  6
Continuous
 62
     7
100
AcDbLine
 10
200.0000000000001
 20
10.0
 30
0.0
 11
200.0000000000001
 21
148.5
 31
0.0
  0
LINE
  5
42B
330
7B
100
AcDbEntity
  8
1
  6
Continuous
 62
     7
100
AcDbLine
 10
200.0000000000001
 20
287.0000000000002
 30
0.0
 11
105.0000000000001
 21
287.0000000000002
 31
0.0
  0
LINE
  5
42C
330
7B
100
AcDbEntity
  8
1
  6
Continuous
 62
     2
100
AcDbLine
 10
25.0
 20
18.5
 30
0.0
 11
81.00000000000011
 21
18.5
 31
0.0
  0
LINE
  5
42D
330
7B
100
AcDbEntity
  8
1
  6
Continuous
 62
     2
100
AcDbLine
 10
33.0
 20
27.0
 30
0.0
 11
33.0
 21
10.0
 31
0.0
  0
LINE
  5
42E
330
7B
100
AcDbEntity
  8
1
  6
Continuous
 62
     7
100
AcDbLine
 10
191.0000000000001
 20
24.70000000000005
 30
0.0
 11
191.0000000000001
 21
22.29999999999996
 31
0.0
  0
LINE
  5
42F
330
7B
100
AcDbEntity
  8
1
  6
Continuous
 62
     7
100
AcDbLine
 10
191.0000000000001
 20
24.70000000000005
 30
0.0
 11
196.0000000000001
 21
25.5
 31
0.0
  0
LINE
  5
430
330
7B
100
AcDbEntity
  8
1
  6
Continuous
 62
     7
100
AcDbLine
 10
196.0000000000001
 20
25.5
 30
0.0
 11
196.0000000000001
 21
21.5
 31
0.0
  0
LINE
  5
431
330
7B
100
AcDbEntity
  8
1
  6
Continuous
 62
     7
100
AcDbLine
 10
196.0000000000001
 20
21.5
 30
0.0
 11
191.0000000000001
 21
22.29999999999996
 31
0.0
  0
LINE
  5
432
330
7B
100
AcDbEntity
  8
1
  6
DOT_CENTER
 62
     2
100
AcDbLine
 10
184.0000000000001
 20
23.5
 30
0.0
 11
197.0000000000001
 21
23.5
 31
0.0
  0
LINE
  5
433
330
7B
100
AcDbEntity
  8
1
  6
DOT_CENTER
 62
     2
100
AcDbLine
 10
187.0000000000001
 20
26.5
 30
0.0
 11
187.0000000000001
 21
20.5
 31
0.0
  0
LINE
  5
434
330
7B
100
AcDbEntity
  8
1
  6
Continuous
 62
     2
100
AcDbLine
 10
81.00000000000011
 20
27.0
 30
0.0
 11
81.00000000000011
 21
10.0
 31
0.0
  0
CIRCLE
  5
435
330
7B
100
AcDbEntity
  8
1
  6
Continuous
 62
     7
100
AcDbCircle
 10
103.5000000000001
 20
12.5
 30
0.0
 40
0.2999999999999972
  0
CIRCLE
  5
436
330
7B
100
AcDbEntity
  8
1
  6
Continuous
 62
     7
100
AcDbCircle
 10
109.5000000000001
 20
12.5
 30
0.0
 40
0.2999999999999972
  0
CIRCLE
  5
437
330
7B
100
AcDbEntity
  8
1
  6
Continuous
 62
     7
100
AcDbCircle
 10
120.5000000000001
 20
12.5
 30
0.0
 40
0.2999999999999972
  0
CIRCLE
  5
438
330
7B
100
AcDbEntity
  8
1
  6
Continuous
 62
     7
100
AcDbCircle
 10
126.5000000000001
 20
12.5
 30
0.0
 40
0.2999999999999972
  0
CIRCLE
  5
439
330
7B
100
AcDbEntity
  8
1
  6
Continuous
 62
     7
100
AcDbCircle
 10
137.5000000000001
 20
12.5
 30
0.0
 40
0.299999999999983
  0
CIRCLE
  5
43A
330
7B
100
AcDbEntity
  8
1
  6
Continuous
 62
     7
100
AcDbCircle
 10
143.5000000000001
 20
12.5
 30
0.0
 40
0.299999999999983
  0
CIRCLE
  5
43B
330
7B
100
AcDbEntity
  8
1
  6
Continuous
 62
     7
100
AcDbCircle
 10
160.5000000000001
 20
12.5
 30
0.0
 40
0.299999999999983
  0
CIRCLE
  5
43C
330
7B
100
AcDbEntity
  8
1
  6
Continuous
 62
     7
100
AcDbCircle
 10
154.5000000000001
 20
12.5
 30
0.0
 40
0.299999999999983
  0
CIRCLE
  5
43D
330
7B
100
AcDbEntity
  8
1
  6
Continuous
 62
     7
100
AcDbCircle
 10
187.0000000000001
 20
23.5
 30
0.0
 40
1.200000000000074
  0
CIRCLE
  5
43E
330
7B
100
AcDbEntity
  8
1
  6
Continuous
 62
     7
100
AcDbCircle
 10
187.0000000000001
 20
23.5
 30
0.0
 40
2.0
  0
CIRCLE
  5
43F
330
7B
100
AcDbEntity
  8
1
  6
DOT_CENTER
 62
     7
100
AcDbCircle
 10
89.50000000000011
 20
16.0
 30
0.0
 40
0.0999999999999091
  0
CIRCLE
  5
440
330
7B
100
AcDbEntity
  8
1
  6
DOT_CENTER
 62
     7
100
AcDbCircle
 10
89.50000000000011
 20
18.0
 30
0.0
 40
0.0999999999999091
  0
MTEXT
  5
441
330
7B
100
AcDbEntity
  8
1
 62
     7
100
AcDbMText
 10
188.5000000000001
 20
15.0
 30
0.0
 40
3.0
 41
0.0
 71
     5
 72
     1
  1
三栄水栓製作所
  7
CONVERTER_1
 73
     1
 44
1.32052821128451
  0
MTEXT
  5
442
330
7B
100
AcDbEntity
  8
1
 62
     7
100
AcDbMText
 10
171.5000000000001
 20
15.0
 30
0.0
 40
2.5
 41
0.0
 71
     5
 72
     1
  1
株式会社
  7
CONVERTER_1
 73
     1
 44
1.32052821128451
  0
MTEXT
  5
443
330
7B
100
AcDbEntity
  8
1
 62
     2
100
AcDbMText
 10
32.5
 20
282.0000000000002
 30
0.0
 40
5.0
 41
0.0
 71
     5
 72
     1
  1
図番
  7
CONVERTER_1
 73
     1
 44
0.60024009603842
  0
MTEXT
  5
444
330
7B
100
AcDbEntity
  8
1
 62
     2
100
AcDbMText
 10
29.0
 20
34.0
 30
0.0
 40
3.5
 41
0.0
 71
     5
 72
     1
  1
備考
  7
CONVERTER_1
 73
     1
 44
0.60024009603842
  0
MTEXT
  5
445
330
7B
100
AcDbEntity
  8
1
 62
     2
100
AcDbMText
 10
29.0
 20
22.75
 30
0.0
 40
3.5
 41
0.0
 71
     5
 72
     1
  1
品名
  7
CONVERTER_1
 73
     1
 44
0.96038415366146
  0
MTEXT
  5
446
330
7B
100
AcDbEntity
  8
1
 62
     2
100
AcDbMText
 10
29.0
 20
14.25
 30
0.0
 40
3.5
 41
0.0
 71
     5
 72
     1
  1
品番
  7
CONVERTER_1
 73
     1
 44
0.96038415366146
  0
MTEXT
  5
447
330
7B
100
AcDbEntity
  8
1
 62
     2
100
AcDbMText
 10
101.5000000000001
 20
25.0
 30
0.0
 40
3.0
 41
0.0
 71
     5
 72
     1
  1
承認
  7
CONVERTER_1
 73
     1
 44
0.78031212484994
  0
MTEXT
  5
448
330
7B
100
AcDbEntity
  8
1
 62
     2
100
AcDbMText
 10
175.0000000000001
 20
23.5
 30
0.0
 40
3.5
 41
0.0
 71
     5
 72
     1
  1
第三角法
  7
CONVERTER_1
 73
     1
 44
0.7202881152461
  0
MTEXT
  5
449
330
7B
100
AcDbEntity
  8
1
 62
     2
100
AcDbMText
 10
118.5000000000001
 20
25.0
 30
0.0
 40
3.0
 41
0.0
 71
     5
 72
     1
  1
検図
  7
CONVERTER_1
 73
     1
 44
0.78031212484994
  0
MTEXT
  5
44A
330
7B
100
AcDbEntity
  8
1
 62
     2
100
AcDbMText
 10
152.5000000000001
 20
25.0
 30
0.0
 40
3.0
 41
0.0
 71
     5
 72
     1
  1
設計
  7
CONVERTER_1
 73
     1
 44
0.78031212484994
  0
MTEXT
  5
44B
330
7B
100
AcDbEntity
  8
1
 62
     2
100
AcDbMText
 10
135.5000000000001
 20
25.0
 30
0.0
 40
3.0
 41
0.0
 71
     5
 72
     1
  1
製図
  7
CONVERTER_1
 73
     1
 44
0.78031212484994
  0
MTEXT
  5
44C
330
7B
100
AcDbEntity
  8
1
 62
     2
100
AcDbMText
 10
89.50000000000011
 20
24.0
 30
0.0
 40
3.5
 41
0.0
 71
     5
 72
     1
  1
尺度
  7
CONVERTER_1
 73
     1
 44
0.7202881152461
  0
MTEXT
  5
44D
330
7B
100
AcDbEntity
  8
1
 62
   250
100
AcDbMText
 10
25.0
 20
5.0
 30
0.0
 40
3.5
 41
0.0
 71
     4
 72
     1
  1
備考欄の文字列 原点位置=4
  7
CONVERTER_1
 73
     1
 44
0.7202881152461
  0
ENDBLK
  5
7D
330
7B
100
AcDbEntity
  8
0
100
AcDbBlockEnd
  0
BLOCK
  5
7F
330
7E
100
AcDbEntity
  8
0
100
AcDbBlockBegin
  2
R68-1__4
 70
     0
 71
     0
 10
492.3607188369131
 20
218.7468236467651
 30
0.0
  3
R68-1__4
  1

  0
LINE
  5
44E
330
7E
100
AcDbEntity
  8
1
  6
Continuous
 62
     7
100
AcDbLine
 10
122.3760721616393
 20
490.4550894174502
 30
0.0
 11
108.0427304949701
 21
490.4550894174502
 31
0.0
  0
LINE
  5
44F
330
7E
100
AcDbEntity
  8
1
  6
Continuous
 62
     7
100
AcDbLine
 10
148.7523906332042
 20
495.4550894174502
 30
0.0
 11
170.0427304949701
 21
495.4550894174502
 31
0.0
  0
LINE
  5
450
330
7E
100
AcDbEntity
  8
1
  6
Continuous
 62
     7
100
AcDbLine
 10
108.0427304949701
 20
490.4550894174502
 30
0.0
 11
108.0427304949701
 21
495.4550894174502
 31
0.0
  0
LINE
  5
451
330
7E
100
AcDbEntity
  8
1
  6
Continuous
 62
     7
100
AcDbLine
 10
170.0427304949701
 20
490.4550894174502
 30
0.0
 11
155.7093888283009
 21
490.4550894174502
 31
0.0
  0
LINE
  5
452
330
7E
100
AcDbEntity
  8
1
  6
Continuous
 62
     7
100
AcDbLine
 10
170.0427304949701
 20
495.4550894174502
 30
0.0
 11
170.0427304949701
 21
490.4550894174502
 31
0.0
  0
LINE
  5
453
330
7E
100
AcDbEntity
  8
1
  6
Continuous
 62
     7
100
AcDbLine
 10
108.0427304949701
 20
495.4550894174502
 30
0.0
 11
129.3330703567369
 21
495.4550894174502
 31
0.0
  0
LINE
  5
454
330
7E
100
AcDbEntity
  8
1
  6
Continuous
 62
     7
100
AcDbLine
 10
325.3753944200491
 20
243.7468236467651
 30
0.0
 11
325.3753944200491
 21
218.7468236467651
 31
0.0
  0
LINE
  5
455
330
7E
100
AcDbEntity
  8
1
  6
Continuous
 62
     7
100
AcDbLine
 10
325.3753944200491
 20
218.7468236467651
 30
0.0
 11
320.3753944200491
 21
218.7468236467651
 31
0.0
  0
LINE
  5
456
330
7E
100
AcDbEntity
  8
1
  6
Continuous
 62
     7
100
AcDbLine
 10
320.3753944200491
 20
218.7468236467651
 30
0.0
 11
320.3753944200491
 21
243.7468236467651
 31
0.0
  0
LINE
  5
457
330
7E
100
AcDbEntity
  8
1
  6
Continuous
 62
     7
100
AcDbLine
 10
320.3753944200491
 20
243.7468236467651
 30
0.0
 11
325.3753944200491
 21
243.7468236467651
 31
0.0
  0
ENDBLK
  5
80
330
7E
100
AcDbEntity
  8
0
100
AcDbBlockEnd
  0
BLOCK
  5
488
330
481
100
AcDbEntity
  8
0
100
AcDbBlockBegin
  2
*D022
 70
     1
 71
     0
 10
0.0
 20
0.0
 30
0.0
  3
*D022
  1

  0
LINE
  5
482
330
481
100
AcDbEntity
  8
1
  6
Continuous
 62
     2
100
AcDbLine
 10
192.3407288493593
 20
327.5962607978811
 30
0.0
 11
192.3407288493593
 21
283.5962607978811
 31
0.0
  0
LINE
  5
483
330
481
100
AcDbEntity
  8
1
  6
Continuous
 62
     2
100
AcDbLine
 10
261.1253944200491
 20
283.5962607978811
 30
0.0
 11
190.3407288493593
 21
283.5962607978811
 31
0.0
  0
LINE
  5
484
330
481
100
AcDbEntity
  8
1
  6
Continuous
 62
     2
100
AcDbLine
 10
261.1253944200491
 20
327.5962607978811
 30
0.0
 11
190.3407288493593
 21
327.5962607978811
 31
0.0
  0
SOLID
  5
485
330
481
100
AcDbEntity
  8
1
 62
     2
100
AcDbTrace
 10
193.2622963324711
 20
320.5962607978811
 30
0.0
 11
191.4191613662475
 21
320.5962607978811
 31
0.0
 12
192.3407288493593
 22
327.5962607978811
 32
0.0
 13
192.3407288493593
 23
327.5962607978811
 33
0.0
  0
SOLID
  5
486
330
481
100
AcDbEntity
  8
1
 62
     2
100
AcDbTrace
 10
191.4191613662475
 20
290.5962607978811
 30
0.0
 11
193.2622963324711
 21
290.5962607978811
 31
0.0
 12
192.3407288493593
 22
283.5962607978811
 32
0.0
 13
192.3407288493593
 23
283.5962607978811
 33
0.0
  0
MTEXT
  5
487
330
481
100
AcDbEntity
  8
1
 62
     7
100
AcDbMText
 10
190.3407288493593
 20
293.0662607978811
 30
0.0
 40
7.0
 41
0.0
 71
     7
 72
     1
  1
\C7;{\Fgdt;n}\C7;44
  7
CONVERTER_2
 11
0.0
 21
1.0
 31
0.0
 73
     1
 44
0.60024009603842
  0
ENDBLK
  5
489
330
481
100
AcDbEntity
  8
0
100
AcDbBlockEnd
  0
BLOCK
  5
493
330
48C
100
AcDbEntity
  8
0
100
AcDbBlockBegin
  2
*D123
 70
     1
 71
     0
 10
0.0
 20
0.0
 30
0.0
  3
*D123
  1

  0
LINE
  5
48D
330
48C
100
AcDbEntity
  8
1
  6
Continuous
 62
     2
100
AcDbLine
 10
228.3407288493593
 20
363.4172906910051
 30
0.0
 11
304.6253944200491
 21
363.4172906910051
 31
0.0
  0
LINE
  5
48E
330
48C
100
AcDbEntity
  8
1
  6
Continuous
 62
     2
100
AcDbLine
 10
228.3407288493593
 20
305.0041998150762
 30
0.0
 11
228.3407288493593
 21
365.4172906910051
 31
0.0
  0
LINE
  5
48F
330
48C
100
AcDbEntity
  8
1
  6
Continuous
 62
     2
100
AcDbLine
 10
304.6253944200491
 20
347.2572217366752
 30
0.0
 11
304.6253944200491
 21
365.4172906910051
 31
0.0
  0
SOLID
  5
490
330
48C
100
AcDbEntity
  8
1
 62
     2
100
AcDbTrace
 10
235.3407288493593
 20
364.3388581741169
 30
0.0
 11
235.3407288493593
 21
362.4957232078934
 31
0.0
 12
228.3407288493593
 22
363.4172906910051
 32
0.0
 13
228.3407288493593
 23
363.4172906910051
 33
0.0
  0
SOLID
  5
491
330
48C
100
AcDbEntity
  8
1
 62
     2
100
AcDbTrace
 10
297.6253944200491
 20
362.4957232078934
 30
0.0
 11
297.6253944200491
 21
364.3388581741169
 31
0.0
 12
304.6253944200491
 22
363.4172906910051
 32
0.0
 13
304.6253944200491
 23
363.4172906910051
 33
0.0
  0
MTEXT
  5
492
330
48C
100
AcDbEntity
  8
1
 62
     7
100
AcDbMText
 10
260.6879577543102
 20
365.4172906910051
 30
0.0
 40
7.0
 41
0.0
 71
     7
 72
     1
  1
77
  7
CONVERTER_2
 11
0.9999999999970621
 21
2.424068405545307E-6
 31
0.0
 73
     1
 44
0.60024009603842
  0
ENDBLK
  5
494
330
48C
100
AcDbEntity
  8
0
100
AcDbBlockEnd
  0
BLOCK
  5
49E
330
497
100
AcDbEntity
  8
0
100
AcDbBlockBegin
  2
*D224
 70
     1
 71
     0
 10
0.0
 20
0.0
 30
0.0
  3
*D224
  1

  0
LINE
  5
498
330
497
100
AcDbEntity
  8
1
  6
Continuous
 62
     2
100
AcDbLine
 10
304.6253944200491
 20
363.4172906910051
 30
0.0
 11
340.1253944200491
 21
363.4172906910051
 31
0.0
  0
LINE
  5
499
330
497
100
AcDbEntity
  8
1
  6
Continuous
 62
     2
100
AcDbLine
 10
304.6253944200491
 20
347.2572217366752
 30
0.0
 11
304.6253944200491
 21
365.4172906910051
 31
0.0
  0
LINE
  5
49A
330
497
100
AcDbEntity
  8
1
  6
Continuous
 62
     2
100
AcDbLine
 10
340.1253944200491
 20
148.6968236467651
 30
0.0
 11
340.1253944200491
 21
365.4172906910051
 31
0.0
  0
SOLID
  5
49B
330
497
100
AcDbEntity
  8
1
 62
     2
100
AcDbTrace
 10
311.6253944200491
 20
364.3388581741169
 30
0.0
 11
311.6253944200491
 21
362.4957232078934
 31
0.0
 12
304.6253944200491
 22
363.4172906910051
 32
0.0
 13
304.6253944200491
 23
363.4172906910051
 33
0.0
  0
SOLID
  5
49C
330
497
100
AcDbEntity
  8
1
 62
     2
100
AcDbTrace
 10
333.1253944200491
 20
362.4957232078934
 30
0.0
 11
333.1253944200491
 21
364.3388581741169
 31
0.0
 12
340.1253944200491
 22
363.4172906910051
 32
0.0
 13
340.1253944200491
 23
363.4172906910051
 33
0.0
  0
MTEXT
  5
49D
330
497
100
AcDbEntity
  8
1
 62
     7
100
AcDbMText
 10
316.9706015816903
 20
365.4172906910051
 30
0.0
 40
7.0
 41
0.0
 71
     7
 72
     1
  1
36
  7
CONVERTER_2
 11
0.9999999999970621
 21
2.424068405545307E-6
 31
0.0
 73
     1
 44
0.60024009603842
  0
ENDBLK
  5
49F
330
497
100
AcDbEntity
  8
0
100
AcDbBlockEnd
  0
BLOCK
  5
4AB
330
4A2
100
AcDbEntity
  8
0
100
AcDbBlockBegin
  2
*D325
 70
     1
 71
     0
 10
0.0
 20
0.0
 30
0.0
  3
*D325
  1

  0
LINE
  5
4A3
330
4A2
100
AcDbEntity
  8
1
  6
Continuous
 62
     2
100
AcDbLine
 10
208.3407288493588
 20
327.446260797881
 30
0.0
 11
208.3407288493588
 21
313.446260797881
 31
0.0
  0
LINE
  5
4A4
330
4A2
100
AcDbEntity
  8
1
  6
Continuous
 62
     2
100
AcDbLine
 10
208.3407288493588
 20
313.446260797881
 30
0.0
 11
208.3407288493588
 21
297.7462607978812
 31
0.0
  0
LINE
  5
4A5
330
4A2
100
AcDbEntity
  8
1
  6
Continuous
 62
     2
100
AcDbLine
 10
208.3407288493588
 20
297.7462607978812
 30
0.0
 11
208.3407288493588
 21
283.7462607978812
 31
0.0
  0
LINE
  5
4A6
330
4A2
100
AcDbEntity
  8
1
  6
Continuous
 62
     2
100
AcDbLine
 10
240.0253944200488
 20
297.7462607978812
 30
0.0
 11
206.3407288493588
 21
297.7462607978812
 31
0.0
  0
LINE
  5
4A7
330
4A2
100
AcDbEntity
  8
1
  6
Continuous
 62
     2
100
AcDbLine
 10
240.0253944200488
 20
313.446260797881
 30
0.0
 11
206.3407288493588
 21
313.446260797881
 31
0.0
  0
SOLID
  5
4A8
330
4A2
100
AcDbEntity
  8
1
 62
     2
100
AcDbTrace
 10
207.419161366247
 20
320.446260797881
 30
0.0
 11
209.2622963324706
 21
320.446260797881
 31
0.0
 12
208.3407288493588
 22
313.446260797881
 32
0.0
 13
208.3407288493588
 23
313.446260797881
 33
0.0
  0
SOLID
  5
4A9
330
4A2
100
AcDbEntity
  8
1
 62
     2
100
AcDbTrace
 10
209.2622963324706
 20
290.7462607978812
 30
0.0
 11
207.419161366247
 21
290.7462607978812
 31
0.0
 12
208.3407288493588
 22
297.7462607978812
 32
0.0
 13
208.3407288493588
 23
297.7462607978812
 33
0.0
  0
MTEXT
  5
4AA
330
4A2
100
AcDbEntity
  8
1
 62
     7
100
AcDbMText
 10
205.6407288493589
 20
289.7412607978811
 30
0.0
 40
7.0
 41
0.0
 71
     7
 72
     1
  1
\C7;{\Fgdt;n}\C7;15,7
  7
CONVERTER_2
 11
0.0
 21
1.0
 31
0.0
 73
     1
 44
0.60024009603842
  0
ENDBLK
  5
4AC
330
4A2
100
AcDbEntity
  8
0
100
AcDbBlockEnd
  0
BLOCK
  5
4B6
330
4AF
100
AcDbEntity
  8
0
100
AcDbBlockBegin
  2
*D426
 70
     1
 71
     0
 10
0.0
 20
0.0
 30
0.0
  3
*D426
  1

  0
LINE
  5
4B0
330
4AF
100
AcDbEntity
  8
1
  6
Continuous
 62
     2
100
AcDbLine
 10
116.5427304949701
 20
535.4550894174502
 30
0.0
 11
161.5427304949701
 21
535.4550894174502
 31
0.0
  0
LINE
  5
4B1
330
4AF
100
AcDbEntity
  8
1
  6
Continuous
 62
     2
100
AcDbLine
 10
116.5427304949701
 20
517.4550894174502
 30
0.0
 11
116.5427304949701
 21
537.4550894174502
 31
0.0
  0
LINE
  5
4B2
330
4AF
100
AcDbEntity
  8
1
  6
Continuous
 62
     2
100
AcDbLine
 10
161.5427304949701
 20
517.4550894174502
 30
0.0
 11
161.5427304949701
 21
537.4550894174502
 31
0.0
  0
SOLID
  5
4B3
330
4AF
100
AcDbEntity
  8
1
 62
     2
100
AcDbTrace
 10
123.5427304949701
 20
536.3766569005619
 30
0.0
 11
123.5427304949701
 21
534.5335219343384
 31
0.0
 12
116.5427304949701
 22
535.4550894174502
 32
0.0
 13
116.5427304949701
 23
535.4550894174502
 33
0.0
  0
SOLID
  5
4B4
330
4AF
100
AcDbEntity
  8
1
 62
     2
100
AcDbTrace
 10
154.5427304949701
 20
534.5335219343384
 30
0.0
 11
154.5427304949701
 21
536.3766569005619
 31
0.0
 12
161.5427304949701
 22
535.4550894174502
 32
0.0
 13
161.5427304949701
 23
535.4550894174502
 33
0.0
  0
MTEXT
  5
4B5
330
4AF
100
AcDbEntity
  8
1
 62
     7
100
AcDbMText
 10
134.2400464402401
 20
537.4550894174502
 30
0.0
 40
7.0
 41
0.0
 71
     7
 72
     1
  1
45
  7
CONVERTER_2
 11
0.9999999999970621
 21
2.424068405545307E-6
 31
0.0
 73
     1
 44
0.60024009603842
  0
ENDBLK
  5
4B7
330
4AF
100
AcDbEntity
  8
0
100
AcDbBlockEnd
  0
BLOCK
  5
4C1
330
4BA
100
AcDbEntity
  8
0
100
AcDbBlockBegin
  2
*D527
 70
     1
 71
     0
 10
0.0
 20
0.0
 30
0.0
  3
*D527
  1

  0
LINE
  5
4BB
330
4BA
100
AcDbEntity
  8
1
  6
Continuous
 62
     2
100
AcDbLine
 10
84.04552294231712
 20
305.5962607978811
 30
0.0
 11
84.04552294231712
 21
148.6968236467651
 31
0.0
  0
LINE
  5
4BC
330
4BA
100
AcDbEntity
  8
1
  6
Continuous
 62
     2
100
AcDbLine
 10
114.0427304949701
 20
305.5962607978811
 30
0.0
 11
82.04552294231712
 21
305.5962607978811
 31
0.0
  0
LINE
  5
4BD
330
4BA
100
AcDbEntity
  8
1
  6
Continuous
 62
     2
100
AcDbLine
 10
114.0427304949701
 20
148.6968236467651
 30
0.0
 11
82.04552294231712
 21
148.6968236467651
 31
0.0
  0
SOLID
  5
4BE
330
4BA
100
AcDbEntity
  8
1
 62
     2
100
AcDbTrace
 10
84.96709042542889
 20
298.5962607978811
 30
0.0
 11
83.12395545920535
 21
298.5962607978811
 31
0.0
 12
84.04552294231712
 22
305.5962607978811
 32
0.0
 13
84.04552294231712
 23
305.5962607978811
 33
0.0
  0
SOLID
  5
4BF
330
4BA
100
AcDbEntity
  8
1
 62
     2
100
AcDbTrace
 10
83.12395545920535
 20
155.6968236467651
 30
0.0
 11
84.96709042542889
 21
155.6968236467651
 31
0.0
 12
84.04552294231712
 22
148.6968236467651
 32
0.0
 13
84.04552294231712
 23
148.6968236467651
 33
0.0
  0
MTEXT
  5
4C0
330
4BA
100
AcDbEntity
  8
1
 62
     7
100
AcDbMText
 10
82.04552294231712
 20
215.36079082656
 30
0.0
 40
7.0
 41
0.0
 71
     7
 72
     1
  1
157
  7
CONVERTER_2
 11
0.0
 21
1.0
 31
0.0
 73
     1
 44
0.60024009603842
  0
ENDBLK
  5
4C2
330
4BA
100
AcDbEntity
  8
0
100
AcDbBlockEnd
  0
BLOCK
  5
4CC
330
4C5
100
AcDbEntity
  8
0
100
AcDbBlockBegin
  2
*D628
 70
     1
 71
     0
 10
0.0
 20
0.0
 30
0.0
  3
*D628
  1

  0
LINE
  5
4C6
330
4C5
100
AcDbEntity
  8
1
  6
Continuous
 62
     2
100
AcDbLine
 10
84.04552294231712
 20
343.4172906910051
 30
0.0
 11
84.04552294231712
 21
305.5962607978811
 31
0.0
  0
LINE
  5
4C7
330
4C5
100
AcDbEntity
  8
1
  6
Continuous
 62
     2
100
AcDbLine
 10
125.65470425227
 20
343.4172906910051
 30
0.0
 11
82.04552294231712
 21
343.4172906910051
 31
0.0
  0
LINE
  5
4C8
330
4C5
100
AcDbEntity
  8
1
  6
Continuous
 62
     2
100
AcDbLine
 10
114.0427304949701
 20
305.5962607978811
 30
0.0
 11
82.04552294231712
 21
305.5962607978811
 31
0.0
  0
SOLID
  5
4C9
330
4C5
100
AcDbEntity
  8
1
 62
     2
100
AcDbTrace
 10
84.96709042542889
 20
336.4172906910051
 30
0.0
 11
83.12395545920535
 21
336.4172906910051
 31
0.0
 12
84.04552294231712
 22
343.4172906910051
 32
0.0
 13
84.04552294231712
 23
343.4172906910051
 33
0.0
  0
SOLID
  5
4CA
330
4C5
100
AcDbEntity
  8
1
 62
     2
100
AcDbTrace
 10
83.12395545920535
 20
312.5962607978811
 30
0.0
 11
84.96709042542889
 21
312.5962607978811
 31
0.0
 12
84.04552294231712
 22
305.5962607978811
 32
0.0
 13
84.04552294231712
 23
305.5962607978811
 33
0.0
  0
MTEXT
  5
4CB
330
4C5
100
AcDbEntity
  8
1
 62
     7
100
AcDbMText
 10
82.04552294231712
 20
322.3262847405301
 30
0.0
 40
7.0
 41
0.0
 71
     7
 72
     1
  1
38
  7
CONVERTER_2
 11
0.0
 21
1.0
 31
0.0
 73
     1
 44
0.60024009603842
  0
ENDBLK
  5
4CD
330
4C5
100
AcDbEntity
  8
0
100
AcDbBlockEnd
  0
BLOCK
  5
4D7
330
4D0
100
AcDbEntity
  8
0
100
AcDbBlockBegin
  2
*D729
 70
     1
 71
     0
 10
0.0
 20
0.0
 30
0.0
  3
*D729
  1

  0
LINE
  5
4D1
330
4D0
100
AcDbEntity
  8
1
  6
Continuous
 62
     2
100
AcDbLine
 10
365.3753944200491
 20
171.6968236467651
 30
0.0
 11
365.3753944200491
 21
125.6968236467651
 31
0.0
  0
LINE
  5
4D2
330
4D0
100
AcDbEntity
  8
1
  6
Continuous
 62
     2
100
AcDbLine
 10
329.3753944200491
 20
171.6968236467651
 30
0.0
 11
367.3753944200491
 21
171.6968236467651
 31
0.0
  0
LINE
  5
4D3
330
4D0
100
AcDbEntity
  8
1
  6
Continuous
 62
     2
100
AcDbLine
 10
330.3753944200491
 20
125.6968236467651
 30
0.0
 11
367.3753944200491
 21
125.6968236467651
 31
0.0
  0
SOLID
  5
4D4
330
4D0
100
AcDbEntity
  8
1
 62
     2
100
AcDbTrace
 10
366.2969619031608
 20
164.6968236467651
 30
0.0
 11
364.4538269369373
 21
164.6968236467651
 31
0.0
 12
365.3753944200491
 22
171.6968236467651
 32
0.0
 13
365.3753944200491
 23
171.6968236467651
 33
0.0
  0
SOLID
  5
4D5
330
4D0
100
AcDbEntity
  8
1
 62
     2
100
AcDbTrace
 10
364.4538269369373
 20
132.6968236467651
 30
0.0
 11
366.2969619031608
 21
132.6968236467651
 31
0.0
 12
365.3753944200491
 22
125.6968236467651
 32
0.0
 13
365.3753944200491
 23
125.6968236467651
 33
0.0
  0
MTEXT
  5
4D6
330
4D0
100
AcDbEntity
  8
1
 62
     7
100
AcDbMText
 10
363.3753944200491
 20
136.1668236467651
 30
0.0
 40
7.0
 41
0.0
 71
     7
 72
     1
  1
\C7;{\Fgdt;n}\C7;46
  7
CONVERTER_2
 11
0.0
 21
1.0
 31
0.0
 73
     1
 44
0.60024009603842
  0
ENDBLK
  5
4D8
330
4D0
100
AcDbEntity
  8
0
100
AcDbBlockEnd
  0
ENDSEC
  0
SECTION
  2
ENTITIES
  0
INSERT
  5
81
330
1F
100
AcDbEntity
  8
1
100
AcDbBlockReference
  2
72-50-2X
 10
111.8427304949703
 20
226.546823646765
 30
0.0
  0
INSERT
  5
82
330
1F
100
AcDbEntity
  8
1
100
AcDbBlockReference
  2
Y1735ATVF-13
 10
118.0427304949701
 20
136.6968236467651
 30
0.0
  0
INSERT
  5
83
330
1F
100
AcDbEntity
  8
0
100
AcDbBlockReference
  2
R68-1__3
 10
-225.6840508458399
 20
109.07330223144
 30
0.0
  0
INSERT
  5
84
330
1F
100
AcDbEntity
  8
0
100
AcDbBlockReference
  2
R68-15A
 10
-208.2766939309699
 20
65.26950908012009
 30
0.0
  0
INSERT
  5
85
330
1F
100
AcDbEntity
  8
1
100
AcDbBlockReference
  2
88-249X
 10
-92.1966402260598
 20
258.5894849090901
 30
0.0
  0
INSERT
  5
86
330
1F
100
AcDbEntity
  8
0
100
AcDbBlockReference
  2
81-100-W-4
 10
365.5593108169471
 20
527.3383822913122
 30
0.0
  0
INSERT
  5
87
330
1F
100
AcDbEntity
  8
1
100
AcDbBlockReference
  2
22-2A-M2
 10
326.7371360085201
 20
-114.7446077473799
 30
0.0
  0
INSERT
  5
88
330
1F
100
AcDbEntity
  8
1
100
AcDbBlockReference
  2
_J__A4
 10
22.0
 20
-46.0
 30
0.0
 41
2.0
 42
2.0
 43
2.0
  0
INSERT
  5
89
330
1F
100
AcDbEntity
  8
1
100
AcDbBlockReference
  2
R68-1__4
 10
492.3607188369131
 20
218.7468236467651
 30
0.0
  0
LINE
  5
458
330
1F
100
AcDbEntity
  8
1
  6
Continuous
 62
     2
100
AcDbLine
 10
102.9853508342133
 20
438.8687994791942
 30
0.0
 11
115.4853508342133
 21
438.8687994791942
 31
0.0
  0
LINE
  5
459
330
1F
100
AcDbEntity
  8
1
  6
Continuous
 62
     2
100
AcDbLine
 10
75.714649298935
 20
463.9619941715371
 30
0.0
 11
88.714649298935
 21
463.9619941715371
 31
0.0
  0
LINE
  5
45A
330
1F
100
AcDbEntity
  8
1
  6
Continuous
 62
     2
100
AcDbLine
 10
128.465365299335
 20
343.4172906910051
 30
0.0
 11
125.65470425227
 21
343.4172906910051
 31
0.0
  0
LINE
  5
45B
330
1F
100
AcDbEntity
  8
1
  6
DASH_CENTER
 62
     2
100
AcDbLine
 10
161.5427304949701
 20
480.955089417439
 30
0.0
 11
161.5427304949701
 21
517.4550894174502
 31
0.0
  0
LINE
  5
45C
330
1F
100
AcDbEntity
  8
1
  6
DASH_CENTER
 62
     2
100
AcDbLine
 10
116.5427304949701
 20
517.4550894174502
 30
0.0
 11
116.5427304949701
 21
480.955089417439
 31
0.0
  0
LINE
  5
45D
330
1F
100
AcDbEntity
  8
1
  6
DASH_CENTER
 62
     2
100
AcDbLine
 10
139.0427304949701
 20
396.3250893987702
 30
0.0
 11
139.0427304949701
 21
512.10508941745
 31
0.0
  0
LINE
  5
45E
330
1F
100
AcDbEntity
  8
1
  6
DASH_CENTER
 62
     2
100
AcDbLine
 10
102.042730494966
 20
474.614111803166
 30
0.0
 11
164.042730494971
 21
474.614111803166
 31
0.0
  0
LINE
  5
45F
330
1F
100
AcDbEntity
  8
1
  6
DASH_CENTER
 62
     2
100
AcDbLine
 10
114.0427304949701
 20
148.6968236467651
 30
0.0
 11
164.042730494971
 21
148.6968236467651
 31
0.0
  0
LINE
  5
460
330
1F
100
AcDbEntity
  8
1
  6
DASH_CENTER
 62
     2
100
AcDbLine
 10
114.0427304949701
 20
305.5962607978811
 30
0.0
 11
164.0427304949701
 21
305.5962607978811
 31
0.0
  0
LINE
  5
461
330
1F
100
AcDbEntity
  8
1
  6
DASH_CENTER
 62
     2
100
AcDbLine
 10
116.5427304949701
 20
237.9468236467651
 30
0.0
 11
116.5427304949701
 21
224.546823646765
 31
0.0
  0
LINE
  5
462
330
1F
100
AcDbEntity
  8
1
  6
DASH_CENTER
 62
     2
100
AcDbLine
 10
109.8427304949703
 20
231.2468236467651
 30
0.0
 11
123.2427304949699
 21
231.2468236467651
 31
0.0
  0
LINE
  5
463
330
1F
100
AcDbEntity
  8
1
  6
DASH_CENTER
 62
     2
100
AcDbLine
 10
161.5427304949701
 20
237.9468236467651
 30
0.0
 11
161.5427304949701
 21
224.546823646765
 31
0.0
  0
LINE
  5
464
330
1F
100
AcDbEntity
  8
1
  6
DASH_CENTER
 62
     2
100
AcDbLine
 10
154.8427304949703
 20
231.2468236467651
 30
0.0
 11
168.2427304949699
 21
231.2468236467651
 31
0.0
  0
LINE
  5
465
330
1F
100
AcDbEntity
  8
1
  6
DASH_CENTER
 62
     2
100
AcDbLine
 10
139.0427304949701
 20
347.2572217366751
 30
0.0
 11
139.0427304949701
 21
123.6968236467651
 31
0.0
  0
LINE
  5
466
330
1F
100
AcDbEntity
  8
1
  6
DASH_CENTER
 62
     2
100
AcDbLine
 10
329.6253944200491
 20
305.5962607978811
 30
0.0
 11
224.3407288493593
 21
305.5962607978811
 31
0.0
  0
LINE
  5
467
330
1F
100
AcDbEntity
  8
1
  6
DASH_CENTER
 62
     2
100
AcDbLine
 10
300.0163944200501
 20
148.6968236467651
 30
0.0
 11
298.475394420049
 21
148.6968236467651
 31
0.0
  0
LINE
  5
468
330
1F
100
AcDbEntity
  8
1
  6
DASH_CENTER
 62
     2
100
AcDbLine
 10
298.475394420049
 20
148.6968236467651
 30
0.0
 11
289.1737802384839
 21
148.6968236467651
 31
0.0
  0
LINE
  5
469
330
1F
100
AcDbEntity
  8
1
  6
DASH_CENTER
 62
     2
100
AcDbLine
 10
344.1253944200491
 20
148.6968236467651
 30
0.0
 11
300.0163944200501
 21
148.6968236467651
 31
0.0
  0
LINE
  5
46A
330
1F
100
AcDbEntity
  8
1
  6
DASH_CENTER
 62
     2
100
AcDbLine
 10
304.6253944200491
 20
347.2572217366751
 30
0.0
 11
304.6253944200491
 21
132.6968236467651
 31
0.0
  0
LINE
  5
46B
330
1F
100
AcDbEntity
  8
1
  6
DASH_CENTER
 62
     2
100
AcDbLine
 10
309.3753944200491
 20
231.2468236467651
 30
0.0
 11
348.3753944200491
 21
231.2468236467651
 31
0.0
  0
ARC
  5
46C
330
1F
100
AcDbEntity
  8
1
  6
Continuous
 62
     2
100
AcDbCircle
 10
126.1067635228212
 20
484.8773276875802
 30
0.0
 40
36.5000000000001
100
AcDbArc
 50
-155.0000000000007
 51
-105.0000000000003
  0
SOLID
  5
46D
330
1F
100
AcDbEntity
  8
1
 62
     2
100
AcDbTrace
 10
109.7449972099481
 20
451.0471638352643
 30
0.0
 11
110.3497250273504
 21
452.7882700269067
 31
0.0
 12
116.659868376579
 22
449.6210350280292
 32
0.0
 13
116.659868376579
 23
449.6210350280292
 33
0.0
  0
LEADER
  5
46E
330
1F
100
AcDbEntity
  8
1
  6
Continuous
 62
     2
100
AcDbLeader
  3
Standard
 71
     0
 76
     2
 10
116.659868376579
 20
449.6210350280292
 30
0.0
 10
115.4619895008343
 20
450.03708700781
 30
0.0
  0
SOLID
  5
46F
330
1F
100
AcDbEntity
  8
1
 62
     2
100
AcDbTrace
 10
97.31377628717195
 20
463.8420552716604
 30
0.0
 11
95.71579317384412
 21
462.9235801913044
 31
0.0
 12
93.02652929598321
 22
469.451761134045
 32
0.0
 13
93.02652929598321
 23
469.451761134045
 33
0.0
  0
LEADER
  5
470
330
1F
100
AcDbEntity
  8
1
  6
Continuous
 62
     2
100
AcDbLeader
  3
Standard
 71
     0
 76
     2
 10
93.02652929598321
 20
469.451761134045
 30
0.0
 10
94.06142170898215
 20
467.651232589011
 30
0.0
  0
SOLID
  5
471
330
1F
100
AcDbEntity
  8
0
 62
     2
100
AcDbTrace
 10
337.1694671714137
 20
165.6972852148131
 30
0.0
 11
338.7656688747666
 21
164.7757177317014
 31
0.0
 12
334.4675680230901
 22
159.1743236467662
 32
0.0
 13
334.4675680230901
 23
159.1743236467662
 33
0.0
  0
LEADER
  5
472
330
1F
100
AcDbEntity
  8
0
  6
Continuous
 62
     2
100
AcDbLeader
  3
Standard
 71
     0
 76
     3
 10
334.4675680230901
 20
159.1743236467662
 30
0.0
 10
346.8418958438172
 20
180.6072881417772
 30
0.0
 10
373.1915029326831
 20
180.6072881417772
 30
0.0
  0
SOLID
  5
473
330
1F
100
AcDbEntity
  8
0
 62
     2
100
AcDbTrace
 10
339.5448362164267
 20
239.769785214812
 30
0.0
 11
341.1410379197796
 21
238.8482177317003
 31
0.0
 12
336.8429370681031
 22
233.2468236467651
 32
0.0
 13
336.8429370681031
 23
233.2468236467651
 33
0.0
  0
LEADER
  5
474
330
1F
100
AcDbEntity
  8
0
  6
Continuous
 62
     2
100
AcDbLeader
  3
Standard
 71
     0
 76
     3
 10
336.8429370681031
 20
233.2468236467651
 30
0.0
 10
349.2172648888302
 20
254.679788141776
 30
0.0
 10
379.5668719776961
 20
254.679788141776
 30
0.0
  0
MTEXT
  5
475
330
1F
100
AcDbEntity
  8
1
 62
     7
100
AcDbMText
 10
364.0425037768939
 20
272.679788141776
 30
0.0
 40
7.0
 41
0.0
 71
     5
 72
     1
  1
ねじサイズ
  7
CONVERTER_1
 73
     1
 44
1.32052821128451
  0
MTEXT
  5
477
330
1F
100
AcDbEntity
  8
1
 62
     7
100
AcDbMText
 10
187.5000000000002
 20
34.0
 30
0.0
 40
7.0
 41
0.0
 71
     5
 72
     1
  1
2
  7
CONVERTER_2
 73
     1
 44
0.7202881152461
  0
MTEXT
  5
478
330
1F
100
AcDbEntity
  8
1
 62
     7
100
AcDbMText
 10
170.5000000000002
 20
34.0
 30
0.0
 40
7.0
 41
0.0
 71
     5
 72
     1
  1
1
  7
CONVERTER_2
 73
     1
 44
0.7202881152461
  0
MTEXT
  5
479
330
1F
100
AcDbEntity
  8
0
 62
     7
100
AcDbMText
 10
114.0000000000002
 20
28.5
 30
0.0
 40
7.0
 41
0.0
 71
     5
 72
     1
  1
Y1735TV-13
  7
CONVERTER_2
 73
     1
 44
0.7202881152461
  0
MTEXT
  5
47A
330
1F
100
AcDbEntity
  8
0
 62
     7
100
AcDbMText
 10
114.0000000000002
 20
45.5
 30
0.0
 40
7.0
 41
0.0
 71
     5
 72
     1
  1
ミニセラ洗濯機用水栓
  7
CONVERTER_1
 73
     1
 44
0.7202881152461
  0
MTEXT
  5
47B
330
1F
100
AcDbEntity
  8
1
 62
     7
100
AcDbMText
 10
68.0
 20
61.0
 30
0.0
 40
7.0
 41
0.0
 71
     4
 72
     1
  1
同梱品　PCプラグ(緑){\Fgdt;n}7,5X25
  7
CONVERTER_1
 73
     1
 44
0.7202881152461
  0
MTEXT
  5
47C
330
1F
100
AcDbEntity
  8
0
 62
     7
100
AcDbMText
 10
68.0
 20
75.0
 30
0.0
 40
7.0
 41
0.0
 71
     4
 72
     1
  1
JIS
  7
CONVERTER_2
 73
     1
 44
1.32052821128451
  0
MTEXT
  5
47D
330
1F
100
AcDbEntity
  8
1
 62
     7
100
AcDbMText
 10
109.122226319161
 20
444.8687994791942
 30
0.0
 40
7.0
 41
0.0
 71
     5
 72
     1
  1
吐水
  7
CONVERTER_1
 73
     1
 44
0.7202881152461
  0
MTEXT
  5
47E
330
1F
100
AcDbEntity
  8
1
 62
     7
100
AcDbMText
 10
82.39964458436521
 20
469.9619941715371
 30
0.0
 40
7.0
 41
0.0
 71
     5
 72
     1
  1
止水
  7
CONVERTER_1
 73
     1
 44
0.7202881152461
  0
MTEXT
  5
47F
330
1F
100
AcDbEntity
  8
1
 62
     7
100
AcDbMText
 10
360.1671347318809
 20
186.6072881417772
 30
0.0
 40
7.0
 41
0.0
 71
     5
 72
     1
  1
PJ1/2
  7
CONVERTER_2
 73
     1
 44
1.32052821128451
  0
MTEXT
  5
480
330
1F
100
AcDbEntity
  8
1
 62
     7
100
AcDbMText
 10
364.0425037768939
 20
260.679788141776
 30
0.0
 40
7.0
 41
0.0
 71
     5
 72
     1
  1
{\Fgdt;n}4X30
  7
CONVERTER_2
 73
     1
 44
1.32052821128451
  0
DIMENSION
  5
48B
330
1F
100
AcDbEntity
  8
1
100
AcDbDimension
  2
*D022
 10
192.3407288493593
 20
327.5962607978811
 30
0.0
 11
186.8407288493593
 21
305.5962607978811
 31
0.0
  1
<>
 71
     5
 42
0.0
 53
90.0
  3
ME10_DIM_0
100
AcDbAlignedDimension
 13
261.1253944200491
 23
283.5962607978811
 33
0.0
 14
261.1253944200491
 24
327.5962607978811
 34
0.0
 50
90.0
100
AcDbRotatedDimension
  0
DIMENSION
  5
496
330
1F
100
AcDbEntity
  8
1
100
AcDbDimension
  2
*D123
 10
228.3407288493593
 20
363.4172906910051
 30
0.0
 11
265.9379577543102
 21
368.9172906910051
 31
0.0
  1
77
 71
     5
 42
0.0
 53
0.00013888888889
  3
ME10_DIM_1
100
AcDbAlignedDimension
 13
304.6253944200491
 23
347.2572217366751
 33
0.0
 14
228.3407288493593
 24
305.0041998150762
 34
0.0
100
AcDbRotatedDimension
  0
DIMENSION
  5
4A1
330
1F
100
AcDbEntity
  8
1
100
AcDbDimension
  2
*D224
 10
304.6253944200491
 20
363.4172906910051
 30
0.0
 11
322.2206015816903
 21
368.9172906910051
 31
0.0
  1
36
 71
     5
 42
0.0
 53
0.00013888888889
  3
ME10_DIM_2
100
AcDbAlignedDimension
 13
340.1253944200491
 23
148.6968236467651
 33
0.0
 14
304.6253944200491
 24
347.2572217366751
 34
0.0
100
AcDbRotatedDimension
  0
DIMENSION
  5
4AE
330
1F
100
AcDbEntity
  8
1
100
AcDbDimension
  2
*D325
 10
208.3407288493588
 20
313.446260797881
 30
0.0
 11
202.4907288493589
 21
305.5962607978811
 31
0.0
  1
{\Fgdt;n}15,7
 71
     5
 42
0.0
 53
90.0
  3
ME10_DIM_3
100
AcDbAlignedDimension
 13
240.0253944200492
 23
297.7462607978812
 33
0.0
 14
240.0253944200492
 24
313.446260797881
 34
0.0
 50
90.0
100
AcDbRotatedDimension
  0
DIMENSION
  5
4B9
330
1F
100
AcDbEntity
  8
1
100
AcDbDimension
  2
*D426
 10
116.5427304949701
 20
535.4550894174502
 30
0.0
 11
139.4900464402401
 21
540.9550894174502
 31
0.0
  1
<>
 71
     5
 42
0.0
 53
0.00013888888889
  3
ME10_DIM_4
100
AcDbAlignedDimension
 13
161.5427304949701
 23
517.4550894174502
 33
0.0
 14
116.5427304949701
 24
517.4550894174502
 34
0.0
100
AcDbRotatedDimension
  0
DIMENSION
  5
4C4
330
1F
100
AcDbEntity
  8
1
100
AcDbDimension
  2
*D527
 10
84.04552294231712
 20
305.5962607978811
 30
0.0
 11
78.54552294231712
 21
222.71079082656
 31
0.0
  1
157
 71
     5
 42
0.0
 53
90.0
  3
ME10_DIM_5
100
AcDbAlignedDimension
 13
114.0427304949701
 23
148.6968236467651
 33
0.0
 14
114.0427304949701
 24
305.5962607978811
 34
0.0
 50
90.0
100
AcDbRotatedDimension
  0
DIMENSION
  5
4CF
330
1F
100
AcDbEntity
  8
1
100
AcDbDimension
  2
*D628
 10
84.04552294231712
 20
343.4172906910051
 30
0.0
 11
78.54552294231712
 21
327.5762847405301
 31
0.0
  1
38
 71
     5
 42
0.0
 53
90.0
  3
ME10_DIM_6
100
AcDbAlignedDimension
 13
114.0427304949701
 23
305.5962607978811
 33
0.0
 14
125.65470425227
 24
343.4172906910051
 34
0.0
 50
90.0
100
AcDbRotatedDimension
  0
DIMENSION
  5
4DA
330
1F
100
AcDbEntity
  8
1
100
AcDbDimension
  2
*D729
 10
365.3753944200491
 20
171.6968236467651
 30
0.0
 11
359.8753944200491
 21
148.6968236467651
 31
0.0
  1
<>
 71
     5
 42
0.0
 53
90.0
  3
ME10_DIM_7
100
AcDbAlignedDimension
 13
330.3753944200491
 23
125.6968236467651
 33
0.0
 14
329.3753944200491
 24
171.6968236467651
 34
0.0
 50
90.0
100
AcDbRotatedDimension
  0
ENDSEC
  0
SECTION
  2
OBJECTS
  0
DICTIONARY
  5
C
330
0
100
AcDbDictionary
281
     1
  3
ACAD_GROUP
350
D
  3
ACAD_LAYOUT
350
1A
  3
ACAD_MLINESTYLE
350
17
  3
ACAD_PLOTSETTINGS
350
19
  3
ACAD_PLOTSTYLENAME
350
E
  3
ACAD_TABLESTYLE
350
2A
  3
AcDbVariableDictionary
350
2C
  0
DICTIONARY
  5
D
102
{ACAD_REACTORS
330
C
102
}
330
C
100
AcDbDictionary
281
     1
  0
DICTIONARY
  5
1A
102
{ACAD_REACTORS
330
C
102
}
330
C
100
AcDbDictionary
281
     1
  3
Layout1
350
1E
  3
Layout2
350
26
  3
Model
350
22
  0
DICTIONARY
  5
17
102
{ACAD_REACTORS
330
C
102
}
330
C
100
AcDbDictionary
281
     1
  3
Standard
350
18
  0
DICTIONARY
  5
19
102
{ACAD_REACTORS
330
C
102
}
330
C
100
AcDbDictionary
281
     1
  0
ACDBDICTIONARYWDFLT
  5
E
102
{ACAD_REACTORS
330
C
102
}
330
C
100
AcDbDictionary
281
     1
  3
Normal
350
F
100
AcDbDictionaryWithDefault
340
F
  0
DICTIONARY
  5
2A
102
{ACAD_REACTORS
330
C
102
}
330
C
100
AcDbDictionary
281
     1
  3
Standard
350
2B
  0
DICTIONARY
  5
2C
102
{ACAD_REACTORS
330
C
102
}
330
C
100
AcDbDictionary
281
     1
  3
CTABLESTYLE
350
2D
  0
LAYOUT
  5
1E
102
{ACAD_REACTORS
330
1A
102
}
330
1A
100
AcDbPlotSettings
  1

  2

  4

  6

 40
0.0
 41
0.0
 42
0.0
 43
0.0
 44
0.0
 45
0.0
 46
0.0
 47
0.0
 48
0.0
 49
0.0
140
0.0
141
0.0
142
1.0
143
1.0
 70
   688
 72
     0
 73
     0
 74
     5
  7

 75
    16
147
1.0
148
0.0
149
0.0
100
AcDbLayout
  1
Layout1
 70
     1
 71
     1
 10
0.0
 20
0.0
 11
12.0
 21
9.0
 12
0.0
 22
0.0
 32
0.0
 14
1.00000000000000E+20
 24
1.00000000000000E+20
 34
1.00000000000000E+20
 15
-1.00000000000000E+20
 25
-1.00000000000000E+20
 35
-1.00000000000000E+20
146
0.0
 13
0.0
 23
0.0
 33
0.0
 16
1.0
 26
0.0
 36
0.0
 17
0.0
 27
1.0
 37
0.0
 76
     0
330
1B
  0
LAYOUT
  5
26
102
{ACAD_REACTORS
330
1A
102
}
330
1A
100
AcDbPlotSettings
  1

  2

  4

  6

 40
0.0
 41
0.0
 42
0.0
 43
0.0
 44
0.0
 45
0.0
 46
0.0
 47
0.0
 48
0.0
 49
0.0
140
0.0
141
0.0
142
1.0
143
1.0
 70
   688
 72
     0
 73
     0
 74
     5
  7

 75
    16
147
1.0
148
0.0
149
0.0
100
AcDbLayout
  1
Layout2
 70
     1
 71
     2
 10
0.0
 20
0.0
 11
0.0
 21
0.0
 12
0.0
 22
0.0
 32
0.0
 14
0.0
 24
0.0
 34
0.0
 15
0.0
 25
0.0
 35
0.0
146
0.0
 13
0.0
 23
0.0
 33
0.0
 16
1.0
 26
0.0
 36
0.0
 17
0.0
 27
1.0
 37
0.0
 76
     0
330
23
  0
LAYOUT
  5
22
102
{ACAD_REACTORS
330
1A
102
}
330
1A
100
AcDbPlotSettings
  1

  2

  4

  6

 40
0.0
 41
0.0
 42
0.0
 43
0.0
 44
0.0
 45
0.0
 46
0.0
 47
0.0
 48
0.0
 49
0.0
140
0.0
141
0.0
142
1.0
143
1.0
 70
  1712
 72
     0
 73
     0
 74
     0
  7

 75
     0
147
1.0
148
0.0
149
0.0
100
AcDbLayout
  1
Model
 70
     1
 71
     0
 10
0.0
 20
0.0
 11
0.0
 21
0.0
 12
0.0
 22
0.0
 32
0.0
 14
0.0
 24
0.0
 34
0.0
 15
420.0000000000002
 25
594.0
 35
0.0
146
0.0
 13
0.0
 23
0.0
 33
0.0
 16
1.0
 26
0.0
 36
0.0
 17
0.0
 27
1.0
 37
0.0
 76
     0
330
1F
  0
MLINESTYLE
  5
18
102
{ACAD_REACTORS
330
17
102
}
330
17
100
AcDbMlineStyle
  2
Standard
 70
     0
  3

 62
   256
 51
90.0
 52
90.0
 71
     2
 49
0.5
 62
   256
  6
BYLAYER
 49
-0.5
 62
   256
  6
BYLAYER
  0
ACDBPLACEHOLDER
  5
F
102
{ACAD_REACTORS
330
E
102
}
330
E
  0
TABLESTYLE
  5
2B
102
{ACAD_REACTORS
330
2A
102
}
330
2A
100
AcDbTableStyle
  3
Standard
 70
     0
 71
     0
 40
0.06
 41
0.06
280
     0
281
     0
  7
Standard
140
0.18
170
     2
 62
     0
 63
     7
283
     0
274
    -2
284
     1
 64
     0
275
    -2
285
     1
 65
     0
276
    -2
286
     1
 66
     0
277
    -2
287
     1
 67
     0
278
    -2
288
     1
 68
     0
279
    -2
289
     1
 69
     0
  7
Standard
140
0.25
170
     5
 62
     0
 63
     7
283
     0
274
    -2
284
     1
 64
     0
275
    -2
285
     1
 65
     0
276
    -2
286
     1
 66
     0
277
    -2
287
     1
 67
     0
278
    -2
288
     1
 68
     0
279
    -2
289
     1
 69
     0
  7
Standard
140
0.18
170
     5
 62
     0
 63
     7
283
     0
274
    -2
284
     1
 64
     0
275
    -2
285
     1
 65
     0
276
    -2
286
     1
 66
     0
277
    -2
287
     1
 67
     0
278
    -2
288
     1
 68
     0
279
    -2
289
     1
 69
     0
  0
DICTIONARYVAR
  5
2D
102
{ACAD_REACTORS
330
2C
102
}
330
2C
100
DictionaryVariables
280
     0
  1
Standard
  0
ENDSEC
  0
EOF
