  0
SECTION
  2
HEADER
  9
$ACADVER
  1
AC1015
  9
$ACADMAINTVER
 70
     6
  9
$DWGCODEPAGE
  3
ANSI_932
  9
$INSBASE
 10
0.0
 20
0.0
 30
0.0
  9
$EXTMIN
 10
0.0
 20
0.0
 30
0.0
  9
$EXTMAX
 10
210.0
 20
297.0
 30
0.0
  9
$LIMMIN
 10
0.0
 20
0.0
  9
$LIMMAX
 10
12.0
 20
9.0
  9
$ORTHOMODE
 70
     0
  9
$REGENMODE
 70
     1
  9
$FILLMODE
 70
     1
  9
$QTEXTMODE
 70
     0
  9
$MIRRTEXT
 70
     1
  9
$LTSCALE
 40
1.0
  9
$ATTMODE
 70
     1
  9
$TEXTSIZE
 40
0.2
  9
$TRACEWID
 40
0.05
  9
$TEXTSTYLE
  7
Standard
  9
$CLAYER
  8
0
  9
$CELTYPE
  6
ByLayer
  9
$CECOLOR
 62
   256
  9
$CELTSCALE
 40
1.0
  9
$DISPSILH
 70
     0
  9
$DIMSCALE
 40
1.0
  9
$DIMASZ
 40
0.18
  9
$DIMEXO
 40
0.0625
  9
$DIMDLI
 40
0.38
  9
$DIMRND
 40
0.0
  9
$DIMDLE
 40
0.0
  9
$DIMEXE
 40
0.18
  9
$DIMTP
 40
0.0
  9
$DIMTM
 40
0.0
  9
$DIMTXT
 40
0.18
  9
$DIMCEN
 40
0.09
  9
$DIMTSZ
 40
0.0
  9
$DIMTOL
 70
     0
  9
$DIMLIM
 70
     0
  9
$DIMTIH
 70
     1
  9
$DIMTOH
 70
     1
  9
$DIMSE1
 70
     0
  9
$DIMSE2
 70
     0
  9
$DIMTAD
 70
     0
  9
$DIMZIN
 70
     0
  9
$DIMBLK
  1

  9
$DIMASO
 70
     1
  9
$DIMSHO
 70
     1
  9
$DIMPOST
  1

  9
$DIMAPOST
  1

  9
$DIMALT
 70
     0
  9
$DIMALTD
 70
     2
  9
$DIMALTF
 40
25.4
  9
$DIMLFAC
 40
1.0
  9
$DIMTOFL
 70
     0
  9
$DIMTVP
 40
0.0
  9
$DIMTIX
 70
     0
  9
$DIMSOXD
 70
     0
  9
$DIMSAH
 70
     0
  9
$DIMBLK1
  1

  9
$DIMBLK2
  1

  9
$DIMSTYLE
  2
Standard
  9
$DIMCLRD
 70
     0
  9
$DIMCLRE
 70
     0
  9
$DIMCLRT
 70
     0
  9
$DIMTFAC
 40
1.0
  9
$DIMGAP
 40
0.09
  9
$DIMJUST
 70
     0
  9
$DIMSD1
 70
     0
  9
$DIMSD2
 70
     0
  9
$DIMTOLJ
 70
     1
  9
$DIMTZIN
 70
     0
  9
$DIMALTZ
 70
     0
  9
$DIMALTTZ
 70
     0
  9
$DIMUPT
 70
     0
  9
$DIMDEC
 70
     4
  9
$DIMTDEC
 70
     4
  9
$DIMALTU
 70
     2
  9
$DIMALTTD
 70
     2
  9
$DIMTXSTY
  7
Standard
  9
$DIMAUNIT
 70
     0
  9
$DIMADEC
 70
     0
  9
$DIMALTRND
 40
0.0
  9
$DIMAZIN
 70
     0
  9
$DIMDSEP
 70
    46
  9
$DIMATFIT
 70
     3
  9
$DIMFRAC
 70
     0
  9
$DIMLDRBLK
  1

  9
$DIMLUNIT
 70
     2
  9
$DIMLWD
 70
    -2
  9
$DIMLWE
 70
    -2
  9
$DIMTMOVE
 70
     0
  9
$LUNITS
 70
     2
  9
$LUPREC
 70
     4
  9
$SKETCHINC
 40
0.1
  9
$FILLETRAD
 40
0.5
  9
$AUNITS
 70
     0
  9
$AUPREC
 70
     0
  9
$MENU
  1
.
  9
$ELEVATION
 40
0.0
  9
$PELEVATION
 40
0.0
  9
$THICKNESS
 40
0.0
  9
$LIMCHECK
 70
     0
  9
$CHAMFERA
 40
0.5
  9
$CHAMFERB
 40
0.5
  9
$CHAMFERC
 40
1.0
  9
$CHAMFERD
 40
0.0
  9
$SKPOLY
 70
     0
  9
$TDCREATE
 40
2459811.432078194
  9
$TDUCREATE
 40
2459811.057078194
  9
$TDUPDATE
 40
2459811.432079456
  9
$TDUUPDATE
 40
2459811.057079456
  9
$TDINDWG
 40
0.0000000116
  9
$TDUSRTIMER
 40
0.0000000116
  9
$USRTIMER
 70
     1
  9
$ANGBASE
 50
0.0
  9
$ANGDIR
 70
     0
  9
$PDMODE
 70
     0
  9
$PDSIZE
 40
0.0
  9
$PLINEWID
 40
0.0
  9
$SPLFRAME
 70
     0
  9
$SPLINETYPE
 70
     6
  9
$SPLINESEGS
 70
     8
  9
$HANDSEED
  5
1F9
  9
$SURFTAB1
 70
     6
  9
$SURFTAB2
 70
     6
  9
$SURFTYPE
 70
     6
  9
$SURFU
 70
     6
  9
$SURFV
 70
     6
  9
$UCSBASE
  2

  9
$UCSNAME
  2

  9
$UCSORG
 10
0.0
 20
0.0
 30
0.0
  9
$UCSXDIR
 10
1.0
 20
0.0
 30
0.0
  9
$UCSYDIR
 10
0.0
 20
1.0
 30
0.0
  9
$UCSORTHOREF
  2

  9
$UCSORTHOVIEW
 70
     0
  9
$UCSORGTOP
 10
0.0
 20
0.0
 30
0.0
  9
$UCSORGBOTTOM
 10
0.0
 20
0.0
 30
0.0
  9
$UCSORGLEFT
 10
0.0
 20
0.0
 30
0.0
  9
$UCSORGRIGHT
 10
0.0
 20
0.0
 30
0.0
  9
$UCSORGFRONT
 10
0.0
 20
0.0
 30
0.0
  9
$UCSORGBACK
 10
0.0
 20
0.0
 30
0.0
  9
$PUCSBASE
  2

  9
$PUCSNAME
  2

  9
$PUCSORG
 10
0.0
 20
0.0
 30
0.0
  9
$PUCSXDIR
 10
1.0
 20
0.0
 30
0.0
  9
$PUCSYDIR
 10
0.0
 20
1.0
 30
0.0
  9
$PUCSORTHOREF
  2

  9
$PUCSORTHOVIEW
 70
     0
  9
$PUCSORGTOP
 10
0.0
 20
0.0
 30
0.0
  9
$PUCSORGBOTTOM
 10
0.0
 20
0.0
 30
0.0
  9
$PUCSORGLEFT
 10
0.0
 20
0.0
 30
0.0
  9
$PUCSORGRIGHT
 10
0.0
 20
0.0
 30
0.0
  9
$PUCSORGFRONT
 10
0.0
 20
0.0
 30
0.0
  9
$PUCSORGBACK
 10
0.0
 20
0.0
 30
0.0
  9
$USERI1
 70
     0
  9
$USERI2
 70
     0
  9
$USERI3
 70
     0
  9
$USERI4
 70
     0
  9
$USERI5
 70
     0
  9
$USERR1
 40
18.1
  9
$USERR2
 40
0.0
  9
$USERR3
 40
0.0
  9
$USERR4
 40
0.0
  9
$USERR5
 40
0.0
  9
$WORLDVIEW
 70
     1
  9
$SHADEDGE
 70
     3
  9
$SHADEDIF
 70
    70
  9
$TILEMODE
 70
     1
  9
$MAXACTVP
 70
    64
  9
$PINSBASE
 10
0.0
 20
0.0
 30
0.0
  9
$PLIMCHECK
 70
     0
  9
$PEXTMIN
 10
1.00000000000000E+20
 20
1.00000000000000E+20
 30
1.00000000000000E+20
  9
$PEXTMAX
 10
-1.00000000000000E+20
 20
-1.00000000000000E+20
 30
-1.00000000000000E+20
  9
$PLIMMIN
 10
0.0
 20
0.0
  9
$PLIMMAX
 10
12.0
 20
9.0
  9
$UNITMODE
 70
     0
  9
$VISRETAIN
 70
     1
  9
$PLINEGEN
 70
     0
  9
$PSLTSCALE
 70
     1
  9
$TREEDEPTH
 70
  3020
  9
$CMLSTYLE
  2
Standard
  9
$CMLJUST
 70
     0
  9
$CMLSCALE
 40
1.0
  9
$PROXYGRAPHICS
 70
     1
  9
$MEASUREMENT
 70
     1
  9
$CELWEIGHT
370
    -1
  9
$ENDCAPS
280
     0
  9
$JOINSTYLE
280
     0
  9
$LWDISPLAY
290
     0
  9
$INSUNITS
 70
     4
  9
$HYPERLINKBASE
  1

  9
$STYLESHEET
  1

  9
$XEDIT
290
     1
  9
$CEPSNTYPE
380
     0
  9
$PSTYLEMODE
290
     1
  9
$FINGERPRINTGUID
  2
{1AEC5C35-DB2F-415A-96EC-507F6727A901}
  9
$VERSIONGUID
  2
{FAEB1C32-E019-11D5-929B-00C0DF256EC4}
  9
$EXTNAMES
290
     1
  9
$PSVPSCALE
 40
0.0
  9
$OLESTARTUP
290
     0
  0
ENDSEC
  0
SECTION
  2
CLASSES
  0
CLASS
  1
ACDBDICTIONARYWDFLT
  2
AcDbDictionaryWithDefault
  3
ObjectDBX Classes
 90
        0
280
     0
281
     0
  0
CLASS
  1
VISUALSTYLE
  2
AcDbVisualStyle
  3
ObjectDBX Classes
 90
     4095
280
     0
281
     0
  0
CLASS
  1
MATERIAL
  2
AcDbMaterial
  3
ObjectDBX Classes
 90
     1153
280
     0
281
     0
  0
CLASS
  1
DICTIONARYVAR
  2
AcDbDictionaryVar
  3
ObjectDBX Classes
 90
        0
280
     0
281
     0
  0
CLASS
  1
ACDBPLACEHOLDER
  2
AcDbPlaceHolder
  3
ObjectDBX Classes
 90
        0
280
     0
281
     0
  0
CLASS
  1
LAYOUT
  2
AcDbLayout
  3
ObjectDBX Classes
 90
        0
280
     0
281
     0
  0
ENDSEC
  0
SECTION
  2
TABLES
  0
TABLE
  2
VPORT
  5
8
330
0
100
AcDbSymbolTable
 70
     1
  0
VPORT
  5
29
330
8
100
AcDbSymbolTableRecord
100
AcDbViewportTableRecord
  2
*Active
 70
     0
 10
0.0
 20
0.0
 11
1.0
 21
1.0
 12
105.0
 22
148.5
 13
0.0
 23
0.0
 14
0.5
 24
0.5
 15
0.5
 25
0.5
 16
0.0
 26
0.0
 36
1.0
 17
0.0
 27
0.0
 37
0.0
 40
326.7
 41
1.60267857142857
 42
50.0
 43
0.0
 44
0.0
 50
0.0
 51
0.0
 71
     0
 72
   100
 73
     1
 74
     3
 75
     0
 76
     0
 77
     0
 78
     0
281
     0
 65
     1
110
0.0
120
0.0
130
0.0
111
1.0
121
0.0
131
0.0
112
0.0
122
1.0
132
0.0
 79
     0
146
0.0
  0
ENDTAB
  0
TABLE
  2
LTYPE
  5
5
330
0
100
AcDbSymbolTable
 70
     8
  0
LTYPE
  5
14
330
5
100
AcDbSymbolTableRecord
100
AcDbLinetypeTableRecord
  2
ByBlock
 70
     0
  3

 72
    65
 73
     0
 40
0.0
  0
LTYPE
  5
15
330
5
100
AcDbSymbolTableRecord
100
AcDbLinetypeTableRecord
  2
ByLayer
 70
     0
  3

 72
    65
 73
     0
 40
0.0
  0
LTYPE
  5
16
330
5
100
AcDbSymbolTableRecord
100
AcDbLinetypeTableRecord
  2
Continuous
 70
     0
  3
Solid line
 72
    65
 73
     0
 40
0.0
  0
LTYPE
  5
3F
330
5
100
AcDbSymbolTableRecord
100
AcDbLinetypeTableRecord
  2
DASHED
 70
     0
  3
Dashed
 72
    65
 73
     2
 40
15.0
 49
7.0
 74
     0
 49
-8.0
 74
     0
  0
LTYPE
  5
40
330
5
100
AcDbSymbolTableRecord
100
AcDbLinetypeTableRecord
  2
DOTTED
 70
     0
  3
Dotted
 72
    65
 73
     2
 40
1.0
 49
0.0
 74
     0
 49
-1.0
 74
     0
  0
LTYPE
  5
41
330
5
100
AcDbSymbolTableRecord
100
AcDbLinetypeTableRecord
  2
DOT_CENTER
 70
     0
  3
Dot_Center
 72
    65
 73
     4
 40
14.0
 49
12.0
 74
     0
 49
-1.0
 74
     0
 49
0.0
 74
     0
 49
-1.0
 74
     0
  0
LTYPE
  5
42
330
5
100
AcDbSymbolTableRecord
100
AcDbLinetypeTableRecord
  2
LONG_DASHED
 70
     0
  3
Long_Dashed
 72
    65
 73
     2
 40
15.0
 49
10.0
 74
     0
 49
-5.0
 74
     0
  0
LTYPE
  5
43
330
5
100
AcDbSymbolTableRecord
100
AcDbLinetypeTableRecord
  2
DASH_CENTER
 70
     0
  3
Dash_Center
 72
    65
 73
     4
 40
14.0
 49
11.0
 74
     0
 49
-1.0
 74
     0
 49
1.0
 74
     0
 49
-1.0
 74
     0
  0
LTYPE
  5
44
330
5
100
AcDbSymbolTableRecord
100
AcDbLinetypeTableRecord
  2
PHANTOM
 70
     0
  3
Phantom
 72
    65
 73
     6
 40
13.0
 49
10.0
 74
     0
 49
-1.0
 74
     0
 49
0.0
 74
     0
 49
-1.0
 74
     0
 49
0.0
 74
     0
 49
-1.0
 74
     0
  0
LTYPE
  5
45
330
5
100
AcDbSymbolTableRecord
100
AcDbLinetypeTableRecord
  2
CENTER_DASH_DASH
 70
     0
  3
Center_Dash_Dash
 72
    65
 73
     6
 40
14.0
 49
9.0
 74
     0
 49
-1.0
 74
     0
 49
1.0
 74
     0
 49
-1.0
 74
     0
 49
1.0
 74
     0
 49
-1.0
 74
     0
  0
ENDTAB
  0
TABLE
  2
LAYER
  5
2
330
0
100
AcDbSymbolTable
 70
     3
  0
LAYER
  5
10
330
2
100
AcDbSymbolTableRecord
100
AcDbLayerTableRecord
  2
0
 70
     0
 62
     7
  6
Continuous
370
    -3
390
F
  0
LAYER
  5
46
330
2
100
AcDbSymbolTableRecord
100
AcDbLayerTableRecord
  2
1
 70
     0
 62
     7
  6
Continuous
370
    -3
390
F
  0
LAYER
  5
47
330
2
100
AcDbSymbolTableRecord
100
AcDbLayerTableRecord
  2
_U_30EC_U_30A4_U_30E4_U_30FC_1
 70
     0
 62
     7
  6
Continuous
370
    -3
390
F
  0
ENDTAB
  0
TABLE
  2
STYLE
  5
3
330
0
100
AcDbSymbolTable
 70
     3
  0
STYLE
  5
11
330
3
100
AcDbSymbolTableRecord
100
AcDbTextStyleTableRecord
  2
Standard
 70
     0
 40
0.0
 41
1.0
 50
0.0
 71
     0
 42
0.2
  3
txt
  4

  0
STYLE
  5
B2
330
3
100
AcDbSymbolTableRecord
100
AcDbTextStyleTableRecord
  2
CONVERTER_11
 70
     0
 40
0.0
 41
0.89
 50
0.0
 71
     0
 42
0.2
  3
MS Mincho.ttf
  4

1001
ACAD
1000
MS Mincho
1071
    32785
  0
STYLE
  5
1AE
330
3
100
AcDbSymbolTableRecord
100
AcDbTextStyleTableRecord
  2
CONVERTER_12
 70
     0
 40
0.0
 41
0.9
 50
0.0
 71
     0
 42
0.2
  3
txt.shx
  4

  0
ENDTAB
  0
TABLE
  2
VIEW
  5
6
330
0
100
AcDbSymbolTable
 70
     0
  0
ENDTAB
  0
TABLE
  2
UCS
  5
7
330
0
100
AcDbSymbolTable
 70
     0
  0
ENDTAB
  0
TABLE
  2
APPID
  5
9
330
0
100
AcDbSymbolTable
 70
     1
  0
APPID
  5
12
330
9
100
AcDbSymbolTableRecord
100
AcDbRegAppTableRecord
  2
ACAD
 70
     0
  0
ENDTAB
  0
TABLE
  2
DIMSTYLE
  5
A
330
0
100
AcDbSymbolTable
 70
     2
100
AcDbDimStyleTable
  0
DIMSTYLE
105
27
330
A
100
AcDbSymbolTableRecord
100
AcDbDimStyleTableRecord
  2
Standard
 70
     0
178
     0
340
11
  0
DIMSTYLE
105
1C4
102
{ACAD_REACTORS
330
1C5
102
}
330
A
100
AcDbSymbolTableRecord
100
AcDbDimStyleTableRecord
  2
ME10_DIM_10
 70
     0
 41
3.5
 42
0.0
 44
1.0
 73
     0
 74
     0
 77
     1
 78
     8
140
3.5
147
1.0
172
     1
173
     1
174
     1
175
     1
176
     2
177
     2
271
     2
178
     7
271
     2
340
1AE
  0
ENDTAB
  0
TABLE
  2
BLOCK_RECORD
  5
1
330
0
100
AcDbSymbolTable
 70
     5
  0
BLOCK_RECORD
  5
1F
330
1
100
AcDbSymbolTableRecord
100
AcDbBlockTableRecord
  2
*Model_Space
340
22
  0
BLOCK_RECORD
  5
1B
330
1
100
AcDbSymbolTableRecord
100
AcDbBlockTableRecord
  2
*Paper_Space
340
1E
  0
BLOCK_RECORD
  5
23
330
1
100
AcDbSymbolTableRecord
100
AcDbBlockTableRecord
  2
*Paper_Space0
340
26
  0
BLOCK_RECORD
  5
48
330
1
100
AcDbSymbolTableRecord
100
AcDbBlockTableRecord
  2
開示A4
340
0
102
{BLKREFS
331
4C
102
}
  0
BLOCK_RECORD
  5
4B
330
1
100
AcDbSymbolTableRecord
100
AcDbBlockTableRecord
  2
開示A4枠
340
0
102
{BLKREFS
331
4F
102
}
  0
BLOCK_RECORD
  5
1BB
330
1
100
AcDbSymbolTableRecord
100
AcDbBlockTableRecord
  2
*D3
340
0
  0
BLOCK_RECORD
  5
1C6
330
1
100
AcDbSymbolTableRecord
100
AcDbBlockTableRecord
  2
*D4
340
0
102
{BLKREFS
331
1CD
102
}
  0
ENDTAB
  0
ENDSEC
  0
SECTION
  2
BLOCKS
  0
BLOCK
  5
20
330
1F
100
AcDbEntity
  8
0
100
AcDbBlockBegin
  2
*Model_Space
 70
     0
 10
0.0
 20
0.0
 30
0.0
  3
*Model_Space
  1

  0
ENDBLK
  5
21
330
1F
100
AcDbEntity
  8
0
100
AcDbBlockEnd
  0
BLOCK
  5
1C
330
1B
100
AcDbEntity
 67
     1
  8
0
100
AcDbBlockBegin
  2
*Paper_Space
 70
     0
 10
0.0
 20
0.0
 30
0.0
  3
*Paper_Space
  1

  0
ENDBLK
  5
1D
330
1B
100
AcDbEntity
 67
     1
  8
0
100
AcDbBlockEnd
  0
BLOCK
  5
24
330
23
100
AcDbEntity
  8
0
100
AcDbBlockBegin
  2
*Paper_Space0
 70
     0
 10
0.0
 20
0.0
 30
0.0
  3
*Paper_Space0
  1

  0
ENDBLK
  5
25
330
23
100
AcDbEntity
  8
0
100
AcDbBlockEnd
  0
BLOCK
  5
49
330
48
100
AcDbEntity
  8
0
100
AcDbBlockBegin
  2
開示A4
 70
     0
 10
0.0
 20
0.0
 30
0.0
  3
開示A4
  1

  0
POINT
  5
50
330
48
100
AcDbEntity
  8
1
 62
     4
100
AcDbPoint
 10
34.0
 20
34.0
 30
0.0
  0
POINT
  5
51
330
48
100
AcDbEntity
  8
1
 62
     4
100
AcDbPoint
 10
57.0
 20
12.25
 30
0.0
  0
POINT
  5
52
330
48
100
AcDbEntity
  8
1
 62
     4
100
AcDbPoint
 10
57.0
 20
20.75
 30
0.0
  0
POINT
  5
53
330
48
100
AcDbEntity
  8
1
 62
     4
100
AcDbPoint
 10
57.0
 20
24.75
 30
0.0
  0
POINT
  5
54
330
48
100
AcDbEntity
  8
1
 62
     4
100
AcDbPoint
 10
57.0
 20
16.25
 30
0.0
  0
POINT
  5
55
330
48
100
AcDbEntity
  8
1
 62
     4
100
AcDbPoint
 10
157.5
 20
19.0
 30
0.0
  0
POINT
  5
56
330
48
100
AcDbEntity
  8
1
 62
     4
100
AcDbPoint
 10
47.5
 20
282.0000000000003
 30
0.0
  0
POINT
  5
57
330
48
100
AcDbEntity
  8
1
 62
     4
100
AcDbPoint
 10
57.0
 20
22.75
 30
0.0
  0
POINT
  5
58
330
48
100
AcDbEntity
  8
1
 62
     4
100
AcDbPoint
 10
57.0
 20
14.25
 30
0.0
  0
POINT
  5
59
330
48
100
AcDbEntity
  8
1
 62
     4
100
AcDbPoint
 10
157.5
 20
12.5
 30
0.0
  0
POINT
  5
5A
330
48
100
AcDbEntity
  8
1
 62
     4
100
AcDbPoint
 10
163.25
 20
12.5
 30
0.0
  0
POINT
  5
5B
330
48
100
AcDbEntity
  8
1
 62
     4
100
AcDbPoint
 10
151.75
 20
12.5
 30
0.0
  0
POINT
  5
5C
330
48
100
AcDbEntity
  8
1
 62
     4
100
AcDbPoint
 10
134.75
 20
12.5
 30
0.0
  0
POINT
  5
5D
330
48
100
AcDbEntity
  8
1
 62
     4
100
AcDbPoint
 10
146.25
 20
12.5
 30
0.0
  0
POINT
  5
5E
330
48
100
AcDbEntity
  8
1
 62
     4
100
AcDbPoint
 10
140.5
 20
12.5
 30
0.0
  0
POINT
  5
5F
330
48
100
AcDbEntity
  8
1
 62
     4
100
AcDbPoint
 10
140.5
 20
19.0
 30
0.0
  0
POINT
  5
60
330
48
100
AcDbEntity
  8
1
 62
     4
100
AcDbPoint
 10
117.75
 20
12.5
 30
0.0
  0
POINT
  5
61
330
48
100
AcDbEntity
  8
1
 62
     4
100
AcDbPoint
 10
129.25
 20
12.5
 30
0.0
  0
POINT
  5
62
330
48
100
AcDbEntity
  8
1
 62
     4
100
AcDbPoint
 10
123.5
 20
12.5
 30
0.0
  0
POINT
  5
63
330
48
100
AcDbEntity
  8
1
 62
     4
100
AcDbPoint
 10
123.5
 20
19.0
 30
0.0
  0
POINT
  5
64
330
48
100
AcDbEntity
  8
1
 62
     4
100
AcDbPoint
 10
100.75
 20
12.5
 30
0.0
  0
POINT
  5
65
330
48
100
AcDbEntity
  8
1
 62
     4
100
AcDbPoint
 10
112.25
 20
12.5
 30
0.0
  0
POINT
  5
66
330
48
100
AcDbEntity
  8
1
 62
     4
100
AcDbPoint
 10
106.5
 20
12.5
 30
0.0
  0
POINT
  5
67
330
48
100
AcDbEntity
  8
1
 62
     4
100
AcDbPoint
 10
106.5
 20
19.0
 30
0.0
  0
POINT
  5
68
330
48
100
AcDbEntity
  8
1
 62
     4
100
AcDbPoint
 10
85.25
 20
17.0
 30
0.0
  0
POINT
  5
69
330
48
100
AcDbEntity
  8
1
 62
     4
100
AcDbPoint
 10
93.75
 20
17.0
 30
0.0
  0
POINT
  5
6A
330
48
100
AcDbEntity
  8
1
 62
     4
100
AcDbPoint
 10
183.0
 20
15.0
 30
0.0
  0
LINE
  5
6B
330
48
100
AcDbEntity
  8
1
  6
Continuous
 62
     2
100
AcDbLine
 10
81.0
 20
27.0
 30
0.0
 11
81.0
 21
10.0
 31
0.0
  0
LINE
  5
6C
330
48
100
AcDbEntity
  8
1
  6
DOT_CENTER
 62
     2
100
AcDbLine
 10
187.0
 20
26.5
 30
0.0
 11
187.0
 21
20.5
 31
0.0
  0
LINE
  5
6D
330
48
100
AcDbEntity
  8
1
  6
DOT_CENTER
 62
     2
100
AcDbLine
 10
184.0
 20
23.5
 30
0.0
 11
197.0
 21
23.5
 31
0.0
  0
LINE
  5
6E
330
48
100
AcDbEntity
  8
1
  6
Continuous
 62
     7
100
AcDbLine
 10
196.0
 20
21.5
 30
0.0
 11
191.0
 21
22.29999999999996
 31
0.0
  0
LINE
  5
6F
330
48
100
AcDbEntity
  8
1
  6
Continuous
 62
     7
100
AcDbLine
 10
196.0
 20
25.5
 30
0.0
 11
196.0
 21
21.5
 31
0.0
  0
LINE
  5
70
330
48
100
AcDbEntity
  8
1
  6
Continuous
 62
     7
100
AcDbLine
 10
191.0
 20
24.70000000000005
 30
0.0
 11
196.0
 21
25.5
 31
0.0
  0
LINE
  5
71
330
48
100
AcDbEntity
  8
1
  6
Continuous
 62
     7
100
AcDbLine
 10
191.0
 20
24.70000000000005
 30
0.0
 11
191.0
 21
22.29999999999996
 31
0.0
  0
LINE
  5
72
330
48
100
AcDbEntity
  8
1
  6
Continuous
 62
     2
100
AcDbLine
 10
33.0
 20
27.0
 30
0.0
 11
33.0
 21
10.0
 31
0.0
  0
LINE
  5
73
330
48
100
AcDbEntity
  8
1
  6
Continuous
 62
     2
100
AcDbLine
 10
25.0
 20
18.5
 30
0.0
 11
81.0
 21
18.5
 31
0.0
  0
LINE
  5
74
330
48
100
AcDbEntity
  8
1
  6
Continuous
 62
     7
100
AcDbLine
 10
200.0
 20
287.0000000000003
 30
0.0
 11
105.0
 21
287.0000000000003
 31
0.0
  0
LINE
  5
75
330
48
100
AcDbEntity
  8
1
  6
Continuous
 62
     7
100
AcDbLine
 10
200.0
 20
10.0
 30
0.0
 11
200.0
 21
148.5
 31
0.0
  0
LINE
  5
76
330
48
100
AcDbEntity
  8
1
  6
Continuous
 62
     7
100
AcDbLine
 10
25.0
 20
10.0
 30
0.0
 11
105.0
 21
10.0
 31
0.0
  0
LINE
  5
77
330
48
100
AcDbEntity
  8
1
  6
PHANTOM
 62
     4
100
AcDbLine
 10
0.0
 20
297.0
 30
0.0
 11
0.0
 21
0.0
 31
0.0
  0
LINE
  5
78
330
48
100
AcDbEntity
  8
1
  6
PHANTOM
 62
     4
100
AcDbLine
 10
210.0
 20
297.0
 30
0.0
 11
0.0
 21
297.0
 31
0.0
  0
LINE
  5
79
330
48
100
AcDbEntity
  8
1
  6
PHANTOM
 62
     4
100
AcDbLine
 10
210.0
 20
0.0
 30
0.0
 11
210.0
 21
297.0
 31
0.0
  0
LINE
  5
7A
330
48
100
AcDbEntity
  8
1
  6
PHANTOM
 62
     4
100
AcDbLine
 10
0.0
 20
0.0
 30
0.0
 11
210.0
 21
0.0
 31
0.0
  0
LINE
  5
7B
330
48
100
AcDbEntity
  8
1
  6
Continuous
 62
     7
100
AcDbLine
 10
25.0
 20
41.0
 30
0.0
 11
200.0
 21
41.0
 31
0.0
  0
LINE
  5
7C
330
48
100
AcDbEntity
  8
1
  6
Continuous
 62
     7
100
AcDbLine
 10
200.0
 20
27.0
 30
0.0
 11
25.0
 21
27.0
 31
0.0
  0
LINE
  5
7D
330
48
100
AcDbEntity
  8
1
  6
Continuous
 62
     2
100
AcDbLine
 10
33.0
 20
41.0
 30
0.0
 11
33.0
 21
27.0
 31
0.0
  0
LINE
  5
7E
330
48
100
AcDbEntity
  8
1
  6
Continuous
 62
     2
100
AcDbLine
 10
55.0
 20
287.0000000000003
 30
0.0
 11
55.0
 21
277.0000000000003
 31
0.0
  0
LINE
  5
7F
330
48
100
AcDbEntity
  8
1
  6
Continuous
 62
     2
100
AcDbLine
 10
40.0
 20
287.0000000000003
 30
0.0
 11
40.0
 21
277.0000000000003
 31
0.0
  0
LINE
  5
80
330
48
100
AcDbEntity
  8
1
  6
Continuous
 62
     7
100
AcDbLine
 10
25.0
 20
10.0
 30
0.0
 11
25.0
 21
148.5
 31
0.0
  0
LINE
  5
81
330
48
100
AcDbEntity
  8
1
  6
Continuous
 62
     2
100
AcDbLine
 10
55.0
 20
277.0000000000003
 30
0.0
 11
25.0
 21
277.0000000000003
 31
0.0
  0
LINE
  5
82
330
48
100
AcDbEntity
  8
1
  6
Continuous
 62
     2
100
AcDbLine
 10
166.0
 20
27.0
 30
0.0
 11
166.0
 21
10.0
 31
0.0
  0
LINE
  5
83
330
48
100
AcDbEntity
  8
1
  6
Continuous
 62
     2
100
AcDbLine
 10
132.0
 20
27.0
 30
0.0
 11
132.0
 21
10.0
 31
0.0
  0
LINE
  5
84
330
48
100
AcDbEntity
  8
1
  6
Continuous
 62
     2
100
AcDbLine
 10
149.0
 20
27.0
 30
0.0
 11
149.0
 21
10.0
 31
0.0
  0
LINE
  5
85
330
48
100
AcDbEntity
  8
1
  6
Continuous
 62
     2
100
AcDbLine
 10
115.0
 20
27.0
 30
0.0
 11
115.0
 21
10.0
 31
0.0
  0
LINE
  5
86
330
48
100
AcDbEntity
  8
1
  6
Continuous
 62
     2
100
AcDbLine
 10
98.0
 20
27.0
 30
0.0
 11
98.0
 21
10.0
 31
0.0
  0
LINE
  5
87
330
48
100
AcDbEntity
  8
1
  6
Continuous
 62
     2
100
AcDbLine
 10
166.0
 20
20.0
 30
0.0
 11
200.0
 21
20.0
 31
0.0
  0
LINE
  5
88
330
48
100
AcDbEntity
  8
1
  6
Continuous
 62
     2
100
AcDbLine
 10
105.0
 20
287.0000000000003
 30
0.0
 11
105.0
 21
292.0000000000003
 31
0.0
  0
LINE
  5
89
330
48
100
AcDbEntity
  8
1
  6
Continuous
 62
     7
100
AcDbLine
 10
105.0
 20
287.0000000000003
 30
0.0
 11
25.0
 21
287.0000000000003
 31
0.0
  0
LINE
  5
8A
330
48
100
AcDbEntity
  8
1
  6
Continuous
 62
     2
100
AcDbLine
 10
25.0
 20
148.5
 30
0.0
 11
20.0
 21
148.5
 31
0.0
  0
LINE
  5
8B
330
48
100
AcDbEntity
  8
1
  6
Continuous
 62
     7
100
AcDbLine
 10
25.0
 20
148.5
 30
0.0
 11
25.0
 21
287.0000000000003
 31
0.0
  0
LINE
  5
8C
330
48
100
AcDbEntity
  8
1
  6
Continuous
 62
     2
100
AcDbLine
 10
200.0
 20
148.5
 30
0.0
 11
205.0
 21
148.5
 31
0.0
  0
LINE
  5
8D
330
48
100
AcDbEntity
  8
1
  6
Continuous
 62
     7
100
AcDbLine
 10
200.0
 20
148.5
 30
0.0
 11
200.0
 21
287.0000000000003
 31
0.0
  0
LINE
  5
8E
330
48
100
AcDbEntity
  8
1
  6
Continuous
 62
     2
100
AcDbLine
 10
105.0
 20
10.0
 30
0.0
 11
105.0
 21
5.0
 31
0.0
  0
LINE
  5
8F
330
48
100
AcDbEntity
  8
1
  6
Continuous
 62
     7
100
AcDbLine
 10
105.0
 20
10.0
 30
0.0
 11
200.0
 21
10.0
 31
0.0
  0
CIRCLE
  5
94
330
48
100
AcDbEntity
  8
1
  6
DOT_CENTER
 62
     7
100
AcDbCircle
 10
89.5
 20
18.0
 30
0.0
 40
0.1000000000000796
  0
CIRCLE
  5
95
330
48
100
AcDbEntity
  8
1
  6
DOT_CENTER
 62
     7
100
AcDbCircle
 10
89.5
 20
16.0
 30
0.0
 40
0.1000000000000796
  0
CIRCLE
  5
96
330
48
100
AcDbEntity
  8
1
  6
Continuous
 62
     7
100
AcDbCircle
 10
187.0
 20
23.5
 30
0.0
 40
2.0
  0
CIRCLE
  5
97
330
48
100
AcDbEntity
  8
1
  6
Continuous
 62
     7
100
AcDbCircle
 10
187.0
 20
23.5
 30
0.0
 40
1.200000000000102
  0
CIRCLE
  5
98
330
48
100
AcDbEntity
  8
1
  6
Continuous
 62
     7
100
AcDbCircle
 10
154.5
 20
12.5
 30
0.0
 40
0.3000000000000966
  0
CIRCLE
  5
99
330
48
100
AcDbEntity
  8
1
  6
Continuous
 62
     7
100
AcDbCircle
 10
160.5
 20
12.5
 30
0.0
 40
0.3000000000000966
  0
CIRCLE
  5
9A
330
48
100
AcDbEntity
  8
1
  6
Continuous
 62
     7
100
AcDbCircle
 10
143.5
 20
12.5
 30
0.0
 40
0.3000000000000966
  0
CIRCLE
  5
9B
330
48
100
AcDbEntity
  8
1
  6
Continuous
 62
     7
100
AcDbCircle
 10
137.5
 20
12.5
 30
0.0
 40
0.3000000000000966
  0
CIRCLE
  5
9C
330
48
100
AcDbEntity
  8
1
  6
Continuous
 62
     7
100
AcDbCircle
 10
126.5
 20
12.5
 30
0.0
 40
0.3000000000000966
  0
CIRCLE
  5
9D
330
48
100
AcDbEntity
  8
1
  6
Continuous
 62
     7
100
AcDbCircle
 10
120.5
 20
12.5
 30
0.0
 40
0.3000000000000966
  0
CIRCLE
  5
9E
330
48
100
AcDbEntity
  8
1
  6
Continuous
 62
     7
100
AcDbCircle
 10
109.5
 20
12.5
 30
0.0
 40
0.3000000000000966
  0
CIRCLE
  5
9F
330
48
100
AcDbEntity
  8
1
  6
Continuous
 62
     7
100
AcDbCircle
 10
103.5
 20
12.5
 30
0.0
 40
0.3000000000000966
  0
SPLINE
  5
A0
102
{ACAD_REACTORS
330
BE
102
}
330
48
100
AcDbEntity
  8
_U_30EC_U_30A4_U_30E4_U_30FC_1
  6
Continuous
 62
     2
100
AcDbSpline
210
0.0
220
0.0
230
1.0
 70
    11
 71
     3
 72
    99
 73
    95
 74
    93
 42
0.000000001
 43
0.0000000001
 44
0.00000001
 40
0.0
 40
0.0
 40
0.0
 40
0.0
 40
0.0796417172271953
 40
0.1621768542355997
 40
0.2486489160957691
 40
0.3404969668524909
 40
0.4381912511164918
 40
0.5434463660245216
 40
0.6518115192846667
 40
0.7530190937886156
 40
0.8492196919724538
 40
0.941929031299796
 40
1.034249663569964
 40
1.129078600620163
 40
1.226697027573238
 40
1.327220425421637
 40
1.470572134937989
 40
1.595489863371209
 40
1.71993412534835
 40
1.850576620127324
 40
1.989059629987297
 40
2.134139054226895
 40
2.280698007207178
 40
2.424529739039397
 40
2.565929576985801
 40
2.708239260773444
 40
2.861717887443624
 40
3.045168540347327
 40
3.183798301138587
 40
3.314813961455396
 40
3.442083470447259
 40
3.569912708372961
 40
3.702177512509329
 40
3.842307559659542
 40
3.992872223245948
 40
4.156750662218252
 40
4.310981861107472
 40
4.445859909322516
 40
4.572393936131545
 40
4.701656719782022
 40
4.768279086008474
 40
4.83596069789844
 40
4.912788918729369
 40
5.006285208481582
 40
5.02690947875163
 40
5.047533749021138
 40
5.101808031471199
 40
5.16232516553857
 40
5.226919745995828
 40
5.294231806596764
 40
5.364544852554871
 40
5.438319055467922
 40
5.517877651324209
 40
5.607647714861578
 40
5.700449642544396
 40
5.788251142364064
 40
5.872714706039725
 40
5.95516729257525
 40
6.037192395190353
 40
6.120669181469141
 40
6.206848616686324
 40
6.296680855416721
 40
6.442558392872571
 40
6.568190371608253
 40
6.692904567360321
 40
6.824220446557064
 40
6.963121850329288
 40
7.10784373885109
 40
7.253431663907231
 40
7.395187468036676
 40
7.533140753237705
 40
7.670550457175218
 40
7.816236511769164
 40
7.987691657359107
 40
8.142277421969201
 40
8.293662615414977
 40
8.442962460879208
 40
8.591598316185191
 40
8.743678992361726
 40
8.903725323699145
 40
9.076307008890462
 40
9.265578604680545
 40
9.45920379536072
 40
9.617619810273503
 40
9.75360967136184
 40
9.87487330000396
 40
9.954520184977657
 40
10.0241641371923
 40
10.09769764405431
 40
10.18909955924965
 40
10.20974586420132
 40
10.2303921826338
 40
10.30057101881268
 40
10.37632012987549
 40
10.37632012987549
 40
10.37632012987549
 40
10.37632012987549
 10
170.1465954835851
 20
14.1379566321599
 30
0.0
 10
170.1632217851219
 20
14.11720608845311
 30
0.0
 10
170.1970784206578
 20
14.07495111711901
 30
0.0
 10
170.2599822541038
 20
14.02029811392082
 30
0.0
 10
170.3332500940393
 20
13.97299025121047
 30
0.0
 10
170.4175969238636
 20
13.93527231437936
 30
0.0
 10
170.5132240615461
 20
13.91040619731951
 30
0.0
 10
170.6171853775347
 20
13.90309559345939
 30
0.0
 10
170.7224020220405
 20
13.91142322794053
 30
0.0
 10
170.8206626371333
 20
13.94149179651524
 30
0.0
 10
170.9058986427549
 20
13.98848822971874
 30
0.0
 10
170.9779220206102
 20
14.04952991250861
 30
0.0
 10
171.0350917709096
 20
14.12412969578583
 30
0.0
 10
171.076786874744
 20
14.2100246466017
 30
0.0
 10
171.1026952846293
 20
14.3048585043221
 30
0.0
 10
171.1118037332652
 20
14.41854979038366
 30
0.0
 10
171.0986864796487
 20
14.54332587770777
 30
0.0
 10
171.0325330334415
 20
14.66014719171894
 30
0.0
 10
170.9369370919568
 20
14.74512539577368
 30
0.0
 10
170.824968102237
 20
14.81416684459174
 30
0.0
 10
170.6993659583269
 20
14.87204142045887
 30
0.0
 10
170.5656691620856
 20
14.92373723284333
 30
0.0
 10
170.4313122818831
 20
14.97899092397181
 30
0.0
 10
170.3051983986878
 20
15.04939770641653
 30
0.0
 10
170.1926579987535
 20
15.13785540731244
 30
0.0
 10
170.0969963064459
 20
15.24981067868475
 30
0.0
 10
170.0334157151825
 20
15.39949910101379
 30
0.0
 10
170.0200706505015
 20
15.55932794385141
 30
0.0
 10
170.0320510987448
 20
15.71048405306845
 30
0.0
 10
170.071229892884
 20
15.83809244591537
 30
0.0
 10
170.135498775091
 20
15.95080874030844
 30
0.0
 10
170.2238204999741
 20
16.04648609268676
 30
0.0
 10
170.3338091207628
 20
16.12354214985754
 30
0.0
 10
170.4632284401266
 20
16.1815139693628
 30
0.0
 10
170.6111838967794
 20
16.21739177588826
 30
0.0
 10
170.7682069455486
 20
16.22746719050566
 30
0.0
 10
170.917494046643
 20
16.21863637762594
 30
0.0
 10
171.059625361417
 20
16.19074899340356
 30
0.0
 10
171.1595922609625
 20
16.1341331470114
 30
0.0
 10
171.3125074736186
 20
16.08674602105503
 30
0.0
 10
171.2455131717168
 20
16.00197553001185
 30
0.0
 10
171.229647912027
 20
15.93438901873482
 30
0.0
 10
171.1978750531297
 20
15.86926092793188
 30
0.0
 10
171.2150202209571
 20
15.76723453256953
 30
0.0
 10
171.1666427208232
 20
15.774932116819
 30
0.0
 10
171.1315789440766
 20
15.76806771724808
 30
0.0
 10
171.1296697985719
 20
15.83263831158198
 30
0.0
 10
171.0985692931989
 20
15.87825639621392
 30
0.0
 10
171.0664551628456
 20
15.93561036628462
 30
0.0
 10
171.0208038475168
 20
15.98540462692556
 30
0.0
 10
170.9658508218387
 20
16.02994813718997
 30
0.0
 10
170.9010841173007
 20
16.06763988836541
 30
0.0
 10
170.8232377310597
 20
16.09283375791352
 30
0.0
 10
170.7355160553352
 20
16.09931230998107
 30
0.0
 10
170.6452903277807
 20
16.09235709285605
 30
0.0
 10
170.5594594694065
 20
16.06909190460922
 30
0.0
 10
170.4828343638597
 20
16.03131644107543
 30
0.0
 10
170.4165265636201
 20
15.98051641089584
 30
0.0
 10
170.3622560536965
 20
15.91731143407205
 30
0.0
 10
170.3224925345459
 20
15.84276455710368
 30
0.0
 10
170.2976775510588
 20
15.75917313997763
 30
0.0
 10
170.2892124262871
 20
15.65192948382287
 30
0.0
 10
170.3019697987103
 20
15.52965457267558
 30
0.0
 10
170.3681548409274
 20
15.41149724291216
 30
0.0
 10
170.4640977399832
 20
15.32606325709524
 30
0.0
 10
170.5757914963182
 20
15.25583362306721
 30
0.0
 10
170.7010863668703
 20
15.19659162305308
 30
0.0
 10
170.8349823941447
 20
15.14616708086129
 30
0.0
 10
170.968993033315
 20
15.09322516984378
 30
0.0
 10
171.0950885316915
 20
15.02750170625184
 30
0.0
 10
171.2076216638418
 20
14.9448035253732
 30
0.0
 10
171.3031370284232
 20
14.83996006310069
 30
0.0
 10
171.3672706486963
 20
14.69937117251572
 30
0.0
 10
171.3811103725278
 20
14.54065409451594
 30
0.0
 10
171.367395471223
 20
14.38153155217876
 30
0.0
 10
171.3244739153985
 20
14.23483828819209
 30
0.0
 10
171.2545906329065
 20
14.10119796587145
 30
0.0
 10
171.157459221383
 20
13.98532387699289
 30
0.0
 10
171.0347806023658
 20
13.89089981770089
 30
0.0
 10
170.8874408413168
 20
13.82179270651979
 30
0.0
 10
170.7177132497125
 20
13.77953210858852
 30
0.0
 10
170.5317404979597
 20
13.76781736230406
 30
0.0
 10
170.3528955926183
 20
13.77809486683437
 30
0.0
 10
170.1881733753743
 20
13.8196657376915
 30
0.0
 10
170.0834410841056
 20
13.88797642883939
 30
0.0
 10
169.9350960790367
 20
13.93675219032105
 30
0.0
 10
169.998037819473
 20
14.0297659129084
 30
0.0
 10
170.0072274430059
 20
14.10296536248278
 30
0.0
 10
170.0303711301232
 20
14.16936294501346
 30
0.0
 10
170.0034588335316
 20
14.26974809527587
 30
0.0
 10
170.052133895634
 20
14.26234033517383
 30
0.0
 10
170.0916530580697
 20
14.268940636209
 30
0.0
 10
170.0996204944702
 20
14.19078703218933
 30
0.0
 10
170.1305436967923
 20
14.15600927375854
 30
0.0
 10
170.1465954835851
 20
14.1379566321599
 30
0.0
 11
170.1465954835851
 21
14.1379566321599
 31
0.0
 11
170.1982038075864
 21
14.07729869814739
 31
0.0
 11
170.2601105501336
 21
14.02271295163325
 31
0.0
 11
170.3327764009803
 21
13.97583980928383
 31
0.0
 11
170.4166468655844
 21
13.93839906276537
 31
0.0
 11
170.511221073241
 21
13.91390636311878
 31
0.0
 11
170.6161603327166
 21
13.90575829888473
 31
0.0
 11
170.7240739497552
 21
13.91564048638222
 31
0.0
 11
170.8208419941616
 21
13.94528704887478
 31
0.0
 11
170.9050776083319
 21
13.99175118948817
 31
0.0
 11
170.9756144207686
 21
14.05191413218154
 31
0.0
 11
171.031944210998
 21
14.12505819466317
 31
0.0
 11
171.0736690016004
 21
14.2102143404752
 31
0.0
 11
171.0994680808033
 21
14.30436190989614
 31
0.0
 11
171.1080824729446
 21
14.40451552098216
 31
0.0
 11
171.0878517703357
 21
14.54643250879397
 31
0.0
 11
171.0272522666731
 21
14.65566684036389
 31
0.0
 11
170.9364971286286
 21
14.74081306430094
 31
0.0
 11
170.8260101884741
 21
14.81052746532521
 31
0.0
 11
170.7008523531254
 21
14.86979854169922
 31
0.0
 11
170.5662951950998
 21
14.92404253474115
 31
0.0
 11
170.4316884277007
 21
14.98201274306004
 31
0.0
 11
170.3065802017259
 21
15.05297399304232
 31
0.0
 11
170.196027609828
 21
15.14113315968693
 31
0.0
 11
170.1053381235266
 21
15.25080295132614
 31
0.0
 11
170.0447055469484
 21
15.39179720476315
 31
0.0
 11
170.0245079172553
 21
15.57413260402313
 31
0.0
 11
170.0374030471347
 21
15.71216131926643
 31
0.0
 11
170.0761016659391
 21
15.83733128451286
 31
0.0
 11
170.1393141731507
 21
15.94779262129081
 31
0.0
 11
170.2257499954546
 21
16.04196885390616
 31
0.0
 11
170.3336492808963
 21
16.11846540770648
 31
0.0
 11
170.4613526283329
 21
16.1761567010949
 31
0.0
 11
170.6075393259923
 21
16.21220066809977
 31
0.0
 11
170.770976856545
 21
16.22421385386065
 31
0.0
 11
170.9248918431289
 21
16.21434269066868
 31
0.0
 11
171.0564887242607
 21
16.18477329831501
 31
0.0
 11
171.172563634494
 21
16.13439993895254
 31
0.0
 11
171.2800792741123
 21
16.06264163167873
 31
0.0
 11
171.2516994050445
 21
16.00236624106887
 31
0.0
 11
171.2284855254284
 21
15.93879017337645
 31
0.0
 11
171.2078381040801
 21
15.86478841992267
 31
0.0
 11
171.1871840681487
 21
15.77360197897326
 31
0.0
 11
171.1665597978415
 21
15.77360197897326
 31
0.0
 11
171.1459355275344
 21
15.77360197897326
 31
0.0
 11
171.1256706495791
 21
15.82395108486344
 31
0.0
 11
171.0994658759421
 21
15.87850045116932
 31
0.0
 11
171.0650468924452
 21
15.93316116296116
 31
0.0
 11
171.0203554612937
 21
15.98349593725413
 31
0.0
 11
170.9657333359511
 21
16.02777175321528
 31
0.0
 11
170.9016722004326
 21
16.06436142334496
 31
0.0
 11
170.8259682961141
 21
16.08882545979724
 31
0.0
 11
170.7365722046449
 21
16.09701100667019
 31
0.0
 11
170.6440937174208
 21
16.08926973931099
 31
0.0
 11
170.5594072091646
 21
16.06609003445567
 31
0.0
 11
170.483702448884
 21
16.02863495634008
 31
0.0
 11
170.4183754766516
 21
15.97832774281108
 31
0.0
 11
170.3650487887665
 21
15.91600293379879
 31
0.0
 11
170.3254809233901
 21
15.84249947895603
 31
0.0
 11
170.3009523754711
 21
15.75988443557392
 31
0.0
 11
170.2927954104109
 21
15.67042329844355
 31
0.0
 11
170.3130095765618
 21
15.52595308146573
 31
0.0
 11
170.3736256166821
 21
15.41591177072939
 31
0.0
 11
170.4643479320758
 21
15.33033670130629
 31
0.0
 11
170.5748676948813
 21
15.25941954854625
 31
0.0
 11
170.7000089937719
 21
15.19914305550582
 31
0.0
 11
170.8345826882553
 21
15.1459044791302
 31
0.0
 11
170.9691729191968
 21
15.09039489581072
 31
0.0
 11
171.0942976816298
 21
15.02377281249414
 31
0.0
 11
171.2048009079771
 21
14.9411886371675
 31
0.0
 11
171.2955397598288
 21
14.83800003476267
 31
0.0
 11
171.3561557999489
 21
14.70552315979587
 31
0.0
 11
171.3763699660998
 21
14.53526378483844
 31
0.0
 11
171.3621839747998
 21
14.38133030397411
 31
0.0
 11
171.3196087009193
 21
14.23605531269095
 31
0.0
 11
171.2499752884265
 21
14.10398854189069
 31
0.0
 11
171.1544992078714
 21
13.9900721877525
 31
0.0
 11
171.0341060772624
 21
13.89715272597017
 31
0.0
 11
170.8896160201846
 21
13.82832357668178
 31
0.0
 11
170.7223519532714
 21
13.78581275203966
 31
0.0
 11
170.5336103348226
 21
13.7716586461404
 31
0.0
 11
170.3405031726387
 21
13.78581275203966
 31
0.0
 11
170.1878975900911
 21
13.82832357668178
 31
0.0
 11
170.0661897942203
 21
13.88899033013888
 31
0.0
 11
169.9660261826364
 21
13.95734322942735
 31
0.0
 11
169.9922320587039
 21
14.03255545163076
 31
0.0
 11
170.0090121537618
 21
14.10014767383609
 31
0.0
 11
170.0206196447852
 21
14.17275926235961
 31
0.0
 11
170.0313606254139
 21
14.26352788212864
 31
0.0
 11
170.0520069443316
 21
14.26352788212864
 31
0.0
 11
170.0726532632493
 21
14.26352788212864
 31
0.0
 11
170.104891639163
 21
14.20119204881084
 31
0.0
 11
170.1465954835851
 21
14.1379566321599
 31
0.0
  0
SPLINE
  5
A1
102
{ACAD_REACTORS
330
BF
102
}
330
48
100
AcDbEntity
  8
_U_30EC_U_30A4_U_30E4_U_30FC_1
  6
Continuous
 62
     2
100
AcDbSpline
210
0.0
220
0.0
230
1.0
 70
    11
 71
     3
 72
    57
 73
    53
 74
    51
 42
0.000000001
 43
0.0000000001
 44
0.00000001
 40
0.0
 40
0.0
 40
0.0
 40
0.0
 40
0.0471632082808605
 40
0.0914861054632091
 40
0.1357762519702043
 40
0.1826527001609769
 40
0.2295203288571962
 40
0.2737751972219563
 40
0.3181310461542724
 40
0.3652607198398385
 40
0.4571007286313559
 40
0.5671851029164131
 40
0.6894623283867696
 40
0.8181758272545665
 40
0.9510087229273539
 40
1.085852229674054
 40
1.218126164475275
 40
1.343545131142317
 40
1.454537202956734
 40
1.567187607530657
 40
1.680710966642305
 40
1.79422686973664
 40
1.900009184247468
 40
2.00408586044772
 40
2.108162674451635
 40
2.214000150155237
 40
2.496038577352016
 40
2.762350745479163
 40
2.997275353279326
 40
3.185110082137608
 40
3.246407890063773
 40
3.312607550212561
 40
3.378877742711378
 40
3.440140399651312
 40
4.100501696006326
 40
4.754913085563424
 40
5.411331693423743
 40
6.077890432568561
 40
6.110575292670839
 40
6.143260152775619
 40
6.367989363395032
 40
6.610525374951474
 40
6.863389136467203
 40
7.11938002554753
 40
7.376036605091009
 40
7.631164770966198
 40
7.876722425456352
 40
8.104953735855874
 40
8.31291668592423
 40
8.497730294941151
 40
8.651018984313732
 40
8.764738853624428
 40
8.764738853624428
 40
8.764738853624428
 40
8.764738853624428
 10
174.7922649500513
 20
13.81626739612932
 30
0.0
 10
174.7766616726931
 20
13.8182623107908
 30
0.0
 10
174.7463947960302
 20
13.82213201360297
 30
0.0
 10
174.7010994202253
 20
13.82341984967267
 30
0.0
 10
174.6559553129349
 20
13.8230868355405
 30
0.0
 10
174.60990171234
 20
13.82314658674223
 30
0.0
 10
174.5640496172096
 20
13.82325813649999
 30
0.0
 10
174.5183711648166
 20
13.8227783345659
 30
0.0
 10
174.4750811541608
 20
13.8246110961872
 30
0.0
 10
174.4039947951514
 20
13.80049556814666
 30
0.0
 10
174.4057477261441
 20
13.92184693977249
 30
0.0
 10
174.3586196370569
 20
14.00726239751229
 30
0.0
 10
174.3191478251763
 20
14.1248692934514
 30
0.0
 10
174.2706635532645
 20
14.24232752540439
 30
0.0
 10
174.2201017402522
 20
14.36405935761513
 30
0.0
 10
174.1718634610477
 20
14.49075967862469
 30
0.0
 10
174.1135232947595
 20
14.59933687784955
 30
0.0
 10
174.0980892667261
 20
14.75620657134407
 30
0.0
 10
173.9566586330636
 20
14.72373446548328
 30
0.0
 10
173.8508397414904
 20
14.7351288868217
 30
0.0
 10
173.7358569725223
 20
14.73392591514618
 30
0.0
 10
173.6253142252142
 20
14.73506945347412
 30
0.0
 10
173.5176583522783
 20
14.73418350037529
 30
0.0
 10
173.4121322529243
 20
14.73416602390509
 30
0.0
 10
173.3109192682013
 20
14.72714032472419
 30
0.0
 10
173.1266804827753
 20
14.75135859859864
 30
0.0
 10
173.1157393685412
 20
14.44741691121888
 30
0.0
 10
173.0087691634751
 20
14.22353177253397
 30
0.0
 10
172.9098148604346
 20
14.03895314292496
 30
0.0
 10
172.9225090524007
 20
13.7953020480422
 30
0.0
 10
172.8050091716397
 20
13.82508046753195
 30
0.0
 10
172.742205586831
 20
13.82258089509603
 30
0.0
 10
172.67858720934
 20
13.82344075102802
 30
0.0
 10
172.3946014194076
 20
13.78098039941977
 30
0.0
 10
173.0251638499381
 20
14.50081952444774
 30
0.0
 10
173.1087645289072
 20
15.01276539435734
 30
0.0
 10
173.492925278934
 20
15.53353743550046
 30
0.0
 10
173.4777208288563
 20
16.23519626253218
 30
0.0
 10
173.7239265722697
 20
16.2234563308126
 30
0.0
 10
173.8256346157561
 20
16.23225004452777
 30
0.0
 10
173.8249752035819
 20
15.98059650730346
 30
0.0
 10
173.9428317155828
 20
15.79818020733955
 30
0.0
 10
174.0315515260485
 20
15.55563740662864
 30
0.0
 10
174.1322292485259
 20
15.32340030530123
 30
0.0
 10
174.2311142712243
 20
15.08674644566912
 30
0.0
 10
174.3299676990669
 20
14.85461739170088
 30
0.0
 10
174.4256166390927
 20
14.63122222788788
 30
0.0
 10
174.5159904573272
 20
14.42272549049318
 30
0.0
 10
174.5989944568189
 20
14.2330844852932
 30
0.0
 10
174.6726088582799
 20
14.06663106068099
 30
0.0
 10
174.7342815895546
 20
13.92917699626104
 30
0.0
 10
174.7749458885604
 20
13.84999239430038
 30
0.0
 10
174.7922649500513
 20
13.81626739612932
 30
0.0
 11
174.7922649500513
 21
13.81626739612932
 31
0.0
 11
174.7453878317448
 21
13.82145433189184
 31
0.0
 11
174.7010975896125
 21
13.82315538223861
 31
0.0
 11
174.6568074431729
 21
13.82315538223861
 31
0.0
 11
174.609930994716
 21
13.82315538223861
 31
0.0
 11
174.5630633657034
 21
13.82315538223861
 31
0.0
 11
174.5188084970409
 21
13.82315538223861
 31
0.0
 11
174.4744852776854
 21
13.82145433189184
 31
0.0
 11
174.4276419021443
 21
13.81626739612932
 31
0.0
 11
174.3992532136325
 21
13.90360966173242
 31
0.0
 11
174.3622721815898
 21
14.00729656274814
 31
0.0
 11
174.3188386236702
 21
14.1215998700113
 31
0.0
 11
174.2711055866936
 21
14.24113531268972
 31
0.0
 11
174.2208160133237
 21
14.36408057307566
 31
0.0
 11
174.1696467003932
 21
14.48883822929452
 31
0.0
 11
174.1197531801326
 21
14.61134141502774
 31
0.0
 11
174.0733119111841
 21
14.72784517367916
 31
0.0
 11
173.9623611907589
 21
14.73087465284507
 31
0.0
 11
173.849730922509
 21
14.73300454867785
 31
0.0
 11
173.736215206945
 21
14.73432195319141
 31
0.0
 11
173.6227000476801
 21
14.73473315978856
 31
0.0
 11
173.5169185312816
 21
14.73432195319141
 31
0.0
 11
173.4128501919226
 21
14.73300454867785
 31
0.0
 11
173.3087951724046
 21
14.73087465284507
 31
0.0
 11
173.2030010615596
 21
14.72784517367916
 31
0.0
 11
173.0980914750139
 21
14.46604437513354
 31
0.0
 11
173.0034868690332
 21
14.21710232658461
 31
0.0
 11
172.9252231210298
 21
13.99559756969556
 31
0.0
 11
172.8693431224555
 21
13.81626739612932
 31
0.0
 11
172.8082651639442
 21
13.82145433189184
 31
0.0
 11
172.742087361813
 21
13.82315538223861
 31
0.0
 11
172.6758390041283
 21
13.82145433189184
 31
0.0
 11
172.6147963233938
 21
13.81626739612932
 31
0.0
 11
172.8899684951931
 21
14.41656508695142
 31
0.0
 11
173.1582945734171
 21
15.0134364236078
 31
0.0
 11
173.4240277350405
 21
15.61366245644381
 31
0.0
 11
173.6914740737033
 21
16.22421385386065
 31
0.0
 11
173.7241589339806
 21
16.22421385386065
 31
0.0
 11
173.7568437942579
 21
16.22421385386065
 31
0.0
 11
173.8428300681057
 21
16.01658539037085
 31
0.0
 11
173.9357285813609
 21
15.79254614563513
 31
0.0
 11
174.0328714521463
 21
15.55908663180468
 31
0.0
 11
174.1317936458031
 21
15.3229812846414
 31
0.0
 11
174.2315341249927
 21
15.08649780379782
 31
0.0
 11
174.3313071129353
 21
14.85168781253708
 31
0.0
 11
174.4280608257449
 21
14.62599492196848
 31
0.0
 11
174.5188084970409
 21
14.41658052097921
 31
0.0
 11
174.6022150834546
 21
14.22607611130458
 31
0.0
 11
174.6770293263377
 21
14.05708232662471
 31
0.0
 11
174.7410729186604
 21
13.91781337700671
 31
0.0
 11
174.7922649500513
 21
13.81626739612932
 31
0.0
  0
SPLINE
  5
A2
102
{ACAD_REACTORS
330
BF
102
}
330
48
100
AcDbEntity
  8
_U_30EC_U_30A4_U_30E4_U_30FC_1
  6
Continuous
 62
     2
100
AcDbSpline
210
0.0
220
0.0
230
1.0
 70
    11
 71
     3
 72
    25
 73
    21
 74
    19
 42
0.000000001
 43
0.0000000001
 44
0.00000001
 40
0.0
 40
0.0
 40
0.0
 40
0.0
 40
0.091147996906539
 40
0.185811789620467
 40
0.2804128399735066
 40
0.371588919071452
 40
0.4679080494219004
 40
0.5642683809230103
 40
0.6605683222645005
 40
0.7569653015810268
 40
0.8561348172522768
 40
1.0926159651043
 40
1.374867658141889
 40
1.611348812011618
 40
1.710518328425268
 40
1.809403163726585
 40
2.045205463294095
 40
2.32664691762216
 40
2.562449217190627
 40
2.661334043833948
 40
2.661334043833948
 40
2.661334043833948
 40
2.661334043833948
 10
173.2683700567199
 20
14.88614538197294
 30
0.0
 10
173.2987525917923
 20
14.88598079714557
 30
0.0
 10
173.3606895889112
 20
14.88564528689925
 30
0.0
 10
173.4541356960329
 20
14.88269055452
 30
0.0
 10
173.5475095236358
 20
14.87977752877152
 30
0.0
 10
173.6417760753476
 20
14.87894201643411
 30
0.0
 10
173.7354964790967
 20
14.87996644658045
 30
0.0
 10
173.8352040303205
 20
14.8791697747098
 30
0.0
 10
173.9188949546312
 20
14.8892141023522
 30
0.0
 10
174.0637996315045
 20
14.86234617674167
 30
0.0
 10
173.9396132444801
 20
15.03665530280051
 30
0.0
 10
173.8965867286282
 20
15.19651711006094
 30
0.0
 10
173.7808922142209
 20
15.45518458550219
 30
0.0
 10
173.7017565431257
 20
15.59231052861861
 30
0.0
 10
173.6431576621816
 20
15.80937033134081
 30
0.0
 10
173.5864803939438
 20
15.59266134213432
 30
0.0
 10
173.5052809900477
 20
15.45327012438239
 30
0.0
 10
173.4063701281488
 20
15.20406969370198
 30
0.0
 10
173.3253625094258
 20
15.01925830226074
 30
0.0
 10
173.2813683325838
 20
14.91650446856119
 30
0.0
 10
173.2683700567199
 20
14.88614538197294
 30
0.0
 11
173.2683700567199
 21
14.88614538197294
 31
0.0
 11
173.3595137737821
 21
14.88526123266762
 31
0.0
 11
173.4541428297581
 21
14.882696979196
 31
0.0
 11
173.5487082179706
 21
14.88009965280777
 31
0.0
 11
173.6398803250196
 21
14.87924857641906
 31
0.0
 11
173.7361985777706
 21
14.87965978301621
 31
0.0
 11
173.8325499034377
 21
14.88097718752977
 31
0.0
 11
173.9288262638286
 21
14.88310818579315
 31
0.0
 11
174.0251753846343
 21
14.88614538197294
 31
0.0
 11
173.9854633323141
 21
14.97701642195022
 31
0.0
 11
173.8907653613968
 21
15.19370890189605
 31
0.0
 11
173.7777387509471
 21
15.45234186183138
 31
0.0
 11
173.6830407800297
 21
15.66903434177721
 31
0.0
 11
173.6433287277095
 21
15.75990538175449
 31
0.0
 11
173.6043330259266
 21
15.66903434177721
 31
0.0
 11
173.5113432755212
 21
15.45234186183138
 31
0.0
 11
173.4003555089082
 21
15.19370890189605
 31
0.0
 11
173.3073657585028
 21
14.97701642195022
 31
0.0
 11
173.2683700567199
 21
14.88614538197294
 31
0.0
  0
SPLINE
  5
A3
102
{ACAD_REACTORS
330
C0
102
}
330
48
100
AcDbEntity
  8
_U_30EC_U_30A4_U_30E4_U_30FC_1
  6
Continuous
 62
     2
100
AcDbSpline
210
0.0
220
0.0
230
1.0
 70
    11
 71
     3
 72
    95
 73
    91
 74
    89
 42
0.000000001
 43
0.0000000001
 44
0.00000001
 40
0.0
 40
0.0
 40
0.0
 40
0.0
 40
0.6550406656911288
 40
1.308087289031874
 40
1.420803739835751
 40
1.566130759770767
 40
1.757067341888379
 40
2.006513545026337
 40
2.087328263121444
 40
2.185328872295578
 40
2.294612454748276
 40
2.408936380534711
 40
2.526802767798474
 40
2.646360524615559
 40
2.762535723971546
 40
2.87005734287005
 40
2.966883448431518
 40
3.050803243518155
 40
3.115818222436528
 40
3.156030057150121
 40
3.213914225080102
 40
3.276689026450502
 40
3.342960320981223
 40
3.404230667150439
 40
3.4538228094932
 40
3.532499827188234
 40
3.634775188506988
 40
3.754909333007939
 40
3.889736761660472
 40
4.035769602175013
 40
4.187256681197409
 40
4.33873368567581
 40
4.488478734675932
 40
4.634708317831387
 40
4.771493189921071
 40
4.892686571561072
 40
5.19977552894429
 40
5.460353566929418
 40
5.667603142345302
 40
5.814722905404348
 40
5.828990806219646
 40
5.855488336304343
 40
5.869756237118675
 40
6.189796507762726
 40
6.531890469872985
 40
6.883053637016919
 40
7.230512024911377
 40
7.566966656764487
 40
7.885203559707325
 40
8.172887439719089
 40
8.418011594062644
 40
8.443926721190566
 40
8.510760470613057
 40
8.60214539379557
 40
8.701714041647016
 40
8.793098965075252
 40
8.859932715057827
 40
8.885847842603477
 40
9.242301256612643
 40
9.589275455016576
 40
9.921808543164028
 40
10.23479624298458
 40
10.29968150889164
 40
10.35323493887747
 40
10.40154625355131
 40
10.46482922477816
 40
10.55973900668402
 40
10.69239545985617
 40
10.84920353475668
 40
11.01626328594778
 40
11.18672024367439
 40
11.35372582577208
 40
11.50257442292425
 40
11.61866495023292
 40
11.71329869152876
 40
11.82511050573908
 40
11.94464880845711
 40
12.06929242642501
 40
12.19707290435174
 40
12.32562632860526
 40
12.45034565331273
 40
12.56646595170322
 40
12.67099007414636
 40
12.76077625936776
 40
12.82703233506691
 40
12.87429132785991
 40
12.8983199032333
 40
12.92234847860019
 40
13.53984767410325
 40
14.18294284359368
 40
14.18294284359368
 40
14.18294284359368
 40
14.18294284359368
 10
177.3067935648021
 20
14.70898038201722
 30
0.0
 10
177.175201975855
 20
14.82265058603231
 30
0.0
 10
176.9124193802729
 20
15.04964496316159
 30
0.0
 10
176.3997393441022
 20
15.89214462956282
 30
0.0
 10
176.4106654595363
 20
15.53423377577016
 30
0.0
 10
176.4041226527991
 20
15.3926739227213
 30
0.0
 10
176.4028026631773
 20
15.1942130529928
 30
0.0
 10
176.4018117602538
 20
15.02150296045985
 30
0.0
 10
176.4024101751974
 20
14.87865373257581
 30
0.0
 10
176.4038994301882
 20
14.78265005413358
 30
0.0
 10
176.4055683588473
 20
14.67545503263141
 30
0.0
 10
176.4071934954618
 20
14.56164211517583
 30
0.0
 10
176.4092429501686
 20
14.44441572604589
 30
0.0
 10
176.4123165501927
 20
14.32656411232967
 30
0.0
 10
176.4156339697044
 20
14.21228087320619
 30
0.0
 10
176.4193605340281
 20
14.10521401867278
 30
0.0
 10
176.4217338161424
 20
14.01007408766925
 30
0.0
 10
176.4278718888357
 20
13.92558557205699
 30
0.0
 10
176.4239784495946
 20
13.86923087298143
 30
0.0
 10
176.4455230443079
 20
13.7982502247236
 30
0.0
 10
176.3680940058618
 20
13.8290267760448
 30
0.0
 10
176.3116353240191
 20
13.82011242517613
 30
0.0
 10
176.2540495896807
 20
13.82896218398272
 30
0.0
 10
176.1690163478474
 20
13.79738225225952
 30
0.0
 10
176.2009714146382
 20
13.88095155992191
 30
0.0
 10
176.1990705282538
 20
13.9488260896831
 30
0.0
 10
176.2107960047301
 20
14.05233256764416
 30
0.0
 10
176.2164241053
 20
14.17002125616694
 30
0.0
 10
176.2237902178941
 20
14.3038860916442
 30
0.0
 10
176.232075970161
 20
14.4476415287263
 30
0.0
 10
176.2398851897428
 20
14.59714022843444
 30
0.0
 10
176.2457571222658
 20
14.74792549402078
 30
0.0
 10
176.2503667817969
 20
14.89699943878437
 30
0.0
 10
176.2542632117542
 20
15.0412291316302
 30
0.0
 10
176.2570715126564
 20
15.17583905213017
 30
0.0
 10
176.2576698755022
 20
15.36469614347356
 30
0.0
 10
176.261602386715
 20
15.58975494313155
 30
0.0
 10
176.2442175378499
 20
15.86367091125705
 30
0.0
 10
176.2850417342585
 20
16.02787112098596
 30
0.0
 10
176.1995153256
 20
16.22749661465097
 30
0.0
 10
176.2660558907688
 20
16.22385458403982
 30
0.0
 10
176.283872427323
 20
16.22413447160856
 30
0.0
 10
176.4056801797506
 20
16.2263292739862
 30
0.0
 10
176.5080770335461
 20
15.9467511872151
 30
0.0
 10
176.7580021509357
 20
15.74563008536
 30
0.0
 10
176.9870035331111
 20
15.47792614987918
 30
0.0
 10
177.2245151213108
 20
15.22646413862368
 30
0.0
 10
177.4486090740773
 20
14.98969974061365
 30
0.0
 10
177.6750716283009
 20
14.73218692583072
 30
0.0
 10
177.8325687886514
 20
14.61649335056921
 30
0.0
 10
178.0472129612675
 20
14.27997152538794
 30
0.0
 10
178.0422645974618
 20
14.40464754091603
 30
0.0
 10
178.0433931602545
 20
14.46327691935737
 30
0.0
 10
178.0428877841517
 20
14.55043662371978
 30
0.0
 10
178.0430475158113
 20
14.64416143182873
 30
0.0
 10
178.0430054891318
 20
14.73018971297036
 30
0.0
 10
178.0430202040372
 20
14.79153891945497
 30
0.0
 10
178.0429706255984
 20
14.94135231520993
 30
0.0
 10
178.045881152281
 20
15.17989612510102
 30
0.0
 10
178.0259521041163
 20
15.544865098687
 30
0.0
 10
178.0750433936247
 20
15.80799631993404
 30
0.0
 10
177.9177951509182
 20
16.21928904947769
 30
0.0
 10
178.0762112872422
 20
16.16398282551746
 30
0.0
 10
178.1311680478629
 20
16.16199686500179
 30
0.0
 10
178.182788776674
 20
16.1626477824825
 30
0.0
 10
178.2713198965367
 20
16.20369527738256
 30
0.0
 10
178.2204898303168
 20
16.05696326622986
 30
0.0
 10
178.2313389930283
 20
15.95019971954433
 30
0.0
 10
178.2166036994848
 20
15.79085705414111
 30
0.0
 10
178.2099976446204
 20
15.62853061652874
 30
0.0
 10
178.2014961399915
 20
15.45992521892395
 30
0.0
 10
178.1943227202198
 20
15.29814814703541
 30
0.0
 10
178.188906321539
 20
15.1542233145793
 30
0.0
 10
178.1871713967648
 20
15.03437493466921
 30
0.0
 10
178.1875440672318
 20
14.92686101590511
 30
0.0
 10
178.1873656126263
 20
14.81820024645584
 30
0.0
 10
178.187701086314
 20
14.69953570165531
 30
0.0
 10
178.1890040622185
 20
14.57555163512742
 30
0.0
 10
178.1908887351575
 20
14.44858294171106
 30
0.0
 10
178.192500445485
 20
14.32153861551033
 30
0.0
 10
178.194140313743
 20
14.1985488449218
 30
0.0
 10
178.1962570745752
 20
14.0830093138376
 30
0.0
 10
178.1963848422365
 20
13.98090903955838
 30
0.0
 10
178.2006514396554
 20
13.89009848838157
 30
0.0
 10
178.1908440085291
 20
13.83213621208788
 30
0.0
 10
178.2118474771689
 20
13.76517130132028
 30
0.0
 10
178.1725639739898
 20
13.77291153966687
 30
0.0
 10
177.9595307117745
 20
13.7575525414519
 30
0.0
 10
177.7636297943187
 20
14.31403058094466
 30
0.0
 10
177.4611197631544
 20
14.57556035348508
 30
0.0
 10
177.3067935648021
 20
14.70898038201722
 30
0.0
 11
177.3067935648021
 21
14.70898038201722
 31
0.0
 11
176.8595529338511
 21
15.18757635411977
 31
0.0
 11
176.4124049070644
 21
15.66352649288967
 31
0.0
 11
176.4089664262494
 21
15.55086249986229
 31
0.0
 11
176.40556101835
 21
15.40557538184305
 31
0.0
 11
176.4029636920274
 21
15.21465645827968
 31
0.0
 11
176.4021126156603
 21
14.96521170139761
 31
0.0
 11
176.4025239230289
 21
14.88439802954282
 31
0.0
 11
176.4038420329817
 21
14.78640628477558
 31
0.0
 11
176.4055192267718
 21
14.6771355729974
 31
0.0
 11
176.4072367127518
 21
14.56282454872041
 31
0.0
 11
176.4094007838773
 21
14.44497802965266
 31
0.0
 11
176.4124049070644
 21
14.32545802100196
 31
0.0
 11
176.4158359733139
 21
14.20933349846152
 31
0.0
 11
176.4192928929999
 21
14.10186746550232
 31
0.0
 11
176.4227085253088
 21
14.00510162351269
 31
0.0
 11
176.4261896983793
 21
13.92125406276978
 31
0.0
 11
176.4296006184313
 21
13.85632862007759
 31
0.0
 11
176.4330776843149
 21
13.81626739612932
 31
0.0
 11
176.3754263821571
 21
13.82145433189184
 31
0.0
 11
176.3126746318309
 21
13.82315538223861
 31
0.0
 11
176.2464251717157
 21
13.82145433189184
 31
0.0
 11
176.1853747739676
 21
13.81626739612932
 31
0.0
 11
176.1926772737813
 21
13.86531894125591
 31
0.0
 11
176.2008793569054
 21
13.94356725720854
 31
0.0
 11
176.2090098822349
 21
14.04551893253029
 31
0.0
 11
176.2163406441397
 21
14.16542920159748
 31
0.0
 11
176.2236358280421
 21
14.30005912343889
 31
0.0
 11
176.2318444255596
 21
14.44586107652742
 31
0.0
 11
176.2395504149466
 21
14.5971520313507
 31
0.0
 11
176.2455763002094
 21
14.74850913200737
 31
0.0
 11
176.2503046247417
 21
14.89817951391434
 31
0.0
 11
176.254192897212
 21
15.0443573958222
 31
0.0
 11
176.2567527408965
 21
15.18111831592694
 31
0.0
 11
176.2576324804574
 21
15.30230850686894
 31
0.0
 11
176.257192610677
 21
15.60939715262546
 31
0.0
 11
176.2559126888348
 21
15.86997204839361
 31
0.0
 11
176.2528658717893
 21
16.07719922716122
 31
0.0
 11
176.2473049112763
 21
16.22421385386065
 31
0.0
 11
176.2615728121469
 21
16.22421385386065
 31
0.0
 11
176.2880703423352
 21
16.22421385386065
 31
0.0
 11
176.3023382432058
 21
16.22421385386065
 31
0.0
 11
176.5194743650277
 21
15.98910179662772
 31
0.0
 11
176.751274412308
 21
15.73751281231557
 31
0.0
 11
176.989481601884
 21
15.47949555543571
 31
0.0
 11
177.2260074557521
 21
15.22497079855486
 31
0.0
 11
177.4555698717706
 21
14.97899759549139
 31
0.0
 11
177.6731797360103
 21
14.74678934034102
 31
0.0
 11
177.8713724913707
 21
14.538266805671
 31
0.0
 11
178.0430143099086
 21
14.36326697932589
 31
0.0
 11
178.0430143099086
 21
14.38918210687043
 31
0.0
 11
178.0430143099086
 21
14.45601585685372
 31
0.0
 11
178.0430143099086
 21
14.54740078030025
 31
0.0
 11
178.0430143099086
 21
14.64696942823455
 31
0.0
 11
178.0430143099086
 21
14.73835435168108
 31
0.0
 11
178.0430143099086
 21
14.80518810166437
 31
0.0
 11
178.0430143099086
 21
14.83110322920891
 31
0.0
 11
178.0417233637609
 21
15.18755430550864
 31
0.0
 11
178.0378461155959
 21
15.5345068401441
 31
0.0
 11
178.0296197790002
 21
15.86693815950551
 31
0.0
 11
178.0154535467229
 21
16.17960510387184
 31
0.0
 11
178.0790351249619
 21
16.16666367158334
 31
0.0
 11
178.1324170159611
 21
16.16238072887609
 31
0.0
 11
178.1805381084833
 21
16.16666367158334
 31
0.0
 11
178.2424836798198
 21
16.17960510387184
 31
0.0
 11
178.2351216487575
 21
16.08498128445101
 31
0.0
 11
178.2269790968818
 21
15.95257496503962
 31
0.0
 11
178.2183705364005
 21
15.79600336785656
 31
0.0
 11
178.2097547223215
 21
15.62916593734269
 31
0.0
 11
178.2016187850288
 21
15.45890325509362
 31
0.0
 11
178.1942501393835
 21
15.292060312427
 31
0.0
 11
178.1891406931522
 21
15.14329943572808
 31
0.0
 11
178.1874503478904
 21
15.02722121527097
 31
0.0
 11
178.1874503478904
 21
14.93258747397515
 31
0.0
 11
178.1874503478904
 21
14.82077565976704
 31
0.0
 11
178.1878461204497
 21
14.7012380122275
 31
0.0
 11
178.1890819450709
 21
14.57660052093922
 31
0.0
 11
178.1908392193318
 21
14.44883212687391
 31
0.0
 11
178.1925303477608
 21
14.32028982655879
 31
0.0
 11
178.1942876220215
 21
14.19558288214559
 31
0.0
 11
178.1959787504506
 21
14.07947489606352
 31
0.0
 11
178.1972884379173
 21
13.97495896727014
 31
0.0
 11
178.1976985420736
 21
13.88517371555656
 31
0.0
 11
178.1976985420736
 21
13.81891763918417
 31
0.0
 11
178.1976985420736
 21
13.7716586461404
 31
0.0
 11
178.1736699662977
 21
13.7716586461404
 31
0.0
 11
178.1496413905218
 21
13.7716586461404
 31
0.0
 11
177.7410729200423
 21
14.2346673526219
 31
0.0
 11
177.3067935648021
 21
14.70898038201722
 31
0.0
  0
SPLINE
  5
A4
102
{ACAD_REACTORS
330
C1
102
}
330
48
100
AcDbEntity
  8
_U_30EC_U_30A4_U_30E4_U_30FC_1
  6
Continuous
 62
     2
100
AcDbSpline
210
0.0
220
0.0
230
1.0
 70
    11
 71
     3
 72
   110
 73
   106
 74
   104
 42
0.000000001
 43
0.0000000001
 44
0.00000001
 40
0.0
 40
0.0
 40
0.0
 40
0.0
 40
0.2203406257277625
 40
0.4407808782838392
 40
0.5952494494615385
 40
0.7488431659393389
 40
0.902358183130852
 40
1.056801968670436
 40
1.210736449099908
 40
1.363041386539729
 40
1.515315729683101
 40
1.66937723914811
 40
1.721611652756645
 40
1.773199502943055
 40
1.824933793210102
 40
1.877110426488105
 40
1.982682281206873
 40
2.078781667087654
 40
2.17280964082243
 40
2.271937807379053
 40
2.378349933379447
 40
2.494131557736721
 40
2.626681683943827
 40
2.783145050796197
 40
2.890701232941062
 40
2.993130312454943
 40
3.099869730691947
 40
3.220237816691388
 40
3.35269548273771
 40
3.481732806389938
 40
3.593499473690517
 40
3.674323013332006
 40
3.817951711952899
 40
3.946167120793868
 40
4.061405053453552
 40
4.166480796003194
 40
4.262478775059342
 40
4.350736673551185
 40
4.433071991254127
 40
4.51121629381467
 40
4.564262454117977
 40
4.618474415571594
 40
4.670128488754179
 40
4.722296879126346
 40
4.819540945314213
 40
4.931194984128066
 40
5.049996040257652
 40
5.16864375541514
 40
5.283970811762437
 40
5.392260784910291
 40
5.486512254876337
 40
5.559178233949679
 40
5.591425852853307
 40
5.626215969637705
 40
5.667155838674229
 40
5.717449290214048
 40
5.738402360944666
 40
5.784499116553646
 40
5.830595872164632
 40
5.851548942897494
 40
5.873019280661597
 40
5.92421777840812
 40
5.985325662817472
 40
6.036524160567464
 40
6.057994498333986
 40
6.236847789607313
 40
6.381409928945449
 40
6.493190424178497
 40
6.574067534230241
 40
6.691018086205307
 40
6.814881554220167
 40
6.944307823240205
 40
7.071266716065744
 40
7.193488604461586
 40
7.309042773127815
 40
7.414007203170494
 40
7.505140441886279
 40
7.531150360599438
 40
7.559221645321983
 40
7.587202218920656
 40
7.612569159498884
 40
7.662550809480773
 40
7.70287887576387
 40
7.857328205230767
 40
8.010799568088412
 40
8.165256399657334
 40
8.322232698713588
 40
8.479564855016303
 40
8.635216230290506
 40
8.790882550925481
 40
8.948305154946988
 40
9.16827183903264
 40
9.387358980986921
 40
9.60804796103315
 40
9.832914234792304
 40
9.858338694962638
 40
9.925366817229653
 40
10.02013071422724
 40
10.12876249858964
 40
10.23739428295215
 40
10.33215817995157
 40
10.39918630222361
 40
10.4246107623975
 40
10.64992019336911
 40
10.87188524531157
 40
10.87188524531157
 40
10.87188524531157
 40
10.87188524531157
 10
179.9057788376619
 20
15.73923260398192
 30
0.0
 10
179.9092864933542
 20
15.80616462073805
 30
0.0
 10
179.9163033987662
 20
15.94005891915861
 30
0.0
 10
179.8198027599074
 20
16.22548554971477
 30
0.0
 10
180.0510134726109
 20
16.16284386190283
 30
0.0
 10
180.1919290057157
 20
16.17001554055993
 30
0.0
 10
180.3490417757589
 20
16.16235883078246
 30
0.0
 10
180.5025913427288
 20
16.16252752283043
 30
0.0
 10
180.6545104935081
 20
16.16182040535433
 30
0.0
 10
180.8142214813232
 20
16.17210158351642
 30
0.0
 10
180.9408972601118
 20
16.1549651108075
 30
0.0
 10
181.1370821122081
 20
16.22727260107154
 30
0.0
 10
181.103439527908
 20
16.12640699080117
 30
0.0
 10
181.1052011317185
 20
16.07619253947669
 30
0.0
 10
181.1027342073459
 20
16.02712335586463
 30
0.0
 10
181.1347076966012
 20
15.94063490846992
 30
0.0
 10
181.0010399903256
 20
15.98997438608339
 30
0.0
 10
180.9172208688057
 20
15.98430634314172
 30
0.0
 10
180.8173861139325
 20
15.99465516706297
 30
0.0
 10
180.7186576720146
 20
16.00086450411083
 30
0.0
 10
180.612153277111
 20
16.00697763816775
 30
0.0
 10
180.491051169806
 20
16.01588883484586
 30
0.0
 10
180.3703381502454
 20
16.00521605912384
 30
0.0
 10
180.1812553843438
 20
16.06468503080365
 30
0.0
 10
180.2129028505311
 20
15.9055832007754
 30
0.0
 10
180.1995563316835
 20
15.80839128339903
 30
0.0
 10
180.1974958426449
 20
15.69634065110104
 30
0.0
 10
180.1958188044671
 20
15.57699685629352
 30
0.0
 10
180.1973336794233
 20
15.45032592155112
 30
0.0
 10
180.195658247867
 20
15.32301588016118
 30
0.0
 10
180.2058844271659
 20
15.22451566404465
 30
0.0
 10
180.1779006596583
 20
15.08388702625633
 30
0.0
 10
180.3508029999305
 20
15.13989551134096
 30
0.0
 10
180.4645020202772
 20
15.12719951478501
 30
0.0
 10
180.584015167224
 20
15.13448377051254
 30
0.0
 10
180.6888491425072
 20
15.13878017056762
 30
0.0
 10
180.7843084898612
 20
15.14330568258971
 30
0.0
 10
180.8763823507033
 20
15.151492011462
 30
0.0
 10
180.9476551782438
 20
15.14643850638109
 30
0.0
 10
181.0544931705685
 20
15.18536425031667
 30
0.0
 10
181.0226603598036
 20
15.10517122005876
 30
0.0
 10
181.026616450393
 20
15.05562936846031
 30
0.0
 10
181.0234502392012
 20
15.00557478039818
 30
0.0
 10
181.0550791490585
 20
14.92128847612025
 30
0.0
 10
180.9210133677691
 20
14.97425365495158
 30
0.0
 10
180.8292322793201
 20
14.96540080890434
 30
0.0
 10
180.7079729189603
 20
14.97570049965153
 30
0.0
 10
180.5914113119772
 20
14.97748911767498
 30
0.0
 10
180.4783375745879
 20
14.9778701710969
 30
0.0
 10
180.3679246308471
 20
14.98415449472177
 30
0.0
 10
180.2898124067841
 20
14.97189133255362
 30
0.0
 10
180.1913625833645
 20
15.00453887616119
 30
0.0
 10
180.2012355173561
 20
14.94769748054203
 30
0.0
 10
180.1973923244402
 20
14.91392130557983
 30
0.0
 10
180.1966789884268
 20
14.87119604709409
 30
0.0
 10
180.1963369642975
 20
14.83401607262151
 30
0.0
 10
180.1963834255346
 20
14.79487237370769
 30
0.0
 10
180.1963649429927
 20
14.75716849497682
 30
0.0
 10
180.1963703431807
 20
14.71944955232399
 30
0.0
 10
180.1963697214201
 20
14.68994324745145
 30
0.0
 10
180.1963698151545
 20
14.65873577699298
 30
0.0
 10
180.1963704287921
 20
14.61414424908083
 30
0.0
 10
180.1963671499337
 20
14.55963956508851
 30
0.0
 10
180.196375962348
 20
14.5150554020145
 30
0.0
 10
180.1963359653417
 20
14.43117808585741
 30
0.0
 10
180.1976024270256
 20
14.31737520677678
 30
0.0
 10
180.1950274117841
 20
14.16830395933707
 30
0.0
 10
180.206500938172
 20
14.06597203813907
 30
0.0
 10
180.1823506222264
 20
13.93338903885839
 30
0.0
 10
180.3332993946476
 20
13.97895732272025
 30
0.0
 10
180.4428436671556
 20
13.96427012162355
 30
0.0
 10
180.5733970473921
 20
13.96920435125065
 30
0.0
 10
180.6990312209513
 20
13.97257705323369
 30
0.0
 10
180.8188730625601
 20
13.97711497498769
 30
0.0
 10
180.9391362611427
 20
13.9904853618201
 30
0.0
 10
181.0222761663516
 20
13.98068712782592
 30
0.0
 10
181.1456080421075
 20
14.04126214623319
 30
0.0
 10
181.1244269203957
 20
13.98532460134022
 30
0.0
 10
181.1235950270116
 20
13.95939249372348
 30
0.0
 10
181.1218963707559
 20
13.93197256190942
 30
0.0
 10
181.1217974888829
 20
13.89738195206386
 30
0.0
 10
181.1203659301329
 20
13.86050408220768
 30
0.0
 10
181.1532804192192
 20
13.76846841021812
 30
0.0
 10
180.9551306988107
 20
13.84132015974828
 30
0.0
 10
180.830054829489
 20
13.81825726508605
 30
0.0
 10
180.6673071295157
 20
13.82454021985784
 30
0.0
 10
180.5129366450002
 20
13.82260943909925
 30
0.0
 10
180.3566670436944
 20
13.82393762599266
 30
0.0
 10
180.1970544465283
 20
13.82059872487862
 30
0.0
 10
180.0540326342237
 20
13.83265795728238
 30
0.0
 10
179.819714488163
 20
13.76952001976928
 30
0.0
 10
179.9173810751197
 20
14.0562052746632
 30
0.0
 10
179.900686878006
 20
14.24988308142662
 30
0.0
 10
179.9146296709685
 20
14.47848242880294
 30
0.0
 10
179.9142987846633
 20
14.63384593955046
 30
0.0
 10
179.9143078119264
 20
14.73966336444122
 30
0.0
 10
179.9143055876316
 20
14.80205784124211
 30
0.0
 10
179.914306555189
 20
14.89220425248324
 30
0.0
 10
179.9143065473262
 20
14.99621167157436
 30
0.0
 10
179.9143053861104
 20
15.10022131375294
 30
0.0
 10
179.9143090971502
 20
15.19036243688767
 30
0.0
 10
179.9143011051052
 20
15.25276803097215
 30
0.0
 10
179.9143334275019
 20
15.3586883596112
 30
0.0
 10
179.9131440788321
 20
15.51626716544741
 30
0.0
 10
179.9082216489257
 20
15.66528219822067
 30
0.0
 10
179.9057788376619
 20
15.73923260398192
 30
0.0
 11
179.9057788376619
 21
15.73923260398192
 31
0.0
 11
179.8966918223741
 21
15.95938578101018
 31
0.0
 11
179.8868249573134
 21
16.17960510387184
 31
0.0
 11
180.0411575141401
 21
16.1731239146373
 31
0.0
 11
180.1946500189047
 21
16.16754892331926
 31
0.0
 11
180.3481160653366
 21
16.16367167505632
 31
0.0
 11
180.502554455494
 21
16.16238072887609
 31
0.0
 11
180.6564835227474
 21
16.16367167505632
 31
0.0
 11
180.80873910046
 21
16.16754892331926
 31
0.0
 11
180.9609113551074
 21
16.1731239146373
 31
0.0
 11
181.1148364762484
 21
16.17960510387184
 31
0.0
 11
181.1070811703125
 21
16.12794961777358
 31
0.0
 11
181.1044991623592
 21
16.07642642334201
 31
0.0
 11
181.1070811703125
 21
16.02475660564657
 31
0.0
 11
181.1148364762484
 21
15.97315954836779
 31
0.0
 11
181.0094874054411
 21
15.98001446156059
 31
0.0
 11
180.9136375700061
 21
15.9869355205866
 31
0.0
 11
180.8198593171904
 21
15.99378381919598
 31
0.0
 11
180.7209679915882
 21
16.00063211780537
 31
0.0
 11
180.6147532199925
 21
16.00710999974822
 31
0.0
 11
180.4991060528038
 21
16.01268829835794
 31
0.0
 11
180.3666126447258
 21
16.01656554662088
 31
0.0
 11
180.2101546018424
 21
16.01785649280112
 31
0.0
 11
180.2062663293722
 21
15.91037061609186
 31
0.0
 11
180.2015380048401
 21
15.80805072896465
 31
0.0
 11
180.1976607566749
 21
15.70138175329686
 31
0.0
 11
180.1963698105272
 21
15.58102059013254
 31
0.0
 11
180.1967799146836
 21
15.44856355891566
 31
0.0
 11
180.1980896021502
 21
15.31953288186458
 31
0.0
 11
180.199407457705
 21
15.20777398432307
 31
0.0
 11
180.1998191153661
 21
15.12695149302385
 31
0.0
 11
180.3434452935875
 21
15.12780256941252
 31
0.0
 11
180.4716343930758
 21
15.13039989580079
 31
0.0
 11
180.5868078221795
 21
15.13425509545255
 31
0.0
 11
180.691775631222
 21
15.13901649302079
 31
0.0
 11
180.7876346289422
 21
15.14418027774173
 31
0.0
 11
180.8757413374193
 21
15.14934406246266
 31
0.0
 11
180.9578881438497
 21
15.15491243919738
 31
0.0
 11
181.0357692335571
 21
15.1613208680152
 31
0.0
 11
181.0280180445186
 21
15.10884407115334
 31
0.0
 11
181.0254328449317
 21
15.05469378470855
 31
0.0
 11
181.0280180445186
 21
15.00310444444365
 31
0.0
 11
181.0357692335571
 21
14.95151510417884
 31
0.0
 11
180.9389813454014
 21
14.96092324653756
 31
0.0
 11
180.8275950722015
 21
14.96865128473007
 31
0.0
 11
180.7089261429373
 21
14.97425273438142
 31
0.0
 11
180.5903167449214
 21
14.97726788195007
 31
0.0
 11
180.4750025117521
 21
14.97898767361634
 31
0.0
 11
180.36672619507
 21
14.98070746528254
 31
0.0
 11
180.2724839317708
 21
14.98202486979613
 31
0.0
 11
180.1998191153661
 21
14.98243607639324
 31
0.0
 11
180.199407457705
 21
14.9501910850819
 31
0.0
 11
180.1980896021502
 21
14.91542593752115
 31
0.0
 11
180.1967799146836
 21
14.87450702260084
 31
0.0
 11
180.1963698105272
 21
14.8242152430995
 31
0.0
 11
180.1963698105272
 21
14.8032621723582
 31
0.0
 11
180.1963698105272
 21
14.75716541672733
 31
0.0
 11
180.1963698105272
 21
14.71106866109646
 31
0.0
 11
180.1963698105272
 21
14.69011559035516
 31
0.0
 11
180.1963698105272
 21
14.66864525258277
 31
0.0
 11
180.1963698105272
 21
14.61744675481782
 31
0.0
 11
180.1963698105272
 21
14.55633887038868
 31
0.0
 11
180.1963698105272
 21
14.50514037262374
 31
0.0
 11
180.1963698105272
 21
14.48367003485134
 31
0.0
 11
180.1967799146836
 21
14.30481721371544
 31
0.0
 11
180.1980896021502
 21
14.16026100715442
 31
0.0
 11
180.2002868589709
 21
14.04850210961287
 31
0.0
 11
180.2032586986986
 21
13.9676796183137
 31
0.0
 11
180.3202092517448
 21
13.9676796183137
 31
0.0
 11
180.4440727208746
 21
13.9676796183137
 31
0.0
 11
180.5734925526423
 21
13.96897056449393
 31
0.0
 11
180.7003922282244
 21
13.97284781275687
 31
0.0
 11
180.8224658067973
 21
13.97886708358865
 31
0.0
 11
180.9377587499463
 21
13.98663260442004
 31
0.0
 11
181.0421754573519
 21
13.997341614834
 31
0.0
 11
181.1320599255449
 21
14.01237656274691
 31
0.0
 11
181.1264254031191
 21
13.98698427976715
 31
0.0
 11
181.1234433285423
 21
13.95907184053806
 31
0.0
 11
181.12213398812
 21
13.93112191867005
 31
0.0
 11
181.1217235369195
 21
13.90575829888473
 31
0.0
 11
181.1243087365064
 21
13.85584355063325
 31
0.0
 11
181.1320599255449
 21
13.81626739612932
 31
0.0
 11
180.9776977178344
 21
13.82145433189184
 31
0.0
 11
180.8242357818765
 21
13.82315538223861
 31
0.0
 11
180.6697789496483
 21
13.82315538223861
 31
0.0
 11
180.5128026496769
 21
13.82315538223861
 31
0.0
 11
180.3554704921537
 21
13.82315538223861
 31
0.0
 11
180.1998191153661
 21
13.82315538223861
 31
0.0
 11
180.0441620874242
 21
13.82145433189184
 31
0.0
 11
179.8868249573134
 21
13.81626739612932
 31
0.0
 11
179.8966918223741
 21
14.03601267385211
 31
0.0
 11
179.9057788376619
 21
14.25491128490853
 31
0.0
 11
179.9121721518401
 21
14.47550763902003
 31
0.0
 11
179.914306345501
 21
14.70036378479711
 31
0.0
 11
179.914306345501
 21
14.7257882449687
 31
0.0
 11
179.914306345501
 21
14.79281636723928
 31
0.0
 11
179.914306345501
 21
14.88758026424251
 31
0.0
 11
179.914306345501
 21
14.99621204861205
 31
0.0
 11
179.914306345501
 21
15.1048438329816
 31
0.0
 11
179.914306345501
 21
15.19960772998483
 31
0.0
 11
179.914306345501
 21
15.2666358522554
 31
0.0
 11
179.914306345501
 21
15.292060312427
 31
0.0
 11
179.9121721518401
 21
15.51735963528736
 31
0.0
 11
179.9057788376619
 21
15.73923260398192
 31
0.0
  0
SPLINE
  5
A5
102
{ACAD_REACTORS
330
C2
102
}
330
48
100
AcDbEntity
  8
_U_30EC_U_30A4_U_30E4_U_30FC_1
  6
Continuous
 62
     2
100
AcDbSpline
210
0.0
220
0.0
230
1.0
 70
    11
 71
     3
 72
    47
 73
    43
 74
    41
 42
0.000000001
 43
0.0000000001
 44
0.00000001
 40
0.0
 40
0.0
 40
0.0
 40
0.0
 40
0.2207912809956982
 40
0.4459404186303237
 40
0.4902387190459504
 40
0.5327473892722457
 40
0.5742260451226062
 40
0.6155432630561922
 40
0.6568164066316554
 40
0.6982511618780912
 40
0.7407663929317421
 40
0.7851366743175533
 40
1.010288833836395
 40
1.231080507002222
 40
1.451765243652436
 40
1.676638205891776
 40
1.720461045359747
 40
1.830018144043605
 40
1.972442372353232
 40
2.114866600677598
 40
2.224423699395216
 40
2.268246538883457
 40
2.493628801207301
 40
2.715602830286666
 40
2.93421133070646
 40
3.149502369855393
 40
3.231387784850921
 40
3.318231873853985
 40
3.405143198198001
 40
3.486970301720491
 40
3.702258172493875
 40
3.920866283534144
 40
4.142839325931903
 40
4.368221903865377
 40
4.412044743359857
 40
4.521601842095867
 40
4.664026070452342
 40
4.806450298809049
 40
4.916007397546736
 40
4.959830237043057
 40
5.184703515847144
 40
5.405387250767507
 40
5.405387250767507
 40
5.405387250767507
 40
5.405387250767507
 10
182.6507427258645
 20
15.73406440953875
 30
0.0
 10
182.6568139420003
 20
15.79758482501212
 30
0.0
 10
182.6690762107243
 20
15.92587938689628
 30
0.0
 10
182.5604706879411
 20
16.20166220174087
 30
0.0
 10
182.6761985896604
 20
16.17188133432054
 30
0.0
 10
182.7171842509015
 20
16.16765556262822
 30
0.0
 10
182.7591205797518
 20
16.16310446389608
 30
0.0
 10
182.8004196625711
 20
16.16201982929487
 30
0.0
 10
182.8417032115556
 20
16.16310338195228
 30
0.0
 10
182.8836148270647
 20
16.16766112711345
 30
0.0
 10
182.9245983549019
 20
16.17187430209729
 30
0.0
 10
183.0404922843488
 20
16.20177611317546
 30
0.0
 10
182.9295652727457
 20
15.92339806609889
 30
0.0
 10
182.9574856365267
 20
15.74283140824956
 30
0.0
 10
182.940426734697
 20
15.50961042346473
 30
0.0
 10
182.9414637282102
 20
15.34906622543147
 30
0.0
 10
182.9414099399405
 20
15.22284817558721
 30
0.0
 10
182.941427737248
 20
15.1242896333624
 30
0.0
 10
182.941418858108
 20
14.99280702442963
 30
0.0
 10
182.9414263928033
 20
14.8613284496865
 30
0.0
 10
182.9414129405129
 20
14.76276222694091
 30
0.0
 10
182.9414531717491
 20
14.63639735624152
 30
0.0
 10
182.9406746403818
 20
14.47482068822871
 30
0.0
 10
182.9565958319266
 20
14.24361821892915
 30
0.0
 10
182.9333468885408
 20
14.05874351972004
 30
0.0
 10
183.0360183444365
 20
13.78935602770069
 30
0.0
 10
182.8820238362837
 20
13.82660112685814
 30
0.0
 10
182.8004129802833
 20
13.82137994680534
 30
0.0
 10
182.7188192292583
 20
13.82660620378348
 30
0.0
 10
182.5648513666842
 20
13.78937069885396
 30
0.0
 10
182.6674183421918
 20
14.0587512986288
 30
0.0
 10
182.6442045316088
 20
14.24361585325416
 30
0.0
 10
182.6600444655139
 20
14.47482218565639
 30
0.0
 10
182.6593296313428
 20
14.63639712308503
 30
0.0
 10
182.6593664569907
 20
14.76276231210521
 30
0.0
 10
182.6593549000271
 20
14.86132756635982
 30
0.0
 10
182.6593575019215
 20
14.9928112741722
 30
0.0
 10
182.6593648531779
 20
15.12427548031199
 30
0.0
 10
182.6593442541352
 20
15.22287786275325
 30
0.0
 10
182.6594082192029
 20
15.34896149354428
 30
0.0
 10
182.6581733947591
 20
15.51210091383773
 30
0.0
 10
182.6532040396745
 20
15.66054183777553
 30
0.0
 10
182.6507427258645
 20
15.73406440953875
 30
0.0
 11
182.6507427258645
 21
15.73406440953875
 31
0.0
 11
182.6417328200379
 21
15.95467178795578
 31
0.0
 11
182.6318769706146
 21
16.17960510387184
 31
0.0
 11
182.6756985840801
 21
16.1731239146373
 31
0.0
 11
182.7178400934215
 21
16.16754892331926
 31
0.0
 11
182.7591371409791
 21
16.16367167505632
 31
0.0
 11
182.8004341885366
 21
16.16238072887609
 31
0.0
 11
182.8416871388731
 21
16.16367167505632
 31
0.0
 11
182.8829400892097
 21
16.16754892331926
 31
0.0
 11
182.9250882131343
 21
16.1731239146373
 31
0.0
 11
182.9689825870145
 21
16.17960510387184
 31
0.0
 11
182.9590577693891
 21
15.95467178795578
 31
0.0
 11
182.950038420831
 21
15.73406440953875
 31
0.0
 11
182.9435638463435
 21
15.51347467001058
 31
0.0
 11
182.9414218238286
 21
15.28861190965006
 31
0.0
 11
182.9414218238286
 21
15.24478907015484
 31
0.0
 11
182.9414218238286
 21
15.13523197141681
 31
0.0
 11
182.9414218238286
 21
14.99280774305737
 31
0.0
 11
182.9414218238286
 21
14.85038351469792
 31
0.0
 11
182.9414218238286
 21
14.74082641595989
 31
0.0
 11
182.9414218238286
 21
14.69700357646468
 31
0.0
 11
182.9435638463435
 21
14.47163149318766
 31
0.0
 11
182.950038420831
 21
14.24975190990983
 31
0.0
 11
182.9590577693892
 21
14.03132954885328
 31
0.0
 11
182.9689825870145
 21
13.81626739612932
 31
0.0
 11
182.8872616168771
 21
13.82145433189184
 31
0.0
 11
182.8004341885366
 21
13.82315538223861
 31
0.0
 11
182.713539511934
 21
13.82145433189184
 31
0.0
 11
182.6318769706146
 21
13.81626739612932
 31
0.0
 11
182.6417328200379
 21
14.03132954885328
 31
0.0
 11
182.6507427258645
 21
14.24975190990983
 31
0.0
 11
182.6571833838798
 21
14.47163149318766
 31
0.0
 11
182.6593583588024
 21
14.69700357646468
 31
0.0
 11
182.6593583588024
 21
14.74082641595989
 31
0.0
 11
182.6593583588024
 21
14.85038351469793
 31
0.0
 11
182.6593583588024
 21
14.99280774305737
 31
0.0
 11
182.6593583588024
 21
15.13523197141681
 31
0.0
 11
182.6593583588024
 21
15.24478907015485
 31
0.0
 11
182.6593583588024
 21
15.28861190965006
 31
0.0
 11
182.6571833838798
 21
15.51347467001058
 31
0.0
 11
182.6507427258645
 21
15.73406440953875
 31
0.0
  0
SPLINE
  5
A6
102
{ACAD_REACTORS
330
C3
102
}
330
48
100
AcDbEntity
  8
_U_30EC_U_30A4_U_30E4_U_30FC_1
  6
Continuous
 62
     2
100
AcDbSpline
210
0.0
220
0.0
230
1.0
 70
    11
 71
     3
 72
   118
 73
   114
 74
   112
 42
0.000000001
 43
0.0000000001
 44
0.00000001
 40
0.0
 40
0.0
 40
0.0
 40
0.0
 40
0.1054708162973092
 40
0.2466098270051496
 40
0.3965912874590742
 40
0.5285525069753572
 40
0.6156245055641841
 40
0.6431434105797054
 40
0.7036850037985486
 40
0.7642265984503627
 40
0.791745505235383
 40
0.9287404319988657
 40
1.106572819087883
 40
1.287544879680835
 40
1.317578308030352
 40
1.399928030856987
 40
1.522968204799759
 40
1.675072986590377
 40
1.844616533180449
 40
2.019973001638511
 40
2.189516548879817
 40
2.341621331585154
 40
2.464661506320286
 40
2.547011229646848
 40
2.577044658167812
 40
2.603797890892883
 40
2.662655002908627
 40
2.721512114949495
 40
2.748265347702675
 40
2.77421530734475
 40
2.845959313407078
 40
2.954338556588274
 40
3.090194227585447
 40
3.244367517100405
 40
3.407699615844157
 40
3.571031714539298
 40
3.72520500391997
 40
3.861060674729465
 40
3.969439917716153
 40
4.041183923628825
 40
4.067133883212817
 40
4.31188674601202
 40
4.54789725833537
 40
4.764747083043829
 40
4.952749679951618
 40
5.04577297419575
 40
5.13786201964478
 40
5.330543169792793
 40
5.553448265243776
 40
5.795083855887967
 40
6.043293412177071
 40
6.285761695541046
 40
6.313902908752558
 40
6.384255941793148
 40
6.475714884766736
 40
6.567173827758827
 40
6.637526860839634
 40
6.665668074073997
 40
6.692018920327955
 40
6.749990782070991
 40
6.807962643790322
 40
6.834313490017783
 40
6.856393084245061
 40
6.913335195649685
 40
6.991194817302349
 40
7.07602694228361
 40
7.1538865637251
 40
7.210828674844683
 40
7.232908268931018
 40
7.258199334923543
 40
7.324875781592199
 40
7.419142481924869
 40
7.527204308841824
 40
7.635266135230417
 40
7.729532834168417
 40
7.796209279292746
 40
7.821500344594696
 40
7.844652988850767
 40
7.899863140541547
 40
7.965759128053715
 40
8.020969279771
 40
8.044121924046467
 40
8.069356610160497
 40
8.109134395441224
 40
8.132238100190936
 40
8.193147867786305
 40
8.279261678876484
 40
8.377977512673702
 40
8.47669334714649
 40
8.56280716041155
 40
8.623716930826337
 40
8.646820636853292
 40
8.671988793774105
 40
8.734909185827988
 40
8.816705695188702
 40
8.898502204815273
 40
8.961422597377734
 40
8.986590754550846
 40
9.012941600732987
 40
9.070913462380036
 40
9.128885324081496
 40
9.155236170324802
 40
9.180404327928844
 40
9.243324721947918
 40
9.325121234211682
 40
9.406917746637337
 40
9.469838141977792
 40
9.495006288270567
 40
9.517811184378713
 40
9.57219209048673
 40
9.637098333280976
 40
9.691479239515193
 40
9.714284125643237
 40
9.714284125643237
 40
9.714284125643237
 40
9.714284125643237
 10
185.2874469028654
 20
15.26889163187718
 30
0.0
 10
185.3090990569039
 20
15.2411186924281
 30
0.0
 10
185.3597257109473
 20
15.17618054561232
 30
0.0
 10
185.4349383202593
 20
15.06891060312897
 30
0.0
 10
185.5248482274345
 20
14.9537743826662
 30
0.0
 10
185.5709169676674
 20
14.85357045748315
 30
0.0
 10
185.6655825294654
 20
14.78434006814937
 30
0.0
 10
185.6204439320413
 20
14.73771639678271
 30
0.0
 10
185.594704778579
 20
14.69660308866038
 30
0.0
 10
185.5645196708012
 20
14.66065971727942
 30
0.0
 10
185.5193684730561
 20
14.58579782596098
 30
0.0
 10
185.4710504458561
 20
14.80782524253605
 30
0.0
 10
185.3968539713075
 20
14.84510677337713
 30
0.0
 10
185.2836047324607
 20
15.11610202130599
 30
0.0
 10
185.2885133578171
 20
15.00095328446229
 30
0.0
 10
185.2868486556307
 20
14.92836675781628
 30
0.0
 10
185.2876830076715
 20
14.80625588483987
 30
0.0
 10
185.2873609540265
 20
14.65913800810461
 30
0.0
 10
185.2875076912457
 20
14.49307063956558
 30
0.0
 10
185.2872950092724
 20
14.32187554608604
 30
0.0
 10
185.2879497252034
 20
14.155528286355
 30
0.0
 10
185.285919246114
 20
14.00935173055696
 30
0.0
 10
185.2913460399931
 20
13.88471047474613
 30
0.0
 10
185.280493086871
 20
13.81718656540629
 30
0.0
 10
185.2956739155555
 20
13.75549061417025
 30
0.0
 10
185.2457895108135
 20
13.76727503897005
 30
0.0
 10
185.2017150342522
 20
13.75943822779972
 30
0.0
 10
185.1582371630201
 20
13.76760441372707
 30
0.0
 10
185.1092346786488
 20
13.75538056738471
 30
0.0
 10
185.1218731234825
 20
13.80960667249316
 30
0.0
 10
185.113018296845
 20
13.86936918907561
 30
0.0
 10
185.1175058770314
 20
13.97922029044372
 30
0.0
 10
185.1157960135991
 20
14.11029975405681
 30
0.0
 10
185.1163550915986
 20
14.26198011444329
 30
0.0
 10
185.1161928768694
 20
14.42211074929954
 30
0.0
 10
185.1162269924674
 20
14.58236865674566
 30
0.0
 10
185.1162514960126
 20
14.73370247520439
 30
0.0
 10
185.1161453543225
 20
14.865821563386
 30
0.0
 10
185.1164299141931
 20
14.97294802533191
 30
0.0
 10
185.1158675547568
 20
15.03808619579472
 30
0.0
 10
185.1180765083689
 20
15.16618957858673
 30
0.0
 10
185.0319435998602
 20
14.79097610391574
 30
0.0
 10
184.9555140818501
 20
14.63918193123389
 30
0.0
 10
184.8660040767833
 20
14.47766206446304
 30
0.0
 10
184.7640413217326
 20
14.2047184882017
 30
0.0
 10
184.7187976491038
 20
14.36717346596506
 30
0.0
 10
184.6102355941672
 20
14.45605432058122
 30
0.0
 10
184.7995791751753
 20
14.60549794961407
 30
0.0
 10
184.85653405457
 20
14.79749136974925
 30
0.0
 10
184.9717520993353
 20
15.02899622906756
 30
0.0
 10
184.9940151630133
 20
15.21797259759062
 30
0.0
 10
185.1771905152142
 20
15.49454089325937
 30
0.0
 10
185.0538033597552
 20
15.48698978832098
 30
0.0
 10
184.9925684166835
 20
15.48856772366123
 30
0.0
 10
184.9081999617064
 20
15.48882592573678
 30
0.0
 10
184.8204235085966
 20
15.4854484575121
 30
0.0
 10
184.7656768696122
 20
15.49394814982025
 30
0.0
 10
184.7104703026025
 20
15.48048561049793
 30
0.0
 10
184.7222823035536
 20
15.52931442126766
 30
0.0
 10
184.7142496151793
 20
15.57269004896708
 30
0.0
 10
184.7228186104679
 20
15.61509438309571
 30
0.0
 10
184.7102943409156
 20
15.66267796552113
 30
0.0
 10
184.7555101538736
 20
15.65267212995104
 30
0.0
 10
184.8014815562723
 20
15.65894105174056
 30
0.0
 10
184.877722204771
 20
15.65593561405867
 30
0.0
 10
184.9561296131993
 20
15.65770448278536
 30
0.0
 10
185.0323992648932
 20
15.65464793981655
 30
0.0
 10
185.0783009459474
 20
15.66103971376172
 30
0.0
 10
185.12317339654
 20
15.65093822978891
 30
0.0
 10
185.1105552275633
 20
15.70157201581894
 30
0.0
 10
185.1191936582707
 20
15.75501261882066
 30
0.0
 10
185.1152361595442
 20
15.84863255131678
 30
0.0
 10
185.1162325068335
 20
15.95112606688923
 30
0.0
 10
185.1171927413073
 20
16.05353270248163
 30
0.0
 10
185.1133211458005
 20
16.14735929609322
 30
0.0
 10
185.1217789814365
 20
16.20036542840355
 30
0.0
 10
185.1093075932835
 20
16.25211435651191
 30
0.0
 10
185.154210638985
 20
16.23850747226759
 30
0.0
 10
185.1955083836772
 20
16.24100480320586
 30
0.0
 10
185.2595344281051
 20
16.23648060574487
 30
0.0
 10
185.2986111148785
 20
16.22781003043307
 30
0.0
 10
185.3476543498742
 20
16.23515102070684
 30
0.0
 10
185.3225080030591
 20
16.19602896051761
 30
0.0
 10
185.2815901333725
 20
16.20563842455804
 30
0.0
 10
185.2910109616604
 20
16.15540148169776
 30
0.0
 10
185.2855647318747
 20
16.10385945639487
 30
0.0
 10
185.2881699601804
 20
16.01959707584517
 30
0.0
 10
185.2870102202154
 20
15.92559135583404
 30
0.0
 10
185.2883591064233
 20
15.83196865395522
 30
0.0
 10
185.2849970101509
 20
15.74679517552219
 30
0.0
 10
185.292095991777
 20
15.69716856072039
 30
0.0
 10
185.2812569154546
 20
15.64993694969984
 30
0.0
 10
185.3304010225246
 20
15.66201674936846
 30
0.0
 10
185.3794877630148
 20
15.65447393363006
 30
0.0
 10
185.4573714280642
 20
15.65686070361428
 30
0.0
 10
185.5350365172897
 20
15.65899381905409
 30
0.0
 10
185.5845393931356
 20
15.6519339192245
 30
0.0
 10
185.6344594750639
 20
15.66360151936209
 30
0.0
 10
185.6223198516882
 20
15.6154023537139
 30
0.0
 10
185.6305838229143
 20
15.57249219801235
 30
0.0
 10
185.6223198650785
 20
15.52958201851386
 30
0.0
 10
185.6344594549855
 20
15.4813828875487
 30
0.0
 10
185.5845395158747
 20
15.49305034471515
 30
0.0
 10
185.5350350651204
 20
15.48599202435051
 30
0.0
 10
185.4573784382973
 20
15.48811665228608
 30
0.0
 10
185.3794643865762
 20
15.49053389365765
 30
0.0
 10
185.3304500352717
 20
15.48291848194491
 30
0.0
 10
185.2813246108944
 20
15.49507952557597
 30
0.0
 10
185.2915559988573
 20
15.45073013424162
 30
0.0
 10
185.2856677678054
 20
15.40925436202914
 30
0.0
 10
185.2878788305569
 20
15.34915394315304
 30
0.0
 10
185.2874109346147
 20
15.30225782762888
 30
0.0
 10
185.2874386992914
 20
15.27650146418195
 30
0.0
 10
185.2874469028654
 20
15.26889163187718
 30
0.0
 11
185.2874469028654
 21
15.26889163187718
 31
0.0
 11
185.3516977534485
 21
15.18524999634255
 31
0.0
 11
185.4348258835499
 21
15.07118889748218
 31
0.0
 11
185.5216831568896
 21
14.9489176719572
 31
0.0
 11
185.5971214371872
 21
14.84064565642872
 31
0.0
 11
185.6459925881626
 21
14.76858218755785
 31
0.0
 11
185.6296821285093
 21
14.74641782124396
 31
0.0
 11
185.5937991172719
 21
14.69765621535339
 31
0.0
 11
185.5579161060346
 21
14.64889460946283
 31
0.0
 11
185.5416056463813
 21
14.62673024314893
 31
0.0
 11
185.4763067109446
 21
14.74716139023816
 31
0.0
 11
185.3848434243235
 21
14.89966983670209
 31
0.0
 11
185.2874469028654
 21
15.05219788193142
 31
0.0
 11
185.2874469028654
 21
15.02216445328253
 31
0.0
 11
185.2874469028654
 21
14.93981472956783
 31
0.0
 11
185.2874469028654
 21
14.81677455413528
 31
0.0
 11
185.2874469028654
 21
14.66466977033284
 31
0.0
 11
185.2874469028654
 21
14.49512622150847
 31
0.0
 11
185.2874469028654
 21
14.31976975101011
 31
0.0
 11
185.2874469028654
 21
14.15022620218573
 31
0.0
 11
185.2874469028654
 21
13.99812141838328
 31
0.0
 11
185.2874469028654
 21
13.87508124295074
 31
0.0
 11
185.2874469028654
 21
13.79273151923604
 31
0.0
 11
185.2874469028654
 21
13.76269809058715
 31
0.0
 11
185.260693670041
 21
13.76269809058715
 31
0.0
 11
185.2018365578272
 21
13.76269809058715
 31
0.0
 11
185.1429794456134
 21
13.76269809058715
 31
0.0
 11
185.116226212789
 21
13.76269809058715
 31
0.0
 11
185.116226212789
 21
13.78864805031253
 31
0.0
 11
185.116226212789
 21
13.8603920566121
 31
0.0
 11
185.116226212789
 21
13.96877130017104
 31
0.0
 11
185.116226212789
 21
14.10462697167449
 31
0.0
 11
185.116226212789
 21
14.25880026180762
 31
0.0
 11
185.116226212789
 21
14.42213236125559
 31
0.0
 11
185.116226212789
 21
14.58546446070356
 31
0.0
 11
185.116226212789
 21
14.73963775083669
 31
0.0
 11
185.116226212789
 21
14.87549342234014
 31
0.0
 11
185.116226212789
 21
14.98387266589907
 31
0.0
 11
185.116226212789
 21
15.05561667219865
 31
0.0
 11
185.116226212789
 21
15.08156663192403
 31
0.0
 11
185.0379865861721
 21
14.84965603302368
 31
0.0
 11
184.9497110789304
 21
14.63077616328674
 31
0.0
 11
184.8544106930045
 21
14.43598991333543
 31
0.0
 11
184.7550964303356
 21
14.276360173792
 31
0.0
 11
184.7109198342406
 21
14.35822446196598
 31
0.0
 11
184.6588057383481
 21
14.43414885430809
 31
0.0
 11
184.7627302590299
 21
14.59640087926754
 31
0.0
 11
184.8629319864735
 21
14.79551465421778
 31
0.0
 11
184.9550446607902
 21
15.01890447916195
 31
0.0
 11
185.0347020220913
 21
15.25398465410321
 31
0.0
 11
185.0975378104881
 21
15.4881694790447
 31
0.0
 11
185.0693965972143
 21
15.4881694790447
 31
0.0
 11
184.9990435640298
 21
15.4881694790447
 31
0.0
 11
184.9075846208899
 21
15.4881694790447
 31
0.0
 11
184.81612567775
 21
15.4881694790447
 31
0.0
 11
184.7457726445654
 21
15.4881694790447
 31
0.0
 11
184.7176314312916
 21
15.4881694790447
 31
0.0
 11
184.7176314312916
 21
15.51452032539226
 31
0.0
 11
184.7176314312916
 21
15.57249218735689
 31
0.0
 11
184.7176314312916
 21
15.63046404932151
 31
0.0
 11
184.7176314312916
 21
15.65681489566907
 31
0.0
 11
184.739711025602
 21
15.65681489566907
 31
0.0
 11
184.7966531372444
 21
15.65681489566907
 31
0.0
 11
184.8745127592862
 21
15.65681489566907
 31
0.0
 11
184.9593448847944
 21
15.65681489566907
 31
0.0
 11
185.0372045068361
 21
15.65681489566907
 31
0.0
 11
185.0941466184786
 21
15.65681489566907
 31
0.0
 11
185.116226212789
 21
15.65681489566907
 31
0.0
 11
185.116226212789
 21
15.68210596174348
 31
0.0
 11
185.116226212789
 21
15.74878240866693
 31
0.0
 11
185.116226212789
 21
15.84304910948974
 31
0.0
 11
185.116226212789
 21
15.95111093726223
 31
0.0
 11
185.116226212789
 21
16.05917276503472
 31
0.0
 11
185.116226212789
 21
16.15343946585753
 31
0.0
 11
185.116226212789
 21
16.22011591278098
 31
0.0
 11
185.116226212789
 21
16.24540697885539
 31
0.0
 11
185.1393181988665
 21
16.24373213107802
 31
0.0
 11
185.1943837041284
 21
16.23973826330122
 31
0.0
 11
185.2601070491184
 21
16.23497138885795
 31
0.0
 11
185.3151725543802
 21
16.23097752108115
 31
0.0
 11
185.3382645404578
 21
16.22930267330378
 31
0.0
 11
185.3249012644362
 21
16.20789677921192
 31
0.0
 11
185.2874469028654
 21
16.19450114553467
 31
0.0
 11
185.2874469028654
 21
16.17139743948576
 31
0.0
 11
185.2874469028654
 21
16.11048766899317
 31
0.0
 11
185.2874469028654
 21
16.02437385553813
 31
0.0
 11
185.2874469028654
 21
15.92565802060187
 31
0.0
 11
185.2874469028654
 21
15.82694218566561
 31
0.0
 11
185.2874469028654
 21
15.74082837221057
 31
0.0
 11
185.2874469028654
 21
15.67991860171798
 31
0.0
 11
185.2874469028654
 21
15.65681489566907
 31
0.0
 11
185.312615060481
 21
15.65681489566907
 31
0.0
 11
185.37553545452
 21
15.65681489566907
 31
0.0
 11
185.4573319667707
 21
15.65681489566907
 31
0.0
 11
185.5391284790213
 21
15.65681489566907
 31
0.0
 11
185.6020488730603
 21
15.65681489566907
 31
0.0
 11
185.6272170306759
 21
15.65681489566907
 31
0.0
 11
185.6272170306759
 21
15.63046404932151
 31
0.0
 11
185.6272170306759
 21
15.57249218735689
 31
0.0
 11
185.6272170306759
 21
15.51452032539226
 31
0.0
 11
185.6272170306759
 21
15.4881694790447
 31
0.0
 11
185.6020488730603
 21
15.4881694790447
 31
0.0
 11
185.5391284790213
 21
15.4881694790447
 31
0.0
 11
185.4573319667707
 21
15.4881694790447
 31
0.0
 11
185.37553545452
 21
15.4881694790447
 31
0.0
 11
185.312615060481
 21
15.4881694790447
 31
0.0
 11
185.2874469028654
 21
15.4881694790447
 31
0.0
 11
185.2874469028654
 21
15.46536458293928
 31
0.0
 11
185.2874469028654
 21
15.41098367684173
 31
0.0
 11
185.2874469028654
 21
15.34607743408015
 31
0.0
 11
185.2874469028654
 21
15.2916965279826
 31
0.0
 11
185.2874469028654
 21
15.26889163187718
 31
0.0
  0
SPLINE
  5
A7
102
{ACAD_REACTORS
330
C4
102
}
330
48
100
AcDbEntity
  8
_U_30EC_U_30A4_U_30E4_U_30FC_1
  6
Continuous
 62
     2
100
AcDbSpline
210
0.0
220
0.0
230
1.0
 70
    11
 71
     3
 72
    91
 73
    87
 74
    85
 42
0.000000001
 43
0.0000000001
 44
0.00000001
 40
0.0
 40
0.0
 40
0.0
 40
0.0
 40
0.0345987051695718
 40
0.1258134969461085
 40
0.2547723404888703
 40
0.4026032099153556
 40
0.550434079341642
 40
0.6793929228835227
 40
0.7706077146570467
 40
0.8052064287780072
 40
1.124852390615195
 40
1.427402236308796
 40
1.706356627453438
 40
1.955541417875124
 40
2.169485938566271
 40
2.34435078666474
 40
2.480568411561911
 40
2.590440557428933
 40
2.649189927151034
 40
2.749320643306216
 40
2.91263273987989
 40
3.147745656000071
 40
3.244827496384854
 40
3.338490056946454
 40
3.583815413206855
 40
3.761423943238208
 40
3.886956104362356
 40
3.985855451886562
 40
4.091766255337448
 40
4.250186473811641
 40
4.422734315084289
 40
4.628285684838372
 40
4.872093227758198
 40
5.152549652145324
 40
5.464967135837316
 40
5.803201477852248
 40
6.160362988813737
 40
6.193449448275792
 40
6.284170385501446
 40
6.419718138764288
 40
6.587285046385538
 40
6.774063446723452
 40
6.967245678113406
 40
7.154024078817421
 40
7.321590987025778
 40
7.457138740890108
 40
7.547859678555844
 40
7.580946138182404
 40
7.608533084714449
 40
7.669224367077411
 40
7.729915649429615
 40
7.757502595949659
 40
7.790278062553141
 40
7.880146277430611
 40
8.014419963180046
 40
8.180411842397547
 40
8.365434637679016
 40
8.556801071622289
 40
8.741823866830373
 40
8.90781574591594
 40
9.042089431507037
 40
9.131957646249163
 40
9.164733112796739
 40
9.41542506313965
 40
9.667986180958167
 40
9.694169807462334
 40
9.756607686047294
 40
9.831130315322186
 40
9.893568193899624
 40
9.919751820398469
 40
9.950967964690307
 40
9.996421631210413
 40
10.22087981037432
 40
10.44341866197519
 40
10.47847970788831
 40
10.57091337438732
 40
10.70159545461206
 40
10.85140174170337
 40
11.00120802880454
 40
11.13189010907359
 40
11.22432377582987
 40
11.25938480938933
 40
11.28697175596121
 40
11.34766303835894
 40
11.40835432042043
 40
11.43594125892077
 40
11.43594125892077
 40
11.43594125892077
 40
11.43594125892077
 10
190.0818114333289
 20
15.55242795125082
 30
0.0
 10
190.070278584494
 20
15.5524279028792
 30
0.0
 10
190.0283409444999
 20
15.5524277370417
 30
0.0
 10
189.9434129719025
 20
15.55243125800914
 30
0.0
 10
189.8207688553129
 20
15.55240926435884
 30
0.0
 10
189.6791206916993
 20
15.55250801177059
 30
0.0
 10
189.537975369849
 20
15.55214686232426
 30
0.0
 10
189.4141351317905
 20
15.55321883609093
 30
0.0
 10
189.3317217825382
 20
15.55092249091273
 30
0.0
 10
189.1727791229693
 20
15.56048569373424
 30
0.0
 10
189.3503402353376
 20
15.19785394311375
 30
0.0
 10
189.3379739205453
 20
14.95243127723118
 30
0.0
 10
189.4064519473864
 20
14.66862501324838
 30
0.0
 10
189.4693024320971
 20
14.43250999939039
 30
0.0
 10
189.5452253431728
 20
14.23326740396132
 30
0.0
 10
189.6303189577017
 20
14.07745347451376
 30
0.0
 10
189.7244607592936
 20
13.97657857781397
 30
0.0
 10
189.8282648207729
 20
13.92465852638967
 30
0.0
 10
189.9125872030774
 20
13.97606484379621
 30
0.0
 10
189.9351322179452
 20
14.09144544037516
 30
0.0
 10
189.9745730975371
 20
14.21885149702378
 30
0.0
 10
189.9202919734944
 20
14.5362232808675
 30
0.0
 10
190.0451218072473
 20
14.38982180140902
 30
0.0
 10
190.2019291513603
 20
14.35795300331167
 30
0.0
 10
190.0947720007057
 20
14.12421357767625
 30
0.0
 10
190.0808711209867
 20
13.95972776583657
 30
0.0
 10
190.0234709467226
 20
13.83130869122479
 30
0.0
 10
189.9335020145008
 20
13.76018802352827
 30
0.0
 10
189.8095274657877
 20
13.74432324142252
 30
0.0
 10
189.663427319686
 20
13.77993797554171
 30
0.0
 10
189.5243894320284
 20
13.90000570500276
 30
0.0
 10
189.4102003962144
 20
14.07435682550321
 30
0.0
 10
189.3146141301486
 20
14.29946603111242
 30
0.0
 10
189.2318652572627
 20
14.56388246006444
 30
0.0
 10
189.1807179256411
 20
14.88187933098546
 30
0.0
 10
189.0770189207338
 20
15.15543728488915
 30
0.0
 10
189.204284120852
 20
15.56005818612874
 30
0.0
 10
189.0357890623019
 20
15.55112367849683
 30
0.0
 10
188.9511995787077
 20
15.55315961418369
 30
0.0
 10
188.8189876387628
 20
15.55213937388411
 30
0.0
 10
188.6560505094104
 20
15.55253230318434
 30
0.0
 10
188.4733759170533
 20
15.55235696313374
 30
0.0
 10
188.2847057373383
 20
15.55260105307473
 30
0.0
 10
188.1014469020189
 20
15.55185657906241
 30
0.0
 10
187.9404746832719
 20
15.55416360522431
 30
0.0
 10
187.8029808335276
 20
15.54799804883667
 30
0.0
 10
187.7289590372311
 20
15.56032838458216
 30
0.0
 10
187.6613215186858
 20
15.54329323723561
 30
0.0
 10
187.673237371927
 20
15.59524438447531
 30
0.0
 10
187.6655677285694
 20
15.64071424966532
 30
0.0
 10
187.6732592225117
 20
15.68614453703707
 30
0.0
 10
187.6613141797762
 20
15.73802395984571
 30
0.0
 10
187.7283588305868
 20
15.72119143490264
 30
0.0
 10
187.8017375665677
 20
15.73335409092671
 30
0.0
 10
187.9379128305272
 20
15.72727231074958
 30
0.0
 10
188.0973811801513
 20
15.72954834315058
 30
0.0
 10
188.2789173085837
 20
15.72881233998962
 30
0.0
 10
188.4658034862179
 20
15.72905954196133
 30
0.0
 10
188.6468012316836
 20
15.72886400799254
 30
0.0
 10
188.8080802578879
 20
15.72932234714839
 30
0.0
 10
188.9393882124887
 20
15.72812673751206
 30
0.0
 10
189.0225051322596
 20
15.73051347319742
 30
0.0
 10
189.1556236547814
 20
15.72230605725464
 30
0.0
 10
189.0645893502659
 20
15.97752868952657
 30
0.0
 10
188.9789633074418
 20
16.24164358328251
 30
0.0
 10
189.0990589003455
 20
16.22904442969169
 30
0.0
 10
189.1514264948543
 20
16.22694235763078
 30
0.0
 10
189.2214497569717
 20
16.22535399889659
 30
0.0
 10
189.2671922337817
 20
16.21602567538113
 30
0.0
 10
189.3220812646934
 20
16.22545966915427
 30
0.0
 10
189.2963574785682
 20
16.17733028655172
 30
0.0
 10
189.1825397571453
 20
16.1826682974417
 30
0.0
 10
189.3159346621136
 20
15.95449174576776
 30
0.0
 10
189.1943658735471
 20
15.72156856595923
 30
0.0
 10
189.3223188769413
 20
15.73087258884438
 30
0.0
 10
189.4049048406461
 20
15.7280100175468
 30
0.0
 10
189.5307214850824
 20
15.72923437412302
 30
0.0
 10
189.6741469838058
 20
15.72932431888965
 30
0.0
 10
189.8157420951728
 20
15.72746163183853
 30
0.0
 10
189.9459127249968
 20
15.73333075937163
 30
0.0
 10
190.019345228619
 20
15.72070340823203
 30
0.0
 10
190.0891112922096
 20
15.73877563110413
 30
0.0
 10
190.0775772605396
 20
15.68612850546327
 30
0.0
 10
190.0833184346682
 20
15.6422131768655
 30
0.0
 10
190.081661577091
 20
15.59089982676553
 30
0.0
 10
190.081775756167
 20
15.56158792021639
 30
0.0
 10
190.0818114333289
 20
15.55242795125082
 30
0.0
 11
190.0818114333289
 21
15.55242795125082
 31
0.0
 11
190.0472127192051
 21
15.55242795125082
 31
0.0
 11
189.9559979274241
 21
15.55242795125082
 31
0.0
 11
189.8270390838717
 21
15.55242795125082
 31
0.0
 11
189.6792082144336
 21
15.55242795125082
 31
0.0
 11
189.5313773449955
 21
15.55242795125082
 31
0.0
 11
189.4024185014431
 21
15.55242795125082
 31
0.0
 11
189.3112037096621
 21
15.55242795125082
 31
0.0
 11
189.2766049955383
 21
15.55242795125082
 31
0.0
 11
189.3083140497694
 21
15.23435864930125
 31
0.0
 11
189.3527866656866
 21
14.93509522788084
 31
0.0
 11
189.409238911832
 21
14.66191269512579
 31
0.0
 11
189.4768868567479
 21
14.4220860591723
 31
0.0
 11
189.5549465689762
 21
14.22289032815658
 31
0.0
 11
189.6426341170592
 21
14.07160051021481
 31
0.0
 11
189.739165569539
 21
13.9754916134832
 31
0.0
 11
189.8437569949576
 21
13.94183864609795
 31
0.0
 11
189.8943077302786
 21
13.97177376978837
 31
0.0
 11
189.9310588991552
 21
14.06491619815047
 31
0.0
 11
189.9562640977528
 21
14.22627151712052
 31
0.0
 11
189.9721769222369
 21
14.46084531263477
 31
0.0
 11
190.0494082682583
 21
14.40202182306616
 31
0.0
 11
190.1327184184385
 21
14.35921885432686
 31
0.0
 11
190.1066365811217
 21
14.11528388661008
 31
0.0
 11
190.0673317805105
 21
13.94207902887561
 31
0.0
 11
190.0105702596765
 21
13.83011272445917
 31
0.0
 11
189.932118261691
 21
13.76989341669645
 31
0.0
 11
189.8277420296256
 21
13.75192954892316
 31
0.0
 11
189.6738595065097
 21
13.7895744001236
 31
0.0
 11
189.5388902376747
 21
13.89707348877402
 31
0.0
 11
189.4221739916163
 21
14.06627361744809
 31
0.0
 11
189.32305053683
 21
14.28902158871944
 31
0.0
 11
189.2408596418113
 21
14.55716420516173
 31
0.0
 11
189.1749410750559
 21
14.86254826934863
 31
0.0
 11
189.1246346050593
 21
15.19702058385377
 31
0.0
 11
189.0892800003171
 21
15.55242795125082
 31
0.0
 11
189.0561935405844
 21
15.55242795125082
 31
0.0
 11
188.9654726026075
 21
15.55242795125082
 31
0.0
 11
188.8299248482185
 21
15.55242795125082
 31
0.0
 11
188.6623579392495
 21
15.55242795125082
 31
0.0
 11
188.4755795375324
 21
15.55242795125082
 31
0.0
 11
188.2823973048993
 21
15.55242795125082
 31
0.0
 11
188.0956189031822
 21
15.55242795125082
 31
0.0
 11
187.9280519942131
 21
15.55242795125082
 31
0.0
 11
187.7925042398242
 21
15.55242795125082
 31
0.0
 11
187.7017833018473
 21
15.55242795125082
 31
0.0
 11
187.6686968421146
 21
15.55242795125082
 31
0.0
 11
187.6686968421146
 21
15.5800148978585
 31
0.0
 11
187.6686968421146
 21
15.6407061803954
 31
0.0
 11
187.6686968421146
 21
15.7013974629323
 31
0.0
 11
187.6686968421146
 21
15.72898440953998
 31
0.0
 11
187.7014723087632
 21
15.72898440953998
 31
0.0
 11
187.7913405237674
 21
15.72898440953998
 31
0.0
 11
187.9256142097149
 21
15.72898440953998
 31
0.0
 11
188.0916060891932
 21
15.72898440953998
 31
0.0
 11
188.2766288847902
 21
15.72898440953998
 31
0.0
 11
188.4679953190932
 21
15.72898440953998
 31
0.0
 11
188.6530181146902
 21
15.72898440953998
 31
0.0
 11
188.8190099941685
 21
15.72898440953998
 31
0.0
 11
188.953283680116
 21
15.72898440953998
 31
0.0
 11
189.0431518951202
 21
15.72898440953998
 31
0.0
 11
189.0759273617688
 21
15.72898440953998
 31
0.0
 11
189.0659183950103
 21
15.97947647544957
 31
0.0
 11
189.0599112510663
 21
16.23196614552535
 31
0.0
 11
189.0860575870659
 21
16.23056921608125
 31
0.0
 11
189.1484065421419
 21
16.22723807663764
 31
0.0
 11
189.22282303691
 21
16.22326220052751
 31
0.0
 11
189.285171991986
 21
16.21993106108389
 31
0.0
 11
189.3113183279856
 21
16.21853413163979
 31
0.0
 11
189.2982931113041
 21
16.19016528616079
 31
0.0
 11
189.2551649266406
 21
16.17581274276165
 31
0.0
 11
189.2574991961822
 21
15.95136670115107
 31
0.0
 11
189.2658452735903
 21
15.72898440953998
 31
0.0
 11
189.3009063195165
 21
15.72898440953998
 31
0.0
 11
189.3933399860495
 21
15.72898440953998
 31
0.0
 11
189.5240220663201
 21
15.72898440953998
 31
0.0
 11
189.6738283534596
 21
15.72898440953998
 31
0.0
 11
189.8236346405991
 21
15.72898440953998
 31
0.0
 11
189.9543167208697
 21
15.72898440953998
 31
0.0
 11
190.0467503874027
 21
15.72898440953998
 31
0.0
 11
190.0818114333289
 21
15.72898440953998
 31
0.0
 11
190.0818114333289
 21
15.7013974629323
 31
0.0
 11
190.0818114333289
 21
15.6407061803954
 31
0.0
 11
190.0818114333289
 21
15.5800148978585
 31
0.0
 11
190.0818114333289
 21
15.55242795125082
 31
0.0
  0
SPLINE
  5
A8
102
{ACAD_REACTORS
330
C5
102
}
330
48
100
AcDbEntity
  8
_U_30EC_U_30A4_U_30E4_U_30FC_1
  6
Continuous
 62
     2
100
AcDbSpline
210
0.0
220
0.0
230
1.0
 70
    11
 71
     3
 72
    75
 73
    71
 74
    69
 42
0.000000001
 43
0.0000000001
 44
0.00000001
 40
0.0
 40
0.0
 40
0.0
 40
0.0
 40
0.0342546099129691
 40
0.1245622414432346
 40
0.2522385480897518
 40
0.398599192294068
 40
0.5449598364980821
 40
0.6726361431438816
 40
0.762943774673696
 40
0.7971983935297973
 40
1.101723623449709
 40
1.408591244036668
 40
1.433332471690368
 40
1.487763172450156
 40
1.542193873081974
 40
1.566935100592521
 40
1.923523931821836
 40
2.271755704953587
 40
2.590579755100832
 40
2.858943305581059
 40
2.889120339309076
 40
2.918305855191014
 40
2.941366645531139
 40
2.996357760973036
 40
3.061992318140587
 40
3.116983433626777
 40
3.14004422399747
 40
3.411273122936354
 40
3.732441619740958
 40
3.761068217532658
 40
3.837787499630223
 40
3.948858699125863
 40
4.080541049104245
 40
4.219093782625635
 40
4.350776132722189
 40
4.461847332405529
 40
4.538566614678262
 40
4.56719321254451
 40
4.594907573998769
 40
4.666381453557308
 40
4.76411104401089
 40
4.870592538125693
 40
4.968322128642087
 40
5.039796008286801
 40
5.067510369784231
 40
5.094263603185436
 40
5.15312071666805
 40
5.211977830150476
 40
5.238731063551472
 40
5.272290535138739
 40
5.363380529444544
 40
5.49761841578125
 40
5.660621563453463
 40
5.838007341749164
 40
6.015393119910544
 40
6.178396267038141
 40
6.312634151842121
 40
6.403724143059111
 40
6.437283612672206
 40
6.464036846260814
 40
6.522893960004409
 40
6.581751071483651
 40
6.60850430159059
 40
6.637253941280737
 40
6.711397748902617
 40
6.812778057283229
 40
6.923237199249006
 40
7.02461750762365
 40
7.098761315207359
 40
7.12751094600731
 40
7.12751094600731
 40
7.12751094600731
 40
7.12751094600731
 10
188.4418622390564
 20
14.95849128473265
 30
0.0
 10
188.4418622819707
 20
14.9470731340872
 30
0.0
 10
188.4418624481129
 20
14.9055525784263
 30
0.0
 10
188.4418593081786
 20
14.82146922003772
 30
0.0
 10
188.44187882798
 20
14.70004497322329
 30
0.0
 10
188.4417912187737
 20
14.55980494047449
 30
0.0
 10
188.442111623523
 20
14.42006556794577
 30
0.0
 10
188.4411605909741
 20
14.29745038894929
 30
0.0
 10
188.4431978595967
 20
14.21587074438044
 30
0.0
 10
188.4349433178746
 20
14.06271267077696
 30
0.0
 10
188.7430797940901
 20
14.22560236054712
 30
0.0
 10
189.0350645173736
 20
14.39482938688005
 30
0.0
 10
189.0408354448708
 20
14.25973235781914
 30
0.0
 10
189.0455471719891
 20
14.21617221160448
 30
0.0
 10
189.0482535411918
 20
14.17211249350549
 30
0.0
 10
189.0672545672958
 20
14.02272590363138
 30
0.0
 10
188.6583942247303
 20
14.08681172241265
 30
0.0
 10
188.3793710348832
 20
13.97296341411016
 30
0.0
 10
188.1018081587167
 20
13.87364095811142
 30
0.0
 10
187.8099837184401
 20
13.91630687596355
 30
0.0
 10
187.7869144678658
 20
13.81321679744542
 30
0.0
 10
187.7537474383334
 20
13.78691091244472
 30
0.0
 10
187.7480653962739
 20
13.83455309036307
 30
0.0
 10
187.7284214559045
 20
13.87180336115073
 30
0.0
 10
187.7095089485623
 20
13.93007387847567
 30
0.0
 10
187.6942849867709
 20
13.9738520100781
 30
0.0
 10
187.6477246372935
 20
14.08759421046312
 30
0.0
 10
187.989089731245
 20
14.05576301120048
 30
0.0
 10
188.2679649367387
 20
14.02161435106479
 30
0.0
 10
188.2617753034907
 20
14.1691397647965
 30
0.0
 10
188.2630935452773
 20
14.24013150908831
 30
0.0
 10
188.2624831689947
 20
14.3471976795866
 30
0.0
 10
188.2625871570725
 20
14.47398529785997
 30
0.0
 10
188.2629987964055
 20
14.6084924349605
 30
0.0
 10
188.2613907841968
 20
14.73395549951184
 30
0.0
 10
188.2659902567926
 20
14.84505246719118
 30
0.0
 10
188.256418650221
 20
14.90761886800689
 30
0.0
 10
188.2704001783691
 20
14.96595388295002
 30
0.0
 10
188.2147384386704
 20
14.95289710582239
 30
0.0
 10
188.1575655197822
 20
14.961363077495
 30
0.0
 10
188.0616048925647
 20
14.95729976080637
 30
0.0
 10
187.9633767522822
 20
14.95970889852475
 30
0.0
 10
187.8672582457561
 20
14.95551600613389
 30
0.0
 10
187.8104648525812
 20
14.96429346441164
 30
0.0
 10
187.7550356873384
 20
14.95094936850123
 30
0.0
 10
187.7670679427919
 20
15.00036910959256
 30
0.0
 10
187.7592003173937
 20
15.04393988030393
 30
0.0
 10
187.766629556383
 20
15.08830469118522
 30
0.0
 10
187.7551930564144
 20
15.13902297763986
 30
0.0
 10
187.8232102370134
 20
15.12162460757738
 30
0.0
 10
187.8968496879747
 20
15.13417450237183
 30
0.0
 10
188.0325064058212
 20
15.12799677011092
 30
0.0
 10
188.1884909024525
 20
15.13029203093078
 30
0.0
 10
188.3615926358145
 20
15.12940968262525
 30
0.0
 10
188.5346942964182
 20
15.13029207142403
 30
0.0
 10
188.6906789811218
 20
15.12799662955545
 30
0.0
 10
188.8263351889798
 20
15.13417486262426
 30
0.0
 10
188.8999756705653
 20
15.12162394218331
 30
0.0
 10
188.9679914174725
 20
15.13902373012137
 30
0.0
 10
188.9565590885923
 20
15.08830130414552
 30
0.0
 10
188.9639539458298
 20
15.04397060811106
 30
0.0
 10
188.9562039912271
 20
15.00028307550195
 30
0.0
 10
188.9681203741878
 20
14.95063590098478
 30
0.0
 10
188.9108170223617
 20
14.96461411338427
 30
0.0
 10
188.8520145789773
 20
14.95539755673254
 30
0.0
 10
188.75252936332
 20
14.9595226816493
 30
0.0
 10
188.649428009835
 20
14.95822760025888
 30
0.0
 10
188.5537846354574
 20
14.95854077077641
 30
0.0
 10
188.4857467971617
 20
14.95848776697146
 30
0.0
 10
188.4514462213443
 20
14.95849051871657
 30
0.0
 10
188.4418622390564
 20
14.95849128473265
 30
0.0
 11
188.4418622390564
 21
14.95849128473265
 31
0.0
 11
188.4418622390564
 21
14.92423666587186
 31
0.0
 11
188.4418622390564
 21
14.83392903432976
 31
0.0
 11
188.4418622390564
 21
14.7062527276668
 31
0.0
 11
188.4418622390564
 21
14.5598920834434
 31
0.0
 11
188.4418622390564
 21
14.41353143922001
 31
0.0
 11
188.4418622390564
 21
14.28585513255705
 31
0.0
 11
188.4418622390564
 21
14.19554750101495
 31
0.0
 11
188.4418622390564
 21
14.16129288215416
 31
0.0
 11
188.7391932644568
 21
14.22709475713766
 31
0.0
 11
189.0384623627245
 21
14.29496038212074
 31
0.0
 11
189.0405487124976
 21
14.2703072788283
 31
0.0
 11
189.0451386819987
 21
14.21607045158493
 31
0.0
 11
189.0497286514996
 21
14.16183362434156
 31
0.0
 11
189.0518150012728
 21
14.13718052104912
 31
0.0
 11
188.705639688924
 21
14.051633701409
 31
0.0
 11
188.3669653138838
 21
13.97060877629902
 31
0.0
 11
188.0563731516688
 21
13.89862764024928
 31
0.0
 11
187.7944444777956
 21
13.84021218778992
 31
0.0
 11
187.7817515029293
 21
13.81283442738014
 31
0.0
 11
187.7569794787514
 21
13.79740260446738
 31
0.0
 11
187.7491867589502
 21
13.81910683390639
 31
0.0
 11
187.7306041194242
 21
13.8708630733379
 31
0.0
 11
187.7084248399901
 21
13.93263664943355
 31
0.0
 11
187.6898422004641
 21
13.98439288886505
 31
0.0
 11
187.6820494806629
 21
14.00609711830407
 31
0.0
 11
187.9482776335932
 21
14.05794001759666
 31
0.0
 11
188.2626334936289
 21
14.12373968771908
 31
0.0
 11
188.2626334936289
 21
14.15236628569623
 31
0.0
 11
188.2626334936289
 21
14.22908556827498
 31
0.0
 11
188.2626334936289
 21
14.3401567684263
 31
0.0
 11
188.2626334936289
 21
14.47183911912117
 31
0.0
 11
188.2626334936289
 21
14.61039185333056
 31
0.0
 11
188.2626334936289
 21
14.74207420402543
 31
0.0
 11
188.2626334936289
 21
14.85314540417675
 31
0.0
 11
188.2626334936289
 21
14.9298646867555
 31
0.0
 11
188.2626334936289
 21
14.95849128473265
 31
0.0
 11
188.2349191321108
 21
14.95849128473265
 31
0.0
 11
188.1634452524063
 21
14.95849128473265
 31
0.0
 11
188.0657156617901
 21
14.95849128473265
 31
0.0
 11
187.9592341675364
 21
14.95849128473265
 31
0.0
 11
187.8615045769201
 21
14.95849128473265
 31
0.0
 11
187.7900306972156
 21
14.95849128473265
 31
0.0
 11
187.7623163356976
 21
14.95849128473265
 31
0.0
 11
187.7623163356976
 21
14.98524451823289
 31
0.0
 11
187.7623163356976
 21
15.04410163193342
 31
0.0
 11
187.7623163356976
 21
15.10295874563395
 31
0.0
 11
187.7623163356976
 21
15.12971197913419
 31
0.0
 11
187.7958758072876
 21
15.12971197913419
 31
0.0
 11
187.8869658016031
 21
15.12971197913419
 31
0.0
 11
188.021203687963
 21
15.12971197913419
 31
0.0
 11
188.1842068356856
 21
15.12971197913419
 31
0.0
 11
188.3615926140897
 21
15.12971197913419
 31
0.0
 11
188.5389783924938
 21
15.12971197913419
 31
0.0
 11
188.7019815402165
 21
15.12971197913419
 31
0.0
 11
188.8362194265763
 21
15.12971197913419
 31
0.0
 11
188.9273094208919
 21
15.12971197913419
 31
0.0
 11
188.9608688924819
 21
15.12971197913419
 31
0.0
 11
188.9608688924819
 21
15.10295874563395
 31
0.0
 11
188.9608688924819
 21
15.04410163193342
 31
0.0
 11
188.9608688924819
 21
14.98524451823289
 31
0.0
 11
188.9608688924819
 21
14.95849128473265
 31
0.0
 11
188.9321192527878
 21
14.95849128473265
 31
0.0
 11
188.8579754451555
 21
14.95849128473265
 31
0.0
 11
188.7565951367605
 21
14.95849128473265
 31
0.0
 11
188.6461359947778
 21
14.95849128473265
 31
0.0
 11
188.5447556863828
 21
14.95849128473265
 31
0.0
 11
188.4706118787505
 21
14.95849128473265
 31
0.0
 11
188.4418622390564
 21
14.95849128473265
 31
0.0
  0
SPLINE
  5
A9
102
{ACAD_REACTORS
330
C6
102
}
330
48
100
AcDbEntity
  8
_U_30EC_U_30A4_U_30E4_U_30FC_1
  6
Continuous
 62
     2
100
AcDbSpline
210
0.0
220
0.0
230
1.0
 70
    11
 71
     3
 72
    15
 73
    11
 74
     9
 42
0.000000001
 43
0.0000000001
 44
0.00000001
 40
0.0
 40
0.0
 40
0.0
 40
0.0
 40
0.2785535985096865
 40
0.521562474819903
 40
0.6076917376040385
 40
0.6938210001741046
 40
0.940501914645574
 40
1.221691403489104
 40
1.300471877081006
 40
1.379252341684778
 40
1.379252341684778
 40
1.379252341684778
 40
1.379252341684778
 10
189.5681493631
 20
16.22930267330378
 30
0.0
 10
189.6296017794179
 20
16.17691646592712
 30
0.0
 10
189.7446649974115
 20
16.0788287679822
 30
0.0
 10
190.0397348497244
 20
15.92889785897219
 30
0.0
 10
189.9025147631857
 20
15.84343227515008
 30
0.0
 10
189.8041227843779
 20
15.71085785201551
 30
0.0
 10
189.713003359065
 20
16.01616985781414
 30
0.0
 10
189.3636839480657
 20
16.0796786946537
 30
0.0
 10
189.5119258376571
 20
16.17896509880875
 30
0.0
 10
189.5494081874237
 20
16.21252348402379
 30
0.0
 10
189.5681493631
 20
16.22930267330378
 30
0.0
 11
189.5681493631
 21
16.22930267330378
 31
0.0
 11
189.7919222440597
 21
16.06341774278969
 31
0.0
 11
189.9695046306384
 21
15.89753281227559
 31
0.0
 11
189.906630812798
 21
15.83866743034588
 31
0.0
 11
189.8437569949576
 21
15.77980204841617
 31
0.0
 11
189.6688535117725
 21
15.95375677059492
 31
0.0
 11
189.4478256856141
 21
16.12757920110698
 31
0.0
 11
189.507987524357
 21
16.17844093720538
 31
0.0
 11
189.5681493631
 21
16.22930267330378
 31
0.0
  0
SPLINE
  5
AA
102
{ACAD_REACTORS
330
C7
102
}
330
48
100
AcDbEntity
  8
_U_30EC_U_30A4_U_30E4_U_30FC_1
  6
Continuous
 62
     2
100
AcDbSpline
210
0.0
220
0.0
230
1.0
 70
    11
 71
     3
 72
    35
 73
    31
 74
    29
 42
0.000000001
 43
0.0000000001
 44
0.00000001
 40
0.0
 40
0.0
 40
0.0
 40
0.0
 40
0.0335231036620179
 40
0.0713218571712786
 40
0.4278866681487883
 40
0.8116865841965177
 40
1.198190238000182
 40
1.561379546812828
 40
1.659983174622228
 40
1.759315573807374
 40
2.132719617231245
 40
2.525233363589011
 40
2.910815397779933
 40
3.265244364303555
 40
3.592606723582297
 40
3.964386154604238
 40
4.359942131738052
 40
4.758154118639553
 40
4.8438465387001
 40
4.93665006554341
 40
5.256616602537508
 40
5.581707404416222
 40
5.899719158308346
 40
6.198363494280897
 40
6.46630104661591
 40
6.493895311537231
 40
6.559697020197023
 40
6.638234543442598
 40
6.70403625215435
 40
6.731630508423156
 40
6.731630508423156
 40
6.731630508423156
 40
6.731630508423156
 10
191.9736010568669
 20
16.23463843719139
 30
0.0
 10
191.9676006097789
 20
16.22480690542326
 30
0.0
 10
191.9548344099158
 20
16.20388988579793
 30
0.0
 10
191.7949362006554
 20
16.17127126532704
 30
0.0
 10
192.2322025842336
 20
15.88206680336695
 30
0.0
 10
192.4345394828262
 20
15.68041138358439
 30
0.0
 10
192.6819564267974
 20
15.43749387603275
 30
0.0
 10
193.1831513624607
 20
15.36047662757769
 30
0.0
 10
193.012556219897
 20
15.21876939174659
 30
0.0
 10
192.9383299463203
 20
15.01710366209096
 30
0.0
 10
192.6131432248189
 20
15.36956287174728
 30
0.0
 10
192.3277741670665
 20
15.53175212559562
 30
0.0
 10
192.0337604077659
 20
15.7368713005305
 30
0.0
 10
191.8084452691134
 20
16.21827488595456
 30
0.0
 10
191.5993085055522
 20
15.75343046609224
 30
0.0
 10
191.3207873674834
 20
15.54350952252913
 30
0.0
 10
191.0371383177208
 20
15.37424456359988
 30
0.0
 10
190.7078639527832
 20
15.00142360907941
 30
0.0
 10
190.6277012318224
 20
15.19708014459003
 30
0.0
 10
190.4759724909745
 20
15.324911041906
 30
0.0
 10
190.9083395826795
 20
15.40454031765933
 30
0.0
 10
191.0962565329767
 20
15.60026634915477
 30
0.0
 10
191.3468477420503
 20
15.81632996916753
 30
0.0
 10
191.5714350470162
 20
15.98190992300064
 30
0.0
 10
191.6259775409711
 20
16.26133964636828
 30
0.0
 10
191.7494661029011
 20
16.24737950408081
 30
0.0
 10
191.806027334452
 20
16.2452126886765
 30
0.0
 10
191.8761870984945
 20
16.24046859881365
 30
0.0
 10
191.9333414022105
 20
16.23709429350546
 30
0.0
 10
191.9644190320838
 20
16.23519854711124
 30
0.0
 10
191.9736010568669
 20
16.23463843719139
 30
0.0
 11
191.9736010568669
 21
16.23463843719139
 31
0.0
 11
191.9525319069885
 21
16.20856374969787
 31
0.0
 11
191.9174464559425
 21
16.19450114553467
 31
0.0
 11
192.1512374769095
 21
15.92527961131381
 31
0.0
 11
192.4414585957567
 21
15.67413407969258
 31
0.0
 11
192.7612797483685
 21
15.45710987618781
 31
0.0
 11
193.083870870629
 21
15.29025232631636
 31
0.0
 11
193.0213299868076
 21
15.21402035584928
 31
0.0
 11
192.9688035818976
 21
15.12971197913419
 31
0.0
 11
192.6436279095815
 21
15.31326404831577
 31
0.0
 11
192.3237227768437
 21
15.54070139743428
 31
0.0
 11
192.0354200158608
 21
15.79673855123311
 31
0.0
 11
191.8050514588095
 21
16.06609003445567
 31
0.0
 11
191.5995531719516
 21
15.81126348721037
 31
0.0
 11
191.3288301341535
 21
15.55645182277757
 31
0.0
 11
191.0119538423246
 21
15.31969466354859
 31
0.0
 11
190.6679957933741
 21
15.11903163191471
 31
0.0
 11
190.6218855341338
 21
15.19126067703554
 31
0.0
 11
190.5636970460349
 21
15.26355586798968
 31
0.0
 11
190.8433040489016
 21
15.41911456961745
 31
0.0
 11
191.1093004621155
 21
15.60601009790406
 31
0.0
 11
191.3499997459747
 21
15.8138449628521
 31
0.0
 11
191.5537153607774
 21
16.03222167446418
 31
0.0
 11
191.7087607668218
 21
16.25074274274289
 31
0.0
 11
191.7363041569865
 21
16.24906789496553
 31
0.0
 11
191.8019845489177
 21
16.24507402718876
 31
0.0
 11
191.880377274771
 21
16.24030715274552
 31
0.0
 11
191.9460576667022
 21
16.23631328496874
 31
0.0
 11
191.9736010568669
 21
16.23463843719139
 31
0.0
  0
SPLINE
  5
AB
102
{ACAD_REACTORS
330
C8
102
}
330
48
100
AcDbEntity
  8
_U_30EC_U_30A4_U_30E4_U_30FC_1
  6
Continuous
 62
     2
100
AcDbSpline
210
0.0
220
0.0
230
1.0
 70
    11
 71
     3
 72
    91
 73
    87
 74
    85
 42
0.000000001
 43
0.0000000001
 44
0.00000001
 40
0.0
 40
0.0
 40
0.0
 40
0.0
 40
0.0267532254356737
 40
0.0856103386464209
 40
0.1444674521996798
 40
0.171220685661871
 40
0.2039416005642732
 40
0.2955601971652679
 40
0.4362601844617398
 40
0.616225284450773
 40
0.8256392189705177
 40
1.054685709844487
 40
1.293548478893608
 40
1.532411247938351
 40
1.761457738799616
 40
1.970871673298613
 40
2.150836773256837
 40
2.291536760495698
 40
2.383155356836776
 40
2.415876284101425
 40
2.442629517488069
 40
2.50148663094921
 40
2.560343744424364
 40
2.587096977826639
 40
2.617068194441067
 40
2.699247336756236
 40
2.82203264346652
 40
2.973822353258078
 40
3.14301470482352
 40
3.318007936880099
 40
3.487200288186933
 40
3.63898999754847
 40
3.761775303794969
 40
3.843954445753304
 40
3.87392566223
 40
3.890812773500693
 40
3.907699884771858
 40
3.93796076785745
 40
3.980983618142546
 40
4.199085915228659
 40
4.439444339237443
 40
4.67758824126105
 40
5.050698317837965
 40
5.448212454763294
 40
5.855291218044761
 40
6.13857543888545
 40
6.417434507584249
 40
6.444551104393908
 40
6.504207617363184
 40
6.563864130314508
 40
6.590980727104077
 40
6.848609460381539
 40
7.109611990668506
 40
7.352910904446194
 40
7.557830220705533
 40
7.587518925913455
 40
7.65283407737591
 40
7.718149228845907
 40
7.747837934062216
 40
7.854880190301183
 40
7.976511257403711
 40
8.369487896592542
 40
8.757514959223863
 40
9.1260724193313
 40
9.46063938039239
 40
9.74669559303616
 40
9.777569943118895
 40
9.807050320931982
 40
9.830377336129105
 40
9.886003295436185
 40
9.952395569430076
 40
10.00802152870643
 40
10.03134854388234
 40
10.21356951009605
 40
10.4220347929289
 40
10.66154556731079
 40
10.91693789564316
 40
11.15832906556573
 40
11.18982674596631
 40
11.27286608520415
 40
11.39026653033357
 40
11.52484752840893
 40
11.65942852648455
 40
11.77682897161491
 40
11.8598683108569
 40
11.89136598230436
 40
11.89136598230436
 40
11.89136598230436
 40
11.89136598230436
 10
190.7027885008196
 20
14.70699600701767
 30
0.0
 10
190.7028237765288
 20
14.7158784731198
 30
0.0
 10
190.7029366710796
 20
14.74430237047342
 30
0.0
 10
190.7012984568489
 20
14.79409639169799
 30
0.0
 10
190.7069750292911
 20
14.83657564478151
 30
0.0
 10
190.6956928731706
 20
14.88730154856844
 30
0.0
 10
190.7632296979032
 20
14.87012900740105
 30
0.0
 10
190.8388029210701
 20
14.88290227165994
 30
0.0
 10
190.9828357056001
 20
14.87629729457378
 30
0.0
 10
191.1569419185427
 20
14.87888462206463
 30
0.0
 10
191.3639599611003
 20
14.8780059195555
 30
0.0
 10
191.5894688172378
 20
14.87828207920024
 30
0.0
 10
191.8251162293406
 20
14.87818339658659
 30
0.0
 10
192.0607640531349
 20
14.87828184412764
 30
0.0
 10
192.2862717580626
 20
14.87800678190786
 30
0.0
 10
192.4932934632805
 20
14.87888186270731
 30
0.0
 10
192.667388891529
 20
14.87630522678444
 30
0.0
 10
192.8114492071986
 20
14.8828829044921
 30
0.0
 10
192.8869691915294
 20
14.87016243405601
 30
0.0
 10
192.954577603703
 20
14.88726400191684
 30
0.0
 10
192.9430840140676
 20
14.83674785802937
 30
0.0
 10
192.9505104581734
 20
14.79253252226497
 30
0.0
 10
192.9428838927986
 20
14.74867966503605
 30
0.0
 10
192.9546489459426
 20
14.69878374479323
 30
0.0
 10
192.8930788491984
 20
14.71393227712507
 30
0.0
 10
192.8256791738672
 20
14.70310665350669
 30
0.0
 10
192.7013004056222
 20
14.70852031626231
 30
0.0
 10
192.5554428236572
 20
14.70649205390781
 30
0.0
 10
192.3893576440086
 20
14.70715777578382
 30
0.0
 10
192.2188412621725
 20
14.70689643521237
 30
0.0
 10
192.0519790855389
 20
14.70721553391089
 30
0.0
 10
191.9087346827105
 20
14.70635302590757
 30
0.0
 10
191.7773313869834
 20
14.70863300482983
 30
0.0
 10
191.7239859134656
 20
14.70407704374198
 30
0.0
 10
191.6485188456912
 20
14.70999914992871
 30
0.0
 10
191.6769075779232
 20
14.70094169343353
 30
0.0
 10
191.7033652409542
 20
14.69725912268935
 30
0.0
 10
191.6633522907702
 20
14.66654271968269
 30
0.0
 10
191.5713663691867
 20
14.67667591174634
 30
0.0
 10
191.543939620707
 20
14.43032502247784
 30
0.0
 10
191.4478793967235
 20
14.27499558764375
 30
0.0
 10
191.1917277964474
 20
13.94525417931566
 30
0.0
 10
191.7627537732763
 20
14.08430022210451
 30
0.0
 10
192.0173656320517
 20
14.08291779973364
 30
0.0
 10
192.6279647048616
 20
13.99790569242083
 30
0.0
 10
192.3340698578085
 20
14.29685417558209
 30
0.0
 10
192.0133304286517
 20
14.44330856901779
 30
0.0
 10
192.1313543360434
 20
14.50025540818292
 30
0.0
 10
192.1724716466262
 20
14.52420099873353
 30
0.0
 10
192.2156812394411
 20
14.54599758811234
 30
0.0
 10
192.3174574094452
 20
14.60928721253914
 30
0.0
 10
192.4328867625248
 20
14.35147151408779
 30
0.0
 10
192.6329591642277
 20
14.2161604111368
 30
0.0
 10
192.7269077387228
 20
14.03792795138884
 30
0.0
 10
192.9558829746393
 20
13.87997821027052
 30
0.0
 10
192.8596031846708
 20
13.829159725763
 30
0.0
 10
192.816795976378
 20
13.79881292523053
 30
0.0
 10
192.7718243528778
 20
13.77466130281457
 30
0.0
 10
192.7121720925214
 20
13.72552146747562
 30
0.0
 10
192.6789731061325
 20
13.85997475673611
 30
0.0
 10
192.5582013350797
 20
14.01594265286583
 30
0.0
 10
192.1970976005979
 20
13.88569928059555
 30
0.0
 10
191.8385061955541
 20
13.90224694409481
 30
0.0
 10
191.457092045008
 20
13.89331229351861
 30
0.0
 10
191.1703455282891
 20
13.82882671672403
 30
0.0
 10
190.8592055599715
 20
13.94230668192821
 30
0.0
 10
190.8268737818788
 20
13.83122259927767
 30
0.0
 10
190.7896178253318
 20
13.81196313850017
 30
0.0
 10
190.7865737632754
 20
13.85874784087301
 30
0.0
 10
190.7679892860606
 20
13.89806853919136
 30
0.0
 10
190.7512436616779
 20
13.95765983478237
 30
0.0
 10
190.7383730915753
 20
14.00201969871285
 30
0.0
 10
190.704232780643
 20
14.09106331120205
 30
0.0
 10
190.9482714457754
 20
14.02181042943771
 30
0.0
 10
191.1441394486673
 20
14.00030369057745
 30
0.0
 10
191.2395426381277
 20
14.28226484478462
 30
0.0
 10
191.2945135769598
 20
14.4436304542112
 30
0.0
 10
191.5159619357154
 20
14.71391177589734
 30
0.0
 10
191.3849239381217
 20
14.70548446853729
 30
0.0
 10
191.3110026555854
 20
14.70779008496965
 30
0.0
 10
191.1977459876244
 20
14.70671378321653
 30
0.0
 10
191.0694251807484
 20
14.70707639076504
 30
0.0
 10
190.9404252030415
 20
14.70697724466081
 30
0.0
 10
190.828784094629
 20
14.70699932712568
 30
0.0
 10
190.7514663970026
 20
14.70699579189664
 30
0.0
 10
190.713287653201
 20
14.70699595845076
 30
0.0
 10
190.7027885008196
 20
14.70699600701767
 30
0.0
 11
190.7027885008196
 21
14.70699600701767
 31
0.0
 11
190.7027885008196
 21
14.73374924051793
 31
0.0
 11
190.7027885008196
 21
14.7926063542185
 31
0.0
 11
190.7027885008196
 21
14.85146346791906
 31
0.0
 11
190.7027885008196
 21
14.87821670141932
 31
0.0
 11
190.7355094280989
 21
14.87821670141932
 31
0.0
 11
190.8271280244809
 21
14.87821670141932
 31
0.0
 11
190.9678280117819
 21
14.87821670141932
 31
0.0
 11
191.147793111818
 21
14.87821670141932
 31
0.0
 11
191.3572070464054
 21
14.87821670141932
 31
0.0
 11
191.5862535373604
 21
14.87821670141932
 31
0.0
 11
191.8251163064993
 21
14.87821670141932
 31
0.0
 11
192.0639790756381
 21
14.87821670141932
 31
0.0
 11
192.2930255665931
 21
14.87821670141932
 31
0.0
 11
192.5024395011806
 21
14.87821670141932
 31
0.0
 11
192.6824046012168
 21
14.87821670141932
 31
0.0
 11
192.8231045885177
 21
14.87821670141932
 31
0.0
 11
192.9147231848997
 21
14.87821670141932
 31
0.0
 11
192.947444112179
 21
14.87821670141932
 31
0.0
 11
192.947444112179
 21
14.85146346791906
 31
0.0
 11
192.947444112179
 21
14.79260635421849
 31
0.0
 11
192.947444112179
 21
14.73374924051793
 31
0.0
 11
192.947444112179
 21
14.70699600701767
 31
0.0
 11
192.9174728954758
 21
14.70699600701767
 31
0.0
 11
192.8352937529027
 21
14.70699600701767
 31
0.0
 11
192.712508445764
 21
14.70699600701767
 31
0.0
 11
192.5607187353642
 21
14.70699600701767
 31
0.0
 11
192.3915263830078
 21
14.70699600701767
 31
0.0
 11
192.2165331499991
 21
14.70699600701767
 31
0.0
 11
192.0473407976427
 21
14.70699600701767
 31
0.0
 11
191.8955510872428
 21
14.70699600701767
 31
0.0
 11
191.7727657801042
 21
14.70699600701767
 31
0.0
 11
191.690586637531
 21
14.70699600701767
 31
0.0
 11
191.6606154208279
 21
14.70699600701767
 31
0.0
 11
191.6766359412525
 21
14.70165583340793
 31
0.0
 11
191.6926564616771
 21
14.69631565979819
 31
0.0
 11
191.6706155681421
 21
14.67558114591442
 31
0.0
 11
191.6284861855363
 21
14.66685871536106
 31
0.0
 11
191.5365235541377
 21
14.46909247312657
 31
0.0
 11
191.4279078521764
 21
14.25467511978508
 31
0.0
 11
191.3127500824808
 21
14.0462255905162
 31
0.0
 11
191.6857366675021
 21
14.05582441253029
 31
0.0
 11
192.0830700036151
 21
14.06781232404995
 31
0.0
 11
192.4899342191145
 21
14.08102711828531
 31
0.0
 11
192.2983119496979
 21
14.28966761302485
 31
0.0
 11
192.0966752013699
 21
14.48229420151836
 31
0.0
 11
192.120494779475
 21
14.49525327269569
 31
0.0
 11
192.1728978513062
 21
14.52376322928581
 31
0.0
 11
192.2253009231374
 21
14.55227318587592
 31
0.0
 11
192.2491205012425
 21
14.56523225705325
 31
0.0
 11
192.4387101558627
 21
14.39079508370268
 31
0.0
 11
192.6200310940436
 21
14.2030584637409
 31
0.0
 11
192.7777729231148
 21
14.01782380992436
 31
0.0
 11
192.8966252504059
 21
13.85089253500951
 31
0.0
 11
192.8715408217924
 21
13.8350120228607
 31
0.0
 11
192.8163550788426
 21
13.80007489613331
 31
0.0
 11
192.7611693358928
 21
13.76513776940592
 31
0.0
 11
192.7360849072793
 21
13.74925725725711
 31
0.0
 11
192.6775518151613
 21
13.8388782468181
 31
0.0
 11
192.6050015078458
 21
13.93650288221033
 31
0.0
 11
192.2125412924095
 21
13.91636286943758
 31
0.0
 11
191.8249474069561
 21
13.89803302999771
 31
0.0
 11
191.4567378976213
 21
13.88202178722392
 31
0.0
 11
191.1224308105413
 21
13.86883756444943
 31
0.0
 11
190.8365441918518
 21
13.85898878500746
 31
0.0
 11
190.821186232174
 21
13.83220523466696
 31
0.0
 11
190.7937434290546
 21
13.82143559057249
 31
0.0
 11
190.786792719232
 21
13.84370299445581
 31
0.0
 11
190.7702179496548
 21
13.89680218833142
 31
0.0
 11
190.7504351601596
 21
13.96017864553779
 31
0.0
 11
190.7338603905825
 21
14.0132778394134
 31
0.0
 11
190.7269096807599
 21
14.03554524329672
 31
0.0
 11
190.9091199859154
 21
14.03751638912955
 31
0.0
 11
191.1174975848589
 21
14.04356211829474
 31
0.0
 11
191.2303203127217
 21
14.25483550301553
 31
0.0
 11
191.3407936722035
 21
14.48509813155876
 31
0.0
 11
191.4358254265627
 21
14.70699600701767
 31
0.0
 11
191.4043277461597
 21
14.70699600701767
 31
0.0
 11
191.3212884069153
 21
14.70699600701767
 31
0.0
 11
191.2038879617768
 21
14.70699600701767
 31
0.0
 11
191.0693069636912
 21
14.70699600701767
 31
0.0
 11
190.9347259656055
 21
14.70699600701767
 31
0.0
 11
190.817325520467
 21
14.70699600701767
 31
0.0
 11
190.7342861812226
 21
14.70699600701767
 31
0.0
 11
190.7027885008196
 21
14.70699600701767
 31
0.0
  0
SPLINE
  5
AC
102
{ACAD_REACTORS
330
C9
102
}
330
48
100
AcDbEntity
  8
_U_30EC_U_30A4_U_30E4_U_30FC_1
  6
Continuous
 62
     2
100
AcDbSpline
210
0.0
220
0.0
230
1.0
 70
    11
 71
     3
 72
   131
 73
   127
 74
   125
 42
0.000000001
 43
0.0000000001
 44
0.00000001
 40
0.0
 40
0.0
 40
0.0
 40
0.0
 40
0.0195577029825932
 40
0.042649053746128
 40
0.2863607575856215
 40
0.5344948436188716
 40
0.7842238845572722
 40
0.8737315789467142
 40
0.9803832810312668
 40
1.092842274517015
 40
1.199761146656771
 40
1.289788768186469
 40
1.351573580786121
 40
1.370727117561354
 40
1.416400936017781
 40
1.470914848355938
 40
1.516588666791745
 40
1.53574220355283
 40
1.634216592293147
 40
1.76028334117492
 40
1.897966686682043
 40
2.031216387368827
 40
2.049689751137821
 40
2.101115601646757
 40
2.179502577739875
 40
2.278859318313989
 40
2.393194462258645
 40
2.516516648383762
 40
2.642834515405887
 40
2.766156701983391
 40
2.880491846754504
 40
2.979848588358546
 40
3.058235565443724
 40
3.109661416668876
 40
3.128134780704054
 40
3.14678374238637
 40
3.191254343315231
 40
3.24433215731589
 40
3.288802758225765
 40
3.307451719895036
 40
3.327717853844646
 40
3.383747753580009
 40
3.468388665924399
 40
3.574487837698703
 40
3.694892515728807
 40
3.822449946851945
 40
3.950007377920333
 40
4.070412055800423
 40
4.176511227367977
 40
4.261152139501423
 40
4.317182039076613
 40
4.337448172964534
 40
4.620011002696164
 40
4.885096638397467
 40
4.945373043518288
 40
5.014107710488626
 40
5.070481727651972
 40
5.319246955636516
 40
5.584812164506017
 40
5.859000912056891
 40
6.133746937542096
 40
6.401732212968917
 40
6.420736683995536
 40
6.472845717451102
 40
6.550702743894086
 40
6.646951193874295
 40
6.75423449793059
 40
6.865196086587368
 40
6.972479390357827
 40
7.068727839771989
 40
7.146584865450998
 40
7.198693898189227
 40
7.217698368905368
 40
7.234950401630839
 40
7.27608986426987
 40
7.325191803515961
 40
7.366331266090334
 40
7.383583298769678
 40
7.402779163492084
 40
7.453386443254458
 40
7.524934666445488
 40
7.606953361405799
 40
7.688972056428979
 40
7.760520279784173
 40
7.811127559734444
 40
7.830323424546065
 40
7.847844055299697
 40
7.894799345666743
 40
7.96277939274444
 40
8.0433742935605
 40
8.12817414514942
 40
8.208769044817231
 40
8.276749090376942
 40
8.323704379669511
 40
8.341225010056245
 40
8.358497614800394
 40
8.401679126686572
 40
8.457815092185632
 40
8.513951057728036
 40
8.557132569707935
 40
8.574405174504978
 40
8.602340668616257
 40
8.64345566053981
 40
8.663225271966482
 40
8.715345156564126
 40
8.789031889628461
 40
8.873502045520196
 40
8.95797219432382
 40
9.031658925567715
 40
9.083778811234403
 40
9.103548423002866
 40
9.119550083123432
 40
9.160817522379705
 40
9.2172444291101
 40
9.278724491644585
 40
9.335151398295341
 40
9.376418837357637
 40
9.392420497300424
 40
9.401196302734615
 40
9.417494229384033
 40
9.426270027749306
 40
9.440875075477338
 40
9.475702496998519
 40
9.517270709865683
 40
9.552098131993851
 40
9.56670316988406
 40
9.56670316988406
 40
9.56670316988406
 40
9.56670316988406
 10
194.6170254148479
 20
15.67015871511023
 30
0.0
 10
194.6134345093371
 20
15.66453690702156
 30
0.0
 10
194.6056039123624
 20
15.6522775441911
 30
0.0
 10
194.512996897455
 20
15.61601916040971
 30
0.0
 10
194.4887622233246
 20
15.40148444212713
 30
0.0
 10
194.385870984594
 20
15.22197284509705
 30
0.0
 10
194.1220492364305
 20
15.03615573798146
 30
0.0
 10
194.284547156918
 20
14.95959336566083
 30
0.0
 10
194.3607225760838
 20
14.89856693195443
 30
0.0
 10
194.4492171072758
 20
14.83515804544761
 30
0.0
 10
194.5389930233111
 20
14.77525634219562
 30
0.0
 10
194.5883817636046
 20
14.72102154849211
 30
0.0
 10
194.6745708157381
 20
14.69286240541839
 30
0.0
 10
194.641126067423
 20
14.65713309652816
 30
0.0
 10
194.621467116631
 20
14.62550387991909
 30
0.0
 10
194.5919888217882
 20
14.58475872796071
 30
0.0
 10
194.5688989446031
 20
14.55504663489644
 30
0.0
 10
194.5380205968356
 20
14.50211422668493
 30
0.0
 10
194.4729193365741
 20
14.62740334938901
 30
0.0
 10
194.3796000122417
 20
14.68213900233939
 30
0.0
 10
194.2950636285139
 20
14.73916423939338
 30
0.0
 10
194.1722498125743
 20
14.89675287427518
 30
0.0
 10
194.1764450847302
 20
14.82035806766834
 30
0.0
 10
194.1751478652678
 20
14.77361280161292
 30
0.0
 10
194.1758126448077
 20
14.69584785812598
 30
0.0
 10
194.1755549986958
 20
14.5990206832442
 30
0.0
 10
194.1756431239922
 20
14.48650279078806
 30
0.0
 10
194.1756077302282
 20
14.36524085945697
 30
0.0
 10
194.175651175828
 20
14.24086897858958
 30
0.0
 10
194.1755199942406
 20
14.11967683631334
 30
0.0
 10
194.1759477562047
 20
14.0069114891974
 30
0.0
 10
194.1746678202312
 20
13.91082913768741
 30
0.0
 10
194.1779759851044
 20
13.83113826468697
 30
0.0
 10
194.1715197740087
 20
13.78815175788781
 30
0.0
 10
194.1806208705556
 20
13.7495543237204
 30
0.0
 10
194.1447910339936
 20
13.75810887724067
 30
0.0
 10
194.1115223815252
 20
13.75342519985443
 30
0.0
 10
194.0604562576042
 20
13.75351298759782
 30
0.0
 10
194.0269723972814
 20
13.75794430283818
 30
0.0
 10
193.9907585408754
 20
13.74960793842506
 30
0.0
 10
194.0009782568667
 20
13.79145277179282
 30
0.0
 10
193.9936487887773
 20
13.83778560820171
 30
0.0
 10
193.9973633136103
 20
13.92374831106011
 30
0.0
 10
193.9959480554897
 20
14.02605142704845
 30
0.0
 10
193.9964105554639
 20
14.14453223931508
 30
0.0
 10
193.9962773686231
 20
14.26957683153352
 30
0.0
 10
193.9963015910046
 20
14.39475828107046
 30
0.0
 10
193.9963354925552
 20
14.51286645379054
 30
0.0
 10
193.9962060293133
 20
14.61628748709512
 30
0.0
 10
193.9965507549082
 20
14.69932036153662
 30
0.0
 10
193.9958698278691
 20
14.75143368521239
 30
0.0
 10
193.9994586600623
 20
14.87912907821357
 30
0.0
 10
193.7826171386438
 20
14.58048716819616
 30
0.0
 10
193.6021354921949
 20
14.35263981511507
 30
0.0
 10
193.5490322295612
 20
14.49373443289817
 30
0.0
 10
193.5200429133149
 20
14.54325767560942
 30
0.0
 10
193.419664806282
 20
14.64641779790099
 30
0.0
 10
193.7405127723262
 20
14.72695035023779
 30
0.0
 10
193.8689897005429
 20
14.91066283036433
 30
0.0
 10
194.090645432536
 20
15.11931995771763
 30
0.0
 10
194.1770224894069
 20
15.29339211228343
 30
0.0
 10
194.4549394229076
 20
15.56967051342517
 30
0.0
 10
194.3346247839285
 20
15.56534559551116
 30
0.0
 10
194.286319735135
 20
15.56614856202556
 30
0.0
 10
194.2102377454905
 20
15.56574582146586
 30
0.0
 10
194.1167010009752
 20
15.56590275611613
 30
0.0
 10
194.0117594788557
 20
15.56582502576226
 30
0.0
 10
193.9033887738719
 20
15.56595464378557
 30
0.0
 10
193.7981454235898
 20
15.56554393490694
 30
0.0
 10
193.7056237819414
 20
15.56682073671594
 30
0.0
 10
193.6268130800709
 20
15.56340766534853
 30
0.0
 10
193.583967456538
 20
15.57023350036323
 30
0.0
 10
193.5449499586517
 20
15.56065064201126
 30
0.0
 10
193.5526365271865
 20
15.59420779565544
 30
0.0
 10
193.5485464404314
 20
15.62523550322234
 30
0.0
 10
193.5485531368814
 20
15.67236529270899
 30
0.0
 10
193.5526239724913
 20
15.70340941646777
 30
0.0
 10
193.5449495574583
 20
15.73701861635899
 30
0.0
 10
193.5834819405495
 20
15.72748410420869
 30
0.0
 10
193.624122801448
 20
15.73397435498068
 30
0.0
 10
193.6951471850464
 20
15.73100150650251
 30
0.0
 10
193.7729318149634
 20
15.73174761399154
 30
0.0
 10
193.8507292246476
 20
15.73247814044523
 30
0.0
 10
193.9217232089908
 20
15.72954235514157
 30
0.0
 10
193.9624279791821
 20
15.73595468772949
 30
0.0
 10
194.000985348991
 20
15.72650524176001
 30
0.0
 10
193.9927342754929
 20
15.76264692158781
 30
0.0
 10
193.9982346669358
 20
15.80129837613224
 30
0.0
 10
193.9955754206164
 20
15.86913528561837
 30
0.0
 10
193.9965815471534
 20
15.9459164153874
 30
0.0
 10
193.996017801832
 20
16.02849393582757
 30
0.0
 10
193.9970714526594
 20
16.1051732922988
 30
0.0
 10
193.994267586313
 20
16.17331990776702
 30
0.0
 10
194.0000702721306
 20
16.2113239980935
 30
0.0
 10
193.9915654551159
 20
16.2475844807765
 30
0.0
 10
194.0255610233126
 20
16.23755723771855
 30
0.0
 10
194.05945756831
 20
16.24073266813708
 30
0.0
 10
194.1126669060346
 20
16.2350896564061
 30
0.0
 10
194.1660768574483
 20
16.23434774436424
 30
0.0
 10
194.1995914649491
 20
16.22819223482978
 30
0.0
 10
194.2388086183039
 20
16.2334602977359
 30
0.0
 10
194.2120263698492
 20
16.19253380793489
 30
0.0
 10
194.1708111001724
 20
16.20371204538109
 30
0.0
 10
194.1782641540874
 20
16.15867056192121
 30
0.0
 10
194.1742227952186
 20
16.11412278028142
 30
0.0
 10
194.1761714049641
 20
16.042235726217
 30
0.0
 10
194.1752364849759
 20
15.96168630588768
 30
0.0
 10
194.1765107190031
 20
15.88173995404992
 30
0.0
 10
194.1732043793865
 20
15.8084183708318
 30
0.0
 10
194.1802106179961
 20
15.76688643002564
 30
0.0
 10
194.1701440380126
 20
15.72752418568109
 30
0.0
 10
194.2029814803922
 20
15.73468063430978
 30
0.0
 10
194.2364577296481
 20
15.7302724313794
 30
0.0
 10
194.2915053476019
 20
15.73217943347894
 30
0.0
 10
194.3489502595316
 20
15.73185366407285
 30
0.0
 10
194.402302624831
 20
15.73106308733079
 30
0.0
 10
194.439854089664
 20
15.73313959118071
 30
0.0
 10
194.4623172523237
 20
15.73022338167106
 30
0.0
 10
194.4751678073731
 20
15.73572552644052
 30
0.0
 10
194.4858255685889
 20
15.73801118197787
 30
0.0
 10
194.4986635650144
 20
15.74494972588049
 30
0.0
 10
194.514599103307
 20
15.72853046313667
 30
0.0
 10
194.5410623920892
 20
15.71709122319444
 30
0.0
 10
194.5726805253758
 20
15.69644687835186
 30
0.0
 10
194.5987255892151
 20
15.68116869628289
 30
0.0
 10
194.6128517723973
 20
15.6726697632318
 30
0.0
 10
194.6170254148479
 20
15.67015871511023
 30
0.0
 11
194.6170254148479
 21
15.67015871511023
 31
0.0
 11
194.6049990002243
 21
15.65473571164186
 31
0.0
 11
194.5848961795565
 21
15.64337406233915
 31
0.0
 11
194.4778986355813
 21
15.42440620231157
 31
0.0
 11
194.3477039934325
 21
15.2131720151216
 31
0.0
 11
194.1996540366071
 21
15.01206059027481
 31
0.0
 11
194.2734958253735
 21
14.96147384935381
 31
0.0
 11
194.36056643118
 21
14.89988411653741
 31
0.0
 11
194.4518003750405
 21
14.83413160594427
 31
0.0
 11
194.5381321779688
 21
14.77105653169306
 31
0.0
 11
194.6104963609787
 21
14.71749910790245
 31
0.0
 11
194.6598274450843
 21
14.6802995486911
 31
0.0
 11
194.6486940702213
 21
14.66471410869499
 31
0.0
 11
194.6221452532403
 21
14.62754882870427
 31
0.0
 11
194.5904579555533
 21
14.58319026871534
 31
0.0
 11
194.5639091385723
 21
14.54602498872462
 31
0.0
 11
194.5527757637093
 21
14.53043954872851
 31
0.0
 11
194.4807013362948
 21
14.59754008690618
 31
0.0
 11
194.3852856985382
 21
14.6799335417467
 31
0.0
 11
194.279326415217
 21
14.76785017366916
 31
0.0
 11
194.1756210511091
 21
14.85152024309264
 31
0.0
 11
194.1756210511091
 21
14.8330468790086
 31
0.0
 11
194.1756210511091
 21
14.78162102763952
 31
0.0
 11
194.1756210511091
 21
14.70323405030996
 31
0.0
 11
194.1756210511091
 21
14.60387730834446
 31
0.0
 11
194.1756210511091
 21
14.48954216306757
 31
0.0
 11
194.1756210511091
 21
14.36621997580386
 31
0.0
 11
194.1756210511091
 21
14.23990210787787
 31
0.0
 11
194.1756210511091
 21
14.11657992061416
 31
0.0
 11
194.1756210511091
 21
14.00224477533727
 31
0.0
 11
194.1756210511091
 21
13.90288803337177
 31
0.0
 11
194.1756210511091
 21
13.82450105604221
 31
0.0
 11
194.1756210511091
 21
13.77307520467313
 31
0.0
 11
194.1756210511091
 21
13.75460184058909
 31
0.0
 11
194.1569720893627
 21
13.75460184058909
 31
0.0
 11
194.112501488275
 21
13.75460184058909
 31
0.0
 11
194.0594236740737
 21
13.75460184058909
 31
0.0
 11
194.014953072986
 21
13.75460184058909
 31
0.0
 11
193.9963041112396
 21
13.75460184058909
 31
0.0
 11
193.9963041112396
 21
13.77486797460216
 31
0.0
 11
193.9963041112396
 21
13.83089787452064
 31
0.0
 11
193.9963041112396
 21
13.91553878716344
 31
0.0
 11
193.9963041112396
 21
14.0216379593495
 31
0.0
 11
193.9963041112396
 21
14.14204263789772
 31
0.0
 11
193.9963041112396
 21
14.26960006962702
 31
0.0
 11
193.9963041112396
 21
14.39715750135632
 31
0.0
 11
193.9963041112396
 21
14.51756217990454
 31
0.0
 11
193.9963041112396
 21
14.6236613520906
 31
0.0
 11
193.9963041112396
 21
14.7083022647334
 31
0.0
 11
193.9963041112396
 21
14.76433216465188
 31
0.0
 11
193.9963041112396
 21
14.78459829866495
 31
0.0
 11
193.7883272849482
 21
14.59331998274053
 31
0.0
 11
193.5763486358425
 21
14.43414885430809
 31
0.0
 11
193.5495629014483
 21
14.48814671952096
 31
0.0
 11
193.5138765415024
 21
14.54689140572027
 31
0.0
 11
193.4799697494124
 21
14.59192871537971
 31
0.0
 11
193.6830287742319
 21
14.73563387201052
 31
0.0
 11
193.881853195826
 21
14.91168423529988
 31
0.0
 11
194.0677041444179
 21
15.1132751452495
 31
0.0
 11
194.2318427502304
 21
15.3336019418611
 31
0.0
 11
194.3655301434865
 21
15.56585996513638
 31
0.0
 11
194.3465256724482
 21
15.56585996513638
 31
0.0
 11
194.2944166389563
 21
15.56585996513638
 31
0.0
 11
194.2165596124448
 21
15.56585996513638
 31
0.0
 11
194.1203111623479
 21
15.56585996513638
 31
0.0
 11
194.0130278580998
 21
15.56585996513638
 31
0.0
 11
193.9020662691346
 21
15.56585996513638
 31
0.0
 11
193.7947829648865
 21
15.56585996513638
 31
0.0
 11
193.6985345147896
 21
15.56585996513638
 31
0.0
 11
193.6206774882781
 21
15.56585996513638
 31
0.0
 11
193.5685684547861
 21
15.56585996513638
 31
0.0
 11
193.5495639837479
 21
15.56585996513638
 31
0.0
 11
193.5495639837479
 21
15.58311199790984
 31
0.0
 11
193.5495639837479
 21
15.62425146067732
 31
0.0
 11
193.5495639837479
 21
15.67335340010948
 31
0.0
 11
193.5495639837479
 21
15.71449286287696
 31
0.0
 11
193.5495639837479
 21
15.73174489565042
 31
0.0
 11
193.5687598486011
 21
15.73174489565042
 31
0.0
 11
193.6193671286684
 21
15.73174489565042
 31
0.0
 11
193.6909153522121
 21
15.73174489565042
 31
0.0
 11
193.7729340474937
 21
15.73174489565042
 31
0.0
 11
193.8549527427755
 21
15.73174489565042
 31
0.0
 11
193.926500966319
 21
15.73174489565042
 31
0.0
 11
193.9771082463865
 21
15.73174489565042
 31
0.0
 11
193.9963041112396
 21
15.73174489565042
 31
0.0
 11
193.9963041112396
 21
15.74926552655215
 31
0.0
 11
193.9963041112396
 21
15.79622081736879
 31
0.0
 11
193.9963041112396
 21
15.86420086526752
 31
0.0
 11
193.9963041112396
 21
15.94479576741549
 31
0.0
 11
193.9963041112396
 21
16.02959562097987
 31
0.0
 11
193.9963041112396
 21
16.11019052312784
 31
0.0
 11
193.9963041112396
 21
16.17817057102656
 31
0.0
 11
193.9963041112396
 21
16.22512586184321
 31
0.0
 11
193.9963041112396
 21
16.24264649274494
 31
0.0
 11
194.0135484112112
 21
16.24165806167522
 31
0.0
 11
194.0566591611401
 21
16.23918698400093
 31
0.0
 11
194.1127031360478
 21
16.23597458302436
 31
0.0
 11
194.1687471109554
 21
16.23276218204779
 31
0.0
 11
194.2118578608843
 21
16.2302911043735
 31
0.0
 11
194.2291021608559
 21
16.22930267330378
 31
0.0
 11
194.2143774674852
 21
16.20556293372642
 31
0.0
 11
194.1756210511091
 21
16.1918376733131
 31
0.0
 11
194.1756210511091
 21
16.1720680617729
 31
0.0
 11
194.1756210511091
 21
16.11994817680331
 31
0.0
 11
194.1756210511091
 21
16.04626144288077
 31
0.0
 11
194.1756210511091
 21
15.96179128448176
 31
0.0
 11
194.1756210511091
 21
15.87732112608275
 31
0.0
 11
194.1756210511091
 21
15.80363439216021
 31
0.0
 11
194.1756210511091
 21
15.75151450719061
 31
0.0
 11
194.1756210511091
 21
15.73174489565042
 31
0.0
 11
194.1916227112937
 21
15.73174489565042
 31
0.0
 11
194.2328901507171
 21
15.73174489565042
 31
0.0
 11
194.2893170576838
 21
15.73174489565042
 31
0.0
 11
194.3507971204982
 21
15.73174489565042
 31
0.0
 11
194.4072240274649
 21
15.73174489565042
 31
0.0
 11
194.4484914668883
 21
15.73174489565042
 31
0.0
 11
194.4644931270729
 21
15.73174489565042
 31
0.0
 11
194.4728206422925
 21
15.73451387455918
 31
0.0
 11
194.4882860277004
 21
15.73965626396114
 31
0.0
 11
194.49661354292
 21
15.7424252428699
 31
0.0
 11
194.5091363776005
 21
15.73490952398289
 31
0.0
 11
194.5389985218386
 21
15.71698742509849
 31
0.0
 11
194.5746404359293
 21
15.69559653288163
 31
0.0
 11
194.6045025801674
 21
15.67767443399724
 31
0.0
 11
194.6170254148479
 21
15.67015871511023
 31
0.0
  0
SPLINE
  5
AD
102
{ACAD_REACTORS
330
CA
102
}
330
48
100
AcDbEntity
  8
_U_30EC_U_30A4_U_30E4_U_30FC_1
  6
Continuous
 62
     2
100
AcDbSpline
210
0.0
220
0.0
230
1.0
 70
    11
 71
     3
 72
   124
 73
   120
 74
   118
 42
0.000000001
 43
0.0000000001
 44
0.00000001
 40
0.0
 40
0.0
 40
0.0
 40
0.0
 40
0.027818722962451
 40
0.1011590162384269
 40
0.2048470170590523
 40
0.3237088716559245
 40
0.4425707262522284
 40
0.5462587270700116
 40
0.6195990203312934
 40
0.6474177522579513
 40
0.675006073611613
 40
0.7357003855243771
 40
0.7963946998055558
 40
0.8239830245572921
 40
0.8540933811104299
 40
0.9373396629410411
 40
1.063094687343379
 40
1.220731268638217
 40
1.399622220914891
 40
1.589140358637876
 40
1.778658496424042
 40
1.957549448940709
 40
2.115186030873359
 40
2.240941056914635
 40
2.324187341760733
 40
2.354297700109583
 40
2.381886024672094
 40
2.44258033871069
 40
2.503274652750727
 40
2.530862977314837
 40
2.56098394927879
 40
2.640393784453136
 40
2.752662861759359
 40
2.881361560118376
 40
3.010060258455423
 40
3.12232933570557
 40
3.201739170818183
 40
3.231860142753544
 40
3.264298024030597
 40
3.352343701778463
 40
3.482095226868977
 40
3.639650650173228
 40
3.811108022565674
 40
3.982565394928169
 40
4.140120818152742
 40
4.269872343141443
 40
4.3579180208025
 40
4.390355902044125
 40
4.423256253992695
 40
4.508104530073216
 40
4.624121560636984
 40
4.75052817603174
 40
4.866545206602187
 40
4.951393482692144
 40
4.984293834645546
 40
5.011450833242459
 40
5.071196230152236
 40
5.130941627057306
 40
5.158098625648969
 40
5.19099897760166
 40
5.275847253689485
 40
5.391864284256919
 40
5.518270899648464
 40
5.634287930209504
 40
5.719136206288177
 40
5.752036558236065
 40
5.782130946283092
 40
5.862783906229272
 40
5.97955013177515
 40
6.117984316640565
 40
6.263641154588123
 40
6.402075339414339
 40
6.518841564908143
 40
6.599494524815731
 40
6.629588912848972
 40
6.654403028226549
 40
6.713575149488345
 40
6.78419993932972
 40
6.843372060493822
 40
6.868186175803068
 40
6.896246243202174
 40
6.939586233758626
 40
6.967846564565257
 40
7.043584251090199
 40
7.153234334452061
 40
7.283231855734818
 40
7.420011856035857
 40
7.550009376580216
 40
7.659659458835621
 40
7.735397144417617
 40
7.763657474851791
 40
7.796409728011448
 40
7.880876065096751
 40
7.996370852466137
 40
8.122208446419032
 40
8.237703224799683
 40
8.322169562011377
 40
8.35492181520639
 40
8.38207881330817
 40
8.441824209207468
 40
8.501569605240611
 40
8.528726603486186
 40
8.561478856696207
 40
8.645945193878285
 40
8.761439980865825
 40
8.887277580765025
 40
9.002772362001517
 40
9.087238696661766
 40
9.11999094923622
 40
9.152428830613916
 40
9.240474508639128
 40
9.370226034150072
 40
9.527781457984942
 40
9.69923883098192
 40
9.8706962039791
 40
10.02825162781451
 40
10.15800315332612
 40
10.24604883135166
 40
10.27848670378569
 40
10.27848670378569
 40
10.27848670378569
 40
10.27848670378569
 10
195.3821827564383
 20
14.01410517385762
 30
0.0
 10
195.3914554737523
 20
14.01410498511279
 30
0.0
 10
195.425174453686
 20
14.01410430876719
 30
0.0
 10
195.4934706812465
 20
14.01411807243309
 30
0.0
 10
195.592014171158
 20
14.0140322421955
 30
0.0
 10
195.7062066464812
 20
14.01441755612255
 30
0.0
 10
195.8185894417071
 20
14.0130083589755
 30
0.0
 10
195.9214376600119
 20
14.01719117422248
 30
0.0
 10
195.980683987485
 20
14.00823089251987
 30
0.0
 10
196.0371265937034
 20
14.02164434526066
 30
0.0
 10
196.0246255586956
 20
13.97087198613364
 30
0.0
 10
196.0329549635704
 20
13.92589320939071
 30
0.0
 10
196.0248170841121
 20
13.88056752990491
 30
0.0
 10
196.0370529214457
 20
13.82931932408467
 30
0.0
 10
195.9747773490334
 20
13.84447955365278
 30
0.0
 10
195.9060513026869
 20
13.83359750710744
 30
0.0
 10
195.7782756749592
 20
13.83911304747974
 30
0.0
 10
195.6262984511643
 20
13.837008512537
 30
0.0
 10
195.4502695972523
 20
13.83771002588476
 30
0.0
 10
195.2644431934287
 20
13.83745237531293
 30
0.0
 10
195.0786167437175
 20
13.83771005144606
 30
0.0
 10
194.9025880142169
 20
13.83700841847733
 30
0.0
 10
194.7506104154194
 20
13.83911332229991
 30
0.0
 10
194.6228357664554
 20
13.83359680767642
 30
0.0
 10
194.554107783658
 20
13.84448077125944
 30
0.0
 10
194.4918349042883
 20
13.82931786684211
 30
0.0
 10
194.5040616290017
 20
13.88057510805174
 30
0.0
 10
194.4960004462597
 20
13.92582473272429
 30
0.0
 10
194.5040675809893
 20
13.97106357955327
 30
0.0
 10
194.4918238487083
 20
14.02234176909962
 30
0.0
 10
194.5525017120698
 20
14.0074957736314
 30
0.0
 10
194.6162810745736
 20
14.01756448170739
 30
0.0
 10
194.7277314353502
 20
14.01294644212004
 30
0.0
 10
194.8497533443824
 20
14.01413328905473
 30
0.0
 10
194.9719538137823
 20
14.0151586390064
 30
0.0
 10
195.0829794287392
 20
14.01092475623406
 30
0.0
 10
195.1476517413958
 20
14.02018584521744
 30
0.0
 10
195.2091162810501
 20
14.00604423049687
 30
0.0
 10
195.1930065601337
 20
14.07235527884521
 30
0.0
 10
195.2042980327358
 20
14.1444779012198
 30
0.0
 10
195.198740082256
 20
14.27513760888289
 30
0.0
 10
195.2008035061691
 20
14.42607323708243
 30
0.0
 10
195.2000167127295
 20
14.59335873107887
 30
0.0
 10
195.2007845215628
 20
14.76061110332303
 30
0.0
 10
195.1988038785628
 20
14.91163289269914
 30
0.0
 10
195.2041306156621
 20
15.04206069552994
 30
0.0
 10
195.1933101388425
 20
15.11465442605897
 30
0.0
 10
195.2090326429875
 20
15.18150469436796
 30
0.0
 10
195.143270813249
 20
15.16580512490822
 30
0.0
 10
195.0756367830764
 20
15.17609243083993
 30
0.0
 10
194.9615885293809
 20
15.1711378684712
 30
0.0
 10
194.8451242674902
 20
15.17414128030472
 30
0.0
 10
194.7306554121477
 20
15.16880303143387
 30
0.0
 10
194.6640324657812
 20
15.18001268074822
 30
0.0
 10
194.5990769715185
 20
15.16349132665009
 30
0.0
 10
194.6107989758707
 20
15.21473720477056
 30
0.0
 10
194.6032830189121
 20
15.25950333784088
 30
0.0
 10
194.6107989878835
 20
15.30426944897957
 30
0.0
 10
194.5990769505347
 20
15.35551536129737
 30
0.0
 10
194.66403263392
 20
15.3389938176681
 30
0.0
 10
194.7306533339822
 20
15.3502057137394
 30
0.0
 10
194.8451352858063
 20
15.3448543671066
 30
0.0
 10
194.9615454436962
 20
15.34791188771113
 30
0.0
 10
195.0757660174641
 20
15.34278499010704
 30
0.0
 10
195.1430150439226
 20
15.35345733355594
 30
0.0
 10
195.2083325941438
 20
15.33742082669073
 30
0.0
 10
195.1941391448552
 20
15.39949685750049
 30
0.0
 10
195.2036059462995
 20
15.4658676162876
 30
0.0
 10
195.1990269004085
 20
15.58239972741964
 30
0.0
 10
195.2007696555948
 20
15.71426685022375
 30
0.0
 10
195.1997551495391
 20
15.85615960150273
 30
0.0
 10
195.2017191344373
 20
15.98769050702581
 30
0.0
 10
195.1964668553851
 20
16.10524577283004
 30
0.0
 10
195.2073408763475
 20
16.16947789001586
 30
0.0
 10
195.1919536641853
 20
16.2310880254505
 30
0.0
 10
195.2407591537801
 20
16.21702407382113
 30
0.0
 10
195.2853995564726
 20
16.21954742075316
 30
0.0
 10
195.3538643946743
 20
16.21512797401712
 30
0.0
 10
195.3959106169104
 20
16.20613025544037
 30
0.0
 10
195.4487544758776
 20
16.21411714866512
 30
0.0
 10
195.4207035002014
 20
16.17113917611672
 30
0.0
 10
195.3749142248594
 20
16.18259552043839
 30
0.0
 10
195.3869539073265
 20
16.12173520005136
 30
0.0
 10
195.3796086070641
 20
16.05769299468772
 30
0.0
 10
195.3831195826161
 20
15.94909368863909
 30
0.0
 10
195.3819806760173
 20
15.82494319144752
 30
0.0
 10
195.3819174780262
 20
15.69189719829875
 30
0.0
 10
195.3832872966868
 20
15.56797381249553
 30
0.0
 10
195.3791638801314
 20
15.45868337849335
 30
0.0
 10
195.3877763103564
 20
15.39608580094166
 30
0.0
 10
195.3746757454401
 20
15.33740133296362
 30
0.0
 10
195.4393884328198
 20
15.35362113810898
 30
0.0
 10
195.5060405953155
 20
15.34270260383308
 30
0.0
 10
195.6198779541103
 20
15.34793740173752
 30
0.0
 10
195.7357259122097
 20
15.34485547516909
 30
0.0
 10
195.8496924263281
 20
15.35018259812508
 30
0.0
 10
195.9160341018101
 20
15.33904208166539
 30
0.0
 10
195.9807188525481
 20
15.35546979593174
 30
0.0
 10
195.9689820772723
 20
15.30425925210047
 30
0.0
 10
195.9765168063042
 20
15.25950334120998
 30
0.0
 10
195.9689820992258
 20
15.21474739010024
 30
0.0
 10
195.9807188140738
 20
15.16353690871039
 30
0.0
 10
195.9160344075252
 20
15.17996427794218
 30
0.0
 10
195.8496886430826
 20
15.16882784447267
 30
0.0
 10
195.7357459487013
 20
15.17413115893118
 30
0.0
 10
195.6197995623055
 20
15.17114764593542
 30
0.0
 10
195.5062756882122
 20
15.17606892268391
 30
0.0
 10
195.4389231318805
 20
15.16585087513518
 30
0.0
 10
195.3734285122495
 20
15.18145996138813
 30
0.0
 10
195.3891713619218
 20
15.11463851827409
 30
0.0
 10
195.3783275998212
 20
15.04207057815877
 30
0.0
 10
195.3836581629793
 20
14.91162247614416
 30
0.0
 10
195.3817136151854
 20
14.76064558185225
 30
0.0
 10
195.3823133683215
 20
14.5932224393416
 30
0.0
 10
195.3821506559604
 20
14.42656176118374
 30
0.0
 10
195.3821895488136
 20
14.2736014292164
 30
0.0
 10
195.3821816413098
 20
14.14849178985709
 30
0.0
 10
195.3821828382745
 20
14.06507890991424
 30
0.0
 10
195.3821827716208
 20
14.02491778281981
 30
0.0
 10
195.3821827564383
 20
14.01410517385762
 30
0.0
 11
195.3821827564383
 21
14.01410517385762
 31
0.0
 11
195.4100014883675
 21
14.01410517385762
 31
0.0
 11
195.4833417816353
 21
14.01410517385762
 31
0.0
 11
195.5870297824623
 21
14.01410517385762
 31
0.0
 11
195.7058916370687
 21
14.01410517385762
 31
0.0
 11
195.8247534916752
 21
14.01410517385762
 31
0.0
 11
195.9284414925021
 21
14.01410517385762
 31
0.0
 11
196.0017817857699
 21
14.01410517385762
 31
0.0
 11
196.0296005176991
 21
14.01410517385762
 31
0.0
 11
196.0296005176991
 21
13.98651684921174
 31
0.0
 11
196.0296005176991
 21
13.9258225349908
 31
0.0
 11
196.0296005176991
 21
13.86512822076987
 31
0.0
 11
196.0296005176991
 21
13.83753989612399
 31
0.0
 11
195.9994901593494
 21
13.83753989612399
 31
0.0
 11
195.9162438745005
 21
13.83753989612399
 31
0.0
 11
195.7904888484522
 21
13.83753989612399
 31
0.0
 11
195.6328522665042
 21
13.83753989612399
 31
0.0
 11
195.4539613139565
 21
13.83753989612399
 31
0.0
 11
195.2644431761089
 21
13.83753989612399
 31
0.0
 11
195.0749250382613
 21
13.83753989612399
 31
0.0
 11
194.8960340857136
 21
13.83753989612399
 31
0.0
 11
194.7383975037656
 21
13.83753989612399
 31
0.0
 11
194.6126424777173
 21
13.83753989612399
 31
0.0
 11
194.5293961928683
 21
13.83753989612399
 31
0.0
 11
194.4992858345187
 21
13.83753989612399
 31
0.0
 11
194.4992858345187
 21
13.86512822076987
 31
0.0
 11
194.4992858345187
 21
13.9258225349908
 31
0.0
 11
194.4992858345187
 21
13.98651684921174
 31
0.0
 11
194.4992858345187
 21
14.01410517385762
 31
0.0
 11
194.5294068064947
 21
14.01410517385762
 31
0.0
 11
194.608816641704
 21
14.01410517385762
 31
0.0
 11
194.721085719069
 21
14.01410517385762
 31
0.0
 11
194.8497844175118
 21
14.01410517385762
 31
0.0
 11
194.9784831159545
 21
14.01410517385762
 31
0.0
 11
195.0907521933195
 21
14.01410517385762
 31
0.0
 11
195.1701620285289
 21
14.01410517385762
 31
0.0
 11
195.2002830005048
 21
14.01410517385762
 31
0.0
 11
195.2002830005048
 21
14.0465430552384
 31
0.0
 11
195.2002830005048
 21
14.13458873327194
 31
0.0
 11
195.2002830005048
 21
14.26434025879506
 31
0.0
 11
195.2002830005048
 21
14.42189568264456
 31
0.0
 11
195.2002830005048
 21
14.59335305565725
 31
0.0
 11
195.2002830005048
 21
14.76481042866994
 31
0.0
 11
195.2002830005048
 21
14.92236585251944
 31
0.0
 11
195.2002830005048
 21
15.05211737804256
 31
0.0
 11
195.2002830005048
 21
15.1401630560761
 31
0.0
 11
195.2002830005048
 21
15.17260093745688
 31
0.0
 11
195.1673826485529
 21
15.17260093745688
 31
0.0
 11
195.0825343724662
 21
15.17260093745688
 31
0.0
 11
194.9665173418988
 21
15.17260093745688
 31
0.0
 11
194.8401107265044
 21
15.17260093745688
 31
0.0
 11
194.724093695937
 21
15.17260093745688
 31
0.0
 11
194.6392454198503
 21
15.17260093745688
 31
0.0
 11
194.6063450678984
 21
15.17260093745688
 31
0.0
 11
194.6063450678984
 21
15.199757936148
 31
0.0
 11
194.6063450678984
 21
15.25950333326847
 31
0.0
 11
194.6063450678984
 21
15.31924873038894
 31
0.0
 11
194.6063450678984
 21
15.34640572908006
 31
0.0
 11
194.6392454198504
 21
15.34640572908006
 31
0.0
 11
194.724093695937
 21
15.34640572908006
 31
0.0
 11
194.8401107265044
 21
15.34640572908006
 31
0.0
 11
194.9665173418988
 21
15.34640572908006
 31
0.0
 11
195.0825343724662
 21
15.34640572908006
 31
0.0
 11
195.1673826485529
 21
15.34640572908006
 31
0.0
 11
195.2002830005048
 21
15.34640572908006
 31
0.0
 11
195.2002830005048
 21
15.37650011731366
 31
0.0
 11
195.2002830005048
 21
15.4571530777797
 31
0.0
 11
195.2002830005048
 21
15.57391930412607
 31
0.0
 11
195.2002830005048
 21
15.71235349000062
 31
0.0
 11
195.2002830005048
 21
15.85801032905124
 31
0.0
 11
195.2002830005048
 21
15.99644451492579
 31
0.0
 11
195.2002830005048
 21
16.11321074127216
 31
0.0
 11
195.2002830005048
 21
16.1938637017382
 31
0.0
 11
195.2002830005048
 21
16.2239580899718
 31
0.0
 11
195.2250405288618
 21
16.22228324219444
 31
0.0
 11
195.284077711867
 21
16.21828937441768
 31
0.0
 11
195.3545414464215
 21
16.21352249997443
 31
0.0
 11
195.4135786294266
 21
16.20952863219766
 31
0.0
 11
195.4383361577836
 21
16.20785378442031
 31
0.0
 11
195.4233067224031
 21
16.1841581420651
 31
0.0
 11
195.3821827564383
 21
16.17047697887404
 31
0.0
 11
195.3821827564383
 21
16.14221664794832
 31
0.0
 11
195.3821827564383
 21
16.06647896106739
 31
0.0
 11
195.3821827564383
 21
15.9568288770756
 31
0.0
 11
195.3821827564383
 21
15.82683135481729
 31
0.0
 11
195.3821827564383
 21
15.69005135313681
 31
0.0
 11
195.3821827564383
 21
15.5600538308785
 31
0.0
 11
195.3821827564383
 21
15.45040374688671
 31
0.0
 11
195.3821827564383
 21
15.37466606000578
 31
0.0
 11
195.3821827564383
 21
15.34640572908006
 31
0.0
 11
195.4149350096115
 21
15.34640572908006
 31
0.0
 11
195.4994013467423
 21
15.34640572908006
 31
0.0
 11
195.6148961342477
 21
15.34640572908006
 31
0.0
 11
195.7407337385445
 21
15.34640572908006
 31
0.0
 11
195.8562285260499
 21
15.34640572908006
 31
0.0
 11
195.9406948631807
 21
15.34640572908006
 31
0.0
 11
195.9734471163539
 21
15.34640572908006
 31
0.0
 11
195.9734471163539
 21
15.31924873038894
 31
0.0
 11
195.9734471163539
 21
15.25950333326847
 31
0.0
 11
195.9734471163539
 21
15.199757936148
 31
0.0
 11
195.9734471163539
 21
15.17260093745688
 31
0.0
 11
195.9406948631807
 21
15.17260093745688
 31
0.0
 11
195.8562285260499
 21
15.17260093745688
 31
0.0
 11
195.7407337385446
 21
15.17260093745688
 31
0.0
 11
195.6148961342476
 21
15.17260093745688
 31
0.0
 11
195.4994013467423
 21
15.17260093745688
 31
0.0
 11
195.4149350096114
 21
15.17260093745688
 31
0.0
 11
195.3821827564383
 21
15.17260093745688
 31
0.0
 11
195.3821827564383
 21
15.1401630560761
 31
0.0
 11
195.3821827564383
 21
15.05211737804256
 31
0.0
 11
195.3821827564383
 21
14.92236585251944
 31
0.0
 11
195.3821827564383
 21
14.76481042866994
 31
0.0
 11
195.3821827564383
 21
14.59335305565725
 31
0.0
 11
195.3821827564383
 21
14.42189568264456
 31
0.0
 11
195.3821827564383
 21
14.26434025879506
 31
0.0
 11
195.3821827564383
 21
14.13458873327194
 31
0.0
 11
195.3821827564383
 21
14.0465430552384
 31
0.0
 11
195.3821827564383
 21
14.01410517385762
 31
0.0
  0
SPLINE
  5
AE
102
{ACAD_REACTORS
330
CB
102
}
330
48
100
AcDbEntity
  8
_U_30EC_U_30A4_U_30E4_U_30FC_1
  6
Continuous
 62
     2
100
AcDbSpline
210
0.0
220
0.0
230
1.0
 70
     8
 71
     3
 72
    62
 73
    58
 74
    56
 42
0.000000001
 43
0.0000000001
 44
0.00000001
 40
0.0
 40
0.0
 40
0.0
 40
0.0
 40
0.0598250028308769
 40
0.20248464868979
 40
0.3727558389221599
 40
0.5154154847936923
 40
0.5752404975786476
 40
0.9332326775488671
 40
1.290451762839624
 40
1.602077253145995
 40
1.699931634112232
 40
1.799359756425133
 40
2.270120149657143
 40
2.804661928461575
 40
2.882342287383288
 40
3.076543185719135
 40
3.329004354835595
 40
3.581465524568419
 40
3.775666424543701
 40
3.853346784558321
 40
3.899120679595095
 40
3.984129341792121
 40
4.029903236817498
 40
4.105797496059655
 40
4.295533144152618
 40
4.542189486611861
 40
4.788845828875813
 40
4.978581476410197
 40
5.054475735244441
 40
5.621734664339473
 40
6.130867242037522
 40
6.225249780948722
 40
6.318913039727464
 40
6.663579954559101
 40
7.047498900224979
 40
7.435230791575953
 40
7.498943906668365
 40
7.650875181210387
 40
7.832212509001926
 40
7.98414378369734
 40
8.047856898903497
 40
8.091554632732986
 40
8.172707566964615
 40
8.216405300768322
 40
8.289021782161207
 40
8.46218416075758
 40
8.668861838005661
 40
8.842024215264253
 40
8.914640695475448
 40
8.98988158086167
 40
9.155411528827617
 40
9.32094147774444
 40
9.396182352487708
 40
9.454709011144255
 40
9.58346766017119
 40
9.712226309013468
 40
9.770752957989922
 40
9.770752957989922
 40
9.770752957989922
 40
9.770752957989922
 10
187.1521871691834
 20
14.93980288195951
 30
0.0
 10
187.1322348171624
 20
14.93980875568672
 30
0.0
 10
187.0647037716466
 20
14.93982863806159
 30
0.0
 10
186.9410612161789
 20
14.93949362520326
 30
0.0
 10
186.7863180150056
 20
14.94107673750513
 30
0.0
 10
186.669734948248
 20
14.93686078860496
 30
0.0
 10
186.4550942634239
 20
14.95215205331627
 30
0.0
 10
186.8518948407229
 20
14.59198721286193
 30
0.0
 10
186.8945656069268
 20
14.37510503397165
 30
0.0
 10
187.318916214661
 20
14.19325062511449
 30
0.0
 10
187.1439821496075
 20
14.0898519656807
 30
0.0
 10
187.0194523925082
 20
13.87831523212735
 30
0.0
 10
186.7666277235944
 20
14.34806081001557
 30
0.0
 10
186.4797602893626
 20
14.99511516984523
 30
0.0
 10
186.4906335926662
 20
14.68782672154696
 30
0.0
 10
186.4882892777959
 20
14.5228861697178
 30
0.0
 10
186.4861096126412
 20
14.28879670711696
 30
0.0
 10
186.4980774396348
 20
14.04498072421786
 30
0.0
 10
186.4687984740631
 20
13.89855796860987
 30
0.0
 10
186.5114522625471
 20
13.75113490174541
 30
0.0
 10
186.423981400564
 20
13.76685797306224
 30
0.0
 10
186.3768527606744
 20
13.76694303543457
 30
0.0
 10
186.2898973207713
 20
13.75109425482912
 30
0.0
 10
186.3313474021721
 20
13.89527771422765
 30
0.0
 10
186.3029875004285
 20
14.03855052698459
 30
0.0
 10
186.31459737753
 20
14.27674947365268
 30
0.0
 10
186.3124175648272
 20
14.5051723524035
 30
0.0
 10
186.3103111127994
 20
14.66705729375999
 30
0.0
 10
186.3208035438323
 20
14.98153709333756
 30
0.0
 10
186.0128963252894
 20
14.29229470872437
 30
0.0
 10
185.7055258267455
 20
13.81476750243045
 30
0.0
 10
185.5851367066275
 20
14.03741112637427
 30
0.0
 10
185.4074607910721
 20
14.15011034955559
 30
0.0
 10
185.8853326362894
 20
14.32548143465464
 30
0.0
 10
185.9353959057208
 20
14.56091929252032
 30
0.0
 10
186.3583799621719
 20
14.95322989344608
 30
0.0
 10
186.1276754273541
 20
14.93655307029066
 30
0.0
 10
186.0049685859343
 20
14.94269518948773
 30
0.0
 10
185.8325483095661
 20
14.93312822699574
 30
0.0
 10
185.721322469445
 20
14.95448818489667
 30
0.0
 10
185.6025779627447
 20
14.92136265357419
 30
0.0
 10
185.6183169706686
 20
15.00203900606882
 30
0.0
 10
185.6178550933762
 20
15.04645414290851
 30
0.0
 10
185.6027881889931
 20
15.12967081778528
 30
0.0
 10
185.7372380935443
 20
15.09062651983877
 30
0.0
 10
185.8619755545747
 20
15.11739729328417
 30
0.0
 10
186.062875523728
 20
15.10063949044047
 30
0.0
 10
186.1921540949352
 20
15.12204225912998
 30
0.0
 10
186.3328419928295
 20
15.08868778853415
 30
0.0
 10
186.2980927452614
 20
15.22651875785066
 30
0.0
 10
186.3222185666713
 20
15.34963257349481
 30
0.0
 10
186.2967086182392
 20
15.47024055670339
 30
0.0
 10
186.3333251146684
 20
15.60539865141501
 30
0.0
 10
186.221141702777
 20
15.58094545781897
 30
0.0
 10
186.1280356457137
 20
15.59307749842028
 30
0.0
 10
186.0191547579819
 20
15.58957630069999
 30
0.0
 10
185.9569697640964
 20
15.58981755951609
 30
0.0
 10
185.9375369557246
 20
15.5898929512415
 30
0.0
 11
187.1521871691834
 21
14.93980288195951
 31
0.0
 11
187.0923621563983
 21
14.93980288195951
 31
0.0
 11
186.949702510526
 21
14.93980288195951
 31
0.0
 11
186.7794313202914
 21
14.93980288195951
 31
0.0
 11
186.6367716744192
 21
14.93980288195951
 31
0.0
 11
186.576946661634
 21
14.93980288195951
 31
0.0
 11
186.7679960754843
 21
14.6370512796689
 31
0.0
 11
186.994127278563
 21
14.36051890576683
 31
0.0
 11
187.2244526173371
 21
14.15061253493457
 31
0.0
 11
187.1521596330704
 21
14.08466403668716
 31
0.0
 11
187.0879364402643
 21
14.00876059052564
 31
0.0
 11
186.7732818215558
 21
14.35891458349363
 31
0.0
 11
186.4886640249977
 21
14.81138295143603
 31
0.0
 11
186.4886640249977
 21
14.73370259137315
 31
0.0
 11
186.4886640249977
 21
14.53950169121595
 31
0.0
 11
186.4886640249977
 21
14.28704052101159
 31
0.0
 11
186.4886640249977
 21
14.03457935080723
 31
0.0
 11
186.4886640249977
 21
13.84037845065003
 31
0.0
 11
186.4886640249977
 21
13.76269809058715
 31
0.0
 11
186.4428901295606
 21
13.76269809058715
 31
0.0
 11
186.3578814666058
 21
13.76269809058715
 31
0.0
 11
186.3121075711687
 21
13.76269809058715
 31
0.0
 11
186.3121075711687
 21
13.83859234982743
 31
0.0
 11
186.3121075711687
 21
14.02832799792815
 31
0.0
 11
186.3121075711687
 21
14.27498434045907
 31
0.0
 11
186.3121075711687
 21
14.52164068299
 31
0.0
 11
186.3121075711687
 21
14.7113763310907
 31
0.0
 11
186.3121075711687
 21
14.78727059033099
 31
0.0
 11
185.9987626399267
 21
14.31440946197694
 31
0.0
 11
185.6352328662148
 21
13.9579517710938
 31
0.0
 11
185.5773927461628
 21
14.03253450545019
 31
0.0
 11
185.5094852305341
 21
14.0970432293924
 31
0.0
 11
185.7750721898319
 21
14.3167221979589
 31
0.0
 11
186.0233764972061
 21
14.60953395971699
 31
0.0
 11
186.2264982805261
 21
14.93980288195951
 31
0.0
 11
186.1627851652722
 21
14.93980288195951
 31
0.0
 11
186.010853890436
 21
14.93980288195951
 31
0.0
 11
185.8295165624056
 21
14.93980288195951
 31
0.0
 11
185.6775852875693
 21
14.93980288195951
 31
0.0
 11
185.6138721723154
 21
14.93980288195951
 31
0.0
 11
185.6138721723154
 21
14.98350061600208
 31
0.0
 11
185.6138721723154
 21
15.06465355065255
 31
0.0
 11
185.6138721723154
 21
15.10835128469512
 31
0.0
 11
185.6864886537961
 21
15.10835128469512
 31
0.0
 11
185.8596510327118
 21
15.10835128469512
 31
0.0
 11
186.0663287107723
 21
15.10835128469512
 31
0.0
 11
186.239491089688
 21
15.10835128469512
 31
0.0
 11
186.3121075711687
 21
15.10835128469512
 31
0.0
 11
186.3121075711687
 21
15.18359217009299
 31
0.0
 11
186.3121075711687
 21
15.34912211796831
 31
0.0
 11
186.3121075711687
 21
15.51465206584363
 31
0.0
 11
186.3121075711687
 21
15.5898929512415
 31
0.0
 11
186.2535809125055
 21
15.5898929512415
 31
0.0
 11
186.1248222634467
 21
15.5898929512415
 31
0.0
 11
185.9960636143877
 21
15.5898929512415
 31
0.0
 11
185.9375369557246
 21
15.5898929512415
 31
0.0
  0
SPLINE
  5
AF
102
{ACAD_REACTORS
330
CB
102
}
330
48
100
AcDbEntity
  8
_U_30EC_U_30A4_U_30E4_U_30FC_1
  6
Continuous
 62
     2
100
AcDbSpline
210
0.0
220
0.0
230
1.0
 70
     8
 71
     3
 72
    70
 73
    66
 74
    64
 42
0.000000001
 43
0.0000000001
 44
0.00000001
 40
0.0
 40
0.0
 40
0.0
 40
0.0
 40
0.0241731073021472
 40
0.0846058988986729
 40
0.1631685280352999
 40
0.2417311571788903
 40
0.3021639488291898
 40
0.3263370654894688
 40
0.3533118254248011
 40
0.4228783438921205
 40
0.5179999095312425
 40
0.6216398239465072
 40
0.7167613891498604
 40
0.7863279069648726
 40
0.8133026791760664
 40
0.8372943998770507
 40
0.8945054261371712
 40
0.9627895541961775
 40
1.020000580349045
 40
1.043992300975144
 40
1.071934345522883
 40
1.113121768772827
 40
1.145225199332144
 40
1.225483775412665
 40
1.329819923771356
 40
1.434156071994224
 40
1.51441464779563
 40
1.546518078208232
 40
1.578974764260034
 40
1.662678849313972
 40
1.777131373668193
 40
1.901833377474584
 40
2.016285900500345
 40
2.099989982527684
 40
2.132446666570043
 40
2.158782354485766
 40
2.216720867907557
 40
2.274659381333977
 40
2.300995069255912
 40
2.333451754065885
 40
2.417155836543537
 40
2.531608358984976
 40
2.656310362283471
 40
2.770762886388575
 40
2.854466971339712
 40
2.886923657363519
 40
2.913597976832958
 40
2.982389642874778
 40
3.076451716946663
 40
3.178937260458302
 40
3.272999334739729
 40
3.341791001058968
 40
3.368465320663284
 40
3.396976080738534
 40
3.472140811845741
 40
3.578408190308431
 40
3.700226892455896
 40
3.822045594634113
 40
3.92831297325622
 40
4.003477705314617
 40
4.031988456866682
 40
4.058324144797472
 40
4.116262658236612
 40
4.174201171400388
 40
4.200536849608313
 40
4.200536849608313
 40
4.200536849608313
 40
4.200536849608313
 10
185.985770496161
 20
15.75844135397711
 30
0.0
 10
185.993825954468
 20
15.75844359811693
 30
0.0
 10
186.0220200663241
 20
15.75845146032804
 30
0.0
 10
186.0765534803674
 20
15.75830754828377
 30
0.0
 10
186.1482891808604
 20
15.75909120499904
 30
0.0
 10
186.2236240137062
 20
15.75627570463817
 30
0.0
 10
186.2713052366439
 20
15.76298403400963
 30
0.0
 10
186.3195071245616
 20
15.75197563692439
 30
0.0
 10
186.3062571799873
 20
15.80546402997039
 30
0.0
 10
186.3151093964538
 20
15.86049583543097
 30
0.0
 10
186.3108698036285
 20
15.95419908726114
 30
0.0
 10
186.313348348128
 20
16.04959482218536
 30
0.0
 10
186.309093870606
 20
16.14356821983391
 30
0.0
 10
186.3179818665846
 20
16.19795062438015
 30
0.0
 10
186.3046977409945
 20
16.25233997691463
 30
0.0
 10
186.3514119277108
 20
16.2384221633536
 30
0.0
 10
186.3943254545736
 20
16.24103877374043
 30
0.0
 10
186.4605443456686
 20
16.23648422450753
 30
0.0
 10
186.5013342271799
 20
16.22778162134161
 30
0.0
 10
186.5525145690819
 20
16.2353179989019
 30
0.0
 10
186.52537204872
 20
16.19349970223294
 30
0.0
 10
186.4803096055708
 20
16.20284992072589
 30
0.0
 10
186.4942065045051
 20
16.13841207371838
 30
0.0
 10
186.4858414431655
 20
16.07378219627398
 30
0.0
 10
186.4903632178399
 20
15.97529141193889
 30
0.0
 10
186.4854741311169
 20
15.87595932842574
 30
0.0
 10
186.4950258992081
 20
15.81293115552973
 30
0.0
 10
186.4799761455201
 20
15.74964011499793
 30
0.0
 10
186.5449159457209
 20
15.76515072944275
 30
0.0
 10
186.6116246399498
 20
15.75499387697819
 30
0.0
 10
186.7241435470828
 20
15.75988800099373
 30
0.0
 10
186.8390235448954
 20
15.7569120473279
 30
0.0
 10
186.9519871999746
 20
15.76221664184997
 30
0.0
 10
187.0176267597678
 20
15.75107306472095
 30
0.0
 10
187.0816276691053
 20
15.76744532319863
 30
0.0
 10
187.0703142889189
 20
15.71761689905281
 30
0.0
 10
187.0775339871509
 20
15.67416715212128
 30
0.0
 10
187.0703142611269
 20
15.63071745587451
 30
0.0
 10
187.0816277175994
 20
15.58088895196882
 30
0.0
 10
187.0176263598972
 20
15.59726166091368
 30
0.0
 10
186.951992124046
 20
15.58611271661594
 30
0.0
 10
186.838997431733
 20
15.5914485720686
 30
0.0
 10
186.7242456548643
 20
15.58834345663827
 30
0.0
 10
186.6113183686861
 20
15.59364894682595
 30
0.0
 10
186.5455220903585
 20
15.58257300019599
 30
0.0
 10
186.4816097975359
 20
15.59887597847624
 30
0.0
 10
186.4936015165127
 20
15.54423524395746
 30
0.0
 10
186.4862104613006
 20
15.48854295047845
 30
0.0
 10
186.4892684841984
 20
15.39649689140572
 30
0.0
 10
186.4893422785685
 20
15.301791098731
 30
0.0
 10
186.486031357836
 20
15.20952782902262
 30
0.0
 10
186.4939505989904
 20
15.15435768736135
 30
0.0
 10
186.4815076611618
 20
15.1005816910013
 30
0.0
 10
186.5389116551632
 20
15.11453768862775
 30
0.0
 10
186.5994708140384
 20
15.10511457884222
 30
0.0
 10
186.7048680855082
 20
15.10942885928699
 30
0.0
 10
186.8204294070624
 20
15.10835504612027
 30
0.0
 10
186.9359688877798
 20
15.10725965900989
 30
0.0
 10
187.0414181130843
 20
15.11162525770628
 30
0.0
 10
187.1018680471805
 20
15.10209426030666
 30
0.0
 10
187.1592837739111
 20
15.11617289606374
 30
0.0
 10
187.147777387671
 20
15.06707153265679
 30
0.0
 10
187.153756678175
 20
15.02564658018647
 30
0.0
 10
187.1520311050803
 20
14.97651677966696
 30
0.0
 10
187.1521500122972
 20
14.94854428447609
 30
0.0
 10
187.1521871691834
 20
14.93980288195951
 30
0.0
 11
185.985770496161
 21
15.75844135397711
 31
0.0
 11
186.0099436128282
 21
15.75844135397711
 31
0.0
 11
186.0703764044963
 21
15.75844135397711
 31
0.0
 11
186.1489390336649
 21
15.75844135397711
 31
0.0
 11
186.2275016628334
 21
15.75844135397711
 31
0.0
 11
186.2879344545015
 21
15.75844135397711
 31
0.0
 11
186.3121075711687
 21
15.75844135397711
 31
0.0
 11
186.3121075711687
 21
15.78541612620069
 31
0.0
 11
186.3121075711687
 21
15.85498264404044
 31
0.0
 11
186.3121075711687
 21
15.9501042092499
 31
0.0
 11
186.3121075711687
 21
16.0537441235826
 31
0.0
 11
186.3121075711687
 21
16.14886568879206
 31
0.0
 11
186.3121075711687
 21
16.21843220663181
 31
0.0
 11
186.3121075711687
 21
16.24540697885539
 31
0.0
 11
186.3360407604892
 21
16.24373213107802
 31
0.0
 11
186.3931122119458
 21
16.23973826330122
 31
0.0
 11
186.4612297507811
 21
16.23497138885795
 31
0.0
 11
186.5183012022377
 21
16.23097752108115
 31
0.0
 11
186.5422343915582
 21
16.22930267330378
 31
0.0
 11
186.5274972731229
 21
16.20556293372642
 31
0.0
 11
186.4886640249977
 21
16.1918376733131
 31
0.0
 11
186.4886640249977
 21
16.15973424225117
 31
0.0
 11
186.4886640249977
 21
16.07947566459636
 31
0.0
 11
186.4886640249977
 21
15.9751395136451
 31
0.0
 11
186.4886640249977
 21
15.87080336269385
 31
0.0
 11
186.4886640249977
 21
15.79054478503904
 31
0.0
 11
186.4886640249977
 21
15.75844135397711
 31
0.0
 11
186.5211207110825
 21
15.75844135397711
 31
0.0
 11
186.6048247962486
 21
15.75844135397711
 31
0.0
 11
186.7192773208635
 21
15.75844135397711
 31
0.0
 11
186.8439793252946
 21
15.75844135397711
 31
0.0
 11
186.9584318499095
 21
15.75844135397711
 31
0.0
 11
187.0421359350756
 21
15.75844135397711
 31
0.0
 11
187.0745926211604
 21
15.75844135397711
 31
0.0
 11
187.0745926211604
 21
15.73210566604967
 31
0.0
 11
187.0745926211604
 21
15.6741671526093
 31
0.0
 11
187.0745926211604
 21
15.61622863916894
 31
0.0
 11
187.0745926211604
 21
15.5898929512415
 31
0.0
 11
187.0421359350756
 21
15.5898929512415
 31
0.0
 11
186.9584318499095
 21
15.5898929512415
 31
0.0
 11
186.8439793252946
 21
15.5898929512415
 31
0.0
 11
186.7192773208635
 21
15.5898929512415
 31
0.0
 11
186.6048247962486
 21
15.5898929512415
 31
0.0
 11
186.5211207110825
 21
15.5898929512415
 31
0.0
 11
186.4886640249977
 21
15.5898929512415
 31
0.0
 11
186.4886640249977
 21
15.56321863152027
 31
0.0
 11
186.4886640249977
 21
15.49442696487079
 31
0.0
 11
186.4886640249977
 21
15.40036489006436
 31
0.0
 11
186.4886640249977
 21
15.29787934587227
 31
0.0
 11
186.4886640249977
 21
15.20381727106583
 31
0.0
 11
186.4886640249977
 21
15.13502560441635
 31
0.0
 11
186.4886640249977
 21
15.10835128469512
 31
0.0
 11
186.5171747850994
 21
15.10835128469512
 31
0.0
 11
186.5923395162767
 21
15.10835128469512
 31
0.0
 11
186.6986068948377
 21
15.10835128469512
 31
0.0
 11
186.8204255970905
 21
15.10835128469512
 31
0.0
 11
186.9422442993434
 21
15.10835128469512
 31
0.0
 11
187.0485116779044
 21
15.10835128469512
 31
0.0
 11
187.1236764090817
 21
15.10835128469512
 31
0.0
 11
187.1521871691834
 21
15.10835128469512
 31
0.0
 11
187.1521871691834
 21
15.08201559676768
 31
0.0
 11
187.1521871691834
 21
15.02407708332731
 31
0.0
 11
187.1521871691834
 21
14.96613856988695
 31
0.0
 11
187.1521871691834
 21
14.93980288195951
 31
0.0
  0
SPLINE
  5
B0
102
{ACAD_REACTORS
330
CB
102
}
330
48
100
AcDbEntity
  8
_U_30EC_U_30A4_U_30E4_U_30FC_1
  6
Continuous
 62
     2
100
AcDbSpline
210
0.0
220
0.0
230
1.0
 70
     8
 71
     3
 72
    24
 73
    20
 74
    18
 42
0.000000001
 43
0.0000000001
 44
0.00000001
 40
0.0
 40
0.0
 40
0.0
 40
0.0
 40
0.221107500875407
 40
0.4273218586246078
 40
0.5080174679240277
 40
0.5914835907871121
 40
0.8143265690193733
 40
1.054651302686699
 40
1.295452694023296
 40
1.518109231328953
 40
1.540864321905569
 40
1.595126460622833
 40
1.659890947896149
 40
1.71415308518751
 40
1.736908174961811
 40
1.764951100735476
 40
1.801562291221124
 40
1.953914424543777
 40
2.126104167379754
 40
2.126104167379754
 40
2.126104167379754
 40
2.126104167379754
 10
185.9375369556889
 20
15.5898929511302
 30
0.0
 10
185.9112579081812
 20
15.53097628234378
 30
0.0
 10
185.8604698894424
 20
15.41711139679259
 30
0.0
 10
185.8131784839112
 20
15.14441958233107
 30
0.0
 10
185.7043482802618
 20
15.24445482575455
 30
0.0
 10
185.5514800279637
 20
15.27118593367328
 30
0.0
 10
185.7686155181199
 20
15.48518135017633
 30
0.0
 10
185.7838483674381
 20
15.70332117782488
 30
0.0
 10
185.8906889492
 20
15.88451579066427
 30
0.0
 10
185.8305380947078
 20
16.16913226311406
 30
0.0
 10
185.9334317395402
 20
16.14114089222453
 30
0.0
 10
185.9779933468149
 20
16.132432516023
 30
0.0
 10
186.0380842395397
 20
16.12139654183356
 30
0.0
 10
186.0756619587438
 20
16.10767523055557
 30
0.0
 10
186.1252466928606
 20
16.10756076160222
 30
0.0
 10
186.0930158919326
 20
16.07306592398616
 30
0.0
 10
186.017180222188
 20
16.08404104537963
 30
0.0
 10
186.0429447159694
 20
15.8985896958245
 30
0.0
 10
186.005589676385
 20
15.80702313549592
 30
0.0
 10
185.985770496161
 20
15.75844135397711
 30
0.0
 11
185.9375369556889
 21
15.5898929511302
 31
0.0
 11
185.8616471328552
 21
15.38221708318561
 31
0.0
 11
185.7717402238433
 21
15.19663392356188
 31
0.0
 11
185.701149392311
 21
15.2357327256355
 31
0.0
 11
185.6245525192651
 21
15.26889163187718
 31
0.0
 11
185.7214026947455
 21
15.46958801203538
 31
0.0
 11
185.7994641467471
 21
15.69688163177025
 31
0.0
 11
185.858971692972
 21
15.93021436608694
 31
0.0
 11
185.9001601511226
 21
16.14902808999057
 31
0.0
 11
185.9224183822214
 21
16.14429889221397
 31
0.0
 11
185.975495702534
 21
16.13302157443901
 31
0.0
 11
186.0388460525844
 21
16.11956154999792
 31
0.0
 11
186.091923372897
 21
16.10828423222295
 31
0.0
 11
186.1141816039958
 21
16.10355503444635
 31
0.0
 11
186.0964097157461
 21
16.08186250841006
 31
0.0
 11
186.0606122998071
 21
16.07418628445362
 31
0.0
 11
186.028195330148
 21
15.9253228817131
 31
0.0
 11
185.985770496161
 21
15.75844135397711
 31
0.0
  0
LWPOLYLINE
  5
B1
102
{ACAD_REACTORS
330
CC
102
}
330
48
100
AcDbEntity
  8
_U_30EC_U_30A4_U_30E4_U_30FC_1
  6
Continuous
 62
     2
100
AcDbPolyline
 90
        5
 70
     1
 43
0.0
 10
191.1602971697031
 20
15.39722336795626
 10
192.4578138032672
 20
15.39722336795626
 10
192.4578138032672
 20
15.22875434022058
 10
191.1602971697031
 20
15.22875434022058
 10
191.1602971697031
 20
15.39722336795626
  0
MTEXT
  5
B3
330
48
100
AcDbEntity
  8
1
 62
   250
100
AcDbMText
 10
25.0
 20
5.0
 30
0.0
 40
3.5
 41
0.0
 71
     4
 72
     1
  1
備考欄の文字列 原点位置=4
  7
CONVERTER_11
 73
     1
 44
0.54545454545455
  0
MTEXT
  5
B4
330
48
100
AcDbEntity
  8
1
 62
     2
100
AcDbMText
 10
89.5
 20
24.0
 30
0.0
 40
3.5
 41
0.0
 71
     5
 72
     1
  1
尺度
  7
CONVERTER_11
 73
     1
 44
0.54545454545455
  0
MTEXT
  5
B5
330
48
100
AcDbEntity
  8
1
 62
     2
100
AcDbMText
 10
135.5
 20
25.0
 30
0.0
 40
3.0
 41
0.0
 71
     5
 72
     1
  1
製図
  7
CONVERTER_11
 73
     1
 44
0.59090909090909
  0
MTEXT
  5
B6
330
48
100
AcDbEntity
  8
1
 62
     2
100
AcDbMText
 10
152.5
 20
25.0
 30
0.0
 40
3.0
 41
0.0
 71
     5
 72
     1
  1
設計
  7
CONVERTER_11
 73
     1
 44
0.59090909090909
  0
MTEXT
  5
B7
330
48
100
AcDbEntity
  8
1
 62
     2
100
AcDbMText
 10
118.5
 20
25.0
 30
0.0
 40
3.0
 41
0.0
 71
     5
 72
     1
  1
検図
  7
CONVERTER_11
 73
     1
 44
0.59090909090909
  0
MTEXT
  5
B8
330
48
100
AcDbEntity
  8
1
 62
     2
100
AcDbMText
 10
175.0
 20
23.5
 30
0.0
 40
3.5
 41
0.0
 71
     5
 72
     1
  1
第三角法
  7
CONVERTER_11
 73
     1
 44
0.54545454545455
  0
MTEXT
  5
B9
330
48
100
AcDbEntity
  8
1
 62
     2
100
AcDbMText
 10
101.5
 20
25.0
 30
0.0
 40
3.0
 41
0.0
 71
     5
 72
     1
  1
承認
  7
CONVERTER_11
 73
     1
 44
0.59090909090909
  0
MTEXT
  5
BA
330
48
100
AcDbEntity
  8
1
 62
     2
100
AcDbMText
 10
29.0
 20
14.25
 30
0.0
 40
3.5
 41
0.0
 71
     5
 72
     1
  1
品番
  7
CONVERTER_11
 73
     1
 44
0.72727272727273
  0
MTEXT
  5
BB
330
48
100
AcDbEntity
  8
1
 62
     2
100
AcDbMText
 10
29.0
 20
22.75
 30
0.0
 40
3.5
 41
0.0
 71
     5
 72
     1
  1
品名
  7
CONVERTER_11
 73
     1
 44
0.72727272727273
  0
MTEXT
  5
BC
330
48
100
AcDbEntity
  8
1
 62
     2
100
AcDbMText
 10
29.0
 20
34.0
 30
0.0
 40
3.5
 41
0.0
 71
     5
 72
     1
  1
備考
  7
CONVERTER_11
 73
     1
 44
0.45454545454545
  0
MTEXT
  5
BD
330
48
100
AcDbEntity
  8
1
 62
     2
100
AcDbMText
 10
32.5
 20
282.0000000000003
 30
0.0
 40
5.0
 41
0.0
 71
     5
 72
     1
  1
図番
  7
CONVERTER_11
 73
     1
 44
0.45454545454545
  0
HATCH
  5
BE
330
48
100
AcDbEntity
  8
1
  6
Continuous
 62
     2
100
AcDbHatch
 10
0.0
 20
0.0
 30
0.0
210
0.0
220
0.0
230
1.0
  2
CUSTOM0
 70
     0
 71
     1
 91
        1
 92
        1
 93
        1
 72
     4
 94
        3
 73
     0
 74
     0
 95
       99
 96
       95
 40
0.0
 40
0.0
 40
0.0
 40
0.0
 40
0.0796417172271953
 40
0.1621768542355997
 40
0.2486489160957691
 40
0.3404969668524909
 40
0.4381912511164918
 40
0.5434463660245216
 40
0.6518115192846667
 40
0.7530190937886156
 40
0.8492196919724538
 40
0.941929031299796
 40
1.034249663569964
 40
1.129078600620163
 40
1.226697027573238
 40
1.327220425421637
 40
1.470572134937989
 40
1.595489863371209
 40
1.71993412534835
 40
1.850576620127324
 40
1.989059629987297
 40
2.134139054226895
 40
2.280698007207178
 40
2.424529739039397
 40
2.565929576985801
 40
2.708239260773444
 40
2.861717887443624
 40
3.045168540347327
 40
3.183798301138587
 40
3.314813961455396
 40
3.442083470447259
 40
3.569912708372961
 40
3.702177512509329
 40
3.842307559659542
 40
3.992872223245948
 40
4.156750662218252
 40
4.310981861107472
 40
4.445859909322516
 40
4.572393936131545
 40
4.701656719782022
 40
4.768279086008474
 40
4.83596069789844
 40
4.912788918729369
 40
5.006285208481582
 40
5.02690947875163
 40
5.047533749021138
 40
5.101808031471199
 40
5.16232516553857
 40
5.226919745995828
 40
5.294231806596764
 40
5.364544852554871
 40
5.438319055467922
 40
5.517877651324209
 40
5.607647714861578
 40
5.700449642544396
 40
5.788251142364064
 40
5.872714706039725
 40
5.95516729257525
 40
6.037192395190353
 40
6.120669181469141
 40
6.206848616686324
 40
6.296680855416721
 40
6.442558392872571
 40
6.568190371608253
 40
6.692904567360321
 40
6.824220446557064
 40
6.963121850329288
 40
7.10784373885109
 40
7.253431663907231
 40
7.395187468036676
 40
7.533140753237705
 40
7.670550457175218
 40
7.816236511769164
 40
7.987691657359107
 40
8.142277421969201
 40
8.293662615414977
 40
8.442962460879208
 40
8.591598316185191
 40
8.743678992361726
 40
8.903725323699145
 40
9.076307008890462
 40
9.265578604680545
 40
9.45920379536072
 40
9.617619810273503
 40
9.75360967136184
 40
9.87487330000396
 40
9.954520184977657
 40
10.0241641371923
 40
10.09769764405431
 40
10.18909955924965
 40
10.20974586420132
 40
10.2303921826338
 40
10.30057101881268
 40
10.37632012987549
 40
10.37632012987549
 40
10.37632012987549
 40
10.37632012987549
 10
170.1465954835851
 20
14.1379566321599
 10
170.1632217851219
 20
14.11720608845311
 10
170.1970784206578
 20
14.07495111711901
 10
170.2599822541038
 20
14.02029811392082
 10
170.3332500940393
 20
13.97299025121047
 10
170.4175969238636
 20
13.93527231437936
 10
170.5132240615461
 20
13.91040619731951
 10
170.6171853775347
 20
13.90309559345939
 10
170.7224020220405
 20
13.91142322794053
 10
170.8206626371333
 20
13.94149179651524
 10
170.9058986427549
 20
13.98848822971874
 10
170.9779220206102
 20
14.04952991250861
 10
171.0350917709096
 20
14.12412969578583
 10
171.076786874744
 20
14.2100246466017
 10
171.1026952846293
 20
14.3048585043221
 10
171.1118037332652
 20
14.41854979038366
 10
171.0986864796487
 20
14.54332587770777
 10
171.0325330334415
 20
14.66014719171894
 10
170.9369370919568
 20
14.74512539577368
 10
170.824968102237
 20
14.81416684459174
 10
170.6993659583269
 20
14.87204142045887
 10
170.5656691620856
 20
14.92373723284333
 10
170.4313122818831
 20
14.97899092397181
 10
170.3051983986878
 20
15.04939770641653
 10
170.1926579987535
 20
15.13785540731244
 10
170.0969963064459
 20
15.24981067868475
 10
170.0334157151825
 20
15.39949910101379
 10
170.0200706505015
 20
15.55932794385141
 10
170.0320510987448
 20
15.71048405306845
 10
170.071229892884
 20
15.83809244591537
 10
170.135498775091
 20
15.95080874030844
 10
170.2238204999741
 20
16.04648609268676
 10
170.3338091207628
 20
16.12354214985754
 10
170.4632284401266
 20
16.1815139693628
 10
170.6111838967794
 20
16.21739177588826
 10
170.7682069455486
 20
16.22746719050566
 10
170.917494046643
 20
16.21863637762594
 10
171.059625361417
 20
16.19074899340356
 10
171.1595922609625
 20
16.1341331470114
 10
171.3125074736186
 20
16.08674602105503
 10
171.2455131717168
 20
16.00197553001185
 10
171.229647912027
 20
15.93438901873482
 10
171.1978750531297
 20
15.86926092793188
 10
171.2150202209571
 20
15.76723453256953
 10
171.1666427208232
 20
15.774932116819
 10
171.1315789440766
 20
15.76806771724808
 10
171.1296697985719
 20
15.83263831158198
 10
171.0985692931989
 20
15.87825639621392
 10
171.0664551628456
 20
15.93561036628462
 10
171.0208038475168
 20
15.98540462692556
 10
170.9658508218387
 20
16.02994813718997
 10
170.9010841173007
 20
16.06763988836541
 10
170.8232377310597
 20
16.09283375791352
 10
170.7355160553352
 20
16.09931230998107
 10
170.6452903277807
 20
16.09235709285605
 10
170.5594594694065
 20
16.06909190460922
 10
170.4828343638597
 20
16.03131644107543
 10
170.4165265636201
 20
15.98051641089584
 10
170.3622560536965
 20
15.91731143407205
 10
170.3224925345459
 20
15.84276455710368
 10
170.2976775510588
 20
15.75917313997763
 10
170.2892124262871
 20
15.65192948382287
 10
170.3019697987103
 20
15.52965457267558
 10
170.3681548409274
 20
15.41149724291216
 10
170.4640977399832
 20
15.32606325709524
 10
170.5757914963182
 20
15.25583362306721
 10
170.7010863668703
 20
15.19659162305308
 10
170.8349823941447
 20
15.14616708086129
 10
170.968993033315
 20
15.09322516984378
 10
171.0950885316915
 20
15.02750170625184
 10
171.2076216638418
 20
14.9448035253732
 10
171.3031370284232
 20
14.83996006310069
 10
171.3672706486963
 20
14.69937117251572
 10
171.3811103725278
 20
14.54065409451594
 10
171.367395471223
 20
14.38153155217876
 10
171.3244739153985
 20
14.23483828819209
 10
171.2545906329065
 20
14.10119796587145
 10
171.157459221383
 20
13.98532387699289
 10
171.0347806023658
 20
13.89089981770089
 10
170.8874408413168
 20
13.82179270651979
 10
170.7177132497125
 20
13.77953210858852
 10
170.5317404979597
 20
13.76781736230406
 10
170.3528955926183
 20
13.77809486683437
 10
170.1881733753743
 20
13.8196657376915
 10
170.0834410841056
 20
13.88797642883939
 10
169.9350960790367
 20
13.93675219032105
 10
169.998037819473
 20
14.0297659129084
 10
170.0072274430059
 20
14.10296536248278
 10
170.0303711301232
 20
14.16936294501346
 10
170.0034588335316
 20
14.26974809527587
 10
170.052133895634
 20
14.26234033517383
 10
170.0916530580697
 20
14.268940636209
 10
170.0996204944702
 20
14.19078703218933
 10
170.1305436967923
 20
14.15600927375854
 10
170.1465954835851
 20
14.1379566321599
 97
        1
330
A0
 75
     1
 76
     2
 52
45.0
 41
0.1
 77
     0
 78
     1
 53
45.0
 43
0.0
 44
0.0
 45
-0.282842712474619
 46
0.0
 79
     0
 98
        1
 10
0.0
 20
0.0
  0
HATCH
  5
BF
330
48
100
AcDbEntity
  8
1
  6
Continuous
 62
     2
100
AcDbHatch
 10
0.0
 20
0.0
 30
0.0
210
0.0
220
0.0
230
1.0
  2
CUSTOM1
 70
     0
 71
     1
 91
        2
 92
        1
 93
        1
 72
     4
 94
        3
 73
     0
 74
     0
 95
       57
 96
       53
 40
0.0
 40
0.0
 40
0.0
 40
0.0
 40
0.0471632082808605
 40
0.0914861054632091
 40
0.1357762519702043
 40
0.1826527001609769
 40
0.2295203288571962
 40
0.2737751972219563
 40
0.3181310461542724
 40
0.3652607198398385
 40
0.4571007286313559
 40
0.5671851029164131
 40
0.6894623283867696
 40
0.8181758272545665
 40
0.9510087229273539
 40
1.085852229674054
 40
1.218126164475275
 40
1.343545131142317
 40
1.454537202956734
 40
1.567187607530657
 40
1.680710966642305
 40
1.79422686973664
 40
1.900009184247468
 40
2.00408586044772
 40
2.108162674451635
 40
2.214000150155237
 40
2.496038577352016
 40
2.762350745479163
 40
2.997275353279326
 40
3.185110082137608
 40
3.246407890063773
 40
3.312607550212561
 40
3.378877742711378
 40
3.440140399651312
 40
4.100501696006326
 40
4.754913085563424
 40
5.411331693423743
 40
6.077890432568561
 40
6.110575292670839
 40
6.143260152775619
 40
6.367989363395032
 40
6.610525374951474
 40
6.863389136467203
 40
7.11938002554753
 40
7.376036605091009
 40
7.631164770966198
 40
7.876722425456352
 40
8.104953735855874
 40
8.31291668592423
 40
8.497730294941151
 40
8.651018984313732
 40
8.764738853624428
 40
8.764738853624428
 40
8.764738853624428
 40
8.764738853624428
 10
174.7922649500513
 20
13.81626739612932
 10
174.7766616726931
 20
13.8182623107908
 10
174.7463947960302
 20
13.82213201360297
 10
174.7010994202253
 20
13.82341984967267
 10
174.6559553129349
 20
13.8230868355405
 10
174.60990171234
 20
13.82314658674223
 10
174.5640496172096
 20
13.82325813649999
 10
174.5183711648166
 20
13.8227783345659
 10
174.4750811541608
 20
13.8246110961872
 10
174.4039947951514
 20
13.80049556814666
 10
174.4057477261441
 20
13.92184693977249
 10
174.3586196370569
 20
14.00726239751229
 10
174.3191478251763
 20
14.1248692934514
 10
174.2706635532645
 20
14.24232752540439
 10
174.2201017402522
 20
14.36405935761513
 10
174.1718634610477
 20
14.49075967862469
 10
174.1135232947595
 20
14.59933687784955
 10
174.0980892667261
 20
14.75620657134407
 10
173.9566586330636
 20
14.72373446548328
 10
173.8508397414904
 20
14.7351288868217
 10
173.7358569725223
 20
14.73392591514618
 10
173.6253142252142
 20
14.73506945347412
 10
173.5176583522783
 20
14.73418350037529
 10
173.4121322529243
 20
14.73416602390509
 10
173.3109192682013
 20
14.72714032472419
 10
173.1266804827753
 20
14.75135859859864
 10
173.1157393685412
 20
14.44741691121888
 10
173.0087691634751
 20
14.22353177253397
 10
172.9098148604346
 20
14.03895314292496
 10
172.9225090524007
 20
13.7953020480422
 10
172.8050091716397
 20
13.82508046753195
 10
172.742205586831
 20
13.82258089509603
 10
172.67858720934
 20
13.82344075102802
 10
172.3946014194076
 20
13.78098039941977
 10
173.0251638499381
 20
14.50081952444774
 10
173.1087645289072
 20
15.01276539435734
 10
173.492925278934
 20
15.53353743550046
 10
173.4777208288563
 20
16.23519626253218
 10
173.7239265722697
 20
16.2234563308126
 10
173.8256346157561
 20
16.23225004452777
 10
173.8249752035819
 20
15.98059650730346
 10
173.9428317155828
 20
15.79818020733955
 10
174.0315515260485
 20
15.55563740662864
 10
174.1322292485259
 20
15.32340030530123
 10
174.2311142712243
 20
15.08674644566912
 10
174.3299676990669
 20
14.85461739170088
 10
174.4256166390927
 20
14.63122222788788
 10
174.5159904573272
 20
14.42272549049318
 10
174.5989944568189
 20
14.2330844852932
 10
174.6726088582799
 20
14.06663106068099
 10
174.7342815895546
 20
13.92917699626104
 10
174.7749458885604
 20
13.84999239430038
 10
174.7922649500513
 20
13.81626739612932
 97
        1
330
A1
 92
       16
 93
        1
 72
     4
 94
        3
 73
     0
 74
     0
 95
       25
 96
       21
 40
0.0
 40
0.0
 40
0.0
 40
0.0
 40
0.091147996906539
 40
0.185811789620467
 40
0.2804128399735066
 40
0.371588919071452
 40
0.4679080494219004
 40
0.5642683809230103
 40
0.6605683222645005
 40
0.7569653015810268
 40
0.8561348172522768
 40
1.0926159651043
 40
1.374867658141889
 40
1.611348812011618
 40
1.710518328425268
 40
1.809403163726585
 40
2.045205463294095
 40
2.32664691762216
 40
2.562449217190627
 40
2.661334043833948
 40
2.661334043833948
 40
2.661334043833948
 40
2.661334043833948
 10
173.2683700567199
 20
14.88614538197294
 10
173.2987525917923
 20
14.88598079714557
 10
173.3606895889112
 20
14.88564528689925
 10
173.4541356960329
 20
14.88269055452
 10
173.5475095236358
 20
14.87977752877152
 10
173.6417760753476
 20
14.87894201643411
 10
173.7354964790967
 20
14.87996644658045
 10
173.8352040303205
 20
14.8791697747098
 10
173.9188949546312
 20
14.8892141023522
 10
174.0637996315045
 20
14.86234617674167
 10
173.9396132444801
 20
15.03665530280051
 10
173.8965867286282
 20
15.19651711006094
 10
173.7808922142209
 20
15.45518458550219
 10
173.7017565431257
 20
15.59231052861861
 10
173.6431576621816
 20
15.80937033134081
 10
173.5864803939438
 20
15.59266134213432
 10
173.5052809900477
 20
15.45327012438239
 10
173.4063701281488
 20
15.20406969370198
 10
173.3253625094258
 20
15.01925830226074
 10
173.2813683325838
 20
14.91650446856119
 10
173.2683700567199
 20
14.88614538197294
 97
        1
330
A2
 75
     1
 76
     2
 52
45.0
 41
0.1
 77
     0
 78
     1
 53
45.0
 43
0.0
 44
0.0
 45
-0.282842712474619
 46
0.0
 79
     0
 98
        1
 10
0.0
 20
0.0
  0
HATCH
  5
C0
330
48
100
AcDbEntity
  8
1
  6
Continuous
 62
     2
100
AcDbHatch
 10
0.0
 20
0.0
 30
0.0
210
0.0
220
0.0
230
1.0
  2
CUSTOM2
 70
     0
 71
     1
 91
        1
 92
        1
 93
        1
 72
     4
 94
        3
 73
     0
 74
     0
 95
       95
 96
       91
 40
0.0
 40
0.0
 40
0.0
 40
0.0
 40
0.6550406656911288
 40
1.308087289031874
 40
1.420803739835751
 40
1.566130759770767
 40
1.757067341888379
 40
2.006513545026337
 40
2.087328263121444
 40
2.185328872295578
 40
2.294612454748276
 40
2.408936380534711
 40
2.526802767798474
 40
2.646360524615559
 40
2.762535723971546
 40
2.87005734287005
 40
2.966883448431518
 40
3.050803243518155
 40
3.115818222436528
 40
3.156030057150121
 40
3.213914225080102
 40
3.276689026450502
 40
3.342960320981223
 40
3.404230667150439
 40
3.4538228094932
 40
3.532499827188234
 40
3.634775188506988
 40
3.754909333007939
 40
3.889736761660472
 40
4.035769602175013
 40
4.187256681197409
 40
4.33873368567581
 40
4.488478734675932
 40
4.634708317831387
 40
4.771493189921071
 40
4.892686571561072
 40
5.19977552894429
 40
5.460353566929418
 40
5.667603142345302
 40
5.814722905404348
 40
5.828990806219646
 40
5.855488336304343
 40
5.869756237118675
 40
6.189796507762726
 40
6.531890469872985
 40
6.883053637016919
 40
7.230512024911377
 40
7.566966656764487
 40
7.885203559707325
 40
8.172887439719089
 40
8.418011594062644
 40
8.443926721190566
 40
8.510760470613057
 40
8.60214539379557
 40
8.701714041647016
 40
8.793098965075252
 40
8.859932715057827
 40
8.885847842603477
 40
9.242301256612643
 40
9.589275455016576
 40
9.921808543164028
 40
10.23479624298458
 40
10.29968150889164
 40
10.35323493887747
 40
10.40154625355131
 40
10.46482922477816
 40
10.55973900668402
 40
10.69239545985617
 40
10.84920353475668
 40
11.01626328594778
 40
11.18672024367439
 40
11.35372582577208
 40
11.50257442292425
 40
11.61866495023292
 40
11.71329869152876
 40
11.82511050573908
 40
11.94464880845711
 40
12.06929242642501
 40
12.19707290435174
 40
12.32562632860526
 40
12.45034565331273
 40
12.56646595170322
 40
12.67099007414636
 40
12.76077625936776
 40
12.82703233506691
 40
12.87429132785991
 40
12.8983199032333
 40
12.92234847860019
 40
13.53984767410325
 40
14.18294284359368
 40
14.18294284359368
 40
14.18294284359368
 40
14.18294284359368
 10
177.3067935648021
 20
14.70898038201722
 10
177.175201975855
 20
14.82265058603231
 10
176.9124193802729
 20
15.04964496316159
 10
176.3997393441022
 20
15.89214462956282
 10
176.4106654595363
 20
15.53423377577016
 10
176.4041226527991
 20
15.3926739227213
 10
176.4028026631773
 20
15.1942130529928
 10
176.4018117602538
 20
15.02150296045985
 10
176.4024101751974
 20
14.87865373257581
 10
176.4038994301882
 20
14.78265005413358
 10
176.4055683588473
 20
14.67545503263141
 10
176.4071934954618
 20
14.56164211517583
 10
176.4092429501686
 20
14.44441572604589
 10
176.4123165501927
 20
14.32656411232967
 10
176.4156339697044
 20
14.21228087320619
 10
176.4193605340281
 20
14.10521401867278
 10
176.4217338161424
 20
14.01007408766925
 10
176.4278718888357
 20
13.92558557205699
 10
176.4239784495946
 20
13.86923087298143
 10
176.4455230443079
 20
13.7982502247236
 10
176.3680940058618
 20
13.8290267760448
 10
176.3116353240191
 20
13.82011242517613
 10
176.2540495896807
 20
13.82896218398272
 10
176.1690163478474
 20
13.79738225225952
 10
176.2009714146382
 20
13.88095155992191
 10
176.1990705282538
 20
13.9488260896831
 10
176.2107960047301
 20
14.05233256764416
 10
176.2164241053
 20
14.17002125616694
 10
176.2237902178941
 20
14.3038860916442
 10
176.232075970161
 20
14.4476415287263
 10
176.2398851897428
 20
14.59714022843444
 10
176.2457571222658
 20
14.74792549402078
 10
176.2503667817969
 20
14.89699943878437
 10
176.2542632117542
 20
15.0412291316302
 10
176.2570715126564
 20
15.17583905213017
 10
176.2576698755022
 20
15.36469614347356
 10
176.261602386715
 20
15.58975494313155
 10
176.2442175378499
 20
15.86367091125705
 10
176.2850417342585
 20
16.02787112098596
 10
176.1995153256
 20
16.22749661465097
 10
176.2660558907688
 20
16.22385458403982
 10
176.283872427323
 20
16.22413447160856
 10
176.4056801797506
 20
16.2263292739862
 10
176.5080770335461
 20
15.9467511872151
 10
176.7580021509357
 20
15.74563008536
 10
176.9870035331111
 20
15.47792614987918
 10
177.2245151213108
 20
15.22646413862368
 10
177.4486090740773
 20
14.98969974061365
 10
177.6750716283009
 20
14.73218692583072
 10
177.8325687886514
 20
14.61649335056921
 10
178.0472129612675
 20
14.27997152538794
 10
178.0422645974618
 20
14.40464754091603
 10
178.0433931602545
 20
14.46327691935737
 10
178.0428877841517
 20
14.55043662371978
 10
178.0430475158113
 20
14.64416143182873
 10
178.0430054891318
 20
14.73018971297036
 10
178.0430202040372
 20
14.79153891945497
 10
178.0429706255984
 20
14.94135231520993
 10
178.045881152281
 20
15.17989612510102
 10
178.0259521041163
 20
15.544865098687
 10
178.0750433936247
 20
15.80799631993404
 10
177.9177951509182
 20
16.21928904947769
 10
178.0762112872422
 20
16.16398282551746
 10
178.1311680478629
 20
16.16199686500179
 10
178.182788776674
 20
16.1626477824825
 10
178.2713198965367
 20
16.20369527738256
 10
178.2204898303168
 20
16.05696326622986
 10
178.2313389930283
 20
15.95019971954433
 10
178.2166036994848
 20
15.79085705414111
 10
178.2099976446204
 20
15.62853061652874
 10
178.2014961399915
 20
15.45992521892395
 10
178.1943227202198
 20
15.29814814703541
 10
178.188906321539
 20
15.1542233145793
 10
178.1871713967648
 20
15.03437493466921
 10
178.1875440672318
 20
14.92686101590511
 10
178.1873656126263
 20
14.81820024645584
 10
178.187701086314
 20
14.69953570165531
 10
178.1890040622185
 20
14.57555163512742
 10
178.1908887351575
 20
14.44858294171106
 10
178.192500445485
 20
14.32153861551033
 10
178.194140313743
 20
14.1985488449218
 10
178.1962570745752
 20
14.0830093138376
 10
178.1963848422365
 20
13.98090903955838
 10
178.2006514396554
 20
13.89009848838157
 10
178.1908440085291
 20
13.83213621208788
 10
178.2118474771689
 20
13.76517130132028
 10
178.1725639739898
 20
13.77291153966687
 10
177.9595307117745
 20
13.7575525414519
 10
177.7636297943187
 20
14.31403058094466
 10
177.4611197631544
 20
14.57556035348508
 10
177.3067935648021
 20
14.70898038201722
 97
        1
330
A3
 75
     1
 76
     2
 52
45.0
 41
0.1
 77
     0
 78
     1
 53
45.0
 43
0.0
 44
0.0
 45
-0.282842712474619
 46
0.0
 79
     0
 98
        1
 10
0.0
 20
0.0
  0
HATCH
  5
C1
330
48
100
AcDbEntity
  8
1
  6
Continuous
 62
     2
100
AcDbHatch
 10
0.0
 20
0.0
 30
0.0
210
0.0
220
0.0
230
1.0
  2
CUSTOM3
 70
     0
 71
     1
 91
        1
 92
        1
 93
        1
 72
     4
 94
        3
 73
     0
 74
     0
 95
      110
 96
      106
 40
0.0
 40
0.0
 40
0.0
 40
0.0
 40
0.2203406257277625
 40
0.4407808782838392
 40
0.5952494494615385
 40
0.7488431659393389
 40
0.902358183130852
 40
1.056801968670436
 40
1.210736449099908
 40
1.363041386539729
 40
1.515315729683101
 40
1.66937723914811
 40
1.721611652756645
 40
1.773199502943055
 40
1.824933793210102
 40
1.877110426488105
 40
1.982682281206873
 40
2.078781667087654
 40
2.17280964082243
 40
2.271937807379053
 40
2.378349933379447
 40
2.494131557736721
 40
2.626681683943827
 40
2.783145050796197
 40
2.890701232941062
 40
2.993130312454943
 40
3.099869730691947
 40
3.220237816691388
 40
3.35269548273771
 40
3.481732806389938
 40
3.593499473690517
 40
3.674323013332006
 40
3.817951711952899
 40
3.946167120793868
 40
4.061405053453552
 40
4.166480796003194
 40
4.262478775059342
 40
4.350736673551185
 40
4.433071991254127
 40
4.51121629381467
 40
4.564262454117977
 40
4.618474415571594
 40
4.670128488754179
 40
4.722296879126346
 40
4.819540945314213
 40
4.931194984128066
 40
5.049996040257652
 40
5.16864375541514
 40
5.283970811762437
 40
5.392260784910291
 40
5.486512254876337
 40
5.559178233949679
 40
5.591425852853307
 40
5.626215969637705
 40
5.667155838674229
 40
5.717449290214048
 40
5.738402360944666
 40
5.784499116553646
 40
5.830595872164632
 40
5.851548942897494
 40
5.873019280661597
 40
5.92421777840812
 40
5.985325662817472
 40
6.036524160567464
 40
6.057994498333986
 40
6.236847789607313
 40
6.381409928945449
 40
6.493190424178497
 40
6.574067534230241
 40
6.691018086205307
 40
6.814881554220167
 40
6.944307823240205
 40
7.071266716065744
 40
7.193488604461586
 40
7.309042773127815
 40
7.414007203170494
 40
7.505140441886279
 40
7.531150360599438
 40
7.559221645321983
 40
7.587202218920656
 40
7.612569159498884
 40
7.662550809480773
 40
7.70287887576387
 40
7.857328205230767
 40
8.010799568088412
 40
8.165256399657334
 40
8.322232698713588
 40
8.479564855016303
 40
8.635216230290506
 40
8.790882550925481
 40
8.948305154946988
 40
9.16827183903264
 40
9.387358980986921
 40
9.60804796103315
 40
9.832914234792304
 40
9.858338694962638
 40
9.925366817229653
 40
10.02013071422724
 40
10.12876249858964
 40
10.23739428295215
 40
10.33215817995157
 40
10.39918630222361
 40
10.4246107623975
 40
10.64992019336911
 40
10.87188524531157
 40
10.87188524531157
 40
10.87188524531157
 40
10.87188524531157
 10
179.9057788376619
 20
15.73923260398192
 10
179.9092864933542
 20
15.80616462073805
 10
179.9163033987662
 20
15.94005891915861
 10
179.8198027599074
 20
16.22548554971477
 10
180.0510134726109
 20
16.16284386190283
 10
180.1919290057157
 20
16.17001554055993
 10
180.3490417757589
 20
16.16235883078246
 10
180.5025913427288
 20
16.16252752283043
 10
180.6545104935081
 20
16.16182040535433
 10
180.8142214813232
 20
16.17210158351642
 10
180.9408972601118
 20
16.1549651108075
 10
181.1370821122081
 20
16.22727260107154
 10
181.103439527908
 20
16.12640699080117
 10
181.1052011317185
 20
16.07619253947669
 10
181.1027342073459
 20
16.02712335586463
 10
181.1347076966012
 20
15.94063490846992
 10
181.0010399903256
 20
15.98997438608339
 10
180.9172208688057
 20
15.98430634314172
 10
180.8173861139325
 20
15.99465516706297
 10
180.7186576720146
 20
16.00086450411083
 10
180.612153277111
 20
16.00697763816775
 10
180.491051169806
 20
16.01588883484586
 10
180.3703381502454
 20
16.00521605912384
 10
180.1812553843438
 20
16.06468503080365
 10
180.2129028505311
 20
15.9055832007754
 10
180.1995563316835
 20
15.80839128339903
 10
180.1974958426449
 20
15.69634065110104
 10
180.1958188044671
 20
15.57699685629352
 10
180.1973336794233
 20
15.45032592155112
 10
180.195658247867
 20
15.32301588016118
 10
180.2058844271659
 20
15.22451566404465
 10
180.1779006596583
 20
15.08388702625633
 10
180.3508029999305
 20
15.13989551134096
 10
180.4645020202772
 20
15.12719951478501
 10
180.584015167224
 20
15.13448377051254
 10
180.6888491425072
 20
15.13878017056762
 10
180.7843084898612
 20
15.14330568258971
 10
180.8763823507033
 20
15.151492011462
 10
180.9476551782438
 20
15.14643850638109
 10
181.0544931705685
 20
15.18536425031667
 10
181.0226603598036
 20
15.10517122005876
 10
181.026616450393
 20
15.05562936846031
 10
181.0234502392012
 20
15.00557478039818
 10
181.0550791490585
 20
14.92128847612025
 10
180.9210133677691
 20
14.97425365495158
 10
180.8292322793201
 20
14.96540080890434
 10
180.7079729189603
 20
14.97570049965153
 10
180.5914113119772
 20
14.97748911767498
 10
180.4783375745879
 20
14.9778701710969
 10
180.3679246308471
 20
14.98415449472177
 10
180.2898124067841
 20
14.97189133255362
 10
180.1913625833645
 20
15.00453887616119
 10
180.2012355173561
 20
14.94769748054203
 10
180.1973923244402
 20
14.91392130557983
 10
180.1966789884268
 20
14.87119604709409
 10
180.1963369642975
 20
14.83401607262151
 10
180.1963834255346
 20
14.79487237370769
 10
180.1963649429927
 20
14.75716849497682
 10
180.1963703431807
 20
14.71944955232399
 10
180.1963697214201
 20
14.68994324745145
 10
180.1963698151545
 20
14.65873577699298
 10
180.1963704287921
 20
14.61414424908083
 10
180.1963671499337
 20
14.55963956508851
 10
180.196375962348
 20
14.5150554020145
 10
180.1963359653417
 20
14.43117808585741
 10
180.1976024270256
 20
14.31737520677678
 10
180.1950274117841
 20
14.16830395933707
 10
180.206500938172
 20
14.06597203813907
 10
180.1823506222264
 20
13.93338903885839
 10
180.3332993946476
 20
13.97895732272025
 10
180.4428436671556
 20
13.96427012162355
 10
180.5733970473921
 20
13.96920435125065
 10
180.6990312209513
 20
13.97257705323369
 10
180.8188730625601
 20
13.97711497498769
 10
180.9391362611427
 20
13.9904853618201
 10
181.0222761663516
 20
13.98068712782592
 10
181.1456080421075
 20
14.04126214623319
 10
181.1244269203957
 20
13.98532460134022
 10
181.1235950270116
 20
13.95939249372348
 10
181.1218963707559
 20
13.93197256190942
 10
181.1217974888829
 20
13.89738195206386
 10
181.1203659301329
 20
13.86050408220768
 10
181.1532804192192
 20
13.76846841021812
 10
180.9551306988107
 20
13.84132015974828
 10
180.830054829489
 20
13.81825726508605
 10
180.6673071295157
 20
13.82454021985784
 10
180.5129366450002
 20
13.82260943909925
 10
180.3566670436944
 20
13.82393762599266
 10
180.1970544465283
 20
13.82059872487862
 10
180.0540326342237
 20
13.83265795728238
 10
179.819714488163
 20
13.76952001976928
 10
179.9173810751197
 20
14.0562052746632
 10
179.900686878006
 20
14.24988308142662
 10
179.9146296709685
 20
14.47848242880294
 10
179.9142987846633
 20
14.63384593955046
 10
179.9143078119264
 20
14.73966336444122
 10
179.9143055876316
 20
14.80205784124211
 10
179.914306555189
 20
14.89220425248324
 10
179.9143065473262
 20
14.99621167157436
 10
179.9143053861104
 20
15.10022131375294
 10
179.9143090971502
 20
15.19036243688767
 10
179.9143011051052
 20
15.25276803097215
 10
179.9143334275019
 20
15.3586883596112
 10
179.9131440788321
 20
15.51626716544741
 10
179.9082216489257
 20
15.66528219822067
 10
179.9057788376619
 20
15.73923260398192
 97
        1
330
A4
 75
     1
 76
     2
 52
45.0
 41
0.1
 77
     0
 78
     1
 53
45.0
 43
0.0
 44
0.0
 45
-0.282842712474619
 46
0.0
 79
     0
 98
        1
 10
0.0
 20
0.0
  0
HATCH
  5
C2
330
48
100
AcDbEntity
  8
1
  6
Continuous
 62
     2
100
AcDbHatch
 10
0.0
 20
0.0
 30
0.0
210
0.0
220
0.0
230
1.0
  2
CUSTOM4
 70
     0
 71
     1
 91
        1
 92
        1
 93
        1
 72
     4
 94
        3
 73
     0
 74
     0
 95
       47
 96
       43
 40
0.0
 40
0.0
 40
0.0
 40
0.0
 40
0.2207912809956982
 40
0.4459404186303237
 40
0.4902387190459504
 40
0.5327473892722457
 40
0.5742260451226062
 40
0.6155432630561922
 40
0.6568164066316554
 40
0.6982511618780912
 40
0.7407663929317421
 40
0.7851366743175533
 40
1.010288833836395
 40
1.231080507002222
 40
1.451765243652436
 40
1.676638205891776
 40
1.720461045359747
 40
1.830018144043605
 40
1.972442372353232
 40
2.114866600677598
 40
2.224423699395216
 40
2.268246538883457
 40
2.493628801207301
 40
2.715602830286666
 40
2.93421133070646
 40
3.149502369855393
 40
3.231387784850921
 40
3.318231873853985
 40
3.405143198198001
 40
3.486970301720491
 40
3.702258172493875
 40
3.920866283534144
 40
4.142839325931903
 40
4.368221903865377
 40
4.412044743359857
 40
4.521601842095867
 40
4.664026070452342
 40
4.806450298809049
 40
4.916007397546736
 40
4.959830237043057
 40
5.184703515847144
 40
5.405387250767507
 40
5.405387250767507
 40
5.405387250767507
 40
5.405387250767507
 10
182.6507427258645
 20
15.73406440953875
 10
182.6568139420003
 20
15.79758482501212
 10
182.6690762107243
 20
15.92587938689628
 10
182.5604706879411
 20
16.20166220174087
 10
182.6761985896604
 20
16.17188133432054
 10
182.7171842509015
 20
16.16765556262822
 10
182.7591205797518
 20
16.16310446389608
 10
182.8004196625711
 20
16.16201982929487
 10
182.8417032115556
 20
16.16310338195228
 10
182.8836148270647
 20
16.16766112711345
 10
182.9245983549019
 20
16.17187430209729
 10
183.0404922843488
 20
16.20177611317546
 10
182.9295652727457
 20
15.92339806609889
 10
182.9574856365267
 20
15.74283140824956
 10
182.940426734697
 20
15.50961042346473
 10
182.9414637282102
 20
15.34906622543147
 10
182.9414099399405
 20
15.22284817558721
 10
182.941427737248
 20
15.1242896333624
 10
182.941418858108
 20
14.99280702442963
 10
182.9414263928033
 20
14.8613284496865
 10
182.9414129405129
 20
14.76276222694091
 10
182.9414531717491
 20
14.63639735624152
 10
182.9406746403818
 20
14.47482068822871
 10
182.9565958319266
 20
14.24361821892915
 10
182.9333468885408
 20
14.05874351972004
 10
183.0360183444365
 20
13.78935602770069
 10
182.8820238362837
 20
13.82660112685814
 10
182.8004129802833
 20
13.82137994680534
 10
182.7188192292583
 20
13.82660620378348
 10
182.5648513666842
 20
13.78937069885396
 10
182.6674183421918
 20
14.0587512986288
 10
182.6442045316088
 20
14.24361585325416
 10
182.6600444655139
 20
14.47482218565639
 10
182.6593296313428
 20
14.63639712308503
 10
182.6593664569907
 20
14.76276231210521
 10
182.6593549000271
 20
14.86132756635982
 10
182.6593575019215
 20
14.9928112741722
 10
182.6593648531779
 20
15.12427548031199
 10
182.6593442541352
 20
15.22287786275325
 10
182.6594082192029
 20
15.34896149354428
 10
182.6581733947591
 20
15.51210091383773
 10
182.6532040396745
 20
15.66054183777553
 10
182.6507427258645
 20
15.73406440953875
 97
        1
330
A5
 75
     1
 76
     2
 52
45.0
 41
0.1
 77
     0
 78
     1
 53
45.0
 43
0.0
 44
0.0
 45
-0.282842712474619
 46
0.0
 79
     0
 98
        1
 10
0.0
 20
0.0
  0
HATCH
  5
C3
330
48
100
AcDbEntity
  8
1
  6
Continuous
 62
     2
100
AcDbHatch
 10
0.0
 20
0.0
 30
0.0
210
0.0
220
0.0
230
1.0
  2
CUSTOM5
 70
     0
 71
     1
 91
        1
 92
        1
 93
        1
 72
     4
 94
        3
 73
     0
 74
     0
 95
      118
 96
      114
 40
0.0
 40
0.0
 40
0.0
 40
0.0
 40
0.1054708162973092
 40
0.2466098270051496
 40
0.3965912874590742
 40
0.5285525069753572
 40
0.6156245055641841
 40
0.6431434105797054
 40
0.7036850037985486
 40
0.7642265984503627
 40
0.791745505235383
 40
0.9287404319988657
 40
1.106572819087883
 40
1.287544879680835
 40
1.317578308030352
 40
1.399928030856987
 40
1.522968204799759
 40
1.675072986590377
 40
1.844616533180449
 40
2.019973001638511
 40
2.189516548879817
 40
2.341621331585154
 40
2.464661506320286
 40
2.547011229646848
 40
2.577044658167812
 40
2.603797890892883
 40
2.662655002908627
 40
2.721512114949495
 40
2.748265347702675
 40
2.77421530734475
 40
2.845959313407078
 40
2.954338556588274
 40
3.090194227585447
 40
3.244367517100405
 40
3.407699615844157
 40
3.571031714539298
 40
3.72520500391997
 40
3.861060674729465
 40
3.969439917716153
 40
4.041183923628825
 40
4.067133883212817
 40
4.31188674601202
 40
4.54789725833537
 40
4.764747083043829
 40
4.952749679951618
 40
5.04577297419575
 40
5.13786201964478
 40
5.330543169792793
 40
5.553448265243776
 40
5.795083855887967
 40
6.043293412177071
 40
6.285761695541046
 40
6.313902908752558
 40
6.384255941793148
 40
6.475714884766736
 40
6.567173827758827
 40
6.637526860839634
 40
6.665668074073997
 40
6.692018920327955
 40
6.749990782070991
 40
6.807962643790322
 40
6.834313490017783
 40
6.856393084245061
 40
6.913335195649685
 40
6.991194817302349
 40
7.07602694228361
 40
7.1538865637251
 40
7.210828674844683
 40
7.232908268931018
 40
7.258199334923543
 40
7.324875781592199
 40
7.419142481924869
 40
7.527204308841824
 40
7.635266135230417
 40
7.729532834168417
 40
7.796209279292746
 40
7.821500344594696
 40
7.844652988850767
 40
7.899863140541547
 40
7.965759128053715
 40
8.020969279771
 40
8.044121924046467
 40
8.069356610160497
 40
8.109134395441224
 40
8.132238100190936
 40
8.193147867786305
 40
8.279261678876484
 40
8.377977512673702
 40
8.47669334714649
 40
8.56280716041155
 40
8.623716930826337
 40
8.646820636853292
 40
8.671988793774105
 40
8.734909185827988
 40
8.816705695188702
 40
8.898502204815273
 40
8.961422597377734
 40
8.986590754550846
 40
9.012941600732987
 40
9.070913462380036
 40
9.128885324081496
 40
9.155236170324802
 40
9.180404327928844
 40
9.243324721947918
 40
9.325121234211682
 40
9.406917746637337
 40
9.469838141977792
 40
9.495006288270567
 40
9.517811184378713
 40
9.57219209048673
 40
9.637098333280976
 40
9.691479239515193
 40
9.714284125643237
 40
9.714284125643237
 40
9.714284125643237
 40
9.714284125643237
 10
185.2874469028654
 20
15.26889163187718
 10
185.3090990569039
 20
15.2411186924281
 10
185.3597257109473
 20
15.17618054561232
 10
185.4349383202593
 20
15.06891060312897
 10
185.5248482274345
 20
14.9537743826662
 10
185.5709169676674
 20
14.85357045748315
 10
185.6655825294654
 20
14.78434006814937
 10
185.6204439320413
 20
14.73771639678271
 10
185.594704778579
 20
14.69660308866038
 10
185.5645196708012
 20
14.66065971727942
 10
185.5193684730561
 20
14.58579782596098
 10
185.4710504458561
 20
14.80782524253605
 10
185.3968539713075
 20
14.84510677337713
 10
185.2836047324607
 20
15.11610202130599
 10
185.2885133578171
 20
15.00095328446229
 10
185.2868486556307
 20
14.92836675781628
 10
185.2876830076715
 20
14.80625588483987
 10
185.2873609540265
 20
14.65913800810461
 10
185.2875076912457
 20
14.49307063956558
 10
185.2872950092724
 20
14.32187554608604
 10
185.2879497252034
 20
14.155528286355
 10
185.285919246114
 20
14.00935173055696
 10
185.2913460399931
 20
13.88471047474613
 10
185.280493086871
 20
13.81718656540629
 10
185.2956739155555
 20
13.75549061417025
 10
185.2457895108135
 20
13.76727503897005
 10
185.2017150342522
 20
13.75943822779972
 10
185.1582371630201
 20
13.76760441372707
 10
185.1092346786488
 20
13.75538056738471
 10
185.1218731234825
 20
13.80960667249316
 10
185.113018296845
 20
13.86936918907561
 10
185.1175058770314
 20
13.97922029044372
 10
185.1157960135991
 20
14.11029975405681
 10
185.1163550915986
 20
14.26198011444329
 10
185.1161928768694
 20
14.42211074929954
 10
185.1162269924674
 20
14.58236865674566
 10
185.1162514960126
 20
14.73370247520439
 10
185.1161453543225
 20
14.865821563386
 10
185.1164299141931
 20
14.97294802533191
 10
185.1158675547568
 20
15.03808619579472
 10
185.1180765083689
 20
15.16618957858673
 10
185.0319435998602
 20
14.79097610391574
 10
184.9555140818501
 20
14.63918193123389
 10
184.8660040767833
 20
14.47766206446304
 10
184.7640413217326
 20
14.2047184882017
 10
184.7187976491038
 20
14.36717346596506
 10
184.6102355941672
 20
14.45605432058122
 10
184.7995791751753
 20
14.60549794961407
 10
184.85653405457
 20
14.79749136974925
 10
184.9717520993353
 20
15.02899622906756
 10
184.9940151630133
 20
15.21797259759062
 10
185.1771905152142
 20
15.49454089325937
 10
185.0538033597552
 20
15.48698978832098
 10
184.9925684166835
 20
15.48856772366123
 10
184.9081999617064
 20
15.48882592573678
 10
184.8204235085966
 20
15.4854484575121
 10
184.7656768696122
 20
15.49394814982025
 10
184.7104703026025
 20
15.48048561049793
 10
184.7222823035536
 20
15.52931442126766
 10
184.7142496151793
 20
15.57269004896708
 10
184.7228186104679
 20
15.61509438309571
 10
184.7102943409156
 20
15.66267796552113
 10
184.7555101538736
 20
15.65267212995104
 10
184.8014815562723
 20
15.65894105174056
 10
184.877722204771
 20
15.65593561405867
 10
184.9561296131993
 20
15.65770448278536
 10
185.0323992648932
 20
15.65464793981655
 10
185.0783009459474
 20
15.66103971376172
 10
185.12317339654
 20
15.65093822978891
 10
185.1105552275633
 20
15.70157201581894
 10
185.1191936582707
 20
15.75501261882066
 10
185.1152361595442
 20
15.84863255131678
 10
185.1162325068335
 20
15.95112606688923
 10
185.1171927413073
 20
16.05353270248163
 10
185.1133211458005
 20
16.14735929609322
 10
185.1217789814365
 20
16.20036542840355
 10
185.1093075932835
 20
16.25211435651191
 10
185.154210638985
 20
16.23850747226759
 10
185.1955083836772
 20
16.24100480320586
 10
185.2595344281051
 20
16.23648060574487
 10
185.2986111148785
 20
16.22781003043307
 10
185.3476543498742
 20
16.23515102070684
 10
185.3225080030591
 20
16.19602896051761
 10
185.2815901333725
 20
16.20563842455804
 10
185.2910109616604
 20
16.15540148169776
 10
185.2855647318747
 20
16.10385945639487
 10
185.2881699601804
 20
16.01959707584517
 10
185.2870102202154
 20
15.92559135583404
 10
185.2883591064233
 20
15.83196865395522
 10
185.2849970101509
 20
15.74679517552219
 10
185.292095991777
 20
15.69716856072039
 10
185.2812569154546
 20
15.64993694969984
 10
185.3304010225246
 20
15.66201674936846
 10
185.3794877630148
 20
15.65447393363006
 10
185.4573714280642
 20
15.65686070361428
 10
185.5350365172897
 20
15.65899381905409
 10
185.5845393931356
 20
15.6519339192245
 10
185.6344594750639
 20
15.66360151936209
 10
185.6223198516882
 20
15.6154023537139
 10
185.6305838229143
 20
15.57249219801235
 10
185.6223198650785
 20
15.52958201851386
 10
185.6344594549855
 20
15.4813828875487
 10
185.5845395158747
 20
15.49305034471515
 10
185.5350350651204
 20
15.48599202435051
 10
185.4573784382973
 20
15.48811665228608
 10
185.3794643865762
 20
15.49053389365765
 10
185.3304500352717
 20
15.48291848194491
 10
185.2813246108944
 20
15.49507952557597
 10
185.2915559988573
 20
15.45073013424162
 10
185.2856677678054
 20
15.40925436202914
 10
185.2878788305569
 20
15.34915394315304
 10
185.2874109346147
 20
15.30225782762888
 10
185.2874386992914
 20
15.27650146418195
 10
185.2874469028654
 20
15.26889163187718
 97
        1
330
A6
 75
     1
 76
     2
 52
45.0
 41
0.1
 77
     0
 78
     1
 53
45.0
 43
0.0
 44
0.0
 45
-0.282842712474619
 46
0.0
 79
     0
 98
        1
 10
0.0
 20
0.0
  0
HATCH
  5
C4
330
48
100
AcDbEntity
  8
1
  6
Continuous
 62
     2
100
AcDbHatch
 10
0.0
 20
0.0
 30
0.0
210
0.0
220
0.0
230
1.0
  2
CUSTOM6
 70
     0
 71
     1
 91
        1
 92
        1
 93
        1
 72
     4
 94
        3
 73
     0
 74
     0
 95
       91
 96
       87
 40
0.0
 40
0.0
 40
0.0
 40
0.0
 40
0.0345987051695718
 40
0.1258134969461085
 40
0.2547723404888703
 40
0.4026032099153556
 40
0.550434079341642
 40
0.6793929228835227
 40
0.7706077146570467
 40
0.8052064287780072
 40
1.124852390615195
 40
1.427402236308796
 40
1.706356627453438
 40
1.955541417875124
 40
2.169485938566271
 40
2.34435078666474
 40
2.480568411561911
 40
2.590440557428933
 40
2.649189927151034
 40
2.749320643306216
 40
2.91263273987989
 40
3.147745656000071
 40
3.244827496384854
 40
3.338490056946454
 40
3.583815413206855
 40
3.761423943238208
 40
3.886956104362356
 40
3.985855451886562
 40
4.091766255337448
 40
4.250186473811641
 40
4.422734315084289
 40
4.628285684838372
 40
4.872093227758198
 40
5.152549652145324
 40
5.464967135837316
 40
5.803201477852248
 40
6.160362988813737
 40
6.193449448275792
 40
6.284170385501446
 40
6.419718138764288
 40
6.587285046385538
 40
6.774063446723452
 40
6.967245678113406
 40
7.154024078817421
 40
7.321590987025778
 40
7.457138740890108
 40
7.547859678555844
 40
7.580946138182404
 40
7.608533084714449
 40
7.669224367077411
 40
7.729915649429615
 40
7.757502595949659
 40
7.790278062553141
 40
7.880146277430611
 40
8.014419963180046
 40
8.180411842397547
 40
8.365434637679016
 40
8.556801071622289
 40
8.741823866830373
 40
8.90781574591594
 40
9.042089431507037
 40
9.131957646249163
 40
9.164733112796739
 40
9.41542506313965
 40
9.667986180958167
 40
9.694169807462334
 40
9.756607686047294
 40
9.831130315322186
 40
9.893568193899624
 40
9.919751820398469
 40
9.950967964690307
 40
9.996421631210413
 40
10.22087981037432
 40
10.44341866197519
 40
10.47847970788831
 40
10.57091337438732
 40
10.70159545461206
 40
10.85140174170337
 40
11.00120802880454
 40
11.13189010907359
 40
11.22432377582987
 40
11.25938480938933
 40
11.28697175596121
 40
11.34766303835894
 40
11.40835432042043
 40
11.43594125892077
 40
11.43594125892077
 40
11.43594125892077
 40
11.43594125892077
 10
190.0818114333289
 20
15.55242795125082
 10
190.070278584494
 20
15.5524279028792
 10
190.0283409444999
 20
15.5524277370417
 10
189.9434129719025
 20
15.55243125800914
 10
189.8207688553129
 20
15.55240926435884
 10
189.6791206916993
 20
15.55250801177059
 10
189.537975369849
 20
15.55214686232426
 10
189.4141351317905
 20
15.55321883609093
 10
189.3317217825382
 20
15.55092249091273
 10
189.1727791229693
 20
15.56048569373424
 10
189.3503402353376
 20
15.19785394311375
 10
189.3379739205453
 20
14.95243127723118
 10
189.4064519473864
 20
14.66862501324838
 10
189.4693024320971
 20
14.43250999939039
 10
189.5452253431728
 20
14.23326740396132
 10
189.6303189577017
 20
14.07745347451376
 10
189.7244607592936
 20
13.97657857781397
 10
189.8282648207729
 20
13.92465852638967
 10
189.9125872030774
 20
13.97606484379621
 10
189.9351322179452
 20
14.09144544037516
 10
189.9745730975371
 20
14.21885149702378
 10
189.9202919734944
 20
14.5362232808675
 10
190.0451218072473
 20
14.38982180140902
 10
190.2019291513603
 20
14.35795300331167
 10
190.0947720007057
 20
14.12421357767625
 10
190.0808711209867
 20
13.95972776583657
 10
190.0234709467226
 20
13.83130869122479
 10
189.9335020145008
 20
13.76018802352827
 10
189.8095274657877
 20
13.74432324142252
 10
189.663427319686
 20
13.77993797554171
 10
189.5243894320284
 20
13.90000570500276
 10
189.4102003962144
 20
14.07435682550321
 10
189.3146141301486
 20
14.29946603111242
 10
189.2318652572627
 20
14.56388246006444
 10
189.1807179256411
 20
14.88187933098546
 10
189.0770189207338
 20
15.15543728488915
 10
189.204284120852
 20
15.56005818612874
 10
189.0357890623019
 20
15.55112367849683
 10
188.9511995787077
 20
15.55315961418369
 10
188.8189876387628
 20
15.55213937388411
 10
188.6560505094104
 20
15.55253230318434
 10
188.4733759170533
 20
15.55235696313374
 10
188.2847057373383
 20
15.55260105307473
 10
188.1014469020189
 20
15.55185657906241
 10
187.9404746832719
 20
15.55416360522431
 10
187.8029808335276
 20
15.54799804883667
 10
187.7289590372311
 20
15.56032838458216
 10
187.6613215186858
 20
15.54329323723561
 10
187.673237371927
 20
15.59524438447531
 10
187.6655677285694
 20
15.64071424966532
 10
187.6732592225117
 20
15.68614453703707
 10
187.6613141797762
 20
15.73802395984571
 10
187.7283588305868
 20
15.72119143490264
 10
187.8017375665677
 20
15.73335409092671
 10
187.9379128305272
 20
15.72727231074958
 10
188.0973811801513
 20
15.72954834315058
 10
188.2789173085837
 20
15.72881233998962
 10
188.4658034862179
 20
15.72905954196133
 10
188.6468012316836
 20
15.72886400799254
 10
188.8080802578879
 20
15.72932234714839
 10
188.9393882124887
 20
15.72812673751206
 10
189.0225051322596
 20
15.73051347319742
 10
189.1556236547814
 20
15.72230605725464
 10
189.0645893502659
 20
15.97752868952657
 10
188.9789633074418
 20
16.24164358328251
 10
189.0990589003455
 20
16.22904442969169
 10
189.1514264948543
 20
16.22694235763078
 10
189.2214497569717
 20
16.22535399889659
 10
189.2671922337817
 20
16.21602567538113
 10
189.3220812646934
 20
16.22545966915427
 10
189.2963574785682
 20
16.17733028655172
 10
189.1825397571453
 20
16.1826682974417
 10
189.3159346621136
 20
15.95449174576776
 10
189.1943658735471
 20
15.72156856595923
 10
189.3223188769413
 20
15.73087258884438
 10
189.4049048406461
 20
15.7280100175468
 10
189.5307214850824
 20
15.72923437412302
 10
189.6741469838058
 20
15.72932431888965
 10
189.8157420951728
 20
15.72746163183853
 10
189.9459127249968
 20
15.73333075937163
 10
190.019345228619
 20
15.72070340823203
 10
190.0891112922096
 20
15.73877563110413
 10
190.0775772605396
 20
15.68612850546327
 10
190.0833184346682
 20
15.6422131768655
 10
190.081661577091
 20
15.59089982676553
 10
190.081775756167
 20
15.56158792021639
 10
190.0818114333289
 20
15.55242795125082
 97
        1
330
A7
 75
     1
 76
     2
 52
45.0
 41
0.1
 77
     0
 78
     1
 53
45.0
 43
0.0
 44
0.0
 45
-0.282842712474619
 46
0.0
 79
     0
 98
        1
 10
0.0
 20
0.0
  0
HATCH
  5
C5
330
48
100
AcDbEntity
  8
1
  6
Continuous
 62
     2
100
AcDbHatch
 10
0.0
 20
0.0
 30
0.0
210
0.0
220
0.0
230
1.0
  2
CUSTOM7
 70
     0
 71
     1
 91
        1
 92
        1
 93
        1
 72
     4
 94
        3
 73
     0
 74
     0
 95
       75
 96
       71
 40
0.0
 40
0.0
 40
0.0
 40
0.0
 40
0.0342546099129691
 40
0.1245622414432346
 40
0.2522385480897518
 40
0.398599192294068
 40
0.5449598364980821
 40
0.6726361431438816
 40
0.762943774673696
 40
0.7971983935297973
 40
1.101723623449709
 40
1.408591244036668
 40
1.433332471690368
 40
1.487763172450156
 40
1.542193873081974
 40
1.566935100592521
 40
1.923523931821836
 40
2.271755704953587
 40
2.590579755100832
 40
2.858943305581059
 40
2.889120339309076
 40
2.918305855191014
 40
2.941366645531139
 40
2.996357760973036
 40
3.061992318140587
 40
3.116983433626777
 40
3.14004422399747
 40
3.411273122936354
 40
3.732441619740958
 40
3.761068217532658
 40
3.837787499630223
 40
3.948858699125863
 40
4.080541049104245
 40
4.219093782625635
 40
4.350776132722189
 40
4.461847332405529
 40
4.538566614678262
 40
4.56719321254451
 40
4.594907573998769
 40
4.666381453557308
 40
4.76411104401089
 40
4.870592538125693
 40
4.968322128642087
 40
5.039796008286801
 40
5.067510369784231
 40
5.094263603185436
 40
5.15312071666805
 40
5.211977830150476
 40
5.238731063551472
 40
5.272290535138739
 40
5.363380529444544
 40
5.49761841578125
 40
5.660621563453463
 40
5.838007341749164
 40
6.015393119910544
 40
6.178396267038141
 40
6.312634151842121
 40
6.403724143059111
 40
6.437283612672206
 40
6.464036846260814
 40
6.522893960004409
 40
6.581751071483651
 40
6.60850430159059
 40
6.637253941280737
 40
6.711397748902617
 40
6.812778057283229
 40
6.923237199249006
 40
7.02461750762365
 40
7.098761315207359
 40
7.12751094600731
 40
7.12751094600731
 40
7.12751094600731
 40
7.12751094600731
 10
188.4418622390564
 20
14.95849128473265
 10
188.4418622819707
 20
14.9470731340872
 10
188.4418624481129
 20
14.9055525784263
 10
188.4418593081786
 20
14.82146922003772
 10
188.44187882798
 20
14.70004497322329
 10
188.4417912187737
 20
14.55980494047449
 10
188.442111623523
 20
14.42006556794577
 10
188.4411605909741
 20
14.29745038894929
 10
188.4431978595967
 20
14.21587074438044
 10
188.4349433178746
 20
14.06271267077696
 10
188.7430797940901
 20
14.22560236054712
 10
189.0350645173736
 20
14.39482938688005
 10
189.0408354448708
 20
14.25973235781914
 10
189.0455471719891
 20
14.21617221160448
 10
189.0482535411918
 20
14.17211249350549
 10
189.0672545672958
 20
14.02272590363138
 10
188.6583942247303
 20
14.08681172241265
 10
188.3793710348832
 20
13.97296341411016
 10
188.1018081587167
 20
13.87364095811142
 10
187.8099837184401
 20
13.91630687596355
 10
187.7869144678658
 20
13.81321679744542
 10
187.7537474383334
 20
13.78691091244472
 10
187.7480653962739
 20
13.83455309036307
 10
187.7284214559045
 20
13.87180336115073
 10
187.7095089485623
 20
13.93007387847567
 10
187.6942849867709
 20
13.9738520100781
 10
187.6477246372935
 20
14.08759421046312
 10
187.989089731245
 20
14.05576301120048
 10
188.2679649367387
 20
14.02161435106479
 10
188.2617753034907
 20
14.1691397647965
 10
188.2630935452773
 20
14.24013150908831
 10
188.2624831689947
 20
14.3471976795866
 10
188.2625871570725
 20
14.47398529785997
 10
188.2629987964055
 20
14.6084924349605
 10
188.2613907841968
 20
14.73395549951184
 10
188.2659902567926
 20
14.84505246719118
 10
188.256418650221
 20
14.90761886800689
 10
188.2704001783691
 20
14.96595388295002
 10
188.2147384386704
 20
14.95289710582239
 10
188.1575655197822
 20
14.961363077495
 10
188.0616048925647
 20
14.95729976080637
 10
187.9633767522822
 20
14.95970889852475
 10
187.8672582457561
 20
14.95551600613389
 10
187.8104648525812
 20
14.96429346441164
 10
187.7550356873384
 20
14.95094936850123
 10
187.7670679427919
 20
15.00036910959256
 10
187.7592003173937
 20
15.04393988030393
 10
187.766629556383
 20
15.08830469118522
 10
187.7551930564144
 20
15.13902297763986
 10
187.8232102370134
 20
15.12162460757738
 10
187.8968496879747
 20
15.13417450237183
 10
188.0325064058212
 20
15.12799677011092
 10
188.1884909024525
 20
15.13029203093078
 10
188.3615926358145
 20
15.12940968262525
 10
188.5346942964182
 20
15.13029207142403
 10
188.6906789811218
 20
15.12799662955545
 10
188.8263351889798
 20
15.13417486262426
 10
188.8999756705653
 20
15.12162394218331
 10
188.9679914174725
 20
15.13902373012137
 10
188.9565590885923
 20
15.08830130414552
 10
188.9639539458298
 20
15.04397060811106
 10
188.9562039912271
 20
15.00028307550195
 10
188.9681203741878
 20
14.95063590098478
 10
188.9108170223617
 20
14.96461411338427
 10
188.8520145789773
 20
14.95539755673254
 10
188.75252936332
 20
14.9595226816493
 10
188.649428009835
 20
14.95822760025888
 10
188.5537846354574
 20
14.95854077077641
 10
188.4857467971617
 20
14.95848776697146
 10
188.4514462213443
 20
14.95849051871657
 10
188.4418622390564
 20
14.95849128473265
 97
        1
330
A8
 75
     1
 76
     2
 52
45.0
 41
0.1
 77
     0
 78
     1
 53
45.0
 43
0.0
 44
0.0
 45
-0.282842712474619
 46
0.0
 79
     0
 98
        1
 10
0.0
 20
0.0
  0
HATCH
  5
C6
330
48
100
AcDbEntity
  8
1
  6
Continuous
 62
     2
100
AcDbHatch
 10
0.0
 20
0.0
 30
0.0
210
0.0
220
0.0
230
1.0
  2
CUSTOM8
 70
     0
 71
     1
 91
        1
 92
        1
 93
        1
 72
     4
 94
        3
 73
     0
 74
     0
 95
       15
 96
       11
 40
0.0
 40
0.0
 40
0.0
 40
0.0
 40
0.2785535985096865
 40
0.521562474819903
 40
0.6076917376040385
 40
0.6938210001741046
 40
0.940501914645574
 40
1.221691403489104
 40
1.300471877081006
 40
1.379252341684778
 40
1.379252341684778
 40
1.379252341684778
 40
1.379252341684778
 10
189.5681493631
 20
16.22930267330378
 10
189.6296017794179
 20
16.17691646592712
 10
189.7446649974115
 20
16.0788287679822
 10
190.0397348497244
 20
15.92889785897219
 10
189.9025147631857
 20
15.84343227515008
 10
189.8041227843779
 20
15.71085785201551
 10
189.713003359065
 20
16.01616985781414
 10
189.3636839480657
 20
16.0796786946537
 10
189.5119258376571
 20
16.17896509880875
 10
189.5494081874237
 20
16.21252348402379
 10
189.5681493631
 20
16.22930267330378
 97
        1
330
A9
 75
     1
 76
     2
 52
45.0
 41
0.1
 77
     0
 78
     1
 53
45.0
 43
0.0
 44
0.0
 45
-0.282842712474619
 46
0.0
 79
     0
 98
        1
 10
0.0
 20
0.0
  0
HATCH
  5
C7
330
48
100
AcDbEntity
  8
1
  6
Continuous
 62
     2
100
AcDbHatch
 10
0.0
 20
0.0
 30
0.0
210
0.0
220
0.0
230
1.0
  2
CUSTOM9
 70
     0
 71
     1
 91
        1
 92
        1
 93
        1
 72
     4
 94
        3
 73
     0
 74
     0
 95
       35
 96
       31
 40
0.0
 40
0.0
 40
0.0
 40
0.0
 40
0.0335231036620179
 40
0.0713218571712786
 40
0.4278866681487883
 40
0.8116865841965177
 40
1.198190238000182
 40
1.561379546812828
 40
1.659983174622228
 40
1.759315573807374
 40
2.132719617231245
 40
2.525233363589011
 40
2.910815397779933
 40
3.265244364303555
 40
3.592606723582297
 40
3.964386154604238
 40
4.359942131738052
 40
4.758154118639553
 40
4.8438465387001
 40
4.93665006554341
 40
5.256616602537508
 40
5.581707404416222
 40
5.899719158308346
 40
6.198363494280897
 40
6.46630104661591
 40
6.493895311537231
 40
6.559697020197023
 40
6.638234543442598
 40
6.70403625215435
 40
6.731630508423156
 40
6.731630508423156
 40
6.731630508423156
 40
6.731630508423156
 10
191.9736010568669
 20
16.23463843719139
 10
191.9676006097789
 20
16.22480690542326
 10
191.9548344099158
 20
16.20388988579793
 10
191.7949362006554
 20
16.17127126532704
 10
192.2322025842336
 20
15.88206680336695
 10
192.4345394828262
 20
15.68041138358439
 10
192.6819564267974
 20
15.43749387603275
 10
193.1831513624607
 20
15.36047662757769
 10
193.012556219897
 20
15.21876939174659
 10
192.9383299463203
 20
15.01710366209096
 10
192.6131432248189
 20
15.36956287174728
 10
192.3277741670665
 20
15.53175212559562
 10
192.0337604077659
 20
15.7368713005305
 10
191.8084452691134
 20
16.21827488595456
 10
191.5993085055522
 20
15.75343046609224
 10
191.3207873674834
 20
15.54350952252913
 10
191.0371383177208
 20
15.37424456359988
 10
190.7078639527832
 20
15.00142360907941
 10
190.6277012318224
 20
15.19708014459003
 10
190.4759724909745
 20
15.324911041906
 10
190.9083395826795
 20
15.40454031765933
 10
191.0962565329767
 20
15.60026634915477
 10
191.3468477420503
 20
15.81632996916753
 10
191.5714350470162
 20
15.98190992300064
 10
191.6259775409711
 20
16.26133964636828
 10
191.7494661029011
 20
16.24737950408081
 10
191.806027334452
 20
16.2452126886765
 10
191.8761870984945
 20
16.24046859881365
 10
191.9333414022105
 20
16.23709429350546
 10
191.9644190320838
 20
16.23519854711124
 10
191.9736010568669
 20
16.23463843719139
 97
        1
330
AA
 75
     1
 76
     2
 52
45.0
 41
0.1
 77
     0
 78
     1
 53
45.0
 43
0.0
 44
0.0
 45
-0.282842712474619
 46
0.0
 79
     0
 98
        1
 10
0.0
 20
0.0
  0
HATCH
  5
C8
330
48
100
AcDbEntity
  8
1
  6
Continuous
 62
     2
100
AcDbHatch
 10
0.0
 20
0.0
 30
0.0
210
0.0
220
0.0
230
1.0
  2
CUSTOM10
 70
     0
 71
     1
 91
        1
 92
        1
 93
        1
 72
     4
 94
        3
 73
     0
 74
     0
 95
       91
 96
       87
 40
0.0
 40
0.0
 40
0.0
 40
0.0
 40
0.0267532254356737
 40
0.0856103386464209
 40
0.1444674521996798
 40
0.171220685661871
 40
0.2039416005642732
 40
0.2955601971652679
 40
0.4362601844617398
 40
0.616225284450773
 40
0.8256392189705177
 40
1.054685709844487
 40
1.293548478893608
 40
1.532411247938351
 40
1.761457738799616
 40
1.970871673298613
 40
2.150836773256837
 40
2.291536760495698
 40
2.383155356836776
 40
2.415876284101425
 40
2.442629517488069
 40
2.50148663094921
 40
2.560343744424364
 40
2.587096977826639
 40
2.617068194441067
 40
2.699247336756236
 40
2.82203264346652
 40
2.973822353258078
 40
3.14301470482352
 40
3.318007936880099
 40
3.487200288186933
 40
3.63898999754847
 40
3.761775303794969
 40
3.843954445753304
 40
3.87392566223
 40
3.890812773500693
 40
3.907699884771858
 40
3.93796076785745
 40
3.980983618142546
 40
4.199085915228659
 40
4.439444339237443
 40
4.67758824126105
 40
5.050698317837965
 40
5.448212454763294
 40
5.855291218044761
 40
6.13857543888545
 40
6.417434507584249
 40
6.444551104393908
 40
6.504207617363184
 40
6.563864130314508
 40
6.590980727104077
 40
6.848609460381539
 40
7.109611990668506
 40
7.352910904446194
 40
7.557830220705533
 40
7.587518925913455
 40
7.65283407737591
 40
7.718149228845907
 40
7.747837934062216
 40
7.854880190301183
 40
7.976511257403711
 40
8.369487896592542
 40
8.757514959223863
 40
9.1260724193313
 40
9.46063938039239
 40
9.74669559303616
 40
9.777569943118895
 40
9.807050320931982
 40
9.830377336129105
 40
9.886003295436185
 40
9.952395569430076
 40
10.00802152870643
 40
10.03134854388234
 40
10.21356951009605
 40
10.4220347929289
 40
10.66154556731079
 40
10.91693789564316
 40
11.15832906556573
 40
11.18982674596631
 40
11.27286608520415
 40
11.39026653033357
 40
11.52484752840893
 40
11.65942852648455
 40
11.77682897161491
 40
11.8598683108569
 40
11.89136598230436
 40
11.89136598230436
 40
11.89136598230436
 40
11.89136598230436
 10
190.7027885008196
 20
14.70699600701767
 10
190.7028237765288
 20
14.7158784731198
 10
190.7029366710796
 20
14.74430237047342
 10
190.7012984568489
 20
14.79409639169799
 10
190.7069750292911
 20
14.83657564478151
 10
190.6956928731706
 20
14.88730154856844
 10
190.7632296979032
 20
14.87012900740105
 10
190.8388029210701
 20
14.88290227165994
 10
190.9828357056001
 20
14.87629729457378
 10
191.1569419185427
 20
14.87888462206463
 10
191.3639599611003
 20
14.8780059195555
 10
191.5894688172378
 20
14.87828207920024
 10
191.8251162293406
 20
14.87818339658659
 10
192.0607640531349
 20
14.87828184412764
 10
192.2862717580626
 20
14.87800678190786
 10
192.4932934632805
 20
14.87888186270731
 10
192.667388891529
 20
14.87630522678444
 10
192.8114492071986
 20
14.8828829044921
 10
192.8869691915294
 20
14.87016243405601
 10
192.954577603703
 20
14.88726400191684
 10
192.9430840140676
 20
14.83674785802937
 10
192.9505104581734
 20
14.79253252226497
 10
192.9428838927986
 20
14.74867966503605
 10
192.9546489459426
 20
14.69878374479323
 10
192.8930788491984
 20
14.71393227712507
 10
192.8256791738672
 20
14.70310665350669
 10
192.7013004056222
 20
14.70852031626231
 10
192.5554428236572
 20
14.70649205390781
 10
192.3893576440086
 20
14.70715777578382
 10
192.2188412621725
 20
14.70689643521237
 10
192.0519790855389
 20
14.70721553391089
 10
191.9087346827105
 20
14.70635302590757
 10
191.7773313869834
 20
14.70863300482983
 10
191.7239859134656
 20
14.70407704374198
 10
191.6485188456912
 20
14.70999914992871
 10
191.6769075779232
 20
14.70094169343353
 10
191.7033652409542
 20
14.69725912268935
 10
191.6633522907702
 20
14.66654271968269
 10
191.5713663691867
 20
14.67667591174634
 10
191.543939620707
 20
14.43032502247784
 10
191.4478793967235
 20
14.27499558764375
 10
191.1917277964474
 20
13.94525417931566
 10
191.7627537732763
 20
14.08430022210451
 10
192.0173656320517
 20
14.08291779973364
 10
192.6279647048616
 20
13.99790569242083
 10
192.3340698578085
 20
14.29685417558209
 10
192.0133304286517
 20
14.44330856901779
 10
192.1313543360434
 20
14.50025540818292
 10
192.1724716466262
 20
14.52420099873353
 10
192.2156812394411
 20
14.54599758811234
 10
192.3174574094452
 20
14.60928721253914
 10
192.4328867625248
 20
14.35147151408779
 10
192.6329591642277
 20
14.2161604111368
 10
192.7269077387228
 20
14.03792795138884
 10
192.9558829746393
 20
13.87997821027052
 10
192.8596031846708
 20
13.829159725763
 10
192.816795976378
 20
13.79881292523053
 10
192.7718243528778
 20
13.77466130281457
 10
192.7121720925214
 20
13.72552146747562
 10
192.6789731061325
 20
13.85997475673611
 10
192.5582013350797
 20
14.01594265286583
 10
192.1970976005979
 20
13.88569928059555
 10
191.8385061955541
 20
13.90224694409481
 10
191.457092045008
 20
13.89331229351861
 10
191.1703455282891
 20
13.82882671672403
 10
190.8592055599715
 20
13.94230668192821
 10
190.8268737818788
 20
13.83122259927767
 10
190.7896178253318
 20
13.81196313850017
 10
190.7865737632754
 20
13.85874784087301
 10
190.7679892860606
 20
13.89806853919136
 10
190.7512436616779
 20
13.95765983478237
 10
190.7383730915753
 20
14.00201969871285
 10
190.704232780643
 20
14.09106331120205
 10
190.9482714457754
 20
14.02181042943771
 10
191.1441394486673
 20
14.00030369057745
 10
191.2395426381277
 20
14.28226484478462
 10
191.2945135769598
 20
14.4436304542112
 10
191.5159619357154
 20
14.71391177589734
 10
191.3849239381217
 20
14.70548446853729
 10
191.3110026555854
 20
14.70779008496965
 10
191.1977459876244
 20
14.70671378321653
 10
191.0694251807484
 20
14.70707639076504
 10
190.9404252030415
 20
14.70697724466081
 10
190.828784094629
 20
14.70699932712568
 10
190.7514663970026
 20
14.70699579189664
 10
190.713287653201
 20
14.70699595845076
 10
190.7027885008196
 20
14.70699600701767
 97
        1
330
AB
 75
     1
 76
     2
 52
45.0
 41
0.1
 77
     0
 78
     1
 53
45.0
 43
0.0
 44
0.0
 45
-0.282842712474619
 46
0.0
 79
     0
 98
        1
 10
0.0
 20
0.0
  0
HATCH
  5
C9
330
48
100
AcDbEntity
  8
1
  6
Continuous
 62
     2
100
AcDbHatch
 10
0.0
 20
0.0
 30
0.0
210
0.0
220
0.0
230
1.0
  2
CUSTOM11
 70
     0
 71
     1
 91
        1
 92
        1
 93
        1
 72
     4
 94
        3
 73
     0
 74
     0
 95
      131
 96
      127
 40
0.0
 40
0.0
 40
0.0
 40
0.0
 40
0.0195577029825932
 40
0.042649053746128
 40
0.2863607575856215
 40
0.5344948436188716
 40
0.7842238845572722
 40
0.8737315789467142
 40
0.9803832810312668
 40
1.092842274517015
 40
1.199761146656771
 40
1.289788768186469
 40
1.351573580786121
 40
1.370727117561354
 40
1.416400936017781
 40
1.470914848355938
 40
1.516588666791745
 40
1.53574220355283
 40
1.634216592293147
 40
1.76028334117492
 40
1.897966686682043
 40
2.031216387368827
 40
2.049689751137821
 40
2.101115601646757
 40
2.179502577739875
 40
2.278859318313989
 40
2.393194462258645
 40
2.516516648383762
 40
2.642834515405887
 40
2.766156701983391
 40
2.880491846754504
 40
2.979848588358546
 40
3.058235565443724
 40
3.109661416668876
 40
3.128134780704054
 40
3.14678374238637
 40
3.191254343315231
 40
3.24433215731589
 40
3.288802758225765
 40
3.307451719895036
 40
3.327717853844646
 40
3.383747753580009
 40
3.468388665924399
 40
3.574487837698703
 40
3.694892515728807
 40
3.822449946851945
 40
3.950007377920333
 40
4.070412055800423
 40
4.176511227367977
 40
4.261152139501423
 40
4.317182039076613
 40
4.337448172964534
 40
4.620011002696164
 40
4.885096638397467
 40
4.945373043518288
 40
5.014107710488626
 40
5.070481727651972
 40
5.319246955636516
 40
5.584812164506017
 40
5.859000912056891
 40
6.133746937542096
 40
6.401732212968917
 40
6.420736683995536
 40
6.472845717451102
 40
6.550702743894086
 40
6.646951193874295
 40
6.75423449793059
 40
6.865196086587368
 40
6.972479390357827
 40
7.068727839771989
 40
7.146584865450998
 40
7.198693898189227
 40
7.217698368905368
 40
7.234950401630839
 40
7.27608986426987
 40
7.325191803515961
 40
7.366331266090334
 40
7.383583298769678
 40
7.402779163492084
 40
7.453386443254458
 40
7.524934666445488
 40
7.606953361405799
 40
7.688972056428979
 40
7.760520279784173
 40
7.811127559734444
 40
7.830323424546065
 40
7.847844055299697
 40
7.894799345666743
 40
7.96277939274444
 40
8.0433742935605
 40
8.12817414514942
 40
8.208769044817231
 40
8.276749090376942
 40
8.323704379669511
 40
8.341225010056245
 40
8.358497614800394
 40
8.401679126686572
 40
8.457815092185632
 40
8.513951057728036
 40
8.557132569707935
 40
8.574405174504978
 40
8.602340668616257
 40
8.64345566053981
 40
8.663225271966482
 40
8.715345156564126
 40
8.789031889628461
 40
8.873502045520196
 40
8.95797219432382
 40
9.031658925567715
 40
9.083778811234403
 40
9.103548423002866
 40
9.119550083123432
 40
9.160817522379705
 40
9.2172444291101
 40
9.278724491644585
 40
9.335151398295341
 40
9.376418837357637
 40
9.392420497300424
 40
9.401196302734615
 40
9.417494229384033
 40
9.426270027749306
 40
9.440875075477338
 40
9.475702496998519
 40
9.517270709865683
 40
9.552098131993851
 40
9.56670316988406
 40
9.56670316988406
 40
9.56670316988406
 40
9.56670316988406
 10
194.6170254148479
 20
15.67015871511023
 10
194.6134345093371
 20
15.66453690702156
 10
194.6056039123624
 20
15.6522775441911
 10
194.512996897455
 20
15.61601916040971
 10
194.4887622233246
 20
15.40148444212713
 10
194.385870984594
 20
15.22197284509705
 10
194.1220492364305
 20
15.03615573798146
 10
194.284547156918
 20
14.95959336566083
 10
194.3607225760838
 20
14.89856693195443
 10
194.4492171072758
 20
14.83515804544761
 10
194.5389930233111
 20
14.77525634219562
 10
194.5883817636046
 20
14.72102154849211
 10
194.6745708157381
 20
14.69286240541839
 10
194.641126067423
 20
14.65713309652816
 10
194.621467116631
 20
14.62550387991909
 10
194.5919888217882
 20
14.58475872796071
 10
194.5688989446031
 20
14.55504663489644
 10
194.5380205968356
 20
14.50211422668493
 10
194.4729193365741
 20
14.62740334938901
 10
194.3796000122417
 20
14.68213900233939
 10
194.2950636285139
 20
14.73916423939338
 10
194.1722498125743
 20
14.89675287427518
 10
194.1764450847302
 20
14.82035806766834
 10
194.1751478652678
 20
14.77361280161292
 10
194.1758126448077
 20
14.69584785812598
 10
194.1755549986958
 20
14.5990206832442
 10
194.1756431239922
 20
14.48650279078806
 10
194.1756077302282
 20
14.36524085945697
 10
194.175651175828
 20
14.24086897858958
 10
194.1755199942406
 20
14.11967683631334
 10
194.1759477562047
 20
14.0069114891974
 10
194.1746678202312
 20
13.91082913768741
 10
194.1779759851044
 20
13.83113826468697
 10
194.1715197740087
 20
13.78815175788781
 10
194.1806208705556
 20
13.7495543237204
 10
194.1447910339936
 20
13.75810887724067
 10
194.1115223815252
 20
13.75342519985443
 10
194.0604562576042
 20
13.75351298759782
 10
194.0269723972814
 20
13.75794430283818
 10
193.9907585408754
 20
13.74960793842506
 10
194.0009782568667
 20
13.79145277179282
 10
193.9936487887773
 20
13.83778560820171
 10
193.9973633136103
 20
13.92374831106011
 10
193.9959480554897
 20
14.02605142704845
 10
193.9964105554639
 20
14.14453223931508
 10
193.9962773686231
 20
14.26957683153352
 10
193.9963015910046
 20
14.39475828107046
 10
193.9963354925552
 20
14.51286645379054
 10
193.9962060293133
 20
14.61628748709512
 10
193.9965507549082
 20
14.69932036153662
 10
193.9958698278691
 20
14.75143368521239
 10
193.9994586600623
 20
14.87912907821357
 10
193.7826171386438
 20
14.58048716819616
 10
193.6021354921949
 20
14.35263981511507
 10
193.5490322295612
 20
14.49373443289817
 10
193.5200429133149
 20
14.54325767560942
 10
193.419664806282
 20
14.64641779790099
 10
193.7405127723262
 20
14.72695035023779
 10
193.8689897005429
 20
14.91066283036433
 10
194.090645432536
 20
15.11931995771763
 10
194.1770224894069
 20
15.29339211228343
 10
194.4549394229076
 20
15.56967051342517
 10
194.3346247839285
 20
15.56534559551116
 10
194.286319735135
 20
15.56614856202556
 10
194.2102377454905
 20
15.56574582146586
 10
194.1167010009752
 20
15.56590275611613
 10
194.0117594788557
 20
15.56582502576226
 10
193.9033887738719
 20
15.56595464378557
 10
193.7981454235898
 20
15.56554393490694
 10
193.7056237819414
 20
15.56682073671594
 10
193.6268130800709
 20
15.56340766534853
 10
193.583967456538
 20
15.57023350036323
 10
193.5449499586517
 20
15.56065064201126
 10
193.5526365271865
 20
15.59420779565544
 10
193.5485464404314
 20
15.62523550322234
 10
193.5485531368814
 20
15.67236529270899
 10
193.5526239724913
 20
15.70340941646777
 10
193.5449495574583
 20
15.73701861635899
 10
193.5834819405495
 20
15.72748410420869
 10
193.624122801448
 20
15.73397435498068
 10
193.6951471850464
 20
15.73100150650251
 10
193.7729318149634
 20
15.73174761399154
 10
193.8507292246476
 20
15.73247814044523
 10
193.9217232089908
 20
15.72954235514157
 10
193.9624279791821
 20
15.73595468772949
 10
194.000985348991
 20
15.72650524176001
 10
193.9927342754929
 20
15.76264692158781
 10
193.9982346669358
 20
15.80129837613224
 10
193.9955754206164
 20
15.86913528561837
 10
193.9965815471534
 20
15.9459164153874
 10
193.996017801832
 20
16.02849393582757
 10
193.9970714526594
 20
16.1051732922988
 10
193.994267586313
 20
16.17331990776702
 10
194.0000702721306
 20
16.2113239980935
 10
193.9915654551159
 20
16.2475844807765
 10
194.0255610233126
 20
16.23755723771855
 10
194.05945756831
 20
16.24073266813708
 10
194.1126669060346
 20
16.2350896564061
 10
194.1660768574483
 20
16.23434774436424
 10
194.1995914649491
 20
16.22819223482978
 10
194.2388086183039
 20
16.2334602977359
 10
194.2120263698492
 20
16.19253380793489
 10
194.1708111001724
 20
16.20371204538109
 10
194.1782641540874
 20
16.15867056192121
 10
194.1742227952186
 20
16.11412278028142
 10
194.1761714049641
 20
16.042235726217
 10
194.1752364849759
 20
15.96168630588768
 10
194.1765107190031
 20
15.88173995404992
 10
194.1732043793865
 20
15.8084183708318
 10
194.1802106179961
 20
15.76688643002564
 10
194.1701440380126
 20
15.72752418568109
 10
194.2029814803922
 20
15.73468063430978
 10
194.2364577296481
 20
15.7302724313794
 10
194.2915053476019
 20
15.73217943347894
 10
194.3489502595316
 20
15.73185366407285
 10
194.402302624831
 20
15.73106308733079
 10
194.439854089664
 20
15.73313959118071
 10
194.4623172523237
 20
15.73022338167106
 10
194.4751678073731
 20
15.73572552644052
 10
194.4858255685889
 20
15.73801118197787
 10
194.4986635650144
 20
15.74494972588049
 10
194.514599103307
 20
15.72853046313667
 10
194.5410623920892
 20
15.71709122319444
 10
194.5726805253758
 20
15.69644687835186
 10
194.5987255892151
 20
15.68116869628289
 10
194.6128517723973
 20
15.6726697632318
 10
194.6170254148479
 20
15.67015871511023
 97
        1
330
AC
 75
     1
 76
     2
 52
45.0
 41
0.1
 77
     0
 78
     1
 53
45.0
 43
0.0
 44
0.0
 45
-0.282842712474619
 46
0.0
 79
     0
 98
        1
 10
0.0
 20
0.0
  0
HATCH
  5
CA
330
48
100
AcDbEntity
  8
1
  6
Continuous
 62
     2
100
AcDbHatch
 10
0.0
 20
0.0
 30
0.0
210
0.0
220
0.0
230
1.0
  2
CUSTOM12
 70
     0
 71
     1
 91
        1
 92
        1
 93
        1
 72
     4
 94
        3
 73
     0
 74
     0
 95
      124
 96
      120
 40
0.0
 40
0.0
 40
0.0
 40
0.0
 40
0.027818722962451
 40
0.1011590162384269
 40
0.2048470170590523
 40
0.3237088716559245
 40
0.4425707262522284
 40
0.5462587270700116
 40
0.6195990203312934
 40
0.6474177522579513
 40
0.675006073611613
 40
0.7357003855243771
 40
0.7963946998055558
 40
0.8239830245572921
 40
0.8540933811104299
 40
0.9373396629410411
 40
1.063094687343379
 40
1.220731268638217
 40
1.399622220914891
 40
1.589140358637876
 40
1.778658496424042
 40
1.957549448940709
 40
2.115186030873359
 40
2.240941056914635
 40
2.324187341760733
 40
2.354297700109583
 40
2.381886024672094
 40
2.44258033871069
 40
2.503274652750727
 40
2.530862977314837
 40
2.56098394927879
 40
2.640393784453136
 40
2.752662861759359
 40
2.881361560118376
 40
3.010060258455423
 40
3.12232933570557
 40
3.201739170818183
 40
3.231860142753544
 40
3.264298024030597
 40
3.352343701778463
 40
3.482095226868977
 40
3.639650650173228
 40
3.811108022565674
 40
3.982565394928169
 40
4.140120818152742
 40
4.269872343141443
 40
4.3579180208025
 40
4.390355902044125
 40
4.423256253992695
 40
4.508104530073216
 40
4.624121560636984
 40
4.75052817603174
 40
4.866545206602187
 40
4.951393482692144
 40
4.984293834645546
 40
5.011450833242459
 40
5.071196230152236
 40
5.130941627057306
 40
5.158098625648969
 40
5.19099897760166
 40
5.275847253689485
 40
5.391864284256919
 40
5.518270899648464
 40
5.634287930209504
 40
5.719136206288177
 40
5.752036558236065
 40
5.782130946283092
 40
5.862783906229272
 40
5.97955013177515
 40
6.117984316640565
 40
6.263641154588123
 40
6.402075339414339
 40
6.518841564908143
 40
6.599494524815731
 40
6.629588912848972
 40
6.654403028226549
 40
6.713575149488345
 40
6.78419993932972
 40
6.843372060493822
 40
6.868186175803068
 40
6.896246243202174
 40
6.939586233758626
 40
6.967846564565257
 40
7.043584251090199
 40
7.153234334452061
 40
7.283231855734818
 40
7.420011856035857
 40
7.550009376580216
 40
7.659659458835621
 40
7.735397144417617
 40
7.763657474851791
 40
7.796409728011448
 40
7.880876065096751
 40
7.996370852466137
 40
8.122208446419032
 40
8.237703224799683
 40
8.322169562011377
 40
8.35492181520639
 40
8.38207881330817
 40
8.441824209207468
 40
8.501569605240611
 40
8.528726603486186
 40
8.561478856696207
 40
8.645945193878285
 40
8.761439980865825
 40
8.887277580765025
 40
9.002772362001517
 40
9.087238696661766
 40
9.11999094923622
 40
9.152428830613916
 40
9.240474508639128
 40
9.370226034150072
 40
9.527781457984942
 40
9.69923883098192
 40
9.8706962039791
 40
10.02825162781451
 40
10.15800315332612
 40
10.24604883135166
 40
10.27848670378569
 40
10.27848670378569
 40
10.27848670378569
 40
10.27848670378569
 10
195.3821827564383
 20
14.01410517385762
 10
195.3914554737523
 20
14.01410498511279
 10
195.425174453686
 20
14.01410430876719
 10
195.4934706812465
 20
14.01411807243309
 10
195.592014171158
 20
14.0140322421955
 10
195.7062066464812
 20
14.01441755612255
 10
195.8185894417071
 20
14.0130083589755
 10
195.9214376600119
 20
14.01719117422248
 10
195.980683987485
 20
14.00823089251987
 10
196.0371265937034
 20
14.02164434526066
 10
196.0246255586956
 20
13.97087198613364
 10
196.0329549635704
 20
13.92589320939071
 10
196.0248170841121
 20
13.88056752990491
 10
196.0370529214457
 20
13.82931932408467
 10
195.9747773490334
 20
13.84447955365278
 10
195.9060513026869
 20
13.83359750710744
 10
195.7782756749592
 20
13.83911304747974
 10
195.6262984511643
 20
13.837008512537
 10
195.4502695972523
 20
13.83771002588476
 10
195.2644431934287
 20
13.83745237531293
 10
195.0786167437175
 20
13.83771005144606
 10
194.9025880142169
 20
13.83700841847733
 10
194.7506104154194
 20
13.83911332229991
 10
194.6228357664554
 20
13.83359680767642
 10
194.554107783658
 20
13.84448077125944
 10
194.4918349042883
 20
13.82931786684211
 10
194.5040616290017
 20
13.88057510805174
 10
194.4960004462597
 20
13.92582473272429
 10
194.5040675809893
 20
13.97106357955327
 10
194.4918238487083
 20
14.02234176909962
 10
194.5525017120698
 20
14.0074957736314
 10
194.6162810745736
 20
14.01756448170739
 10
194.7277314353502
 20
14.01294644212004
 10
194.8497533443824
 20
14.01413328905473
 10
194.9719538137823
 20
14.0151586390064
 10
195.0829794287392
 20
14.01092475623406
 10
195.1476517413958
 20
14.02018584521744
 10
195.2091162810501
 20
14.00604423049687
 10
195.1930065601337
 20
14.07235527884521
 10
195.2042980327358
 20
14.1444779012198
 10
195.198740082256
 20
14.27513760888289
 10
195.2008035061691
 20
14.42607323708243
 10
195.2000167127295
 20
14.59335873107887
 10
195.2007845215628
 20
14.76061110332303
 10
195.1988038785628
 20
14.91163289269914
 10
195.2041306156621
 20
15.04206069552994
 10
195.1933101388425
 20
15.11465442605897
 10
195.2090326429875
 20
15.18150469436796
 10
195.143270813249
 20
15.16580512490822
 10
195.0756367830764
 20
15.17609243083993
 10
194.9615885293809
 20
15.1711378684712
 10
194.8451242674902
 20
15.17414128030472
 10
194.7306554121477
 20
15.16880303143387
 10
194.6640324657812
 20
15.18001268074822
 10
194.5990769715185
 20
15.16349132665009
 10
194.6107989758707
 20
15.21473720477056
 10
194.6032830189121
 20
15.25950333784088
 10
194.6107989878835
 20
15.30426944897957
 10
194.5990769505347
 20
15.35551536129737
 10
194.66403263392
 20
15.3389938176681
 10
194.7306533339822
 20
15.3502057137394
 10
194.8451352858063
 20
15.3448543671066
 10
194.9615454436962
 20
15.34791188771113
 10
195.0757660174641
 20
15.34278499010704
 10
195.1430150439226
 20
15.35345733355594
 10
195.2083325941438
 20
15.33742082669073
 10
195.1941391448552
 20
15.39949685750049
 10
195.2036059462995
 20
15.4658676162876
 10
195.1990269004085
 20
15.58239972741964
 10
195.2007696555948
 20
15.71426685022375
 10
195.1997551495391
 20
15.85615960150273
 10
195.2017191344373
 20
15.98769050702581
 10
195.1964668553851
 20
16.10524577283004
 10
195.2073408763475
 20
16.16947789001586
 10
195.1919536641853
 20
16.2310880254505
 10
195.2407591537801
 20
16.21702407382113
 10
195.2853995564726
 20
16.21954742075316
 10
195.3538643946743
 20
16.21512797401712
 10
195.3959106169104
 20
16.20613025544037
 10
195.4487544758776
 20
16.21411714866512
 10
195.4207035002014
 20
16.17113917611672
 10
195.3749142248594
 20
16.18259552043839
 10
195.3869539073265
 20
16.12173520005136
 10
195.3796086070641
 20
16.05769299468772
 10
195.3831195826161
 20
15.94909368863909
 10
195.3819806760173
 20
15.82494319144752
 10
195.3819174780262
 20
15.69189719829875
 10
195.3832872966868
 20
15.56797381249553
 10
195.3791638801314
 20
15.45868337849335
 10
195.3877763103564
 20
15.39608580094166
 10
195.3746757454401
 20
15.33740133296362
 10
195.4393884328198
 20
15.35362113810898
 10
195.5060405953155
 20
15.34270260383308
 10
195.6198779541103
 20
15.34793740173752
 10
195.7357259122097
 20
15.34485547516909
 10
195.8496924263281
 20
15.35018259812508
 10
195.9160341018101
 20
15.33904208166539
 10
195.9807188525481
 20
15.35546979593174
 10
195.9689820772723
 20
15.30425925210047
 10
195.9765168063042
 20
15.25950334120998
 10
195.9689820992258
 20
15.21474739010024
 10
195.9807188140738
 20
15.16353690871039
 10
195.9160344075252
 20
15.17996427794218
 10
195.8496886430826
 20
15.16882784447267
 10
195.7357459487013
 20
15.17413115893118
 10
195.6197995623055
 20
15.17114764593542
 10
195.5062756882122
 20
15.17606892268391
 10
195.4389231318805
 20
15.16585087513518
 10
195.3734285122495
 20
15.18145996138813
 10
195.3891713619218
 20
15.11463851827409
 10
195.3783275998212
 20
15.04207057815877
 10
195.3836581629793
 20
14.91162247614416
 10
195.3817136151854
 20
14.76064558185225
 10
195.3823133683215
 20
14.5932224393416
 10
195.3821506559604
 20
14.42656176118374
 10
195.3821895488136
 20
14.2736014292164
 10
195.3821816413098
 20
14.14849178985709
 10
195.3821828382745
 20
14.06507890991424
 10
195.3821827716208
 20
14.02491778281981
 10
195.3821827564383
 20
14.01410517385762
 97
        1
330
AD
 75
     1
 76
     2
 52
45.0
 41
0.1
 77
     0
 78
     1
 53
45.0
 43
0.0
 44
0.0
 45
-0.282842712474619
 46
0.0
 79
     0
 98
        1
 10
0.0
 20
0.0
  0
HATCH
  5
CB
330
48
100
AcDbEntity
  8
1
  6
Continuous
 62
     2
100
AcDbHatch
 10
0.0
 20
0.0
 30
0.0
210
0.0
220
0.0
230
1.0
  2
CUSTOM13
 70
     0
 71
     1
 91
        1
 92
        1
 93
        3
 72
     4
 94
        3
 73
     0
 74
     0
 95
       24
 96
       20
 40
0.0
 40
0.0
 40
0.0
 40
0.0
 40
0.221107500875407
 40
0.4273218586246078
 40
0.5080174679240277
 40
0.5914835907871121
 40
0.8143265690193733
 40
1.054651302686699
 40
1.295452694023296
 40
1.518109231328953
 40
1.540864321905569
 40
1.595126460622833
 40
1.659890947896149
 40
1.71415308518751
 40
1.736908174961811
 40
1.764951100735476
 40
1.801562291221124
 40
1.953914424543777
 40
2.126104167379754
 40
2.126104167379754
 40
2.126104167379754
 40
2.126104167379754
 10
185.9375369556889
 20
15.5898929511302
 10
185.9112579081812
 20
15.53097628234378
 10
185.8604698894424
 20
15.41711139679259
 10
185.8131784839112
 20
15.14441958233107
 10
185.7043482802618
 20
15.24445482575455
 10
185.5514800279637
 20
15.27118593367328
 10
185.7686155181199
 20
15.48518135017633
 10
185.7838483674381
 20
15.70332117782488
 10
185.8906889492
 20
15.88451579066427
 10
185.8305380947078
 20
16.16913226311406
 10
185.9334317395402
 20
16.14114089222453
 10
185.9779933468149
 20
16.132432516023
 10
186.0380842395397
 20
16.12139654183356
 10
186.0756619587438
 20
16.10767523055557
 10
186.1252466928606
 20
16.10756076160222
 10
186.0930158919326
 20
16.07306592398616
 10
186.017180222188
 20
16.08404104537963
 10
186.0429447159694
 20
15.8985896958245
 10
186.005589676385
 20
15.80702313549592
 10
185.985770496161
 20
15.75844135397711
 72
     4
 94
        3
 73
     0
 74
     0
 95
       70
 96
       66
 40
0.0
 40
0.0
 40
0.0
 40
0.0
 40
0.0241731073021472
 40
0.0846058988986729
 40
0.1631685280352999
 40
0.2417311571788903
 40
0.3021639488291898
 40
0.3263370654894688
 40
0.3533118254248011
 40
0.4228783438921205
 40
0.5179999095312425
 40
0.6216398239465072
 40
0.7167613891498604
 40
0.7863279069648726
 40
0.8133026791760664
 40
0.8372943998770507
 40
0.8945054261371712
 40
0.9627895541961775
 40
1.020000580349045
 40
1.043992300975144
 40
1.071934345522883
 40
1.113121768772827
 40
1.145225199332144
 40
1.225483775412665
 40
1.329819923771356
 40
1.434156071994224
 40
1.51441464779563
 40
1.546518078208232
 40
1.578974764260034
 40
1.662678849313972
 40
1.777131373668193
 40
1.901833377474584
 40
2.016285900500345
 40
2.099989982527684
 40
2.132446666570043
 40
2.158782354485766
 40
2.216720867907557
 40
2.274659381333977
 40
2.300995069255912
 40
2.333451754065885
 40
2.417155836543537
 40
2.531608358984976
 40
2.656310362283471
 40
2.770762886388575
 40
2.854466971339712
 40
2.886923657363519
 40
2.913597976832958
 40
2.982389642874778
 40
3.076451716946663
 40
3.178937260458302
 40
3.272999334739729
 40
3.341791001058968
 40
3.368465320663284
 40
3.396976080738534
 40
3.472140811845741
 40
3.578408190308431
 40
3.700226892455896
 40
3.822045594634113
 40
3.92831297325622
 40
4.003477705314617
 40
4.031988456866682
 40
4.058324144797472
 40
4.116262658236612
 40
4.174201171400388
 40
4.200536849608313
 40
4.200536849608313
 40
4.200536849608313
 40
4.200536849608313
 10
185.985770496161
 20
15.75844135397711
 10
185.993825954468
 20
15.75844359811693
 10
186.0220200663241
 20
15.75845146032804
 10
186.0765534803674
 20
15.75830754828377
 10
186.1482891808604
 20
15.75909120499904
 10
186.2236240137062
 20
15.75627570463817
 10
186.2713052366439
 20
15.76298403400963
 10
186.3195071245616
 20
15.75197563692439
 10
186.3062571799873
 20
15.80546402997039
 10
186.3151093964538
 20
15.86049583543097
 10
186.3108698036285
 20
15.95419908726114
 10
186.313348348128
 20
16.04959482218536
 10
186.309093870606
 20
16.14356821983391
 10
186.3179818665846
 20
16.19795062438015
 10
186.3046977409945
 20
16.25233997691463
 10
186.3514119277108
 20
16.2384221633536
 10
186.3943254545736
 20
16.24103877374043
 10
186.4605443456686
 20
16.23648422450753
 10
186.5013342271799
 20
16.22778162134161
 10
186.5525145690819
 20
16.2353179989019
 10
186.52537204872
 20
16.19349970223294
 10
186.4803096055708
 20
16.20284992072589
 10
186.4942065045051
 20
16.13841207371838
 10
186.4858414431655
 20
16.07378219627398
 10
186.4903632178399
 20
15.97529141193889
 10
186.4854741311169
 20
15.87595932842574
 10
186.4950258992081
 20
15.81293115552973
 10
186.4799761455201
 20
15.74964011499793
 10
186.5449159457209
 20
15.76515072944275
 10
186.6116246399498
 20
15.75499387697819
 10
186.7241435470828
 20
15.75988800099373
 10
186.8390235448954
 20
15.7569120473279
 10
186.9519871999746
 20
15.76221664184997
 10
187.0176267597678
 20
15.75107306472095
 10
187.0816276691053
 20
15.76744532319863
 10
187.0703142889189
 20
15.71761689905281
 10
187.0775339871509
 20
15.67416715212128
 10
187.0703142611269
 20
15.63071745587451
 10
187.0816277175994
 20
15.58088895196882
 10
187.0176263598972
 20
15.59726166091368
 10
186.951992124046
 20
15.58611271661594
 10
186.838997431733
 20
15.5914485720686
 10
186.7242456548643
 20
15.58834345663827
 10
186.6113183686861
 20
15.59364894682595
 10
186.5455220903585
 20
15.58257300019599
 10
186.4816097975359
 20
15.59887597847624
 10
186.4936015165127
 20
15.54423524395746
 10
186.4862104613006
 20
15.48854295047845
 10
186.4892684841984
 20
15.39649689140572
 10
186.4893422785685
 20
15.301791098731
 10
186.486031357836
 20
15.20952782902262
 10
186.4939505989904
 20
15.15435768736135
 10
186.4815076611618
 20
15.1005816910013
 10
186.5389116551632
 20
15.11453768862775
 10
186.5994708140384
 20
15.10511457884222
 10
186.7048680855082
 20
15.10942885928699
 10
186.8204294070624
 20
15.10835504612027
 10
186.9359688877798
 20
15.10725965900989
 10
187.0414181130843
 20
15.11162525770628
 10
187.1018680471805
 20
15.10209426030666
 10
187.1592837739111
 20
15.11617289606374
 10
187.147777387671
 20
15.06707153265679
 10
187.153756678175
 20
15.02564658018647
 10
187.1520311050803
 20
14.97651677966696
 10
187.1521500122972
 20
14.94854428447609
 10
187.1521871691834
 20
14.93980288195951
 72
     4
 94
        3
 73
     0
 74
     0
 95
       62
 96
       58
 40
0.0
 40
0.0
 40
0.0
 40
0.0
 40
0.0598250028308769
 40
0.20248464868979
 40
0.3727558389221599
 40
0.5154154847936923
 40
0.5752404975786476
 40
0.9332326775488671
 40
1.290451762839624
 40
1.602077253145995
 40
1.699931634112232
 40
1.799359756425133
 40
2.270120149657143
 40
2.804661928461575
 40
2.882342287383288
 40
3.076543185719135
 40
3.329004354835595
 40
3.581465524568419
 40
3.775666424543701
 40
3.853346784558321
 40
3.899120679595095
 40
3.984129341792121
 40
4.029903236817498
 40
4.105797496059655
 40
4.295533144152618
 40
4.542189486611861
 40
4.788845828875813
 40
4.978581476410197
 40
5.054475735244441
 40
5.621734664339473
 40
6.130867242037522
 40
6.225249780948722
 40
6.318913039727464
 40
6.663579954559101
 40
7.047498900224979
 40
7.435230791575953
 40
7.498943906668365
 40
7.650875181210387
 40
7.832212509001926
 40
7.98414378369734
 40
8.047856898903497
 40
8.091554632732986
 40
8.172707566964615
 40
8.216405300768322
 40
8.289021782161207
 40
8.46218416075758
 40
8.668861838005661
 40
8.842024215264253
 40
8.914640695475448
 40
8.98988158086167
 40
9.155411528827617
 40
9.32094147774444
 40
9.396182352487708
 40
9.454709011144255
 40
9.58346766017119
 40
9.712226309013468
 40
9.770752957989922
 40
9.770752957989922
 40
9.770752957989922
 40
9.770752957989922
 10
187.1521871691834
 20
14.93980288195951
 10
187.1322348171624
 20
14.93980875568672
 10
187.0647037716466
 20
14.93982863806159
 10
186.9410612161789
 20
14.93949362520326
 10
186.7863180150056
 20
14.94107673750513
 10
186.669734948248
 20
14.93686078860496
 10
186.4550942634239
 20
14.95215205331627
 10
186.8518948407229
 20
14.59198721286193
 10
186.8945656069268
 20
14.37510503397165
 10
187.318916214661
 20
14.19325062511449
 10
187.1439821496075
 20
14.0898519656807
 10
187.0194523925082
 20
13.87831523212735
 10
186.7666277235944
 20
14.34806081001557
 10
186.4797602893626
 20
14.99511516984523
 10
186.4906335926662
 20
14.68782672154696
 10
186.4882892777959
 20
14.5228861697178
 10
186.4861096126412
 20
14.28879670711696
 10
186.4980774396348
 20
14.04498072421786
 10
186.4687984740631
 20
13.89855796860987
 10
186.5114522625471
 20
13.75113490174541
 10
186.423981400564
 20
13.76685797306224
 10
186.3768527606744
 20
13.76694303543457
 10
186.2898973207713
 20
13.75109425482912
 10
186.3313474021721
 20
13.89527771422765
 10
186.3029875004285
 20
14.03855052698459
 10
186.31459737753
 20
14.27674947365268
 10
186.3124175648272
 20
14.5051723524035
 10
186.3103111127994
 20
14.66705729375999
 10
186.3208035438323
 20
14.98153709333756
 10
186.0128963252894
 20
14.29229470872437
 10
185.7055258267455
 20
13.81476750243045
 10
185.5851367066275
 20
14.03741112637427
 10
185.4074607910721
 20
14.15011034955559
 10
185.8853326362894
 20
14.32548143465464
 10
185.9353959057208
 20
14.56091929252032
 10
186.3583799621719
 20
14.95322989344608
 10
186.1276754273541
 20
14.93655307029066
 10
186.0049685859343
 20
14.94269518948773
 10
185.8325483095661
 20
14.93312822699574
 10
185.721322469445
 20
14.95448818489667
 10
185.6025779627447
 20
14.92136265357419
 10
185.6183169706686
 20
15.00203900606882
 10
185.6178550933762
 20
15.04645414290851
 10
185.6027881889931
 20
15.12967081778528
 10
185.7372380935443
 20
15.09062651983877
 10
185.8619755545747
 20
15.11739729328417
 10
186.062875523728
 20
15.10063949044047
 10
186.1921540949352
 20
15.12204225912998
 10
186.3328419928295
 20
15.08868778853415
 10
186.2980927452614
 20
15.22651875785066
 10
186.3222185666713
 20
15.34963257349481
 10
186.2967086182392
 20
15.47024055670339
 10
186.3333251146684
 20
15.60539865141501
 10
186.221141702777
 20
15.58094545781897
 10
186.1280356457137
 20
15.59307749842028
 10
186.0191547579819
 20
15.58957630069999
 10
185.9569697640964
 20
15.58981755951609
 10
185.9375369557246
 20
15.5898929512415
 97
        3
330
AF
330
B0
330
AE
 75
     1
 76
     2
 52
45.0
 41
0.1
 77
     0
 78
     1
 53
45.0
 43
0.0
 44
0.0
 45
-0.282842712474619
 46
0.0
 79
     0
 98
        1
 10
0.0
 20
0.0
  0
HATCH
  5
CC
330
48
100
AcDbEntity
  8
1
  6
Continuous
 62
     2
100
AcDbHatch
 10
0.0
 20
0.0
 30
0.0
210
0.0
220
0.0
230
1.0
  2
CUSTOM14
 70
     0
 71
     1
 91
        1
 92
        1
 93
        4
 72
     1
 10
192.4578138032672
 20
15.22875434022058
 11
191.1602971697031
 21
15.22875434022058
 72
     1
 10
191.1602971697031
 20
15.22875434022058
 11
191.1602971697031
 21
15.39722336795626
 72
     1
 10
191.1602971697031
 20
15.39722336795626
 11
192.4578138032672
 21
15.39722336795626
 72
     1
 10
192.4578138032672
 20
15.39722336795626
 11
192.4578138032672
 21
15.22875434022058
 97
        1
330
B1
 75
     1
 76
     2
 52
45.0
 41
0.1
 77
     0
 78
     1
 53
45.0
 43
0.0
 44
0.0
 45
-0.282842712474619
 46
0.0
 79
     0
 98
        1
 10
0.0
 20
0.0
  0
ENDBLK
  5
4A
330
48
100
AcDbEntity
  8
0
100
AcDbBlockEnd
  0
BLOCK
  5
4D
330
4B
100
AcDbEntity
  8
0
100
AcDbBlockBegin
  2
開示A4枠
 70
     0
 10
0.0
 20
0.0
 30
0.0
  3
開示A4枠
  1

  0
INSERT
  5
4C
330
4B
100
AcDbEntity
  8
1
100
AcDbBlockReference
  2
開示A4
 10
0.0
 20
0.0
 30
0.0
  0
ENDBLK
  5
4E
330
4B
100
AcDbEntity
  8
0
100
AcDbBlockEnd
  0
BLOCK
  5
1C2
330
1BB
100
AcDbEntity
  8
0
100
AcDbBlockBegin
  2
*D3
 70
     1
 10
0.0
 20
0.0
 30
0.0
  3
*D3
  1

  0
LINE
  5
1BC
330
1BB
100
AcDbEntity
  8
0
  6
Continuous
 62
     2
100
AcDbLine
 10
127.6270647310029
 20
157.8547345740192
 30
0.0
 11
127.6270647310029
 21
107.3547345740192
 31
0.0
  0
LINE
  5
1BD
330
1BB
100
AcDbEntity
  8
0
  6
Continuous
 62
     2
100
AcDbLine
 10
112.7909294335879
 20
107.3547345740192
 30
0.0
 11
128.6270647310029
 21
107.3547345740192
 31
0.0
  0
LINE
  5
1BE
330
1BB
100
AcDbEntity
  8
0
  6
Continuous
 62
     2
100
AcDbLine
 10
118.6409294335879
 20
157.8547345740192
 30
0.0
 11
128.6270647310029
 21
157.8547345740192
 31
0.0
  0
SOLID
  5
1BF
330
1BB
100
AcDbEntity
  8
0
 62
     2
100
AcDbTrace
 10
128.0878484725588
 20
154.3547345740192
 30
0.0
 11
127.166280989447
 21
154.3547345740192
 31
0.0
 12
127.6270647310029
 22
157.8547345740192
 32
0.0
 13
127.6270647310029
 23
157.8547345740192
 33
0.0
  0
SOLID
  5
1C0
330
1BB
100
AcDbEntity
  8
0
 62
     2
100
AcDbTrace
 10
127.166280989447
 20
110.8547345740192
 30
0.0
 11
128.0878484725588
 21
110.8547345740192
 31
0.0
 12
127.6270647310029
 22
107.3547345740192
 32
0.0
 13
127.6270647310029
 23
107.3547345740192
 33
0.0
  0
MTEXT
  5
1C1
330
1BB
100
AcDbEntity
  8
0
 62
     7
100
AcDbMText
 10
126.6270647310029
 20
129.4851903312152
 30
0.0
 40
3.5
 41
0.0
 71
     7
 72
     1
  1
51
  7
CONVERTER_12
 11
0.0
 21
1.0
 31
0.0
 73
     1
 44
0.60024009603842
  0
ENDBLK
  5
1C3
330
1BB
100
AcDbEntity
  8
0
100
AcDbBlockEnd
  0
BLOCK
  5
1CB
330
1C6
100
AcDbEntity
  8
0
100
AcDbBlockBegin
  2
*D4
 70
     1
 10
0.0
 20
0.0
 30
0.0
  3
*D4
  1

  0
LINE
  5
1C7
330
1C6
100
AcDbEntity
  8
0
  6
Continuous
 62
     2
100
AcDbLine
 10
121.0100571488614
 20
203.3150254262599
 30
0.0
 11
100.0316399169777
 21
184.2734556160382
 31
0.0
  0
SOLID
  5
1C8
330
1C6
100
AcDbEntity
  8
0
 62
     2
100
AcDbTrace
 10
106.1773020997306
 20
189.2294228722699
 30
0.0
 11
105.5579181840566
 21
189.9118085337058
 31
0.0
 12
108.4592269890519
 22
191.922959665406
 32
0.0
 13
108.4592269890519
 23
191.922959665406
 33
0.0
  0
SOLID
  5
1C9
330
1C6
100
AcDbEntity
  8
0
 62
     2
100
AcDbTrace
 10
119.4045567674453
 20
202.4800462757688
 30
0.0
 11
120.0239406831192
 21
201.7976606143328
 31
0.0
 12
117.122631878124
 22
199.7865094826326
 32
0.0
 13
117.122631878124
 23
199.7865094826326
 33
0.0
  0
MTEXT
  5
1CA
330
1C6
100
AcDbEntity
  8
0
 62
     7
100
AcDbMText
 10
100.3443560439212
 20
185.907808278088
 30
0.0
 40
3.5
 41
0.0
 71
     7
 72
     1
  1
\C7;{\Fgdt;n}\C7;12
  7
CONVERTER_12
 11
0.7404619563309419
 21
0.6720982749766244
 31
0.0
 73
     1
 44
0.60024009603842
  0
ENDBLK
  5
1CC
330
1C6
100
AcDbEntity
  8
0
100
AcDbBlockEnd
  0
ENDSEC
  0
SECTION
  2
ENTITIES
  0
INSERT
  5
4F
330
1F
100
AcDbEntity
  8
0
100
AcDbBlockReference
  2
開示A4枠
 10
0.0
 20
0.0
 30
0.0
  0
LINE
  5
CD
330
1F
100
AcDbEntity
  8
0
  6
DASH_CENTER
 62
     2
100
AcDbLine
 10
103.9409294335879
 20
195.8547345740193
 30
0.0
 11
121.6409294335879
 21
195.8547345740193
 31
0.0
  0
LINE
  5
CE
330
1F
100
AcDbEntity
  8
0
  6
DASH_CENTER
 62
     2
100
AcDbLine
 10
112.7909294335879
 20
160.8547345740193
 30
0.0
 11
112.7909294335879
 21
104.3547345740193
 31
0.0
  0
LINE
  5
CF
330
1F
100
AcDbEntity
  8
0
  6
DASH_CENTER
 62
     2
100
AcDbLine
 10
112.7909294335879
 20
204.7047345740193
 30
0.0
 11
112.7909294335879
 21
187.0047345740193
 31
0.0
  0
LINE
  5
D0
330
1F
100
AcDbEntity
  8
0
  6
Continuous
 62
     7
100
AcDbLine
 10
113.5290346405354
 20
195.1166293670717
 30
0.0
 11
113.6339530288039
 21
195.0117109788033
 31
0.0
  0
LINE
  5
D1
330
1F
100
AcDbEntity
  8
0
  6
Continuous
 62
     7
100
AcDbLine
 10
111.9479058383719
 20
195.0117109788033
 30
0.0
 11
112.0528242266402
 21
195.1166293670718
 31
0.0
  0
LINE
  5
D2
330
1F
100
AcDbEntity
  8
0
  6
Continuous
 62
     7
100
AcDbLine
 10
111.9479058383719
 20
196.6977581692353
 30
0.0
 11
112.0528242266403
 21
196.592839780967
 31
0.0
  0
LINE
  5
D3
330
1F
100
AcDbEntity
  8
0
  6
Continuous
 62
     7
100
AcDbLine
 10
113.6339530288039
 20
196.6977581692353
 30
0.0
 11
113.5290346405355
 21
196.5928397809669
 31
0.0
  0
LINE
  5
D4
330
1F
100
AcDbEntity
  8
0
  6
Continuous
 62
     7
100
AcDbLine
 10
114.5409294335879
 20
196.4547345740193
 30
0.0
 11
114.5409294335879
 21
196.3217033883432
 31
0.0
  0
LINE
  5
D5
330
1F
100
AcDbEntity
  8
0
  6
Continuous
 62
     7
100
AcDbLine
 10
114.5409294335879
 20
195.3877657596954
 30
0.0
 11
114.5409294335879
 21
195.2547345740193
 31
0.0
  0
LINE
  5
D6
330
1F
100
AcDbEntity
  8
0
  6
Continuous
 62
     7
100
AcDbLine
 10
112.323960619264
 20
194.1047345740193
 30
0.0
 11
112.1909294335879
 21
192.7047345740193
 31
0.0
  0
LINE
  5
D7
330
1F
100
AcDbEntity
  8
0
  6
Continuous
 62
     7
100
AcDbLine
 10
113.2578982479118
 20
194.1047345740193
 30
0.0
 11
113.3909294335879
 21
192.7047345740193
 31
0.0
  0
LINE
  5
D8
330
1F
100
AcDbEntity
  8
0
  6
Continuous
 62
     7
100
AcDbLine
 10
114.5409294335879
 20
195.3877657596954
 30
0.0
 11
115.9409294335879
 21
195.2547345740193
 31
0.0
  0
LINE
  5
D9
330
1F
100
AcDbEntity
  8
0
  6
Continuous
 62
     7
100
AcDbLine
 10
114.5409294335879
 20
196.3217033883432
 30
0.0
 11
115.9409294335879
 21
196.4547345740193
 31
0.0
  0
LINE
  5
DA
330
1F
100
AcDbEntity
  8
0
  6
Continuous
 62
     7
100
AcDbLine
 10
113.3909294335879
 20
199.0047345740193
 30
0.0
 11
113.2578982479118
 21
197.6047345740193
 31
0.0
  0
LINE
  5
DB
330
1F
100
AcDbEntity
  8
0
  6
Continuous
 62
     7
100
AcDbLine
 10
112.323960619264
 20
197.6047345740193
 30
0.0
 11
112.1909294335879
 21
199.0047345740193
 31
0.0
  0
LINE
  5
DC
330
1F
100
AcDbEntity
  8
0
  6
Continuous
 62
     7
100
AcDbLine
 10
109.6409294335879
 20
195.2547345740193
 30
0.0
 11
111.0409294335879
 21
195.3877657596953
 31
0.0
  0
LINE
  5
DD
330
1F
100
AcDbEntity
  8
0
  6
Continuous
 62
     7
100
AcDbLine
 10
109.6409294335879
 20
196.4547345740193
 30
0.0
 11
111.0409294335879
 21
196.3217033883432
 31
0.0
  0
LINE
  5
DE
330
1F
100
AcDbEntity
  8
0
  6
Continuous
 62
     7
100
AcDbLine
 10
113.2578982479118
 20
194.1047345740193
 30
0.0
 11
113.3909294335879
 21
194.1047345740193
 31
0.0
  0
LINE
  5
DF
330
1F
100
AcDbEntity
  8
0
  6
Continuous
 62
     7
100
AcDbLine
 10
111.0409294335879
 20
195.3877657596953
 30
0.0
 11
111.0409294335879
 21
195.2547345740193
 31
0.0
  0
LINE
  5
E0
330
1F
100
AcDbEntity
  8
0
  6
Continuous
 62
     7
100
AcDbLine
 10
112.323960619264
 20
197.6047345740193
 30
0.0
 11
113.2578982479118
 21
197.6047345740193
 31
0.0
  0
LINE
  5
E1
330
1F
100
AcDbEntity
  8
0
  6
Continuous
 62
     7
100
AcDbLine
 10
113.2578982479118
 20
197.6047345740193
 30
0.0
 11
113.3909294335879
 21
197.6047345740193
 31
0.0
  0
LINE
  5
E2
330
1F
100
AcDbEntity
  8
0
  6
Continuous
 62
     7
100
AcDbLine
 10
114.5409294335879
 20
196.3217033883432
 30
0.0
 11
114.5409294335879
 21
195.3877657596954
 31
0.0
  0
LINE
  5
E3
330
1F
100
AcDbEntity
  8
0
  6
Continuous
 62
     7
100
AcDbLine
 10
112.323960619264
 20
194.1047345740193
 30
0.0
 11
113.2578982479118
 21
194.1047345740193
 31
0.0
  0
LINE
  5
E4
330
1F
100
AcDbEntity
  8
0
  6
Continuous
 62
     7
100
AcDbLine
 10
111.0409294335879
 20
196.3217033883432
 30
0.0
 11
111.0409294335879
 21
195.3877657596953
 31
0.0
  0
LINE
  5
E5
330
1F
100
AcDbEntity
  8
0
  6
Continuous
 62
     7
100
AcDbLine
 10
112.0528242266402
 20
195.1166293670718
 30
0.0
 11
112.323960619264
 21
194.1047345740193
 31
0.0
  0
LINE
  5
E6
330
1F
100
AcDbEntity
  8
0
  6
Continuous
 62
     7
100
AcDbLine
 10
111.0409294335879
 20
195.3877657596953
 30
0.0
 11
112.0528242266402
 21
195.1166293670718
 31
0.0
  0
LINE
  5
E7
330
1F
100
AcDbEntity
  8
0
  6
Continuous
 62
     7
100
AcDbLine
 10
112.0528242266403
 20
196.592839780967
 30
0.0
 11
111.0409294335879
 21
196.3217033883432
 31
0.0
  0
LINE
  5
E8
330
1F
100
AcDbEntity
  8
0
  6
Continuous
 62
     7
100
AcDbLine
 10
112.323960619264
 20
197.6047345740193
 30
0.0
 11
112.0528242266403
 21
196.592839780967
 31
0.0
  0
LINE
  5
E9
330
1F
100
AcDbEntity
  8
0
  6
Continuous
 62
     7
100
AcDbLine
 10
113.5290346405355
 20
196.5928397809669
 30
0.0
 11
113.2578982479118
 21
197.6047345740193
 31
0.0
  0
LINE
  5
EA
330
1F
100
AcDbEntity
  8
0
  6
Continuous
 62
     7
100
AcDbLine
 10
114.5409294335879
 20
196.3217033883432
 30
0.0
 11
113.5290346405355
 21
196.5928397809669
 31
0.0
  0
LINE
  5
EB
330
1F
100
AcDbEntity
  8
0
  6
Continuous
 62
     7
100
AcDbLine
 10
113.5290346405354
 20
195.1166293670717
 30
0.0
 11
114.5409294335879
 21
195.3877657596954
 31
0.0
  0
LINE
  5
EC
330
1F
100
AcDbEntity
  8
0
  6
Continuous
 62
     7
100
AcDbLine
 10
113.2578982479118
 20
194.1047345740193
 30
0.0
 11
113.5290346405354
 21
195.1166293670717
 31
0.0
  0
LINE
  5
ED
330
1F
100
AcDbEntity
  8
0
  6
Continuous
 62
     7
100
AcDbLine
 10
111.9479058383719
 20
195.0117109788033
 30
0.0
 11
112.1909294335879
 21
194.1047345740193
 31
0.0
  0
LINE
  5
EE
330
1F
100
AcDbEntity
  8
0
  6
Continuous
 62
     7
100
AcDbLine
 10
111.0409294335879
 20
195.2547345740193
 30
0.0
 11
111.9479058383719
 21
195.0117109788033
 31
0.0
  0
LINE
  5
EF
330
1F
100
AcDbEntity
  8
0
  6
Continuous
 62
     7
100
AcDbLine
 10
111.9479058383719
 20
196.6977581692353
 30
0.0
 11
111.0409294335879
 21
196.4547345740193
 31
0.0
  0
LINE
  5
F0
330
1F
100
AcDbEntity
  8
0
  6
Continuous
 62
     7
100
AcDbLine
 10
112.1909294335879
 20
197.6047345740193
 30
0.0
 11
111.9479058383719
 21
196.6977581692353
 31
0.0
  0
LINE
  5
F1
330
1F
100
AcDbEntity
  8
0
  6
Continuous
 62
     7
100
AcDbLine
 10
113.6339530288039
 20
196.6977581692353
 30
0.0
 11
113.3909294335879
 21
197.6047345740193
 31
0.0
  0
LINE
  5
F2
330
1F
100
AcDbEntity
  8
0
  6
Continuous
 62
     7
100
AcDbLine
 10
114.5409294335879
 20
196.4547345740193
 30
0.0
 11
113.6339530288039
 21
196.6977581692353
 31
0.0
  0
LINE
  5
F3
330
1F
100
AcDbEntity
  8
0
  6
Continuous
 62
     7
100
AcDbLine
 10
113.6339530288039
 20
195.0117109788033
 30
0.0
 11
114.5409294335879
 21
195.2547345740193
 31
0.0
  0
LINE
  5
F4
330
1F
100
AcDbEntity
  8
0
  6
Continuous
 62
     7
100
AcDbLine
 10
113.3909294335879
 20
194.1047345740193
 30
0.0
 11
113.6339530288039
 21
195.0117109788033
 31
0.0
  0
LINE
  5
F5
330
1F
100
AcDbEntity
  8
0
  6
Continuous
 62
     7
100
AcDbLine
 10
114.5409294335879
 20
195.2547345740193
 30
0.0
 11
115.9409294335879
 21
195.2547345740193
 31
0.0
  0
LINE
  5
F6
330
1F
100
AcDbEntity
  8
0
  6
Continuous
 62
     7
100
AcDbLine
 10
114.5409294335879
 20
196.4547345740193
 30
0.0
 11
115.9409294335879
 21
196.4547345740193
 31
0.0
  0
LINE
  5
F7
330
1F
100
AcDbEntity
  8
0
  6
Continuous
 62
     7
100
AcDbLine
 10
109.6409294335879
 20
195.2547345740193
 30
0.0
 11
111.0409294335879
 21
195.2547345740193
 31
0.0
  0
LINE
  5
F8
330
1F
100
AcDbEntity
  8
0
  6
Continuous
 62
     7
100
AcDbLine
 10
109.6409294335879
 20
196.4547345740193
 30
0.0
 11
111.0409294335879
 21
196.4547345740193
 31
0.0
  0
LINE
  5
F9
330
1F
100
AcDbEntity
  8
0
  6
Continuous
 62
     7
100
AcDbLine
 10
112.1909294335879
 20
194.1047345740193
 30
0.0
 11
112.1909294335879
 21
192.7047345740193
 31
0.0
  0
LINE
  5
FA
330
1F
100
AcDbEntity
  8
0
  6
Continuous
 62
     7
100
AcDbLine
 10
113.3909294335879
 20
194.1047345740193
 30
0.0
 11
113.3909294335879
 21
192.7047345740193
 31
0.0
  0
LINE
  5
FB
330
1F
100
AcDbEntity
  8
0
  6
Continuous
 62
     7
100
AcDbLine
 10
113.3909294335879
 20
199.0047345740193
 30
0.0
 11
113.3909294335879
 21
197.6047345740193
 31
0.0
  0
LINE
  5
FC
330
1F
100
AcDbEntity
  8
0
  6
Continuous
 62
     7
100
AcDbLine
 10
112.1909294335879
 20
199.0047345740193
 30
0.0
 11
112.1909294335879
 21
197.6047345740193
 31
0.0
  0
LINE
  5
FD
330
1F
100
AcDbEntity
  8
0
  6
Continuous
 62
     7
100
AcDbLine
 10
111.0409294335879
 20
196.4547345740193
 30
0.0
 11
111.0409294335879
 21
196.3217033883432
 31
0.0
  0
LINE
  5
FE
330
1F
100
AcDbEntity
  8
0
  6
Continuous
 62
     7
100
AcDbLine
 10
109.6409294335879
 20
196.4547345740193
 30
0.0
 11
109.6409294335879
 21
195.2547345740193
 31
0.0
  0
LINE
  5
FF
330
1F
100
AcDbEntity
  8
0
  6
Continuous
 62
     7
100
AcDbLine
 10
115.9409294335879
 20
196.4547345740193
 30
0.0
 11
115.9409294335879
 21
195.2547345740193
 31
0.0
  0
LINE
  5
100
330
1F
100
AcDbEntity
  8
0
  6
Continuous
 62
     7
100
AcDbLine
 10
112.1909294335879
 20
194.1047345740193
 30
0.0
 11
112.323960619264
 21
194.1047345740193
 31
0.0
  0
LINE
  5
101
330
1F
100
AcDbEntity
  8
0
  6
Continuous
 62
     7
100
AcDbLine
 10
112.1909294335879
 20
197.6047345740193
 30
0.0
 11
112.323960619264
 21
197.6047345740193
 31
0.0
  0
LINE
  5
102
330
1F
100
AcDbEntity
  8
0
  6
Continuous
 62
     7
100
AcDbLine
 10
112.1909294335879
 20
192.7047345740193
 30
0.0
 11
113.3909294335879
 21
192.7047345740193
 31
0.0
  0
LINE
  5
103
330
1F
100
AcDbEntity
  8
0
  6
Continuous
 62
     7
100
AcDbLine
 10
112.1909294335879
 20
199.0047345740193
 30
0.0
 11
113.3909294335879
 21
199.0047345740193
 31
0.0
  0
LINE
  5
104
330
1F
100
AcDbEntity
  8
1
  6
Continuous
 62
     7
100
AcDbLine
 10
110.4909294335879
 20
130.3817163507166
 30
0.0
 11
110.4909294335879
 21
132.073425973851
 31
0.0
  0
LINE
  5
105
330
1F
100
AcDbEntity
  8
1
  6
Continuous
 62
     7
100
AcDbLine
 10
110.4909294335879
 20
127.8817163507166
 30
0.0
 11
110.4909294335879
 21
129.573425973851
 31
0.0
  0
LINE
  5
106
330
1F
100
AcDbEntity
  8
1
  6
Continuous
 62
     7
100
AcDbLine
 10
110.4909294335879
 20
125.3817163507166
 30
0.0
 11
110.4909294335879
 21
127.073425973851
 31
0.0
  0
LINE
  5
107
330
1F
100
AcDbEntity
  8
1
  6
Continuous
 62
     7
100
AcDbLine
 10
110.4909294335879
 20
122.8817163507166
 30
0.0
 11
110.4909294335879
 21
124.573425973851
 31
0.0
  0
LINE
  5
108
330
1F
100
AcDbEntity
  8
1
  6
Continuous
 62
     7
100
AcDbLine
 10
110.4909294335879
 20
120.3817163507166
 30
0.0
 11
110.4909294335879
 21
122.073425973851
 31
0.0
  0
LINE
  5
109
330
1F
100
AcDbEntity
  8
1
  6
Continuous
 62
     7
100
AcDbLine
 10
110.4909294335879
 20
117.8817163507166
 30
0.0
 11
110.4909294335879
 21
119.573425973851
 31
0.0
  0
LINE
  5
10A
330
1F
100
AcDbEntity
  8
1
  6
Continuous
 62
     7
100
AcDbLine
 10
110.4909294335879
 20
115.3817163507166
 30
0.0
 11
110.4909294335879
 21
117.073425973851
 31
0.0
  0
LINE
  5
10B
330
1F
100
AcDbEntity
  8
1
  6
Continuous
 62
     7
100
AcDbLine
 10
115.0909294335879
 20
115.327752797322
 30
0.0
 11
115.0909294335879
 21
114.5547345740193
 31
0.0
  0
LINE
  5
10C
330
1F
100
AcDbEntity
  8
1
  6
Continuous
 62
     7
100
AcDbLine
 10
115.0909294335879
 20
117.827752797322
 30
0.0
 11
115.0909294335879
 21
116.1360431741874
 31
0.0
  0
LINE
  5
10D
330
1F
100
AcDbEntity
  8
1
  6
Continuous
 62
     7
100
AcDbLine
 10
115.0909294335879
 20
120.327752797322
 30
0.0
 11
115.0909294335879
 21
118.6360431741874
 31
0.0
  0
LINE
  5
10E
330
1F
100
AcDbEntity
  8
1
  6
Continuous
 62
     7
100
AcDbLine
 10
115.0909294335879
 20
122.827752797322
 30
0.0
 11
115.0909294335879
 21
121.1360431741874
 31
0.0
  0
LINE
  5
10F
330
1F
100
AcDbEntity
  8
1
  6
Continuous
 62
     7
100
AcDbLine
 10
115.0909294335879
 20
125.327752797322
 30
0.0
 11
115.0909294335879
 21
123.6360431741874
 31
0.0
  0
LINE
  5
110
330
1F
100
AcDbEntity
  8
1
  6
Continuous
 62
     7
100
AcDbLine
 10
115.0909294335879
 20
127.827752797322
 30
0.0
 11
115.0909294335879
 21
126.1360431741874
 31
0.0
  0
LINE
  5
111
330
1F
100
AcDbEntity
  8
1
  6
Continuous
 62
     7
100
AcDbLine
 10
115.0909294335879
 20
130.327752797322
 30
0.0
 11
115.0909294335879
 21
128.6360431741874
 31
0.0
  0
LINE
  5
112
330
1F
100
AcDbEntity
  8
1
  6
Continuous
 62
     7
100
AcDbLine
 10
115.0909294335879
 20
132.827752797322
 30
0.0
 11
115.0909294335879
 21
131.1360431741874
 31
0.0
  0
LINE
  5
113
330
1F
100
AcDbEntity
  8
1
  6
Continuous
 62
     7
100
AcDbLine
 10
115.0909294335879
 20
135.327752797322
 30
0.0
 11
115.0909294335879
 21
133.6360431741874
 31
0.0
  0
LINE
  5
114
330
1F
100
AcDbEntity
  8
1
  6
Continuous
 62
     7
100
AcDbLine
 10
110.4909294335879
 20
134.573425973851
 30
0.0
 11
110.4909294335879
 21
132.8817163507166
 31
0.0
  0
LINE
  5
115
330
1F
100
AcDbEntity
  8
1
  6
Continuous
 62
     7
100
AcDbLine
 10
110.4909294335879
 20
137.073425973851
 30
0.0
 11
110.4909294335879
 21
135.3817163507166
 31
0.0
  0
LINE
  5
116
330
1F
100
AcDbEntity
  8
1
  6
Continuous
 62
     7
100
AcDbLine
 10
115.0909294335879
 20
137.827752797322
 30
0.0
 11
115.0909294335879
 21
136.1360431741874
 31
0.0
  0
LINE
  5
117
330
1F
100
AcDbEntity
  8
1
  6
Continuous
 62
     7
100
AcDbLine
 10
115.0909294335879
 20
140.327752797322
 30
0.0
 11
115.0909294335879
 21
138.6360431741874
 31
0.0
  0
LINE
  5
118
330
1F
100
AcDbEntity
  8
1
  6
Continuous
 62
     7
100
AcDbLine
 10
115.0909294335879
 20
142.827752797322
 30
0.0
 11
115.0909294335879
 21
141.1360431741874
 31
0.0
  0
LINE
  5
119
330
1F
100
AcDbEntity
  8
1
  6
Continuous
 62
     7
100
AcDbLine
 10
115.0909294335879
 20
145.327752797322
 30
0.0
 11
115.0909294335879
 21
143.6360431741874
 31
0.0
  0
LINE
  5
11A
330
1F
100
AcDbEntity
  8
1
  6
Continuous
 62
     7
100
AcDbLine
 10
115.0909294335879
 20
147.827752797322
 30
0.0
 11
115.0909294335879
 21
146.1360431741874
 31
0.0
  0
LINE
  5
11B
330
1F
100
AcDbEntity
  8
1
  6
Continuous
 62
     7
100
AcDbLine
 10
115.0909294335879
 20
150.327752797322
 30
0.0
 11
115.0909294335879
 21
148.6360431741874
 31
0.0
  0
LINE
  5
11C
330
1F
100
AcDbEntity
  8
1
  6
Continuous
 62
     7
100
AcDbLine
 10
110.4909294335879
 20
139.573425973851
 30
0.0
 11
110.4909294335879
 21
137.8817163507166
 31
0.0
  0
LINE
  5
11D
330
1F
100
AcDbEntity
  8
1
  6
Continuous
 62
     7
100
AcDbLine
 10
110.4909294335879
 20
142.073425973851
 30
0.0
 11
110.4909294335879
 21
140.3817163507166
 31
0.0
  0
LINE
  5
11E
330
1F
100
AcDbEntity
  8
1
  6
Continuous
 62
     7
100
AcDbLine
 10
110.4909294335879
 20
144.5734259738511
 30
0.0
 11
110.4909294335879
 21
142.8817163507166
 31
0.0
  0
LINE
  5
11F
330
1F
100
AcDbEntity
  8
1
  6
Continuous
 62
     7
100
AcDbLine
 10
110.4909294335879
 20
147.0734259738511
 30
0.0
 11
110.4909294335879
 21
145.3817163507166
 31
0.0
  0
LINE
  5
120
330
1F
100
AcDbEntity
  8
1
  6
Continuous
 62
     7
100
AcDbLine
 10
110.4909294335879
 20
149.5734259738511
 30
0.0
 11
110.4909294335879
 21
147.8817163507166
 31
0.0
  0
LINE
  5
121
330
1F
100
AcDbEntity
  8
1
  6
Continuous
 62
     7
100
AcDbLine
 10
115.0909294335879
 20
152.827752797322
 30
0.0
 11
115.0909294335879
 21
151.1360431741874
 31
0.0
  0
LINE
  5
122
330
1F
100
AcDbEntity
  8
1
  6
Continuous
 62
     7
100
AcDbLine
 10
115.0909294335879
 20
153.8547345740193
 30
0.0
 11
115.0909294335879
 21
153.6360431741874
 31
0.0
  0
LINE
  5
123
330
1F
100
AcDbEntity
  8
1
  6
Continuous
 62
     7
100
AcDbLine
 10
110.4909294335879
 20
152.0734259738511
 30
0.0
 11
110.4909294335879
 21
150.3817163507166
 31
0.0
  0
LINE
  5
124
330
1F
100
AcDbEntity
  8
1
  6
Continuous
 62
     7
100
AcDbLine
 10
110.4909294335879
 20
153.8547345740193
 30
0.0
 11
110.4909294335879
 21
152.8817163507166
 31
0.0
  0
LINE
  5
125
330
1F
100
AcDbEntity
  8
1
  6
Continuous
 62
     7
100
AcDbLine
 10
115.0909294335879
 20
153.8547345740193
 30
0.0
 11
118.6409294335879
 21
157.8547345740193
 31
0.0
  0
LINE
  5
126
330
1F
100
AcDbEntity
  8
1
  6
Continuous
 62
     7
100
AcDbLine
 10
110.4909294335879
 20
153.8547345740193
 30
0.0
 11
115.0909294335879
 21
153.8547345740193
 31
0.0
  0
LINE
  5
127
330
1F
100
AcDbEntity
  8
1
  6
Continuous
 62
     7
100
AcDbLine
 10
106.9409294335879
 20
157.8547345740193
 30
0.0
 11
110.4909294335879
 21
153.8547345740193
 31
0.0
  0
LINE
  5
128
330
1F
100
AcDbEntity
  8
1
  6
Continuous
 62
     7
100
AcDbLine
 10
115.0909294335879
 20
153.6360431741874
 30
0.0
 11
115.8909294335879
 21
153.2482963949606
 31
0.0
  0
LINE
  5
129
330
1F
100
AcDbEntity
  8
1
  6
Continuous
 62
     7
100
AcDbLine
 10
110.4909294335879
 20
152.8817163507166
 30
0.0
 11
115.0909294335879
 21
153.6360431741874
 31
0.0
  0
LINE
  5
12A
330
1F
100
AcDbEntity
  8
1
  6
Continuous
 62
     7
100
AcDbLine
 10
109.6909294335879
 20
144.9611727530779
 30
0.0
 11
110.4909294335879
 21
145.3817163507166
 31
0.0
  0
LINE
  5
12B
330
1F
100
AcDbEntity
  8
1
  6
Continuous
 62
     7
100
AcDbLine
 10
110.4909294335879
 20
145.3817163507166
 30
0.0
 11
115.0909294335879
 21
146.1360431741874
 31
0.0
  0
LINE
  5
12C
330
1F
100
AcDbEntity
  8
1
  6
Continuous
 62
     7
100
AcDbLine
 10
110.4909294335879
 20
152.0734259738511
 30
0.0
 11
115.0909294335879
 21
152.827752797322
 31
0.0
  0
LINE
  5
12D
330
1F
100
AcDbEntity
  8
1
  6
Continuous
 62
     7
100
AcDbLine
 10
109.6909294335879
 20
152.4611727530779
 30
0.0
 11
110.4909294335879
 21
152.0734259738511
 31
0.0
  0
LINE
  5
12E
330
1F
100
AcDbEntity
  8
1
  6
Continuous
 62
     7
100
AcDbLine
 10
109.6909294335879
 20
152.4611727530779
 30
0.0
 11
110.4909294335879
 21
152.8817163507166
 31
0.0
  0
LINE
  5
12F
330
1F
100
AcDbEntity
  8
1
  6
Continuous
 62
     7
100
AcDbLine
 10
115.0909294335879
 20
152.827752797322
 30
0.0
 11
115.8909294335879
 21
153.2482963949606
 31
0.0
  0
LINE
  5
130
330
1F
100
AcDbEntity
  8
1
  6
Continuous
 62
     7
100
AcDbLine
 10
115.8909294335879
 20
153.2482963949606
 30
0.0
 11
109.6909294335879
 21
152.4611727530779
 31
0.0
  0
LINE
  5
131
330
1F
100
AcDbEntity
  8
1
  6
Continuous
 62
     7
100
AcDbLine
 10
110.4909294335879
 20
149.5734259738511
 30
0.0
 11
115.0909294335879
 21
150.327752797322
 31
0.0
  0
LINE
  5
132
330
1F
100
AcDbEntity
  8
1
  6
Continuous
 62
     7
100
AcDbLine
 10
109.6909294335879
 20
149.9611727530779
 30
0.0
 11
110.4909294335879
 21
149.5734259738511
 31
0.0
  0
LINE
  5
133
330
1F
100
AcDbEntity
  8
1
  6
Continuous
 62
     7
100
AcDbLine
 10
110.4909294335879
 20
150.3817163507166
 30
0.0
 11
115.0909294335879
 21
151.1360431741874
 31
0.0
  0
LINE
  5
134
330
1F
100
AcDbEntity
  8
1
  6
Continuous
 62
     7
100
AcDbLine
 10
109.6909294335879
 20
149.9611727530779
 30
0.0
 11
110.4909294335879
 21
150.3817163507166
 31
0.0
  0
LINE
  5
135
330
1F
100
AcDbEntity
  8
1
  6
Continuous
 62
     7
100
AcDbLine
 10
115.0909294335879
 20
150.327752797322
 30
0.0
 11
115.8909294335879
 21
150.7482963949606
 31
0.0
  0
LINE
  5
136
330
1F
100
AcDbEntity
  8
1
  6
Continuous
 62
     7
100
AcDbLine
 10
115.0909294335879
 20
151.1360431741874
 30
0.0
 11
115.8909294335879
 21
150.7482963949606
 31
0.0
  0
LINE
  5
137
330
1F
100
AcDbEntity
  8
1
  6
Continuous
 62
     7
100
AcDbLine
 10
115.8909294335879
 20
150.7482963949606
 30
0.0
 11
109.6909294335879
 21
149.9611727530779
 31
0.0
  0
LINE
  5
138
330
1F
100
AcDbEntity
  8
1
  6
Continuous
 62
     7
100
AcDbLine
 10
110.4909294335879
 20
147.0734259738511
 30
0.0
 11
115.0909294335879
 21
147.827752797322
 31
0.0
  0
LINE
  5
139
330
1F
100
AcDbEntity
  8
1
  6
Continuous
 62
     7
100
AcDbLine
 10
109.6909294335879
 20
147.4611727530779
 30
0.0
 11
110.4909294335879
 21
147.0734259738511
 31
0.0
  0
LINE
  5
13A
330
1F
100
AcDbEntity
  8
1
  6
Continuous
 62
     7
100
AcDbLine
 10
110.4909294335879
 20
147.8817163507166
 30
0.0
 11
115.0909294335879
 21
148.6360431741874
 31
0.0
  0
LINE
  5
13B
330
1F
100
AcDbEntity
  8
1
  6
Continuous
 62
     7
100
AcDbLine
 10
109.6909294335879
 20
147.4611727530779
 30
0.0
 11
110.4909294335879
 21
147.8817163507166
 31
0.0
  0
LINE
  5
13C
330
1F
100
AcDbEntity
  8
1
  6
Continuous
 62
     7
100
AcDbLine
 10
115.0909294335879
 20
147.827752797322
 30
0.0
 11
115.8909294335879
 21
148.2482963949606
 31
0.0
  0
LINE
  5
13D
330
1F
100
AcDbEntity
  8
1
  6
Continuous
 62
     7
100
AcDbLine
 10
115.0909294335879
 20
148.6360431741874
 30
0.0
 11
115.8909294335879
 21
148.2482963949606
 31
0.0
  0
LINE
  5
13E
330
1F
100
AcDbEntity
  8
1
  6
Continuous
 62
     7
100
AcDbLine
 10
115.8909294335879
 20
148.2482963949606
 30
0.0
 11
109.6909294335879
 21
147.4611727530779
 31
0.0
  0
LINE
  5
13F
330
1F
100
AcDbEntity
  8
1
  6
Continuous
 62
     7
100
AcDbLine
 10
110.4909294335879
 20
114.573425973851
 30
0.0
 11
115.0909294335879
 21
115.327752797322
 31
0.0
  0
LINE
  5
140
330
1F
100
AcDbEntity
  8
1
  6
Continuous
 62
     7
100
AcDbLine
 10
109.6909294335879
 20
114.9611727530779
 30
0.0
 11
110.4909294335879
 21
114.573425973851
 31
0.0
  0
LINE
  5
141
330
1F
100
AcDbEntity
  8
1
  6
Continuous
 62
     7
100
AcDbLine
 10
110.4909294335879
 20
115.3817163507166
 30
0.0
 11
115.0909294335879
 21
116.1360431741874
 31
0.0
  0
LINE
  5
142
330
1F
100
AcDbEntity
  8
1
  6
Continuous
 62
     7
100
AcDbLine
 10
109.6909294335879
 20
114.9611727530779
 30
0.0
 11
110.4909294335879
 21
115.3817163507166
 31
0.0
  0
LINE
  5
143
330
1F
100
AcDbEntity
  8
1
  6
Continuous
 62
     7
100
AcDbLine
 10
115.0909294335879
 20
115.327752797322
 30
0.0
 11
115.8909294335879
 21
115.7482963949606
 31
0.0
  0
LINE
  5
144
330
1F
100
AcDbEntity
  8
1
  6
Continuous
 62
     7
100
AcDbLine
 10
115.0909294335879
 20
116.1360431741874
 30
0.0
 11
115.8909294335879
 21
115.7482963949606
 31
0.0
  0
LINE
  5
145
330
1F
100
AcDbEntity
  8
1
  6
Continuous
 62
     7
100
AcDbLine
 10
115.8909294335879
 20
115.7482963949606
 30
0.0
 11
109.6909294335879
 21
114.9611727530779
 31
0.0
  0
LINE
  5
146
330
1F
100
AcDbEntity
  8
1
  6
Continuous
 62
     7
100
AcDbLine
 10
110.4909294335879
 20
117.073425973851
 30
0.0
 11
115.0909294335879
 21
117.827752797322
 31
0.0
  0
LINE
  5
147
330
1F
100
AcDbEntity
  8
1
  6
Continuous
 62
     7
100
AcDbLine
 10
109.6909294335879
 20
117.4611727530779
 30
0.0
 11
110.4909294335879
 21
117.073425973851
 31
0.0
  0
LINE
  5
148
330
1F
100
AcDbEntity
  8
1
  6
Continuous
 62
     7
100
AcDbLine
 10
110.4909294335879
 20
117.8817163507166
 30
0.0
 11
115.0909294335879
 21
118.6360431741874
 31
0.0
  0
LINE
  5
149
330
1F
100
AcDbEntity
  8
1
  6
Continuous
 62
     7
100
AcDbLine
 10
109.6909294335879
 20
117.4611727530779
 30
0.0
 11
110.4909294335879
 21
117.8817163507166
 31
0.0
  0
LINE
  5
14A
330
1F
100
AcDbEntity
  8
1
  6
Continuous
 62
     7
100
AcDbLine
 10
115.0909294335879
 20
117.827752797322
 30
0.0
 11
115.8909294335879
 21
118.2482963949606
 31
0.0
  0
LINE
  5
14B
330
1F
100
AcDbEntity
  8
1
  6
Continuous
 62
     7
100
AcDbLine
 10
115.0909294335879
 20
118.6360431741874
 30
0.0
 11
115.8909294335879
 21
118.2482963949606
 31
0.0
  0
LINE
  5
14C
330
1F
100
AcDbEntity
  8
1
  6
Continuous
 62
     7
100
AcDbLine
 10
115.8909294335879
 20
118.2482963949606
 30
0.0
 11
109.6909294335879
 21
117.4611727530779
 31
0.0
  0
LINE
  5
14D
330
1F
100
AcDbEntity
  8
1
  6
Continuous
 62
     7
100
AcDbLine
 10
110.4909294335879
 20
119.573425973851
 30
0.0
 11
115.0909294335879
 21
120.327752797322
 31
0.0
  0
LINE
  5
14E
330
1F
100
AcDbEntity
  8
1
  6
Continuous
 62
     7
100
AcDbLine
 10
109.6909294335879
 20
119.9611727530779
 30
0.0
 11
110.4909294335879
 21
119.573425973851
 31
0.0
  0
LINE
  5
14F
330
1F
100
AcDbEntity
  8
1
  6
Continuous
 62
     7
100
AcDbLine
 10
110.4909294335879
 20
120.3817163507166
 30
0.0
 11
115.0909294335879
 21
121.1360431741874
 31
0.0
  0
LINE
  5
150
330
1F
100
AcDbEntity
  8
1
  6
Continuous
 62
     7
100
AcDbLine
 10
109.6909294335879
 20
119.9611727530779
 30
0.0
 11
110.4909294335879
 21
120.3817163507166
 31
0.0
  0
LINE
  5
151
330
1F
100
AcDbEntity
  8
1
  6
Continuous
 62
     7
100
AcDbLine
 10
115.0909294335879
 20
120.327752797322
 30
0.0
 11
115.8909294335879
 21
120.7482963949606
 31
0.0
  0
LINE
  5
152
330
1F
100
AcDbEntity
  8
1
  6
Continuous
 62
     7
100
AcDbLine
 10
115.0909294335879
 20
121.1360431741874
 30
0.0
 11
115.8909294335879
 21
120.7482963949606
 31
0.0
  0
LINE
  5
153
330
1F
100
AcDbEntity
  8
1
  6
Continuous
 62
     7
100
AcDbLine
 10
115.8909294335879
 20
120.7482963949606
 30
0.0
 11
109.6909294335879
 21
119.9611727530779
 31
0.0
  0
LINE
  5
154
330
1F
100
AcDbEntity
  8
1
  6
Continuous
 62
     7
100
AcDbLine
 10
110.4909294335879
 20
122.073425973851
 30
0.0
 11
115.0909294335879
 21
122.827752797322
 31
0.0
  0
LINE
  5
155
330
1F
100
AcDbEntity
  8
1
  6
Continuous
 62
     7
100
AcDbLine
 10
109.6909294335879
 20
122.4611727530779
 30
0.0
 11
110.4909294335879
 21
122.073425973851
 31
0.0
  0
LINE
  5
156
330
1F
100
AcDbEntity
  8
1
  6
Continuous
 62
     7
100
AcDbLine
 10
110.4909294335879
 20
122.8817163507166
 30
0.0
 11
115.0909294335879
 21
123.6360431741874
 31
0.0
  0
LINE
  5
157
330
1F
100
AcDbEntity
  8
1
  6
Continuous
 62
     7
100
AcDbLine
 10
109.6909294335879
 20
122.4611727530779
 30
0.0
 11
110.4909294335879
 21
122.8817163507166
 31
0.0
  0
LINE
  5
158
330
1F
100
AcDbEntity
  8
1
  6
Continuous
 62
     7
100
AcDbLine
 10
115.0909294335879
 20
122.827752797322
 30
0.0
 11
115.8909294335879
 21
123.2482963949606
 31
0.0
  0
LINE
  5
159
330
1F
100
AcDbEntity
  8
1
  6
Continuous
 62
     7
100
AcDbLine
 10
115.0909294335879
 20
123.6360431741874
 30
0.0
 11
115.8909294335879
 21
123.2482963949606
 31
0.0
  0
LINE
  5
15A
330
1F
100
AcDbEntity
  8
1
  6
Continuous
 62
     7
100
AcDbLine
 10
115.8909294335879
 20
123.2482963949606
 30
0.0
 11
109.6909294335879
 21
122.4611727530779
 31
0.0
  0
LINE
  5
15B
330
1F
100
AcDbEntity
  8
1
  6
Continuous
 62
     7
100
AcDbLine
 10
110.4909294335879
 20
124.573425973851
 30
0.0
 11
115.0909294335879
 21
125.327752797322
 31
0.0
  0
LINE
  5
15C
330
1F
100
AcDbEntity
  8
1
  6
Continuous
 62
     7
100
AcDbLine
 10
109.6909294335879
 20
124.9611727530779
 30
0.0
 11
110.4909294335879
 21
124.573425973851
 31
0.0
  0
LINE
  5
15D
330
1F
100
AcDbEntity
  8
1
  6
Continuous
 62
     7
100
AcDbLine
 10
110.4909294335879
 20
125.3817163507166
 30
0.0
 11
115.0909294335879
 21
126.1360431741874
 31
0.0
  0
LINE
  5
15E
330
1F
100
AcDbEntity
  8
1
  6
Continuous
 62
     7
100
AcDbLine
 10
109.6909294335879
 20
124.9611727530779
 30
0.0
 11
110.4909294335879
 21
125.3817163507166
 31
0.0
  0
LINE
  5
15F
330
1F
100
AcDbEntity
  8
1
  6
Continuous
 62
     7
100
AcDbLine
 10
115.0909294335879
 20
125.327752797322
 30
0.0
 11
115.8909294335879
 21
125.7482963949606
 31
0.0
  0
LINE
  5
160
330
1F
100
AcDbEntity
  8
1
  6
Continuous
 62
     7
100
AcDbLine
 10
115.0909294335879
 20
126.1360431741874
 30
0.0
 11
115.8909294335879
 21
125.7482963949606
 31
0.0
  0
LINE
  5
161
330
1F
100
AcDbEntity
  8
1
  6
Continuous
 62
     7
100
AcDbLine
 10
115.8909294335879
 20
125.7482963949606
 30
0.0
 11
109.6909294335879
 21
124.9611727530779
 31
0.0
  0
LINE
  5
162
330
1F
100
AcDbEntity
  8
1
  6
Continuous
 62
     7
100
AcDbLine
 10
110.4909294335879
 20
127.073425973851
 30
0.0
 11
115.0909294335879
 21
127.827752797322
 31
0.0
  0
LINE
  5
163
330
1F
100
AcDbEntity
  8
1
  6
Continuous
 62
     7
100
AcDbLine
 10
109.6909294335879
 20
127.4611727530779
 30
0.0
 11
110.4909294335879
 21
127.073425973851
 31
0.0
  0
LINE
  5
164
330
1F
100
AcDbEntity
  8
1
  6
Continuous
 62
     7
100
AcDbLine
 10
110.4909294335879
 20
127.8817163507166
 30
0.0
 11
115.0909294335879
 21
128.6360431741874
 31
0.0
  0
LINE
  5
165
330
1F
100
AcDbEntity
  8
1
  6
Continuous
 62
     7
100
AcDbLine
 10
109.6909294335879
 20
127.4611727530779
 30
0.0
 11
110.4909294335879
 21
127.8817163507166
 31
0.0
  0
LINE
  5
166
330
1F
100
AcDbEntity
  8
1
  6
Continuous
 62
     7
100
AcDbLine
 10
115.0909294335879
 20
127.827752797322
 30
0.0
 11
115.8909294335879
 21
128.2482963949606
 31
0.0
  0
LINE
  5
167
330
1F
100
AcDbEntity
  8
1
  6
Continuous
 62
     7
100
AcDbLine
 10
115.0909294335879
 20
128.6360431741874
 30
0.0
 11
115.8909294335879
 21
128.2482963949606
 31
0.0
  0
LINE
  5
168
330
1F
100
AcDbEntity
  8
1
  6
Continuous
 62
     7
100
AcDbLine
 10
115.8909294335879
 20
128.2482963949606
 30
0.0
 11
109.6909294335879
 21
127.4611727530779
 31
0.0
  0
LINE
  5
169
330
1F
100
AcDbEntity
  8
1
  6
Continuous
 62
     7
100
AcDbLine
 10
110.4909294335879
 20
129.573425973851
 30
0.0
 11
115.0909294335879
 21
130.327752797322
 31
0.0
  0
LINE
  5
16A
330
1F
100
AcDbEntity
  8
1
  6
Continuous
 62
     7
100
AcDbLine
 10
109.6909294335879
 20
129.9611727530779
 30
0.0
 11
110.4909294335879
 21
129.573425973851
 31
0.0
  0
LINE
  5
16B
330
1F
100
AcDbEntity
  8
1
  6
Continuous
 62
     7
100
AcDbLine
 10
110.4909294335879
 20
130.3817163507166
 30
0.0
 11
115.0909294335879
 21
131.1360431741874
 31
0.0
  0
LINE
  5
16C
330
1F
100
AcDbEntity
  8
1
  6
Continuous
 62
     7
100
AcDbLine
 10
109.6909294335879
 20
129.9611727530779
 30
0.0
 11
110.4909294335879
 21
130.3817163507166
 31
0.0
  0
LINE
  5
16D
330
1F
100
AcDbEntity
  8
1
  6
Continuous
 62
     7
100
AcDbLine
 10
115.0909294335879
 20
130.327752797322
 30
0.0
 11
115.8909294335879
 21
130.7482963949606
 31
0.0
  0
LINE
  5
16E
330
1F
100
AcDbEntity
  8
1
  6
Continuous
 62
     7
100
AcDbLine
 10
115.0909294335879
 20
131.1360431741874
 30
0.0
 11
115.8909294335879
 21
130.7482963949606
 31
0.0
  0
LINE
  5
16F
330
1F
100
AcDbEntity
  8
1
  6
Continuous
 62
     7
100
AcDbLine
 10
115.8909294335879
 20
130.7482963949606
 30
0.0
 11
109.6909294335879
 21
129.9611727530779
 31
0.0
  0
LINE
  5
170
330
1F
100
AcDbEntity
  8
1
  6
Continuous
 62
     7
100
AcDbLine
 10
110.4909294335879
 20
132.073425973851
 30
0.0
 11
115.0909294335879
 21
132.827752797322
 31
0.0
  0
LINE
  5
171
330
1F
100
AcDbEntity
  8
1
  6
Continuous
 62
     7
100
AcDbLine
 10
109.6909294335879
 20
132.4611727530779
 30
0.0
 11
110.4909294335879
 21
132.073425973851
 31
0.0
  0
LINE
  5
172
330
1F
100
AcDbEntity
  8
1
  6
Continuous
 62
     7
100
AcDbLine
 10
110.4909294335879
 20
132.8817163507166
 30
0.0
 11
115.0909294335879
 21
133.6360431741874
 31
0.0
  0
LINE
  5
173
330
1F
100
AcDbEntity
  8
1
  6
Continuous
 62
     7
100
AcDbLine
 10
109.6909294335879
 20
132.4611727530779
 30
0.0
 11
110.4909294335879
 21
132.8817163507166
 31
0.0
  0
LINE
  5
174
330
1F
100
AcDbEntity
  8
1
  6
Continuous
 62
     7
100
AcDbLine
 10
115.0909294335879
 20
132.827752797322
 30
0.0
 11
115.8909294335879
 21
133.2482963949606
 31
0.0
  0
LINE
  5
175
330
1F
100
AcDbEntity
  8
1
  6
Continuous
 62
     7
100
AcDbLine
 10
115.0909294335879
 20
133.6360431741874
 30
0.0
 11
115.8909294335879
 21
133.2482963949606
 31
0.0
  0
LINE
  5
176
330
1F
100
AcDbEntity
  8
1
  6
Continuous
 62
     7
100
AcDbLine
 10
115.8909294335879
 20
133.2482963949606
 30
0.0
 11
109.6909294335879
 21
132.4611727530779
 31
0.0
  0
LINE
  5
177
330
1F
100
AcDbEntity
  8
1
  6
Continuous
 62
     7
100
AcDbLine
 10
110.4909294335879
 20
134.573425973851
 30
0.0
 11
115.0909294335879
 21
135.327752797322
 31
0.0
  0
LINE
  5
178
330
1F
100
AcDbEntity
  8
1
  6
Continuous
 62
     7
100
AcDbLine
 10
109.6909294335879
 20
134.9611727530779
 30
0.0
 11
110.4909294335879
 21
134.573425973851
 31
0.0
  0
LINE
  5
179
330
1F
100
AcDbEntity
  8
1
  6
Continuous
 62
     7
100
AcDbLine
 10
110.4909294335879
 20
135.3817163507166
 30
0.0
 11
115.0909294335879
 21
136.1360431741874
 31
0.0
  0
LINE
  5
17A
330
1F
100
AcDbEntity
  8
1
  6
Continuous
 62
     7
100
AcDbLine
 10
109.6909294335879
 20
134.9611727530779
 30
0.0
 11
110.4909294335879
 21
135.3817163507166
 31
0.0
  0
LINE
  5
17B
330
1F
100
AcDbEntity
  8
1
  6
Continuous
 62
     7
100
AcDbLine
 10
115.0909294335879
 20
135.327752797322
 30
0.0
 11
115.8909294335879
 21
135.7482963949606
 31
0.0
  0
LINE
  5
17C
330
1F
100
AcDbEntity
  8
1
  6
Continuous
 62
     7
100
AcDbLine
 10
115.0909294335879
 20
136.1360431741874
 30
0.0
 11
115.8909294335879
 21
135.7482963949606
 31
0.0
  0
LINE
  5
17D
330
1F
100
AcDbEntity
  8
1
  6
Continuous
 62
     7
100
AcDbLine
 10
115.8909294335879
 20
135.7482963949606
 30
0.0
 11
109.6909294335879
 21
134.9611727530779
 31
0.0
  0
LINE
  5
17E
330
1F
100
AcDbEntity
  8
1
  6
Continuous
 62
     7
100
AcDbLine
 10
110.4909294335879
 20
137.073425973851
 30
0.0
 11
115.0909294335879
 21
137.827752797322
 31
0.0
  0
LINE
  5
17F
330
1F
100
AcDbEntity
  8
1
  6
Continuous
 62
     7
100
AcDbLine
 10
109.6909294335879
 20
137.4611727530779
 30
0.0
 11
110.4909294335879
 21
137.073425973851
 31
0.0
  0
LINE
  5
180
330
1F
100
AcDbEntity
  8
1
  6
Continuous
 62
     7
100
AcDbLine
 10
110.4909294335879
 20
137.8817163507166
 30
0.0
 11
115.0909294335879
 21
138.6360431741874
 31
0.0
  0
LINE
  5
181
330
1F
100
AcDbEntity
  8
1
  6
Continuous
 62
     7
100
AcDbLine
 10
109.6909294335879
 20
137.4611727530779
 30
0.0
 11
110.4909294335879
 21
137.8817163507166
 31
0.0
  0
LINE
  5
182
330
1F
100
AcDbEntity
  8
1
  6
Continuous
 62
     7
100
AcDbLine
 10
115.0909294335879
 20
137.827752797322
 30
0.0
 11
115.8909294335879
 21
138.2482963949606
 31
0.0
  0
LINE
  5
183
330
1F
100
AcDbEntity
  8
1
  6
Continuous
 62
     7
100
AcDbLine
 10
115.0909294335879
 20
138.6360431741874
 30
0.0
 11
115.8909294335879
 21
138.2482963949606
 31
0.0
  0
LINE
  5
184
330
1F
100
AcDbEntity
  8
1
  6
Continuous
 62
     7
100
AcDbLine
 10
115.8909294335879
 20
138.2482963949606
 30
0.0
 11
109.6909294335879
 21
137.4611727530779
 31
0.0
  0
LINE
  5
185
330
1F
100
AcDbEntity
  8
1
  6
Continuous
 62
     7
100
AcDbLine
 10
110.4909294335879
 20
139.573425973851
 30
0.0
 11
115.0909294335879
 21
140.327752797322
 31
0.0
  0
LINE
  5
186
330
1F
100
AcDbEntity
  8
1
  6
Continuous
 62
     7
100
AcDbLine
 10
109.6909294335879
 20
139.9611727530779
 30
0.0
 11
110.4909294335879
 21
139.573425973851
 31
0.0
  0
LINE
  5
187
330
1F
100
AcDbEntity
  8
1
  6
Continuous
 62
     7
100
AcDbLine
 10
110.4909294335879
 20
140.3817163507166
 30
0.0
 11
115.0909294335879
 21
141.1360431741874
 31
0.0
  0
LINE
  5
188
330
1F
100
AcDbEntity
  8
1
  6
Continuous
 62
     7
100
AcDbLine
 10
109.6909294335879
 20
139.9611727530779
 30
0.0
 11
110.4909294335879
 21
140.3817163507166
 31
0.0
  0
LINE
  5
189
330
1F
100
AcDbEntity
  8
1
  6
Continuous
 62
     7
100
AcDbLine
 10
115.0909294335879
 20
140.327752797322
 30
0.0
 11
115.8909294335879
 21
140.7482963949606
 31
0.0
  0
LINE
  5
18A
330
1F
100
AcDbEntity
  8
1
  6
Continuous
 62
     7
100
AcDbLine
 10
115.0909294335879
 20
141.1360431741874
 30
0.0
 11
115.8909294335879
 21
140.7482963949606
 31
0.0
  0
LINE
  5
18B
330
1F
100
AcDbEntity
  8
1
  6
Continuous
 62
     7
100
AcDbLine
 10
115.8909294335879
 20
140.7482963949606
 30
0.0
 11
109.6909294335879
 21
139.9611727530779
 31
0.0
  0
LINE
  5
18C
330
1F
100
AcDbEntity
  8
1
  6
Continuous
 62
     7
100
AcDbLine
 10
110.4909294335879
 20
142.073425973851
 30
0.0
 11
115.0909294335879
 21
142.827752797322
 31
0.0
  0
LINE
  5
18D
330
1F
100
AcDbEntity
  8
1
  6
Continuous
 62
     7
100
AcDbLine
 10
109.6909294335879
 20
142.4611727530779
 30
0.0
 11
110.4909294335879
 21
142.073425973851
 31
0.0
  0
LINE
  5
18E
330
1F
100
AcDbEntity
  8
1
  6
Continuous
 62
     7
100
AcDbLine
 10
110.4909294335879
 20
142.8817163507166
 30
0.0
 11
115.0909294335879
 21
143.6360431741874
 31
0.0
  0
LINE
  5
18F
330
1F
100
AcDbEntity
  8
1
  6
Continuous
 62
     7
100
AcDbLine
 10
109.6909294335879
 20
142.4611727530779
 30
0.0
 11
110.4909294335879
 21
142.8817163507166
 31
0.0
  0
LINE
  5
190
330
1F
100
AcDbEntity
  8
1
  6
Continuous
 62
     7
100
AcDbLine
 10
115.0909294335879
 20
142.827752797322
 30
0.0
 11
115.8909294335879
 21
143.2482963949606
 31
0.0
  0
LINE
  5
191
330
1F
100
AcDbEntity
  8
1
  6
Continuous
 62
     7
100
AcDbLine
 10
115.0909294335879
 20
143.6360431741874
 30
0.0
 11
115.8909294335879
 21
143.2482963949606
 31
0.0
  0
LINE
  5
192
330
1F
100
AcDbEntity
  8
1
  6
Continuous
 62
     7
100
AcDbLine
 10
115.8909294335879
 20
143.2482963949606
 30
0.0
 11
109.6909294335879
 21
142.4611727530779
 31
0.0
  0
LINE
  5
193
330
1F
100
AcDbEntity
  8
1
  6
Continuous
 62
     7
100
AcDbLine
 10
110.4909294335879
 20
144.5734259738511
 30
0.0
 11
115.0909294335879
 21
145.327752797322
 31
0.0
  0
LINE
  5
194
330
1F
100
AcDbEntity
  8
1
  6
Continuous
 62
     7
100
AcDbLine
 10
109.6909294335879
 20
144.9611727530779
 30
0.0
 11
110.4909294335879
 21
144.5734259738511
 31
0.0
  0
LINE
  5
195
330
1F
100
AcDbEntity
  8
1
  6
Continuous
 62
     7
100
AcDbLine
 10
115.0909294335879
 20
145.327752797322
 30
0.0
 11
115.8909294335879
 21
145.7482963949606
 31
0.0
  0
LINE
  5
196
330
1F
100
AcDbEntity
  8
1
  6
Continuous
 62
     7
100
AcDbLine
 10
115.0909294335879
 20
146.1360431741874
 30
0.0
 11
115.8909294335879
 21
145.7482963949606
 31
0.0
  0
LINE
  5
197
330
1F
100
AcDbEntity
  8
1
  6
Continuous
 62
     7
100
AcDbLine
 10
115.8909294335879
 20
145.7482963949606
 30
0.0
 11
109.6909294335879
 21
144.9611727530779
 31
0.0
  0
LINE
  5
198
330
1F
100
AcDbEntity
  8
1
  6
Continuous
 62
     7
100
AcDbLine
 10
106.9409294335879
 20
157.8547345740193
 30
0.0
 11
118.6409294335879
 21
157.8547345740193
 31
0.0
  0
LINE
  5
199
330
1F
100
AcDbEntity
  8
1
  6
Continuous
 62
     7
100
AcDbLine
 10
110.0704034193992
 20
112.4611727530779
 30
0.0
 11
111.1200291165666
 21
111.95243652374
 31
0.0
  0
LINE
  5
19A
330
1F
100
AcDbEntity
  8
1
  6
Continuous
 62
     7
100
AcDbLine
 10
110.0704034193992
 20
112.4611727530779
 30
0.0
 11
110.8704034193992
 21
112.8817163507166
 31
0.0
  0
LINE
  5
19B
330
1F
100
AcDbEntity
  8
1
  6
Continuous
 62
     7
100
AcDbLine
 10
114.6308642278018
 20
112.6656139298131
 30
0.0
 11
115.6705562207171
 21
113.2121586937338
 31
0.0
  0
LINE
  5
19C
330
1F
100
AcDbEntity
  8
1
  6
Continuous
 62
     7
100
AcDbLine
 10
114.870556220717
 20
113.5999054729607
 30
0.0
 11
115.6705562207171
 21
113.2121586937338
 31
0.0
  0
LINE
  5
19D
330
1F
100
AcDbEntity
  8
1
  6
Continuous
 62
     7
100
AcDbLine
 10
115.6705562207171
 20
113.2121586937338
 30
0.0
 11
110.0704034193992
 21
112.4611727530779
 31
0.0
  0
LINE
  5
19E
330
1F
100
AcDbEntity
  8
1
  6
Continuous
 62
     7
100
AcDbLine
 10
111.1200291165666
 20
111.95243652374
 30
0.0
 11
114.6308642278018
 21
112.6656139298131
 31
0.0
  0
LINE
  5
19F
330
1F
100
AcDbEntity
  8
1
  6
Continuous
 62
     7
100
AcDbLine
 10
114.870556220717
 20
113.5999054729607
 30
0.0
 11
110.8704034193992
 21
112.8817163507166
 31
0.0
  0
LINE
  5
1A0
330
1F
100
AcDbEntity
  8
1
  6
Continuous
 62
     7
100
AcDbLine
 10
110.8072273090613
 20
109.9611727530779
 30
0.0
 11
111.9525438575833
 21
109.4060567494721
 31
0.0
  0
LINE
  5
1A1
330
1F
100
AcDbEntity
  8
1
  6
Continuous
 62
     7
100
AcDbLine
 10
110.8072273090613
 20
109.9611727530779
 30
0.0
 11
111.6072273090613
 21
110.3817163507166
 31
0.0
  0
LINE
  5
1A2
330
1F
100
AcDbEntity
  8
1
  6
Continuous
 62
     7
100
AcDbLine
 10
113.854383074179
 20
110.1233007542768
 30
0.0
 11
114.9745674122852
 21
110.7121586937338
 31
0.0
  0
LINE
  5
1A3
330
1F
100
AcDbEntity
  8
1
  6
Continuous
 62
     7
100
AcDbLine
 10
114.1745674122852
 20
111.0999054729607
 30
0.0
 11
114.9745674122852
 21
110.7121586937338
 31
0.0
  0
LINE
  5
1A4
330
1F
100
AcDbEntity
  8
1
  6
Continuous
 62
     7
100
AcDbLine
 10
111.6072273090613
 20
110.3817163507166
 30
0.0
 11
114.1745674122852
 21
111.0999054729607
 31
0.0
  0
LINE
  5
1A5
330
1F
100
AcDbEntity
  8
1
  6
Continuous
 62
     7
100
AcDbLine
 10
111.9525438575833
 20
109.4060567494721
 30
0.0
 11
113.854383074179
 21
110.1233007542768
 31
0.0
  0
LINE
  5
1A6
330
1F
100
AcDbEntity
  8
1
  6
Continuous
 62
     7
100
AcDbLine
 10
110.8072273090613
 20
109.9611727530779
 30
0.0
 11
114.9745674122852
 21
110.7121586937338
 31
0.0
  0
ARC
  5
1A7
330
1F
100
AcDbEntity
  8
1
  6
Continuous
 62
     7
100
AcDbCircle
 10
143.8278711308582
 20
121.2366742828696
 30
0.0
 40
33.99999999999876
100
AcDbArc
 50
200.3625498781713
 51
204.0976075986331
  0
ARC
  5
1A8
330
1F
100
AcDbEntity
  8
1
  6
Continuous
 62
     7
100
AcDbCircle
 10
76.0082698181647
 20
123.0721119511683
 30
0.0
 40
39.99999999999749
100
AcDbArc
 50
346.3019451847147
 51
347.7056267354575
  0
ARC
  5
1A9
330
1F
100
AcDbEntity
  8
1
  6
Continuous
 62
     7
100
AcDbCircle
 10
76.0082698181647
 20
123.0721119511683
 30
0.0
 40
39.99999999999754
100
AcDbArc
 50
342.5841256700831
 51
344.9202984000724
  0
ARC
  5
1AA
330
1F
100
AcDbEntity
  8
1
  6
Continuous
 62
     7
100
AcDbCircle
 10
143.8278711308582
 20
121.2366742828696
 30
0.0
 40
33.99999999999868
100
AcDbArc
 50
191.3339778141209
 51
194.2252183445317
  0
ARC
  5
1AB
330
1F
100
AcDbEntity
  8
1
  6
Continuous
 62
     7
100
AcDbCircle
 10
76.0082698181647
 20
123.0721119511683
 30
0.0
 40
39.9999999999975
100
AcDbArc
 50
336.8627878517888
 51
341.1119384453857
  0
ARC
  5
1AC
330
1F
100
AcDbEntity
  8
1
  6
Continuous
 62
     7
100
AcDbCircle
 10
143.8278711308582
 20
121.2366742828696
 30
0.0
 40
33.99999999999863
100
AcDbArc
 50
195.8467825555417
 51
198.6183884429778
  0
CIRCLE
  5
1AD
330
1F
100
AcDbEntity
  8
1
  6
Continuous
 62
     7
100
AcDbCircle
 10
112.7909294335879
 20
195.8547345740193
 30
0.0
 40
5.849999999999994
  0
MTEXT
  5
1AF
330
1F
100
AcDbEntity
  8
1
 62
     7
100
AcDbMText
 10
157.5
 20
12.5
 30
0.0
 40
2.5
 41
0.0
 71
     5
 72
     1
  1
2
  7
CONVERTER_12
 73
     1
 44
0.7202881152461
  0
MTEXT
  5
1B0
330
1F
100
AcDbEntity
  8
1
 62
     7
100
AcDbMText
 10
151.75
 20
12.5
 30
0.0
 40
2.5
 41
0.0
 71
     5
 72
     1
  1
04
  7
CONVERTER_12
 73
     1
 44
0.7202881152461
  0
MTEXT
  5
1B1
330
1F
100
AcDbEntity
  8
1
 62
     7
100
AcDbMText
 10
140.5
 20
12.5
 30
0.0
 40
2.5
 41
0.0
 71
     5
 72
     1
  1
2
  7
CONVERTER_12
 73
     1
 44
0.7202881152461
  0
MTEXT
  5
1B2
330
1F
100
AcDbEntity
  8
1
 62
     7
100
AcDbMText
 10
134.75
 20
12.5
 30
0.0
 40
2.5
 41
0.0
 71
     5
 72
     1
  1
04
  7
CONVERTER_12
 73
     1
 44
0.7202881152461
  0
MTEXT
  5
1B3
330
1F
100
AcDbEntity
  8
1
 62
     7
100
AcDbMText
 10
123.5
 20
12.5
 30
0.0
 40
2.5
 41
0.0
 71
     5
 72
     1
  1
2
  7
CONVERTER_12
 73
     1
 44
0.7202881152461
  0
MTEXT
  5
1B4
330
1F
100
AcDbEntity
  8
1
 62
     7
100
AcDbMText
 10
117.75
 20
12.5
 30
0.0
 40
2.5
 41
0.0
 71
     5
 72
     1
  1
04
  7
CONVERTER_12
 73
     1
 44
0.7202881152461
  0
MTEXT
  5
1B5
330
1F
100
AcDbEntity
  8
1
 62
     7
100
AcDbMText
 10
100.75
 20
12.5
 30
0.0
 40
2.5
 41
0.0
 71
     5
 72
     1
  1
04
  7
CONVERTER_12
 73
     1
 44
0.7202881152461
  0
MTEXT
  5
1B6
330
1F
100
AcDbEntity
  8
1
 62
     7
100
AcDbMText
 10
106.5
 20
12.5
 30
0.0
 40
2.5
 41
0.0
 71
     5
 72
     1
  1
3
  7
CONVERTER_12
 73
     1
 44
0.7202881152461
  0
MTEXT
  5
1B7
330
1F
100
AcDbEntity
  8
1
 62
     7
100
AcDbMText
 10
93.75
 20
17.0
 30
0.0
 40
3.5
 41
0.0
 71
     5
 72
     1
  1
1
  7
CONVERTER_12
 73
     1
 44
0.7202881152461
  0
MTEXT
  5
1B8
330
1F
100
AcDbEntity
  8
1
 62
     7
100
AcDbMText
 10
57.0
 20
14.25
 30
0.0
 40
3.5
 41
0.0
 71
     5
 72
     1
  1
R42-20-6X50
  7
CONVERTER_12
 73
     1
 44
0.7202881152461
  0
MTEXT
  5
1B9
330
1F
100
AcDbEntity
  8
1
 62
     7
100
AcDbMText
 10
57.0
 20
22.75000000000011
 30
0.0
 40
3.5
 41
0.0
 71
     5
 72
     1
  1
手すり木ビス
  7
CONVERTER_11
 73
     1
 44
0.54545454545455
  0
MTEXT
  5
1BA
330
1F
100
AcDbEntity
  8
1
 62
     7
100
AcDbMText
 10
85.25
 20
17.0
 30
0.0
 40
3.5
 41
0.0
 71
     5
 72
     1
  1
1
  7
CONVERTER_12
 73
     1
 44
0.7202881152461
  0
DIMENSION
  5
1C5
330
1F
100
AcDbEntity
  8
0
100
AcDbDimension
  2
*D3
 10
127.6270647310029
 20
157.8547345740192
 30
0.0
 11
124.8770647310029
 21
131.5851903312152
 31
0.0
 70
    32
  1
51
 71
     5
 42
-1.0
 53
90.0
  3
ME10_DIM_10
100
AcDbAlignedDimension
 13
112.7909294335879
 23
107.3547345740193
 33
0.0
 14
118.6409294335879
 24
157.8547345740193
 34
0.0
 50
90.0
100
AcDbRotatedDimension
  0
INSERT
  5
1CD
330
1F
100
AcDbEntity
  8
0
100
AcDbBlockReference
  2
*D4
 10
0.0
 20
0.0
 30
0.0
  0
ENDSEC
  0
SECTION
  2
OBJECTS
  0
DICTIONARY
  5
C
330
0
100
AcDbDictionary
281
     1
  3
ACAD_GROUP
350
D
  3
ACAD_LAYOUT
350
1A
  3
ACAD_MATERIAL
350
3B
  3
ACAD_MLEADERSTYLE
350
1D0
  3
ACAD_MLINESTYLE
350
17
  3
ACAD_PLOTSETTINGS
350
19
  3
ACAD_PLOTSTYLENAME
350
E
  3
ACAD_VISUALSTYLE
350
2A
  3
AcDbVariableDictionary
350
1CE
  0
DICTIONARY
  5
D
102
{ACAD_REACTORS
330
C
102
}
330
C
100
AcDbDictionary
281
     1
  0
DICTIONARY
  5
1A
102
{ACAD_REACTORS
330
C
102
}
330
C
100
AcDbDictionary
281
     1
  3
Layout1
350
1E
  3
Layout2
350
26
  3
Model
350
22
  0
DICTIONARY
  5
3B
102
{ACAD_REACTORS
330
C
102
}
330
C
100
AcDbDictionary
281
     1
  3
ByBlock
350
3D
  3
ByLayer
350
3C
  3
Global
350
3E
  0
DICTIONARY
  5
1D0
102
{ACAD_REACTORS
330
C
102
}
330
C
100
AcDbDictionary
281
     1
  0
DICTIONARY
  5
17
102
{ACAD_REACTORS
330
C
102
}
330
C
100
AcDbDictionary
281
     1
  3
Standard
350
18
  0
DICTIONARY
  5
19
102
{ACAD_REACTORS
330
C
102
}
330
C
100
AcDbDictionary
281
     1
  0
ACDBDICTIONARYWDFLT
  5
E
102
{ACAD_REACTORS
330
C
102
}
330
C
100
AcDbDictionary
281
     1
  3
Normal
350
F
100
AcDbDictionaryWithDefault
340
F
  0
DICTIONARY
  5
2A
102
{ACAD_REACTORS
330
C
102
}
330
C
100
AcDbDictionary
281
     1
  3
2dWireframe
350
2F
  3
3D Hidden
350
31
  3
3dWireframe
350
30
  3
Basic
350
32
  3
Brighten
350
36
  3
ColorChange
350
3A
  3
Conceptual
350
34
  3
Dim
350
35
  3
Facepattern
350
39
  3
Flat
350
2B
  3
FlatWithEdges
350
2C
  3
Gouraud
350
2D
  3
GouraudWithEdges
350
2E
  3
Linepattern
350
38
  3
Realistic
350
33
  3
Thicken
350
37
  0
DICTIONARY
  5
1CE
102
{ACAD_REACTORS
330
C
102
}
330
C
100
AcDbDictionary
281
     1
  3
DIMASSOC
350
1D1
  3
HIDETEXT
350
1D2
  0
LAYOUT
  5
1E
102
{ACAD_REACTORS
330
1A
102
}
330
1A
100
AcDbPlotSettings
  1

  2
none_device
  4

  6

 40
0.0
 41
0.0
 42
0.0
 43
0.0
 44
0.0
 45
0.0
 46
0.0
 47
0.0
 48
0.0
 49
0.0
140
0.0
141
0.0
142
1.0
143
1.0
 70
   688
 72
     0
 73
     0
 74
     5
  7

 75
    16
147
1.0
148
0.0
149
0.0
100
AcDbLayout
  1
Layout1
 70
     1
 71
     1
 10
0.0
 20
0.0
 11
12.0
 21
9.0
 12
0.0
 22
0.0
 32
0.0
 14
1.00000000000000E+20
 24
1.00000000000000E+20
 34
1.00000000000000E+20
 15
-1.00000000000000E+20
 25
-1.00000000000000E+20
 35
-1.00000000000000E+20
146
0.0
 13
0.0
 23
0.0
 33
0.0
 16
1.0
 26
0.0
 36
0.0
 17
0.0
 27
1.0
 37
0.0
 76
     0
330
1B
  0
LAYOUT
  5
26
102
{ACAD_REACTORS
330
1A
102
}
330
1A
100
AcDbPlotSettings
  1

  2
none_device
  4

  6

 40
0.0
 41
0.0
 42
0.0
 43
0.0
 44
0.0
 45
0.0
 46
0.0
 47
0.0
 48
0.0
 49
0.0
140
0.0
141
0.0
142
1.0
143
1.0
 70
   688
 72
     0
 73
     0
 74
     5
  7

 75
    16
147
1.0
148
0.0
149
0.0
100
AcDbLayout
  1
Layout2
 70
     1
 71
     2
 10
0.0
 20
0.0
 11
0.0
 21
0.0
 12
0.0
 22
0.0
 32
0.0
 14
0.0
 24
0.0
 34
0.0
 15
0.0
 25
0.0
 35
0.0
146
0.0
 13
0.0
 23
0.0
 33
0.0
 16
1.0
 26
0.0
 36
0.0
 17
0.0
 27
1.0
 37
0.0
 76
     0
330
23
  0
LAYOUT
  5
22
102
{ACAD_REACTORS
330
1A
102
}
330
1A
100
AcDbPlotSettings
  1

  2
none_device
  4

  6

 40
0.0
 41
0.0
 42
0.0
 43
0.0
 44
0.0
 45
0.0
 46
0.0
 47
0.0
 48
0.0
 49
0.0
140
0.0
141
0.0
142
1.0
143
1.0
 70
  1712
 72
     0
 73
     0
 74
     0
  7

 75
     0
147
1.0
148
0.0
149
0.0
100
AcDbLayout
  1
Model
 70
     1
 71
     0
 10
0.0
 20
0.0
 11
12.0
 21
9.0
 12
0.0
 22
0.0
 32
0.0
 14
0.0
 24
0.0
 34
0.0
 15
210.0
 25
297.0
 35
0.0
146
0.0
 13
0.0
 23
0.0
 33
0.0
 16
1.0
 26
0.0
 36
0.0
 17
0.0
 27
1.0
 37
0.0
 76
     0
330
1F
331
29
  0
MATERIAL
  5
3D
102
{ACAD_REACTORS
330
3B
102
}
102
{ACAD_XDICTIONARY
360
1F5
102
}
330
3B
100
AcDbMaterial
  1
ByBlock
  0
MATERIAL
  5
3C
102
{ACAD_REACTORS
330
3B
102
}
102
{ACAD_XDICTIONARY
360
1F3
102
}
330
3B
100
AcDbMaterial
  1
ByLayer
  0
MATERIAL
  5
3E
102
{ACAD_REACTORS
330
3B
102
}
102
{ACAD_XDICTIONARY
360
1F7
102
}
330
3B
100
AcDbMaterial
  1
Global
  0
MLINESTYLE
  5
18
102
{ACAD_REACTORS
330
17
102
}
330
17
100
AcDbMlineStyle
  2
Standard
 70
     0
  3

 62
   256
 51
90.0
 52
90.0
 71
     2
 49
0.5
 62
   256
  6
BYLAYER
 49
-0.5
 62
   256
  6
BYLAYER
  0
ACDBPLACEHOLDER
  5
F
102
{ACAD_REACTORS
330
E
102
}
330
E
  0
VISUALSTYLE
  5
2F
102
{ACAD_REACTORS
330
2A
102
}
102
{ACAD_XDICTIONARY
360
1DB
102
}
330
2A
100
AcDbVisualStyle
  2
2dWireframe
 70
     4
 71
     0
 72
     2
 73
     0
 90
        0
 40
-0.6
 41
-30.0
 62
     5
 63
     7
 74
     1
 91
        4
 64
     7
 65
   257
 75
     1
175
     1
 42
1.0
 92
        0
 66
   257
 43
1.0
 76
     1
 77
     6
 78
     2
 67
     7
 79
     5
170
     0
171
     0
290
     0
174
     0
 93
        1
 44
0.0
173
     0
291
     0
 45
0.0
1001
ACAD
1000
AcDbSavedByObjectVersion
1070
     0
  0
VISUALSTYLE
  5
31
102
{ACAD_REACTORS
330
2A
102
}
102
{ACAD_XDICTIONARY
360
1DF
102
}
330
2A
100
AcDbVisualStyle
  2
3D Hidden
 70
     6
 71
     1
 72
     2
 73
     2
 90
        0
 40
-0.6
 41
-30.0
 62
     5
 63
     7
 74
     2
 91
        2
 64
     7
 65
   257
 75
     2
175
     1
 42
40.0
 92
        0
 66
   257
 43
1.0
 76
     1
 77
     6
 78
     2
 67
     7
 79
     3
170
     0
171
     0
290
     0
174
     0
 93
        1
 44
0.0
173
     0
291
     0
 45
0.0
1001
ACAD
1000
AcDbSavedByObjectVersion
1070
     0
  0
VISUALSTYLE
  5
30
102
{ACAD_REACTORS
330
2A
102
}
102
{ACAD_XDICTIONARY
360
1DD
102
}
330
2A
100
AcDbVisualStyle
  2
3dWireframe
 70
     5
 71
     0
 72
     2
 73
     0
 90
        0
 40
-0.6
 41
-30.0
 62
     5
 63
     7
 74
     1
 91
        4
 64
     7
 65
   257
 75
     1
175
     1
 42
1.0
 92
        0
 66
   257
 43
1.0
 76
     1
 77
     6
 78
     2
 67
     7
 79
     5
170
     0
171
     0
290
     0
174
     0
 93
        1
 44
0.0
173
     0
291
     0
 45
0.0
1001
ACAD
1000
AcDbSavedByObjectVersion
1070
     0
  0
VISUALSTYLE
  5
32
102
{ACAD_REACTORS
330
2A
102
}
102
{ACAD_XDICTIONARY
360
1E1
102
}
330
2A
100
AcDbVisualStyle
  2
Basic
 70
     7
 71
     1
 72
     0
 73
     1
 90
        0
 40
-0.6
 41
-30.0
 62
     5
 63
     7
 74
     0
 91
        4
 64
     7
 65
   257
 75
     1
175
     1
 42
1.0
 92
        8
 66
     7
 43
1.0
 76
     1
 77
     6
 78
     2
 67
     7
 79
     5
170
     0
171
     0
290
     0
174
     0
 93
        1
 44
0.0
173
     0
291
     1
 45
0.0
1001
ACAD
1000
AcDbSavedByObjectVersion
1070
     0
  0
VISUALSTYLE
  5
36
102
{ACAD_REACTORS
330
2A
102
}
102
{ACAD_XDICTIONARY
360
1E9
102
}
330
2A
100
AcDbVisualStyle
  2
Brighten
 70
    12
 71
     2
 72
     2
 73
     0
 90
        0
 40
-0.6
 41
-30.0
 62
     5
 63
     7
 74
     1
 91
        4
 64
     7
 65
   257
 75
     1
175
     1
 42
1.0
 92
        8
 66
     7
 43
1.0
 76
     1
 77
     6
 78
     2
 67
     7
 79
     5
170
     0
171
     0
290
     0
174
     0
 93
        1
 44
50.0
173
     0
291
     1
 45
0.0
1001
ACAD
1000
AcDbSavedByObjectVersion
1070
     0
  0
VISUALSTYLE
  5
3A
102
{ACAD_REACTORS
330
2A
102
}
102
{ACAD_XDICTIONARY
360
1F1
102
}
330
2A
100
AcDbVisualStyle
  2
ColorChange
 70
    16
 71
     2
 72
     2
 73
     3
 90
        0
 40
-0.6
 41
-30.0
 62
     5
 63
     8
 74
     1
 91
        4
 64
     7
 65
   257
 75
     1
175
     1
 42
1.0
 92
        8
 66
     8
 43
1.0
 76
     1
 77
     6
 78
     2
 67
     7
 79
     5
170
     0
171
     0
290
     0
174
     0
 93
        1
 44
0.0
173
     0
291
     1
 45
0.0
1001
ACAD
1000
AcDbSavedByObjectVersion
1070
     0
  0
VISUALSTYLE
  5
34
102
{ACAD_REACTORS
330
2A
102
}
102
{ACAD_XDICTIONARY
360
1E5
102
}
330
2A
100
AcDbVisualStyle
  2
Conceptual
 70
     9
 71
     3
 72
     2
 73
     0
 90
        0
 40
-0.6
 41
-30.0
 62
     5
 63
     7
 74
     2
 91
        2
 64
     7
 65
   257
 75
     1
175
     1
 42
40.0
 92
        8
 66
     7
 43
1.0
 76
     1
 77
     6
 78
     2
 67
     7
 79
     3
170
     0
171
     0
290
     0
174
     0
 93
        1
 44
0.0
173
     0
291
     0
 45
0.0
1001
ACAD
1000
AcDbSavedByObjectVersion
1070
     0
  0
VISUALSTYLE
  5
35
102
{ACAD_REACTORS
330
2A
102
}
102
{ACAD_XDICTIONARY
360
1E7
102
}
330
2A
100
AcDbVisualStyle
  2
Dim
 70
    11
 71
     2
 72
     2
 73
     0
 90
        0
 40
-0.6
 41
-30.0
 62
     5
 63
     7
 74
     1
 91
        4
 64
     7
 65
   257
 75
     1
175
     1
 42
1.0
 92
        8
 66
     7
 43
1.0
 76
     1
 77
     6
 78
     2
 67
     7
 79
     5
170
     0
171
     0
290
     0
174
     0
 93
        1
 44
-50.0
173
     0
291
     1
 45
0.0
1001
ACAD
1000
AcDbSavedByObjectVersion
1070
     0
  0
VISUALSTYLE
  5
39
102
{ACAD_REACTORS
330
2A
102
}
102
{ACAD_XDICTIONARY
360
1EF
102
}
330
2A
100
AcDbVisualStyle
  2
Facepattern
 70
    15
 71
     2
 72
     2
 73
     0
 90
        0
 40
-0.6
 41
-30.0
 62
     5
 63
     7
 74
     1
 91
        4
 64
     7
 65
   257
 75
     1
175
     1
 42
1.0
 92
        8
 66
     7
 43
1.0
 76
     1
 77
     6
 78
     2
 67
     7
 79
     5
170
     0
171
     0
290
     0
174
     0
 93
        1
 44
0.0
173
     0
291
     1
 45
0.0
1001
ACAD
1000
AcDbSavedByObjectVersion
1070
     0
  0
VISUALSTYLE
  5
2B
102
{ACAD_REACTORS
330
2A
102
}
102
{ACAD_XDICTIONARY
360
1D3
102
}
330
2A
100
AcDbVisualStyle
  2
Flat
 70
     0
 71
     2
 72
     1
 73
     1
 90
        2
 40
-0.6
 41
30.0
 62
     5
 63
     7
 74
     0
 91
        4
 64
     7
 65
   257
 75
     1
175
     1
 42
1.0
 92
        8
 66
     7
 43
1.0
 76
     1
 77
     6
 78
     2
 67
     7
 79
     5
170
     0
171
     0
290
     0
174
     0
 93
       13
 44
0.0
173
     0
291
     1
 45
0.0
1001
ACAD
1000
AcDbSavedByObjectVersion
1070
     0
  0
VISUALSTYLE
  5
2C
102
{ACAD_REACTORS
330
2A
102
}
102
{ACAD_XDICTIONARY
360
1D5
102
}
330
2A
100
AcDbVisualStyle
  2
FlatWithEdges
 70
     1
 71
     2
 72
     1
 73
     1
 90
        2
 40
-0.6
 41
30.0
 62
     5
 63
     7
 74
     1
 91
        4
 64
     7
 65
   257
 75
     1
175
     1
 42
1.0
 92
        0
 66
   257
 43
1.0
 76
     1
 77
     6
 78
     2
 67
     7
 79
     5
170
     0
171
     0
290
     0
174
     0
 93
       13
 44
0.0
173
     0
291
     1
 45
0.0
1001
ACAD
1000
AcDbSavedByObjectVersion
1070
     0
  0
VISUALSTYLE
  5
2D
102
{ACAD_REACTORS
330
2A
102
}
102
{ACAD_XDICTIONARY
360
1D7
102
}
330
2A
100
AcDbVisualStyle
  2
Gouraud
 70
     2
 71
     2
 72
     2
 73
     1
 90
        2
 40
-0.6
 41
30.0
 62
     5
 63
     7
 74
     0
 91
        4
 64
     7
 65
   257
 75
     1
175
     1
 42
1.0
 92
        0
 66
     7
 43
1.0
 76
     1
 77
     6
 78
     2
 67
     7
 79
     5
170
     0
171
     0
290
     0
174
     0
 93
       13
 44
0.0
173
     0
291
     1
 45
0.0
1001
ACAD
1000
AcDbSavedByObjectVersion
1070
     0
  0
VISUALSTYLE
  5
2E
102
{ACAD_REACTORS
330
2A
102
}
102
{ACAD_XDICTIONARY
360
1D9
102
}
330
2A
100
AcDbVisualStyle
  2
GouraudWithEdges
 70
     3
 71
     2
 72
     2
 73
     1
 90
        2
 40
-0.6
 41
30.0
 62
     5
 63
     7
 74
     1
 91
        4
 64
     7
 65
   257
 75
     1
175
     1
 42
1.0
 92
        0
 66
   257
 43
1.0
 76
     1
 77
     6
 78
     2
 67
     7
 79
     5
170
     0
171
     0
290
     0
174
     0
 93
       13
 44
0.0
173
     0
291
     1
 45
0.0
1001
ACAD
1000
AcDbSavedByObjectVersion
1070
     0
  0
VISUALSTYLE
  5
38
102
{ACAD_REACTORS
330
2A
102
}
102
{ACAD_XDICTIONARY
360
1ED
102
}
330
2A
100
AcDbVisualStyle
  2
Linepattern
 70
    14
 71
     2
 72
     2
 73
     0
 90
        0
 40
-0.6
 41
-30.0
 62
     5
 63
     7
 74
     1
 91
        4
 64
     7
 65
   257
 75
     7
175
     7
 42
1.0
 92
        8
 66
     7
 43
1.0
 76
     1
 77
     6
 78
     2
 67
     7
 79
     5
170
     0
171
     0
290
     0
174
     0
 93
        1
 44
0.0
173
     0
291
     1
 45
0.0
1001
ACAD
1000
AcDbSavedByObjectVersion
1070
     0
  0
VISUALSTYLE
  5
33
102
{ACAD_REACTORS
330
2A
102
}
102
{ACAD_XDICTIONARY
360
1E3
102
}
330
2A
100
AcDbVisualStyle
  2
Realistic
 70
     8
 71
     2
 72
     2
 73
     0
 90
        0
 40
-0.6
 41
-30.0
 62
     5
 63
     7
 74
     1
 91
        0
 64
     7
 65
   257
 75
     1
175
     1
 42
1.0
 92
        8
 66
     8
 43
1.0
 76
     1
 77
     6
 78
     2
 67
     7
 79
     5
170
     0
171
     0
290
     0
174
     0
 93
       13
 44
0.0
173
     0
291
     0
 45
0.0
1001
ACAD
1000
AcDbSavedByObjectVersion
1070
     0
  0
VISUALSTYLE
  5
37
102
{ACAD_REACTORS
330
2A
102
}
102
{ACAD_XDICTIONARY
360
1EB
102
}
330
2A
100
AcDbVisualStyle
  2
Thicken
 70
    13
 71
     2
 72
     2
 73
     0
 90
        0
 40
-0.6
 41
-30.0
 62
     5
 63
     7
 74
     1
 91
        4
 64
     7
 65
   257
 75
     1
175
     1
 42
1.0
 92
       12
 66
     7
 43
1.0
 76
     1
 77
     6
 78
     2
 67
     7
 79
     5
170
     0
171
     0
290
     0
174
     0
 93
        1
 44
0.0
173
     0
291
     1
 45
0.0
1001
ACAD
1000
AcDbSavedByObjectVersion
1070
     0
  0
DICTIONARYVAR
  5
1D1
102
{ACAD_REACTORS
330
1CE
102
}
330
1CE
100
DictionaryVariables
280
     0
  1
2
  0
DICTIONARYVAR
  5
1D2
102
{ACAD_REACTORS
330
1CE
102
}
330
1CE
100
DictionaryVariables
280
     0
  1
1
  0
DICTIONARY
  5
1F5
330
3D
100
AcDbDictionary
280
     1
281
     1
  3
ACAD_XREC_ROUNDTRIP
360
1F6
  0
DICTIONARY
  5
1F3
330
3C
100
AcDbDictionary
280
     1
281
     1
  3
ACAD_XREC_ROUNDTRIP
360
1F4
  0
DICTIONARY
  5
1F7
330
3E
100
AcDbDictionary
280
     1
281
     1
  3
ACAD_XREC_ROUNDTRIP
360
1F8
  0
DICTIONARY
  5
1DB
330
2F
100
AcDbDictionary
280
     1
281
     1
  3
ACAD_XREC_ROUNDTRIP
360
1DC
  0
DICTIONARY
  5
1DF
330
31
100
AcDbDictionary
280
     1
281
     1
  3
ACAD_XREC_ROUNDTRIP
360
1E0
  0
DICTIONARY
  5
1DD
330
30
100
AcDbDictionary
280
     1
281
     1
  3
ACAD_XREC_ROUNDTRIP
360
1DE
  0
DICTIONARY
  5
1E1
330
32
100
AcDbDictionary
280
     1
281
     1
  3
ACAD_XREC_ROUNDTRIP
360
1E2
  0
DICTIONARY
  5
1E9
330
36
100
AcDbDictionary
280
     1
281
     1
  3
ACAD_XREC_ROUNDTRIP
360
1EA
  0
DICTIONARY
  5
1F1
330
3A
100
AcDbDictionary
280
     1
281
     1
  3
ACAD_XREC_ROUNDTRIP
360
1F2
  0
DICTIONARY
  5
1E5
330
34
100
AcDbDictionary
280
     1
281
     1
  3
ACAD_XREC_ROUNDTRIP
360
1E6
  0
DICTIONARY
  5
1E7
330
35
100
AcDbDictionary
280
     1
281
     1
  3
ACAD_XREC_ROUNDTRIP
360
1E8
  0
DICTIONARY
  5
1EF
330
39
100
AcDbDictionary
280
     1
281
     1
  3
ACAD_XREC_ROUNDTRIP
360
1F0
  0
DICTIONARY
  5
1D3
330
2B
100
AcDbDictionary
280
     1
281
     1
  3
ACAD_XREC_ROUNDTRIP
360
1D4
  0
DICTIONARY
  5
1D5
330
2C
100
AcDbDictionary
280
     1
281
     1
  3
ACAD_XREC_ROUNDTRIP
360
1D6
  0
DICTIONARY
  5
1D7
330
2D
100
AcDbDictionary
280
     1
281
     1
  3
ACAD_XREC_ROUNDTRIP
360
1D8
  0
DICTIONARY
  5
1D9
330
2E
100
AcDbDictionary
280
     1
281
     1
  3
ACAD_XREC_ROUNDTRIP
360
1DA
  0
DICTIONARY
  5
1ED
330
38
100
AcDbDictionary
280
     1
281
     1
  3
ACAD_XREC_ROUNDTRIP
360
1EE
  0
DICTIONARY
  5
1E3
330
33
100
AcDbDictionary
280
     1
281
     1
  3
ACAD_XREC_ROUNDTRIP
360
1E4
  0
DICTIONARY
  5
1EB
330
37
100
AcDbDictionary
280
     1
281
     1
  3
ACAD_XREC_ROUNDTRIP
360
1EC
  0
XRECORD
  5
1F6
102
{ACAD_REACTORS
330
1F5
102
}
330
1F5
100
AcDbXrecord
280
     1
102
MATERIAL
148
0.0
149
0.0
149
0.0
 93
        0
 94
      127
282
     0
 72
     1
 77
     1
171
     1
175
     1
179
     1
273
     0
  0
XRECORD
  5
1F4
102
{ACAD_REACTORS
330
1F3
102
}
330
1F3
100
AcDbXrecord
280
     1
102
MATERIAL
148
0.0
149
0.0
149
0.0
 93
        0
 94
      127
282
     0
 72
     1
 77
     1
171
     1
175
     1
179
     1
273
     0
  0
XRECORD
  5
1F8
102
{ACAD_REACTORS
330
1F7
102
}
330
1F7
100
AcDbXrecord
280
     1
102
MATERIAL
148
0.0
149
0.0
149
0.0
 93
        0
 94
      127
282
     0
 72
     1
 77
     1
171
     1
175
     1
179
     1
273
     0
  0
XRECORD
  5
1DC
102
{ACAD_REACTORS
330
1DB
102
}
330
1DB
100
AcDbXrecord
280
     1
102
RTVSPropertyOp0
 70
     1
102
RTVSPropertyOp1
 70
     1
102
RTVSPropertyOp2
 70
     1
102
RTVSPropertyOp3
 70
     1
102
RTVSPropertyOp4
 70
     1
102
RTVSPropertyOp5
 70
     1
102
RTVSPropertyOp6
 70
     1
102
RTVSPropertyOp7
 70
     1
102
RTVSPropertyOp8
 70
     1
102
RTVSPropertyOp9
 70
     1
102
RTVSPropertyOp10
 70
     1
102
RTVSPropertyOp11
 70
     1
102
RTVSPropertyOp12
 70
     1
102
RTVSPropertyOp13
 70
     1
102
RTVSPropertyOp14
 70
     1
102
RTVSPropertyOp15
 70
     1
102
RTVSPropertyOp16
 70
     1
102
RTVSPropertyOp17
 70
     1
102
RTVSPropertyOp18
 70
     1
102
RTVSPropertyOp19
 70
     1
102
RTVSPropertyOp20
 70
     1
102
RTVSPropertyOp21
 70
     1
102
RTVSPropertyOp22
 70
     1
102
RTVSPropertyOp23
 70
     1
102
RTVSPropertyOp24
 70
     1
102
RTVSPropertyOp25
 70
     1
102
RTVSPropertyOp26
 70
     1
102
RTVSPropertyOp27
 70
     1
102
RTVSPropertyOp28
 70
     1
102
RTVSPropertyOp29
 70
     1
102
RTVSPropertyOp30
 70
     1
102
RTVSPropertyOp31
 70
     1
102
RTVSPropertyOp32
 70
     1
  0
XRECORD
  5
1E0
102
{ACAD_REACTORS
330
1DF
102
}
330
1DF
100
AcDbXrecord
280
     1
102
RTVSPropertyOp0
 70
     1
102
RTVSPropertyOp1
 70
     1
102
RTVSPropertyOp2
 70
     1
102
RTVSPropertyOp3
 70
     1
102
RTVSPropertyOp4
 70
     1
102
RTVSPropertyOp5
 70
     1
102
RTVSPropertyOp6
 70
     1
102
RTVSPropertyOp7
 70
     1
102
RTVSPropertyOp8
 70
     1
102
RTVSPropertyOp9
 70
     1
102
RTVSPropertyOp10
 70
     1
102
RTVSPropertyOp11
 70
     1
102
RTVSPropertyOp12
 70
     1
102
RTVSPropertyOp13
 70
     1
102
RTVSPropertyOp14
 70
     1
102
RTVSPropertyOp15
 70
     1
102
RTVSPropertyOp16
 70
     1
102
RTVSPropertyOp17
 70
     1
102
RTVSPropertyOp18
 70
     1
102
RTVSPropertyOp19
 70
     1
102
RTVSPropertyOp20
 70
     1
102
RTVSPropertyOp21
 70
     1
102
RTVSPropertyOp22
 70
     1
102
RTVSPropertyOp23
 70
     1
102
RTVSPropertyOp24
 70
     1
102
RTVSPropertyOp25
 70
     1
102
RTVSPropertyOp26
 70
     1
102
RTVSPropertyOp27
 70
     1
102
RTVSPropertyOp28
 70
     1
102
RTVSPropertyOp29
 70
     1
102
RTVSPropertyOp30
 70
     1
102
RTVSPropertyOp31
 70
     1
102
RTVSPropertyOp32
 70
     1
  0
XRECORD
  5
1DE
102
{ACAD_REACTORS
330
1DD
102
}
330
1DD
100
AcDbXrecord
280
     1
102
RTVSPropertyOp0
 70
     1
102
RTVSPropertyOp1
 70
     1
102
RTVSPropertyOp2
 70
     1
102
RTVSPropertyOp3
 70
     1
102
RTVSPropertyOp4
 70
     1
102
RTVSPropertyOp5
 70
     1
102
RTVSPropertyOp6
 70
     1
102
RTVSPropertyOp7
 70
     1
102
RTVSPropertyOp8
 70
     1
102
RTVSPropertyOp9
 70
     1
102
RTVSPropertyOp10
 70
     1
102
RTVSPropertyOp11
 70
     1
102
RTVSPropertyOp12
 70
     1
102
RTVSPropertyOp13
 70
     1
102
RTVSPropertyOp14
 70
     1
102
RTVSPropertyOp15
 70
     1
102
RTVSPropertyOp16
 70
     1
102
RTVSPropertyOp17
 70
     1
102
RTVSPropertyOp18
 70
     1
102
RTVSPropertyOp19
 70
     1
102
RTVSPropertyOp20
 70
     1
102
RTVSPropertyOp21
 70
     1
102
RTVSPropertyOp22
 70
     1
102
RTVSPropertyOp23
 70
     1
102
RTVSPropertyOp24
 70
     1
102
RTVSPropertyOp25
 70
     1
102
RTVSPropertyOp26
 70
     1
102
RTVSPropertyOp27
 70
     1
102
RTVSPropertyOp28
 70
     1
102
RTVSPropertyOp29
 70
     1
102
RTVSPropertyOp30
 70
     1
102
RTVSPropertyOp31
 70
     1
102
RTVSPropertyOp32
 70
     1
  0
XRECORD
  5
1E2
102
{ACAD_REACTORS
330
1E1
102
}
330
1E1
100
AcDbXrecord
280
     1
102
RTVSPropertyOp0
 70
     1
102
RTVSPropertyOp1
 70
     1
102
RTVSPropertyOp2
 70
     1
102
RTVSPropertyOp3
 70
     1
102
RTVSPropertyOp4
 70
     1
102
RTVSPropertyOp5
 70
     1
102
RTVSPropertyOp6
 70
     1
102
RTVSPropertyOp7
 70
     1
102
RTVSPropertyOp8
 70
     1
102
RTVSPropertyOp9
 70
     1
102
RTVSPropertyOp10
 70
     1
102
RTVSPropertyOp11
 70
     1
102
RTVSPropertyOp12
 70
     1
102
RTVSPropertyOp13
 70
     1
102
RTVSPropertyOp14
 70
     1
102
RTVSPropertyOp15
 70
     1
102
RTVSPropertyOp16
 70
     1
102
RTVSPropertyOp17
 70
     1
102
RTVSPropertyOp18
 70
     1
102
RTVSPropertyOp19
 70
     1
102
RTVSPropertyOp20
 70
     1
102
RTVSPropertyOp21
 70
     1
102
RTVSPropertyOp22
 70
     1
102
RTVSPropertyOp23
 70
     1
102
RTVSPropertyOp24
 70
     1
102
RTVSPropertyOp25
 70
     1
102
RTVSPropertyOp26
 70
     1
102
RTVSPropertyOp27
 70
     1
102
RTVSPropertyOp28
 70
     1
102
RTVSPropertyOp29
 70
     1
102
RTVSPropertyOp30
 70
     1
102
RTVSPropertyOp31
 70
     1
102
RTVSPropertyOp32
 70
     1
  0
XRECORD
  5
1EA
102
{ACAD_REACTORS
330
1E9
102
}
330
1E9
100
AcDbXrecord
280
     1
102
RTVSPropertyOp0
 70
     1
102
RTVSPropertyOp1
 70
     1
102
RTVSPropertyOp2
 70
     1
102
RTVSPropertyOp3
 70
     1
102
RTVSPropertyOp4
 70
     1
102
RTVSPropertyOp5
 70
     1
102
RTVSPropertyOp6
 70
     1
102
RTVSPropertyOp7
 70
     1
102
RTVSPropertyOp8
 70
     1
102
RTVSPropertyOp9
 70
     1
102
RTVSPropertyOp10
 70
     1
102
RTVSPropertyOp11
 70
     1
102
RTVSPropertyOp12
 70
     1
102
RTVSPropertyOp13
 70
     1
102
RTVSPropertyOp14
 70
     1
102
RTVSPropertyOp15
 70
     1
102
RTVSPropertyOp16
 70
     1
102
RTVSPropertyOp17
 70
     1
102
RTVSPropertyOp18
 70
     1
102
RTVSPropertyOp19
 70
     1
102
RTVSPropertyOp20
 70
     1
102
RTVSPropertyOp21
 70
     1
102
RTVSPropertyOp22
 70
     1
102
RTVSPropertyOp23
 70
     1
102
RTVSPropertyOp24
 70
     1
102
RTVSPropertyOp25
 70
     1
102
RTVSPropertyOp26
 70
     1
102
RTVSPropertyOp27
 70
     1
102
RTVSPropertyOp28
 70
     1
102
RTVSPropertyOp29
 70
     1
102
RTVSPropertyOp30
 70
     1
102
RTVSPropertyOp31
 70
     1
102
RTVSPropertyOp32
 70
     1
  0
XRECORD
  5
1F2
102
{ACAD_REACTORS
330
1F1
102
}
330
1F1
100
AcDbXrecord
280
     1
102
RTVSPropertyOp0
 70
     1
102
RTVSPropertyOp1
 70
     1
102
RTVSPropertyOp2
 70
     1
102
RTVSPropertyOp3
 70
     1
102
RTVSPropertyOp4
 70
     1
102
RTVSPropertyOp5
 70
     1
102
RTVSPropertyOp6
 70
     1
102
RTVSPropertyOp7
 70
     1
102
RTVSPropertyOp8
 70
     1
102
RTVSPropertyOp9
 70
     1
102
RTVSPropertyOp10
 70
     1
102
RTVSPropertyOp11
 70
     1
102
RTVSPropertyOp12
 70
     1
102
RTVSPropertyOp13
 70
     1
102
RTVSPropertyOp14
 70
     1
102
RTVSPropertyOp15
 70
     1
102
RTVSPropertyOp16
 70
     1
102
RTVSPropertyOp17
 70
     1
102
RTVSPropertyOp18
 70
     1
102
RTVSPropertyOp19
 70
     1
102
RTVSPropertyOp20
 70
     1
102
RTVSPropertyOp21
 70
     1
102
RTVSPropertyOp22
 70
     1
102
RTVSPropertyOp23
 70
     1
102
RTVSPropertyOp24
 70
     1
102
RTVSPropertyOp25
 70
     1
102
RTVSPropertyOp26
 70
     1
102
RTVSPropertyOp27
 70
     1
102
RTVSPropertyOp28
 70
     1
102
RTVSPropertyOp29
 70
     1
102
RTVSPropertyOp30
 70
     1
102
RTVSPropertyOp31
 70
     1
102
RTVSPropertyOp32
 70
     1
  0
XRECORD
  5
1E6
102
{ACAD_REACTORS
330
1E5
102
}
330
1E5
100
AcDbXrecord
280
     1
102
RTVSPropertyOp0
 70
     1
102
RTVSPropertyOp1
 70
     1
102
RTVSPropertyOp2
 70
     1
102
RTVSPropertyOp3
 70
     1
102
RTVSPropertyOp4
 70
     1
102
RTVSPropertyOp5
 70
     1
102
RTVSPropertyOp6
 70
     1
102
RTVSPropertyOp7
 70
     1
102
RTVSPropertyOp8
 70
     1
102
RTVSPropertyOp9
 70
     1
102
RTVSPropertyOp10
 70
     1
102
RTVSPropertyOp11
 70
     1
102
RTVSPropertyOp12
 70
     1
102
RTVSPropertyOp13
 70
     1
102
RTVSPropertyOp14
 70
     1
102
RTVSPropertyOp15
 70
     1
102
RTVSPropertyOp16
 70
     1
102
RTVSPropertyOp17
 70
     1
102
RTVSPropertyOp18
 70
     1
102
RTVSPropertyOp19
 70
     1
102
RTVSPropertyOp20
 70
     1
102
RTVSPropertyOp21
 70
     1
102
RTVSPropertyOp22
 70
     1
102
RTVSPropertyOp23
 70
     1
102
RTVSPropertyOp24
 70
     1
102
RTVSPropertyOp25
 70
     1
102
RTVSPropertyOp26
 70
     1
102
RTVSPropertyOp27
 70
     1
102
RTVSPropertyOp28
 70
     1
102
RTVSPropertyOp29
 70
     1
102
RTVSPropertyOp30
 70
     1
102
RTVSPropertyOp31
 70
     1
102
RTVSPropertyOp32
 70
     1
  0
XRECORD
  5
1E8
102
{ACAD_REACTORS
330
1E7
102
}
330
1E7
100
AcDbXrecord
280
     1
102
RTVSPropertyOp0
 70
     1
102
RTVSPropertyOp1
 70
     1
102
RTVSPropertyOp2
 70
     1
102
RTVSPropertyOp3
 70
     1
102
RTVSPropertyOp4
 70
     1
102
RTVSPropertyOp5
 70
     1
102
RTVSPropertyOp6
 70
     1
102
RTVSPropertyOp7
 70
     1
102
RTVSPropertyOp8
 70
     1
102
RTVSPropertyOp9
 70
     1
102
RTVSPropertyOp10
 70
     1
102
RTVSPropertyOp11
 70
     1
102
RTVSPropertyOp12
 70
     1
102
RTVSPropertyOp13
 70
     1
102
RTVSPropertyOp14
 70
     1
102
RTVSPropertyOp15
 70
     1
102
RTVSPropertyOp16
 70
     1
102
RTVSPropertyOp17
 70
     1
102
RTVSPropertyOp18
 70
     1
102
RTVSPropertyOp19
 70
     1
102
RTVSPropertyOp20
 70
     1
102
RTVSPropertyOp21
 70
     1
102
RTVSPropertyOp22
 70
     1
102
RTVSPropertyOp23
 70
     1
102
RTVSPropertyOp24
 70
     1
102
RTVSPropertyOp25
 70
     1
102
RTVSPropertyOp26
 70
     1
102
RTVSPropertyOp27
 70
     1
102
RTVSPropertyOp28
 70
     1
102
RTVSPropertyOp29
 70
     1
102
RTVSPropertyOp30
 70
     1
102
RTVSPropertyOp31
 70
     1
102
RTVSPropertyOp32
 70
     1
  0
XRECORD
  5
1F0
102
{ACAD_REACTORS
330
1EF
102
}
330
1EF
100
AcDbXrecord
280
     1
102
RTVSPropertyOp0
 70
     1
102
RTVSPropertyOp1
 70
     1
102
RTVSPropertyOp2
 70
     1
102
RTVSPropertyOp3
 70
     1
102
RTVSPropertyOp4
 70
     1
102
RTVSPropertyOp5
 70
     1
102
RTVSPropertyOp6
 70
     1
102
RTVSPropertyOp7
 70
     1
102
RTVSPropertyOp8
 70
     1
102
RTVSPropertyOp9
 70
     1
102
RTVSPropertyOp10
 70
     1
102
RTVSPropertyOp11
 70
     1
102
RTVSPropertyOp12
 70
     1
102
RTVSPropertyOp13
 70
     1
102
RTVSPropertyOp14
 70
     1
102
RTVSPropertyOp15
 70
     1
102
RTVSPropertyOp16
 70
     1
102
RTVSPropertyOp17
 70
     1
102
RTVSPropertyOp18
 70
     1
102
RTVSPropertyOp19
 70
     1
102
RTVSPropertyOp20
 70
     1
102
RTVSPropertyOp21
 70
     1
102
RTVSPropertyOp22
 70
     1
102
RTVSPropertyOp23
 70
     1
102
RTVSPropertyOp24
 70
     1
102
RTVSPropertyOp25
 70
     1
102
RTVSPropertyOp26
 70
     1
102
RTVSPropertyOp27
 70
     1
102
RTVSPropertyOp28
 70
     1
102
RTVSPropertyOp29
 70
     1
102
RTVSPropertyOp30
 70
     1
102
RTVSPropertyOp31
 70
     1
102
RTVSPropertyOp32
 70
     1
  0
XRECORD
  5
1D4
102
{ACAD_REACTORS
330
1D3
102
}
330
1D3
100
AcDbXrecord
280
     1
102
RTVSPropertyOp0
 70
     1
102
RTVSPropertyOp1
 70
     1
102
RTVSPropertyOp2
 70
     1
102
RTVSPropertyOp3
 70
     1
102
RTVSPropertyOp4
 70
     1
102
RTVSPropertyOp5
 70
     1
102
RTVSPropertyOp6
 70
     1
102
RTVSPropertyOp7
 70
     1
102
RTVSPropertyOp8
 70
     1
102
RTVSPropertyOp9
 70
     1
102
RTVSPropertyOp10
 70
     1
102
RTVSPropertyOp11
 70
     1
102
RTVSPropertyOp12
 70
     1
102
RTVSPropertyOp13
 70
     1
102
RTVSPropertyOp14
 70
     1
102
RTVSPropertyOp15
 70
     1
102
RTVSPropertyOp16
 70
     1
102
RTVSPropertyOp17
 70
     1
102
RTVSPropertyOp18
 70
     1
102
RTVSPropertyOp19
 70
     1
102
RTVSPropertyOp20
 70
     1
102
RTVSPropertyOp21
 70
     1
102
RTVSPropertyOp22
 70
     1
102
RTVSPropertyOp23
 70
     1
102
RTVSPropertyOp24
 70
     1
102
RTVSPropertyOp25
 70
     1
102
RTVSPropertyOp26
 70
     1
102
RTVSPropertyOp27
 70
     1
102
RTVSPropertyOp28
 70
     1
102
RTVSPropertyOp29
 70
     1
102
RTVSPropertyOp30
 70
     1
102
RTVSPropertyOp31
 70
     1
102
RTVSPropertyOp32
 70
     1
  0
XRECORD
  5
1D6
102
{ACAD_REACTORS
330
1D5
102
}
330
1D5
100
AcDbXrecord
280
     1
102
RTVSPropertyOp0
 70
     1
102
RTVSPropertyOp1
 70
     1
102
RTVSPropertyOp2
 70
     1
102
RTVSPropertyOp3
 70
     1
102
RTVSPropertyOp4
 70
     1
102
RTVSPropertyOp5
 70
     1
102
RTVSPropertyOp6
 70
     1
102
RTVSPropertyOp7
 70
     1
102
RTVSPropertyOp8
 70
     1
102
RTVSPropertyOp9
 70
     1
102
RTVSPropertyOp10
 70
     1
102
RTVSPropertyOp11
 70
     1
102
RTVSPropertyOp12
 70
     1
102
RTVSPropertyOp13
 70
     1
102
RTVSPropertyOp14
 70
     1
102
RTVSPropertyOp15
 70
     1
102
RTVSPropertyOp16
 70
     1
102
RTVSPropertyOp17
 70
     1
102
RTVSPropertyOp18
 70
     1
102
RTVSPropertyOp19
 70
     1
102
RTVSPropertyOp20
 70
     1
102
RTVSPropertyOp21
 70
     1
102
RTVSPropertyOp22
 70
     1
102
RTVSPropertyOp23
 70
     1
102
RTVSPropertyOp24
 70
     1
102
RTVSPropertyOp25
 70
     1
102
RTVSPropertyOp26
 70
     1
102
RTVSPropertyOp27
 70
     1
102
RTVSPropertyOp28
 70
     1
102
RTVSPropertyOp29
 70
     1
102
RTVSPropertyOp30
 70
     1
102
RTVSPropertyOp31
 70
     1
102
RTVSPropertyOp32
 70
     1
  0
XRECORD
  5
1D8
102
{ACAD_REACTORS
330
1D7
102
}
330
1D7
100
AcDbXrecord
280
     1
102
RTVSPropertyOp0
 70
     1
102
RTVSPropertyOp1
 70
     1
102
RTVSPropertyOp2
 70
     1
102
RTVSPropertyOp3
 70
     1
102
RTVSPropertyOp4
 70
     1
102
RTVSPropertyOp5
 70
     1
102
RTVSPropertyOp6
 70
     1
102
RTVSPropertyOp7
 70
     1
102
RTVSPropertyOp8
 70
     1
102
RTVSPropertyOp9
 70
     1
102
RTVSPropertyOp10
 70
     1
102
RTVSPropertyOp11
 70
     1
102
RTVSPropertyOp12
 70
     1
102
RTVSPropertyOp13
 70
     1
102
RTVSPropertyOp14
 70
     1
102
RTVSPropertyOp15
 70
     1
102
RTVSPropertyOp16
 70
     1
102
RTVSPropertyOp17
 70
     1
102
RTVSPropertyOp18
 70
     1
102
RTVSPropertyOp19
 70
     1
102
RTVSPropertyOp20
 70
     1
102
RTVSPropertyOp21
 70
     1
102
RTVSPropertyOp22
 70
     1
102
RTVSPropertyOp23
 70
     1
102
RTVSPropertyOp24
 70
     1
102
RTVSPropertyOp25
 70
     1
102
RTVSPropertyOp26
 70
     1
102
RTVSPropertyOp27
 70
     1
102
RTVSPropertyOp28
 70
     1
102
RTVSPropertyOp29
 70
     1
102
RTVSPropertyOp30
 70
     1
102
RTVSPropertyOp31
 70
     1
102
RTVSPropertyOp32
 70
     1
  0
XRECORD
  5
1DA
102
{ACAD_REACTORS
330
1D9
102
}
330
1D9
100
AcDbXrecord
280
     1
102
RTVSPropertyOp0
 70
     1
102
RTVSPropertyOp1
 70
     1
102
RTVSPropertyOp2
 70
     1
102
RTVSPropertyOp3
 70
     1
102
RTVSPropertyOp4
 70
     1
102
RTVSPropertyOp5
 70
     1
102
RTVSPropertyOp6
 70
     1
102
RTVSPropertyOp7
 70
     1
102
RTVSPropertyOp8
 70
     1
102
RTVSPropertyOp9
 70
     1
102
RTVSPropertyOp10
 70
     1
102
RTVSPropertyOp11
 70
     1
102
RTVSPropertyOp12
 70
     1
102
RTVSPropertyOp13
 70
     1
102
RTVSPropertyOp14
 70
     1
102
RTVSPropertyOp15
 70
     1
102
RTVSPropertyOp16
 70
     1
102
RTVSPropertyOp17
 70
     1
102
RTVSPropertyOp18
 70
     1
102
RTVSPropertyOp19
 70
     1
102
RTVSPropertyOp20
 70
     1
102
RTVSPropertyOp21
 70
     1
102
RTVSPropertyOp22
 70
     1
102
RTVSPropertyOp23
 70
     1
102
RTVSPropertyOp24
 70
     1
102
RTVSPropertyOp25
 70
     1
102
RTVSPropertyOp26
 70
     1
102
RTVSPropertyOp27
 70
     1
102
RTVSPropertyOp28
 70
     1
102
RTVSPropertyOp29
 70
     1
102
RTVSPropertyOp30
 70
     1
102
RTVSPropertyOp31
 70
     1
102
RTVSPropertyOp32
 70
     1
  0
XRECORD
  5
1EE
102
{ACAD_REACTORS
330
1ED
102
}
330
1ED
100
AcDbXrecord
280
     1
102
RTVSPropertyOp0
 70
     1
102
RTVSPropertyOp1
 70
     1
102
RTVSPropertyOp2
 70
     1
102
RTVSPropertyOp3
 70
     1
102
RTVSPropertyOp4
 70
     1
102
RTVSPropertyOp5
 70
     1
102
RTVSPropertyOp6
 70
     1
102
RTVSPropertyOp7
 70
     1
102
RTVSPropertyOp8
 70
     1
102
RTVSPropertyOp9
 70
     1
102
RTVSPropertyOp10
 70
     1
102
RTVSPropertyOp11
 70
     1
102
RTVSPropertyOp12
 70
     1
102
RTVSPropertyOp13
 70
     1
102
RTVSPropertyOp14
 70
     1
102
RTVSPropertyOp15
 70
     1
102
RTVSPropertyOp16
 70
     1
102
RTVSPropertyOp17
 70
     1
102
RTVSPropertyOp18
 70
     1
102
RTVSPropertyOp19
 70
     1
102
RTVSPropertyOp20
 70
     1
102
RTVSPropertyOp21
 70
     1
102
RTVSPropertyOp22
 70
     1
102
RTVSPropertyOp23
 70
     1
102
RTVSPropertyOp24
 70
     1
102
RTVSPropertyOp25
 70
     1
102
RTVSPropertyOp26
 70
     1
102
RTVSPropertyOp27
 70
     1
102
RTVSPropertyOp28
 70
     1
102
RTVSPropertyOp29
 70
     1
102
RTVSPropertyOp30
 70
     1
102
RTVSPropertyOp31
 70
     1
102
RTVSPropertyOp32
 70
     1
  0
XRECORD
  5
1E4
102
{ACAD_REACTORS
330
1E3
102
}
330
1E3
100
AcDbXrecord
280
     1
102
RTVSPropertyOp0
 70
     1
102
RTVSPropertyOp1
 70
     1
102
RTVSPropertyOp2
 70
     1
102
RTVSPropertyOp3
 70
     1
102
RTVSPropertyOp4
 70
     1
102
RTVSPropertyOp5
 70
     1
102
RTVSPropertyOp6
 70
     1
102
RTVSPropertyOp7
 70
     1
102
RTVSPropertyOp8
 70
     1
102
RTVSPropertyOp9
 70
     1
102
RTVSPropertyOp10
 70
     1
102
RTVSPropertyOp11
 70
     1
102
RTVSPropertyOp12
 70
     1
102
RTVSPropertyOp13
 70
     1
102
RTVSPropertyOp14
 70
     1
102
RTVSPropertyOp15
 70
     1
102
RTVSPropertyOp16
 70
     1
102
RTVSPropertyOp17
 70
     1
102
RTVSPropertyOp18
 70
     1
102
RTVSPropertyOp19
 70
     1
102
RTVSPropertyOp20
 70
     1
102
RTVSPropertyOp21
 70
     1
102
RTVSPropertyOp22
 70
     1
102
RTVSPropertyOp23
 70
     1
102
RTVSPropertyOp24
 70
     1
102
RTVSPropertyOp25
 70
     1
102
RTVSPropertyOp26
 70
     1
102
RTVSPropertyOp27
 70
     1
102
RTVSPropertyOp28
 70
     1
102
RTVSPropertyOp29
 70
     1
102
RTVSPropertyOp30
 70
     1
102
RTVSPropertyOp31
 70
     1
102
RTVSPropertyOp32
 70
     1
  0
XRECORD
  5
1EC
102
{ACAD_REACTORS
330
1EB
102
}
330
1EB
100
AcDbXrecord
280
     1
102
RTVSPropertyOp0
 70
     1
102
RTVSPropertyOp1
 70
     1
102
RTVSPropertyOp2
 70
     1
102
RTVSPropertyOp3
 70
     1
102
RTVSPropertyOp4
 70
     1
102
RTVSPropertyOp5
 70
     1
102
RTVSPropertyOp6
 70
     1
102
RTVSPropertyOp7
 70
     1
102
RTVSPropertyOp8
 70
     1
102
RTVSPropertyOp9
 70
     1
102
RTVSPropertyOp10
 70
     1
102
RTVSPropertyOp11
 70
     1
102
RTVSPropertyOp12
 70
     1
102
RTVSPropertyOp13
 70
     1
102
RTVSPropertyOp14
 70
     1
102
RTVSPropertyOp15
 70
     1
102
RTVSPropertyOp16
 70
     1
102
RTVSPropertyOp17
 70
     1
102
RTVSPropertyOp18
 70
     1
102
RTVSPropertyOp19
 70
     1
102
RTVSPropertyOp20
 70
     1
102
RTVSPropertyOp21
 70
     1
102
RTVSPropertyOp22
 70
     1
102
RTVSPropertyOp23
 70
     1
102
RTVSPropertyOp24
 70
     1
102
RTVSPropertyOp25
 70
     1
102
RTVSPropertyOp26
 70
     1
102
RTVSPropertyOp27
 70
     1
102
RTVSPropertyOp28
 70
     1
102
RTVSPropertyOp29
 70
     1
102
RTVSPropertyOp30
 70
     1
102
RTVSPropertyOp31
 70
     1
102
RTVSPropertyOp32
 70
     1
  0
ENDSEC
  0
EOF
