  0
SECTION
  2
HEADER
  9
$ACADVER
  1
AC1015
  9
$ACADMAINTVER
 70
     6
  9
$DWGCODEPAGE
  3
ANSI_932
  9
$INSBASE
 10
0.0
 20
0.0
 30
0.0
  9
$EXTMIN
 10
0.0
 20
0.0
 30
0.0
  9
$EXTMAX
 10
210.0
 20
297.0
 30
0.0
  9
$LIMMIN
 10
0.0
 20
0.0
  9
$LIMMAX
 10
12.0
 20
9.0
  9
$ORTHOMODE
 70
     0
  9
$REGENMODE
 70
     1
  9
$FILLMODE
 70
     1
  9
$QTEXTMODE
 70
     0
  9
$MIRRTEXT
 70
     1
  9
$LTSCALE
 40
1.0
  9
$ATTMODE
 70
     1
  9
$TEXTSIZE
 40
0.2
  9
$TRACEWID
 40
0.05
  9
$TEXTSTYLE
  7
Standard
  9
$CLAYER
  8
0
  9
$CELTYPE
  6
ByLayer
  9
$CECOLOR
 62
   256
  9
$CELTSCALE
 40
1.0
  9
$DISPSILH
 70
     0
  9
$DIMSCALE
 40
1.0
  9
$DIMASZ
 40
0.18
  9
$DIMEXO
 40
0.0625
  9
$DIMDLI
 40
0.38
  9
$DIMRND
 40
0.0
  9
$DIMDLE
 40
0.0
  9
$DIMEXE
 40
0.18
  9
$DIMTP
 40
0.0
  9
$DIMTM
 40
0.0
  9
$DIMTXT
 40
0.18
  9
$DIMCEN
 40
0.09
  9
$DIMTSZ
 40
0.0
  9
$DIMTOL
 70
     0
  9
$DIMLIM
 70
     0
  9
$DIMTIH
 70
     1
  9
$DIMTOH
 70
     1
  9
$DIMSE1
 70
     0
  9
$DIMSE2
 70
     0
  9
$DIMTAD
 70
     0
  9
$DIMZIN
 70
     0
  9
$DIMBLK
  1

  9
$DIMASO
 70
     1
  9
$DIMSHO
 70
     1
  9
$DIMPOST
  1

  9
$DIMAPOST
  1

  9
$DIMALT
 70
     0
  9
$DIMALTD
 70
     2
  9
$DIMALTF
 40
25.4
  9
$DIMLFAC
 40
1.0
  9
$DIMTOFL
 70
     0
  9
$DIMTVP
 40
0.0
  9
$DIMTIX
 70
     0
  9
$DIMSOXD
 70
     0
  9
$DIMSAH
 70
     0
  9
$DIMBLK1
  1

  9
$DIMBLK2
  1

  9
$DIMSTYLE
  2
Standard
  9
$DIMCLRD
 70
     0
  9
$DIMCLRE
 70
     0
  9
$DIMCLRT
 70
     0
  9
$DIMTFAC
 40
1.0
  9
$DIMGAP
 40
0.09
  9
$DIMJUST
 70
     0
  9
$DIMSD1
 70
     0
  9
$DIMSD2
 70
     0
  9
$DIMTOLJ
 70
     1
  9
$DIMTZIN
 70
     0
  9
$DIMALTZ
 70
     0
  9
$DIMALTTZ
 70
     0
  9
$DIMUPT
 70
     0
  9
$DIMDEC
 70
     4
  9
$DIMTDEC
 70
     4
  9
$DIMALTU
 70
     2
  9
$DIMALTTD
 70
     2
  9
$DIMTXSTY
  7
Standard
  9
$DIMAUNIT
 70
     0
  9
$DIMADEC
 70
     0
  9
$DIMALTRND
 40
0.0
  9
$DIMAZIN
 70
     0
  9
$DIMDSEP
 70
    46
  9
$DIMATFIT
 70
     3
  9
$DIMFRAC
 70
     0
  9
$DIMLDRBLK
  1

  9
$DIMLUNIT
 70
     2
  9
$DIMLWD
 70
    -2
  9
$DIMLWE
 70
    -2
  9
$DIMTMOVE
 70
     0
  9
$LUNITS
 70
     2
  9
$LUPREC
 70
     4
  9
$SKETCHINC
 40
0.1
  9
$FILLETRAD
 40
0.5
  9
$AUNITS
 70
     0
  9
$AUPREC
 70
     0
  9
$MENU
  1
.
  9
$ELEVATION
 40
0.0
  9
$PELEVATION
 40
0.0
  9
$THICKNESS
 40
0.0
  9
$LIMCHECK
 70
     0
  9
$CHAMFERA
 40
0.5
  9
$CHAMFERB
 40
0.5
  9
$CHAMFERC
 40
1.0
  9
$CHAMFERD
 40
0.0
  9
$SKPOLY
 70
     0
  9
$TDCREATE
 40
2456496.386363981
  9
$TDUCREATE
 40
2456496.011363981
  9
$TDUPDATE
 40
2456496.386364884
  9
$TDUUPDATE
 40
2456496.011364884
  9
$TDINDWG
 40
0.0000000116
  9
$TDUSRTIMER
 40
0.0000000116
  9
$USRTIMER
 70
     1
  9
$ANGBASE
 50
0.0
  9
$ANGDIR
 70
     0
  9
$PDMODE
 70
     0
  9
$PDSIZE
 40
0.0
  9
$PLINEWID
 40
0.0
  9
$SPLFRAME
 70
     0
  9
$SPLINETYPE
 70
     6
  9
$SPLINESEGS
 70
     8
  9
$HANDSEED
  5
22E
  9
$SURFTAB1
 70
     6
  9
$SURFTAB2
 70
     6
  9
$SURFTYPE
 70
     6
  9
$SURFU
 70
     6
  9
$SURFV
 70
     6
  9
$UCSBASE
  2

  9
$UCSNAME
  2

  9
$UCSORG
 10
0.0
 20
0.0
 30
0.0
  9
$UCSXDIR
 10
1.0
 20
0.0
 30
0.0
  9
$UCSYDIR
 10
0.0
 20
1.0
 30
0.0
  9
$UCSORTHOREF
  2

  9
$UCSORTHOVIEW
 70
     0
  9
$UCSORGTOP
 10
0.0
 20
0.0
 30
0.0
  9
$UCSORGBOTTOM
 10
0.0
 20
0.0
 30
0.0
  9
$UCSORGLEFT
 10
0.0
 20
0.0
 30
0.0
  9
$UCSORGRIGHT
 10
0.0
 20
0.0
 30
0.0
  9
$UCSORGFRONT
 10
0.0
 20
0.0
 30
0.0
  9
$UCSORGBACK
 10
0.0
 20
0.0
 30
0.0
  9
$PUCSBASE
  2

  9
$PUCSNAME
  2

  9
$PUCSORG
 10
0.0
 20
0.0
 30
0.0
  9
$PUCSXDIR
 10
1.0
 20
0.0
 30
0.0
  9
$PUCSYDIR
 10
0.0
 20
1.0
 30
0.0
  9
$PUCSORTHOREF
  2

  9
$PUCSORTHOVIEW
 70
     0
  9
$PUCSORGTOP
 10
0.0
 20
0.0
 30
0.0
  9
$PUCSORGBOTTOM
 10
0.0
 20
0.0
 30
0.0
  9
$PUCSORGLEFT
 10
0.0
 20
0.0
 30
0.0
  9
$PUCSORGRIGHT
 10
0.0
 20
0.0
 30
0.0
  9
$PUCSORGFRONT
 10
0.0
 20
0.0
 30
0.0
  9
$PUCSORGBACK
 10
0.0
 20
0.0
 30
0.0
  9
$USERI1
 70
     0
  9
$USERI2
 70
     0
  9
$USERI3
 70
     0
  9
$USERI4
 70
     0
  9
$USERI5
 70
     0
  9
$USERR1
 40
18.1
  9
$USERR2
 40
0.0
  9
$USERR3
 40
0.0
  9
$USERR4
 40
0.0
  9
$USERR5
 40
0.0
  9
$WORLDVIEW
 70
     1
  9
$SHADEDGE
 70
     3
  9
$SHADEDIF
 70
    70
  9
$TILEMODE
 70
     1
  9
$MAXACTVP
 70
    64
  9
$PINSBASE
 10
0.0
 20
0.0
 30
0.0
  9
$PLIMCHECK
 70
     0
  9
$PEXTMIN
 10
1.00000000000000E+20
 20
1.00000000000000E+20
 30
1.00000000000000E+20
  9
$PEXTMAX
 10
-1.00000000000000E+20
 20
-1.00000000000000E+20
 30
-1.00000000000000E+20
  9
$PLIMMIN
 10
0.0
 20
0.0
  9
$PLIMMAX
 10
12.0
 20
9.0
  9
$UNITMODE
 70
     0
  9
$VISRETAIN
 70
     1
  9
$PLINEGEN
 70
     0
  9
$PSLTSCALE
 70
     1
  9
$TREEDEPTH
 70
  3020
  9
$CMLSTYLE
  2
Standard
  9
$CMLJUST
 70
     0
  9
$CMLSCALE
 40
1.0
  9
$PROXYGRAPHICS
 70
     1
  9
$MEASUREMENT
 70
     1
  9
$CELWEIGHT
370
    -1
  9
$ENDCAPS
280
     0
  9
$JOINSTYLE
280
     0
  9
$LWDISPLAY
290
     0
  9
$INSUNITS
 70
     4
  9
$HYPERLINKBASE
  1

  9
$STYLESHEET
  1

  9
$XEDIT
290
     1
  9
$CEPSNTYPE
380
     0
  9
$PSTYLEMODE
290
     1
  9
$FINGERPRINTGUID
  2
{6858D8F6-EBC4-41F7-9EF9-E9F1AD466AC5}
  9
$VERSIONGUID
  2
{FAEB1C32-E019-11D5-929B-00C0DF256EC4}
  9
$EXTNAMES
290
     1
  9
$PSVPSCALE
 40
0.0
  9
$OLESTARTUP
290
     0
  0
ENDSEC
  0
SECTION
  2
CLASSES
  0
CLASS
  1
ACDBDICTIONARYWDFLT
  2
AcDbDictionaryWithDefault
  3
ObjectDBX Classes
 90
        0
280
     0
281
     0
  0
CLASS
  1
VISUALSTYLE
  2
AcDbVisualStyle
  3
ObjectDBX Classes
 90
     4095
280
     0
281
     0
  0
CLASS
  1
MATERIAL
  2
AcDbMaterial
  3
ObjectDBX Classes
 90
     1153
280
     0
281
     0
  0
CLASS
  1
DICTIONARYVAR
  2
AcDbDictionaryVar
  3
ObjectDBX Classes
 90
        0
280
     0
281
     0
  0
CLASS
  1
ACDBPLACEHOLDER
  2
AcDbPlaceHolder
  3
ObjectDBX Classes
 90
        0
280
     0
281
     0
  0
CLASS
  1
LAYOUT
  2
AcDbLayout
  3
ObjectDBX Classes
 90
        0
280
     0
281
     0
  0
ENDSEC
  0
SECTION
  2
TABLES
  0
TABLE
  2
VPORT
  5
8
330
0
100
AcDbSymbolTable
 70
     1
  0
VPORT
  5
29
330
8
100
AcDbSymbolTableRecord
100
AcDbViewportTableRecord
  2
*Active
 70
     0
 10
0.0
 20
0.0
 11
1.0
 21
1.0
 12
105.0
 22
148.5
 13
0.0
 23
0.0
 14
0.5
 24
0.5
 15
0.5
 25
0.5
 16
0.0
 26
0.0
 36
1.0
 17
0.0
 27
0.0
 37
0.0
 40
326.7
 41
1.60267857142857
 42
50.0
 43
0.0
 44
0.0
 50
0.0
 51
0.0
 71
     0
 72
   100
 73
     1
 74
     3
 75
     0
 76
     0
 77
     0
 78
     0
281
     0
 65
     1
110
0.0
120
0.0
130
0.0
111
1.0
121
0.0
131
0.0
112
0.0
122
1.0
132
0.0
 79
     0
146
0.0
  0
ENDTAB
  0
TABLE
  2
LTYPE
  5
5
330
0
100
AcDbSymbolTable
 70
     8
  0
LTYPE
  5
14
330
5
100
AcDbSymbolTableRecord
100
AcDbLinetypeTableRecord
  2
ByBlock
 70
     0
  3

 72
    65
 73
     0
 40
0.0
  0
LTYPE
  5
15
330
5
100
AcDbSymbolTableRecord
100
AcDbLinetypeTableRecord
  2
ByLayer
 70
     0
  3

 72
    65
 73
     0
 40
0.0
  0
LTYPE
  5
16
330
5
100
AcDbSymbolTableRecord
100
AcDbLinetypeTableRecord
  2
Continuous
 70
     0
  3
Solid line
 72
    65
 73
     0
 40
0.0
  0
LTYPE
  5
3F
330
5
100
AcDbSymbolTableRecord
100
AcDbLinetypeTableRecord
  2
DASHED
 70
     0
  3
Dashed
 72
    65
 73
     2
 40
15.0
 49
7.0
 74
     0
 49
-8.0
 74
     0
  0
LTYPE
  5
40
330
5
100
AcDbSymbolTableRecord
100
AcDbLinetypeTableRecord
  2
DOTTED
 70
     0
  3
Dotted
 72
    65
 73
     2
 40
1.0
 49
0.0
 74
     0
 49
-1.0
 74
     0
  0
LTYPE
  5
41
330
5
100
AcDbSymbolTableRecord
100
AcDbLinetypeTableRecord
  2
DOT_CENTER
 70
     0
  3
Dot_Center
 72
    65
 73
     4
 40
14.0
 49
12.0
 74
     0
 49
-1.0
 74
     0
 49
0.0
 74
     0
 49
-1.0
 74
     0
  0
LTYPE
  5
42
330
5
100
AcDbSymbolTableRecord
100
AcDbLinetypeTableRecord
  2
LONG_DASHED
 70
     0
  3
Long_Dashed
 72
    65
 73
     2
 40
15.0
 49
10.0
 74
     0
 49
-5.0
 74
     0
  0
LTYPE
  5
43
330
5
100
AcDbSymbolTableRecord
100
AcDbLinetypeTableRecord
  2
DASH_CENTER
 70
     0
  3
Dash_Center
 72
    65
 73
     4
 40
14.0
 49
11.0
 74
     0
 49
-1.0
 74
     0
 49
1.0
 74
     0
 49
-1.0
 74
     0
  0
LTYPE
  5
44
330
5
100
AcDbSymbolTableRecord
100
AcDbLinetypeTableRecord
  2
PHANTOM
 70
     0
  3
Phantom
 72
    65
 73
     6
 40
13.0
 49
10.0
 74
     0
 49
-1.0
 74
     0
 49
0.0
 74
     0
 49
-1.0
 74
     0
 49
0.0
 74
     0
 49
-1.0
 74
     0
  0
LTYPE
  5
45
330
5
100
AcDbSymbolTableRecord
100
AcDbLinetypeTableRecord
  2
CENTER_DASH_DASH
 70
     0
  3
Center_Dash_Dash
 72
    65
 73
     6
 40
14.0
 49
9.0
 74
     0
 49
-1.0
 74
     0
 49
1.0
 74
     0
 49
-1.0
 74
     0
 49
1.0
 74
     0
 49
-1.0
 74
     0
  0
ENDTAB
  0
TABLE
  2
LAYER
  5
2
330
0
100
AcDbSymbolTable
 70
     3
  0
LAYER
  5
10
330
2
100
AcDbSymbolTableRecord
100
AcDbLayerTableRecord
  2
0
 70
     0
 62
     7
  6
Continuous
370
    -3
390
F
  0
LAYER
  5
46
330
2
100
AcDbSymbolTableRecord
100
AcDbLayerTableRecord
  2
1
 70
     0
 62
     7
  6
Continuous
370
    -3
390
F
  0
LAYER
  5
47
330
2
100
AcDbSymbolTableRecord
100
AcDbLayerTableRecord
  2
実線
 70
     0
 62
     7
  6
Continuous
370
    -3
390
F
  0
ENDTAB
  0
TABLE
  2
STYLE
  5
3
330
0
100
AcDbSymbolTable
 70
     3
  0
STYLE
  5
11
330
3
100
AcDbSymbolTableRecord
100
AcDbTextStyleTableRecord
  2
Standard
 70
     0
 40
0.0
 41
1.0
 50
0.0
 71
     0
 42
0.2
  3
txt
  4

  0
STYLE
  5
97
330
3
100
AcDbSymbolTableRecord
100
AcDbTextStyleTableRecord
  2
CONVERTER_11
 70
     0
 40
0.0
 41
0.89
 50
0.0
 71
     0
 42
0.2
  3
MS Mincho.ttf
  4

1001
ACAD
1000
MS Mincho
1071
    32785
  0
STYLE
  5
1C8
330
3
100
AcDbSymbolTableRecord
100
AcDbTextStyleTableRecord
  2
CONVERTER_12
 70
     0
 40
0.0
 41
0.9
 50
0.0
 71
     0
 42
0.2
  3
txt.shx
  4

  0
ENDTAB
  0
TABLE
  2
VIEW
  5
6
330
0
100
AcDbSymbolTable
 70
     0
  0
ENDTAB
  0
TABLE
  2
UCS
  5
7
330
0
100
AcDbSymbolTable
 70
     0
  0
ENDTAB
  0
TABLE
  2
APPID
  5
9
330
0
100
AcDbSymbolTable
 70
     1
  0
APPID
  5
12
330
9
100
AcDbSymbolTableRecord
100
AcDbRegAppTableRecord
  2
ACAD
 70
     0
  0
ENDTAB
  0
TABLE
  2
DIMSTYLE
  5
A
330
0
100
AcDbSymbolTable
 70
     5
100
AcDbDimStyleTable
  0
DIMSTYLE
105
27
330
A
100
AcDbSymbolTableRecord
100
AcDbDimStyleTableRecord
  2
Standard
 70
     0
178
     0
340
11
  0
DIMSTYLE
105
1DC
102
{ACAD_REACTORS
330
1DD
102
}
330
A
100
AcDbSymbolTableRecord
100
AcDbDimStyleTableRecord
  2
ME10_DIM_10
 70
     0
 41
3.5
 42
0.0
 44
1.0
 73
     0
 74
     0
 77
     1
 78
     8
140
3.5
147
1.0
172
     1
173
     1
174
     1
175
     1
176
     2
177
     2
271
     2
178
     7
271
     2
340
1C8
  0
DIMSTYLE
105
1E9
102
{ACAD_REACTORS
330
1EA
102
}
330
A
100
AcDbSymbolTableRecord
100
AcDbDimStyleTableRecord
  2
ME10_DIM_11
 70
     0
  3
{\Fgdt;n}<>
 41
3.5
 42
0.0
 44
1.0
 73
     0
 74
     0
 77
     1
 78
     8
140
3.5
147
1.0
172
     1
173
     1
174
     1
175
     1
176
     2
177
     2
271
     2
178
     7
271
     2
340
1C8
  0
DIMSTYLE
105
1F6
102
{ACAD_REACTORS
330
1F7
102
}
330
A
100
AcDbSymbolTableRecord
100
AcDbDimStyleTableRecord
  2
ME10_DIM_12
 70
     0
  3
{\Fgdt;n}<>
 41
3.5
 42
0.0
 44
1.0
 73
     0
 74
     0
 77
     1
 78
     8
140
3.5
147
1.0
172
     1
173
     1
174
     1
175
     1
176
     2
177
     2
271
     2
178
     7
271
     2
340
1C8
  0
DIMSTYLE
105
201
102
{ACAD_REACTORS
330
202
102
}
330
A
100
AcDbSymbolTableRecord
100
AcDbDimStyleTableRecord
  2
ME10_DIM_13
 70
     0
 41
3.5
 42
0.0
 44
1.0
 73
     0
 74
     0
 77
     1
 78
     8
140
3.5
147
1.0
172
     1
173
     1
174
     1
175
     1
176
     2
177
     2
271
     2
178
     7
271
     2
340
1C8
  0
ENDTAB
  0
TABLE
  2
BLOCK_RECORD
  5
1
330
0
100
AcDbSymbolTable
 70
     6
  0
BLOCK_RECORD
  5
1F
330
1
100
AcDbSymbolTableRecord
100
AcDbBlockTableRecord
  2
*Model_Space
340
22
  0
BLOCK_RECORD
  5
1B
330
1
100
AcDbSymbolTableRecord
100
AcDbBlockTableRecord
  2
*Paper_Space
340
1E
  0
BLOCK_RECORD
  5
23
330
1
100
AcDbSymbolTableRecord
100
AcDbBlockTableRecord
  2
*Paper_Space0
340
26
  0
BLOCK_RECORD
  5
48
330
1
100
AcDbSymbolTableRecord
100
AcDbBlockTableRecord
  2
開示A4
340
0
102
{BLKREFS
331
4B
102
}
  0
BLOCK_RECORD
  5
1D3
330
1
100
AcDbSymbolTableRecord
100
AcDbBlockTableRecord
  2
*D2
340
0
  0
BLOCK_RECORD
  5
1DE
330
1
100
AcDbSymbolTableRecord
100
AcDbBlockTableRecord
  2
*D3
340
0
  0
BLOCK_RECORD
  5
1EB
330
1
100
AcDbSymbolTableRecord
100
AcDbBlockTableRecord
  2
*D4
340
0
  0
BLOCK_RECORD
  5
1F8
330
1
100
AcDbSymbolTableRecord
100
AcDbBlockTableRecord
  2
*D5
340
0
  0
ENDTAB
  0
ENDSEC
  0
SECTION
  2
BLOCKS
  0
BLOCK
  5
20
330
1F
100
AcDbEntity
  8
0
100
AcDbBlockBegin
  2
*Model_Space
 70
     0
 10
0.0
 20
0.0
 30
0.0
  3
*Model_Space
  1

  0
ENDBLK
  5
21
330
1F
100
AcDbEntity
  8
0
100
AcDbBlockEnd
  0
BLOCK
  5
1C
330
1B
100
AcDbEntity
 67
     1
  8
0
100
AcDbBlockBegin
  2
*Paper_Space
 70
     0
 10
0.0
 20
0.0
 30
0.0
  3
*Paper_Space
  1

  0
ENDBLK
  5
1D
330
1B
100
AcDbEntity
 67
     1
  8
0
100
AcDbBlockEnd
  0
BLOCK
  5
24
330
23
100
AcDbEntity
  8
0
100
AcDbBlockBegin
  2
*Paper_Space0
 70
     0
 10
0.0
 20
0.0
 30
0.0
  3
*Paper_Space0
  1

  0
ENDBLK
  5
25
330
23
100
AcDbEntity
  8
0
100
AcDbBlockEnd
  0
BLOCK
  5
49
330
48
100
AcDbEntity
  8
0
100
AcDbBlockBegin
  2
開示A4
 70
     0
 10
0.0
 20
0.0
 30
0.0
  3
開示A4
  1

  0
POINT
  5
4C
330
48
100
AcDbEntity
  8
1
 62
     4
100
AcDbPoint
 10
93.75
 20
17.0
 30
0.0
  0
POINT
  5
4D
330
48
100
AcDbEntity
  8
1
 62
     4
100
AcDbPoint
 10
85.25
 20
17.0
 30
0.0
  0
POINT
  5
4E
330
48
100
AcDbEntity
  8
1
 62
     4
100
AcDbPoint
 10
106.5
 20
19.00000000000001
 30
0.0
  0
POINT
  5
4F
330
48
100
AcDbEntity
  8
1
 62
     4
100
AcDbPoint
 10
106.5
 20
12.5
 30
0.0
  0
POINT
  5
50
330
48
100
AcDbEntity
  8
1
 62
     4
100
AcDbPoint
 10
112.25
 20
12.5
 30
0.0
  0
POINT
  5
51
330
48
100
AcDbEntity
  8
1
 62
     4
100
AcDbPoint
 10
100.75
 20
12.5
 30
0.0
  0
POINT
  5
52
330
48
100
AcDbEntity
  8
1
 62
     4
100
AcDbPoint
 10
123.5
 20
19.00000000000001
 30
0.0
  0
POINT
  5
53
330
48
100
AcDbEntity
  8
1
 62
     4
100
AcDbPoint
 10
123.5
 20
12.5
 30
0.0
  0
POINT
  5
54
330
48
100
AcDbEntity
  8
1
 62
     4
100
AcDbPoint
 10
129.25
 20
12.5
 30
0.0
  0
POINT
  5
55
330
48
100
AcDbEntity
  8
1
 62
     4
100
AcDbPoint
 10
117.75
 20
12.5
 30
0.0
  0
POINT
  5
56
330
48
100
AcDbEntity
  8
1
 62
     4
100
AcDbPoint
 10
140.5
 20
19.00000000000001
 30
0.0
  0
POINT
  5
57
330
48
100
AcDbEntity
  8
1
 62
     4
100
AcDbPoint
 10
140.5
 20
12.5
 30
0.0
  0
POINT
  5
58
330
48
100
AcDbEntity
  8
1
 62
     4
100
AcDbPoint
 10
146.25
 20
12.5
 30
0.0
  0
POINT
  5
59
330
48
100
AcDbEntity
  8
1
 62
     4
100
AcDbPoint
 10
134.75
 20
12.5
 30
0.0
  0
POINT
  5
5A
330
48
100
AcDbEntity
  8
1
 62
     4
100
AcDbPoint
 10
151.75
 20
12.5
 30
0.0
  0
POINT
  5
5B
330
48
100
AcDbEntity
  8
1
 62
     4
100
AcDbPoint
 10
163.25
 20
12.5
 30
0.0
  0
POINT
  5
5C
330
48
100
AcDbEntity
  8
1
 62
     4
100
AcDbPoint
 10
157.5
 20
12.5
 30
0.0
  0
POINT
  5
5D
330
48
100
AcDbEntity
  8
1
 62
     4
100
AcDbPoint
 10
57.0
 20
14.25
 30
0.0
  0
POINT
  5
5E
330
48
100
AcDbEntity
  8
1
 62
     4
100
AcDbPoint
 10
57.0
 20
22.75000000000001
 30
0.0
  0
POINT
  5
5F
330
48
100
AcDbEntity
  8
1
 62
     4
100
AcDbPoint
 10
47.5
 20
282.0000000000003
 30
0.0
  0
POINT
  5
60
330
48
100
AcDbEntity
  8
1
 62
     4
100
AcDbPoint
 10
157.5
 20
19.00000000000001
 30
0.0
  0
POINT
  5
61
330
48
100
AcDbEntity
  8
1
 62
     4
100
AcDbPoint
 10
57.0
 20
16.25
 30
0.0
  0
POINT
  5
62
330
48
100
AcDbEntity
  8
1
 62
     4
100
AcDbPoint
 10
57.0
 20
24.75000000000001
 30
0.0
  0
POINT
  5
63
330
48
100
AcDbEntity
  8
1
 62
     4
100
AcDbPoint
 10
57.0
 20
20.75000000000001
 30
0.0
  0
POINT
  5
64
330
48
100
AcDbEntity
  8
1
 62
     4
100
AcDbPoint
 10
57.0
 20
12.25
 30
0.0
  0
POINT
  5
65
330
48
100
AcDbEntity
  8
1
 62
     4
100
AcDbPoint
 10
34.0
 20
34.00000000000001
 30
0.0
  0
LINE
  5
66
330
48
100
AcDbEntity
  8
1
  6
Continuous
 62
     7
100
AcDbLine
 10
105.0
 20
10.0
 30
0.0
 11
200.0
 21
10.0
 31
0.0
  0
LINE
  5
67
330
48
100
AcDbEntity
  8
1
  6
Continuous
 62
     2
100
AcDbLine
 10
105.0
 20
10.0
 30
0.0
 11
105.0
 21
5.0
 31
0.0
  0
LINE
  5
68
330
48
100
AcDbEntity
  8
1
  6
Continuous
 62
     7
100
AcDbLine
 10
200.0
 20
148.5
 30
0.0
 11
200.0
 21
287.0000000000003
 31
0.0
  0
LINE
  5
69
330
48
100
AcDbEntity
  8
1
  6
Continuous
 62
     2
100
AcDbLine
 10
200.0
 20
148.5
 30
0.0
 11
205.0
 21
148.5
 31
0.0
  0
LINE
  5
6A
330
48
100
AcDbEntity
  8
1
  6
Continuous
 62
     7
100
AcDbLine
 10
25.0
 20
148.5
 30
0.0
 11
25.0
 21
287.0000000000003
 31
0.0
  0
LINE
  5
6B
330
48
100
AcDbEntity
  8
1
  6
Continuous
 62
     2
100
AcDbLine
 10
25.0
 20
148.5
 30
0.0
 11
20.0
 21
148.5
 31
0.0
  0
LINE
  5
6C
330
48
100
AcDbEntity
  8
1
  6
Continuous
 62
     7
100
AcDbLine
 10
105.0
 20
287.0000000000003
 30
0.0
 11
25.0
 21
287.0000000000003
 31
0.0
  0
LINE
  5
6D
330
48
100
AcDbEntity
  8
1
  6
Continuous
 62
     2
100
AcDbLine
 10
105.0
 20
287.0000000000003
 30
0.0
 11
105.0
 21
292.0000000000003
 31
0.0
  0
LINE
  5
6E
330
48
100
AcDbEntity
  8
1
  6
Continuous
 62
     2
100
AcDbLine
 10
166.0
 20
20.00000000000001
 30
0.0
 11
200.0
 21
20.00000000000001
 31
0.0
  0
LINE
  5
6F
330
48
100
AcDbEntity
  8
1
  6
Continuous
 62
     2
100
AcDbLine
 10
98.0
 20
27.00000000000001
 30
0.0
 11
98.0
 21
9.99999999999999
 31
0.0
  0
LINE
  5
70
330
48
100
AcDbEntity
  8
1
  6
Continuous
 62
     2
100
AcDbLine
 10
115.0
 20
27.00000000000001
 30
0.0
 11
115.0
 21
9.99999999999999
 31
0.0
  0
LINE
  5
71
330
48
100
AcDbEntity
  8
1
  6
Continuous
 62
     2
100
AcDbLine
 10
149.0
 20
27.00000000000001
 30
0.0
 11
149.0
 21
10.0
 31
0.0
  0
LINE
  5
72
330
48
100
AcDbEntity
  8
1
  6
Continuous
 62
     2
100
AcDbLine
 10
132.0
 20
27.00000000000001
 30
0.0
 11
132.0
 21
9.99999999999999
 31
0.0
  0
LINE
  5
73
330
48
100
AcDbEntity
  8
1
  6
Continuous
 62
     2
100
AcDbLine
 10
166.0
 20
27.00000000000001
 30
0.0
 11
166.0
 21
10.0
 31
0.0
  0
LINE
  5
74
330
48
100
AcDbEntity
  8
1
  6
Continuous
 62
     2
100
AcDbLine
 10
55.0
 20
277.0000000000003
 30
0.0
 11
25.0
 21
277.0000000000003
 31
0.0
  0
LINE
  5
75
330
48
100
AcDbEntity
  8
1
  6
Continuous
 62
     7
100
AcDbLine
 10
25.0
 20
10.0
 30
0.0
 11
25.0
 21
148.5
 31
0.0
  0
LINE
  5
76
330
48
100
AcDbEntity
  8
1
  6
Continuous
 62
     2
100
AcDbLine
 10
40.0
 20
287.0000000000003
 30
0.0
 11
40.0
 21
277.0000000000003
 31
0.0
  0
LINE
  5
77
330
48
100
AcDbEntity
  8
1
  6
Continuous
 62
     2
100
AcDbLine
 10
55.0
 20
287.0000000000003
 30
0.0
 11
55.0
 21
277.0000000000003
 31
0.0
  0
LINE
  5
78
330
48
100
AcDbEntity
  8
1
  6
Continuous
 62
     2
100
AcDbLine
 10
33.0
 20
41.00000000000001
 30
0.0
 11
33.0
 21
27.0
 31
0.0
  0
LINE
  5
79
330
48
100
AcDbEntity
  8
1
  6
Continuous
 62
     7
100
AcDbLine
 10
200.0
 20
27.00000000000001
 30
0.0
 11
25.0
 21
27.00000000000001
 31
0.0
  0
LINE
  5
7A
330
48
100
AcDbEntity
  8
1
  6
Continuous
 62
     7
100
AcDbLine
 10
25.0
 20
41.0
 30
0.0
 11
200.0
 21
41.0
 31
0.0
  0
LINE
  5
7B
330
48
100
AcDbEntity
  8
1
  6
PHANTOM
 62
     4
100
AcDbLine
 10
0.0
 20
0.0
 30
0.0
 11
210.0
 21
0.0
 31
0.0
  0
LINE
  5
7C
330
48
100
AcDbEntity
  8
1
  6
PHANTOM
 62
     4
100
AcDbLine
 10
210.0
 20
0.0
 30
0.0
 11
210.0
 21
297.0
 31
0.0
  0
LINE
  5
7D
330
48
100
AcDbEntity
  8
1
  6
PHANTOM
 62
     4
100
AcDbLine
 10
210.0
 20
297.0
 30
0.0
 11
0.0
 21
297.0
 31
0.0
  0
LINE
  5
7E
330
48
100
AcDbEntity
  8
1
  6
PHANTOM
 62
     4
100
AcDbLine
 10
0.0
 20
297.0
 30
0.0
 11
0.0
 21
0.0
 31
0.0
  0
LINE
  5
7F
330
48
100
AcDbEntity
  8
1
  6
Continuous
 62
     7
100
AcDbLine
 10
25.0
 20
10.0
 30
0.0
 11
105.0
 21
10.0
 31
0.0
  0
LINE
  5
80
330
48
100
AcDbEntity
  8
1
  6
Continuous
 62
     7
100
AcDbLine
 10
200.0
 20
10.0
 30
0.0
 11
200.0
 21
148.5
 31
0.0
  0
LINE
  5
81
330
48
100
AcDbEntity
  8
1
  6
Continuous
 62
     7
100
AcDbLine
 10
200.0
 20
287.0000000000003
 30
0.0
 11
105.0
 21
287.0000000000003
 31
0.0
  0
LINE
  5
82
330
48
100
AcDbEntity
  8
1
  6
Continuous
 62
     2
100
AcDbLine
 10
25.0
 20
18.50000000000001
 30
0.0
 11
81.0
 21
18.50000000000001
 31
0.0
  0
LINE
  5
83
330
48
100
AcDbEntity
  8
1
  6
Continuous
 62
     2
100
AcDbLine
 10
33.0
 20
27.0
 30
0.0
 11
33.0
 21
10.0
 31
0.0
  0
LINE
  5
84
330
48
100
AcDbEntity
  8
1
  6
Continuous
 62
     7
100
AcDbLine
 10
191.0
 20
24.70000000000001
 30
0.0
 11
191.0
 21
22.30000000000001
 31
0.0
  0
LINE
  5
85
330
48
100
AcDbEntity
  8
1
  6
Continuous
 62
     7
100
AcDbLine
 10
191.0
 20
24.70000000000001
 30
0.0
 11
196.0
 21
25.50000000000001
 31
0.0
  0
LINE
  5
86
330
48
100
AcDbEntity
  8
1
  6
Continuous
 62
     7
100
AcDbLine
 10
196.0
 20
25.50000000000001
 30
0.0
 11
196.0
 21
21.50000000000001
 31
0.0
  0
LINE
  5
87
330
48
100
AcDbEntity
  8
1
  6
Continuous
 62
     7
100
AcDbLine
 10
196.0
 20
21.50000000000001
 30
0.0
 11
191.0
 21
22.30000000000001
 31
0.0
  0
LINE
  5
88
330
48
100
AcDbEntity
  8
1
  6
DOT_CENTER
 62
     2
100
AcDbLine
 10
184.0
 20
23.50000000000001
 30
0.0
 11
197.0
 21
23.50000000000001
 31
0.0
  0
LINE
  5
89
330
48
100
AcDbEntity
  8
1
  6
DOT_CENTER
 62
     2
100
AcDbLine
 10
187.0
 20
26.50000000000001
 30
0.0
 11
187.0
 21
20.50000000000001
 31
0.0
  0
LINE
  5
8A
330
48
100
AcDbEntity
  8
1
  6
Continuous
 62
     2
100
AcDbLine
 10
81.0
 20
27.00000000000001
 30
0.0
 11
81.0
 21
10.0
 31
0.0
  0
CIRCLE
  5
8B
330
48
100
AcDbEntity
  8
1
  6
Continuous
 62
     7
100
AcDbCircle
 10
103.5
 20
12.5
 30
0.0
 40
0.2999999999999972
  0
CIRCLE
  5
8C
330
48
100
AcDbEntity
  8
1
  6
Continuous
 62
     7
100
AcDbCircle
 10
109.5
 20
12.5
 30
0.0
 40
0.2999999999999972
  0
CIRCLE
  5
8D
330
48
100
AcDbEntity
  8
1
  6
Continuous
 62
     7
100
AcDbCircle
 10
120.5
 20
12.5
 30
0.0
 40
0.2999999999999972
  0
CIRCLE
  5
8E
330
48
100
AcDbEntity
  8
1
  6
Continuous
 62
     7
100
AcDbCircle
 10
126.5
 20
12.5
 30
0.0
 40
0.2999999999999972
  0
CIRCLE
  5
8F
330
48
100
AcDbEntity
  8
1
  6
Continuous
 62
     7
100
AcDbCircle
 10
137.5
 20
12.5
 30
0.0
 40
0.3000000000000114
  0
CIRCLE
  5
90
330
48
100
AcDbEntity
  8
1
  6
Continuous
 62
     7
100
AcDbCircle
 10
143.5
 20
12.5
 30
0.0
 40
0.3000000000000114
  0
CIRCLE
  5
91
330
48
100
AcDbEntity
  8
1
  6
Continuous
 62
     7
100
AcDbCircle
 10
160.5
 20
12.5
 30
0.0
 40
0.3000000000000114
  0
CIRCLE
  5
92
330
48
100
AcDbEntity
  8
1
  6
Continuous
 62
     7
100
AcDbCircle
 10
154.5
 20
12.5
 30
0.0
 40
0.3000000000000114
  0
CIRCLE
  5
93
330
48
100
AcDbEntity
  8
1
  6
Continuous
 62
     7
100
AcDbCircle
 10
187.0
 20
23.50000000000001
 30
0.0
 40
1.200000000000102
  0
CIRCLE
  5
94
330
48
100
AcDbEntity
  8
1
  6
Continuous
 62
     7
100
AcDbCircle
 10
187.0
 20
23.50000000000001
 30
0.0
 40
2.0
  0
CIRCLE
  5
95
330
48
100
AcDbEntity
  8
1
  6
DOT_CENTER
 62
     7
100
AcDbCircle
 10
89.5
 20
16.0
 30
0.0
 40
0.1000000000000227
  0
CIRCLE
  5
96
330
48
100
AcDbEntity
  8
1
  6
DOT_CENTER
 62
     7
100
AcDbCircle
 10
89.5
 20
18.0
 30
0.0
 40
0.1000000000000227
  0
MTEXT
  5
98
330
48
100
AcDbEntity
  8
1
 62
     7
100
AcDbMText
 10
188.5
 20
15.0
 30
0.0
 40
3.0
 41
0.0
 71
     5
 72
     1
  1
三栄水栓製作所
  7
CONVERTER_11
 73
     1
 44
1.0
  0
MTEXT
  5
99
330
48
100
AcDbEntity
  8
1
 62
     7
100
AcDbMText
 10
171.5
 20
15.0
 30
0.0
 40
2.5
 41
0.0
 71
     5
 72
     1
  1
株式会社
  7
CONVERTER_11
 73
     1
 44
1.0
  0
MTEXT
  5
9A
330
48
100
AcDbEntity
  8
1
 62
     2
100
AcDbMText
 10
32.5
 20
282.0000000000003
 30
0.0
 40
5.0
 41
0.0
 71
     5
 72
     1
  1
図番
  7
CONVERTER_11
 73
     1
 44
0.45454545454545
  0
MTEXT
  5
9B
330
48
100
AcDbEntity
  8
1
 62
     2
100
AcDbMText
 10
29.0
 20
34.00000000000001
 30
0.0
 40
3.5
 41
0.0
 71
     5
 72
     1
  1
備考
  7
CONVERTER_11
 73
     1
 44
0.45454545454545
  0
MTEXT
  5
9C
330
48
100
AcDbEntity
  8
1
 62
     2
100
AcDbMText
 10
29.0
 20
22.75
 30
0.0
 40
3.5
 41
0.0
 71
     5
 72
     1
  1
品名
  7
CONVERTER_11
 73
     1
 44
0.72727272727273
  0
MTEXT
  5
9D
330
48
100
AcDbEntity
  8
1
 62
     2
100
AcDbMText
 10
29.0
 20
14.25
 30
0.0
 40
3.5
 41
0.0
 71
     5
 72
     1
  1
品番
  7
CONVERTER_11
 73
     1
 44
0.72727272727273
  0
MTEXT
  5
9E
330
48
100
AcDbEntity
  8
1
 62
     2
100
AcDbMText
 10
101.5
 20
25.00000000000001
 30
0.0
 40
3.0
 41
0.0
 71
     5
 72
     1
  1
承認
  7
CONVERTER_11
 73
     1
 44
0.59090909090909
  0
MTEXT
  5
9F
330
48
100
AcDbEntity
  8
1
 62
     2
100
AcDbMText
 10
175.0
 20
23.50000000000001
 30
0.0
 40
3.5
 41
0.0
 71
     5
 72
     1
  1
第三角法
  7
CONVERTER_11
 73
     1
 44
0.54545454545455
  0
MTEXT
  5
A0
330
48
100
AcDbEntity
  8
1
 62
     2
100
AcDbMText
 10
118.5
 20
25.00000000000001
 30
0.0
 40
3.0
 41
0.0
 71
     5
 72
     1
  1
検図
  7
CONVERTER_11
 73
     1
 44
0.59090909090909
  0
MTEXT
  5
A1
330
48
100
AcDbEntity
  8
1
 62
     2
100
AcDbMText
 10
152.5
 20
25.00000000000001
 30
0.0
 40
3.0
 41
0.0
 71
     5
 72
     1
  1
担当
  7
CONVERTER_11
 73
     1
 44
0.59090909090909
  0
MTEXT
  5
A2
330
48
100
AcDbEntity
  8
1
 62
     2
100
AcDbMText
 10
135.5
 20
25.00000000000001
 30
0.0
 40
3.0
 41
0.0
 71
     5
 72
     1
  1
製図
  7
CONVERTER_11
 73
     1
 44
0.59090909090909
  0
MTEXT
  5
A3
330
48
100
AcDbEntity
  8
1
 62
     2
100
AcDbMText
 10
89.5
 20
24.00000000000001
 30
0.0
 40
3.5
 41
0.0
 71
     5
 72
     1
  1
尺度
  7
CONVERTER_11
 73
     1
 44
0.54545454545455
  0
MTEXT
  5
A4
330
48
100
AcDbEntity
  8
1
 62
   250
100
AcDbMText
 10
25.0
 20
5.0
 30
0.0
 40
3.5
 41
0.0
 71
     4
 72
     1
  1
備考欄の文字列 原点位置=4
  7
CONVERTER_11
 73
     1
 44
0.54545454545455
  0
ENDBLK
  5
4A
330
48
100
AcDbEntity
  8
0
100
AcDbBlockEnd
  0
BLOCK
  5
1DA
330
1D3
100
AcDbEntity
  8
0
100
AcDbBlockBegin
  2
*D2
 70
     1
 10
0.0
 20
0.0
 30
0.0
  3
*D2
  1

  0
LINE
  5
1D4
330
1D3
100
AcDbEntity
  8
1
  6
Continuous
 62
     2
100
AcDbLine
 10
130.2045203922187
 20
113.8969697191583
 30
0.0
 11
130.2045203922187
 21
180.8969697191583
 31
0.0
  0
LINE
  5
1D5
330
1D3
100
AcDbEntity
  8
1
  6
Continuous
 62
     2
100
AcDbLine
 10
119.7045203922187
 20
180.8969697191583
 30
0.0
 11
131.2045203922187
 21
180.8969697191583
 31
0.0
  0
LINE
  5
1D6
330
1D3
100
AcDbEntity
  8
1
  6
Continuous
 62
     2
100
AcDbLine
 10
115.4545203922187
 20
113.8969697191583
 30
0.0
 11
131.2045203922187
 21
113.8969697191583
 31
0.0
  0
SOLID
  5
1D7
330
1D3
100
AcDbEntity
  8
1
 62
     2
100
AcDbTrace
 10
129.7437366506628
 20
117.3969697191583
 30
0.0
 11
130.6653041337746
 21
117.3969697191583
 31
0.0
 12
130.2045203922187
 22
113.8969697191583
 32
0.0
 13
130.2045203922187
 23
113.8969697191583
 33
0.0
  0
SOLID
  5
1D8
330
1D3
100
AcDbEntity
  8
1
 62
     2
100
AcDbTrace
 10
130.6653041337746
 20
177.3969697191583
 30
0.0
 11
129.7437366506628
 21
177.3969697191583
 31
0.0
 12
130.2045203922187
 22
180.8969697191583
 32
0.0
 13
130.2045203922187
 23
180.8969697191583
 33
0.0
  0
MTEXT
  5
1D9
330
1D3
100
AcDbEntity
  8
1
 62
     7
100
AcDbMText
 10
129.2045203922187
 20
144.7719697191583
 30
0.0
 40
3.5
 41
0.0
 71
     7
 72
     1
  1
67
  7
CONVERTER_12
 11
0.0
 21
1.0
 31
0.0
 73
     1
 44
0.60024009603842
  0
ENDBLK
  5
1DB
330
1D3
100
AcDbEntity
  8
0
100
AcDbBlockEnd
  0
BLOCK
  5
1E7
330
1DE
100
AcDbEntity
  8
0
100
AcDbBlockBegin
  2
*D3
 70
     1
 10
0.0
 20
0.0
 30
0.0
  3
*D3
  1

  0
LINE
  5
1DF
330
1DE
100
AcDbEntity
  8
1
  6
Continuous
 62
     2
100
AcDbLine
 10
103.7045203922187
 20
190.8969697191583
 30
0.0
 11
110.7045203922187
 21
190.8969697191583
 31
0.0
  0
LINE
  5
1E0
330
1DE
100
AcDbEntity
  8
1
  6
Continuous
 62
     2
100
AcDbLine
 10
110.7045203922187
 20
190.8969697191583
 30
0.0
 11
120.2045203922187
 21
190.8969697191583
 31
0.0
  0
LINE
  5
1E1
330
1DE
100
AcDbEntity
  8
1
  6
Continuous
 62
     2
100
AcDbLine
 10
120.2045203922187
 20
190.8969697191583
 30
0.0
 11
127.2045203922187
 21
190.8969697191583
 31
0.0
  0
LINE
  5
1E2
330
1DE
100
AcDbEntity
  8
1
  6
Continuous
 62
     2
100
AcDbLine
 10
120.2045203922187
 20
180.3969697191583
 30
0.0
 11
120.2045203922187
 21
191.8969697191583
 31
0.0
  0
LINE
  5
1E3
330
1DE
100
AcDbEntity
  8
1
  6
Continuous
 62
     2
100
AcDbLine
 10
110.7045203922187
 20
180.3969697191583
 30
0.0
 11
110.7045203922187
 21
191.8969697191583
 31
0.0
  0
SOLID
  5
1E4
330
1DE
100
AcDbEntity
  8
1
 62
     2
100
AcDbTrace
 10
107.2045203922187
 20
190.4361859776024
 30
0.0
 11
107.2045203922187
 21
191.3577534607142
 31
0.0
 12
110.7045203922187
 22
190.8969697191583
 32
0.0
 13
110.7045203922187
 23
190.8969697191583
 33
0.0
  0
SOLID
  5
1E5
330
1DE
100
AcDbEntity
  8
1
 62
     2
100
AcDbTrace
 10
123.7045203922187
 20
191.3577534607142
 30
0.0
 11
123.7045203922187
 21
190.4361859776024
 31
0.0
 12
120.2045203922187
 22
190.8969697191583
 32
0.0
 13
120.2045203922187
 23
190.8969697191583
 33
0.0
  0
MTEXT
  5
1E6
330
1DE
100
AcDbEntity
  8
1
 62
     7
100
AcDbMText
 10
111.4470203922271
 20
192.246962762082
 30
0.0
 40
3.5
 41
0.0
 71
     7
 72
     1
  1
\C7;{\Fgdt;n}\C7;9,5
  7
CONVERTER_12
 11
0.9999999999970619
 21
2.424068405545306E-6
 31
0.0
 73
     1
 44
0.60024009603842
  0
ENDBLK
  5
1E8
330
1DE
100
AcDbEntity
  8
0
100
AcDbBlockEnd
  0
BLOCK
  5
1F4
330
1EB
100
AcDbEntity
  8
0
100
AcDbBlockBegin
  2
*D4
 70
     1
 10
0.0
 20
0.0
 30
0.0
  3
*D4
  1

  0
LINE
  5
1EC
330
1EB
100
AcDbEntity
  8
1
  6
Continuous
 62
     2
100
AcDbLine
 10
105.8545203922188
 20
103.8969697191583
 30
0.0
 11
112.8545203922188
 21
103.8969697191583
 31
0.0
  0
LINE
  5
1ED
330
1EB
100
AcDbEntity
  8
1
  6
Continuous
 62
     2
100
AcDbLine
 10
112.8545203922188
 20
103.8969697191583
 30
0.0
 11
118.054520392219
 21
103.8969697191583
 31
0.0
  0
LINE
  5
1EE
330
1EB
100
AcDbEntity
  8
1
  6
Continuous
 62
     2
100
AcDbLine
 10
118.054520392219
 20
103.8969697191583
 30
0.0
 11
132.987313093597
 21
103.8969697191583
 31
0.0
  0
LINE
  5
1EF
330
1EB
100
AcDbEntity
  8
1
  6
Continuous
 62
     2
100
AcDbLine
 10
118.054520392219
 20
120.9950720185393
 30
0.0
 11
118.054520392219
 21
102.8969697191583
 31
0.0
  0
LINE
  5
1F0
330
1EB
100
AcDbEntity
  8
1
  6
Continuous
 62
     2
100
AcDbLine
 10
112.8545203922188
 20
119.2165672732454
 30
0.0
 11
112.8545203922188
 21
102.8969697191583
 31
0.0
  0
SOLID
  5
1F1
330
1EB
100
AcDbEntity
  8
1
 62
     2
100
AcDbTrace
 10
109.3545203922188
 20
103.4361859776024
 30
0.0
 11
109.3545203922188
 21
104.3577534607142
 31
0.0
 12
112.8545203922188
 22
103.8969697191583
 32
0.0
 13
112.8545203922188
 23
103.8969697191583
 33
0.0
  0
SOLID
  5
1F2
330
1EB
100
AcDbEntity
  8
1
 62
     2
100
AcDbTrace
 10
121.554520392219
 20
104.3577534607142
 30
0.0
 11
121.554520392219
 21
103.4361859776024
 31
0.0
 12
118.054520392219
 22
103.8969697191583
 32
0.0
 13
118.054520392219
 23
103.8969697191583
 33
0.0
  0
MTEXT
  5
1F3
330
1EB
100
AcDbEntity
  8
1
 62
     7
100
AcDbMText
 10
123.6423130936054
 20
105.246962762082
 30
0.0
 40
3.5
 41
0.0
 71
     7
 72
     1
  1
\C7;{\Fgdt;n}\C7;5,2
  7
CONVERTER_12
 11
0.9999999999970619
 21
2.424068405545306E-6
 31
0.0
 73
     1
 44
0.60024009603842
  0
ENDBLK
  5
1F5
330
1EB
100
AcDbEntity
  8
0
100
AcDbBlockEnd
  0
BLOCK
  5
1FF
330
1F8
100
AcDbEntity
  8
0
100
AcDbBlockBegin
  2
*D5
 70
     1
 10
0.0
 20
0.0
 30
0.0
  3
*D5
  1

  0
LINE
  5
1F9
330
1F8
100
AcDbEntity
  8
1
  6
Continuous
 62
     2
100
AcDbLine
 10
102.8545203922188
 20
163.8969697191583
 30
0.0
 11
102.8545203922188
 21
113.8969697191583
 31
0.0
  0
LINE
  5
1FA
330
1F8
100
AcDbEntity
  8
1
  6
Continuous
 62
     2
100
AcDbLine
 10
115.4545203922187
 20
113.8969697191583
 30
0.0
 11
101.8545203922188
 21
113.8969697191583
 31
0.0
  0
LINE
  5
1FB
330
1F8
100
AcDbEntity
  8
1
  6
Continuous
 62
     2
100
AcDbLine
 10
115.4545203922187
 20
163.8969697191583
 30
0.0
 11
101.8545203922188
 21
163.8969697191583
 31
0.0
  0
SOLID
  5
1FC
330
1F8
100
AcDbEntity
  8
1
 62
     2
100
AcDbTrace
 10
103.3153041337747
 20
160.3969697191583
 30
0.0
 11
102.3937366506629
 21
160.3969697191583
 31
0.0
 12
102.8545203922188
 22
163.8969697191583
 32
0.0
 13
102.8545203922188
 23
163.8969697191583
 33
0.0
  0
SOLID
  5
1FD
330
1F8
100
AcDbEntity
  8
1
 62
     2
100
AcDbTrace
 10
102.3937366506629
 20
117.3969697191583
 30
0.0
 11
103.3153041337747
 21
117.3969697191583
 31
0.0
 12
102.8545203922188
 22
113.8969697191583
 32
0.0
 13
102.8545203922188
 23
113.8969697191583
 33
0.0
  0
MTEXT
  5
1FE
330
1F8
100
AcDbEntity
  8
1
 62
     7
100
AcDbMText
 10
101.8545203922188
 20
136.2719697191583
 30
0.0
 40
3.5
 41
0.0
 71
     7
 72
     1
  1
50
  7
CONVERTER_12
 11
0.0
 21
1.0
 31
0.0
 73
     1
 44
0.60024009603842
  0
ENDBLK
  5
200
330
1F8
100
AcDbEntity
  8
0
100
AcDbBlockEnd
  0
ENDSEC
  0
SECTION
  2
ENTITIES
  0
INSERT
  5
4B
330
1F
100
AcDbEntity
  8
1
100
AcDbBlockReference
  2
開示A4
 10
0.0
 20
0.0
 30
0.0
  0
LINE
  5
A5
330
1F
100
AcDbEntity
  8
実線
  6
Continuous
 62
     7
100
AcDbLine
 10
118.0045203922189
 20
218.2091619061694
 30
0.0
 11
118.0045203922189
 21
217.149161906169
 31
0.0
  0
LINE
  5
A6
330
1F
100
AcDbEntity
  8
実線
  6
Continuous
 62
     7
100
AcDbLine
 10
112.904520392219
 20
218.2091619061694
 30
0.0
 11
112.904520392219
 21
217.149161906169
 31
0.0
  0
LINE
  5
A7
330
1F
100
AcDbEntity
  8
実線
  6
Continuous
 62
     7
100
AcDbLine
 10
114.9245203922189
 20
220.2291619061693
 30
0.0
 11
115.9845203922189
 21
220.2291619061693
 31
0.0
  0
LINE
  5
A8
330
1F
100
AcDbEntity
  8
実線
  6
Continuous
 62
     7
100
AcDbLine
 10
114.9245203922189
 20
215.1291619061694
 30
0.0
 11
115.9845203922189
 21
215.1291619061694
 31
0.0
  0
LINE
  5
A9
330
1F
100
AcDbEntity
  8
実線
  6
Continuous
 62
     7
100
AcDbLine
 10
115.9845203922189
 20
215.649161906169
 30
0.0
 11
115.9845203922189
 21
215.1291619061694
 31
0.0
  0
LINE
  5
AA
330
1F
100
AcDbEntity
  8
実線
  6
Continuous
 62
     7
100
AcDbLine
 10
114.9245203922189
 20
220.2291619061693
 30
0.0
 11
114.9245203922189
 21
219.7091619061694
 31
0.0
  0
LINE
  5
AB
330
1F
100
AcDbEntity
  8
実線
  6
Continuous
 62
     7
100
AcDbLine
 10
118.0045203922189
 20
218.2091619061694
 30
0.0
 11
117.4845203922189
 21
218.2091619061694
 31
0.0
  0
LINE
  5
AC
330
1F
100
AcDbEntity
  8
実線
  6
Continuous
 62
     7
100
AcDbLine
 10
118.0045203922189
 20
217.149161906169
 30
0.0
 11
117.4845203922189
 21
217.149161906169
 31
0.0
  0
LINE
  5
AD
330
1F
100
AcDbEntity
  8
実線
  6
Continuous
 62
     7
100
AcDbLine
 10
115.9845203922189
 20
219.7091619061703
 30
0.0
 11
115.9845203922189
 21
220.2291619061693
 31
0.0
  0
LINE
  5
AE
330
1F
100
AcDbEntity
  8
実線
  6
Continuous
 62
     7
100
AcDbLine
 10
112.904520392219
 20
218.2091619061694
 30
0.0
 11
113.4245203922189
 21
218.2091619061694
 31
0.0
  0
LINE
  5
AF
330
1F
100
AcDbEntity
  8
実線
  6
Continuous
 62
     7
100
AcDbLine
 10
112.904520392219
 20
217.149161906169
 30
0.0
 11
113.4245203922189
 21
217.149161906169
 31
0.0
  0
LINE
  5
B0
330
1F
100
AcDbEntity
  8
実線
  6
Continuous
 62
     7
100
AcDbLine
 10
114.9245203922189
 20
215.649161906169
 30
0.0
 11
114.9245203922189
 21
215.1291619061694
 31
0.0
  0
LINE
  5
B1
330
1F
100
AcDbEntity
  8
実線
  6
Continuous
 62
     7
100
AcDbLine
 10
111.2045203922187
 20
180.8969697191583
 30
0.0
 11
119.7045203922187
 21
180.8969697191583
 31
0.0
  0
LINE
  5
B2
330
1F
100
AcDbEntity
  8
実線
  6
Continuous
 62
     7
100
AcDbLine
 10
120.2045203922187
 20
180.3969697191583
 30
0.0
 11
120.2045203922187
 21
179.3969697191583
 31
0.0
  0
LINE
  5
B3
330
1F
100
AcDbEntity
  8
実線
  6
Continuous
 62
     7
100
AcDbLine
 10
119.7045203922187
 20
178.8969697191583
 30
0.0
 11
111.2045203922187
 21
178.8969697191583
 31
0.0
  0
LINE
  5
B4
330
1F
100
AcDbEntity
  8
実線
  6
Continuous
 62
     7
100
AcDbLine
 10
110.7045203922187
 20
179.3969697191583
 30
0.0
 11
110.7045203922187
 21
180.3969697191583
 31
0.0
  0
LINE
  5
B5
330
1F
100
AcDbEntity
  8
実線
  6
Continuous
 62
     7
100
AcDbLine
 10
116.7545203922189
 20
163.468233323084
 30
0.0
 11
118.0545203922191
 21
162.9950720185393
 31
0.0
  0
LINE
  5
B6
330
1F
100
AcDbEntity
  8
実線
  6
Continuous
 62
     7
100
AcDbLine
 10
118.0545203922191
 20
162.9950720185393
 30
0.0
 11
114.154520392219
 21
160.7434059686993
 31
0.0
  0
LINE
  5
B7
330
1F
100
AcDbEntity
  8
実線
  6
Continuous
 62
     7
100
AcDbLine
 10
116.7545203922189
 20
163.468233323084
 30
0.0
 11
112.8545203922188
 21
161.2165672732454
 31
0.0
  0
LINE
  5
B8
330
1F
100
AcDbEntity
  8
実線
  6
Continuous
 62
     7
100
AcDbLine
 10
112.8545203922188
 20
161.2165672732454
 30
0.0
 11
114.154520392219
 21
160.7434059686993
 31
0.0
  0
LINE
  5
B9
330
1F
100
AcDbEntity
  8
実線
  6
Continuous
 62
     7
100
AcDbLine
 10
118.0545203922191
 20
162.9950720185393
 30
0.0
 11
112.8545203922188
 21
161.2165672732454
 31
0.0
  0
LINE
  5
BA
330
1F
100
AcDbEntity
  8
実線
  6
Continuous
 62
     7
100
AcDbLine
 10
116.7545203922189
 20
145.4682333230853
 30
0.0
 11
118.0545203922191
 21
144.9950720185393
 31
0.0
  0
LINE
  5
BB
330
1F
100
AcDbEntity
  8
実線
  6
Continuous
 62
     7
100
AcDbLine
 10
118.0545203922191
 20
144.9950720185393
 30
0.0
 11
114.154520392219
 21
142.7434059686993
 31
0.0
  0
LINE
  5
BC
330
1F
100
AcDbEntity
  8
実線
  6
Continuous
 62
     7
100
AcDbLine
 10
116.7545203922189
 20
145.4682333230853
 30
0.0
 11
112.8545203922188
 21
143.2165672732454
 31
0.0
  0
LINE
  5
BD
330
1F
100
AcDbEntity
  8
実線
  6
Continuous
 62
     7
100
AcDbLine
 10
112.8545203922188
 20
143.2165672732454
 30
0.0
 11
114.154520392219
 21
142.7434059686993
 31
0.0
  0
LINE
  5
BE
330
1F
100
AcDbEntity
  8
実線
  6
Continuous
 62
     7
100
AcDbLine
 10
118.0545203922191
 20
144.9950720185393
 30
0.0
 11
112.8545203922188
 21
143.2165672732454
 31
0.0
  0
LINE
  5
BF
330
1F
100
AcDbEntity
  8
実線
  6
Continuous
 62
     7
100
AcDbLine
 10
116.7545203922189
 20
139.4682333230853
 30
0.0
 11
118.0545203922191
 21
138.9950720185393
 31
0.0
  0
LINE
  5
C0
330
1F
100
AcDbEntity
  8
実線
  6
Continuous
 62
     7
100
AcDbLine
 10
118.0545203922191
 20
138.9950720185393
 30
0.0
 11
114.154520392219
 21
136.7434059686993
 31
0.0
  0
LINE
  5
C1
330
1F
100
AcDbEntity
  8
実線
  6
Continuous
 62
     7
100
AcDbLine
 10
116.7545203922189
 20
139.4682333230853
 30
0.0
 11
112.8545203922188
 21
137.2165672732454
 31
0.0
  0
LINE
  5
C2
330
1F
100
AcDbEntity
  8
実線
  6
Continuous
 62
     7
100
AcDbLine
 10
112.8545203922188
 20
137.2165672732454
 30
0.0
 11
114.154520392219
 21
136.7434059686993
 31
0.0
  0
LINE
  5
C3
330
1F
100
AcDbEntity
  8
実線
  6
Continuous
 62
     7
100
AcDbLine
 10
118.0545203922191
 20
138.9950720185393
 30
0.0
 11
112.8545203922188
 21
137.2165672732454
 31
0.0
  0
LINE
  5
C4
330
1F
100
AcDbEntity
  8
実線
  6
Continuous
 62
     7
100
AcDbLine
 10
116.7545203922189
 20
136.4682333230853
 30
0.0
 11
118.0545203922191
 21
135.9950720185393
 31
0.0
  0
LINE
  5
C5
330
1F
100
AcDbEntity
  8
実線
  6
Continuous
 62
     7
100
AcDbLine
 10
118.0545203922191
 20
135.9950720185393
 30
0.0
 11
114.154520392219
 21
133.7434059686993
 31
0.0
  0
LINE
  5
C6
330
1F
100
AcDbEntity
  8
実線
  6
Continuous
 62
     7
100
AcDbLine
 10
116.7545203922189
 20
136.4682333230853
 30
0.0
 11
112.8545203922188
 21
134.2165672732454
 31
0.0
  0
LINE
  5
C7
330
1F
100
AcDbEntity
  8
実線
  6
Continuous
 62
     7
100
AcDbLine
 10
112.8545203922188
 20
134.2165672732454
 30
0.0
 11
114.154520392219
 21
133.7434059686993
 31
0.0
  0
LINE
  5
C8
330
1F
100
AcDbEntity
  8
実線
  6
Continuous
 62
     7
100
AcDbLine
 10
118.0545203922191
 20
135.9950720185393
 30
0.0
 11
112.8545203922188
 21
134.2165672732454
 31
0.0
  0
LINE
  5
C9
330
1F
100
AcDbEntity
  8
実線
  6
Continuous
 62
     7
100
AcDbLine
 10
116.7545203922189
 20
130.4682333230853
 30
0.0
 11
118.0545203922191
 21
129.9950720185393
 31
0.0
  0
LINE
  5
CA
330
1F
100
AcDbEntity
  8
実線
  6
Continuous
 62
     7
100
AcDbLine
 10
118.0545203922191
 20
129.9950720185393
 30
0.0
 11
114.154520392219
 21
127.7434059686993
 31
0.0
  0
LINE
  5
CB
330
1F
100
AcDbEntity
  8
実線
  6
Continuous
 62
     7
100
AcDbLine
 10
116.7545203922189
 20
130.4682333230853
 30
0.0
 11
112.8545203922188
 21
128.2165672732454
 31
0.0
  0
LINE
  5
CC
330
1F
100
AcDbEntity
  8
実線
  6
Continuous
 62
     7
100
AcDbLine
 10
112.8545203922188
 20
128.2165672732454
 30
0.0
 11
114.154520392219
 21
127.7434059686993
 31
0.0
  0
LINE
  5
CD
330
1F
100
AcDbEntity
  8
実線
  6
Continuous
 62
     7
100
AcDbLine
 10
118.0545203922191
 20
129.9950720185393
 30
0.0
 11
112.8545203922188
 21
128.2165672732454
 31
0.0
  0
LINE
  5
CE
330
1F
100
AcDbEntity
  8
実線
  6
Continuous
 62
     7
100
AcDbLine
 10
116.7545203922189
 20
124.4682333230853
 30
0.0
 11
118.0545203922191
 21
123.9950720185393
 31
0.0
  0
LINE
  5
CF
330
1F
100
AcDbEntity
  8
実線
  6
Continuous
 62
     7
100
AcDbLine
 10
118.0545203922191
 20
123.9950720185393
 30
0.0
 11
114.154520392219
 21
121.7434059686993
 31
0.0
  0
LINE
  5
D0
330
1F
100
AcDbEntity
  8
実線
  6
Continuous
 62
     7
100
AcDbLine
 10
116.7545203922189
 20
124.4682333230853
 30
0.0
 11
112.8545203922188
 21
122.2165672732454
 31
0.0
  0
LINE
  5
D1
330
1F
100
AcDbEntity
  8
実線
  6
Continuous
 62
     7
100
AcDbLine
 10
112.8545203922188
 20
122.2165672732454
 30
0.0
 11
114.154520392219
 21
121.7434059686993
 31
0.0
  0
LINE
  5
D2
330
1F
100
AcDbEntity
  8
実線
  6
Continuous
 62
     7
100
AcDbLine
 10
118.0545203922191
 20
123.9950720185393
 30
0.0
 11
112.8545203922188
 21
122.2165672732454
 31
0.0
  0
LINE
  5
D3
330
1F
100
AcDbEntity
  8
実線
  6
Continuous
 62
     7
100
AcDbLine
 10
115.4545203922187
 20
113.8969697191583
 30
0.0
 11
116.2566212188988
 21
116.179872072008
 31
0.0
  0
LINE
  5
D4
330
1F
100
AcDbEntity
  8
実線
  6
Continuous
 62
     7
100
AcDbLine
 10
114.211111943149
 20
117.3977686700632
 30
0.0
 11
115.4545203922187
 21
113.8969697191583
 31
0.0
  0
LINE
  5
D5
330
1F
100
AcDbEntity
  8
実線
  6
Continuous
 62
     7
100
AcDbLine
 10
116.7545203922189
 20
147.244516668593
 30
0.0
 11
116.7545203922189
 21
146.6475250691051
 31
0.0
  0
LINE
  5
D6
330
1F
100
AcDbEntity
  8
実線
  6
Continuous
 62
     7
100
AcDbLine
 10
116.7545203922189
 20
146.6475250691051
 30
0.0
 11
117.404520392219
 21
146.4109444168334
 31
0.0
  0
LINE
  5
D7
330
1F
100
AcDbEntity
  8
実線
  6
Continuous
 62
     7
100
AcDbLine
 10
117.404520392219
 20
146.4109444168334
 30
0.0
 11
114.154520392219
 21
144.5345560419664
 31
0.0
  0
LINE
  5
D8
330
1F
100
AcDbEntity
  8
実線
  6
Continuous
 62
     7
100
AcDbLine
 10
116.7545203922189
 20
146.6475250691051
 30
0.0
 11
113.5045203922189
 21
144.7711366942394
 31
0.0
  0
LINE
  5
D9
330
1F
100
AcDbEntity
  8
実線
  6
Continuous
 62
     7
100
AcDbLine
 10
113.5045203922189
 20
144.7711366942394
 30
0.0
 11
114.154520392219
 21
144.5345560419664
 31
0.0
  0
LINE
  5
DA
330
1F
100
AcDbEntity
  8
実線
  6
Continuous
 62
     7
100
AcDbLine
 10
117.404520392219
 20
146.4109444168334
 30
0.0
 11
113.5045203922189
 21
144.7711366942394
 31
0.0
  0
LINE
  5
DB
330
1F
100
AcDbEntity
  8
実線
  6
Continuous
 62
     7
100
AcDbLine
 10
116.7545203922189
 20
143.5929556481115
 30
0.0
 11
117.404520392219
 21
143.3563749958385
 31
0.0
  0
LINE
  5
DC
330
1F
100
AcDbEntity
  8
実線
  6
Continuous
 62
     7
100
AcDbLine
 10
117.404520392219
 20
143.3563749958385
 30
0.0
 11
114.154520392219
 21
141.4799866209723
 31
0.0
  0
LINE
  5
DD
330
1F
100
AcDbEntity
  8
実線
  6
Continuous
 62
     7
100
AcDbLine
 10
116.7545203922189
 20
143.5929556481115
 30
0.0
 11
113.5045203922189
 21
141.7165672732454
 31
0.0
  0
LINE
  5
DE
330
1F
100
AcDbEntity
  8
実線
  6
Continuous
 62
     7
100
AcDbLine
 10
113.5045203922189
 20
141.7165672732454
 30
0.0
 11
114.154520392219
 21
141.4799866209723
 31
0.0
  0
LINE
  5
DF
330
1F
100
AcDbEntity
  8
実線
  6
Continuous
 62
     7
100
AcDbLine
 10
117.404520392219
 20
143.3563749958385
 30
0.0
 11
113.5045203922189
 21
141.7165672732454
 31
0.0
  0
LINE
  5
E0
330
1F
100
AcDbEntity
  8
実線
  6
Continuous
 62
     7
100
AcDbLine
 10
116.7545203922189
 20
137.5929556481115
 30
0.0
 11
117.404520392219
 21
137.3563749958385
 31
0.0
  0
LINE
  5
E1
330
1F
100
AcDbEntity
  8
実線
  6
Continuous
 62
     7
100
AcDbLine
 10
117.404520392219
 20
137.3563749958385
 30
0.0
 11
114.154520392219
 21
135.4799866209723
 31
0.0
  0
LINE
  5
E2
330
1F
100
AcDbEntity
  8
実線
  6
Continuous
 62
     7
100
AcDbLine
 10
116.7545203922189
 20
137.5929556481115
 30
0.0
 11
113.5045203922189
 21
135.7165672732454
 31
0.0
  0
LINE
  5
E3
330
1F
100
AcDbEntity
  8
実線
  6
Continuous
 62
     7
100
AcDbLine
 10
113.5045203922189
 20
135.7165672732454
 30
0.0
 11
114.154520392219
 21
135.4799866209723
 31
0.0
  0
LINE
  5
E4
330
1F
100
AcDbEntity
  8
実線
  6
Continuous
 62
     7
100
AcDbLine
 10
117.404520392219
 20
137.3563749958385
 30
0.0
 11
113.5045203922189
 21
135.7165672732454
 31
0.0
  0
LINE
  5
E5
330
1F
100
AcDbEntity
  8
実線
  6
Continuous
 62
     7
100
AcDbLine
 10
116.7545203922189
 20
134.5929556481124
 30
0.0
 11
117.404520392219
 21
134.3563749958394
 31
0.0
  0
LINE
  5
E6
330
1F
100
AcDbEntity
  8
実線
  6
Continuous
 62
     7
100
AcDbLine
 10
117.404520392219
 20
134.3563749958394
 30
0.0
 11
114.154520392219
 21
132.4799866209723
 31
0.0
  0
LINE
  5
E7
330
1F
100
AcDbEntity
  8
実線
  6
Continuous
 62
     7
100
AcDbLine
 10
116.7545203922189
 20
134.5929556481124
 30
0.0
 11
113.5045203922189
 21
132.7165672732454
 31
0.0
  0
LINE
  5
E8
330
1F
100
AcDbEntity
  8
実線
  6
Continuous
 62
     7
100
AcDbLine
 10
113.5045203922189
 20
132.7165672732454
 30
0.0
 11
114.154520392219
 21
132.4799866209723
 31
0.0
  0
LINE
  5
E9
330
1F
100
AcDbEntity
  8
実線
  6
Continuous
 62
     7
100
AcDbLine
 10
117.404520392219
 20
134.3563749958394
 30
0.0
 11
113.5045203922189
 21
132.7165672732454
 31
0.0
  0
LINE
  5
EA
330
1F
100
AcDbEntity
  8
実線
  6
Continuous
 62
     7
100
AcDbLine
 10
116.7545203922189
 20
131.5929556481115
 30
0.0
 11
117.404520392219
 21
131.3563749958385
 31
0.0
  0
LINE
  5
EB
330
1F
100
AcDbEntity
  8
実線
  6
Continuous
 62
     7
100
AcDbLine
 10
117.404520392219
 20
131.3563749958385
 30
0.0
 11
114.154520392219
 21
129.4799866209723
 31
0.0
  0
LINE
  5
EC
330
1F
100
AcDbEntity
  8
実線
  6
Continuous
 62
     7
100
AcDbLine
 10
116.7545203922189
 20
131.5929556481115
 30
0.0
 11
113.5045203922189
 21
129.7165672732454
 31
0.0
  0
LINE
  5
ED
330
1F
100
AcDbEntity
  8
実線
  6
Continuous
 62
     7
100
AcDbLine
 10
113.5045203922189
 20
129.7165672732454
 30
0.0
 11
114.154520392219
 21
129.4799866209723
 31
0.0
  0
LINE
  5
EE
330
1F
100
AcDbEntity
  8
実線
  6
Continuous
 62
     7
100
AcDbLine
 10
117.404520392219
 20
131.3563749958385
 30
0.0
 11
113.5045203922189
 21
129.7165672732454
 31
0.0
  0
LINE
  5
EF
330
1F
100
AcDbEntity
  8
実線
  6
Continuous
 62
     7
100
AcDbLine
 10
116.7545203922189
 20
128.5929556481115
 30
0.0
 11
117.404520392219
 21
128.3563749958385
 31
0.0
  0
LINE
  5
F0
330
1F
100
AcDbEntity
  8
実線
  6
Continuous
 62
     7
100
AcDbLine
 10
117.404520392219
 20
128.3563749958385
 30
0.0
 11
114.154520392219
 21
126.4799866209723
 31
0.0
  0
LINE
  5
F1
330
1F
100
AcDbEntity
  8
実線
  6
Continuous
 62
     7
100
AcDbLine
 10
116.7545203922189
 20
128.5929556481115
 30
0.0
 11
113.5045203922189
 21
126.7165672732454
 31
0.0
  0
LINE
  5
F2
330
1F
100
AcDbEntity
  8
実線
  6
Continuous
 62
     7
100
AcDbLine
 10
113.5045203922189
 20
126.7165672732454
 30
0.0
 11
114.154520392219
 21
126.4799866209723
 31
0.0
  0
LINE
  5
F3
330
1F
100
AcDbEntity
  8
実線
  6
Continuous
 62
     7
100
AcDbLine
 10
117.404520392219
 20
128.3563749958385
 30
0.0
 11
113.5045203922189
 21
126.7165672732454
 31
0.0
  0
LINE
  5
F4
330
1F
100
AcDbEntity
  8
実線
  6
Continuous
 62
     7
100
AcDbLine
 10
116.7545203922189
 20
121.468233323084
 30
0.0
 11
116.7545203922189
 21
121.981097320866
 31
0.0
  0
LINE
  5
F5
330
1F
100
AcDbEntity
  8
実線
  6
Continuous
 62
     7
100
AcDbLine
 10
116.7545203922189
 20
124.4682333230853
 30
0.0
 11
116.7545203922189
 21
124.981097320866
 31
0.0
  0
LINE
  5
F6
330
1F
100
AcDbEntity
  8
実線
  6
Continuous
 62
     7
100
AcDbLine
 10
116.7545203922189
 20
119.5929556481115
 30
0.0
 11
116.7545203922189
 21
120.244516668592
 31
0.0
  0
LINE
  5
F7
330
1F
100
AcDbEntity
  8
実線
  6
Continuous
 62
     7
100
AcDbLine
 10
116.7545203922189
 20
127.4682333230853
 30
0.0
 11
116.7545203922189
 21
127.9810973208651
 31
0.0
  0
LINE
  5
F8
330
1F
100
AcDbEntity
  8
実線
  6
Continuous
 62
     7
100
AcDbLine
 10
116.7545203922189
 20
130.4682333230853
 30
0.0
 11
116.7545203922189
 21
130.981097320866
 31
0.0
  0
LINE
  5
F9
330
1F
100
AcDbEntity
  8
実線
  6
Continuous
 62
     7
100
AcDbLine
 10
116.7545203922189
 20
133.4682333230853
 30
0.0
 11
116.7545203922189
 21
133.9810973208673
 31
0.0
  0
LINE
  5
FA
330
1F
100
AcDbEntity
  8
実線
  6
Continuous
 62
     7
100
AcDbLine
 10
116.7545203922189
 20
136.4682333230853
 30
0.0
 11
116.7545203922189
 21
136.9810973208651
 31
0.0
  0
LINE
  5
FB
330
1F
100
AcDbEntity
  8
実線
  6
Continuous
 62
     7
100
AcDbLine
 10
116.7545203922189
 20
140.5929556481115
 30
0.0
 11
116.7545203922189
 21
141.244516668593
 31
0.0
  0
LINE
  5
FC
330
1F
100
AcDbEntity
  8
実線
  6
Continuous
 62
     7
100
AcDbLine
 10
116.7545203922189
 20
144.244516668592
 30
0.0
 11
116.7545203922189
 21
143.5929556481115
 31
0.0
  0
LINE
  5
FD
330
1F
100
AcDbEntity
  8
実線
  6
Continuous
 62
     7
100
AcDbLine
 10
114.154520392219
 20
161.9671226231912
 30
0.0
 11
114.154520392219
 21
162.5345560419673
 31
0.0
  0
LINE
  5
FE
330
1F
100
AcDbEntity
  8
実線
  6
Continuous
 62
     7
100
AcDbLine
 10
117.0395203922187
 20
177.6609017416581
 30
0.0
 11
117.0395203922187
 21
164.6079515543452
 31
0.0
  0
LINE
  5
FF
330
1F
100
AcDbEntity
  8
実線
  6
Continuous
 62
     7
100
AcDbLine
 10
113.8695203922191
 20
177.6609017416595
 30
0.0
 11
113.8695203922191
 21
164.6079515543443
 31
0.0
  0
LINE
  5
100
330
1F
100
AcDbEntity
  8
実線
  6
Continuous
 62
     7
100
AcDbLine
 10
117.5395203922187
 20
178.8969697191583
 30
0.0
 11
117.1450932012187
 21
178.1081153371583
 31
0.0
  0
LINE
  5
101
330
1F
100
AcDbEntity
  8
実線
  6
Continuous
 62
     7
100
AcDbLine
 10
113.3695203922191
 20
178.8969697191583
 30
0.0
 11
113.7639475832191
 21
178.1081153371592
 31
0.0
  0
LINE
  5
102
330
1F
100
AcDbEntity
  8
実線
  6
Continuous
 62
     7
100
AcDbLine
 10
116.7545203922189
 20
118.2316526708123
 30
0.0
 11
116.7545203922189
 21
118.981097320866
 31
0.0
  0
LINE
  5
103
330
1F
100
AcDbEntity
  8
実線
  6
Continuous
 62
     7
100
AcDbLine
 10
116.7545203922189
 20
140.5929556481115
 30
0.0
 11
117.404520392219
 21
140.3563749958385
 31
0.0
  0
LINE
  5
104
330
1F
100
AcDbEntity
  8
実線
  6
Continuous
 62
     7
100
AcDbLine
 10
117.404520392219
 20
140.3563749958385
 30
0.0
 11
114.154520392219
 21
138.4799866209723
 31
0.0
  0
LINE
  5
105
330
1F
100
AcDbEntity
  8
実線
  6
Continuous
 62
     7
100
AcDbLine
 10
116.7545203922189
 20
140.5929556481115
 30
0.0
 11
113.5045203922189
 21
138.7165672732454
 31
0.0
  0
LINE
  5
106
330
1F
100
AcDbEntity
  8
実線
  6
Continuous
 62
     7
100
AcDbLine
 10
113.5045203922189
 20
138.7165672732454
 30
0.0
 11
114.154520392219
 21
138.4799866209723
 31
0.0
  0
LINE
  5
107
330
1F
100
AcDbEntity
  8
実線
  6
Continuous
 62
     7
100
AcDbLine
 10
117.404520392219
 20
140.3563749958385
 30
0.0
 11
113.5045203922189
 21
138.7165672732454
 31
0.0
  0
LINE
  5
108
330
1F
100
AcDbEntity
  8
実線
  6
Continuous
 62
     7
100
AcDbLine
 10
116.7545203922189
 20
142.4682333230853
 30
0.0
 11
118.0545203922191
 21
141.9950720185393
 31
0.0
  0
LINE
  5
109
330
1F
100
AcDbEntity
  8
実線
  6
Continuous
 62
     7
100
AcDbLine
 10
118.0545203922191
 20
141.9950720185393
 30
0.0
 11
114.154520392219
 21
139.7434059686993
 31
0.0
  0
LINE
  5
10A
330
1F
100
AcDbEntity
  8
実線
  6
Continuous
 62
     7
100
AcDbLine
 10
116.7545203922189
 20
142.4682333230853
 30
0.0
 11
112.8545203922188
 21
140.2165672732454
 31
0.0
  0
LINE
  5
10B
330
1F
100
AcDbEntity
  8
実線
  6
Continuous
 62
     7
100
AcDbLine
 10
112.8545203922188
 20
140.2165672732454
 30
0.0
 11
114.154520392219
 21
139.7434059686993
 31
0.0
  0
LINE
  5
10C
330
1F
100
AcDbEntity
  8
実線
  6
Continuous
 62
     7
100
AcDbLine
 10
118.0545203922191
 20
141.9950720185393
 30
0.0
 11
112.8545203922188
 21
140.2165672732454
 31
0.0
  0
LINE
  5
10D
330
1F
100
AcDbEntity
  8
実線
  6
Continuous
 62
     7
100
AcDbLine
 10
116.7545203922189
 20
127.4682333230853
 30
0.0
 11
118.0545203922191
 21
126.9950720185393
 31
0.0
  0
LINE
  5
10E
330
1F
100
AcDbEntity
  8
実線
  6
Continuous
 62
     7
100
AcDbLine
 10
118.0545203922191
 20
126.9950720185393
 30
0.0
 11
114.154520392219
 21
124.7434059686993
 31
0.0
  0
LINE
  5
10F
330
1F
100
AcDbEntity
  8
実線
  6
Continuous
 62
     7
100
AcDbLine
 10
116.7545203922189
 20
127.4682333230853
 30
0.0
 11
112.8545203922188
 21
125.2165672732454
 31
0.0
  0
LINE
  5
110
330
1F
100
AcDbEntity
  8
実線
  6
Continuous
 62
     7
100
AcDbLine
 10
112.8545203922188
 20
125.2165672732454
 30
0.0
 11
114.154520392219
 21
124.7434059686993
 31
0.0
  0
LINE
  5
111
330
1F
100
AcDbEntity
  8
実線
  6
Continuous
 62
     7
100
AcDbLine
 10
118.0545203922191
 20
126.9950720185393
 30
0.0
 11
112.8545203922188
 21
125.2165672732454
 31
0.0
  0
LINE
  5
112
330
1F
100
AcDbEntity
  8
実線
  6
Continuous
 62
     7
100
AcDbLine
 10
116.7545203922189
 20
133.4682333230853
 30
0.0
 11
118.0545203922191
 21
132.9950720185393
 31
0.0
  0
LINE
  5
113
330
1F
100
AcDbEntity
  8
実線
  6
Continuous
 62
     7
100
AcDbLine
 10
118.0545203922191
 20
132.9950720185393
 30
0.0
 11
114.154520392219
 21
130.7434059686993
 31
0.0
  0
LINE
  5
114
330
1F
100
AcDbEntity
  8
実線
  6
Continuous
 62
     7
100
AcDbLine
 10
116.7545203922189
 20
133.4682333230853
 30
0.0
 11
112.8545203922188
 21
131.2165672732454
 31
0.0
  0
LINE
  5
115
330
1F
100
AcDbEntity
  8
実線
  6
Continuous
 62
     7
100
AcDbLine
 10
112.8545203922188
 20
131.2165672732454
 30
0.0
 11
114.154520392219
 21
130.7434059686993
 31
0.0
  0
LINE
  5
116
330
1F
100
AcDbEntity
  8
実線
  6
Continuous
 62
     7
100
AcDbLine
 10
118.0545203922191
 20
132.9950720185393
 30
0.0
 11
112.8545203922188
 21
131.2165672732454
 31
0.0
  0
LINE
  5
117
330
1F
100
AcDbEntity
  8
実線
  6
Continuous
 62
     7
100
AcDbLine
 10
116.7545203922189
 20
146.03566674186
 30
0.0
 11
116.7545203922189
 21
145.4682333230853
 31
0.0
  0
LINE
  5
118
330
1F
100
AcDbEntity
  8
実線
  6
Continuous
 62
     7
100
AcDbLine
 10
114.154520392219
 20
145.7434059686993
 30
0.0
 11
114.154520392219
 21
145.1464143692124
 31
0.0
  0
LINE
  5
119
330
1F
100
AcDbEntity
  8
実線
  6
Continuous
 62
     7
100
AcDbLine
 10
114.154520392219
 20
144.5345560419664
 30
0.0
 11
114.154520392219
 21
143.9671226231912
 31
0.0
  0
LINE
  5
11A
330
1F
100
AcDbEntity
  8
実線
  6
Continuous
 62
     7
100
AcDbLine
 10
116.7545203922189
 20
139.4682333230853
 30
0.0
 11
116.7545203922189
 21
139.981097320866
 31
0.0
  0
LINE
  5
11B
330
1F
100
AcDbEntity
  8
実線
  6
Continuous
 62
     7
100
AcDbLine
 10
114.154520392219
 20
139.7434059686993
 30
0.0
 11
114.154520392219
 21
139.0918449482183
 31
0.0
  0
LINE
  5
11C
330
1F
100
AcDbEntity
  8
実線
  6
Continuous
 62
     7
100
AcDbLine
 10
114.154520392219
 20
138.4799866209723
 30
0.0
 11
114.154520392219
 21
137.9671226231912
 31
0.0
  0
LINE
  5
11D
330
1F
100
AcDbEntity
  8
実線
  6
Continuous
 62
     7
100
AcDbLine
 10
114.154520392219
 20
142.7434059686993
 30
0.0
 11
114.154520392219
 21
142.0918449482183
 31
0.0
  0
LINE
  5
11E
330
1F
100
AcDbEntity
  8
実線
  6
Continuous
 62
     7
100
AcDbLine
 10
114.154520392219
 20
141.4799866209723
 30
0.0
 11
114.154520392219
 21
140.9671226231912
 31
0.0
  0
LINE
  5
11F
330
1F
100
AcDbEntity
  8
実線
  6
Continuous
 62
     7
100
AcDbLine
 10
116.7545203922189
 20
137.5929556481115
 30
0.0
 11
116.7545203922189
 21
138.244516668592
 31
0.0
  0
LINE
  5
120
330
1F
100
AcDbEntity
  8
実線
  6
Continuous
 62
     7
100
AcDbLine
 10
114.154520392219
 20
136.7434059686993
 30
0.0
 11
114.154520392219
 21
136.0918449482183
 31
0.0
  0
LINE
  5
121
330
1F
100
AcDbEntity
  8
実線
  6
Continuous
 62
     7
100
AcDbLine
 10
114.154520392219
 20
135.4799866209723
 30
0.0
 11
114.154520392219
 21
134.9671226231912
 31
0.0
  0
LINE
  5
122
330
1F
100
AcDbEntity
  8
実線
  6
Continuous
 62
     7
100
AcDbLine
 10
116.7545203922189
 20
142.981097320866
 30
0.0
 11
116.7545203922189
 21
142.4682333230853
 31
0.0
  0
LINE
  5
123
330
1F
100
AcDbEntity
  8
実線
  6
Continuous
 62
     7
100
AcDbLine
 10
116.7545203922189
 20
134.5929556481124
 30
0.0
 11
116.7545203922189
 21
135.244516668593
 31
0.0
  0
LINE
  5
124
330
1F
100
AcDbEntity
  8
実線
  6
Continuous
 62
     7
100
AcDbLine
 10
114.154520392219
 20
133.7434059686993
 30
0.0
 11
114.154520392219
 21
133.0918449482192
 31
0.0
  0
LINE
  5
125
330
1F
100
AcDbEntity
  8
実線
  6
Continuous
 62
     7
100
AcDbLine
 10
114.154520392219
 20
132.4799866209723
 30
0.0
 11
114.154520392219
 21
131.9671226231912
 31
0.0
  0
LINE
  5
126
330
1F
100
AcDbEntity
  8
実線
  6
Continuous
 62
     7
100
AcDbLine
 10
116.7545203922189
 20
131.5929556481115
 30
0.0
 11
116.7545203922189
 21
132.244516668593
 31
0.0
  0
LINE
  5
127
330
1F
100
AcDbEntity
  8
実線
  6
Continuous
 62
     7
100
AcDbLine
 10
114.154520392219
 20
130.7434059686993
 30
0.0
 11
114.154520392219
 21
130.0918449482183
 31
0.0
  0
LINE
  5
128
330
1F
100
AcDbEntity
  8
実線
  6
Continuous
 62
     7
100
AcDbLine
 10
114.154520392219
 20
129.4799866209723
 30
0.0
 11
114.154520392219
 21
128.9671226231912
 31
0.0
  0
LINE
  5
129
330
1F
100
AcDbEntity
  8
実線
  6
Continuous
 62
     7
100
AcDbLine
 10
116.7545203922189
 20
122.5929556481115
 30
0.0
 11
117.404520392219
 21
122.3563749958385
 31
0.0
  0
LINE
  5
12A
330
1F
100
AcDbEntity
  8
実線
  6
Continuous
 62
     7
100
AcDbLine
 10
117.404520392219
 20
122.3563749958385
 30
0.0
 11
115.4545203922187
 21
121.2305419709192
 31
0.0
  0
LINE
  5
12B
330
1F
100
AcDbEntity
  8
実線
  6
Continuous
 62
     7
100
AcDbLine
 10
116.7545203922189
 20
122.5929556481115
 30
0.0
 11
115.4545203922187
 21
121.8424002981642
 31
0.0
  0
LINE
  5
12C
330
1F
100
AcDbEntity
  8
実線
  6
Continuous
 62
     7
100
AcDbLine
 10
113.5045203922189
 20
120.7165672732454
 30
0.0
 11
114.154520392219
 21
120.4799866209723
 31
0.0
  0
LINE
  5
12D
330
1F
100
AcDbEntity
  8
実線
  6
Continuous
 62
     7
100
AcDbLine
 10
117.404520392219
 20
122.3563749958385
 30
0.0
 11
115.4545203922187
 21
121.5364711345424
 31
0.0
  0
LINE
  5
12E
330
1F
100
AcDbEntity
  8
実線
  6
Continuous
 62
     7
100
AcDbLine
 10
116.7545203922189
 20
125.5929556481124
 30
0.0
 11
117.404520392219
 21
125.3563749958394
 31
0.0
  0
LINE
  5
12F
330
1F
100
AcDbEntity
  8
実線
  6
Continuous
 62
     7
100
AcDbLine
 10
117.404520392219
 20
125.3563749958394
 30
0.0
 11
114.154520392219
 21
123.4799866209723
 31
0.0
  0
LINE
  5
130
330
1F
100
AcDbEntity
  8
実線
  6
Continuous
 62
     7
100
AcDbLine
 10
116.7545203922189
 20
125.5929556481124
 30
0.0
 11
113.5045203922189
 21
123.7165672732454
 31
0.0
  0
LINE
  5
131
330
1F
100
AcDbEntity
  8
実線
  6
Continuous
 62
     7
100
AcDbLine
 10
113.5045203922189
 20
123.7165672732454
 30
0.0
 11
114.154520392219
 21
123.4799866209723
 31
0.0
  0
LINE
  5
132
330
1F
100
AcDbEntity
  8
実線
  6
Continuous
 62
     7
100
AcDbLine
 10
117.404520392219
 20
125.3563749958394
 30
0.0
 11
113.5045203922189
 21
123.7165672732454
 31
0.0
  0
LINE
  5
133
330
1F
100
AcDbEntity
  8
実線
  6
Continuous
 62
     7
100
AcDbLine
 10
116.7545203922189
 20
119.5929556481115
 30
0.0
 11
117.404520392219
 21
119.3563749958385
 31
0.0
  0
LINE
  5
134
330
1F
100
AcDbEntity
  8
実線
  6
Continuous
 62
     7
100
AcDbLine
 10
117.404520392219
 20
119.3563749958385
 30
0.0
 11
115.4545203922187
 21
118.2305419709192
 31
0.0
  0
LINE
  5
135
330
1F
100
AcDbEntity
  8
実線
  6
Continuous
 62
     7
100
AcDbLine
 10
116.7545203922189
 20
119.5929556481115
 30
0.0
 11
115.4545203922187
 21
118.8424002981642
 31
0.0
  0
LINE
  5
136
330
1F
100
AcDbEntity
  8
実線
  6
Continuous
 62
     7
100
AcDbLine
 10
117.404520392219
 20
119.3563749958385
 30
0.0
 11
115.4545203922187
 21
118.5364711345424
 31
0.0
  0
LINE
  5
137
330
1F
100
AcDbEntity
  8
実線
  6
Continuous
 62
     7
100
AcDbLine
 10
116.7545203922189
 20
128.5929556481115
 30
0.0
 11
116.7545203922189
 21
129.244516668592
 31
0.0
  0
LINE
  5
138
330
1F
100
AcDbEntity
  8
実線
  6
Continuous
 62
     7
100
AcDbLine
 10
114.154520392219
 20
127.7434059686993
 30
0.0
 11
114.154520392219
 21
127.0918449482183
 31
0.0
  0
LINE
  5
139
330
1F
100
AcDbEntity
  8
実線
  6
Continuous
 62
     7
100
AcDbLine
 10
114.154520392219
 20
126.4799866209723
 30
0.0
 11
114.154520392219
 21
125.9671226231912
 31
0.0
  0
LINE
  5
13A
330
1F
100
AcDbEntity
  8
実線
  6
Continuous
 62
     7
100
AcDbLine
 10
116.7545203922189
 20
125.5929556481124
 30
0.0
 11
116.7545203922189
 21
126.244516668593
 31
0.0
  0
LINE
  5
13B
330
1F
100
AcDbEntity
  8
実線
  6
Continuous
 62
     7
100
AcDbLine
 10
114.154520392219
 20
124.7434059686993
 30
0.0
 11
114.154520392219
 21
124.0918449482183
 31
0.0
  0
LINE
  5
13C
330
1F
100
AcDbEntity
  8
実線
  6
Continuous
 62
     7
100
AcDbLine
 10
114.154520392219
 20
123.4799866209723
 30
0.0
 11
114.154520392219
 21
122.9671226231912
 31
0.0
  0
LINE
  5
13D
330
1F
100
AcDbEntity
  8
実線
  6
Continuous
 62
     7
100
AcDbLine
 10
116.7545203922189
 20
122.5929556481115
 30
0.0
 11
116.7545203922189
 21
123.244516668593
 31
0.0
  0
LINE
  5
13E
330
1F
100
AcDbEntity
  8
実線
  6
Continuous
 62
     7
100
AcDbLine
 10
116.7545203922189
 20
118.2316526708123
 30
0.0
 11
117.404520392219
 21
117.9950720185393
 31
0.0
  0
LINE
  5
13F
330
1F
100
AcDbEntity
  8
実線
  6
Continuous
 62
     7
100
AcDbLine
 10
117.404520392219
 20
117.9950720185393
 30
0.0
 11
115.4545203922187
 21
116.8692389936191
 31
0.0
  0
LINE
  5
140
330
1F
100
AcDbEntity
  8
実線
  6
Continuous
 62
     7
100
AcDbLine
 10
116.7545203922189
 20
118.2316526708123
 30
0.0
 11
115.4545203922187
 21
117.4810973208651
 31
0.0
  0
LINE
  5
141
330
1F
100
AcDbEntity
  8
実線
  6
Continuous
 62
     7
100
AcDbLine
 10
117.404520392219
 20
117.9950720185393
 30
0.0
 11
115.4545203922187
 21
117.1751681572423
 31
0.0
  0
LINE
  5
142
330
1F
100
AcDbEntity
  8
実線
  6
Continuous
 62
     7
100
AcDbLine
 10
116.4544694739991
 20
116.7429786442344
 30
0.0
 11
116.7545203922189
 21
116.4673342937563
 31
0.0
  0
LINE
  5
143
330
1F
100
AcDbEntity
  8
実線
  6
Continuous
 62
     7
100
AcDbLine
 10
116.7545203922189
 20
116.4673342937563
 30
0.0
 11
115.4545203922187
 21
115.716778943809
 31
0.0
  0
LINE
  5
144
330
1F
100
AcDbEntity
  8
実線
  6
Continuous
 62
     7
100
AcDbLine
 10
116.4544694739991
 20
116.7429786442344
 30
0.0
 11
115.4545203922187
 21
116.1656577726903
 31
0.0
  0
LINE
  5
145
330
1F
100
AcDbEntity
  8
実線
  6
Continuous
 62
     7
100
AcDbLine
 10
114.154520392219
 20
121.7434059686993
 30
0.0
 11
114.154520392219
 21
121.0918449482183
 31
0.0
  0
LINE
  5
146
330
1F
100
AcDbEntity
  8
実線
  6
Continuous
 62
     7
100
AcDbLine
 10
114.154520392219
 20
120.4799866209723
 30
0.0
 11
114.154520392219
 21
119.9671226231912
 31
0.0
  0
LINE
  5
147
330
1F
100
AcDbEntity
  8
実線
  6
Continuous
 62
     7
100
AcDbLine
 10
114.3739435593991
 20
120.3940419030091
 30
0.0
 11
114.157634954179
 21
117.8074618359515
 31
0.0
  0
LINE
  5
148
330
1F
100
AcDbEntity
  8
実線
  6
Continuous
 62
     7
100
AcDbLine
 10
114.6797136488688
 20
121.2106931649873
 30
0.0
 11
113.5045203922189
 21
120.7165672732454
 31
0.0
  0
LINE
  5
149
330
1F
100
AcDbEntity
  8
実線
  6
Continuous
 62
     7
100
AcDbLine
 10
114.9818190682188
 20
121.5694860615054
 30
0.0
 11
113.5045203922189
 21
120.7165672732454
 31
0.0
  0
LINE
  5
14A
330
1F
100
AcDbEntity
  8
実線
  6
Continuous
 62
     7
100
AcDbLine
 10
114.4221388449789
 20
120.6344962067133
 30
0.0
 11
114.154520392219
 21
120.4799866209723
 31
0.0
  0
LINE
  5
14B
330
1F
100
AcDbEntity
  8
実線
  6
Continuous
 62
     7
100
AcDbLine
 10
114.1554105733087
 20
118.7439199149894
 30
0.0
 11
114.157634954179
 21
117.651047494197
 31
0.0
  0
LINE
  5
14C
330
1F
100
AcDbEntity
  8
実線
  6
Continuous
 62
     7
100
AcDbLine
 10
115.4545203922187
 20
163.8969697191583
 30
0.0
 11
113.5045203922189
 21
162.7711366942394
 31
0.0
  0
LINE
  5
14D
330
1F
100
AcDbEntity
  8
実線
  6
Continuous
 62
     7
100
AcDbLine
 10
113.5045203922189
 20
162.7711366942394
 30
0.0
 11
114.154520392219
 21
162.5345560419673
 31
0.0
  0
LINE
  5
14E
330
1F
100
AcDbEntity
  8
実線
  6
Continuous
 62
     7
100
AcDbLine
 10
115.4545203922187
 20
163.8969697191583
 30
0.0
 11
114.154520392219
 21
162.5345560419673
 31
0.0
  0
LINE
  5
14F
330
1F
100
AcDbEntity
  8
実線
  6
Continuous
 62
     7
100
AcDbLine
 10
114.154520392219
 20
163.146414369211
 30
0.0
 11
114.154520392219
 21
163.3285150918241
 31
0.0
  0
LINE
  5
150
330
1F
100
AcDbEntity
  8
実線
  6
Continuous
 62
     7
100
AcDbLine
 10
117.001225583929
 20
164.3338655747075
 30
0.0
 11
116.7545203922189
 21
163.468233323084
 31
0.0
  0
LINE
  5
151
330
1F
100
AcDbEntity
  8
実線
  6
Continuous
 62
     7
100
AcDbLine
 10
113.9078152005088
 20
164.3338655747061
 30
0.0
 11
114.1162255839288
 21
163.6026010714613
 31
0.0
  0
LINE
  5
152
330
1F
100
AcDbEntity
  8
実線
  6
Continuous
 62
     7
100
AcDbLine
 10
116.4544694739991
 20
116.7429786442344
 30
0.0
 11
116.764580595159
 21
117.6256026044393
 31
0.0
  0
LINE
  5
153
330
1F
100
AcDbEntity
  8
実線
  6
Continuous
 62
     7
100
AcDbLine
 10
116.7545203922189
 20
121.468233323084
 30
0.0
 11
118.0545203922191
 21
120.9950720185393
 31
0.0
  0
LINE
  5
154
330
1F
100
AcDbEntity
  8
実線
  6
Continuous
 62
     7
100
AcDbLine
 10
118.0545203922191
 20
120.9950720185393
 30
0.0
 11
115.4545203922187
 21
119.4939613186452
 31
0.0
  0
LINE
  5
155
330
1F
100
AcDbEntity
  8
実線
  6
Continuous
 62
     7
100
AcDbLine
 10
116.7545203922189
 20
121.468233323084
 30
0.0
 11
115.4545203922187
 21
120.7176779731371
 31
0.0
  0
LINE
  5
156
330
1F
100
AcDbEntity
  8
実線
  6
Continuous
 62
     7
100
AcDbLine
 10
112.8545203922188
 20
119.2165672732454
 30
0.0
 11
114.154520392219
 21
118.7434059686993
 31
0.0
  0
LINE
  5
157
330
1F
100
AcDbEntity
  8
実線
  6
Continuous
 62
     7
100
AcDbLine
 10
118.0545203922191
 20
120.9950720185393
 30
0.0
 11
115.4545203922187
 21
120.1058196458921
 31
0.0
  0
LINE
  5
158
330
1F
100
AcDbEntity
  8
実線
  6
Continuous
 62
     7
100
AcDbLine
 10
114.3173136996491
 20
119.7168720499071
 30
0.0
 11
112.8545203922188
 21
119.2165672732454
 31
0.0
  0
LINE
  5
159
330
1F
100
AcDbEntity
  8
実線
  6
Continuous
 62
     7
100
AcDbLine
 10
114.3475619445087
 20
120.0785752153711
 30
0.0
 11
112.8545203922188
 21
119.2165672732454
 31
0.0
  0
LINE
  5
15A
330
1F
100
AcDbEntity
  8
実線
  6
Continuous
 62
     7
100
AcDbLine
 10
114.2400341943587
 20
118.7927773853853
 30
0.0
 11
114.154520392219
 21
118.7434059686993
 31
0.0
  0
LINE
  5
15B
330
1F
100
AcDbEntity
  8
実線
  6
Continuous
 62
     7
100
AcDbLine
 10
116.7545203922189
 20
116.4673342937563
 30
0.0
 11
115.4545203922187
 21
115.9207317195574
 31
0.0
  0
LINE
  5
15C
330
1F
100
AcDbEntity
  8
実線
  6
Continuous
 62
     7
100
AcDbLine
 10
113.8695203922191
 20
177.6609017416595
 30
0.0
 11
117.0395203922187
 21
177.6609017416581
 31
0.0
  0
LINE
  5
15D
330
1F
100
AcDbEntity
  8
実線
  6
Continuous
 62
     7
100
AcDbLine
 10
113.879329089569
 20
164.4682333230853
 30
0.0
 11
117.0297116948789
 21
164.4682333230853
 31
0.0
  0
LINE
  5
15E
330
1F
100
AcDbEntity
  8
実線
  6
Continuous
 62
     7
100
AcDbLine
 10
115.4545203922187
 20
121.8969697191583
 30
0.0
 11
115.4545203922187
 21
113.8969697191583
 31
0.0
  0
LINE
  5
15F
330
1F
100
AcDbEntity
  8
実線
  6
Continuous
 62
     7
100
AcDbLine
 10
116.7545203922189
 20
149.5929556481115
 30
0.0
 11
116.7545203922189
 21
150.244516668593
 31
0.0
  0
LINE
  5
160
330
1F
100
AcDbEntity
  8
実線
  6
Continuous
 62
     7
100
AcDbLine
 10
116.7545203922189
 20
154.4682333230853
 30
0.0
 11
118.0545203922191
 21
153.9950720185393
 31
0.0
  0
LINE
  5
161
330
1F
100
AcDbEntity
  8
実線
  6
Continuous
 62
     7
100
AcDbLine
 10
118.0545203922191
 20
153.9950720185393
 30
0.0
 11
114.154520392219
 21
151.7434059686993
 31
0.0
  0
LINE
  5
162
330
1F
100
AcDbEntity
  8
実線
  6
Continuous
 62
     7
100
AcDbLine
 10
116.7545203922189
 20
154.4682333230853
 30
0.0
 11
112.8545203922188
 21
152.2165672732454
 31
0.0
  0
LINE
  5
163
330
1F
100
AcDbEntity
  8
実線
  6
Continuous
 62
     7
100
AcDbLine
 10
112.8545203922188
 20
152.2165672732454
 30
0.0
 11
114.154520392219
 21
151.7434059686993
 31
0.0
  0
LINE
  5
164
330
1F
100
AcDbEntity
  8
実線
  6
Continuous
 62
     7
100
AcDbLine
 10
118.0545203922191
 20
153.9950720185393
 30
0.0
 11
112.8545203922188
 21
152.2165672732454
 31
0.0
  0
LINE
  5
165
330
1F
100
AcDbEntity
  8
実線
  6
Continuous
 62
     7
100
AcDbLine
 10
116.7545203922189
 20
148.4682333230853
 30
0.0
 11
118.0545203922191
 21
147.9950720185393
 31
0.0
  0
LINE
  5
166
330
1F
100
AcDbEntity
  8
実線
  6
Continuous
 62
     7
100
AcDbLine
 10
118.0545203922191
 20
147.9950720185393
 30
0.0
 11
114.154520392219
 21
145.7434059686993
 31
0.0
  0
LINE
  5
167
330
1F
100
AcDbEntity
  8
実線
  6
Continuous
 62
     7
100
AcDbLine
 10
116.7545203922189
 20
148.4682333230853
 30
0.0
 11
112.8545203922188
 21
146.2165672732454
 31
0.0
  0
LINE
  5
168
330
1F
100
AcDbEntity
  8
実線
  6
Continuous
 62
     7
100
AcDbLine
 10
112.8545203922188
 20
146.2165672732454
 30
0.0
 11
114.154520392219
 21
145.7434059686993
 31
0.0
  0
LINE
  5
169
330
1F
100
AcDbEntity
  8
実線
  6
Continuous
 62
     7
100
AcDbLine
 10
118.0545203922191
 20
147.9950720185393
 30
0.0
 11
112.8545203922188
 21
146.2165672732454
 31
0.0
  0
LINE
  5
16A
330
1F
100
AcDbEntity
  8
実線
  6
Continuous
 62
     7
100
AcDbLine
 10
116.7545203922189
 20
156.244516668593
 30
0.0
 11
116.7545203922189
 21
155.6475250691051
 31
0.0
  0
LINE
  5
16B
330
1F
100
AcDbEntity
  8
実線
  6
Continuous
 62
     7
100
AcDbLine
 10
116.7545203922189
 20
155.03566674186
 30
0.0
 11
116.7545203922189
 21
154.4682333230853
 31
0.0
  0
LINE
  5
16C
330
1F
100
AcDbEntity
  8
実線
  6
Continuous
 62
     7
100
AcDbLine
 10
116.7545203922189
 20
153.244516668592
 30
0.0
 11
116.7545203922189
 21
152.5929556481115
 31
0.0
  0
LINE
  5
16D
330
1F
100
AcDbEntity
  8
実線
  6
Continuous
 62
     7
100
AcDbLine
 10
116.7545203922189
 20
151.981097320866
 30
0.0
 11
116.7545203922189
 21
151.4682333230853
 31
0.0
  0
LINE
  5
16E
330
1F
100
AcDbEntity
  8
実線
  6
Continuous
 62
     7
100
AcDbLine
 10
116.7545203922189
 20
155.6475250691051
 30
0.0
 11
117.404520392219
 21
155.4109444168334
 31
0.0
  0
LINE
  5
16F
330
1F
100
AcDbEntity
  8
実線
  6
Continuous
 62
     7
100
AcDbLine
 10
117.404520392219
 20
155.4109444168334
 30
0.0
 11
114.154520392219
 21
153.5345560419664
 31
0.0
  0
LINE
  5
170
330
1F
100
AcDbEntity
  8
実線
  6
Continuous
 62
     7
100
AcDbLine
 10
116.7545203922189
 20
155.6475250691051
 30
0.0
 11
113.5045203922189
 21
153.7711366942394
 31
0.0
  0
LINE
  5
171
330
1F
100
AcDbEntity
  8
実線
  6
Continuous
 62
     7
100
AcDbLine
 10
113.5045203922189
 20
153.7711366942394
 30
0.0
 11
114.154520392219
 21
153.5345560419664
 31
0.0
  0
LINE
  5
172
330
1F
100
AcDbEntity
  8
実線
  6
Continuous
 62
     7
100
AcDbLine
 10
117.404520392219
 20
155.4109444168334
 30
0.0
 11
113.5045203922189
 21
153.7711366942394
 31
0.0
  0
LINE
  5
173
330
1F
100
AcDbEntity
  8
実線
  6
Continuous
 62
     7
100
AcDbLine
 10
116.7545203922189
 20
152.5929556481115
 30
0.0
 11
117.404520392219
 21
152.3563749958385
 31
0.0
  0
LINE
  5
174
330
1F
100
AcDbEntity
  8
実線
  6
Continuous
 62
     7
100
AcDbLine
 10
117.404520392219
 20
152.3563749958385
 30
0.0
 11
114.154520392219
 21
150.4799866209723
 31
0.0
  0
LINE
  5
175
330
1F
100
AcDbEntity
  8
実線
  6
Continuous
 62
     7
100
AcDbLine
 10
116.7545203922189
 20
152.5929556481115
 30
0.0
 11
113.5045203922189
 21
150.7165672732454
 31
0.0
  0
LINE
  5
176
330
1F
100
AcDbEntity
  8
実線
  6
Continuous
 62
     7
100
AcDbLine
 10
113.5045203922189
 20
150.7165672732454
 30
0.0
 11
114.154520392219
 21
150.4799866209723
 31
0.0
  0
LINE
  5
177
330
1F
100
AcDbEntity
  8
実線
  6
Continuous
 62
     7
100
AcDbLine
 10
117.404520392219
 20
152.3563749958385
 30
0.0
 11
113.5045203922189
 21
150.7165672732454
 31
0.0
  0
LINE
  5
178
330
1F
100
AcDbEntity
  8
実線
  6
Continuous
 62
     7
100
AcDbLine
 10
116.7545203922189
 20
149.5929556481115
 30
0.0
 11
117.404520392219
 21
149.3563749958385
 31
0.0
  0
LINE
  5
179
330
1F
100
AcDbEntity
  8
実線
  6
Continuous
 62
     7
100
AcDbLine
 10
117.404520392219
 20
149.3563749958385
 30
0.0
 11
114.154520392219
 21
147.4799866209723
 31
0.0
  0
LINE
  5
17A
330
1F
100
AcDbEntity
  8
実線
  6
Continuous
 62
     7
100
AcDbLine
 10
116.7545203922189
 20
149.5929556481115
 30
0.0
 11
113.5045203922189
 21
147.7165672732454
 31
0.0
  0
LINE
  5
17B
330
1F
100
AcDbEntity
  8
実線
  6
Continuous
 62
     7
100
AcDbLine
 10
113.5045203922189
 20
147.7165672732454
 30
0.0
 11
114.154520392219
 21
147.4799866209723
 31
0.0
  0
LINE
  5
17C
330
1F
100
AcDbEntity
  8
実線
  6
Continuous
 62
     7
100
AcDbLine
 10
117.404520392219
 20
149.3563749958385
 30
0.0
 11
113.5045203922189
 21
147.7165672732454
 31
0.0
  0
LINE
  5
17D
330
1F
100
AcDbEntity
  8
実線
  6
Continuous
 62
     7
100
AcDbLine
 10
116.7545203922189
 20
151.4682333230853
 30
0.0
 11
118.0545203922191
 21
150.9950720185393
 31
0.0
  0
LINE
  5
17E
330
1F
100
AcDbEntity
  8
実線
  6
Continuous
 62
     7
100
AcDbLine
 10
118.0545203922191
 20
150.9950720185393
 30
0.0
 11
114.154520392219
 21
148.7434059686993
 31
0.0
  0
LINE
  5
17F
330
1F
100
AcDbEntity
  8
実線
  6
Continuous
 62
     7
100
AcDbLine
 10
116.7545203922189
 20
151.4682333230853
 30
0.0
 11
112.8545203922188
 21
149.2165672732454
 31
0.0
  0
LINE
  5
180
330
1F
100
AcDbEntity
  8
実線
  6
Continuous
 62
     7
100
AcDbLine
 10
112.8545203922188
 20
149.2165672732454
 30
0.0
 11
114.154520392219
 21
148.7434059686993
 31
0.0
  0
LINE
  5
181
330
1F
100
AcDbEntity
  8
実線
  6
Continuous
 62
     7
100
AcDbLine
 10
118.0545203922191
 20
150.9950720185393
 30
0.0
 11
112.8545203922188
 21
149.2165672732454
 31
0.0
  0
LINE
  5
182
330
1F
100
AcDbEntity
  8
実線
  6
Continuous
 62
     7
100
AcDbLine
 10
114.154520392219
 20
154.7434059686993
 30
0.0
 11
114.154520392219
 21
154.1464143692124
 31
0.0
  0
LINE
  5
183
330
1F
100
AcDbEntity
  8
実線
  6
Continuous
 62
     7
100
AcDbLine
 10
114.154520392219
 20
153.5345560419664
 30
0.0
 11
114.154520392219
 21
152.9671226231912
 31
0.0
  0
LINE
  5
184
330
1F
100
AcDbEntity
  8
実線
  6
Continuous
 62
     7
100
AcDbLine
 10
116.7545203922189
 20
148.4682333230853
 30
0.0
 11
116.7545203922189
 21
148.981097320866
 31
0.0
  0
LINE
  5
185
330
1F
100
AcDbEntity
  8
実線
  6
Continuous
 62
     7
100
AcDbLine
 10
114.154520392219
 20
148.7434059686993
 30
0.0
 11
114.154520392219
 21
148.0918449482183
 31
0.0
  0
LINE
  5
186
330
1F
100
AcDbEntity
  8
実線
  6
Continuous
 62
     7
100
AcDbLine
 10
114.154520392219
 20
147.4799866209723
 30
0.0
 11
114.154520392219
 21
146.9671226231912
 31
0.0
  0
LINE
  5
187
330
1F
100
AcDbEntity
  8
実線
  6
Continuous
 62
     7
100
AcDbLine
 10
114.154520392219
 20
151.7434059686993
 30
0.0
 11
114.154520392219
 21
151.0918449482183
 31
0.0
  0
LINE
  5
188
330
1F
100
AcDbEntity
  8
実線
  6
Continuous
 62
     7
100
AcDbLine
 10
114.154520392219
 20
150.4799866209723
 30
0.0
 11
114.154520392219
 21
149.9671226231912
 31
0.0
  0
LINE
  5
189
330
1F
100
AcDbEntity
  8
実線
  6
Continuous
 62
     7
100
AcDbLine
 10
116.7545203922189
 20
158.5929556481115
 30
0.0
 11
116.7545203922189
 21
159.244516668593
 31
0.0
  0
LINE
  5
18A
330
1F
100
AcDbEntity
  8
実線
  6
Continuous
 62
     7
100
AcDbLine
 10
116.7545203922189
 20
163.468233323084
 30
0.0
 11
118.0545203922191
 21
162.9950720185393
 31
0.0
  0
LINE
  5
18B
330
1F
100
AcDbEntity
  8
実線
  6
Continuous
 62
     7
100
AcDbLine
 10
118.0545203922191
 20
162.9950720185393
 30
0.0
 11
114.154520392219
 21
160.7434059686993
 31
0.0
  0
LINE
  5
18C
330
1F
100
AcDbEntity
  8
実線
  6
Continuous
 62
     7
100
AcDbLine
 10
116.7545203922189
 20
163.468233323084
 30
0.0
 11
112.8545203922188
 21
161.2165672732454
 31
0.0
  0
LINE
  5
18D
330
1F
100
AcDbEntity
  8
実線
  6
Continuous
 62
     7
100
AcDbLine
 10
112.8545203922188
 20
161.2165672732454
 30
0.0
 11
114.154520392219
 21
160.7434059686993
 31
0.0
  0
LINE
  5
18E
330
1F
100
AcDbEntity
  8
実線
  6
Continuous
 62
     7
100
AcDbLine
 10
118.0545203922191
 20
162.9950720185393
 30
0.0
 11
112.8545203922188
 21
161.2165672732454
 31
0.0
  0
LINE
  5
18F
330
1F
100
AcDbEntity
  8
実線
  6
Continuous
 62
     7
100
AcDbLine
 10
116.7545203922189
 20
157.4682333230853
 30
0.0
 11
118.0545203922191
 21
156.9950720185393
 31
0.0
  0
LINE
  5
190
330
1F
100
AcDbEntity
  8
実線
  6
Continuous
 62
     7
100
AcDbLine
 10
118.0545203922191
 20
156.9950720185393
 30
0.0
 11
114.154520392219
 21
154.7434059686993
 31
0.0
  0
LINE
  5
191
330
1F
100
AcDbEntity
  8
実線
  6
Continuous
 62
     7
100
AcDbLine
 10
116.7545203922189
 20
157.4682333230853
 30
0.0
 11
112.8545203922188
 21
155.2165672732454
 31
0.0
  0
LINE
  5
192
330
1F
100
AcDbEntity
  8
実線
  6
Continuous
 62
     7
100
AcDbLine
 10
112.8545203922188
 20
155.2165672732454
 30
0.0
 11
114.154520392219
 21
154.7434059686993
 31
0.0
  0
LINE
  5
193
330
1F
100
AcDbEntity
  8
実線
  6
Continuous
 62
     7
100
AcDbLine
 10
118.0545203922191
 20
156.9950720185393
 30
0.0
 11
112.8545203922188
 21
155.2165672732454
 31
0.0
  0
LINE
  5
194
330
1F
100
AcDbEntity
  8
実線
  6
Continuous
 62
     7
100
AcDbLine
 10
116.7545203922189
 20
162.244516668592
 30
0.0
 11
116.7545203922189
 21
161.5929556481115
 31
0.0
  0
LINE
  5
195
330
1F
100
AcDbEntity
  8
実線
  6
Continuous
 62
     7
100
AcDbLine
 10
116.7545203922189
 20
160.981097320866
 30
0.0
 11
116.7545203922189
 21
160.4682333230853
 31
0.0
  0
LINE
  5
196
330
1F
100
AcDbEntity
  8
実線
  6
Continuous
 62
     7
100
AcDbLine
 10
113.5045203922189
 20
162.7711366942394
 30
0.0
 11
114.154520392219
 21
162.5345560419673
 31
0.0
  0
LINE
  5
197
330
1F
100
AcDbEntity
  8
実線
  6
Continuous
 62
     7
100
AcDbLine
 10
116.7545203922189
 20
161.5929556481115
 30
0.0
 11
117.404520392219
 21
161.3563749958385
 31
0.0
  0
LINE
  5
198
330
1F
100
AcDbEntity
  8
実線
  6
Continuous
 62
     7
100
AcDbLine
 10
117.404520392219
 20
161.3563749958385
 30
0.0
 11
114.154520392219
 21
159.4799866209723
 31
0.0
  0
LINE
  5
199
330
1F
100
AcDbEntity
  8
実線
  6
Continuous
 62
     7
100
AcDbLine
 10
116.7545203922189
 20
161.5929556481115
 30
0.0
 11
113.5045203922189
 21
159.7165672732454
 31
0.0
  0
LINE
  5
19A
330
1F
100
AcDbEntity
  8
実線
  6
Continuous
 62
     7
100
AcDbLine
 10
113.5045203922189
 20
159.7165672732454
 30
0.0
 11
114.154520392219
 21
159.4799866209723
 31
0.0
  0
LINE
  5
19B
330
1F
100
AcDbEntity
  8
実線
  6
Continuous
 62
     7
100
AcDbLine
 10
117.404520392219
 20
161.3563749958385
 30
0.0
 11
113.5045203922189
 21
159.7165672732454
 31
0.0
  0
LINE
  5
19C
330
1F
100
AcDbEntity
  8
実線
  6
Continuous
 62
     7
100
AcDbLine
 10
116.7545203922189
 20
158.5929556481115
 30
0.0
 11
117.404520392219
 21
158.3563749958385
 31
0.0
  0
LINE
  5
19D
330
1F
100
AcDbEntity
  8
実線
  6
Continuous
 62
     7
100
AcDbLine
 10
117.404520392219
 20
158.3563749958385
 30
0.0
 11
114.154520392219
 21
156.4799866209723
 31
0.0
  0
LINE
  5
19E
330
1F
100
AcDbEntity
  8
実線
  6
Continuous
 62
     7
100
AcDbLine
 10
116.7545203922189
 20
158.5929556481115
 30
0.0
 11
113.5045203922189
 21
156.7165672732454
 31
0.0
  0
LINE
  5
19F
330
1F
100
AcDbEntity
  8
実線
  6
Continuous
 62
     7
100
AcDbLine
 10
113.5045203922189
 20
156.7165672732454
 30
0.0
 11
114.154520392219
 21
156.4799866209723
 31
0.0
  0
LINE
  5
1A0
330
1F
100
AcDbEntity
  8
実線
  6
Continuous
 62
     7
100
AcDbLine
 10
117.404520392219
 20
158.3563749958385
 30
0.0
 11
113.5045203922189
 21
156.7165672732454
 31
0.0
  0
LINE
  5
1A1
330
1F
100
AcDbEntity
  8
実線
  6
Continuous
 62
     7
100
AcDbLine
 10
116.7545203922189
 20
160.4682333230853
 30
0.0
 11
118.0545203922191
 21
159.9950720185393
 31
0.0
  0
LINE
  5
1A2
330
1F
100
AcDbEntity
  8
実線
  6
Continuous
 62
     7
100
AcDbLine
 10
118.0545203922191
 20
159.9950720185393
 30
0.0
 11
114.154520392219
 21
157.7434059686993
 31
0.0
  0
LINE
  5
1A3
330
1F
100
AcDbEntity
  8
実線
  6
Continuous
 62
     7
100
AcDbLine
 10
116.7545203922189
 20
160.4682333230853
 30
0.0
 11
112.8545203922188
 21
158.2165672732454
 31
0.0
  0
LINE
  5
1A4
330
1F
100
AcDbEntity
  8
実線
  6
Continuous
 62
     7
100
AcDbLine
 10
112.8545203922188
 20
158.2165672732454
 30
0.0
 11
114.154520392219
 21
157.7434059686993
 31
0.0
  0
LINE
  5
1A5
330
1F
100
AcDbEntity
  8
実線
  6
Continuous
 62
     7
100
AcDbLine
 10
118.0545203922191
 20
159.9950720185393
 30
0.0
 11
112.8545203922188
 21
158.2165672732454
 31
0.0
  0
LINE
  5
1A6
330
1F
100
AcDbEntity
  8
実線
  6
Continuous
 62
     7
100
AcDbLine
 10
114.154520392219
 20
162.5345560419673
 30
0.0
 11
114.154520392219
 21
161.9671226231912
 31
0.0
  0
LINE
  5
1A7
330
1F
100
AcDbEntity
  8
実線
  6
Continuous
 62
     7
100
AcDbLine
 10
116.7545203922189
 20
157.4682333230853
 30
0.0
 11
116.7545203922189
 21
157.981097320866
 31
0.0
  0
LINE
  5
1A8
330
1F
100
AcDbEntity
  8
実線
  6
Continuous
 62
     7
100
AcDbLine
 10
114.154520392219
 20
157.7434059686993
 30
0.0
 11
114.154520392219
 21
157.0918449482183
 31
0.0
  0
LINE
  5
1A9
330
1F
100
AcDbEntity
  8
実線
  6
Continuous
 62
     7
100
AcDbLine
 10
114.154520392219
 20
156.4799866209723
 30
0.0
 11
114.154520392219
 21
155.9671226231912
 31
0.0
  0
LINE
  5
1AA
330
1F
100
AcDbEntity
  8
実線
  6
Continuous
 62
     7
100
AcDbLine
 10
114.154520392219
 20
160.7434059686993
 30
0.0
 11
114.154520392219
 21
160.0918449482183
 31
0.0
  0
LINE
  5
1AB
330
1F
100
AcDbEntity
  8
実線
  6
Continuous
 62
     7
100
AcDbLine
 10
114.154520392219
 20
159.4799866209723
 30
0.0
 11
114.154520392219
 21
158.9671226231912
 31
0.0
  0
LINE
  5
1AC
330
1F
100
AcDbEntity
  8
1
  6
DASH_CENTER
 62
     2
100
AcDbLine
 10
115.4545203922187
 20
225.4291619061692
 30
0.0
 11
115.4545203922187
 21
209.9291619061692
 31
0.0
  0
LINE
  5
1AD
330
1F
100
AcDbEntity
  8
1
  6
DASH_CENTER
 62
     2
100
AcDbLine
 10
123.2045203922187
 20
217.6791619061692
 30
0.0
 11
107.7045203922187
 21
217.6791619061692
 31
0.0
  0
LINE
  5
1AE
330
1F
100
AcDbEntity
  8
1
  6
DASH_CENTER
 62
     2
100
AcDbLine
 10
115.4545203922187
 20
183.8969697191583
 30
0.0
 11
115.4545203922187
 21
110.8969697191583
 31
0.0
  0
LINE
  5
1AF
330
1F
100
AcDbEntity
  8
1
  6
Continuous
 62
     7
100
AcDbLine
 10
154.0
 20
275.0000000000003
 30
0.0
 11
154.0
 21
237.0000000000002
 31
0.0
  0
LINE
  5
1B0
330
1F
100
AcDbEntity
  8
1
  6
Continuous
 62
     7
100
AcDbLine
 10
189.0
 20
275.0000000000003
 30
0.0
 11
188.9999999999999
 21
237.0000000000002
 31
0.0
  0
LINE
  5
1B1
330
1F
100
AcDbEntity
  8
1
  6
Continuous
 62
     2
100
AcDbLine
 10
154.0
 20
261.0000000000002
 30
0.0
 11
188.9999999999999
 21
261.0000000000002
 31
0.0
  0
LINE
  5
1B2
330
1F
100
AcDbEntity
  8
1
  6
Continuous
 62
     2
100
AcDbLine
 10
154.0
 20
255.0000000000002
 30
0.0
 11
188.9999999999999
 21
255.0000000000002
 31
0.0
  0
LINE
  5
1B3
330
1F
100
AcDbEntity
  8
1
  6
Continuous
 62
     7
100
AcDbLine
 10
154.0
 20
275.0000000000003
 30
0.0
 11
189.0
 21
275.0000000000003
 31
0.0
  0
LINE
  5
1B4
330
1F
100
AcDbEntity
  8
1
  6
Continuous
 62
     2
100
AcDbLine
 10
188.9999999999999
 20
243.0000000000002
 30
0.0
 11
154.0
 21
243.0000000000002
 31
0.0
  0
LINE
  5
1B5
330
1F
100
AcDbEntity
  8
1
  6
Continuous
 62
     7
100
AcDbLine
 10
154.0
 20
267.0000000000002
 30
0.0
 11
188.9999999999999
 21
267.0000000000002
 31
0.0
  0
LINE
  5
1B6
330
1F
100
AcDbEntity
  8
1
  6
Continuous
 62
     7
100
AcDbLine
 10
188.9999999999999
 20
237.0000000000002
 30
0.0
 11
154.0
 21
237.0000000000002
 31
0.0
  0
LINE
  5
1B7
330
1F
100
AcDbEntity
  8
1
  6
Continuous
 62
     2
100
AcDbLine
 10
154.0
 20
249.0000000000002
 30
0.0
 11
188.9999999999999
 21
249.0000000000002
 31
0.0
  0
ARC
  5
1B8
330
1F
100
AcDbEntity
  8
実線
  6
Continuous
 62
     7
100
AcDbCircle
 10
117.4845203922189
 20
219.7091619061694
 30
0.0
 40
1.5
100
AcDbArc
 50
179.9999999999664
 51
270.0
  0
ARC
  5
1B9
330
1F
100
AcDbEntity
  8
実線
  6
Continuous
 62
     7
100
AcDbCircle
 10
117.4845203922189
 20
215.649161906169
 30
0.0
 40
1.5
100
AcDbArc
 50
90.0
 51
180.0
  0
ARC
  5
1BA
330
1F
100
AcDbEntity
  8
実線
  6
Continuous
 62
     7
100
AcDbCircle
 10
113.4245203922189
 20
219.7091619061694
 30
0.0
 40
1.5
100
AcDbArc
 50
270.0
 51
0.0
  0
ARC
  5
1BB
330
1F
100
AcDbEntity
  8
実線
  6
Continuous
 62
     7
100
AcDbCircle
 10
113.4245203922189
 20
215.649161906169
 30
0.0
 40
1.5
100
AcDbArc
 50
0.0
 51
90.0
  0
ARC
  5
1BC
330
1F
100
AcDbEntity
  8
実線
  6
Continuous
 62
     7
100
AcDbCircle
 10
119.7045203922187
 20
180.3969697191583
 30
0.0
 40
0.5
100
AcDbArc
 50
0.0
 51
90.0
  0
ARC
  5
1BD
330
1F
100
AcDbEntity
  8
実線
  6
Continuous
 62
     7
100
AcDbCircle
 10
119.7045203922187
 20
179.3969697191583
 30
0.0
 40
0.5
100
AcDbArc
 50
270.0
 51
0.0
  0
ARC
  5
1BE
330
1F
100
AcDbEntity
  8
実線
  6
Continuous
 62
     7
100
AcDbCircle
 10
111.2045203922187
 20
180.3969697191583
 30
0.0
 40
0.5
100
AcDbArc
 50
90.0
 51
180.0
  0
ARC
  5
1BF
330
1F
100
AcDbEntity
  8
実線
  6
Continuous
 62
     7
100
AcDbCircle
 10
111.2045203922187
 20
179.3969697191583
 30
0.0
 40
0.5
100
AcDbArc
 50
180.0
 51
270.0
  0
ARC
  5
1C0
330
1F
100
AcDbEntity
  8
実線
  6
Continuous
 62
     7
100
AcDbCircle
 10
118.0395203922187
 20
177.6609017416581
 30
0.0
 40
1.000000000000183
100
AcDbArc
 50
153.4349488229125
 51
180.0
  0
ARC
  5
1C1
330
1F
100
AcDbEntity
  8
実線
  6
Continuous
 62
     7
100
AcDbCircle
 10
112.8695203922191
 20
177.6609017416595
 30
0.0
 40
1.0
100
AcDbArc
 50
0.0
 51
26.5650511770627
  0
ARC
  5
1C2
330
1F
100
AcDbEntity
  8
実線
  6
Continuous
 62
     7
100
AcDbCircle
 10
116.331074055109
 20
120.1268230039573
 30
0.0
 40
1.975288768069956
100
AcDbArc
 50
116.3440156203968
 51
172.2251350560242
  0
ARC
  5
1C3
330
1F
100
AcDbEntity
  8
実線
  6
Continuous
 62
     7
100
AcDbCircle
 10
115.1545720827987
 20
117.7292546650751
 30
0.0
 40
0.9999999999984828
100
AcDbArc
 50
175.5144787204196
 51
199.3589941756866
  0
ARC
  5
1C4
330
1F
100
AcDbEntity
  8
実線
  6
Continuous
 62
     7
100
AcDbCircle
 10
116.0395203922187
 20
164.6079515543452
 30
0.0
 40
0.9999999999982466
100
AcDbArc
 50
344.0924480694593
 51
0.0
  0
ARC
  5
1C5
330
1F
100
AcDbEntity
  8
実線
  6
Continuous
 62
     7
100
AcDbCircle
 10
114.8695203922191
 20
164.6079515543443
 30
0.0
 40
1.0
100
AcDbArc
 50
180.0
 51
195.9075519305687
  0
ARC
  5
1C6
330
1F
100
AcDbEntity
  8
実線
  6
Continuous
 62
     7
100
AcDbCircle
 10
113.154520392219
 20
163.3285150918241
 30
0.0
 40
1.0
100
AcDbArc
 50
0.0
 51
15.90755193052034
  0
CIRCLE
  5
1C7
330
1F
100
AcDbEntity
  8
実線
  6
Continuous
 62
     7
100
AcDbCircle
 10
115.4545203922187
 20
217.6791619061692
 30
0.0
 40
4.75
  0
MTEXT
  5
1C9
330
1F
100
AcDbEntity
  8
1
 62
     7
100
AcDbMText
 10
85.25
 20
17.0
 30
0.0
 40
3.5
 41
0.0
 71
     5
 72
     1
  1
1
  7
CONVERTER_12
 73
     1
 44
0.7202881152461
  0
MTEXT
  5
1CA
330
1F
100
AcDbEntity
  8
1
 62
     7
100
AcDbMText
 10
93.75
 20
17.0
 30
0.0
 40
3.5
 41
0.0
 71
     5
 72
     1
  1
1
  7
CONVERTER_12
 73
     1
 44
0.7202881152461
  0
MTEXT
  5
1CB
330
1F
100
AcDbEntity
  8
1
 62
     7
100
AcDbMText
 10
57.0
 20
14.25
 30
0.0
 40
3.5
 41
0.0
 71
     5
 72
     1
  1
R425-1-9,5X65
  7
CONVERTER_12
 73
     1
 44
0.7202881152461
  0
MTEXT
  5
1CC
330
1F
100
AcDbEntity
  8
1
 62
     7
100
AcDbMText
 10
57.0
 20
22.75000000000001
 30
0.0
 40
3.5
 41
0.0
 71
     5
 72
     1
  1
洗濯機パン用ビス
  7
CONVERTER_11
 73
     1
 44
0.54545454545455
  0
MTEXT
  5
1CD
330
1F
100
AcDbEntity
  8
1
 62
     7
100
AcDbMText
 10
156.0
 20
252.0000000000002
 30
0.0
 40
3.5
 41
0.0
 71
     4
 72
     1
  1
H542
  7
CONVERTER_12
 73
     1
 44
0.7202881152461
  0
MTEXT
  5
1CE
330
1F
100
AcDbEntity
  8
1
 62
     7
100
AcDbMText
 10
156.0
 20
258.0000000000002
 30
0.0
 40
3.5
 41
0.0
 71
     4
 72
     1
  1
H541N
  7
CONVERTER_12
 73
     1
 44
0.7202881152461
  0
MTEXT
  5
1CF
330
1F
100
AcDbEntity
  8
1
 62
     7
100
AcDbMText
 10
156.0
 20
264.0000000000002
 30
0.0
 40
3.5
 41
0.0
 71
     4
 72
     1
  1
H541
  7
CONVERTER_12
 73
     1
 44
0.7202881152461
  0
MTEXT
  5
1D0
330
1F
100
AcDbEntity
  8
1
 62
     7
100
AcDbMText
 10
171.5
 20
271.0000000000002
 30
0.0
 40
3.5
 41
0.0
 71
     5
 72
     1
  1
取付可能製品
  7
CONVERTER_11
 73
     1
 44
0.54545454545455
  0
MTEXT
  5
1D1
330
1F
100
AcDbEntity
  8
1
 62
     7
100
AcDbMText
 10
156.0
 20
246.0000000000002
 30
0.0
 40
3.5
 41
0.0
 71
     4
 72
     1
  1
H5410
  7
CONVERTER_12
 73
     1
 44
0.7202881152461
  0
MTEXT
  5
1D2
330
1F
100
AcDbEntity
  8
1
 62
     7
100
AcDbMText
 10
156.0
 20
240.0000000000002
 30
0.0
 40
3.5
 41
0.0
 71
     4
 72
     1
  1
H5420S
  7
CONVERTER_12
 73
     1
 44
0.7202881152461
  0
DIMENSION
  5
1DD
330
1F
100
AcDbEntity
  8
1
100
AcDbDimension
  2
*D2
 10
130.2045203922187
 20
113.8969697191583
 30
0.0
 11
127.4545203922187
 21
147.3969697191583
 31
0.0
 70
    32
  1
<>
 71
     5
 42
-1.0
 53
90.0
  3
ME10_DIM_10
100
AcDbAlignedDimension
 13
119.7045203922187
 23
180.8969697191583
 33
0.0
 14
115.4545203922187
 24
113.8969697191583
 34
0.0
 50
90.0
100
AcDbRotatedDimension
  0
DIMENSION
  5
1EA
330
1F
100
AcDbEntity
  8
1
100
AcDbDimension
  2
*D3
 10
110.7045203922187
 20
190.8969697191583
 30
0.0
 11
115.4545203922187
 21
193.8219697191583
 31
0.0
 70
    32
  1
<>
 71
     5
 42
-1.0
 53
0.00013888888889
  3
ME10_DIM_11
100
AcDbAlignedDimension
 13
120.2045203922187
 23
180.3969697191583
 33
0.0
 14
110.7045203922187
 24
180.3969697191583
 34
0.0
100
AcDbRotatedDimension
  0
DIMENSION
  5
1F7
330
1F
100
AcDbEntity
  8
1
100
AcDbDimension
  2
*D4
 10
112.8545203922188
 20
103.8969697191583
 30
0.0
 11
127.649813093597
 21
106.8219697191583
 31
0.0
 70
    32
  1
<>
 71
     5
 42
-1.0
 53
0.00013888888889
  3
ME10_DIM_12
100
AcDbAlignedDimension
 13
118.0545203922191
 23
120.9950720185393
 33
0.0
 14
112.8545203922188
 24
119.2165672732454
 34
0.0
100
AcDbRotatedDimension
  0
DIMENSION
  5
202
330
1F
100
AcDbEntity
  8
1
100
AcDbDimension
  2
*D5
 10
102.8545203922188
 20
163.8969697191583
 30
0.0
 11
100.1045203922188
 21
138.8969697191583
 31
0.0
 70
    32
  1
<>
 71
     5
 42
-1.0
 53
90.0
  3
ME10_DIM_13
100
AcDbAlignedDimension
 13
115.4545203922187
 23
113.8969697191583
 33
0.0
 14
115.4545203922187
 24
163.8969697191583
 34
0.0
 50
90.0
100
AcDbRotatedDimension
  0
ENDSEC
  0
SECTION
  2
OBJECTS
  0
DICTIONARY
  5
C
330
0
100
AcDbDictionary
281
     1
  3
ACAD_GROUP
350
D
  3
ACAD_LAYOUT
350
1A
  3
ACAD_MATERIAL
350
3B
  3
ACAD_MLEADERSTYLE
350
205
  3
ACAD_MLINESTYLE
350
17
  3
ACAD_PLOTSETTINGS
350
19
  3
ACAD_PLOTSTYLENAME
350
E
  3
ACAD_VISUALSTYLE
350
2A
  3
AcDbVariableDictionary
350
203
  0
DICTIONARY
  5
D
102
{ACAD_REACTORS
330
C
102
}
330
C
100
AcDbDictionary
281
     1
  0
DICTIONARY
  5
1A
102
{ACAD_REACTORS
330
C
102
}
330
C
100
AcDbDictionary
281
     1
  3
Layout1
350
1E
  3
Layout2
350
26
  3
Model
350
22
  0
DICTIONARY
  5
3B
102
{ACAD_REACTORS
330
C
102
}
330
C
100
AcDbDictionary
281
     1
  3
ByBlock
350
3D
  3
ByLayer
350
3C
  3
Global
350
3E
  0
DICTIONARY
  5
205
102
{ACAD_REACTORS
330
C
102
}
330
C
100
AcDbDictionary
281
     1
  0
DICTIONARY
  5
17
102
{ACAD_REACTORS
330
C
102
}
330
C
100
AcDbDictionary
281
     1
  3
Standard
350
18
  0
DICTIONARY
  5
19
102
{ACAD_REACTORS
330
C
102
}
330
C
100
AcDbDictionary
281
     1
  0
ACDBDICTIONARYWDFLT
  5
E
102
{ACAD_REACTORS
330
C
102
}
330
C
100
AcDbDictionary
281
     1
  3
Normal
350
F
100
AcDbDictionaryWithDefault
340
F
  0
DICTIONARY
  5
2A
102
{ACAD_REACTORS
330
C
102
}
330
C
100
AcDbDictionary
281
     1
  3
2dWireframe
350
2F
  3
3D Hidden
350
31
  3
3dWireframe
350
30
  3
Basic
350
32
  3
Brighten
350
36
  3
ColorChange
350
3A
  3
Conceptual
350
34
  3
Dim
350
35
  3
Facepattern
350
39
  3
Flat
350
2B
  3
FlatWithEdges
350
2C
  3
Gouraud
350
2D
  3
GouraudWithEdges
350
2E
  3
Linepattern
350
38
  3
Realistic
350
33
  3
Thicken
350
37
  0
DICTIONARY
  5
203
102
{ACAD_REACTORS
330
C
102
}
330
C
100
AcDbDictionary
281
     1
  3
DIMASSOC
350
206
  3
HIDETEXT
350
207
  0
LAYOUT
  5
1E
102
{ACAD_REACTORS
330
1A
102
}
330
1A
100
AcDbPlotSettings
  1

  2
none_device
  4

  6

 40
0.0
 41
0.0
 42
0.0
 43
0.0
 44
0.0
 45
0.0
 46
0.0
 47
0.0
 48
0.0
 49
0.0
140
0.0
141
0.0
142
1.0
143
1.0
 70
   688
 72
     0
 73
     0
 74
     5
  7

 75
    16
147
1.0
148
0.0
149
0.0
100
AcDbLayout
  1
Layout1
 70
     1
 71
     1
 10
0.0
 20
0.0
 11
12.0
 21
9.0
 12
0.0
 22
0.0
 32
0.0
 14
1.00000000000000E+20
 24
1.00000000000000E+20
 34
1.00000000000000E+20
 15
-1.00000000000000E+20
 25
-1.00000000000000E+20
 35
-1.00000000000000E+20
146
0.0
 13
0.0
 23
0.0
 33
0.0
 16
1.0
 26
0.0
 36
0.0
 17
0.0
 27
1.0
 37
0.0
 76
     0
330
1B
  0
LAYOUT
  5
26
102
{ACAD_REACTORS
330
1A
102
}
330
1A
100
AcDbPlotSettings
  1

  2
none_device
  4

  6

 40
0.0
 41
0.0
 42
0.0
 43
0.0
 44
0.0
 45
0.0
 46
0.0
 47
0.0
 48
0.0
 49
0.0
140
0.0
141
0.0
142
1.0
143
1.0
 70
   688
 72
     0
 73
     0
 74
     5
  7

 75
    16
147
1.0
148
0.0
149
0.0
100
AcDbLayout
  1
Layout2
 70
     1
 71
     2
 10
0.0
 20
0.0
 11
0.0
 21
0.0
 12
0.0
 22
0.0
 32
0.0
 14
0.0
 24
0.0
 34
0.0
 15
0.0
 25
0.0
 35
0.0
146
0.0
 13
0.0
 23
0.0
 33
0.0
 16
1.0
 26
0.0
 36
0.0
 17
0.0
 27
1.0
 37
0.0
 76
     0
330
23
  0
LAYOUT
  5
22
102
{ACAD_REACTORS
330
1A
102
}
330
1A
100
AcDbPlotSettings
  1

  2
none_device
  4

  6

 40
0.0
 41
0.0
 42
0.0
 43
0.0
 44
0.0
 45
0.0
 46
0.0
 47
0.0
 48
0.0
 49
0.0
140
0.0
141
0.0
142
1.0
143
1.0
 70
  1712
 72
     0
 73
     0
 74
     0
  7

 75
     0
147
1.0
148
0.0
149
0.0
100
AcDbLayout
  1
Model
 70
     1
 71
     0
 10
0.0
 20
0.0
 11
12.0
 21
9.0
 12
0.0
 22
0.0
 32
0.0
 14
0.0
 24
0.0
 34
0.0
 15
210.0
 25
297.0
 35
0.0
146
0.0
 13
0.0
 23
0.0
 33
0.0
 16
1.0
 26
0.0
 36
0.0
 17
0.0
 27
1.0
 37
0.0
 76
     0
330
1F
331
29
  0
MATERIAL
  5
3D
102
{ACAD_REACTORS
330
3B
102
}
102
{ACAD_XDICTIONARY
360
22A
102
}
330
3B
100
AcDbMaterial
  1
ByBlock
  0
MATERIAL
  5
3C
102
{ACAD_REACTORS
330
3B
102
}
102
{ACAD_XDICTIONARY
360
228
102
}
330
3B
100
AcDbMaterial
  1
ByLayer
  0
MATERIAL
  5
3E
102
{ACAD_REACTORS
330
3B
102
}
102
{ACAD_XDICTIONARY
360
22C
102
}
330
3B
100
AcDbMaterial
  1
Global
  0
MLINESTYLE
  5
18
102
{ACAD_REACTORS
330
17
102
}
330
17
100
AcDbMlineStyle
  2
Standard
 70
     0
  3

 62
   256
 51
90.0
 52
90.0
 71
     2
 49
0.5
 62
   256
  6
BYLAYER
 49
-0.5
 62
   256
  6
BYLAYER
  0
ACDBPLACEHOLDER
  5
F
102
{ACAD_REACTORS
330
E
102
}
330
E
  0
VISUALSTYLE
  5
2F
102
{ACAD_REACTORS
330
2A
102
}
102
{ACAD_XDICTIONARY
360
210
102
}
330
2A
100
AcDbVisualStyle
  2
2dWireframe
 70
     4
 71
     0
 72
     2
 73
     0
 90
        0
 40
-0.6
 41
-30.0
 62
     5
 63
     7
 74
     1
 91
        4
 64
     7
 65
   257
 75
     1
175
     1
 42
1.0
 92
        0
 66
   257
 43
1.0
 76
     1
 77
     6
 78
     2
 67
     7
 79
     5
170
     0
171
     0
290
     0
174
     0
 93
        1
 44
0.0
173
     0
291
     0
 45
0.0
1001
ACAD
1000
AcDbSavedByObjectVersion
1070
     0
  0
VISUALSTYLE
  5
31
102
{ACAD_REACTORS
330
2A
102
}
102
{ACAD_XDICTIONARY
360
214
102
}
330
2A
100
AcDbVisualStyle
  2
3D Hidden
 70
     6
 71
     1
 72
     2
 73
     2
 90
        0
 40
-0.6
 41
-30.0
 62
     5
 63
     7
 74
     2
 91
        2
 64
     7
 65
   257
 75
     2
175
     1
 42
40.0
 92
        0
 66
   257
 43
1.0
 76
     1
 77
     6
 78
     2
 67
     7
 79
     3
170
     0
171
     0
290
     0
174
     0
 93
        1
 44
0.0
173
     0
291
     0
 45
0.0
1001
ACAD
1000
AcDbSavedByObjectVersion
1070
     0
  0
VISUALSTYLE
  5
30
102
{ACAD_REACTORS
330
2A
102
}
102
{ACAD_XDICTIONARY
360
212
102
}
330
2A
100
AcDbVisualStyle
  2
3dWireframe
 70
     5
 71
     0
 72
     2
 73
     0
 90
        0
 40
-0.6
 41
-30.0
 62
     5
 63
     7
 74
     1
 91
        4
 64
     7
 65
   257
 75
     1
175
     1
 42
1.0
 92
        0
 66
   257
 43
1.0
 76
     1
 77
     6
 78
     2
 67
     7
 79
     5
170
     0
171
     0
290
     0
174
     0
 93
        1
 44
0.0
173
     0
291
     0
 45
0.0
1001
ACAD
1000
AcDbSavedByObjectVersion
1070
     0
  0
VISUALSTYLE
  5
32
102
{ACAD_REACTORS
330
2A
102
}
102
{ACAD_XDICTIONARY
360
216
102
}
330
2A
100
AcDbVisualStyle
  2
Basic
 70
     7
 71
     1
 72
     0
 73
     1
 90
        0
 40
-0.6
 41
-30.0
 62
     5
 63
     7
 74
     0
 91
        4
 64
     7
 65
   257
 75
     1
175
     1
 42
1.0
 92
        8
 66
     7
 43
1.0
 76
     1
 77
     6
 78
     2
 67
     7
 79
     5
170
     0
171
     0
290
     0
174
     0
 93
        1
 44
0.0
173
     0
291
     1
 45
0.0
1001
ACAD
1000
AcDbSavedByObjectVersion
1070
     0
  0
VISUALSTYLE
  5
36
102
{ACAD_REACTORS
330
2A
102
}
102
{ACAD_XDICTIONARY
360
21E
102
}
330
2A
100
AcDbVisualStyle
  2
Brighten
 70
    12
 71
     2
 72
     2
 73
     0
 90
        0
 40
-0.6
 41
-30.0
 62
     5
 63
     7
 74
     1
 91
        4
 64
     7
 65
   257
 75
     1
175
     1
 42
1.0
 92
        8
 66
     7
 43
1.0
 76
     1
 77
     6
 78
     2
 67
     7
 79
     5
170
     0
171
     0
290
     0
174
     0
 93
        1
 44
50.0
173
     0
291
     1
 45
0.0
1001
ACAD
1000
AcDbSavedByObjectVersion
1070
     0
  0
VISUALSTYLE
  5
3A
102
{ACAD_REACTORS
330
2A
102
}
102
{ACAD_XDICTIONARY
360
226
102
}
330
2A
100
AcDbVisualStyle
  2
ColorChange
 70
    16
 71
     2
 72
     2
 73
     3
 90
        0
 40
-0.6
 41
-30.0
 62
     5
 63
     8
 74
     1
 91
        4
 64
     7
 65
   257
 75
     1
175
     1
 42
1.0
 92
        8
 66
     8
 43
1.0
 76
     1
 77
     6
 78
     2
 67
     7
 79
     5
170
     0
171
     0
290
     0
174
     0
 93
        1
 44
0.0
173
     0
291
     1
 45
0.0
1001
ACAD
1000
AcDbSavedByObjectVersion
1070
     0
  0
VISUALSTYLE
  5
34
102
{ACAD_REACTORS
330
2A
102
}
102
{ACAD_XDICTIONARY
360
21A
102
}
330
2A
100
AcDbVisualStyle
  2
Conceptual
 70
     9
 71
     3
 72
     2
 73
     0
 90
        0
 40
-0.6
 41
-30.0
 62
     5
 63
     7
 74
     2
 91
        2
 64
     7
 65
   257
 75
     1
175
     1
 42
40.0
 92
        8
 66
     7
 43
1.0
 76
     1
 77
     6
 78
     2
 67
     7
 79
     3
170
     0
171
     0
290
     0
174
     0
 93
        1
 44
0.0
173
     0
291
     0
 45
0.0
1001
ACAD
1000
AcDbSavedByObjectVersion
1070
     0
  0
VISUALSTYLE
  5
35
102
{ACAD_REACTORS
330
2A
102
}
102
{ACAD_XDICTIONARY
360
21C
102
}
330
2A
100
AcDbVisualStyle
  2
Dim
 70
    11
 71
     2
 72
     2
 73
     0
 90
        0
 40
-0.6
 41
-30.0
 62
     5
 63
     7
 74
     1
 91
        4
 64
     7
 65
   257
 75
     1
175
     1
 42
1.0
 92
        8
 66
     7
 43
1.0
 76
     1
 77
     6
 78
     2
 67
     7
 79
     5
170
     0
171
     0
290
     0
174
     0
 93
        1
 44
-50.0
173
     0
291
     1
 45
0.0
1001
ACAD
1000
AcDbSavedByObjectVersion
1070
     0
  0
VISUALSTYLE
  5
39
102
{ACAD_REACTORS
330
2A
102
}
102
{ACAD_XDICTIONARY
360
224
102
}
330
2A
100
AcDbVisualStyle
  2
Facepattern
 70
    15
 71
     2
 72
     2
 73
     0
 90
        0
 40
-0.6
 41
-30.0
 62
     5
 63
     7
 74
     1
 91
        4
 64
     7
 65
   257
 75
     1
175
     1
 42
1.0
 92
        8
 66
     7
 43
1.0
 76
     1
 77
     6
 78
     2
 67
     7
 79
     5
170
     0
171
     0
290
     0
174
     0
 93
        1
 44
0.0
173
     0
291
     1
 45
0.0
1001
ACAD
1000
AcDbSavedByObjectVersion
1070
     0
  0
VISUALSTYLE
  5
2B
102
{ACAD_REACTORS
330
2A
102
}
102
{ACAD_XDICTIONARY
360
208
102
}
330
2A
100
AcDbVisualStyle
  2
Flat
 70
     0
 71
     2
 72
     1
 73
     1
 90
        2
 40
-0.6
 41
30.0
 62
     5
 63
     7
 74
     0
 91
        4
 64
     7
 65
   257
 75
     1
175
     1
 42
1.0
 92
        8
 66
     7
 43
1.0
 76
     1
 77
     6
 78
     2
 67
     7
 79
     5
170
     0
171
     0
290
     0
174
     0
 93
       13
 44
0.0
173
     0
291
     1
 45
0.0
1001
ACAD
1000
AcDbSavedByObjectVersion
1070
     0
  0
VISUALSTYLE
  5
2C
102
{ACAD_REACTORS
330
2A
102
}
102
{ACAD_XDICTIONARY
360
20A
102
}
330
2A
100
AcDbVisualStyle
  2
FlatWithEdges
 70
     1
 71
     2
 72
     1
 73
     1
 90
        2
 40
-0.6
 41
30.0
 62
     5
 63
     7
 74
     1
 91
        4
 64
     7
 65
   257
 75
     1
175
     1
 42
1.0
 92
        0
 66
   257
 43
1.0
 76
     1
 77
     6
 78
     2
 67
     7
 79
     5
170
     0
171
     0
290
     0
174
     0
 93
       13
 44
0.0
173
     0
291
     1
 45
0.0
1001
ACAD
1000
AcDbSavedByObjectVersion
1070
     0
  0
VISUALSTYLE
  5
2D
102
{ACAD_REACTORS
330
2A
102
}
102
{ACAD_XDICTIONARY
360
20C
102
}
330
2A
100
AcDbVisualStyle
  2
Gouraud
 70
     2
 71
     2
 72
     2
 73
     1
 90
        2
 40
-0.6
 41
30.0
 62
     5
 63
     7
 74
     0
 91
        4
 64
     7
 65
   257
 75
     1
175
     1
 42
1.0
 92
        0
 66
     7
 43
1.0
 76
     1
 77
     6
 78
     2
 67
     7
 79
     5
170
     0
171
     0
290
     0
174
     0
 93
       13
 44
0.0
173
     0
291
     1
 45
0.0
1001
ACAD
1000
AcDbSavedByObjectVersion
1070
     0
  0
VISUALSTYLE
  5
2E
102
{ACAD_REACTORS
330
2A
102
}
102
{ACAD_XDICTIONARY
360
20E
102
}
330
2A
100
AcDbVisualStyle
  2
GouraudWithEdges
 70
     3
 71
     2
 72
     2
 73
     1
 90
        2
 40
-0.6
 41
30.0
 62
     5
 63
     7
 74
     1
 91
        4
 64
     7
 65
   257
 75
     1
175
     1
 42
1.0
 92
        0
 66
   257
 43
1.0
 76
     1
 77
     6
 78
     2
 67
     7
 79
     5
170
     0
171
     0
290
     0
174
     0
 93
       13
 44
0.0
173
     0
291
     1
 45
0.0
1001
ACAD
1000
AcDbSavedByObjectVersion
1070
     0
  0
VISUALSTYLE
  5
38
102
{ACAD_REACTORS
330
2A
102
}
102
{ACAD_XDICTIONARY
360
222
102
}
330
2A
100
AcDbVisualStyle
  2
Linepattern
 70
    14
 71
     2
 72
     2
 73
     0
 90
        0
 40
-0.6
 41
-30.0
 62
     5
 63
     7
 74
     1
 91
        4
 64
     7
 65
   257
 75
     7
175
     7
 42
1.0
 92
        8
 66
     7
 43
1.0
 76
     1
 77
     6
 78
     2
 67
     7
 79
     5
170
     0
171
     0
290
     0
174
     0
 93
        1
 44
0.0
173
     0
291
     1
 45
0.0
1001
ACAD
1000
AcDbSavedByObjectVersion
1070
     0
  0
VISUALSTYLE
  5
33
102
{ACAD_REACTORS
330
2A
102
}
102
{ACAD_XDICTIONARY
360
218
102
}
330
2A
100
AcDbVisualStyle
  2
Realistic
 70
     8
 71
     2
 72
     2
 73
     0
 90
        0
 40
-0.6
 41
-30.0
 62
     5
 63
     7
 74
     1
 91
        0
 64
     7
 65
   257
 75
     1
175
     1
 42
1.0
 92
        8
 66
     8
 43
1.0
 76
     1
 77
     6
 78
     2
 67
     7
 79
     5
170
     0
171
     0
290
     0
174
     0
 93
       13
 44
0.0
173
     0
291
     0
 45
0.0
1001
ACAD
1000
AcDbSavedByObjectVersion
1070
     0
  0
VISUALSTYLE
  5
37
102
{ACAD_REACTORS
330
2A
102
}
102
{ACAD_XDICTIONARY
360
220
102
}
330
2A
100
AcDbVisualStyle
  2
Thicken
 70
    13
 71
     2
 72
     2
 73
     0
 90
        0
 40
-0.6
 41
-30.0
 62
     5
 63
     7
 74
     1
 91
        4
 64
     7
 65
   257
 75
     1
175
     1
 42
1.0
 92
       12
 66
     7
 43
1.0
 76
     1
 77
     6
 78
     2
 67
     7
 79
     5
170
     0
171
     0
290
     0
174
     0
 93
        1
 44
0.0
173
     0
291
     1
 45
0.0
1001
ACAD
1000
AcDbSavedByObjectVersion
1070
     0
  0
DICTIONARYVAR
  5
206
102
{ACAD_REACTORS
330
203
102
}
330
203
100
DictionaryVariables
280
     0
  1
2
  0
DICTIONARYVAR
  5
207
102
{ACAD_REACTORS
330
203
102
}
330
203
100
DictionaryVariables
280
     0
  1
1
  0
DICTIONARY
  5
22A
330
3D
100
AcDbDictionary
280
     1
281
     1
  3
ACAD_XREC_ROUNDTRIP
360
22B
  0
DICTIONARY
  5
228
330
3C
100
AcDbDictionary
280
     1
281
     1
  3
ACAD_XREC_ROUNDTRIP
360
229
  0
DICTIONARY
  5
22C
330
3E
100
AcDbDictionary
280
     1
281
     1
  3
ACAD_XREC_ROUNDTRIP
360
22D
  0
DICTIONARY
  5
210
330
2F
100
AcDbDictionary
280
     1
281
     1
  3
ACAD_XREC_ROUNDTRIP
360
211
  0
DICTIONARY
  5
214
330
31
100
AcDbDictionary
280
     1
281
     1
  3
ACAD_XREC_ROUNDTRIP
360
215
  0
DICTIONARY
  5
212
330
30
100
AcDbDictionary
280
     1
281
     1
  3
ACAD_XREC_ROUNDTRIP
360
213
  0
DICTIONARY
  5
216
330
32
100
AcDbDictionary
280
     1
281
     1
  3
ACAD_XREC_ROUNDTRIP
360
217
  0
DICTIONARY
  5
21E
330
36
100
AcDbDictionary
280
     1
281
     1
  3
ACAD_XREC_ROUNDTRIP
360
21F
  0
DICTIONARY
  5
226
330
3A
100
AcDbDictionary
280
     1
281
     1
  3
ACAD_XREC_ROUNDTRIP
360
227
  0
DICTIONARY
  5
21A
330
34
100
AcDbDictionary
280
     1
281
     1
  3
ACAD_XREC_ROUNDTRIP
360
21B
  0
DICTIONARY
  5
21C
330
35
100
AcDbDictionary
280
     1
281
     1
  3
ACAD_XREC_ROUNDTRIP
360
21D
  0
DICTIONARY
  5
224
330
39
100
AcDbDictionary
280
     1
281
     1
  3
ACAD_XREC_ROUNDTRIP
360
225
  0
DICTIONARY
  5
208
330
2B
100
AcDbDictionary
280
     1
281
     1
  3
ACAD_XREC_ROUNDTRIP
360
209
  0
DICTIONARY
  5
20A
330
2C
100
AcDbDictionary
280
     1
281
     1
  3
ACAD_XREC_ROUNDTRIP
360
20B
  0
DICTIONARY
  5
20C
330
2D
100
AcDbDictionary
280
     1
281
     1
  3
ACAD_XREC_ROUNDTRIP
360
20D
  0
DICTIONARY
  5
20E
330
2E
100
AcDbDictionary
280
     1
281
     1
  3
ACAD_XREC_ROUNDTRIP
360
20F
  0
DICTIONARY
  5
222
330
38
100
AcDbDictionary
280
     1
281
     1
  3
ACAD_XREC_ROUNDTRIP
360
223
  0
DICTIONARY
  5
218
330
33
100
AcDbDictionary
280
     1
281
     1
  3
ACAD_XREC_ROUNDTRIP
360
219
  0
DICTIONARY
  5
220
330
37
100
AcDbDictionary
280
     1
281
     1
  3
ACAD_XREC_ROUNDTRIP
360
221
  0
XRECORD
  5
22B
102
{ACAD_REACTORS
330
22A
102
}
330
22A
100
AcDbXrecord
280
     1
102
MATERIAL
148
0.0
149
0.0
149
0.0
 93
        0
 94
      127
282
     0
 72
     1
 77
     1
171
     1
175
     1
179
     1
273
     0
  0
XRECORD
  5
229
102
{ACAD_REACTORS
330
228
102
}
330
228
100
AcDbXrecord
280
     1
102
MATERIAL
148
0.0
149
0.0
149
0.0
 93
        0
 94
      127
282
     0
 72
     1
 77
     1
171
     1
175
     1
179
     1
273
     0
  0
XRECORD
  5
22D
102
{ACAD_REACTORS
330
22C
102
}
330
22C
100
AcDbXrecord
280
     1
102
MATERIAL
148
0.0
149
0.0
149
0.0
 93
        0
 94
      127
282
     0
 72
     1
 77
     1
171
     1
175
     1
179
     1
273
     0
  0
XRECORD
  5
211
102
{ACAD_REACTORS
330
210
102
}
330
210
100
AcDbXrecord
280
     1
102
RTVSPropertyOp0
 70
     1
102
RTVSPropertyOp1
 70
     1
102
RTVSPropertyOp2
 70
     1
102
RTVSPropertyOp3
 70
     1
102
RTVSPropertyOp4
 70
     1
102
RTVSPropertyOp5
 70
     1
102
RTVSPropertyOp6
 70
     1
102
RTVSPropertyOp7
 70
     1
102
RTVSPropertyOp8
 70
     1
102
RTVSPropertyOp9
 70
     1
102
RTVSPropertyOp10
 70
     1
102
RTVSPropertyOp11
 70
     1
102
RTVSPropertyOp12
 70
     1
102
RTVSPropertyOp13
 70
     1
102
RTVSPropertyOp14
 70
     1
102
RTVSPropertyOp15
 70
     1
102
RTVSPropertyOp16
 70
     1
102
RTVSPropertyOp17
 70
     1
102
RTVSPropertyOp18
 70
     1
102
RTVSPropertyOp19
 70
     1
102
RTVSPropertyOp20
 70
     1
102
RTVSPropertyOp21
 70
     1
102
RTVSPropertyOp22
 70
     1
102
RTVSPropertyOp23
 70
     1
102
RTVSPropertyOp24
 70
     1
102
RTVSPropertyOp25
 70
     1
102
RTVSPropertyOp26
 70
     1
102
RTVSPropertyOp27
 70
     1
102
RTVSPropertyOp28
 70
     1
102
RTVSPropertyOp29
 70
     1
102
RTVSPropertyOp30
 70
     1
102
RTVSPropertyOp31
 70
     1
102
RTVSPropertyOp32
 70
     1
  0
XRECORD
  5
215
102
{ACAD_REACTORS
330
214
102
}
330
214
100
AcDbXrecord
280
     1
102
RTVSPropertyOp0
 70
     1
102
RTVSPropertyOp1
 70
     1
102
RTVSPropertyOp2
 70
     1
102
RTVSPropertyOp3
 70
     1
102
RTVSPropertyOp4
 70
     1
102
RTVSPropertyOp5
 70
     1
102
RTVSPropertyOp6
 70
     1
102
RTVSPropertyOp7
 70
     1
102
RTVSPropertyOp8
 70
     1
102
RTVSPropertyOp9
 70
     1
102
RTVSPropertyOp10
 70
     1
102
RTVSPropertyOp11
 70
     1
102
RTVSPropertyOp12
 70
     1
102
RTVSPropertyOp13
 70
     1
102
RTVSPropertyOp14
 70
     1
102
RTVSPropertyOp15
 70
     1
102
RTVSPropertyOp16
 70
     1
102
RTVSPropertyOp17
 70
     1
102
RTVSPropertyOp18
 70
     1
102
RTVSPropertyOp19
 70
     1
102
RTVSPropertyOp20
 70
     1
102
RTVSPropertyOp21
 70
     1
102
RTVSPropertyOp22
 70
     1
102
RTVSPropertyOp23
 70
     1
102
RTVSPropertyOp24
 70
     1
102
RTVSPropertyOp25
 70
     1
102
RTVSPropertyOp26
 70
     1
102
RTVSPropertyOp27
 70
     1
102
RTVSPropertyOp28
 70
     1
102
RTVSPropertyOp29
 70
     1
102
RTVSPropertyOp30
 70
     1
102
RTVSPropertyOp31
 70
     1
102
RTVSPropertyOp32
 70
     1
  0
XRECORD
  5
213
102
{ACAD_REACTORS
330
212
102
}
330
212
100
AcDbXrecord
280
     1
102
RTVSPropertyOp0
 70
     1
102
RTVSPropertyOp1
 70
     1
102
RTVSPropertyOp2
 70
     1
102
RTVSPropertyOp3
 70
     1
102
RTVSPropertyOp4
 70
     1
102
RTVSPropertyOp5
 70
     1
102
RTVSPropertyOp6
 70
     1
102
RTVSPropertyOp7
 70
     1
102
RTVSPropertyOp8
 70
     1
102
RTVSPropertyOp9
 70
     1
102
RTVSPropertyOp10
 70
     1
102
RTVSPropertyOp11
 70
     1
102
RTVSPropertyOp12
 70
     1
102
RTVSPropertyOp13
 70
     1
102
RTVSPropertyOp14
 70
     1
102
RTVSPropertyOp15
 70
     1
102
RTVSPropertyOp16
 70
     1
102
RTVSPropertyOp17
 70
     1
102
RTVSPropertyOp18
 70
     1
102
RTVSPropertyOp19
 70
     1
102
RTVSPropertyOp20
 70
     1
102
RTVSPropertyOp21
 70
     1
102
RTVSPropertyOp22
 70
     1
102
RTVSPropertyOp23
 70
     1
102
RTVSPropertyOp24
 70
     1
102
RTVSPropertyOp25
 70
     1
102
RTVSPropertyOp26
 70
     1
102
RTVSPropertyOp27
 70
     1
102
RTVSPropertyOp28
 70
     1
102
RTVSPropertyOp29
 70
     1
102
RTVSPropertyOp30
 70
     1
102
RTVSPropertyOp31
 70
     1
102
RTVSPropertyOp32
 70
     1
  0
XRECORD
  5
217
102
{ACAD_REACTORS
330
216
102
}
330
216
100
AcDbXrecord
280
     1
102
RTVSPropertyOp0
 70
     1
102
RTVSPropertyOp1
 70
     1
102
RTVSPropertyOp2
 70
     1
102
RTVSPropertyOp3
 70
     1
102
RTVSPropertyOp4
 70
     1
102
RTVSPropertyOp5
 70
     1
102
RTVSPropertyOp6
 70
     1
102
RTVSPropertyOp7
 70
     1
102
RTVSPropertyOp8
 70
     1
102
RTVSPropertyOp9
 70
     1
102
RTVSPropertyOp10
 70
     1
102
RTVSPropertyOp11
 70
     1
102
RTVSPropertyOp12
 70
     1
102
RTVSPropertyOp13
 70
     1
102
RTVSPropertyOp14
 70
     1
102
RTVSPropertyOp15
 70
     1
102
RTVSPropertyOp16
 70
     1
102
RTVSPropertyOp17
 70
     1
102
RTVSPropertyOp18
 70
     1
102
RTVSPropertyOp19
 70
     1
102
RTVSPropertyOp20
 70
     1
102
RTVSPropertyOp21
 70
     1
102
RTVSPropertyOp22
 70
     1
102
RTVSPropertyOp23
 70
     1
102
RTVSPropertyOp24
 70
     1
102
RTVSPropertyOp25
 70
     1
102
RTVSPropertyOp26
 70
     1
102
RTVSPropertyOp27
 70
     1
102
RTVSPropertyOp28
 70
     1
102
RTVSPropertyOp29
 70
     1
102
RTVSPropertyOp30
 70
     1
102
RTVSPropertyOp31
 70
     1
102
RTVSPropertyOp32
 70
     1
  0
XRECORD
  5
21F
102
{ACAD_REACTORS
330
21E
102
}
330
21E
100
AcDbXrecord
280
     1
102
RTVSPropertyOp0
 70
     1
102
RTVSPropertyOp1
 70
     1
102
RTVSPropertyOp2
 70
     1
102
RTVSPropertyOp3
 70
     1
102
RTVSPropertyOp4
 70
     1
102
RTVSPropertyOp5
 70
     1
102
RTVSPropertyOp6
 70
     1
102
RTVSPropertyOp7
 70
     1
102
RTVSPropertyOp8
 70
     1
102
RTVSPropertyOp9
 70
     1
102
RTVSPropertyOp10
 70
     1
102
RTVSPropertyOp11
 70
     1
102
RTVSPropertyOp12
 70
     1
102
RTVSPropertyOp13
 70
     1
102
RTVSPropertyOp14
 70
     1
102
RTVSPropertyOp15
 70
     1
102
RTVSPropertyOp16
 70
     1
102
RTVSPropertyOp17
 70
     1
102
RTVSPropertyOp18
 70
     1
102
RTVSPropertyOp19
 70
     1
102
RTVSPropertyOp20
 70
     1
102
RTVSPropertyOp21
 70
     1
102
RTVSPropertyOp22
 70
     1
102
RTVSPropertyOp23
 70
     1
102
RTVSPropertyOp24
 70
     1
102
RTVSPropertyOp25
 70
     1
102
RTVSPropertyOp26
 70
     1
102
RTVSPropertyOp27
 70
     1
102
RTVSPropertyOp28
 70
     1
102
RTVSPropertyOp29
 70
     1
102
RTVSPropertyOp30
 70
     1
102
RTVSPropertyOp31
 70
     1
102
RTVSPropertyOp32
 70
     1
  0
XRECORD
  5
227
102
{ACAD_REACTORS
330
226
102
}
330
226
100
AcDbXrecord
280
     1
102
RTVSPropertyOp0
 70
     1
102
RTVSPropertyOp1
 70
     1
102
RTVSPropertyOp2
 70
     1
102
RTVSPropertyOp3
 70
     1
102
RTVSPropertyOp4
 70
     1
102
RTVSPropertyOp5
 70
     1
102
RTVSPropertyOp6
 70
     1
102
RTVSPropertyOp7
 70
     1
102
RTVSPropertyOp8
 70
     1
102
RTVSPropertyOp9
 70
     1
102
RTVSPropertyOp10
 70
     1
102
RTVSPropertyOp11
 70
     1
102
RTVSPropertyOp12
 70
     1
102
RTVSPropertyOp13
 70
     1
102
RTVSPropertyOp14
 70
     1
102
RTVSPropertyOp15
 70
     1
102
RTVSPropertyOp16
 70
     1
102
RTVSPropertyOp17
 70
     1
102
RTVSPropertyOp18
 70
     1
102
RTVSPropertyOp19
 70
     1
102
RTVSPropertyOp20
 70
     1
102
RTVSPropertyOp21
 70
     1
102
RTVSPropertyOp22
 70
     1
102
RTVSPropertyOp23
 70
     1
102
RTVSPropertyOp24
 70
     1
102
RTVSPropertyOp25
 70
     1
102
RTVSPropertyOp26
 70
     1
102
RTVSPropertyOp27
 70
     1
102
RTVSPropertyOp28
 70
     1
102
RTVSPropertyOp29
 70
     1
102
RTVSPropertyOp30
 70
     1
102
RTVSPropertyOp31
 70
     1
102
RTVSPropertyOp32
 70
     1
  0
XRECORD
  5
21B
102
{ACAD_REACTORS
330
21A
102
}
330
21A
100
AcDbXrecord
280
     1
102
RTVSPropertyOp0
 70
     1
102
RTVSPropertyOp1
 70
     1
102
RTVSPropertyOp2
 70
     1
102
RTVSPropertyOp3
 70
     1
102
RTVSPropertyOp4
 70
     1
102
RTVSPropertyOp5
 70
     1
102
RTVSPropertyOp6
 70
     1
102
RTVSPropertyOp7
 70
     1
102
RTVSPropertyOp8
 70
     1
102
RTVSPropertyOp9
 70
     1
102
RTVSPropertyOp10
 70
     1
102
RTVSPropertyOp11
 70
     1
102
RTVSPropertyOp12
 70
     1
102
RTVSPropertyOp13
 70
     1
102
RTVSPropertyOp14
 70
     1
102
RTVSPropertyOp15
 70
     1
102
RTVSPropertyOp16
 70
     1
102
RTVSPropertyOp17
 70
     1
102
RTVSPropertyOp18
 70
     1
102
RTVSPropertyOp19
 70
     1
102
RTVSPropertyOp20
 70
     1
102
RTVSPropertyOp21
 70
     1
102
RTVSPropertyOp22
 70
     1
102
RTVSPropertyOp23
 70
     1
102
RTVSPropertyOp24
 70
     1
102
RTVSPropertyOp25
 70
     1
102
RTVSPropertyOp26
 70
     1
102
RTVSPropertyOp27
 70
     1
102
RTVSPropertyOp28
 70
     1
102
RTVSPropertyOp29
 70
     1
102
RTVSPropertyOp30
 70
     1
102
RTVSPropertyOp31
 70
     1
102
RTVSPropertyOp32
 70
     1
  0
XRECORD
  5
21D
102
{ACAD_REACTORS
330
21C
102
}
330
21C
100
AcDbXrecord
280
     1
102
RTVSPropertyOp0
 70
     1
102
RTVSPropertyOp1
 70
     1
102
RTVSPropertyOp2
 70
     1
102
RTVSPropertyOp3
 70
     1
102
RTVSPropertyOp4
 70
     1
102
RTVSPropertyOp5
 70
     1
102
RTVSPropertyOp6
 70
     1
102
RTVSPropertyOp7
 70
     1
102
RTVSPropertyOp8
 70
     1
102
RTVSPropertyOp9
 70
     1
102
RTVSPropertyOp10
 70
     1
102
RTVSPropertyOp11
 70
     1
102
RTVSPropertyOp12
 70
     1
102
RTVSPropertyOp13
 70
     1
102
RTVSPropertyOp14
 70
     1
102
RTVSPropertyOp15
 70
     1
102
RTVSPropertyOp16
 70
     1
102
RTVSPropertyOp17
 70
     1
102
RTVSPropertyOp18
 70
     1
102
RTVSPropertyOp19
 70
     1
102
RTVSPropertyOp20
 70
     1
102
RTVSPropertyOp21
 70
     1
102
RTVSPropertyOp22
 70
     1
102
RTVSPropertyOp23
 70
     1
102
RTVSPropertyOp24
 70
     1
102
RTVSPropertyOp25
 70
     1
102
RTVSPropertyOp26
 70
     1
102
RTVSPropertyOp27
 70
     1
102
RTVSPropertyOp28
 70
     1
102
RTVSPropertyOp29
 70
     1
102
RTVSPropertyOp30
 70
     1
102
RTVSPropertyOp31
 70
     1
102
RTVSPropertyOp32
 70
     1
  0
XRECORD
  5
225
102
{ACAD_REACTORS
330
224
102
}
330
224
100
AcDbXrecord
280
     1
102
RTVSPropertyOp0
 70
     1
102
RTVSPropertyOp1
 70
     1
102
RTVSPropertyOp2
 70
     1
102
RTVSPropertyOp3
 70
     1
102
RTVSPropertyOp4
 70
     1
102
RTVSPropertyOp5
 70
     1
102
RTVSPropertyOp6
 70
     1
102
RTVSPropertyOp7
 70
     1
102
RTVSPropertyOp8
 70
     1
102
RTVSPropertyOp9
 70
     1
102
RTVSPropertyOp10
 70
     1
102
RTVSPropertyOp11
 70
     1
102
RTVSPropertyOp12
 70
     1
102
RTVSPropertyOp13
 70
     1
102
RTVSPropertyOp14
 70
     1
102
RTVSPropertyOp15
 70
     1
102
RTVSPropertyOp16
 70
     1
102
RTVSPropertyOp17
 70
     1
102
RTVSPropertyOp18
 70
     1
102
RTVSPropertyOp19
 70
     1
102
RTVSPropertyOp20
 70
     1
102
RTVSPropertyOp21
 70
     1
102
RTVSPropertyOp22
 70
     1
102
RTVSPropertyOp23
 70
     1
102
RTVSPropertyOp24
 70
     1
102
RTVSPropertyOp25
 70
     1
102
RTVSPropertyOp26
 70
     1
102
RTVSPropertyOp27
 70
     1
102
RTVSPropertyOp28
 70
     1
102
RTVSPropertyOp29
 70
     1
102
RTVSPropertyOp30
 70
     1
102
RTVSPropertyOp31
 70
     1
102
RTVSPropertyOp32
 70
     1
  0
XRECORD
  5
209
102
{ACAD_REACTORS
330
208
102
}
330
208
100
AcDbXrecord
280
     1
102
RTVSPropertyOp0
 70
     1
102
RTVSPropertyOp1
 70
     1
102
RTVSPropertyOp2
 70
     1
102
RTVSPropertyOp3
 70
     1
102
RTVSPropertyOp4
 70
     1
102
RTVSPropertyOp5
 70
     1
102
RTVSPropertyOp6
 70
     1
102
RTVSPropertyOp7
 70
     1
102
RTVSPropertyOp8
 70
     1
102
RTVSPropertyOp9
 70
     1
102
RTVSPropertyOp10
 70
     1
102
RTVSPropertyOp11
 70
     1
102
RTVSPropertyOp12
 70
     1
102
RTVSPropertyOp13
 70
     1
102
RTVSPropertyOp14
 70
     1
102
RTVSPropertyOp15
 70
     1
102
RTVSPropertyOp16
 70
     1
102
RTVSPropertyOp17
 70
     1
102
RTVSPropertyOp18
 70
     1
102
RTVSPropertyOp19
 70
     1
102
RTVSPropertyOp20
 70
     1
102
RTVSPropertyOp21
 70
     1
102
RTVSPropertyOp22
 70
     1
102
RTVSPropertyOp23
 70
     1
102
RTVSPropertyOp24
 70
     1
102
RTVSPropertyOp25
 70
     1
102
RTVSPropertyOp26
 70
     1
102
RTVSPropertyOp27
 70
     1
102
RTVSPropertyOp28
 70
     1
102
RTVSPropertyOp29
 70
     1
102
RTVSPropertyOp30
 70
     1
102
RTVSPropertyOp31
 70
     1
102
RTVSPropertyOp32
 70
     1
  0
XRECORD
  5
20B
102
{ACAD_REACTORS
330
20A
102
}
330
20A
100
AcDbXrecord
280
     1
102
RTVSPropertyOp0
 70
     1
102
RTVSPropertyOp1
 70
     1
102
RTVSPropertyOp2
 70
     1
102
RTVSPropertyOp3
 70
     1
102
RTVSPropertyOp4
 70
     1
102
RTVSPropertyOp5
 70
     1
102
RTVSPropertyOp6
 70
     1
102
RTVSPropertyOp7
 70
     1
102
RTVSPropertyOp8
 70
     1
102
RTVSPropertyOp9
 70
     1
102
RTVSPropertyOp10
 70
     1
102
RTVSPropertyOp11
 70
     1
102
RTVSPropertyOp12
 70
     1
102
RTVSPropertyOp13
 70
     1
102
RTVSPropertyOp14
 70
     1
102
RTVSPropertyOp15
 70
     1
102
RTVSPropertyOp16
 70
     1
102
RTVSPropertyOp17
 70
     1
102
RTVSPropertyOp18
 70
     1
102
RTVSPropertyOp19
 70
     1
102
RTVSPropertyOp20
 70
     1
102
RTVSPropertyOp21
 70
     1
102
RTVSPropertyOp22
 70
     1
102
RTVSPropertyOp23
 70
     1
102
RTVSPropertyOp24
 70
     1
102
RTVSPropertyOp25
 70
     1
102
RTVSPropertyOp26
 70
     1
102
RTVSPropertyOp27
 70
     1
102
RTVSPropertyOp28
 70
     1
102
RTVSPropertyOp29
 70
     1
102
RTVSPropertyOp30
 70
     1
102
RTVSPropertyOp31
 70
     1
102
RTVSPropertyOp32
 70
     1
  0
XRECORD
  5
20D
102
{ACAD_REACTORS
330
20C
102
}
330
20C
100
AcDbXrecord
280
     1
102
RTVSPropertyOp0
 70
     1
102
RTVSPropertyOp1
 70
     1
102
RTVSPropertyOp2
 70
     1
102
RTVSPropertyOp3
 70
     1
102
RTVSPropertyOp4
 70
     1
102
RTVSPropertyOp5
 70
     1
102
RTVSPropertyOp6
 70
     1
102
RTVSPropertyOp7
 70
     1
102
RTVSPropertyOp8
 70
     1
102
RTVSPropertyOp9
 70
     1
102
RTVSPropertyOp10
 70
     1
102
RTVSPropertyOp11
 70
     1
102
RTVSPropertyOp12
 70
     1
102
RTVSPropertyOp13
 70
     1
102
RTVSPropertyOp14
 70
     1
102
RTVSPropertyOp15
 70
     1
102
RTVSPropertyOp16
 70
     1
102
RTVSPropertyOp17
 70
     1
102
RTVSPropertyOp18
 70
     1
102
RTVSPropertyOp19
 70
     1
102
RTVSPropertyOp20
 70
     1
102
RTVSPropertyOp21
 70
     1
102
RTVSPropertyOp22
 70
     1
102
RTVSPropertyOp23
 70
     1
102
RTVSPropertyOp24
 70
     1
102
RTVSPropertyOp25
 70
     1
102
RTVSPropertyOp26
 70
     1
102
RTVSPropertyOp27
 70
     1
102
RTVSPropertyOp28
 70
     1
102
RTVSPropertyOp29
 70
     1
102
RTVSPropertyOp30
 70
     1
102
RTVSPropertyOp31
 70
     1
102
RTVSPropertyOp32
 70
     1
  0
XRECORD
  5
20F
102
{ACAD_REACTORS
330
20E
102
}
330
20E
100
AcDbXrecord
280
     1
102
RTVSPropertyOp0
 70
     1
102
RTVSPropertyOp1
 70
     1
102
RTVSPropertyOp2
 70
     1
102
RTVSPropertyOp3
 70
     1
102
RTVSPropertyOp4
 70
     1
102
RTVSPropertyOp5
 70
     1
102
RTVSPropertyOp6
 70
     1
102
RTVSPropertyOp7
 70
     1
102
RTVSPropertyOp8
 70
     1
102
RTVSPropertyOp9
 70
     1
102
RTVSPropertyOp10
 70
     1
102
RTVSPropertyOp11
 70
     1
102
RTVSPropertyOp12
 70
     1
102
RTVSPropertyOp13
 70
     1
102
RTVSPropertyOp14
 70
     1
102
RTVSPropertyOp15
 70
     1
102
RTVSPropertyOp16
 70
     1
102
RTVSPropertyOp17
 70
     1
102
RTVSPropertyOp18
 70
     1
102
RTVSPropertyOp19
 70
     1
102
RTVSPropertyOp20
 70
     1
102
RTVSPropertyOp21
 70
     1
102
RTVSPropertyOp22
 70
     1
102
RTVSPropertyOp23
 70
     1
102
RTVSPropertyOp24
 70
     1
102
RTVSPropertyOp25
 70
     1
102
RTVSPropertyOp26
 70
     1
102
RTVSPropertyOp27
 70
     1
102
RTVSPropertyOp28
 70
     1
102
RTVSPropertyOp29
 70
     1
102
RTVSPropertyOp30
 70
     1
102
RTVSPropertyOp31
 70
     1
102
RTVSPropertyOp32
 70
     1
  0
XRECORD
  5
223
102
{ACAD_REACTORS
330
222
102
}
330
222
100
AcDbXrecord
280
     1
102
RTVSPropertyOp0
 70
     1
102
RTVSPropertyOp1
 70
     1
102
RTVSPropertyOp2
 70
     1
102
RTVSPropertyOp3
 70
     1
102
RTVSPropertyOp4
 70
     1
102
RTVSPropertyOp5
 70
     1
102
RTVSPropertyOp6
 70
     1
102
RTVSPropertyOp7
 70
     1
102
RTVSPropertyOp8
 70
     1
102
RTVSPropertyOp9
 70
     1
102
RTVSPropertyOp10
 70
     1
102
RTVSPropertyOp11
 70
     1
102
RTVSPropertyOp12
 70
     1
102
RTVSPropertyOp13
 70
     1
102
RTVSPropertyOp14
 70
     1
102
RTVSPropertyOp15
 70
     1
102
RTVSPropertyOp16
 70
     1
102
RTVSPropertyOp17
 70
     1
102
RTVSPropertyOp18
 70
     1
102
RTVSPropertyOp19
 70
     1
102
RTVSPropertyOp20
 70
     1
102
RTVSPropertyOp21
 70
     1
102
RTVSPropertyOp22
 70
     1
102
RTVSPropertyOp23
 70
     1
102
RTVSPropertyOp24
 70
     1
102
RTVSPropertyOp25
 70
     1
102
RTVSPropertyOp26
 70
     1
102
RTVSPropertyOp27
 70
     1
102
RTVSPropertyOp28
 70
     1
102
RTVSPropertyOp29
 70
     1
102
RTVSPropertyOp30
 70
     1
102
RTVSPropertyOp31
 70
     1
102
RTVSPropertyOp32
 70
     1
  0
XRECORD
  5
219
102
{ACAD_REACTORS
330
218
102
}
330
218
100
AcDbXrecord
280
     1
102
RTVSPropertyOp0
 70
     1
102
RTVSPropertyOp1
 70
     1
102
RTVSPropertyOp2
 70
     1
102
RTVSPropertyOp3
 70
     1
102
RTVSPropertyOp4
 70
     1
102
RTVSPropertyOp5
 70
     1
102
RTVSPropertyOp6
 70
     1
102
RTVSPropertyOp7
 70
     1
102
RTVSPropertyOp8
 70
     1
102
RTVSPropertyOp9
 70
     1
102
RTVSPropertyOp10
 70
     1
102
RTVSPropertyOp11
 70
     1
102
RTVSPropertyOp12
 70
     1
102
RTVSPropertyOp13
 70
     1
102
RTVSPropertyOp14
 70
     1
102
RTVSPropertyOp15
 70
     1
102
RTVSPropertyOp16
 70
     1
102
RTVSPropertyOp17
 70
     1
102
RTVSPropertyOp18
 70
     1
102
RTVSPropertyOp19
 70
     1
102
RTVSPropertyOp20
 70
     1
102
RTVSPropertyOp21
 70
     1
102
RTVSPropertyOp22
 70
     1
102
RTVSPropertyOp23
 70
     1
102
RTVSPropertyOp24
 70
     1
102
RTVSPropertyOp25
 70
     1
102
RTVSPropertyOp26
 70
     1
102
RTVSPropertyOp27
 70
     1
102
RTVSPropertyOp28
 70
     1
102
RTVSPropertyOp29
 70
     1
102
RTVSPropertyOp30
 70
     1
102
RTVSPropertyOp31
 70
     1
102
RTVSPropertyOp32
 70
     1
  0
XRECORD
  5
221
102
{ACAD_REACTORS
330
220
102
}
330
220
100
AcDbXrecord
280
     1
102
RTVSPropertyOp0
 70
     1
102
RTVSPropertyOp1
 70
     1
102
RTVSPropertyOp2
 70
     1
102
RTVSPropertyOp3
 70
     1
102
RTVSPropertyOp4
 70
     1
102
RTVSPropertyOp5
 70
     1
102
RTVSPropertyOp6
 70
     1
102
RTVSPropertyOp7
 70
     1
102
RTVSPropertyOp8
 70
     1
102
RTVSPropertyOp9
 70
     1
102
RTVSPropertyOp10
 70
     1
102
RTVSPropertyOp11
 70
     1
102
RTVSPropertyOp12
 70
     1
102
RTVSPropertyOp13
 70
     1
102
RTVSPropertyOp14
 70
     1
102
RTVSPropertyOp15
 70
     1
102
RTVSPropertyOp16
 70
     1
102
RTVSPropertyOp17
 70
     1
102
RTVSPropertyOp18
 70
     1
102
RTVSPropertyOp19
 70
     1
102
RTVSPropertyOp20
 70
     1
102
RTVSPropertyOp21
 70
     1
102
RTVSPropertyOp22
 70
     1
102
RTVSPropertyOp23
 70
     1
102
RTVSPropertyOp24
 70
     1
102
RTVSPropertyOp25
 70
     1
102
RTVSPropertyOp26
 70
     1
102
RTVSPropertyOp27
 70
     1
102
RTVSPropertyOp28
 70
     1
102
RTVSPropertyOp29
 70
     1
102
RTVSPropertyOp30
 70
     1
102
RTVSPropertyOp31
 70
     1
102
RTVSPropertyOp32
 70
     1
  0
ENDSEC
  0
EOF
