  0
SECTION
  2
HEADER
  9
$ACADVER
  1
AC1015
  9
$ACADMAINTVER
 70
     6
  9
$DWGCODEPAGE
  3
ANSI_932
  9
$INSBASE
 10
0.0
 20
0.0
 30
0.0
  9
$EXTMIN
 10
0.0
 20
0.0
 30
0.0
  9
$EXTMAX
 10
210.0000000000001
 20
297.0
 30
0.0
  9
$LIMMIN
 10
0.0
 20
0.0
  9
$LIMMAX
 10
12.0
 20
9.0
  9
$ORTHOMODE
 70
     0
  9
$REGENMODE
 70
     1
  9
$FILLMODE
 70
     1
  9
$QTEXTMODE
 70
     0
  9
$MIRRTEXT
 70
     1
  9
$LTSCALE
 40
1.0
  9
$ATTMODE
 70
     1
  9
$TEXTSIZE
 40
0.2
  9
$TRACEWID
 40
0.05
  9
$TEXTSTYLE
  7
Standard
  9
$CLAYER
  8
0
  9
$CELTYPE
  6
ByLayer
  9
$CECOLOR
 62
   256
  9
$CELTSCALE
 40
1.0
  9
$DISPSILH
 70
     0
  9
$DIMSCALE
 40
1.0
  9
$DIMASZ
 40
0.18
  9
$DIMEXO
 40
0.0625
  9
$DIMDLI
 40
0.38
  9
$DIMRND
 40
0.0
  9
$DIMDLE
 40
0.0
  9
$DIMEXE
 40
0.18
  9
$DIMTP
 40
0.0
  9
$DIMTM
 40
0.0
  9
$DIMTXT
 40
0.18
  9
$DIMCEN
 40
0.09
  9
$DIMTSZ
 40
0.0
  9
$DIMTOL
 70
     0
  9
$DIMLIM
 70
     0
  9
$DIMTIH
 70
     1
  9
$DIMTOH
 70
     1
  9
$DIMSE1
 70
     0
  9
$DIMSE2
 70
     0
  9
$DIMTAD
 70
     0
  9
$DIMZIN
 70
     0
  9
$DIMBLK
  1

  9
$DIMASO
 70
     1
  9
$DIMSHO
 70
     1
  9
$DIMPOST
  1

  9
$DIMAPOST
  1

  9
$DIMALT
 70
     0
  9
$DIMALTD
 70
     2
  9
$DIMALTF
 40
25.4
  9
$DIMLFAC
 40
1.0
  9
$DIMTOFL
 70
     0
  9
$DIMTVP
 40
0.0
  9
$DIMTIX
 70
     0
  9
$DIMSOXD
 70
     0
  9
$DIMSAH
 70
     0
  9
$DIMBLK1
  1

  9
$DIMBLK2
  1

  9
$DIMSTYLE
  2
Standard
  9
$DIMCLRD
 70
     0
  9
$DIMCLRE
 70
     0
  9
$DIMCLRT
 70
     0
  9
$DIMTFAC
 40
1.0
  9
$DIMGAP
 40
0.09
  9
$DIMJUST
 70
     0
  9
$DIMSD1
 70
     0
  9
$DIMSD2
 70
     0
  9
$DIMTOLJ
 70
     1
  9
$DIMTZIN
 70
     0
  9
$DIMALTZ
 70
     0
  9
$DIMALTTZ
 70
     0
  9
$DIMUPT
 70
     0
  9
$DIMDEC
 70
     4
  9
$DIMTDEC
 70
     4
  9
$DIMALTU
 70
     2
  9
$DIMALTTD
 70
     2
  9
$DIMTXSTY
  7
Standard
  9
$DIMAUNIT
 70
     0
  9
$DIMADEC
 70
     0
  9
$DIMALTRND
 40
0.0
  9
$DIMAZIN
 70
     0
  9
$DIMDSEP
 70
    46
  9
$DIMATFIT
 70
     3
  9
$DIMFRAC
 70
     0
  9
$DIMLDRBLK
  1

  9
$DIMLUNIT
 70
     2
  9
$DIMLWD
 70
    -2
  9
$DIMLWE
 70
    -2
  9
$DIMTMOVE
 70
     0
  9
$LUNITS
 70
     2
  9
$LUPREC
 70
     4
  9
$SKETCHINC
 40
0.1
  9
$FILLETRAD
 40
0.5
  9
$AUNITS
 70
     0
  9
$AUPREC
 70
     0
  9
$MENU
  1
.
  9
$ELEVATION
 40
0.0
  9
$PELEVATION
 40
0.0
  9
$THICKNESS
 40
0.0
  9
$LIMCHECK
 70
     0
  9
$CHAMFERA
 40
0.5
  9
$CHAMFERB
 40
0.5
  9
$CHAMFERC
 40
1.0
  9
$CHAMFERD
 40
0.0
  9
$SKPOLY
 70
     0
  9
$TDCREATE
 40
2459811.483563484
  9
$TDUCREATE
 40
2459811.108563484
  9
$TDUPDATE
 40
2459811.483564745
  9
$TDUUPDATE
 40
2459811.108564745
  9
$TDINDWG
 40
0.0000000116
  9
$TDUSRTIMER
 40
0.0000000116
  9
$USRTIMER
 70
     1
  9
$ANGBASE
 50
0.0
  9
$ANGDIR
 70
     0
  9
$PDMODE
 70
     0
  9
$PDSIZE
 40
0.0
  9
$PLINEWID
 40
0.0
  9
$SPLFRAME
 70
     0
  9
$SPLINETYPE
 70
     6
  9
$SPLINESEGS
 70
     8
  9
$HANDSEED
  5
1CC
  9
$SURFTAB1
 70
     6
  9
$SURFTAB2
 70
     6
  9
$SURFTYPE
 70
     6
  9
$SURFU
 70
     6
  9
$SURFV
 70
     6
  9
$UCSBASE
  2

  9
$UCSNAME
  2

  9
$UCSORG
 10
0.0
 20
0.0
 30
0.0
  9
$UCSXDIR
 10
1.0
 20
0.0
 30
0.0
  9
$UCSYDIR
 10
0.0
 20
1.0
 30
0.0
  9
$UCSORTHOREF
  2

  9
$UCSORTHOVIEW
 70
     0
  9
$UCSORGTOP
 10
0.0
 20
0.0
 30
0.0
  9
$UCSORGBOTTOM
 10
0.0
 20
0.0
 30
0.0
  9
$UCSORGLEFT
 10
0.0
 20
0.0
 30
0.0
  9
$UCSORGRIGHT
 10
0.0
 20
0.0
 30
0.0
  9
$UCSORGFRONT
 10
0.0
 20
0.0
 30
0.0
  9
$UCSORGBACK
 10
0.0
 20
0.0
 30
0.0
  9
$PUCSBASE
  2

  9
$PUCSNAME
  2

  9
$PUCSORG
 10
0.0
 20
0.0
 30
0.0
  9
$PUCSXDIR
 10
1.0
 20
0.0
 30
0.0
  9
$PUCSYDIR
 10
0.0
 20
1.0
 30
0.0
  9
$PUCSORTHOREF
  2

  9
$PUCSORTHOVIEW
 70
     0
  9
$PUCSORGTOP
 10
0.0
 20
0.0
 30
0.0
  9
$PUCSORGBOTTOM
 10
0.0
 20
0.0
 30
0.0
  9
$PUCSORGLEFT
 10
0.0
 20
0.0
 30
0.0
  9
$PUCSORGRIGHT
 10
0.0
 20
0.0
 30
0.0
  9
$PUCSORGFRONT
 10
0.0
 20
0.0
 30
0.0
  9
$PUCSORGBACK
 10
0.0
 20
0.0
 30
0.0
  9
$USERI1
 70
     0
  9
$USERI2
 70
     0
  9
$USERI3
 70
     0
  9
$USERI4
 70
     0
  9
$USERI5
 70
     0
  9
$USERR1
 40
18.1
  9
$USERR2
 40
0.0
  9
$USERR3
 40
0.0
  9
$USERR4
 40
0.0
  9
$USERR5
 40
0.0
  9
$WORLDVIEW
 70
     1
  9
$SHADEDGE
 70
     3
  9
$SHADEDIF
 70
    70
  9
$TILEMODE
 70
     1
  9
$MAXACTVP
 70
    64
  9
$PINSBASE
 10
0.0
 20
0.0
 30
0.0
  9
$PLIMCHECK
 70
     0
  9
$PEXTMIN
 10
1.00000000000000E+20
 20
1.00000000000000E+20
 30
1.00000000000000E+20
  9
$PEXTMAX
 10
-1.00000000000000E+20
 20
-1.00000000000000E+20
 30
-1.00000000000000E+20
  9
$PLIMMIN
 10
0.0
 20
0.0
  9
$PLIMMAX
 10
12.0
 20
9.0
  9
$UNITMODE
 70
     0
  9
$VISRETAIN
 70
     1
  9
$PLINEGEN
 70
     0
  9
$PSLTSCALE
 70
     1
  9
$TREEDEPTH
 70
  3020
  9
$CMLSTYLE
  2
Standard
  9
$CMLJUST
 70
     0
  9
$CMLSCALE
 40
1.0
  9
$PROXYGRAPHICS
 70
     1
  9
$MEASUREMENT
 70
     1
  9
$CELWEIGHT
370
    -1
  9
$ENDCAPS
280
     0
  9
$JOINSTYLE
280
     0
  9
$LWDISPLAY
290
     0
  9
$INSUNITS
 70
     4
  9
$HYPERLINKBASE
  1

  9
$STYLESHEET
  1

  9
$XEDIT
290
     1
  9
$CEPSNTYPE
380
     0
  9
$PSTYLEMODE
290
     1
  9
$FINGERPRINTGUID
  2
{B1059E11-EA58-4AF3-A0A5-A99E4F636430}
  9
$VERSIONGUID
  2
{FAEB1C32-E019-11D5-929B-00C0DF256EC4}
  9
$EXTNAMES
290
     1
  9
$PSVPSCALE
 40
0.0
  9
$OLESTARTUP
290
     0
  0
ENDSEC
  0
SECTION
  2
CLASSES
  0
CLASS
  1
ACDBDICTIONARYWDFLT
  2
AcDbDictionaryWithDefault
  3
ObjectDBX Classes
 90
        0
280
     0
281
     0
  0
CLASS
  1
VISUALSTYLE
  2
AcDbVisualStyle
  3
ObjectDBX Classes
 90
     4095
280
     0
281
     0
  0
CLASS
  1
MATERIAL
  2
AcDbMaterial
  3
ObjectDBX Classes
 90
     1153
280
     0
281
     0
  0
CLASS
  1
DICTIONARYVAR
  2
AcDbDictionaryVar
  3
ObjectDBX Classes
 90
        0
280
     0
281
     0
  0
CLASS
  1
ACDBPLACEHOLDER
  2
AcDbPlaceHolder
  3
ObjectDBX Classes
 90
        0
280
     0
281
     0
  0
CLASS
  1
LAYOUT
  2
AcDbLayout
  3
ObjectDBX Classes
 90
        0
280
     0
281
     0
  0
ENDSEC
  0
SECTION
  2
TABLES
  0
TABLE
  2
VPORT
  5
8
330
0
100
AcDbSymbolTable
 70
     1
  0
VPORT
  5
29
330
8
100
AcDbSymbolTableRecord
100
AcDbViewportTableRecord
  2
*Active
 70
     0
 10
0.0
 20
0.0
 11
1.0
 21
1.0
 12
105.0000000000001
 22
148.5
 13
0.0
 23
0.0
 14
0.5
 24
0.5
 15
0.5
 25
0.5
 16
0.0
 26
0.0
 36
1.0
 17
0.0
 27
0.0
 37
0.0
 40
326.7
 41
1.60267857142857
 42
50.0
 43
0.0
 44
0.0
 50
0.0
 51
0.0
 71
     0
 72
   100
 73
     1
 74
     3
 75
     0
 76
     0
 77
     0
 78
     0
281
     0
 65
     1
110
0.0
120
0.0
130
0.0
111
1.0
121
0.0
131
0.0
112
0.0
122
1.0
132
0.0
 79
     0
146
0.0
  0
ENDTAB
  0
TABLE
  2
LTYPE
  5
5
330
0
100
AcDbSymbolTable
 70
     8
  0
LTYPE
  5
14
330
5
100
AcDbSymbolTableRecord
100
AcDbLinetypeTableRecord
  2
ByBlock
 70
     0
  3

 72
    65
 73
     0
 40
0.0
  0
LTYPE
  5
15
330
5
100
AcDbSymbolTableRecord
100
AcDbLinetypeTableRecord
  2
ByLayer
 70
     0
  3

 72
    65
 73
     0
 40
0.0
  0
LTYPE
  5
16
330
5
100
AcDbSymbolTableRecord
100
AcDbLinetypeTableRecord
  2
Continuous
 70
     0
  3
Solid line
 72
    65
 73
     0
 40
0.0
  0
LTYPE
  5
3F
330
5
100
AcDbSymbolTableRecord
100
AcDbLinetypeTableRecord
  2
DASHED
 70
     0
  3
Dashed
 72
    65
 73
     2
 40
15.0
 49
7.0
 74
     0
 49
-8.0
 74
     0
  0
LTYPE
  5
40
330
5
100
AcDbSymbolTableRecord
100
AcDbLinetypeTableRecord
  2
DOTTED
 70
     0
  3
Dotted
 72
    65
 73
     2
 40
1.0
 49
0.0
 74
     0
 49
-1.0
 74
     0
  0
LTYPE
  5
41
330
5
100
AcDbSymbolTableRecord
100
AcDbLinetypeTableRecord
  2
DOT_CENTER
 70
     0
  3
Dot_Center
 72
    65
 73
     4
 40
14.0
 49
12.0
 74
     0
 49
-1.0
 74
     0
 49
0.0
 74
     0
 49
-1.0
 74
     0
  0
LTYPE
  5
42
330
5
100
AcDbSymbolTableRecord
100
AcDbLinetypeTableRecord
  2
LONG_DASHED
 70
     0
  3
Long_Dashed
 72
    65
 73
     2
 40
15.0
 49
10.0
 74
     0
 49
-5.0
 74
     0
  0
LTYPE
  5
43
330
5
100
AcDbSymbolTableRecord
100
AcDbLinetypeTableRecord
  2
DASH_CENTER
 70
     0
  3
Dash_Center
 72
    65
 73
     4
 40
14.0
 49
11.0
 74
     0
 49
-1.0
 74
     0
 49
1.0
 74
     0
 49
-1.0
 74
     0
  0
LTYPE
  5
44
330
5
100
AcDbSymbolTableRecord
100
AcDbLinetypeTableRecord
  2
PHANTOM
 70
     0
  3
Phantom
 72
    65
 73
     6
 40
13.0
 49
10.0
 74
     0
 49
-1.0
 74
     0
 49
0.0
 74
     0
 49
-1.0
 74
     0
 49
0.0
 74
     0
 49
-1.0
 74
     0
  0
LTYPE
  5
45
330
5
100
AcDbSymbolTableRecord
100
AcDbLinetypeTableRecord
  2
CENTER_DASH_DASH
 70
     0
  3
Center_Dash_Dash
 72
    65
 73
     6
 40
14.0
 49
9.0
 74
     0
 49
-1.0
 74
     0
 49
1.0
 74
     0
 49
-1.0
 74
     0
 49
1.0
 74
     0
 49
-1.0
 74
     0
  0
ENDTAB
  0
TABLE
  2
LAYER
  5
2
330
0
100
AcDbSymbolTable
 70
     3
  0
LAYER
  5
10
330
2
100
AcDbSymbolTableRecord
100
AcDbLayerTableRecord
  2
0
 70
     0
 62
     7
  6
Continuous
370
    -3
390
F
  0
LAYER
  5
46
330
2
100
AcDbSymbolTableRecord
100
AcDbLayerTableRecord
  2
1
 70
     0
 62
     7
  6
Continuous
370
    -3
390
F
  0
LAYER
  5
47
330
2
100
AcDbSymbolTableRecord
100
AcDbLayerTableRecord
  2
_U_30EC_U_30A4_U_30E4_U_30FC_1
 70
     0
 62
     7
  6
Continuous
370
    -3
390
F
  0
ENDTAB
  0
TABLE
  2
STYLE
  5
3
330
0
100
AcDbSymbolTable
 70
     3
  0
STYLE
  5
11
330
3
100
AcDbSymbolTableRecord
100
AcDbTextStyleTableRecord
  2
Standard
 70
     0
 40
0.0
 41
1.0
 50
0.0
 71
     0
 42
0.2
  3
txt
  4

  0
STYLE
  5
CA
330
3
100
AcDbSymbolTableRecord
100
AcDbTextStyleTableRecord
  2
CONVERTER_11
 70
     0
 40
0.0
 41
0.89
 50
0.0
 71
     0
 42
0.2
  3
MS Mincho.ttf
  4

1001
ACAD
1000
MS Mincho
1071
    32785
  0
STYLE
  5
159
330
3
100
AcDbSymbolTableRecord
100
AcDbTextStyleTableRecord
  2
CONVERTER_12
 70
     0
 40
0.0
 41
0.9
 50
0.0
 71
     0
 42
0.2
  3
txt.shx
  4

  0
ENDTAB
  0
TABLE
  2
VIEW
  5
6
330
0
100
AcDbSymbolTable
 70
     0
  0
ENDTAB
  0
TABLE
  2
UCS
  5
7
330
0
100
AcDbSymbolTable
 70
     0
  0
ENDTAB
  0
TABLE
  2
APPID
  5
9
330
0
100
AcDbSymbolTable
 70
     1
  0
APPID
  5
12
330
9
100
AcDbSymbolTableRecord
100
AcDbRegAppTableRecord
  2
ACAD
 70
     0
  0
ENDTAB
  0
TABLE
  2
DIMSTYLE
  5
A
330
0
100
AcDbSymbolTable
 70
     6
100
AcDbDimStyleTable
  0
DIMSTYLE
105
27
330
A
100
AcDbSymbolTableRecord
100
AcDbDimStyleTableRecord
  2
Standard
 70
     0
178
     0
340
11
  0
DIMSTYLE
105
171
102
{ACAD_REACTORS
330
172
102
}
330
A
100
AcDbSymbolTableRecord
100
AcDbDimStyleTableRecord
  2
ME10_DIM_10
 70
     0
 41
3.5
 42
0.0
 44
1.0
 73
     0
 74
     0
 77
     1
 78
     8
140
3.5
147
1.0
172
     1
173
     1
174
     1
175
     1
176
     2
177
     2
271
     2
178
     7
271
     2
340
159
  0
DIMSTYLE
105
17C
102
{ACAD_REACTORS
330
17D
102
}
330
A
100
AcDbSymbolTableRecord
100
AcDbDimStyleTableRecord
  2
ME10_DIM_11
 70
     0
  3
{\Fgdt;n}<>
 41
3.5
 42
0.0
 44
1.0
 73
     0
 74
     0
 77
     1
 78
     8
140
3.5
147
1.0
172
     1
173
     1
174
     1
175
     1
176
     2
177
     2
271
     2
178
     7
271
     2
340
159
  0
DIMSTYLE
105
187
102
{ACAD_REACTORS
330
188
102
}
330
A
100
AcDbSymbolTableRecord
100
AcDbDimStyleTableRecord
  2
ME10_DIM_12
 70
     0
  3
{\Fgdt;n}<>
 41
3.5
 42
0.0
 44
1.0
 73
     0
 74
     0
 77
     1
 78
     8
140
3.5
147
1.0
172
     1
173
     1
174
     1
175
     1
176
     2
177
     2
271
     2
178
     7
271
     2
340
159
  0
DIMSTYLE
105
192
102
{ACAD_REACTORS
330
193
102
}
330
A
100
AcDbSymbolTableRecord
100
AcDbDimStyleTableRecord
  2
ME10_DIM_13
 70
     0
  3
{\Fgdt;n}<>
 41
3.5
 42
0.0
 44
1.0
 77
     1
 78
     8
140
3.5
147
1.0
172
     1
173
     1
174
     1
175
     1
176
     2
177
     2
271
     2
178
     7
271
     2
340
159
  0
DIMSTYLE
105
19F
102
{ACAD_REACTORS
330
1A0
102
}
330
A
100
AcDbSymbolTableRecord
100
AcDbDimStyleTableRecord
  2
ME10_DIM_14
 70
     0
  3
{\Fgdt;n}<>
 41
3.5
 42
0.0
 44
1.0
 73
     0
 74
     0
 77
     1
 78
     8
140
3.5
147
1.0
172
     1
173
     1
174
     1
175
     1
176
     2
177
     2
271
     2
178
     7
271
     2
340
159
  0
ENDTAB
  0
TABLE
  2
BLOCK_RECORD
  5
1
330
0
100
AcDbSymbolTable
 70
    14
  0
BLOCK_RECORD
  5
1F
330
1
100
AcDbSymbolTableRecord
100
AcDbBlockTableRecord
  2
*Model_Space
340
22
  0
BLOCK_RECORD
  5
1B
330
1
100
AcDbSymbolTableRecord
100
AcDbBlockTableRecord
  2
*Paper_Space
340
1E
  0
BLOCK_RECORD
  5
23
330
1
100
AcDbSymbolTableRecord
100
AcDbBlockTableRecord
  2
*Paper_Space0
340
26
  0
BLOCK_RECORD
  5
48
330
1
100
AcDbSymbolTableRecord
100
AcDbBlockTableRecord
  2
開示A4
340
0
102
{BLKREFS
331
4C
102
}
  0
BLOCK_RECORD
  5
4B
330
1
100
AcDbSymbolTableRecord
100
AcDbBlockTableRecord
  2
開示A4枠
340
0
102
{BLKREFS
331
61
102
}
  0
BLOCK_RECORD
  5
4F
330
1
100
AcDbSymbolTableRecord
100
AcDbBlockTableRecord
  2
R44-1
340
0
102
{BLKREFS
331
62
102
}
  0
BLOCK_RECORD
  5
52
330
1
100
AcDbSymbolTableRecord
100
AcDbBlockTableRecord
  2
R44-2
340
0
102
{BLKREFS
331
63
102
}
  0
BLOCK_RECORD
  5
55
330
1
100
AcDbSymbolTableRecord
100
AcDbBlockTableRecord
  2
R44-3__1
340
0
102
{BLKREFS
331
64
102
}
  0
BLOCK_RECORD
  5
58
330
1
100
AcDbSymbolTableRecord
100
AcDbBlockTableRecord
  2
R44-4
340
0
102
{BLKREFS
331
65
102
}
  0
BLOCK_RECORD
  5
5B
330
1
100
AcDbSymbolTableRecord
100
AcDbBlockTableRecord
  2
R44-3__2
340
0
102
{BLKREFS
331
66
102
}
  0
BLOCK_RECORD
  5
5E
330
1
100
AcDbSymbolTableRecord
100
AcDbBlockTableRecord
  2
R44-5
340
0
102
{BLKREFS
331
67
102
}
  0
BLOCK_RECORD
  5
168
330
1
100
AcDbSymbolTableRecord
100
AcDbBlockTableRecord
  2
*D9
340
0
  0
BLOCK_RECORD
  5
173
330
1
100
AcDbSymbolTableRecord
100
AcDbBlockTableRecord
  2
*D10
340
0
  0
BLOCK_RECORD
  5
17E
330
1
100
AcDbSymbolTableRecord
100
AcDbBlockTableRecord
  2
*D11
340
0
  0
BLOCK_RECORD
  5
189
330
1
100
AcDbSymbolTableRecord
100
AcDbBlockTableRecord
  2
*D12
340
0
  0
BLOCK_RECORD
  5
194
330
1
100
AcDbSymbolTableRecord
100
AcDbBlockTableRecord
  2
*D13
340
0
  0
ENDTAB
  0
ENDSEC
  0
SECTION
  2
BLOCKS
  0
BLOCK
  5
20
330
1F
100
AcDbEntity
  8
0
100
AcDbBlockBegin
  2
*Model_Space
 70
     0
 10
0.0
 20
0.0
 30
0.0
  3
*Model_Space
  1

  0
ENDBLK
  5
21
330
1F
100
AcDbEntity
  8
0
100
AcDbBlockEnd
  0
BLOCK
  5
1C
330
1B
100
AcDbEntity
 67
     1
  8
0
100
AcDbBlockBegin
  2
*Paper_Space
 70
     0
 10
0.0
 20
0.0
 30
0.0
  3
*Paper_Space
  1

  0
ENDBLK
  5
1D
330
1B
100
AcDbEntity
 67
     1
  8
0
100
AcDbBlockEnd
  0
BLOCK
  5
24
330
23
100
AcDbEntity
  8
0
100
AcDbBlockBegin
  2
*Paper_Space0
 70
     0
 10
0.0
 20
0.0
 30
0.0
  3
*Paper_Space0
  1

  0
ENDBLK
  5
25
330
23
100
AcDbEntity
  8
0
100
AcDbBlockEnd
  0
BLOCK
  5
49
330
48
100
AcDbEntity
  8
0
100
AcDbBlockBegin
  2
開示A4
 70
     0
 10
0.0
 20
0.0
 30
0.0
  3
開示A4
  1

  0
POINT
  5
68
330
48
100
AcDbEntity
  8
1
 62
     4
100
AcDbPoint
 10
34.00000000000004
 20
34.0
 30
0.0
  0
POINT
  5
69
330
48
100
AcDbEntity
  8
1
 62
     4
100
AcDbPoint
 10
57.00000000000004
 20
12.25
 30
0.0
  0
POINT
  5
6A
330
48
100
AcDbEntity
  8
1
 62
     4
100
AcDbPoint
 10
57.00000000000004
 20
20.75
 30
0.0
  0
POINT
  5
6B
330
48
100
AcDbEntity
  8
1
 62
     4
100
AcDbPoint
 10
57.00000000000004
 20
24.75
 30
0.0
  0
POINT
  5
6C
330
48
100
AcDbEntity
  8
1
 62
     4
100
AcDbPoint
 10
57.00000000000004
 20
16.25
 30
0.0
  0
POINT
  5
6D
330
48
100
AcDbEntity
  8
1
 62
     4
100
AcDbPoint
 10
157.5000000000001
 20
19.0
 30
0.0
  0
POINT
  5
6E
330
48
100
AcDbEntity
  8
1
 62
     4
100
AcDbPoint
 10
47.50000000000004
 20
282.0000000000003
 30
0.0
  0
POINT
  5
6F
330
48
100
AcDbEntity
  8
1
 62
     4
100
AcDbPoint
 10
57.00000000000004
 20
22.75
 30
0.0
  0
POINT
  5
70
330
48
100
AcDbEntity
  8
1
 62
     4
100
AcDbPoint
 10
57.00000000000004
 20
14.25
 30
0.0
  0
POINT
  5
71
330
48
100
AcDbEntity
  8
1
 62
     4
100
AcDbPoint
 10
157.5000000000001
 20
12.5
 30
0.0
  0
POINT
  5
72
330
48
100
AcDbEntity
  8
1
 62
     4
100
AcDbPoint
 10
163.2500000000001
 20
12.5
 30
0.0
  0
POINT
  5
73
330
48
100
AcDbEntity
  8
1
 62
     4
100
AcDbPoint
 10
151.7500000000001
 20
12.5
 30
0.0
  0
POINT
  5
74
330
48
100
AcDbEntity
  8
1
 62
     4
100
AcDbPoint
 10
134.7500000000001
 20
12.5
 30
0.0
  0
POINT
  5
75
330
48
100
AcDbEntity
  8
1
 62
     4
100
AcDbPoint
 10
146.2500000000001
 20
12.5
 30
0.0
  0
POINT
  5
76
330
48
100
AcDbEntity
  8
1
 62
     4
100
AcDbPoint
 10
140.5000000000001
 20
12.5
 30
0.0
  0
POINT
  5
77
330
48
100
AcDbEntity
  8
1
 62
     4
100
AcDbPoint
 10
140.5000000000001
 20
19.0
 30
0.0
  0
POINT
  5
78
330
48
100
AcDbEntity
  8
1
 62
     4
100
AcDbPoint
 10
117.75
 20
12.5
 30
0.0
  0
POINT
  5
79
330
48
100
AcDbEntity
  8
1
 62
     4
100
AcDbPoint
 10
129.2500000000001
 20
12.5
 30
0.0
  0
POINT
  5
7A
330
48
100
AcDbEntity
  8
1
 62
     4
100
AcDbPoint
 10
123.5
 20
12.5
 30
0.0
  0
POINT
  5
7B
330
48
100
AcDbEntity
  8
1
 62
     4
100
AcDbPoint
 10
123.5
 20
19.0
 30
0.0
  0
POINT
  5
7C
330
48
100
AcDbEntity
  8
1
 62
     4
100
AcDbPoint
 10
100.75
 20
12.5
 30
0.0
  0
POINT
  5
7D
330
48
100
AcDbEntity
  8
1
 62
     4
100
AcDbPoint
 10
112.25
 20
12.5
 30
0.0
  0
POINT
  5
7E
330
48
100
AcDbEntity
  8
1
 62
     4
100
AcDbPoint
 10
106.5
 20
12.5
 30
0.0
  0
POINT
  5
7F
330
48
100
AcDbEntity
  8
1
 62
     4
100
AcDbPoint
 10
106.5
 20
19.0
 30
0.0
  0
POINT
  5
80
330
48
100
AcDbEntity
  8
1
 62
     4
100
AcDbPoint
 10
85.25000000000004
 20
17.0
 30
0.0
  0
POINT
  5
81
330
48
100
AcDbEntity
  8
1
 62
     4
100
AcDbPoint
 10
93.75000000000004
 20
17.0
 30
0.0
  0
POINT
  5
82
330
48
100
AcDbEntity
  8
1
 62
     4
100
AcDbPoint
 10
183.0000000000001
 20
15.0
 30
0.0
  0
LINE
  5
83
330
48
100
AcDbEntity
  8
1
  6
Continuous
 62
     2
100
AcDbLine
 10
81.00000000000004
 20
27.0
 30
0.0
 11
81.00000000000004
 21
10.0
 31
0.0
  0
LINE
  5
84
330
48
100
AcDbEntity
  8
1
  6
DOT_CENTER
 62
     2
100
AcDbLine
 10
187.0000000000001
 20
26.5
 30
0.0
 11
187.0000000000001
 21
20.5
 31
0.0
  0
LINE
  5
85
330
48
100
AcDbEntity
  8
1
  6
DOT_CENTER
 62
     2
100
AcDbLine
 10
184.0000000000001
 20
23.5
 30
0.0
 11
197.0000000000001
 21
23.5
 31
0.0
  0
LINE
  5
86
330
48
100
AcDbEntity
  8
1
  6
Continuous
 62
     7
100
AcDbLine
 10
196.0000000000001
 20
21.5
 30
0.0
 11
191.0000000000001
 21
22.29999999999998
 31
0.0
  0
LINE
  5
87
330
48
100
AcDbEntity
  8
1
  6
Continuous
 62
     7
100
AcDbLine
 10
196.0000000000001
 20
25.5
 30
0.0
 11
196.0000000000001
 21
21.5
 31
0.0
  0
LINE
  5
88
330
48
100
AcDbEntity
  8
1
  6
Continuous
 62
     7
100
AcDbLine
 10
191.0000000000001
 20
24.69999999999999
 30
0.0
 11
196.0000000000001
 21
25.5
 31
0.0
  0
LINE
  5
89
330
48
100
AcDbEntity
  8
1
  6
Continuous
 62
     7
100
AcDbLine
 10
191.0000000000001
 20
24.69999999999999
 30
0.0
 11
191.0000000000001
 21
22.29999999999998
 31
0.0
  0
LINE
  5
8A
330
48
100
AcDbEntity
  8
1
  6
Continuous
 62
     2
100
AcDbLine
 10
33.00000000000004
 20
27.0
 30
0.0
 11
33.00000000000004
 21
10.0
 31
0.0
  0
LINE
  5
8B
330
48
100
AcDbEntity
  8
1
  6
Continuous
 62
     2
100
AcDbLine
 10
25.00000000000004
 20
18.5
 30
0.0
 11
81.00000000000004
 21
18.5
 31
0.0
  0
LINE
  5
8C
330
48
100
AcDbEntity
  8
1
  6
Continuous
 62
     7
100
AcDbLine
 10
200.0000000000001
 20
287.0000000000003
 30
0.0
 11
105.0
 21
287.0000000000003
 31
0.0
  0
LINE
  5
8D
330
48
100
AcDbEntity
  8
1
  6
Continuous
 62
     7
100
AcDbLine
 10
200.0000000000001
 20
10.0
 30
0.0
 11
200.0000000000001
 21
148.5
 31
0.0
  0
LINE
  5
8E
330
48
100
AcDbEntity
  8
1
  6
Continuous
 62
     7
100
AcDbLine
 10
25.00000000000004
 20
10.0
 30
0.0
 11
105.0
 21
10.0
 31
0.0
  0
LINE
  5
8F
330
48
100
AcDbEntity
  8
1
  6
PHANTOM
 62
     4
100
AcDbLine
 10
0.0
 20
297.0
 30
0.0
 11
0.0
 21
0.0
 31
0.0
  0
LINE
  5
90
330
48
100
AcDbEntity
  8
1
  6
PHANTOM
 62
     4
100
AcDbLine
 10
210.0000000000001
 20
297.0
 30
0.0
 11
0.0
 21
297.0
 31
0.0
  0
LINE
  5
91
330
48
100
AcDbEntity
  8
1
  6
PHANTOM
 62
     4
100
AcDbLine
 10
210.0000000000001
 20
0.0
 30
0.0
 11
210.0000000000001
 21
297.0
 31
0.0
  0
LINE
  5
92
330
48
100
AcDbEntity
  8
1
  6
PHANTOM
 62
     4
100
AcDbLine
 10
0.0
 20
0.0
 30
0.0
 11
210.0000000000001
 21
0.0
 31
0.0
  0
LINE
  5
93
330
48
100
AcDbEntity
  8
1
  6
Continuous
 62
     7
100
AcDbLine
 10
25.00000000000004
 20
41.0
 30
0.0
 11
200.0000000000001
 21
41.0
 31
0.0
  0
LINE
  5
94
330
48
100
AcDbEntity
  8
1
  6
Continuous
 62
     7
100
AcDbLine
 10
200.0000000000001
 20
27.0
 30
0.0
 11
25.00000000000004
 21
27.0
 31
0.0
  0
LINE
  5
95
330
48
100
AcDbEntity
  8
1
  6
Continuous
 62
     2
100
AcDbLine
 10
33.00000000000004
 20
41.0
 30
0.0
 11
33.00000000000004
 21
27.0
 31
0.0
  0
LINE
  5
96
330
48
100
AcDbEntity
  8
1
  6
Continuous
 62
     2
100
AcDbLine
 10
55.00000000000004
 20
287.0000000000003
 30
0.0
 11
55.00000000000004
 21
277.0000000000003
 31
0.0
  0
LINE
  5
97
330
48
100
AcDbEntity
  8
1
  6
Continuous
 62
     2
100
AcDbLine
 10
40.00000000000004
 20
287.0000000000003
 30
0.0
 11
40.00000000000004
 21
277.0000000000003
 31
0.0
  0
LINE
  5
98
330
48
100
AcDbEntity
  8
1
  6
Continuous
 62
     7
100
AcDbLine
 10
25.00000000000004
 20
10.0
 30
0.0
 11
25.00000000000004
 21
148.5
 31
0.0
  0
LINE
  5
99
330
48
100
AcDbEntity
  8
1
  6
Continuous
 62
     2
100
AcDbLine
 10
55.00000000000004
 20
277.0000000000003
 30
0.0
 11
25.00000000000004
 21
277.0000000000003
 31
0.0
  0
LINE
  5
9A
330
48
100
AcDbEntity
  8
1
  6
Continuous
 62
     2
100
AcDbLine
 10
166.0000000000001
 20
27.0
 30
0.0
 11
166.0000000000001
 21
10.0
 31
0.0
  0
LINE
  5
9B
330
48
100
AcDbEntity
  8
1
  6
Continuous
 62
     2
100
AcDbLine
 10
132.0000000000001
 20
27.0
 30
0.0
 11
132.0000000000001
 21
10.0
 31
0.0
  0
LINE
  5
9C
330
48
100
AcDbEntity
  8
1
  6
Continuous
 62
     2
100
AcDbLine
 10
149.0000000000001
 20
27.0
 30
0.0
 11
149.0000000000001
 21
10.0
 31
0.0
  0
LINE
  5
9D
330
48
100
AcDbEntity
  8
1
  6
Continuous
 62
     2
100
AcDbLine
 10
115.0
 20
27.0
 30
0.0
 11
115.0
 21
10.0
 31
0.0
  0
LINE
  5
9E
330
48
100
AcDbEntity
  8
1
  6
Continuous
 62
     2
100
AcDbLine
 10
98.00000000000004
 20
27.0
 30
0.0
 11
98.00000000000004
 21
10.0
 31
0.0
  0
LINE
  5
9F
330
48
100
AcDbEntity
  8
1
  6
Continuous
 62
     2
100
AcDbLine
 10
166.0000000000001
 20
20.0
 30
0.0
 11
200.0000000000001
 21
20.0
 31
0.0
  0
LINE
  5
A0
330
48
100
AcDbEntity
  8
1
  6
Continuous
 62
     2
100
AcDbLine
 10
105.0
 20
287.0000000000003
 30
0.0
 11
105.0
 21
292.0000000000003
 31
0.0
  0
LINE
  5
A1
330
48
100
AcDbEntity
  8
1
  6
Continuous
 62
     7
100
AcDbLine
 10
105.0
 20
287.0000000000003
 30
0.0
 11
25.00000000000004
 21
287.0000000000003
 31
0.0
  0
LINE
  5
A2
330
48
100
AcDbEntity
  8
1
  6
Continuous
 62
     2
100
AcDbLine
 10
25.00000000000004
 20
148.5
 30
0.0
 11
20.00000000000004
 21
148.5
 31
0.0
  0
LINE
  5
A3
330
48
100
AcDbEntity
  8
1
  6
Continuous
 62
     7
100
AcDbLine
 10
25.00000000000004
 20
148.5
 30
0.0
 11
25.00000000000004
 21
287.0000000000003
 31
0.0
  0
LINE
  5
A4
330
48
100
AcDbEntity
  8
1
  6
Continuous
 62
     2
100
AcDbLine
 10
200.0000000000001
 20
148.5
 30
0.0
 11
205.0000000000001
 21
148.5
 31
0.0
  0
LINE
  5
A5
330
48
100
AcDbEntity
  8
1
  6
Continuous
 62
     7
100
AcDbLine
 10
200.0000000000001
 20
148.5
 30
0.0
 11
200.0000000000001
 21
287.0000000000003
 31
0.0
  0
LINE
  5
A6
330
48
100
AcDbEntity
  8
1
  6
Continuous
 62
     2
100
AcDbLine
 10
105.0
 20
10.0
 30
0.0
 11
105.0
 21
5.0
 31
0.0
  0
LINE
  5
A7
330
48
100
AcDbEntity
  8
1
  6
Continuous
 62
     7
100
AcDbLine
 10
105.0
 20
10.0
 30
0.0
 11
200.0000000000001
 21
10.0
 31
0.0
  0
CIRCLE
  5
AC
330
48
100
AcDbEntity
  8
1
  6
DOT_CENTER
 62
     7
100
AcDbCircle
 10
89.50000000000004
 20
18.0
 30
0.0
 40
0.1000000000000227
  0
CIRCLE
  5
AD
330
48
100
AcDbEntity
  8
1
  6
DOT_CENTER
 62
     7
100
AcDbCircle
 10
89.50000000000004
 20
16.0
 30
0.0
 40
0.1000000000000227
  0
CIRCLE
  5
AE
330
48
100
AcDbEntity
  8
1
  6
Continuous
 62
     7
100
AcDbCircle
 10
187.0000000000001
 20
23.5
 30
0.0
 40
2.0
  0
CIRCLE
  5
AF
330
48
100
AcDbEntity
  8
1
  6
Continuous
 62
     7
100
AcDbCircle
 10
187.0000000000001
 20
23.5
 30
0.0
 40
1.200000000000074
  0
CIRCLE
  5
B0
330
48
100
AcDbEntity
  8
1
  6
Continuous
 62
     7
100
AcDbCircle
 10
154.5000000000001
 20
12.5
 30
0.0
 40
0.2999999999999829
  0
CIRCLE
  5
B1
330
48
100
AcDbEntity
  8
1
  6
Continuous
 62
     7
100
AcDbCircle
 10
160.5000000000001
 20
12.5
 30
0.0
 40
0.2999999999999829
  0
CIRCLE
  5
B2
330
48
100
AcDbEntity
  8
1
  6
Continuous
 62
     7
100
AcDbCircle
 10
143.5000000000001
 20
12.5
 30
0.0
 40
0.2999999999999829
  0
CIRCLE
  5
B3
330
48
100
AcDbEntity
  8
1
  6
Continuous
 62
     7
100
AcDbCircle
 10
137.5000000000001
 20
12.5
 30
0.0
 40
0.2999999999999829
  0
CIRCLE
  5
B4
330
48
100
AcDbEntity
  8
1
  6
Continuous
 62
     7
100
AcDbCircle
 10
126.5
 20
12.5
 30
0.0
 40
0.3000000000000966
  0
CIRCLE
  5
B5
330
48
100
AcDbEntity
  8
1
  6
Continuous
 62
     7
100
AcDbCircle
 10
120.5
 20
12.5
 30
0.0
 40
0.3000000000000966
  0
CIRCLE
  5
B6
330
48
100
AcDbEntity
  8
1
  6
Continuous
 62
     7
100
AcDbCircle
 10
109.5
 20
12.5
 30
0.0
 40
0.3000000000000966
  0
CIRCLE
  5
B7
330
48
100
AcDbEntity
  8
1
  6
Continuous
 62
     7
100
AcDbCircle
 10
103.5
 20
12.5
 30
0.0
 40
0.3000000000000966
  0
SPLINE
  5
B8
102
{ACAD_REACTORS
330
D6
102
}
330
48
100
AcDbEntity
  8
_U_30EC_U_30A4_U_30E4_U_30FC_1
  6
Continuous
 62
     2
100
AcDbSpline
210
0.0
220
0.0
230
1.0
 70
    11
 71
     3
 72
    99
 73
    95
 74
    93
 42
0.000000001
 43
0.0000000001
 44
0.00000001
 40
0.0
 40
0.0
 40
0.0
 40
0.0
 40
0.079641717227271
 40
0.1621768542356327
 40
0.2486489160958314
 40
0.3404969668525517
 40
0.4381912511165593
 40
0.543446366024591
 40
0.6518115192847687
 40
0.7530190937887153
 40
0.849219691972509
 40
0.9419290312998004
 40
1.034249663570028
 40
1.129078600620293
 40
1.226697027573297
 40
1.327220425421724
 40
1.470572134938068
 40
1.595489863371289
 40
1.719934125348428
 40
1.850576620127396
 40
1.989059629987332
 40
2.134139054227001
 40
2.28069800720727
 40
2.424529739039465
 40
2.565929576985906
 40
2.708239260773566
 40
2.861717887443733
 40
3.045168540347459
 40
3.183798301138694
 40
3.314813961455499
 40
3.442083470447365
 40
3.569912708373058
 40
3.702177512509439
 40
3.842307559659556
 40
3.992872223245977
 40
4.156750662218337
 40
4.310981861107642
 40
4.445859909322682
 40
4.572393936131625
 40
4.701656719782062
 40
4.768279086008578
 40
4.835960697898487
 40
4.912788918729444
 40
5.00628520848165
 40
5.026909478751698
 40
5.047533749021206
 40
5.101808031471283
 40
5.162325165538586
 40
5.226919745995855
 40
5.29423180659679
 40
5.364544852554977
 40
5.438319055468043
 40
5.517877651324288
 40
5.607647714861655
 40
5.700449642544471
 40
5.788251142364137
 40
5.872714706039777
 40
5.955167292575303
 40
6.037192395190433
 40
6.12066918146912
 40
6.206848616686356
 40
6.29668085541674
 40
6.442558392872571
 40
6.568190371608297
 40
6.692904567360329
 40
6.824220446557067
 40
6.963121850329423
 40
7.107843738851193
 40
7.253431663907281
 40
7.395187468036731
 40
7.533140753237772
 40
7.670550457175163
 40
7.816236511769268
 40
7.987691657359204
 40
8.142277421969206
 40
8.293662615415014
 40
8.44296246087925
 40
8.59159831618525
 40
8.743678992361767
 40
8.903725323699197
 40
9.076307008890447
 40
9.265578604680584
 40
9.459203795360729
 40
9.617619810273416
 40
9.753609671361819
 40
9.874873300003983
 40
9.954520184977667
 40
10.0241641371924
 40
10.09769764405435
 40
10.18909955924959
 40
10.20974586420126
 40
10.23039218263375
 40
10.30057101881257
 40
10.37632012987532
 40
10.37632012987532
 40
10.37632012987532
 40
10.37632012987532
 10
170.1465954835851
 20
14.13795663215998
 30
0.0
 10
170.1632217851219
 20
14.11720608845316
 30
0.0
 10
170.1970784206577
 20
14.07495111711903
 30
0.0
 10
170.2599822541036
 20
14.0202981139207
 30
0.0
 10
170.3332500940394
 20
13.97299025121054
 30
0.0
 10
170.4175969238636
 20
13.93527231437938
 30
0.0
 10
170.5132240615461
 20
13.91040619731951
 30
0.0
 10
170.6171853775346
 20
13.90309559345935
 30
0.0
 10
170.7224020220405
 20
13.91142322794053
 30
0.0
 10
170.8206626371333
 20
13.94149179651539
 30
0.0
 10
170.9058986427548
 20
13.98848822971874
 30
0.0
 10
170.9779220206103
 20
14.04952991250856
 30
0.0
 10
171.0350917709097
 20
14.12412969578585
 30
0.0
 10
171.076786874744
 20
14.21002464660175
 30
0.0
 10
171.1026952846293
 20
14.30485850432214
 30
0.0
 10
171.1118037332654
 20
14.41854979038368
 30
0.0
 10
171.0986864796487
 20
14.5433258777078
 30
0.0
 10
171.0325330334414
 20
14.66014719171892
 30
0.0
 10
170.9369370919568
 20
14.74512539577375
 30
0.0
 10
170.824968102237
 20
14.81416684459166
 30
0.0
 10
170.6993659583269
 20
14.8720414204589
 30
0.0
 10
170.5656691620857
 20
14.92373723284338
 30
0.0
 10
170.4313122818831
 20
14.97899092397183
 30
0.0
 10
170.3051983986877
 20
15.04939770641649
 30
0.0
 10
170.1926579987535
 20
15.13785540731248
 30
0.0
 10
170.0969963064459
 20
15.24981067868478
 30
0.0
 10
170.0334157151825
 20
15.39949910101384
 30
0.0
 10
170.0200706505016
 20
15.55932794385147
 30
0.0
 10
170.0320510987448
 20
15.71048405306848
 30
0.0
 10
170.0712298928841
 20
15.8380924459154
 30
0.0
 10
170.135498775091
 20
15.95080874030847
 30
0.0
 10
170.2238204999741
 20
16.04648609268678
 30
0.0
 10
170.3338091207628
 20
16.12354214985756
 30
0.0
 10
170.4632284401265
 20
16.18151396936283
 30
0.0
 10
170.6111838967793
 20
16.21739177588819
 30
0.0
 10
170.7682069455487
 20
16.2274671905056
 30
0.0
 10
170.917494046643
 20
16.21863637762589
 30
0.0
 10
171.0596253614171
 20
16.19074899340356
 30
0.0
 10
171.1595922609625
 20
16.13413314701135
 30
0.0
 10
171.3125074736186
 20
16.08674602105509
 30
0.0
 10
171.2455131717169
 20
16.00197553001188
 30
0.0
 10
171.2296479120269
 20
15.93438901873484
 30
0.0
 10
171.1978750531298
 20
15.86926092793192
 30
0.0
 10
171.2150202209571
 20
15.76723453256955
 30
0.0
 10
171.1666427208232
 20
15.77493211681903
 30
0.0
 10
171.1315789440766
 20
15.76806771724811
 30
0.0
 10
171.1296697985719
 20
15.832638311582
 30
0.0
 10
171.0985692931989
 20
15.8782563962139
 30
0.0
 10
171.0664551628456
 20
15.9356103662846
 30
0.0
 10
171.0208038475168
 20
15.98540462692555
 30
0.0
 10
170.9658508218387
 20
16.02994813719001
 30
0.0
 10
170.9010841173008
 20
16.06763988836562
 30
0.0
 10
170.8232377310597
 20
16.09283375791349
 30
0.0
 10
170.7355160553352
 20
16.09931230998107
 30
0.0
 10
170.6452903277807
 20
16.09235709285608
 30
0.0
 10
170.5594594694065
 20
16.06909190460924
 30
0.0
 10
170.4828343638596
 20
16.03131644107549
 30
0.0
 10
170.4165265636202
 20
15.98051641089565
 30
0.0
 10
170.3622560536964
 20
15.91731143407218
 30
0.0
 10
170.3224925345459
 20
15.84276455710365
 30
0.0
 10
170.2976775510589
 20
15.75917313997767
 30
0.0
 10
170.2892124262871
 20
15.6519294838229
 30
0.0
 10
170.3019697987104
 20
15.52965457267562
 30
0.0
 10
170.3681548409273
 20
15.41149724291217
 30
0.0
 10
170.4640977399832
 20
15.32606325709529
 30
0.0
 10
170.5757914963183
 20
15.25583362306727
 30
0.0
 10
170.7010863668703
 20
15.19659162305306
 30
0.0
 10
170.8349823941448
 20
15.14616708086143
 30
0.0
 10
170.968993033315
 20
15.09322516984377
 30
0.0
 10
171.0950885316915
 20
15.02750170625175
 30
0.0
 10
171.2076216638418
 20
14.94480352537326
 30
0.0
 10
171.3031370284232
 20
14.83996006310074
 30
0.0
 10
171.3672706486963
 20
14.69937117251574
 30
0.0
 10
171.3811103725279
 20
14.54065409451594
 30
0.0
 10
171.3673954712229
 20
14.38153155217878
 30
0.0
 10
171.3244739153985
 20
14.23483828819212
 30
0.0
 10
171.2545906329065
 20
14.10119796587148
 30
0.0
 10
171.157459221383
 20
13.98532387699289
 30
0.0
 10
171.0347806023657
 20
13.89089981770092
 30
0.0
 10
170.8874408413168
 20
13.82179270651978
 30
0.0
 10
170.7177132497125
 20
13.77953210858857
 30
0.0
 10
170.5317404979597
 20
13.76781736230415
 30
0.0
 10
170.3528955926184
 20
13.77809486683442
 30
0.0
 10
170.1881733753744
 20
13.81966573769151
 30
0.0
 10
170.0834410841057
 20
13.88797642883944
 30
0.0
 10
169.9350960790366
 20
13.93675219032106
 30
0.0
 10
169.9980378194729
 20
14.02976591290845
 30
0.0
 10
170.007227443006
 20
14.10296536248285
 30
0.0
 10
170.0303711301231
 20
14.16936294501351
 30
0.0
 10
170.0034588335318
 20
14.26974809527582
 30
0.0
 10
170.0521338956339
 20
14.26234033517378
 30
0.0
 10
170.0916530580698
 20
14.26894063620895
 30
0.0
 10
170.0996204944703
 20
14.19078703218938
 30
0.0
 10
170.1305436967923
 20
14.15600927375861
 30
0.0
 10
170.1465954835851
 20
14.13795663215998
 30
0.0
 11
170.1465954835851
 21
14.13795663215998
 31
0.0
 11
170.1982038075864
 21
14.07729869814737
 31
0.0
 11
170.2601105501335
 21
14.0227129516332
 31
0.0
 11
170.3327764009803
 21
13.97583980928385
 31
0.0
 11
170.4166468655844
 21
13.9383990627654
 31
0.0
 11
170.511221073241
 21
13.91390636311878
 31
0.0
 11
170.6161603327166
 21
13.90575829888471
 31
0.0
 11
170.7240739497552
 21
13.91564048638224
 31
0.0
 11
170.8208419941616
 21
13.94528704887489
 31
0.0
 11
170.9050776083319
 21
13.99175118948819
 31
0.0
 11
170.9756144207686
 21
14.05191413218148
 31
0.0
 11
171.031944210998
 21
14.12505819466318
 31
0.0
 11
171.0736690016004
 21
14.21021434047529
 31
0.0
 11
171.0994680808033
 21
14.30436190989615
 31
0.0
 11
171.1080824729447
 21
14.40451552098219
 31
0.0
 11
171.0878517703357
 21
14.54643250879399
 31
0.0
 11
171.0272522666731
 21
14.65566684036389
 31
0.0
 11
170.9364971286286
 21
14.74081306430096
 31
0.0
 11
170.8260101884741
 21
14.81052746532518
 31
0.0
 11
170.7008523531255
 21
14.86979854169923
 31
0.0
 11
170.5662951950998
 21
14.9240425347412
 31
0.0
 11
170.4316884277007
 21
14.98201274306006
 31
0.0
 11
170.3065802017259
 21
15.05297399304229
 31
0.0
 11
170.196027609828
 21
15.14113315968696
 31
0.0
 11
170.1053381235266
 21
15.25080295132619
 31
0.0
 11
170.0447055469484
 21
15.39179720476319
 31
0.0
 11
170.0245079172553
 21
15.57413260402319
 31
0.0
 11
170.0374030471347
 21
15.71216131926646
 31
0.0
 11
170.0761016659391
 21
15.83733128451289
 31
0.0
 11
170.1393141731507
 21
15.94779262129084
 31
0.0
 11
170.2257499954546
 21
16.04196885390618
 31
0.0
 11
170.3336492808963
 21
16.11846540770653
 31
0.0
 11
170.4613526283328
 21
16.1761567010949
 31
0.0
 11
170.6075393259923
 21
16.21220066809972
 31
0.0
 11
170.770976856545
 21
16.22421385386059
 31
0.0
 11
170.924891843129
 21
16.21434269066863
 31
0.0
 11
171.0564887242608
 21
16.18477329831498
 31
0.0
 11
171.172563634494
 21
16.13439993895253
 31
0.0
 11
171.2800792741123
 21
16.06264163167879
 31
0.0
 11
171.2516994050445
 21
16.00236624106886
 31
0.0
 11
171.2284855254284
 21
15.9387901733765
 31
0.0
 11
171.2078381040801
 21
15.86478841992269
 31
0.0
 11
171.1871840681487
 21
15.77360197897329
 31
0.0
 11
171.1665597978415
 21
15.77360197897329
 31
0.0
 11
171.1459355275344
 21
15.77360197897329
 31
0.0
 11
171.1256706495791
 21
15.82395108486349
 31
0.0
 11
171.0994658759421
 21
15.87850045116929
 31
0.0
 11
171.0650468924452
 21
15.93316116296114
 31
0.0
 11
171.0203554612937
 21
15.98349593725411
 31
0.0
 11
170.9657333359511
 21
16.02777175321535
 31
0.0
 11
170.9016722004326
 21
16.06436142334511
 31
0.0
 11
170.8259682961141
 21
16.08882545979726
 31
0.0
 11
170.7365722046449
 21
16.09701100667019
 31
0.0
 11
170.6440937174208
 21
16.08926973931102
 31
0.0
 11
170.5594072091646
 21
16.0660900344557
 31
0.0
 11
170.4837024488841
 21
16.02863495634011
 31
0.0
 11
170.4183754766517
 21
15.97832774281099
 31
0.0
 11
170.3650487887664
 21
15.91600293379881
 31
0.0
 11
170.3254809233902
 21
15.84249947895609
 31
0.0
 11
170.3009523754712
 21
15.75988443557394
 31
0.0
 11
170.2927954104109
 21
15.67042329844358
 31
0.0
 11
170.3130095765618
 21
15.52595308146578
 31
0.0
 11
170.3736256166821
 21
15.41591177072939
 31
0.0
 11
170.4643479320758
 21
15.33033670130635
 31
0.0
 11
170.5748676948813
 21
15.25941954854631
 31
0.0
 11
170.700008993772
 21
15.19914305550581
 31
0.0
 11
170.8345826882554
 21
15.14590447913028
 31
0.0
 11
170.9691729191968
 21
15.09039489581073
 31
0.0
 11
171.0942976816298
 21
15.02377281249409
 31
0.0
 11
171.2048009079771
 21
14.94118863716751
 31
0.0
 11
171.2955397598288
 21
14.83800003476279
 31
0.0
 11
171.3561557999489
 21
14.70552315979584
 31
0.0
 11
171.3763699660998
 21
14.53526378483841
 31
0.0
 11
171.3621839747998
 21
14.38133030397417
 31
0.0
 11
171.3196087009193
 21
14.23605531269098
 31
0.0
 11
171.2499752884265
 21
14.10398854189071
 31
0.0
 11
171.1544992078714
 21
13.9900721877525
 31
0.0
 11
171.0341060772624
 21
13.8971527259702
 31
0.0
 11
170.8896160201846
 21
13.82832357668178
 31
0.0
 11
170.7223519532714
 21
13.78581275203971
 31
0.0
 11
170.5336103348226
 21
13.77165864614048
 31
0.0
 11
170.3405031726388
 21
13.78581275203971
 31
0.0
 11
170.1878975900912
 21
13.82832357668178
 31
0.0
 11
170.0661897942204
 21
13.88899033013892
 31
0.0
 11
169.9660261826364
 21
13.95734322942738
 31
0.0
 11
169.9922320587039
 21
14.03255545163077
 31
0.0
 11
170.0090121537618
 21
14.1001476738362
 31
0.0
 11
170.0206196447852
 21
14.17275926235964
 31
0.0
 11
170.0313606254139
 21
14.26352788212859
 31
0.0
 11
170.0520069443316
 21
14.26352788212859
 31
0.0
 11
170.0726532632493
 21
14.26352788212859
 31
0.0
 11
170.104891639163
 21
14.20119204881087
 31
0.0
 11
170.1465954835851
 21
14.13795663215998
 31
0.0
  0
SPLINE
  5
B9
102
{ACAD_REACTORS
330
D7
102
}
330
48
100
AcDbEntity
  8
_U_30EC_U_30A4_U_30E4_U_30FC_1
  6
Continuous
 62
     2
100
AcDbSpline
210
0.0
220
0.0
230
1.0
 70
    11
 71
     3
 72
    57
 73
    53
 74
    51
 42
0.000000001
 43
0.0000000001
 44
0.00000001
 40
0.0
 40
0.0
 40
0.0
 40
0.0
 40
0.0471632082808642
 40
0.0914861054632115
 40
0.1357762519702067
 40
0.1826527001609793
 40
0.2295203288571418
 40
0.2737751972219588
 40
0.3181310461542167
 40
0.365260719839843
 40
0.4571007286314145
 40
0.5671851029165035
 40
0.6894623283867752
 40
0.818175827254572
 40
0.951008722927343
 40
1.08585222967406
 40
1.218126164475319
 40
1.343545131142379
 40
1.454537202956795
 40
1.567187607530718
 40
1.680710966642309
 40
1.794226869736701
 40
1.900009184247501
 40
2.004085860447781
 40
2.108162674451697
 40
2.214000150155298
 40
2.496038577352131
 40
2.76235074547928
 40
2.997275353279394
 40
3.185110082137725
 40
3.246407890063893
 40
3.312607550212566
 40
3.378877742711496
 40
3.440140399651433
 40
4.100501696006499
 40
4.754913085563573
 40
5.411331693423944
 40
6.077890432568654
 40
6.110575292670933
 40
6.143260152775713
 40
6.367989363395088
 40
6.610525374951457
 40
6.863389136467216
 40
7.11938002554753
 40
7.376036605091014
 40
7.631164770966279
 40
7.876722425456382
 40
8.104953735855938
 40
8.312916685924206
 40
8.497730294941215
 40
8.651018984313763
 40
8.76473885362449
 40
8.76473885362449
 40
8.76473885362449
 40
8.76473885362449
 10
174.7922649500513
 20
13.81626739612929
 30
0.0
 10
174.7766616726931
 20
13.81826231079079
 30
0.0
 10
174.7463947960302
 20
13.82213201360299
 30
0.0
 10
174.7010994202252
 20
13.82341984967263
 30
0.0
 10
174.6559553129349
 20
13.82308683554047
 30
0.0
 10
174.60990171234
 20
13.82314658674219
 30
0.0
 10
174.5640496172097
 20
13.82325813649997
 30
0.0
 10
174.5183711648166
 20
13.82277833456585
 30
0.0
 10
174.4750811541609
 20
13.82461109618722
 30
0.0
 10
174.4039947951513
 20
13.80049556814658
 30
0.0
 10
174.4057477261441
 20
13.92184693977252
 30
0.0
 10
174.358619637057
 20
14.00726239751231
 30
0.0
 10
174.3191478251763
 20
14.12486929345139
 30
0.0
 10
174.2706635532645
 20
14.24232752540434
 30
0.0
 10
174.2201017402523
 20
14.36405935761513
 30
0.0
 10
174.1718634610477
 20
14.49075967862466
 30
0.0
 10
174.1135232947594
 20
14.59933687784955
 30
0.0
 10
174.0980892667261
 20
14.75620657134412
 30
0.0
 10
173.9566586330636
 20
14.72373446548325
 30
0.0
 10
173.8508397414904
 20
14.73512888682175
 30
0.0
 10
173.7358569725223
 20
14.73392591514618
 30
0.0
 10
173.6253142252141
 20
14.73506945347417
 30
0.0
 10
173.5176583522783
 20
14.73418350037529
 30
0.0
 10
173.4121322529244
 20
14.73416602390515
 30
0.0
 10
173.3109192682013
 20
14.72714032472417
 30
0.0
 10
173.1266804827753
 20
14.75135859859871
 30
0.0
 10
173.1157393685412
 20
14.44741691121885
 30
0.0
 10
173.0087691634751
 20
14.22353177253395
 30
0.0
 10
172.9098148604347
 20
14.03895314292498
 30
0.0
 10
172.9225090524008
 20
13.79530204804211
 30
0.0
 10
172.8050091716397
 20
13.82508046753196
 30
0.0
 10
172.7422055868311
 20
13.82258089509597
 30
0.0
 10
172.67858720934
 20
13.82344075102804
 30
0.0
 10
172.3946014194075
 20
13.78098039941955
 30
0.0
 10
173.0251638499382
 20
14.50081952444782
 30
0.0
 10
173.1087645289072
 20
15.01276539435733
 30
0.0
 10
173.4929252789339
 20
15.53353743550047
 30
0.0
 10
173.4777208288565
 20
16.23519626253214
 30
0.0
 10
173.7239265722696
 20
16.22345633081253
 30
0.0
 10
173.8256346157562
 20
16.23225004452771
 30
0.0
 10
173.8249752035819
 20
15.98059650730351
 30
0.0
 10
173.9428317155828
 20
15.79818020733958
 30
0.0
 10
174.0315515260484
 20
15.55563740662867
 30
0.0
 10
174.1322292485261
 20
15.32340030530134
 30
0.0
 10
174.2311142712243
 20
15.08674644566911
 30
0.0
 10
174.3299676990671
 20
14.85461739170096
 30
0.0
 10
174.4256166390926
 20
14.63122222788785
 30
0.0
 10
174.5159904573272
 20
14.42272549049318
 30
0.0
 10
174.598994456819
 20
14.23308448529323
 30
0.0
 10
174.6726088582798
 20
14.06663106068098
 30
0.0
 10
174.7342815895547
 20
13.92917699626104
 30
0.0
 10
174.7749458885604
 20
13.84999239430036
 30
0.0
 10
174.7922649500513
 20
13.81626739612929
 30
0.0
 11
174.7922649500513
 21
13.81626739612929
 31
0.0
 11
174.7453878317448
 21
13.82145433189185
 31
0.0
 11
174.7010975896125
 21
13.82315538223858
 31
0.0
 11
174.6568074431729
 21
13.82315538223858
 31
0.0
 11
174.609930994716
 21
13.82315538223858
 31
0.0
 11
174.5630633657034
 21
13.82315538223858
 31
0.0
 11
174.5188084970409
 21
13.82315538223858
 31
0.0
 11
174.4744852776855
 21
13.82145433189185
 31
0.0
 11
174.4276419021443
 21
13.81626739612929
 31
0.0
 11
174.3992532136325
 21
13.90360966173244
 31
0.0
 11
174.3622721815898
 21
14.0072965627482
 31
0.0
 11
174.3188386236702
 21
14.12159987001127
 31
0.0
 11
174.2711055866936
 21
14.24113531268969
 31
0.0
 11
174.2208160133237
 21
14.36408057307564
 31
0.0
 11
174.1696467003932
 21
14.48883822929449
 31
0.0
 11
174.1197531801326
 21
14.61134141502775
 31
0.0
 11
174.0733119111841
 21
14.72784517367919
 31
0.0
 11
173.9623611907589
 21
14.73087465284507
 31
0.0
 11
173.849730922509
 21
14.73300454867788
 31
0.0
 11
173.736215206945
 21
14.73432195319143
 31
0.0
 11
173.6227000476801
 21
14.73473315978859
 31
0.0
 11
173.5169185312816
 21
14.73432195319143
 31
0.0
 11
173.4128501919226
 21
14.73300454867788
 31
0.0
 11
173.3087951724046
 21
14.73087465284507
 31
0.0
 11
173.2030010615596
 21
14.72784517367919
 31
0.0
 11
173.0980914750139
 21
14.46604437513351
 31
0.0
 11
173.0034868690332
 21
14.21710232658458
 31
0.0
 11
172.9252231210298
 21
13.99559756969558
 31
0.0
 11
172.8693431224555
 21
13.81626739612929
 31
0.0
 11
172.8082651639442
 21
13.82145433189185
 31
0.0
 11
172.7420873618131
 21
13.82315538223858
 31
0.0
 11
172.6758390041283
 21
13.82145433189185
 31
0.0
 11
172.6147963233938
 21
13.81626739612929
 31
0.0
 11
172.8899684951931
 21
14.41656508695145
 31
0.0
 11
173.1582945734171
 21
15.0134364236078
 31
0.0
 11
173.4240277350405
 21
15.61366245644386
 31
0.0
 11
173.6914740737033
 21
16.22421385386059
 31
0.0
 11
173.7241589339806
 21
16.22421385386059
 31
0.0
 11
173.7568437942579
 21
16.22421385386059
 31
0.0
 11
173.8428300681058
 21
16.01658539037085
 31
0.0
 11
173.9357285813609
 21
15.79254614563519
 31
0.0
 11
174.0328714521464
 21
15.55908663180472
 31
0.0
 11
174.1317936458032
 21
15.32298128464149
 31
0.0
 11
174.2315341249927
 21
15.08649780379786
 31
0.0
 11
174.3313071129354
 21
14.85168781253708
 31
0.0
 11
174.4280608257449
 21
14.62599492196849
 31
0.0
 11
174.5188084970409
 21
14.41658052097918
 31
0.0
 11
174.6022150834546
 21
14.22607611130465
 31
0.0
 11
174.6770293263377
 21
14.05708232662468
 31
0.0
 11
174.7410729186604
 21
13.91781337700671
 31
0.0
 11
174.7922649500513
 21
13.81626739612929
 31
0.0
  0
SPLINE
  5
BA
102
{ACAD_REACTORS
330
D7
102
}
330
48
100
AcDbEntity
  8
_U_30EC_U_30A4_U_30E4_U_30FC_1
  6
Continuous
 62
     2
100
AcDbSpline
210
0.0
220
0.0
230
1.0
 70
    11
 71
     3
 72
    25
 73
    21
 74
    19
 42
0.000000001
 43
0.0000000001
 44
0.00000001
 40
0.0
 40
0.0
 40
0.0
 40
0.0
 40
0.0911479969064534
 40
0.1858117896204942
 40
0.2804128399735053
 40
0.371588919071479
 40
0.4679080494218135
 40
0.5642683809229223
 40
0.6605683222644702
 40
0.7569653015809392
 40
0.8561348172521958
 40
1.092615965104221
 40
1.374867658141824
 40
1.611348812011532
 40
1.7105183284252
 40
1.809403163726514
 40
2.045205463294057
 40
2.326646917622127
 40
2.56244921719062
 40
2.661334043833934
 40
2.661334043833934
 40
2.661334043833934
 40
2.661334043833934
 10
173.26837005672
 20
14.88614538197288
 30
0.0
 10
173.2987525917923
 20
14.88598079714551
 30
0.0
 10
173.3606895889113
 20
14.88564528689922
 30
0.0
 10
173.454135696033
 20
14.88269055452001
 30
0.0
 10
173.5475095236359
 20
14.87977752877152
 30
0.0
 10
173.6417760753476
 20
14.87894201643415
 30
0.0
 10
173.7354964790968
 20
14.87996644658046
 30
0.0
 10
173.8352040303205
 20
14.87916977470967
 30
0.0
 10
173.9188949546312
 20
14.88921410235218
 30
0.0
 10
174.0637996315045
 20
14.86234617674162
 30
0.0
 10
173.93961324448
 20
15.03665530280046
 30
0.0
 10
173.8965867286283
 20
15.19651711006092
 30
0.0
 10
173.7808922142209
 20
15.45518458550213
 30
0.0
 10
173.7017565431258
 20
15.59231052861863
 30
0.0
 10
173.6431576621816
 20
15.80937033134081
 30
0.0
 10
173.586480393944
 20
15.59266134213429
 30
0.0
 10
173.5052809900478
 20
15.4532701243824
 30
0.0
 10
173.4063701281488
 20
15.20406969370191
 30
0.0
 10
173.325362509426
 20
15.01925830226072
 30
0.0
 10
173.2813683325839
 20
14.91650446856113
 30
0.0
 10
173.26837005672
 20
14.88614538197288
 30
0.0
 11
173.26837005672
 21
14.88614538197288
 31
0.0
 11
173.3595137737821
 21
14.88526123266759
 31
0.0
 11
173.4541428297582
 21
14.882696979196
 31
0.0
 11
173.5487082179707
 21
14.88009965280778
 31
0.0
 11
173.6398803250197
 21
14.87924857641909
 31
0.0
 11
173.7361985777706
 21
14.8796597830162
 31
0.0
 11
173.8325499034377
 21
14.88097718752968
 31
0.0
 11
173.9288262638287
 21
14.8831081857931
 31
0.0
 11
174.0251753846343
 21
14.88614538197288
 31
0.0
 11
173.9854633323141
 21
14.97701642195017
 31
0.0
 11
173.8907653613968
 21
15.19370890189601
 31
0.0
 11
173.7777387509471
 21
15.45234186183136
 31
0.0
 11
173.6830407800298
 21
15.6690343417772
 31
0.0
 11
173.6433287277096
 21
15.75990538175449
 31
0.0
 11
173.6043330259267
 21
15.6690343417772
 31
0.0
 11
173.5113432755213
 21
15.45234186183136
 31
0.0
 11
173.4003555089083
 21
15.19370890189601
 31
0.0
 11
173.3073657585029
 21
14.97701642195017
 31
0.0
 11
173.26837005672
 21
14.88614538197288
 31
0.0
  0
SPLINE
  5
BB
102
{ACAD_REACTORS
330
D8
102
}
330
48
100
AcDbEntity
  8
_U_30EC_U_30A4_U_30E4_U_30FC_1
  6
Continuous
 62
     2
100
AcDbSpline
210
0.0
220
0.0
230
1.0
 70
    11
 71
     3
 72
    95
 73
    91
 74
    89
 42
0.000000001
 43
0.0000000001
 44
0.00000001
 40
0.0
 40
0.0
 40
0.0
 40
0.0
 40
0.6550406656911468
 40
1.308087289031915
 40
1.420803739835769
 40
1.566130759770805
 40
1.757067341888447
 40
2.006513545026407
 40
2.087328263121525
 40
2.185328872295648
 40
2.294612454748385
 40
2.408936380534804
 40
2.526802767798554
 40
2.646360524615599
 40
2.762535723971569
 40
2.870057342870139
 40
2.966883448431623
 40
3.050803243518198
 40
3.115818222436549
 40
3.156030057150217
 40
3.213914225080146
 40
3.276689026450602
 40
3.342960320981293
 40
3.40423066715054
 40
3.45382280949337
 40
3.532499827188423
 40
3.634775188507157
 40
3.75490933300818
 40
3.889736761660634
 40
4.035769602175205
 40
4.187256681197595
 40
4.338733685675972
 40
4.488478734676119
 40
4.634708317831609
 40
4.77149318992126
 40
4.892686571561144
 40
5.199775528944385
 40
5.46035356692963
 40
5.667603142345452
 40
5.81472290540442
 40
5.828990806219718
 40
5.855488336304415
 40
5.869756237118747
 40
6.189796507762707
 40
6.531890469872923
 40
6.883053637016932
 40
7.23051202491146
 40
7.566966656764529
 40
7.885203559707387
 40
8.172887439719188
 40
8.41801159406267
 40
8.443926721190591
 40
8.510760470613082
 40
8.602145393795595
 40
8.70171404164704
 40
8.793098965075277
 40
8.859932715057852
 40
8.885847842603502
 40
9.24230125661269
 40
9.58927545501669
 40
9.921808543164055
 40
10.23479624298455
 40
10.29968150889162
 40
10.35323493887753
 40
10.40154625355129
 40
10.4648292247781
 40
10.55973900668387
 40
10.69239545985596
 40
10.84920353475656
 40
11.01626328594766
 40
11.18672024367426
 40
11.35372582577195
 40
11.50257442292409
 40
11.61866495023277
 40
11.71329869152855
 40
11.8251105057389
 40
11.94464880845701
 40
12.06929242642491
 40
12.19707290435157
 40
12.32562632860513
 40
12.45034565331259
 40
12.56646595170312
 40
12.67099007414616
 40
12.7607762593676
 40
12.82703233506674
 40
12.87429132785971
 40
12.8983199032331
 40
12.92234847859998
 40
13.53984767410298
 40
14.1829428435934
 40
14.1829428435934
 40
14.1829428435934
 40
14.1829428435934
 10
177.3067935648022
 20
14.7089803820173
 30
0.0
 10
177.1752019758551
 20
14.82265058603236
 30
0.0
 10
176.9124193802729
 20
15.04964496316159
 30
0.0
 10
176.3997393441023
 20
15.89214462956286
 30
0.0
 10
176.4106654595362
 20
15.5342337757702
 30
0.0
 10
176.4041226527993
 20
15.39267392272133
 30
0.0
 10
176.4028026631772
 20
15.19421305299281
 30
0.0
 10
176.4018117602538
 20
15.02150296045985
 30
0.0
 10
176.4024101751974
 20
14.8786537325758
 30
0.0
 10
176.4038994301882
 20
14.78265005413356
 30
0.0
 10
176.4055683588472
 20
14.67545503263139
 30
0.0
 10
176.407193495462
 20
14.56164211517581
 30
0.0
 10
176.4092429501686
 20
14.44441572604588
 30
0.0
 10
176.4123165501927
 20
14.3265641123297
 30
0.0
 10
176.4156339697044
 20
14.21228087320621
 30
0.0
 10
176.419360534028
 20
14.10521401867277
 30
0.0
 10
176.4217338161424
 20
14.01007408766925
 30
0.0
 10
176.4278718888359
 20
13.92558557205701
 30
0.0
 10
176.4239784495946
 20
13.86923087298146
 30
0.0
 10
176.4455230443079
 20
13.79825022472357
 30
0.0
 10
176.3680940058618
 20
13.82902677604484
 30
0.0
 10
176.3116353240192
 20
13.82011242517608
 30
0.0
 10
176.2540495896807
 20
13.82896218398274
 30
0.0
 10
176.1690163478474
 20
13.79738225225947
 30
0.0
 10
176.2009714146382
 20
13.88095155992194
 30
0.0
 10
176.1990705282539
 20
13.94882608968314
 30
0.0
 10
176.2107960047301
 20
14.05233256764423
 30
0.0
 10
176.2164241052999
 20
14.170021256167
 30
0.0
 10
176.2237902178942
 20
14.30388609164427
 30
0.0
 10
176.232075970161
 20
14.44764152872635
 30
0.0
 10
176.2398851897428
 20
14.59714022843448
 30
0.0
 10
176.2457571222658
 20
14.74792549402083
 30
0.0
 10
176.250366781797
 20
14.89699943878443
 30
0.0
 10
176.2542632117542
 20
15.04122913163027
 30
0.0
 10
176.2570715126564
 20
15.1758390521302
 30
0.0
 10
176.2576698755023
 20
15.36469614347355
 30
0.0
 10
176.2616023867151
 20
15.58975494313154
 30
0.0
 10
176.2442175378499
 20
15.86367091125707
 30
0.0
 10
176.2850417342584
 20
16.02787112098597
 30
0.0
 10
176.1995153256002
 20
16.22749661465092
 30
0.0
 10
176.2660558907688
 20
16.22385458403976
 30
0.0
 10
176.283872427323
 20
16.22413447160851
 30
0.0
 10
176.4056801797506
 20
16.22632927398611
 30
0.0
 10
176.5080770335461
 20
15.94675118721518
 30
0.0
 10
176.7580021509357
 20
15.74563008536012
 30
0.0
 10
176.987003533111
 20
15.47792614987915
 30
0.0
 10
177.224515121311
 20
15.2264641386238
 30
0.0
 10
177.4486090740772
 20
14.98969974061354
 30
0.0
 10
177.675071628301
 20
14.73218692583081
 30
0.0
 10
177.8325687886515
 20
14.61649335056926
 30
0.0
 10
178.0472129612674
 20
14.27997152538796
 30
0.0
 10
178.0422645974618
 20
14.40464754091603
 30
0.0
 10
178.0433931602545
 20
14.46327691935737
 30
0.0
 10
178.0428877841517
 20
14.55043662371978
 30
0.0
 10
178.0430475158113
 20
14.64416143182873
 30
0.0
 10
178.0430054891318
 20
14.73018971297036
 30
0.0
 10
178.0430202040372
 20
14.79153891945497
 30
0.0
 10
178.0429706255985
 20
14.94135231520995
 30
0.0
 10
178.0458811522811
 20
15.17989612510106
 30
0.0
 10
178.0259521041162
 20
15.54486509868702
 30
0.0
 10
178.0750433936248
 20
15.80799631993414
 30
0.0
 10
177.917795150918
 20
16.21928904947747
 30
0.0
 10
178.0762112872423
 20
16.16398282551748
 30
0.0
 10
178.1311680478629
 20
16.16199686500178
 30
0.0
 10
178.182788776674
 20
16.16264778248254
 30
0.0
 10
178.2713198965367
 20
16.20369527738244
 30
0.0
 10
178.2204898303169
 20
16.05696326622991
 30
0.0
 10
178.2313389930285
 20
15.95019971954435
 30
0.0
 10
178.2166036994848
 20
15.79085705414114
 30
0.0
 10
178.2099976446203
 20
15.62853061652874
 30
0.0
 10
178.2014961399916
 20
15.45992521892395
 30
0.0
 10
178.1943227202198
 20
15.29814814703542
 30
0.0
 10
178.188906321539
 20
15.15422331457933
 30
0.0
 10
178.1871713967648
 20
15.03437493466927
 30
0.0
 10
178.1875440672319
 20
14.92686101590517
 30
0.0
 10
178.1873656126262
 20
14.81820024645588
 30
0.0
 10
178.187701086314
 20
14.69953570165531
 30
0.0
 10
178.1890040622185
 20
14.57555163512742
 30
0.0
 10
178.1908887351574
 20
14.44858294171106
 30
0.0
 10
178.1925004454852
 20
14.32153861551034
 30
0.0
 10
178.194140313743
 20
14.19854884492179
 30
0.0
 10
178.1962570745752
 20
14.08300931383762
 30
0.0
 10
178.1963848422364
 20
13.9809090395584
 30
0.0
 10
178.2006514396555
 20
13.89009848838161
 30
0.0
 10
178.190844008529
 20
13.83213621208792
 30
0.0
 10
178.211847477169
 20
13.76517130132036
 30
0.0
 10
178.1725639739898
 20
13.77291153966695
 30
0.0
 10
177.9595307117744
 20
13.75755254145199
 30
0.0
 10
177.7636297943188
 20
14.31403058094467
 30
0.0
 10
177.4611197631544
 20
14.57556035348513
 30
0.0
 10
177.3067935648022
 20
14.7089803820173
 30
0.0
 11
177.3067935648022
 21
14.7089803820173
 31
0.0
 11
176.8595529338511
 21
15.18757635411979
 31
0.0
 11
176.4124049070644
 21
15.6635264928897
 31
0.0
 11
176.4089664262494
 21
15.55086249986234
 31
0.0
 11
176.4055610183501
 21
15.40557538184308
 31
0.0
 11
176.4029636920275
 21
15.21465645827968
 31
0.0
 11
176.4021126156603
 21
14.96521170139761
 31
0.0
 11
176.4025239230289
 21
14.88439802954281
 31
0.0
 11
176.4038420329817
 21
14.78640628477558
 31
0.0
 11
176.4055192267718
 21
14.67713557299736
 31
0.0
 11
176.4072367127519
 21
14.56282454872039
 31
0.0
 11
176.4094007838773
 21
14.44497802965265
 31
0.0
 11
176.4124049070644
 21
14.32545802100199
 31
0.0
 11
176.4158359733139
 21
14.20933349846156
 31
0.0
 11
176.4192928929999
 21
14.1018674655023
 31
0.0
 11
176.4227085253088
 21
14.00510162351266
 31
0.0
 11
176.4261896983794
 21
13.92125406276981
 31
0.0
 11
176.4296006184313
 21
13.85632862007764
 31
0.0
 11
176.4330776843149
 21
13.81626739612929
 31
0.0
 11
176.3754263821572
 21
13.82145433189185
 31
0.0
 11
176.3126746318309
 21
13.82315538223858
 31
0.0
 11
176.2464251717157
 21
13.82145433189185
 31
0.0
 11
176.1853747739676
 21
13.81626739612929
 31
0.0
 11
176.1926772737813
 21
13.86531894125595
 31
0.0
 11
176.2008793569054
 21
13.9435672572086
 31
0.0
 11
176.2090098822349
 21
14.04551893253033
 31
0.0
 11
176.2163406441397
 21
14.16542920159759
 31
0.0
 11
176.2236358280422
 21
14.30005912343892
 31
0.0
 11
176.2318444255596
 21
14.44586107652748
 31
0.0
 11
176.2395504149467
 21
14.59715203135076
 31
0.0
 11
176.2455763002094
 21
14.7485091320074
 31
0.0
 11
176.2503046247417
 21
14.8981795139144
 31
0.0
 11
176.254192897212
 21
15.04435739582229
 31
0.0
 11
176.2567527408965
 21
15.18111831592699
 31
0.0
 11
176.2576324804575
 21
15.30230850686888
 31
0.0
 11
176.2571926106771
 21
15.60939715262542
 31
0.0
 11
176.2559126888348
 21
15.86997204839369
 31
0.0
 11
176.2528658717893
 21
16.07719922716124
 31
0.0
 11
176.2473049112763
 21
16.22421385386059
 31
0.0
 11
176.2615728121469
 21
16.22421385386059
 31
0.0
 11
176.2880703423352
 21
16.22421385386059
 31
0.0
 11
176.3023382432058
 21
16.22421385386059
 31
0.0
 11
176.5194743650277
 21
15.98910179662779
 31
0.0
 11
176.751274412308
 21
15.73751281231569
 31
0.0
 11
176.989481601884
 21
15.47949555543573
 31
0.0
 11
177.2260074557522
 21
15.22497079855489
 31
0.0
 11
177.4555698717706
 21
14.97899759549137
 31
0.0
 11
177.6731797360104
 21
14.74678934034108
 31
0.0
 11
177.8713724913708
 21
14.53826680567101
 31
0.0
 11
178.0430143099086
 21
14.36326697932589
 31
0.0
 11
178.0430143099086
 21
14.38918210687043
 31
0.0
 11
178.0430143099086
 21
14.45601585685372
 31
0.0
 11
178.0430143099086
 21
14.54740078030025
 31
0.0
 11
178.0430143099086
 21
14.64696942823455
 31
0.0
 11
178.0430143099086
 21
14.73835435168108
 31
0.0
 11
178.0430143099086
 21
14.80518810166437
 31
0.0
 11
178.0430143099086
 21
14.83110322920891
 31
0.0
 11
178.0417233637609
 21
15.18755430550866
 31
0.0
 11
178.0378461155959
 21
15.53450684014419
 31
0.0
 11
178.0296197790002
 21
15.86693815950551
 31
0.0
 11
178.0154535467229
 21
16.17960510387178
 31
0.0
 11
178.0790351249619
 21
16.16666367158335
 31
0.0
 11
178.1324170159612
 21
16.16238072887609
 31
0.0
 11
178.1805381084833
 21
16.16666367158335
 31
0.0
 11
178.2424836798198
 21
16.17960510387178
 31
0.0
 11
178.2351216487575
 21
16.08498128445103
 31
0.0
 11
178.2269790968819
 21
15.9525749650397
 31
0.0
 11
178.2183705364005
 21
15.79600336785656
 31
0.0
 11
178.2097547223215
 21
15.62916593734269
 31
0.0
 11
178.2016187850289
 21
15.45890325509362
 31
0.0
 11
178.1942501393835
 21
15.292060312427
 31
0.0
 11
178.1891406931522
 21
15.14329943572812
 31
0.0
 11
178.1874503478904
 21
15.027221215271
 31
0.0
 11
178.1874503478904
 21
14.93258747397523
 31
0.0
 11
178.1874503478904
 21
14.82077565976709
 31
0.0
 11
178.1878461204497
 21
14.70123801222748
 31
0.0
 11
178.1890819450709
 21
14.5766005209392
 31
0.0
 11
178.1908392193318
 21
14.44883212687395
 31
0.0
 11
178.1925303477609
 21
14.32028982655879
 31
0.0
 11
178.1942876220215
 21
14.19558288214559
 31
0.0
 11
178.1959787504506
 21
14.07947489606349
 31
0.0
 11
178.1972884379173
 21
13.97495896727021
 31
0.0
 11
178.1976985420736
 21
13.88517371555659
 31
0.0
 11
178.1976985420736
 21
13.81891763918421
 31
0.0
 11
178.1976985420736
 21
13.77165864614048
 31
0.0
 11
178.1736699662977
 21
13.77165864614048
 31
0.0
 11
178.1496413905218
 21
13.77165864614048
 31
0.0
 11
177.7410729200423
 21
14.23466735262193
 31
0.0
 11
177.3067935648022
 21
14.7089803820173
 31
0.0
  0
SPLINE
  5
BC
102
{ACAD_REACTORS
330
D9
102
}
330
48
100
AcDbEntity
  8
_U_30EC_U_30A4_U_30E4_U_30FC_1
  6
Continuous
 62
     2
100
AcDbSpline
210
0.0
220
0.0
230
1.0
 70
    11
 71
     3
 72
   110
 73
   106
 74
   104
 42
0.000000001
 43
0.0000000001
 44
0.00000001
 40
0.0
 40
0.0
 40
0.0
 40
0.0
 40
0.2203406257278051
 40
0.440780878283809
 40
0.5952494494615065
 40
0.7488431659393051
 40
0.9023581831308465
 40
1.056801968670402
 40
1.210736449099874
 40
1.363041386539781
 40
1.515315729683094
 40
1.669377239148073
 40
1.721611652756531
 40
1.77319950294287
 40
1.824933793209963
 40
1.877110426487899
 40
1.98268228120666
 40
2.078781667087441
 40
2.172809640822218
 40
2.271937807378843
 40
2.378349933379237
 40
2.494131557736512
 40
2.626681683943616
 40
2.783145050795987
 40
2.890701232940809
 40
2.993130312454654
 40
3.099869730691667
 40
3.220237816691209
 40
3.352695482737467
 40
3.48173280638968
 40
3.593499473690249
 40
3.674323013331736
 40
3.817951711952629
 40
3.946167120793598
 40
4.061405053453312
 40
4.166480796002924
 40
4.262478775059074
 40
4.35073667355103
 40
4.433071991253917
 40
4.511216293814407
 40
4.564262454117721
 40
4.618474415571352
 40
4.670128488753956
 40
4.722296879126209
 40
4.819540945314086
 40
4.931194984127945
 40
5.049996040257527
 40
5.168643755415015
 40
5.283970811762313
 40
5.392260784910167
 40
5.486512254876185
 40
5.559178233949556
 40
5.591425852853207
 40
5.626215969637582
 40
5.667155838674147
 40
5.717449290213984
 40
5.738402360944579
 40
5.784499116553509
 40
5.83059587216444
 40
5.85154894289728
 40
5.873019280661407
 40
5.924217778407978
 40
5.985325662817389
 40
6.036524160567432
 40
6.057994498333971
 40
6.236847789607215
 40
6.381409928945415
 40
6.493190424178419
 40
6.574067534230177
 40
6.691018086205243
 40
6.814881554220189
 40
6.94430782324017
 40
7.071266716065677
 40
7.193488604461525
 40
7.309042773127748
 40
7.414007203170435
 40
7.505140441886212
 40
7.5311503605993
 40
7.559221645321839
 40
7.587202218920535
 40
7.612569159498792
 40
7.662550809480654
 40
7.702878875763772
 40
7.857328205230585
 40
8.010799568088203
 40
8.165256399657181
 40
8.322232698713492
 40
8.479564855016207
 40
8.63521623029041
 40
8.790882550925357
 40
8.948305154946894
 40
9.16827183903259
 40
9.387358980986827
 40
9.6080479610331
 40
9.83291423479232
 40
9.858338694962653
 40
9.925366817229655
 40
10.02013071422723
 40
10.12876249858961
 40
10.23739428295211
 40
10.33215817995152
 40
10.39918630222355
 40
10.42461076239744
 40
10.64992019336904
 40
10.87188524531147
 40
10.87188524531147
 40
10.87188524531147
 40
10.87188524531147
 10
179.9057788376619
 20
15.73923260398189
 30
0.0
 10
179.9092864933542
 20
15.80616462073803
 30
0.0
 10
179.9163033987662
 20
15.94005891915858
 30
0.0
 10
179.8198027599073
 20
16.22548554971468
 30
0.0
 10
180.0510134726109
 20
16.16284386190281
 30
0.0
 10
180.1919290057157
 20
16.17001554055997
 30
0.0
 10
180.3490417757588
 20
16.16235883078251
 30
0.0
 10
180.5025913427288
 20
16.1625275228304
 30
0.0
 10
180.6545104935082
 20
16.16182040535438
 30
0.0
 10
180.8142214813232
 20
16.17210158351645
 30
0.0
 10
180.9408972601118
 20
16.15496511080748
 30
0.0
 10
181.1370821122081
 20
16.22727260107147
 30
0.0
 10
181.1034395279079
 20
16.12640699080119
 30
0.0
 10
181.1052011317184
 20
16.07619253947674
 30
0.0
 10
181.102734207346
 20
16.02712335586471
 30
0.0
 10
181.1347076966011
 20
15.94063490847005
 30
0.0
 10
181.0010399903257
 20
15.98997438608336
 30
0.0
 10
180.9172208688057
 20
15.98430634314173
 30
0.0
 10
180.8173861139325
 20
15.99465516706297
 30
0.0
 10
180.7186576720146
 20
16.00086450411087
 30
0.0
 10
180.6121532771111
 20
16.0069776381678
 30
0.0
 10
180.4910511698059
 20
16.01588883484594
 30
0.0
 10
180.3703381502455
 20
16.00521605912381
 30
0.0
 10
180.1812553843437
 20
16.06468503080362
 30
0.0
 10
180.2129028505312
 20
15.90558320077542
 30
0.0
 10
180.1995563316835
 20
15.80839128339907
 30
0.0
 10
180.1974958426449
 20
15.69634065110105
 30
0.0
 10
180.195818804467
 20
15.57699685629351
 30
0.0
 10
180.1973336794234
 20
15.45032592155112
 30
0.0
 10
180.1956582478669
 20
15.32301588016119
 30
0.0
 10
180.2058844271659
 20
15.22451566404467
 30
0.0
 10
180.1779006596583
 20
15.08388702625636
 30
0.0
 10
180.3508029999306
 20
15.13989551134098
 30
0.0
 10
180.4645020202772
 20
15.127199514785
 30
0.0
 10
180.5840151672239
 20
15.13448377051257
 30
0.0
 10
180.6888491425072
 20
15.13878017056759
 30
0.0
 10
180.7843084898613
 20
15.14330568258978
 30
0.0
 10
180.8763823507032
 20
15.15149201146201
 30
0.0
 10
180.947655178244
 20
15.14643850638114
 30
0.0
 10
181.0544931705684
 20
15.18536425031674
 30
0.0
 10
181.0226603598037
 20
15.10517122005881
 30
0.0
 10
181.0266164503929
 20
15.05562936846037
 30
0.0
 10
181.0234502392014
 20
15.0055747803982
 30
0.0
 10
181.0550791490584
 20
14.92128847612016
 30
0.0
 10
180.9210133677692
 20
14.97425365495163
 30
0.0
 10
180.82923227932
 20
14.9654008089045
 30
0.0
 10
180.7079729189603
 20
14.97570049965155
 30
0.0
 10
180.5914113119772
 20
14.97748911767501
 30
0.0
 10
180.478337574588
 20
14.97787017109693
 30
0.0
 10
180.3679246308471
 20
14.98415449472183
 30
0.0
 10
180.2898124067841
 20
14.97189133255364
 30
0.0
 10
180.1913625833645
 20
15.00453887616126
 30
0.0
 10
180.2012355173562
 20
14.94769748054209
 30
0.0
 10
180.1973923244402
 20
14.91392130557987
 30
0.0
 10
180.1966789884268
 20
14.87119604709412
 30
0.0
 10
180.1963369642975
 20
14.83401607262153
 30
0.0
 10
180.1963834255345
 20
14.79487237370772
 30
0.0
 10
180.1963649429927
 20
14.7571684949769
 30
0.0
 10
180.1963703431806
 20
14.71944955232409
 30
0.0
 10
180.1963697214201
 20
14.68994324745159
 30
0.0
 10
180.1963698151544
 20
14.65873577699309
 30
0.0
 10
180.1963704287921
 20
14.6141442490809
 30
0.0
 10
180.1963671499337
 20
14.55963956508854
 30
0.0
 10
180.196375962348
 20
14.51505540201448
 30
0.0
 10
180.1963359653417
 20
14.4311780858574
 30
0.0
 10
180.1976024270256
 20
14.31737520677677
 30
0.0
 10
180.1950274117841
 20
14.16830395933707
 30
0.0
 10
180.206500938172
 20
14.06597203813905
 30
0.0
 10
180.1823506222264
 20
13.93338903885839
 30
0.0
 10
180.3332993946477
 20
13.97895732272027
 30
0.0
 10
180.4428436671556
 20
13.96427012162353
 30
0.0
 10
180.5733970473921
 20
13.96920435125071
 30
0.0
 10
180.6990312209514
 20
13.97257705323351
 30
0.0
 10
180.8188730625601
 20
13.97711497498779
 30
0.0
 10
180.9391362611426
 20
13.99048536181997
 30
0.0
 10
181.0222761663516
 20
13.98068712782598
 30
0.0
 10
181.1456080421074
 20
14.04126214623316
 30
0.0
 10
181.1244269203958
 20
13.98532460134023
 30
0.0
 10
181.1235950270118
 20
13.9593924937235
 30
0.0
 10
181.121896370756
 20
13.93197256190942
 30
0.0
 10
181.1217974888831
 20
13.89738195206386
 30
0.0
 10
181.120365930133
 20
13.86050408220767
 30
0.0
 10
181.1532804192191
 20
13.76846841021809
 30
0.0
 10
180.9551306988108
 20
13.8413201597483
 30
0.0
 10
180.8300548294892
 20
13.81825726508601
 30
0.0
 10
180.6673071295157
 20
13.82454021985782
 30
0.0
 10
180.5129366450002
 20
13.82260943909922
 30
0.0
 10
180.3566670436944
 20
13.82393762599263
 30
0.0
 10
180.1970544465283
 20
13.82059872487858
 30
0.0
 10
180.0540326342237
 20
13.8326579572824
 30
0.0
 10
179.8197144881629
 20
13.76952001976922
 30
0.0
 10
179.9173810751197
 20
14.05620527466319
 30
0.0
 10
179.9006868780059
 20
14.24988308142661
 30
0.0
 10
179.9146296709685
 20
14.47848242880297
 30
0.0
 10
179.9142987846632
 20
14.63384593955051
 30
0.0
 10
179.9143078119264
 20
14.7396633644413
 30
0.0
 10
179.9143055876317
 20
14.80205784124217
 30
0.0
 10
179.914306555189
 20
14.89220425248329
 30
0.0
 10
179.9143065473262
 20
14.99621167157439
 30
0.0
 10
179.9143053861104
 20
15.10022131375298
 30
0.0
 10
179.9143090971502
 20
15.19036243688768
 30
0.0
 10
179.9143011051052
 20
15.25276803097215
 30
0.0
 10
179.914333427502
 20
15.3586883596112
 30
0.0
 10
179.913144078832
 20
15.51626716544739
 30
0.0
 10
179.9082216489257
 20
15.66528219822065
 30
0.0
 10
179.9057788376619
 20
15.73923260398189
 30
0.0
 11
179.9057788376619
 21
15.73923260398189
 31
0.0
 11
179.8966918223741
 21
15.9593857810102
 31
0.0
 11
179.8868249573134
 21
16.17960510387178
 31
0.0
 11
180.0411575141401
 21
16.17312391463728
 31
0.0
 11
180.1946500189047
 21
16.16754892331929
 31
0.0
 11
180.3481160653367
 21
16.16367167505636
 31
0.0
 11
180.502554455494
 21
16.16238072887609
 31
0.0
 11
180.6564835227474
 21
16.16367167505636
 31
0.0
 11
180.8087391004601
 21
16.16754892331929
 31
0.0
 11
180.9609113551074
 21
16.17312391463728
 31
0.0
 11
181.1148364762484
 21
16.17960510387178
 31
0.0
 11
181.1070811703125
 21
16.1279496177736
 31
0.0
 11
181.1044991623592
 21
16.0764264233421
 31
0.0
 11
181.1070811703125
 21
16.02475660564662
 31
0.0
 11
181.1148364762484
 21
15.9731595483679
 31
0.0
 11
181.0094874054411
 21
15.98001446156059
 31
0.0
 11
180.9136375700061
 21
15.9869355205866
 31
0.0
 11
180.8198593171904
 21
15.99378381919599
 31
0.0
 11
180.7209679915882
 21
16.0006321178054
 31
0.0
 11
180.6147532199925
 21
16.00710999974827
 31
0.0
 11
180.4991060528038
 21
16.012688298358
 31
0.0
 11
180.3666126447258
 21
16.01656554662087
 31
0.0
 11
180.2101546018424
 21
16.01785649280109
 31
0.0
 11
180.2062663293722
 21
15.91037061609187
 31
0.0
 11
180.2015380048401
 21
15.8080507289647
 31
0.0
 11
180.1976607566749
 21
15.7013817532969
 31
0.0
 11
180.1963698105272
 21
15.58102059013248
 31
0.0
 11
180.1967799146836
 21
15.44856355891566
 31
0.0
 11
180.1980896021502
 21
15.3195328818646
 31
0.0
 11
180.199407457705
 21
15.2077739843231
 31
0.0
 11
180.1998191153661
 21
15.12695149302388
 31
0.0
 11
180.3434452935875
 21
15.12780256941253
 31
0.0
 11
180.4716343930758
 21
15.13039989580079
 31
0.0
 11
180.5868078221796
 21
15.13425509545256
 31
0.0
 11
180.691775631222
 21
15.13901649302079
 31
0.0
 11
180.7876346289422
 21
15.14418027774177
 31
0.0
 11
180.8757413374194
 21
15.14934406246269
 31
0.0
 11
180.9578881438497
 21
15.15491243919742
 31
0.0
 11
181.0357692335571
 21
15.16132086801528
 31
0.0
 11
181.0280180445186
 21
15.1088440711534
 31
0.0
 11
181.0254328449317
 21
15.0546937847086
 31
0.0
 11
181.0280180445186
 21
15.00310444444369
 31
0.0
 11
181.0357692335571
 21
14.95151510417878
 31
0.0
 11
180.9389813454014
 21
14.9609232465376
 31
0.0
 11
180.8275950722015
 21
14.96865128473019
 31
0.0
 11
180.7089261429373
 21
14.97425273438147
 31
0.0
 11
180.5903167449214
 21
14.9772678819501
 31
0.0
 11
180.4750025117521
 21
14.97898767361638
 31
0.0
 11
180.36672619507
 21
14.98070746528259
 31
0.0
 11
180.2724839317709
 21
14.98202486979617
 31
0.0
 11
180.1998191153661
 21
14.9824360763933
 31
0.0
 11
180.199407457705
 21
14.95019108508193
 31
0.0
 11
180.1980896021502
 21
14.91542593752121
 31
0.0
 11
180.1967799146836
 21
14.87450702260086
 31
0.0
 11
180.1963698105272
 21
14.8242152430995
 31
0.0
 11
180.1963698105272
 21
14.80326217235822
 31
0.0
 11
180.1963698105272
 21
14.7571654167274
 31
0.0
 11
180.1963698105272
 21
14.71106866109659
 31
0.0
 11
180.1963698105272
 21
14.69011559035531
 31
0.0
 11
180.1963698105272
 21
14.66864525258289
 31
0.0
 11
180.1963698105272
 21
14.61744675481789
 31
0.0
 11
180.1963698105272
 21
14.5563388703887
 31
0.0
 11
180.1963698105272
 21
14.50514037262371
 31
0.0
 11
180.1963698105272
 21
14.48367003485129
 31
0.0
 11
180.1967799146836
 21
14.30481721371547
 31
0.0
 11
180.1980896021502
 21
14.16026100715439
 31
0.0
 11
180.2002868589709
 21
14.04850210961289
 31
0.0
 11
180.2032586986986
 21
13.9676796183137
 31
0.0
 11
180.3202092517448
 21
13.9676796183137
 31
0.0
 11
180.4440727208747
 21
13.9676796183137
 31
0.0
 11
180.5734925526423
 21
13.96897056449394
 31
0.0
 11
180.7003922282244
 21
13.97284781275678
 31
0.0
 11
180.8224658067973
 21
13.97886708358866
 31
0.0
 11
180.9377587499463
 21
13.98663260441998
 31
0.0
 11
181.0421754573519
 21
13.99734161483402
 31
0.0
 11
181.1320599255449
 21
14.01237656274688
 31
0.0
 11
181.1264254031192
 21
13.98698427976718
 31
0.0
 11
181.1234433285424
 21
13.95907184053809
 31
0.0
 11
181.1221339881201
 21
13.93112191867005
 31
0.0
 11
181.1217235369196
 21
13.90575829888471
 31
0.0
 11
181.1243087365065
 21
13.85584355063326
 31
0.0
 11
181.1320599255449
 21
13.81626739612929
 31
0.0
 11
180.9776977178345
 21
13.82145433189185
 31
0.0
 11
180.8242357818766
 21
13.82315538223858
 31
0.0
 11
180.6697789496484
 21
13.82315538223858
 31
0.0
 11
180.5128026496769
 21
13.82315538223858
 31
0.0
 11
180.3554704921537
 21
13.82315538223858
 31
0.0
 11
180.1998191153661
 21
13.82315538223858
 31
0.0
 11
180.0441620874242
 21
13.82145433189185
 31
0.0
 11
179.8868249573134
 21
13.81626739612929
 31
0.0
 11
179.8966918223741
 21
14.03601267385213
 31
0.0
 11
179.9057788376619
 21
14.2549112849085
 31
0.0
 11
179.9121721518401
 21
14.47550763902005
 31
0.0
 11
179.914306345501
 21
14.70036378479719
 31
0.0
 11
179.914306345501
 21
14.72578824496878
 31
0.0
 11
179.914306345501
 21
14.79281636723935
 31
0.0
 11
179.914306345501
 21
14.88758026424256
 31
0.0
 11
179.914306345501
 21
14.99621204861209
 31
0.0
 11
179.914306345501
 21
15.10484383298163
 31
0.0
 11
179.914306345501
 21
15.19960772998484
 31
0.0
 11
179.914306345501
 21
15.2666358522554
 31
0.0
 11
179.914306345501
 21
15.292060312427
 31
0.0
 11
179.9121721518401
 21
15.51735963528735
 31
0.0
 11
179.9057788376619
 21
15.73923260398189
 31
0.0
  0
SPLINE
  5
BD
102
{ACAD_REACTORS
330
DA
102
}
330
48
100
AcDbEntity
  8
_U_30EC_U_30A4_U_30E4_U_30FC_1
  6
Continuous
 62
     2
100
AcDbSpline
210
0.0
220
0.0
230
1.0
 70
    11
 71
     3
 72
    47
 73
    43
 74
    41
 42
0.000000001
 43
0.0000000001
 44
0.00000001
 40
0.0
 40
0.0
 40
0.0
 40
0.0
 40
0.2207912809957716
 40
0.4459404186303189
 40
0.490238719045883
 40
0.5327473892722
 40
0.5742260451224752
 40
0.6155432630560623
 40
0.6568164066315267
 40
0.6982511618779619
 40
0.7407663929316063
 40
0.7851366743174113
 40
1.010288833836174
 40
1.231080507002075
 40
1.451765243652256
 40
1.676638205891539
 40
1.720461045359511
 40
1.830018144043377
 40
1.972442372353011
 40
2.11486660067738
 40
2.224423699395009
 40
2.26824653888325
 40
2.493628801207062
 40
2.715602830286489
 40
2.93421133070622
 40
3.149502369855212
 40
3.231387784850742
 40
3.318231873853805
 40
3.405143198197793
 40
3.486970301720199
 40
3.70225817249364
 40
3.920866283533847
 40
4.142839325931666
 40
4.36822190386511
 40
4.412044743359592
 40
4.521601842095607
 40
4.664026070452089
 40
4.806450298808802
 40
4.916007397546497
 40
4.95983023704282
 40
5.184703515846851
 40
5.40538725076718
 40
5.40538725076718
 40
5.40538725076718
 40
5.40538725076718
 10
182.6507427258645
 20
15.73406440953869
 30
0.0
 10
182.6568139420002
 20
15.79758482501208
 30
0.0
 10
182.6690762107243
 20
15.92587938689624
 30
0.0
 10
182.5604706879412
 20
16.20166220174076
 30
0.0
 10
182.6761985896604
 20
16.17188133432051
 30
0.0
 10
182.7171842509016
 20
16.16765556262827
 30
0.0
 10
182.7591205797519
 20
16.16310446389613
 30
0.0
 10
182.800419662571
 20
16.16201982929485
 30
0.0
 10
182.8417032115556
 20
16.16310338195233
 30
0.0
 10
182.8836148270648
 20
16.1676611271135
 30
0.0
 10
182.9245983549019
 20
16.17187430209726
 30
0.0
 10
183.0404922843489
 20
16.20177611317534
 30
0.0
 10
182.9295652727457
 20
15.92339806609887
 30
0.0
 10
182.9574856365268
 20
15.74283140824953
 30
0.0
 10
182.940426734697
 20
15.50961042346471
 30
0.0
 10
182.9414637282103
 20
15.34906622543148
 30
0.0
 10
182.9414099399405
 20
15.22284817558723
 30
0.0
 10
182.9414277372482
 20
15.12428963336242
 30
0.0
 10
182.9414188581081
 20
14.99280702442964
 30
0.0
 10
182.9414263928035
 20
14.86132844968651
 30
0.0
 10
182.9414129405129
 20
14.76276222694091
 30
0.0
 10
182.9414531717493
 20
14.63639735624153
 30
0.0
 10
182.9406746403818
 20
14.47482068822871
 30
0.0
 10
182.9565958319268
 20
14.24361821892916
 30
0.0
 10
182.9333468885408
 20
14.05874351972003
 30
0.0
 10
183.0360183444366
 20
13.78935602770061
 30
0.0
 10
182.8820238362837
 20
13.82660112685817
 30
0.0
 10
182.8004129802832
 20
13.82137994680528
 30
0.0
 10
182.7188192292583
 20
13.82660620378351
 30
0.0
 10
182.5648513666843
 20
13.7893706988539
 30
0.0
 10
182.6674183421917
 20
14.05875129862881
 30
0.0
 10
182.6442045316088
 20
14.24361585325416
 30
0.0
 10
182.6600444655139
 20
14.47482218565639
 30
0.0
 10
182.6593296313428
 20
14.63639712308505
 30
0.0
 10
182.6593664569907
 20
14.76276231210521
 30
0.0
 10
182.6593549000272
 20
14.86132756635983
 30
0.0
 10
182.6593575019214
 20
14.9928112741722
 30
0.0
 10
182.6593648531779
 20
15.12427548031201
 30
0.0
 10
182.6593442541352
 20
15.22287786275328
 30
0.0
 10
182.6594082192029
 20
15.34896149354429
 30
0.0
 10
182.658173394759
 20
15.51210091383771
 30
0.0
 10
182.6532040396745
 20
15.66054183777548
 30
0.0
 10
182.6507427258645
 20
15.73406440953869
 30
0.0
 11
182.6507427258645
 21
15.73406440953869
 31
0.0
 11
182.6417328200379
 21
15.95467178795579
 31
0.0
 11
182.6318769706147
 21
16.17960510387178
 31
0.0
 11
182.6756985840802
 21
16.17312391463728
 31
0.0
 11
182.7178400934216
 21
16.16754892331929
 31
0.0
 11
182.7591371409791
 21
16.16367167505636
 31
0.0
 11
182.8004341885366
 21
16.16238072887609
 31
0.0
 11
182.8416871388731
 21
16.16367167505636
 31
0.0
 11
182.8829400892097
 21
16.16754892331929
 31
0.0
 11
182.9250882131343
 21
16.17312391463728
 31
0.0
 11
182.9689825870145
 21
16.17960510387178
 31
0.0
 11
182.9590577693892
 21
15.95467178795579
 31
0.0
 11
182.9500384208311
 21
15.73406440953869
 31
0.0
 11
182.9435638463436
 21
15.51347467001056
 31
0.0
 11
182.9414218238287
 21
15.28861190965009
 31
0.0
 11
182.9414218238287
 21
15.24478907015487
 31
0.0
 11
182.9414218238287
 21
15.13523197141684
 31
0.0
 11
182.9414218238287
 21
14.99280774305738
 31
0.0
 11
182.9414218238287
 21
14.85038351469793
 31
0.0
 11
182.9414218238287
 21
14.74082641595989
 31
0.0
 11
182.9414218238287
 21
14.69700357646468
 31
0.0
 11
182.9435638463436
 21
14.47163149318769
 31
0.0
 11
182.9500384208311
 21
14.2497519099098
 31
0.0
 11
182.9590577693892
 21
14.03132954885331
 31
0.0
 11
182.9689825870145
 21
13.81626739612929
 31
0.0
 11
182.8872616168771
 21
13.82145433189185
 31
0.0
 11
182.8004341885366
 21
13.82315538223858
 31
0.0
 11
182.713539511934
 21
13.82145433189185
 31
0.0
 11
182.6318769706147
 21
13.81626739612929
 31
0.0
 11
182.6417328200379
 21
14.03132954885331
 31
0.0
 11
182.6507427258645
 21
14.2497519099098
 31
0.0
 11
182.6571833838798
 21
14.47163149318769
 31
0.0
 11
182.6593583588024
 21
14.69700357646468
 31
0.0
 11
182.6593583588024
 21
14.74082641595989
 31
0.0
 11
182.6593583588024
 21
14.85038351469793
 31
0.0
 11
182.6593583588024
 21
14.99280774305738
 31
0.0
 11
182.6593583588024
 21
15.13523197141684
 31
0.0
 11
182.6593583588024
 21
15.24478907015487
 31
0.0
 11
182.6593583588024
 21
15.28861190965009
 31
0.0
 11
182.6571833838798
 21
15.51347467001056
 31
0.0
 11
182.6507427258645
 21
15.73406440953869
 31
0.0
  0
SPLINE
  5
BE
102
{ACAD_REACTORS
330
DB
102
}
330
48
100
AcDbEntity
  8
_U_30EC_U_30A4_U_30E4_U_30FC_1
  6
Continuous
 62
     2
100
AcDbSpline
210
0.0
220
0.0
230
1.0
 70
    11
 71
     3
 72
   118
 73
   114
 74
   112
 42
0.000000001
 43
0.0000000001
 44
0.00000001
 40
0.0
 40
0.0
 40
0.0
 40
0.0
 40
0.1054708162972979
 40
0.2466098270051479
 40
0.3965912874590696
 40
0.5285525069753496
 40
0.6156245055641607
 40
0.6431434105796708
 40
0.7036850037985158
 40
0.7642265984503134
 40
0.7917455052353409
 40
0.9287404319988846
 40
1.106572819087944
 40
1.287544879680951
 40
1.31757830803047
 40
1.399928030857108
 40
1.522968204799885
 40
1.675072986590511
 40
1.844616533180594
 40
2.019973001638661
 40
2.189516548879978
 40
2.341621331585318
 40
2.464661506320458
 40
2.547011229647023
 40
2.577044658167989
 40
2.603797890893059
 40
2.662655002908775
 40
2.721512114949615
 40
2.748265347702767
 40
2.774215307344841
 40
2.845959313407173
 40
2.954338556588367
 40
3.090194227585544
 40
3.244367517100509
 40
3.407699615844262
 40
3.571031714539409
 40
3.725205003920083
 40
3.861060674729583
 40
3.969439917716273
 40
4.041183923628944
 40
4.067133883212938
 40
4.311886746012153
 40
4.547897258335508
 40
4.764747083043951
 40
4.952749679951741
 40
5.0457729741958
 40
5.137862019644931
 40
5.330543169792924
 40
5.553448265243897
 40
5.795083855888052
 40
6.043293412177142
 40
6.285761695541094
 40
6.313902908752606
 40
6.384255941793196
 40
6.475714884766784
 40
6.567173827758875
 40
6.637526860839682
 40
6.665668074074045
 40
6.692018920328021
 40
6.749990782071098
 40
6.807962643790473
 40
6.83431349001795
 40
6.856393084245228
 40
6.913335195649852
 40
6.991194817302544
 40
7.076026942283834
 40
7.153886563725353
 40
7.210828674844906
 40
7.23290826893127
 40
7.258199334923789
 40
7.324875781592434
 40
7.419142481925084
 40
7.527204308842018
 40
7.635266135230589
 40
7.729532834168568
 40
7.796209279292883
 40
7.821500344594829
 40
7.8446529888509
 40
7.899863140541651
 40
7.965759128053789
 40
8.020969279771046
 40
8.044121924046513
 40
8.069356610160593
 40
8.109134395441298
 40
8.13223810019101
 40
8.193147867786365
 40
8.27926167887653
 40
8.377977512673732
 40
8.476693347146508
 40
8.562807160411548
 40
8.623716930826326
 40
8.64682063685328
 40
8.671988793774092
 40
8.734909185827975
 40
8.81670569518869
 40
8.89850220481526
 40
8.961422597377721
 40
8.986590754550834
 40
9.012941600732992
 40
9.070913462380084
 40
9.128885324081585
 40
9.155236170324908
 40
9.180404327928951
 40
9.243324721948024
 40
9.325121234211789
 40
9.406917746637443
 40
9.469838141977899
 40
9.495006288270673
 40
9.51781118437882
 40
9.572192090486837
 40
9.637098333281083
 40
9.6914792395153
 40
9.714284125643344
 40
9.714284125643344
 40
9.714284125643344
 40
9.714284125643344
 10
185.2874469028654
 20
15.26889163187718
 30
0.0
 10
185.3090990569039
 20
15.2411186924281
 30
0.0
 10
185.3597257109474
 20
15.17618054561234
 30
0.0
 10
185.4349383202592
 20
15.06891060312898
 30
0.0
 10
185.5248482274347
 20
14.95377438266624
 30
0.0
 10
185.5709169676674
 20
14.85357045748319
 30
0.0
 10
185.6655825294654
 20
14.78434006814942
 30
0.0
 10
185.6204439320413
 20
14.73771639678272
 30
0.0
 10
185.5947047785789
 20
14.6966030886604
 30
0.0
 10
185.5645196708014
 20
14.66065971727938
 30
0.0
 10
185.5193684730562
 20
14.58579782596093
 30
0.0
 10
185.4710504458563
 20
14.80782524253605
 30
0.0
 10
185.3968539713073
 20
14.84510677337714
 30
0.0
 10
185.2836047324608
 20
15.1161020213061
 30
0.0
 10
185.288513357817
 20
15.00095328446237
 30
0.0
 10
185.2868486556306
 20
14.92836675781636
 30
0.0
 10
185.2876830076715
 20
14.80625588483995
 30
0.0
 10
185.2873609540265
 20
14.65913800810469
 30
0.0
 10
185.2875076912456
 20
14.49307063956564
 30
0.0
 10
185.2872950092724
 20
14.32187554608609
 30
0.0
 10
185.2879497252034
 20
14.15552828635505
 30
0.0
 10
185.285919246114
 20
14.009351730557
 30
0.0
 10
185.2913460399932
 20
13.88471047474618
 30
0.0
 10
185.2804930868709
 20
13.81718656540632
 30
0.0
 10
185.2956739155556
 20
13.75549061417028
 30
0.0
 10
185.2457895108134
 20
13.76727503897007
 30
0.0
 10
185.2017150342522
 20
13.75943822779975
 30
0.0
 10
185.1582371630201
 20
13.76760441372709
 30
0.0
 10
185.1092346786489
 20
13.75538056738474
 30
0.0
 10
185.1218731234826
 20
13.8096066724932
 30
0.0
 10
185.113018296845
 20
13.86936918907563
 30
0.0
 10
185.1175058770314
 20
13.97922029044376
 30
0.0
 10
185.1157960135992
 20
14.11029975405684
 30
0.0
 10
185.1163550915987
 20
14.26198011444333
 30
0.0
 10
185.1161928768695
 20
14.42211074929958
 30
0.0
 10
185.1162269924676
 20
14.58236865674571
 30
0.0
 10
185.1162514960127
 20
14.73370247520444
 30
0.0
 10
185.1161453543226
 20
14.86582156338605
 30
0.0
 10
185.1164299141932
 20
14.97294802533198
 30
0.0
 10
185.1158675547568
 20
15.03808619579478
 30
0.0
 10
185.1180765083689
 20
15.1661895785868
 30
0.0
 10
185.0319435998603
 20
14.79097610391579
 30
0.0
 10
184.95551408185
 20
14.63918193123396
 30
0.0
 10
184.8660040767833
 20
14.47766206446314
 30
0.0
 10
184.7640413217326
 20
14.2047184882018
 30
0.0
 10
184.7187976491039
 20
14.36717346596515
 30
0.0
 10
184.6102355941672
 20
14.45605432058131
 30
0.0
 10
184.7995791751753
 20
14.60549794961414
 30
0.0
 10
184.8565340545701
 20
14.79749136974929
 30
0.0
 10
184.9717520993352
 20
15.02899622906761
 30
0.0
 10
184.9940151630134
 20
15.21797259759065
 30
0.0
 10
185.177190515214
 20
15.49454089325936
 30
0.0
 10
185.0538033597553
 20
15.48698978832099
 30
0.0
 10
184.9925684166834
 20
15.48856772366123
 30
0.0
 10
184.9081999617065
 20
15.48882592573678
 30
0.0
 10
184.8204235085965
 20
15.4854484575121
 30
0.0
 10
184.7656768696122
 20
15.49394814982026
 30
0.0
 10
184.7104703026025
 20
15.48048561049793
 30
0.0
 10
184.7222823035536
 20
15.52931442126769
 30
0.0
 10
184.7142496151794
 20
15.57269004896715
 30
0.0
 10
184.7228186104678
 20
15.61509438309579
 30
0.0
 10
184.7102943409157
 20
15.66267796552125
 30
0.0
 10
184.7555101538735
 20
15.65267212995116
 30
0.0
 10
184.8014815562724
 20
15.65894105174068
 30
0.0
 10
184.877722204771
 20
15.65593561405879
 30
0.0
 10
184.9561296131994
 20
15.65770448278548
 30
0.0
 10
185.0323992648933
 20
15.65464793981667
 30
0.0
 10
185.0783009459475
 20
15.66103971376184
 30
0.0
 10
185.1231733965401
 20
15.65093822978903
 30
0.0
 10
185.1105552275634
 20
15.70157201581904
 30
0.0
 10
185.1191936582707
 20
15.75501261882076
 30
0.0
 10
185.1152361595445
 20
15.84863255131686
 30
0.0
 10
185.1162325068335
 20
15.95112606688929
 30
0.0
 10
185.1171927413074
 20
16.05353270248167
 30
0.0
 10
185.1133211458005
 20
16.14735929609324
 30
0.0
 10
185.1217789814366
 20
16.20036542840356
 30
0.0
 10
185.1093075932836
 20
16.25211435651191
 30
0.0
 10
185.1542106389851
 20
16.2385074722676
 30
0.0
 10
185.1955083836772
 20
16.24100480320587
 30
0.0
 10
185.2595344281051
 20
16.23648060574489
 30
0.0
 10
185.2986111148786
 20
16.22781003043307
 30
0.0
 10
185.3476543498742
 20
16.23515102070688
 30
0.0
 10
185.3225080030591
 20
16.19602896051755
 30
0.0
 10
185.2815901333724
 20
16.20563842455807
 30
0.0
 10
185.2910109616605
 20
16.15540148169779
 30
0.0
 10
185.2855647318747
 20
16.10385945639492
 30
0.0
 10
185.2881699601804
 20
16.01959707584523
 30
0.0
 10
185.2870102202155
 20
15.92559135583412
 30
0.0
 10
185.2883591064232
 20
15.8319686539553
 30
0.0
 10
185.284997010151
 20
15.74679517552229
 30
0.0
 10
185.292095991777
 20
15.69716856072051
 30
0.0
 10
185.2812569154546
 20
15.64993694969996
 30
0.0
 10
185.3304010225246
 20
15.66201674936858
 30
0.0
 10
185.3794877630148
 20
15.65447393363019
 30
0.0
 10
185.4573714280642
 20
15.65686070361439
 30
0.0
 10
185.5350365172897
 20
15.65899381905422
 30
0.0
 10
185.5845393931355
 20
15.65193391922461
 30
0.0
 10
185.634459475064
 20
15.66360151936221
 30
0.0
 10
185.6223198516882
 20
15.61540235371399
 30
0.0
 10
185.6305838229144
 20
15.57249219801241
 30
0.0
 10
185.6223198650785
 20
15.5295820185139
 30
0.0
 10
185.6344594549856
 20
15.4813828875487
 30
0.0
 10
185.5845395158747
 20
15.49305034471515
 30
0.0
 10
185.5350350651204
 20
15.48599202435051
 30
0.0
 10
185.4573784382974
 20
15.48811665228608
 30
0.0
 10
185.3794643865761
 20
15.49053389365765
 30
0.0
 10
185.3304500352717
 20
15.48291848194491
 30
0.0
 10
185.2813246108944
 20
15.49507952557597
 30
0.0
 10
185.2915559988573
 20
15.45073013424162
 30
0.0
 10
185.2856677678054
 20
15.40925436202914
 30
0.0
 10
185.2878788305569
 20
15.34915394315304
 30
0.0
 10
185.2874109346147
 20
15.30225782762888
 30
0.0
 10
185.2874386992914
 20
15.27650146418195
 30
0.0
 10
185.2874469028654
 20
15.26889163187718
 30
0.0
 11
185.2874469028654
 21
15.26889163187718
 31
0.0
 11
185.3516977534485
 21
15.18524999634256
 31
0.0
 11
185.43482588355
 21
15.07118889748221
 31
0.0
 11
185.5216831568896
 21
14.94891767195723
 31
0.0
 11
185.5971214371872
 21
14.84064565642875
 31
0.0
 11
185.6459925881626
 21
14.76858218755788
 31
0.0
 11
185.6296821285093
 21
14.74641782124398
 31
0.0
 11
185.593799117272
 21
14.69765621535339
 31
0.0
 11
185.5579161060347
 21
14.6488946094628
 31
0.0
 11
185.5416056463814
 21
14.6267302431489
 31
0.0
 11
185.4763067109446
 21
14.74716139023815
 31
0.0
 11
185.3848434243235
 21
14.89966983670211
 31
0.0
 11
185.2874469028654
 21
15.05219788193151
 31
0.0
 11
185.2874469028654
 21
15.02216445328262
 31
0.0
 11
185.2874469028654
 21
14.93981472956792
 31
0.0
 11
185.2874469028654
 21
14.81677455413536
 31
0.0
 11
185.2874469028654
 21
14.66466977033291
 31
0.0
 11
185.2874469028654
 21
14.49512622150853
 31
0.0
 11
185.2874469028654
 21
14.31976975101016
 31
0.0
 11
185.2874469028654
 21
14.15022620218578
 31
0.0
 11
185.2874469028654
 21
13.99812141838333
 31
0.0
 11
185.2874469028654
 21
13.87508124295077
 31
0.0
 11
185.2874469028654
 21
13.79273151923607
 31
0.0
 11
185.2874469028654
 21
13.76269809058718
 31
0.0
 11
185.260693670041
 21
13.76269809058718
 31
0.0
 11
185.2018365578272
 21
13.76269809058718
 31
0.0
 11
185.1429794456135
 21
13.76269809058718
 31
0.0
 11
185.1162262127891
 21
13.76269809058718
 31
0.0
 11
185.1162262127891
 21
13.78864805031256
 31
0.0
 11
185.1162262127891
 21
13.86039205661214
 31
0.0
 11
185.1162262127891
 21
13.96877130017107
 31
0.0
 11
185.1162262127891
 21
14.10462697167453
 31
0.0
 11
185.1162262127891
 21
14.25880026180766
 31
0.0
 11
185.1162262127891
 21
14.42213236125563
 31
0.0
 11
185.1162262127891
 21
14.58546446070361
 31
0.0
 11
185.1162262127891
 21
14.73963775083674
 31
0.0
 11
185.1162262127891
 21
14.8754934223402
 31
0.0
 11
185.1162262127891
 21
14.98387266589913
 31
0.0
 11
185.1162262127891
 21
15.05561667219871
 31
0.0
 11
185.1162262127891
 21
15.08156663192409
 31
0.0
 11
185.0379865861722
 21
14.84965603302374
 31
0.0
 11
184.9497110789304
 21
14.63077616328681
 31
0.0
 11
184.8544106930045
 21
14.43598991333552
 31
0.0
 11
184.7550964303356
 21
14.27636017379209
 31
0.0
 11
184.7109198342406
 21
14.35822446196601
 31
0.0
 11
184.6588057383481
 21
14.43414885430821
 31
0.0
 11
184.76273025903
 21
14.59640087926762
 31
0.0
 11
184.8629319864735
 21
14.79551465421784
 31
0.0
 11
184.9550446607902
 21
15.01890447916199
 31
0.0
 11
185.0347020220913
 21
15.25398465410323
 31
0.0
 11
185.0975378104881
 21
15.4881694790447
 31
0.0
 11
185.0693965972143
 21
15.4881694790447
 31
0.0
 11
184.9990435640298
 21
15.4881694790447
 31
0.0
 11
184.9075846208899
 21
15.4881694790447
 31
0.0
 11
184.81612567775
 21
15.4881694790447
 31
0.0
 11
184.7457726445654
 21
15.4881694790447
 31
0.0
 11
184.7176314312916
 21
15.4881694790447
 31
0.0
 11
184.7176314312916
 21
15.51452032539228
 31
0.0
 11
184.7176314312916
 21
15.57249218735694
 31
0.0
 11
184.7176314312916
 21
15.63046404932161
 31
0.0
 11
184.7176314312916
 21
15.65681489566919
 31
0.0
 11
184.739711025602
 21
15.65681489566919
 31
0.0
 11
184.7966531372444
 21
15.65681489566919
 31
0.0
 11
184.8745127592862
 21
15.65681489566919
 31
0.0
 11
184.9593448847945
 21
15.65681489566919
 31
0.0
 11
185.0372045068362
 21
15.65681489566919
 31
0.0
 11
185.0941466184787
 21
15.65681489566919
 31
0.0
 11
185.1162262127891
 21
15.65681489566919
 31
0.0
 11
185.1162262127891
 21
15.6821059617436
 31
0.0
 11
185.1162262127891
 21
15.74878240866703
 31
0.0
 11
185.1162262127891
 21
15.84304910948982
 31
0.0
 11
185.1162262127891
 21
15.95111093726229
 31
0.0
 11
185.1162262127891
 21
16.05917276503476
 31
0.0
 11
185.1162262127891
 21
16.15343946585755
 31
0.0
 11
185.1162262127891
 21
16.22011591278098
 31
0.0
 11
185.1162262127891
 21
16.24540697885539
 31
0.0
 11
185.1393181988666
 21
16.24373213107803
 31
0.0
 11
185.1943837041285
 21
16.23973826330123
 31
0.0
 11
185.2601070491184
 21
16.23497138885797
 31
0.0
 11
185.3151725543802
 21
16.23097752108117
 31
0.0
 11
185.3382645404578
 21
16.22930267330381
 31
0.0
 11
185.3249012644362
 21
16.20789677921189
 31
0.0
 11
185.2874469028654
 21
16.1945011455347
 31
0.0
 11
185.2874469028654
 21
16.17139743948579
 31
0.0
 11
185.2874469028654
 21
16.11048766899322
 31
0.0
 11
185.2874469028654
 21
16.02437385553819
 31
0.0
 11
185.2874469028654
 21
15.92565802060195
 31
0.0
 11
185.2874469028654
 21
15.8269421856657
 31
0.0
 11
185.2874469028654
 21
15.74082837221068
 31
0.0
 11
185.2874469028654
 21
15.6799186017181
 31
0.0
 11
185.2874469028654
 21
15.65681489566919
 31
0.0
 11
185.312615060481
 21
15.65681489566919
 31
0.0
 11
185.37553545452
 21
15.65681489566919
 31
0.0
 11
185.4573319667707
 21
15.65681489566919
 31
0.0
 11
185.5391284790213
 21
15.65681489566919
 31
0.0
 11
185.6020488730603
 21
15.65681489566919
 31
0.0
 11
185.6272170306759
 21
15.65681489566919
 31
0.0
 11
185.6272170306759
 21
15.63046404932161
 31
0.0
 11
185.6272170306759
 21
15.57249218735694
 31
0.0
 11
185.6272170306759
 21
15.51452032539228
 31
0.0
 11
185.6272170306759
 21
15.4881694790447
 31
0.0
 11
185.6020488730603
 21
15.4881694790447
 31
0.0
 11
185.5391284790213
 21
15.4881694790447
 31
0.0
 11
185.4573319667707
 21
15.4881694790447
 31
0.0
 11
185.37553545452
 21
15.4881694790447
 31
0.0
 11
185.312615060481
 21
15.4881694790447
 31
0.0
 11
185.2874469028654
 21
15.4881694790447
 31
0.0
 11
185.2874469028654
 21
15.46536458293928
 31
0.0
 11
185.2874469028654
 21
15.41098367684173
 31
0.0
 11
185.2874469028654
 21
15.34607743408015
 31
0.0
 11
185.2874469028654
 21
15.2916965279826
 31
0.0
 11
185.2874469028654
 21
15.26889163187718
 31
0.0
  0
SPLINE
  5
BF
102
{ACAD_REACTORS
330
DC
102
}
330
48
100
AcDbEntity
  8
_U_30EC_U_30A4_U_30E4_U_30FC_1
  6
Continuous
 62
     2
100
AcDbSpline
210
0.0
220
0.0
230
1.0
 70
    11
 71
     3
 72
    91
 73
    87
 74
    85
 42
0.000000001
 43
0.0000000001
 44
0.00000001
 40
0.0
 40
0.0
 40
0.0
 40
0.0
 40
0.0345987051695718
 40
0.1258134969461085
 40
0.2547723404888703
 40
0.4026032099153556
 40
0.550434079341642
 40
0.6793929228835227
 40
0.7706077146570467
 40
0.8052064287780072
 40
1.124852390615187
 40
1.427402236308775
 40
1.706356627453406
 40
1.95554141787507
 40
2.169485938566205
 40
2.344350786664665
 40
2.48056841156181
 40
2.590440557428831
 40
2.649189927150934
 40
2.749320643306137
 40
2.912632739879836
 40
3.147745656000039
 40
3.244827496384875
 40
3.338490056946481
 40
3.583815413206887
 40
3.761423943238232
 40
3.886956104362375
 40
3.985855451886557
 40
4.091766255337386
 40
4.250186473811607
 40
4.422734315084275
 40
4.628285684838372
 40
4.872093227758206
 40
5.152549652145315
 40
5.46496713583729
 40
5.803201477852208
 40
6.160362988813675
 40
6.193449448275758
 40
6.284170385501413
 40
6.419718138764254
 40
6.587285046385532
 40
6.774063446723418
 40
6.967245678113401
 40
7.154024078817415
 40
7.321590987025773
 40
7.457138740890131
 40
7.547859678555867
 40
7.580946138182427
 40
7.608533084714481
 40
7.669224367077459
 40
7.729915649429681
 40
7.757502595949734
 40
7.790278062553216
 40
7.880146277430685
 40
8.01441996318012
 40
8.180411842397621
 40
8.36543463767909
 40
8.556801071622363
 40
8.741823866830448
 40
8.907815745916015
 40
9.042089431507112
 40
9.131957646249237
 40
9.164733112796814
 40
9.415425063139722
 40
9.667986180958273
 40
9.694169807462412
 40
9.756607686047344
 40
9.83113031532218
 40
9.893568193899647
 40
9.919751820398464
 40
9.950967964690268
 40
9.996421631210376
 40
10.22087981037424
 40
10.44341866197516
 40
10.47847970788828
 40
10.57091337438729
 40
10.70159545461203
 40
10.85140174170334
 40
11.00120802880451
 40
11.13189010907356
 40
11.22432377582984
 40
11.2593848093893
 40
11.28697175596119
 40
11.34766303835893
 40
11.40835432042044
 40
11.43594125892079
 40
11.43594125892079
 40
11.43594125892079
 40
11.43594125892079
 10
190.0818114333289
 20
15.55242795125079
 30
0.0
 10
190.070278584494
 20
15.55242790287917
 30
0.0
 10
190.0283409444999
 20
15.55242773704167
 30
0.0
 10
189.9434129719025
 20
15.5524312580091
 30
0.0
 10
189.8207688553129
 20
15.55240926435881
 30
0.0
 10
189.6791206916993
 20
15.55250801177056
 30
0.0
 10
189.537975369849
 20
15.55214686232423
 30
0.0
 10
189.4141351317905
 20
15.5532188360909
 30
0.0
 10
189.3317217825382
 20
15.55092249091271
 30
0.0
 10
189.1727791229693
 20
15.5604856937342
 30
0.0
 10
189.3503402353376
 20
15.19785394311373
 30
0.0
 10
189.3379739205454
 20
14.95243127723118
 30
0.0
 10
189.4064519473865
 20
14.6686250132484
 30
0.0
 10
189.4693024320971
 20
14.43250999939041
 30
0.0
 10
189.5452253431728
 20
14.23326740396135
 30
0.0
 10
189.6303189577018
 20
14.07745347451382
 30
0.0
 10
189.7244607592936
 20
13.97657857781402
 30
0.0
 10
189.8282648207729
 20
13.92465852638973
 30
0.0
 10
189.9125872030774
 20
13.97606484379628
 30
0.0
 10
189.9351322179453
 20
14.09144544037524
 30
0.0
 10
189.9745730975372
 20
14.21885149702386
 30
0.0
 10
189.9202919734944
 20
14.53622328086769
 30
0.0
 10
190.0451218072473
 20
14.38982180140904
 30
0.0
 10
190.2019291513603
 20
14.35795300331169
 30
0.0
 10
190.0947720007056
 20
14.12421357767627
 30
0.0
 10
190.0808711209868
 20
13.95972776583658
 30
0.0
 10
190.0234709467226
 20
13.83130869122482
 30
0.0
 10
189.9335020145009
 20
13.7601880235283
 30
0.0
 10
189.8095274657878
 20
13.74432324142255
 30
0.0
 10
189.663427319686
 20
13.77993797554174
 30
0.0
 10
189.5243894320284
 20
13.90000570500279
 30
0.0
 10
189.4102003962144
 20
14.07435682550322
 30
0.0
 10
189.3146141301486
 20
14.29946603111243
 30
0.0
 10
189.2318652572627
 20
14.56388246006445
 30
0.0
 10
189.1807179256412
 20
14.88187933098546
 30
0.0
 10
189.077018920734
 20
15.15543728488915
 30
0.0
 10
189.204284120852
 20
15.56005818612869
 30
0.0
 10
189.0357890623019
 20
15.5511236784968
 30
0.0
 10
188.9511995787077
 20
15.55315961418365
 30
0.0
 10
188.8189876387628
 20
15.55213937388407
 30
0.0
 10
188.6560505094104
 20
15.55253230318431
 30
0.0
 10
188.4733759170534
 20
15.5523569631337
 30
0.0
 10
188.2847057373383
 20
15.5526010530747
 30
0.0
 10
188.101446902019
 20
15.55185657906238
 30
0.0
 10
187.9404746832718
 20
15.55416360522428
 30
0.0
 10
187.8029808335277
 20
15.54799804883664
 30
0.0
 10
187.7289590372312
 20
15.56032838458213
 30
0.0
 10
187.6613215186857
 20
15.54329323723558
 30
0.0
 10
187.673237371927
 20
15.5952443844753
 30
0.0
 10
187.6655677285694
 20
15.64071424966531
 30
0.0
 10
187.6732592225117
 20
15.68614453703708
 30
0.0
 10
187.6613141797762
 20
15.73802395984573
 30
0.0
 10
187.7283588305868
 20
15.72119143490266
 30
0.0
 10
187.8017375665677
 20
15.73335409092673
 30
0.0
 10
187.9379128305272
 20
15.7272723107496
 30
0.0
 10
188.0973811801513
 20
15.7295483431506
 30
0.0
 10
188.2789173085837
 20
15.72881233998964
 30
0.0
 10
188.4658034862179
 20
15.72905954196136
 30
0.0
 10
188.6468012316836
 20
15.72886400799256
 30
0.0
 10
188.8080802578879
 20
15.72932234714841
 30
0.0
 10
188.9393882124887
 20
15.72812673751208
 30
0.0
 10
189.0225051322596
 20
15.73051347319745
 30
0.0
 10
189.1556236547813
 20
15.72230605725466
 30
0.0
 10
189.064589350266
 20
15.97752868952658
 30
0.0
 10
188.978963307442
 20
16.24164358328262
 30
0.0
 10
189.0990589003456
 20
16.22904442969173
 30
0.0
 10
189.1514264948544
 20
16.22694235763082
 30
0.0
 10
189.2214497569717
 20
16.2253539988966
 30
0.0
 10
189.2671922337818
 20
16.21602567538115
 30
0.0
 10
189.3220812646933
 20
16.22545966915425
 30
0.0
 10
189.2963574785682
 20
16.17733028655176
 30
0.0
 10
189.1825397571454
 20
16.18266829744172
 30
0.0
 10
189.3159346621136
 20
15.9544917457678
 30
0.0
 10
189.1943658735471
 20
15.72156856595924
 30
0.0
 10
189.3223188769413
 20
15.73087258884442
 30
0.0
 10
189.4049048406461
 20
15.72801001754682
 30
0.0
 10
189.5307214850824
 20
15.72923437412305
 30
0.0
 10
189.6741469838057
 20
15.72932431888966
 30
0.0
 10
189.8157420951728
 20
15.72746163183855
 30
0.0
 10
189.9459127249967
 20
15.73333075937165
 30
0.0
 10
190.0193452286191
 20
15.72070340823206
 30
0.0
 10
190.0891112922096
 20
15.73877563110414
 30
0.0
 10
190.0775772605396
 20
15.68612850546328
 30
0.0
 10
190.0833184346682
 20
15.64221317686549
 30
0.0
 10
190.081661577091
 20
15.5908998267655
 30
0.0
 10
190.081775756167
 20
15.56158792021636
 30
0.0
 10
190.0818114333289
 20
15.55242795125079
 30
0.0
 11
190.0818114333289
 21
15.55242795125079
 31
0.0
 11
190.0472127192051
 21
15.55242795125079
 31
0.0
 11
189.9559979274241
 21
15.55242795125079
 31
0.0
 11
189.8270390838717
 21
15.55242795125079
 31
0.0
 11
189.6792082144336
 21
15.55242795125079
 31
0.0
 11
189.5313773449955
 21
15.55242795125079
 31
0.0
 11
189.4024185014431
 21
15.55242795125079
 31
0.0
 11
189.3112037096621
 21
15.55242795125079
 31
0.0
 11
189.2766049955383
 21
15.55242795125079
 31
0.0
 11
189.3083140497694
 21
15.23435864930123
 31
0.0
 11
189.3527866656866
 21
14.93509522788084
 31
0.0
 11
189.4092389118321
 21
14.6619126951258
 31
0.0
 11
189.4768868567479
 21
14.42208605917233
 31
0.0
 11
189.5549465689762
 21
14.22289032815661
 31
0.0
 11
189.6426341170592
 21
14.07160051021485
 31
0.0
 11
189.739165569539
 21
13.97549161348325
 31
0.0
 11
189.8437569949576
 21
13.94183864609801
 31
0.0
 11
189.8943077302786
 21
13.97177376978843
 31
0.0
 11
189.9310588991552
 21
14.06491619815055
 31
0.0
 11
189.9562640977528
 21
14.22627151712061
 31
0.0
 11
189.9721769222369
 21
14.46084531263489
 31
0.0
 11
190.0494082682583
 21
14.40202182306619
 31
0.0
 11
190.1327184184385
 21
14.35921885432688
 31
0.0
 11
190.1066365811217
 21
14.1152838866101
 31
0.0
 11
190.0673317805106
 21
13.94207902887563
 31
0.0
 11
190.0105702596765
 21
13.83011272445919
 31
0.0
 11
189.9321182616911
 21
13.76989341669647
 31
0.0
 11
189.8277420296257
 21
13.75192954892319
 31
0.0
 11
189.6738595065098
 21
13.78957440012363
 31
0.0
 11
189.5388902376748
 21
13.89707348877405
 31
0.0
 11
189.4221739916163
 21
14.06627361744811
 31
0.0
 11
189.32305053683
 21
14.28902158871946
 31
0.0
 11
189.2408596418114
 21
14.55716420516175
 31
0.0
 11
189.174941075056
 21
14.86254826934863
 31
0.0
 11
189.1246346050594
 21
15.19702058385376
 31
0.0
 11
189.0892800003172
 21
15.55242795125079
 31
0.0
 11
189.0561935405844
 21
15.55242795125079
 31
0.0
 11
188.9654726026075
 21
15.55242795125079
 31
0.0
 11
188.8299248482186
 21
15.55242795125079
 31
0.0
 11
188.6623579392495
 21
15.55242795125079
 31
0.0
 11
188.4755795375324
 21
15.55242795125079
 31
0.0
 11
188.2823973048993
 21
15.55242795125079
 31
0.0
 11
188.0956189031822
 21
15.55242795125079
 31
0.0
 11
187.9280519942132
 21
15.55242795125079
 31
0.0
 11
187.7925042398242
 21
15.55242795125079
 31
0.0
 11
187.7017833018473
 21
15.55242795125079
 31
0.0
 11
187.6686968421146
 21
15.55242795125079
 31
0.0
 11
187.6686968421146
 21
15.58001489785848
 31
0.0
 11
187.6686968421146
 21
15.64070618039539
 31
0.0
 11
187.6686968421146
 21
15.70139746293231
 31
0.0
 11
187.6686968421146
 21
15.72898440954
 31
0.0
 11
187.7014723087632
 21
15.72898440954
 31
0.0
 11
187.7913405237674
 21
15.72898440954
 31
0.0
 11
187.9256142097149
 21
15.72898440954
 31
0.0
 11
188.0916060891932
 21
15.72898440954
 31
0.0
 11
188.2766288847902
 21
15.72898440954
 31
0.0
 11
188.4679953190932
 21
15.72898440954
 31
0.0
 11
188.6530181146902
 21
15.72898440954
 31
0.0
 11
188.8190099941685
 21
15.72898440954
 31
0.0
 11
188.953283680116
 21
15.72898440954
 31
0.0
 11
189.0431518951202
 21
15.72898440954
 31
0.0
 11
189.0759273617688
 21
15.72898440954
 31
0.0
 11
189.0659183950104
 21
15.97947647544959
 31
0.0
 11
189.0599112510664
 21
16.23196614552541
 31
0.0
 11
189.086057587066
 21
16.2305692160813
 31
0.0
 11
189.148406542142
 21
16.22723807663767
 31
0.0
 11
189.22282303691
 21
16.22326220052753
 31
0.0
 11
189.285171991986
 21
16.21993106108389
 31
0.0
 11
189.3113183279856
 21
16.21853413163979
 31
0.0
 11
189.2982931113041
 21
16.19016528616083
 31
0.0
 11
189.2551649266406
 21
16.17581274276168
 31
0.0
 11
189.2574991961822
 21
15.95136670115114
 31
0.0
 11
189.2658452735903
 21
15.72898440954
 31
0.0
 11
189.3009063195165
 21
15.72898440954
 31
0.0
 11
189.3933399860495
 21
15.72898440954
 31
0.0
 11
189.5240220663201
 21
15.72898440954
 31
0.0
 11
189.6738283534596
 21
15.72898440954
 31
0.0
 11
189.8236346405991
 21
15.72898440954
 31
0.0
 11
189.9543167208697
 21
15.72898440954
 31
0.0
 11
190.0467503874027
 21
15.72898440954
 31
0.0
 11
190.0818114333289
 21
15.72898440954
 31
0.0
 11
190.0818114333289
 21
15.70139746293231
 31
0.0
 11
190.0818114333289
 21
15.64070618039539
 31
0.0
 11
190.0818114333289
 21
15.58001489785848
 31
0.0
 11
190.0818114333289
 21
15.55242795125079
 31
0.0
  0
SPLINE
  5
C0
102
{ACAD_REACTORS
330
DD
102
}
330
48
100
AcDbEntity
  8
_U_30EC_U_30A4_U_30E4_U_30FC_1
  6
Continuous
 62
     2
100
AcDbSpline
210
0.0
220
0.0
230
1.0
 70
    11
 71
     3
 72
    75
 73
    71
 74
    69
 42
0.000000001
 43
0.0000000001
 44
0.00000001
 40
0.0
 40
0.0
 40
0.0
 40
0.0
 40
0.0342546099129709
 40
0.12456224144324
 40
0.2522385480897589
 40
0.3985991922940786
 40
0.5449598364980963
 40
0.6726361431439012
 40
0.7629437746737138
 40
0.7971983935298186
 40
1.101723623449742
 40
1.408591244036676
 40
1.433332471690377
 40
1.487763172450162
 40
1.542193873081984
 40
1.566935100592527
 40
1.923523931821777
 40
2.27175570495355
 40
2.59057975510077
 40
2.858943305581064
 40
2.889120339309028
 40
2.918305855190982
 40
2.941366645531099
 40
2.996357760972973
 40
3.0619923181405
 40
3.116983433626671
 40
3.140044223997353
 40
3.411273122936282
 40
3.732441619740858
 40
3.761068217532559
 40
3.837787499630128
 40
3.948858699125776
 40
4.080541049104168
 40
4.219093782625562
 40
4.350776132722125
 40
4.461847332405471
 40
4.538566614678212
 40
4.56719321254446
 40
4.594907573998718
 40
4.666381453557257
 40
4.764111044010839
 40
4.870592538125642
 40
4.968322128642036
 40
5.03979600828675
 40
5.067510369784181
 40
5.094263603185395
 40
5.153120716668031
 40
5.211977830150477
 40
5.238731063551482
 40
5.272290535138749
 40
5.363380529444553
 40
5.497618415781259
 40
5.660621563453473
 40
5.838007341749174
 40
6.015393119910554
 40
6.178396267038151
 40
6.312634151842131
 40
6.403724143059121
 40
6.437283612672216
 40
6.464036846260834
 40
6.522893960004447
 40
6.581751071483714
 40
6.60850430159066
 40
6.637253941280807
 40
6.711397748902687
 40
6.8127780572833
 40
6.923237199249076
 40
7.02461750762372
 40
7.09876131520743
 40
7.12751094600738
 40
7.12751094600738
 40
7.12751094600738
 40
7.12751094600738
 10
188.4418622390564
 20
14.9584912847327
 30
0.0
 10
188.4418622819707
 20
14.94707313408726
 30
0.0
 10
188.4418624481128
 20
14.90555257842634
 30
0.0
 10
188.4418593081787
 20
14.82146922003778
 30
0.0
 10
188.44187882798
 20
14.70004497322333
 30
0.0
 10
188.4417912187737
 20
14.55980494047453
 30
0.0
 10
188.4421116235231
 20
14.42006556794581
 30
0.0
 10
188.441160590974
 20
14.29745038894933
 30
0.0
 10
188.4431978595968
 20
14.21587074438047
 30
0.0
 10
188.4349433178744
 20
14.06271267077698
 30
0.0
 10
188.74307979409
 20
14.22560236054726
 30
0.0
 10
189.0350645173738
 20
14.39482938688001
 30
0.0
 10
189.0408354448707
 20
14.2597323578191
 30
0.0
 10
189.0455471719891
 20
14.21617221160445
 30
0.0
 10
189.0482535411918
 20
14.17211249350546
 30
0.0
 10
189.0672545672958
 20
14.02272590363137
 30
0.0
 10
188.6583942247303
 20
14.08681172241267
 30
0.0
 10
188.3793710348832
 20
13.9729634141102
 30
0.0
 10
188.1018081587167
 20
13.87364095811147
 30
0.0
 10
187.8099837184401
 20
13.91630687596349
 30
0.0
 10
187.7869144678659
 20
13.81321679744544
 30
0.0
 10
187.7537474383334
 20
13.78691091244472
 30
0.0
 10
187.7480653962739
 20
13.83455309036306
 30
0.0
 10
187.7284214559045
 20
13.8718033611507
 30
0.0
 10
187.7095089485624
 20
13.93007387847562
 30
0.0
 10
187.6942849867708
 20
13.97385201007803
 30
0.0
 10
187.6477246372935
 20
14.08759421046304
 30
0.0
 10
187.9890897312451
 20
14.05576301120054
 30
0.0
 10
188.2679649367386
 20
14.0216143510648
 30
0.0
 10
188.2617753034907
 20
14.1691397647965
 30
0.0
 10
188.2630935452773
 20
14.24013150908831
 30
0.0
 10
188.2624831689949
 20
14.34719767958662
 30
0.0
 10
188.2625871570725
 20
14.47398529785999
 30
0.0
 10
188.2629987964055
 20
14.60849243496052
 30
0.0
 10
188.2613907841968
 20
14.73395549951188
 30
0.0
 10
188.2659902567925
 20
14.84505246719122
 30
0.0
 10
188.256418650221
 20
14.90761886800694
 30
0.0
 10
188.2704001783691
 20
14.96595388295007
 30
0.0
 10
188.2147384386705
 20
14.95289710582244
 30
0.0
 10
188.1575655197821
 20
14.96136307749505
 30
0.0
 10
188.0616048925648
 20
14.95729976080642
 30
0.0
 10
187.9633767522821
 20
14.9597088985248
 30
0.0
 10
187.8672582457561
 20
14.95551600613394
 30
0.0
 10
187.8104648525812
 20
14.96429346441168
 30
0.0
 10
187.7550356873385
 20
14.95094936850127
 30
0.0
 10
187.7670679427918
 20
15.00036910959263
 30
0.0
 10
187.7592003173937
 20
15.04393988030401
 30
0.0
 10
187.766629556383
 20
15.08830469118531
 30
0.0
 10
187.7551930564144
 20
15.13902297763998
 30
0.0
 10
187.8232102370134
 20
15.1216246075775
 30
0.0
 10
187.8968496879747
 20
15.13417450237194
 30
0.0
 10
188.0325064058211
 20
15.12799677011103
 30
0.0
 10
188.1884909024526
 20
15.1302920309309
 30
0.0
 10
188.3615926358144
 20
15.12940968262536
 30
0.0
 10
188.5346942964182
 20
15.13029207142414
 30
0.0
 10
188.6906789811218
 20
15.12799662955556
 30
0.0
 10
188.8263351889798
 20
15.13417486262437
 30
0.0
 10
188.8999756705653
 20
15.12162394218341
 30
0.0
 10
188.9679914174724
 20
15.13902373012148
 30
0.0
 10
188.9565590885923
 20
15.08830130414561
 30
0.0
 10
188.9639539458297
 20
15.04397060811114
 30
0.0
 10
188.9562039912273
 20
15.00028307550202
 30
0.0
 10
188.9681203741877
 20
14.95063590098483
 30
0.0
 10
188.9108170223618
 20
14.96461411338431
 30
0.0
 10
188.8520145789773
 20
14.95539755673259
 30
0.0
 10
188.75252936332
 20
14.95952268164936
 30
0.0
 10
188.649428009835
 20
14.95822760025893
 30
0.0
 10
188.5537846354574
 20
14.95854077077646
 30
0.0
 10
188.4857467971617
 20
14.95848776697151
 30
0.0
 10
188.4514462213443
 20
14.95849051871662
 30
0.0
 10
188.4418622390564
 20
14.9584912847327
 30
0.0
 11
188.4418622390564
 21
14.9584912847327
 31
0.0
 11
188.4418622390564
 21
14.9242366658719
 31
0.0
 11
188.4418622390564
 21
14.83392903432981
 31
0.0
 11
188.4418622390564
 21
14.70625272766684
 31
0.0
 11
188.4418622390564
 21
14.55989208344344
 31
0.0
 11
188.4418622390564
 21
14.41353143922005
 31
0.0
 11
188.4418622390564
 21
14.28585513255708
 31
0.0
 11
188.4418622390564
 21
14.19554750101499
 31
0.0
 11
188.4418622390564
 21
14.16129288215419
 31
0.0
 11
188.7391932644568
 21
14.22709475713774
 31
0.0
 11
189.0384623627245
 21
14.29496038212071
 31
0.0
 11
189.0405487124976
 21
14.27030727882827
 31
0.0
 11
189.0451386819987
 21
14.2160704515849
 31
0.0
 11
189.0497286514996
 21
14.16183362434153
 31
0.0
 11
189.0518150012728
 21
14.13718052104909
 31
0.0
 11
188.705639688924
 21
14.05163370140902
 31
0.0
 11
188.3669653138839
 21
13.97060877629905
 31
0.0
 11
188.0563731516689
 21
13.89862764024931
 31
0.0
 11
187.7944444777956
 21
13.84021218778989
 31
0.0
 11
187.7817515029293
 21
13.81283442738017
 31
0.0
 11
187.7569794787514
 21
13.79740260446738
 31
0.0
 11
187.7491867589502
 21
13.81910683390639
 31
0.0
 11
187.7306041194242
 21
13.87086307333786
 31
0.0
 11
187.7084248399901
 21
13.9326366494335
 31
0.0
 11
187.6898422004641
 21
13.98439288886497
 31
0.0
 11
187.6820494806629
 21
14.00609711830398
 31
0.0
 11
187.9482776335932
 21
14.05794001759667
 31
0.0
 11
188.2626334936289
 21
14.12373968771908
 31
0.0
 11
188.2626334936289
 21
14.15236628569623
 31
0.0
 11
188.2626334936289
 21
14.22908556827498
 31
0.0
 11
188.2626334936289
 21
14.34015676842631
 31
0.0
 11
188.2626334936289
 21
14.47183911912119
 31
0.0
 11
188.2626334936289
 21
14.61039185333058
 31
0.0
 11
188.2626334936289
 21
14.74207420402546
 31
0.0
 11
188.2626334936289
 21
14.8531454041768
 31
0.0
 11
188.2626334936289
 21
14.92986468675555
 31
0.0
 11
188.2626334936289
 21
14.9584912847327
 31
0.0
 11
188.2349191321108
 21
14.9584912847327
 31
0.0
 11
188.1634452524063
 21
14.9584912847327
 31
0.0
 11
188.0657156617901
 21
14.9584912847327
 31
0.0
 11
187.9592341675364
 21
14.9584912847327
 31
0.0
 11
187.8615045769201
 21
14.9584912847327
 31
0.0
 11
187.7900306972156
 21
14.9584912847327
 31
0.0
 11
187.7623163356976
 21
14.9584912847327
 31
0.0
 11
187.7623163356976
 21
14.98524451823295
 31
0.0
 11
187.7623163356976
 21
15.0441016319335
 31
0.0
 11
187.7623163356976
 21
15.10295874563405
 31
0.0
 11
187.7623163356976
 21
15.1297119791343
 31
0.0
 11
187.7958758072876
 21
15.1297119791343
 31
0.0
 11
187.8869658016031
 21
15.1297119791343
 31
0.0
 11
188.021203687963
 21
15.1297119791343
 31
0.0
 11
188.1842068356856
 21
15.1297119791343
 31
0.0
 11
188.3615926140897
 21
15.1297119791343
 31
0.0
 11
188.5389783924938
 21
15.1297119791343
 31
0.0
 11
188.7019815402165
 21
15.1297119791343
 31
0.0
 11
188.8362194265763
 21
15.1297119791343
 31
0.0
 11
188.9273094208919
 21
15.1297119791343
 31
0.0
 11
188.9608688924819
 21
15.1297119791343
 31
0.0
 11
188.9608688924819
 21
15.10295874563405
 31
0.0
 11
188.9608688924819
 21
15.0441016319335
 31
0.0
 11
188.9608688924819
 21
14.98524451823295
 31
0.0
 11
188.9608688924819
 21
14.9584912847327
 31
0.0
 11
188.9321192527878
 21
14.9584912847327
 31
0.0
 11
188.8579754451555
 21
14.9584912847327
 31
0.0
 11
188.7565951367605
 21
14.9584912847327
 31
0.0
 11
188.6461359947778
 21
14.9584912847327
 31
0.0
 11
188.5447556863828
 21
14.9584912847327
 31
0.0
 11
188.4706118787505
 21
14.9584912847327
 31
0.0
 11
188.4418622390564
 21
14.9584912847327
 31
0.0
  0
SPLINE
  5
C1
102
{ACAD_REACTORS
330
DE
102
}
330
48
100
AcDbEntity
  8
_U_30EC_U_30A4_U_30E4_U_30FC_1
  6
Continuous
 62
     2
100
AcDbSpline
210
0.0
220
0.0
230
1.0
 70
    11
 71
     3
 72
    15
 73
    11
 74
     9
 42
0.000000001
 43
0.0000000001
 44
0.00000001
 40
0.0
 40
0.0
 40
0.0
 40
0.0
 40
0.2785535985096675
 40
0.5215624748198513
 40
0.6076917376040135
 40
0.6938210001741075
 40
0.9405019146455593
 40
1.221691403489087
 40
1.300471877080998
 40
1.37925234168478
 40
1.37925234168478
 40
1.37925234168478
 40
1.37925234168478
 10
189.5681493631
 20
16.22930267330381
 30
0.0
 10
189.6296017794179
 20
16.17691646592716
 30
0.0
 10
189.7446649974114
 20
16.07882876798224
 30
0.0
 10
190.0397348497245
 20
15.9288978589723
 30
0.0
 10
189.9025147631857
 20
15.84343227515016
 30
0.0
 10
189.804122784378
 20
15.71085785201552
 30
0.0
 10
189.7130033590649
 20
16.01616985781415
 30
0.0
 10
189.3636839480657
 20
16.07967869465368
 30
0.0
 10
189.5119258376571
 20
16.17896509880877
 30
0.0
 10
189.5494081874238
 20
16.21252348402382
 30
0.0
 10
189.5681493631
 20
16.22930267330381
 30
0.0
 11
189.5681493631
 21
16.22930267330381
 31
0.0
 11
189.7919222440597
 21
16.06341774278975
 31
0.0
 11
189.9695046306384
 21
15.8975328122757
 31
0.0
 11
189.906630812798
 21
15.83866743034595
 31
0.0
 11
189.8437569949576
 21
15.7798020484162
 31
0.0
 11
189.6688535117725
 21
15.95375677059493
 31
0.0
 11
189.4478256856141
 21
16.12757920110698
 31
0.0
 11
189.507987524357
 21
16.17844093720539
 31
0.0
 11
189.5681493631
 21
16.22930267330381
 31
0.0
  0
SPLINE
  5
C2
102
{ACAD_REACTORS
330
DF
102
}
330
48
100
AcDbEntity
  8
_U_30EC_U_30A4_U_30E4_U_30FC_1
  6
Continuous
 62
     2
100
AcDbSpline
210
0.0
220
0.0
230
1.0
 70
    11
 71
     3
 72
    35
 73
    31
 74
    29
 42
0.000000001
 43
0.0000000001
 44
0.00000001
 40
0.0
 40
0.0
 40
0.0
 40
0.0
 40
0.0335231036620455
 40
0.0713218571712811
 40
0.4278866681487855
 40
0.8116865841965069
 40
1.198190238000168
 40
1.561379546812827
 40
1.659983174622194
 40
1.759315573807297
 40
2.13271961723115
 40
2.52523336358889
 40
2.910815397779796
 40
3.265244364303441
 40
3.592606723582135
 40
3.964386154604094
 40
4.359942131737942
 40
4.758154118639497
 40
4.843846538700096
 40
4.936650065543382
 40
5.256616602537491
 40
5.58170740441623
 40
5.899719158308326
 40
6.198363494280907
 40
6.466301046615948
 40
6.493895311537269
 40
6.559697020197005
 40
6.63823454344258
 40
6.704036252154303
 40
6.731630508423081
 40
6.731630508423081
 40
6.731630508423081
 40
6.731630508423081
 10
191.9736010568669
 20
16.23463843719139
 30
0.0
 10
191.967600609779
 20
16.22480690542325
 30
0.0
 10
191.9548344099157
 20
16.2038898857979
 30
0.0
 10
191.7949362006554
 20
16.17127126532726
 30
0.0
 10
192.2322025842337
 20
15.88206680336689
 30
0.0
 10
192.4345394828263
 20
15.68041138358447
 30
0.0
 10
192.6819564267973
 20
15.43749387603276
 30
0.0
 10
193.1831513624608
 20
15.3604766275778
 30
0.0
 10
193.0125562198971
 20
15.21876939174658
 30
0.0
 10
192.9383299463202
 20
15.01710366209116
 30
0.0
 10
192.6131432248189
 20
15.36956287174731
 30
0.0
 10
192.3277741670665
 20
15.53175212559566
 30
0.0
 10
192.0337604077658
 20
15.73687130053048
 30
0.0
 10
191.8084452691134
 20
16.21827488595461
 30
0.0
 10
191.5993085055522
 20
15.75343046609224
 30
0.0
 10
191.3207873674835
 20
15.54350952252913
 30
0.0
 10
191.037138317721
 20
15.37424456359987
 30
0.0
 10
190.707863952783
 20
15.00142360907932
 30
0.0
 10
190.6277012318225
 20
15.19708014459005
 30
0.0
 10
190.4759724909745
 20
15.32491104190598
 30
0.0
 10
190.9083395826796
 20
15.40454031765938
 30
0.0
 10
191.0962565329767
 20
15.60026634915477
 30
0.0
 10
191.3468477420503
 20
15.81632996916758
 30
0.0
 10
191.5714350470162
 20
15.98190992300064
 30
0.0
 10
191.6259775409713
 20
16.26133964636828
 30
0.0
 10
191.7494661029012
 20
16.24737950408081
 30
0.0
 10
191.8060273344521
 20
16.2452126886765
 30
0.0
 10
191.8761870984945
 20
16.24046859881364
 30
0.0
 10
191.9333414022106
 20
16.23709429350546
 30
0.0
 10
191.9644190320839
 20
16.23519854711124
 30
0.0
 10
191.9736010568669
 20
16.23463843719139
 30
0.0
 11
191.9736010568669
 21
16.23463843719139
 31
0.0
 11
191.9525319069885
 21
16.20856374969783
 31
0.0
 11
191.9174464559425
 21
16.1945011455347
 31
0.0
 11
192.1512374769095
 21
15.92527961131385
 31
0.0
 11
192.4414585957567
 21
15.67413407969263
 31
0.0
 11
192.7612797483685
 21
15.45710987618787
 31
0.0
 11
193.083870870629
 21
15.29025232631639
 31
0.0
 11
193.0213299868077
 21
15.2140203558493
 31
0.0
 11
192.9688035818976
 21
15.1297119791343
 31
0.0
 11
192.6436279095815
 21
15.31326404831584
 31
0.0
 11
192.3237227768437
 21
15.5407013974343
 31
0.0
 11
192.0354200158608
 21
15.79673855123312
 31
0.0
 11
191.8050514588095
 21
16.0660900344557
 31
0.0
 11
191.5995531719517
 21
15.81126348721039
 31
0.0
 11
191.3288301341536
 21
15.55645182277757
 31
0.0
 11
191.0119538423247
 21
15.31969466354857
 31
0.0
 11
190.6679957933741
 21
15.11903163191468
 31
0.0
 11
190.6218855341338
 21
15.19126067703557
 31
0.0
 11
190.5636970460349
 21
15.26355586798968
 31
0.0
 11
190.8433040489016
 21
15.41911456961747
 31
0.0
 11
191.1093004621155
 21
15.60601009790408
 31
0.0
 11
191.3499997459747
 21
15.81384496285212
 31
0.0
 11
191.5537153607775
 21
16.03222167446419
 31
0.0
 11
191.7087607668219
 21
16.25074274274289
 31
0.0
 11
191.7363041569866
 21
16.24906789496553
 31
0.0
 11
191.8019845489177
 21
16.24507402718876
 31
0.0
 11
191.8803772747711
 21
16.24030715274552
 31
0.0
 11
191.9460576667022
 21
16.23631328496874
 31
0.0
 11
191.9736010568669
 21
16.23463843719139
 31
0.0
  0
SPLINE
  5
C3
102
{ACAD_REACTORS
330
E0
102
}
330
48
100
AcDbEntity
  8
_U_30EC_U_30A4_U_30E4_U_30FC_1
  6
Continuous
 62
     2
100
AcDbSpline
210
0.0
220
0.0
230
1.0
 70
    11
 71
     3
 72
    91
 73
    87
 74
    85
 42
0.000000001
 43
0.0000000001
 44
0.00000001
 40
0.0
 40
0.0
 40
0.0
 40
0.0
 40
0.0267532254356684
 40
0.0856103386464066
 40
0.1444674521996532
 40
0.1712206856618408
 40
0.203941600564243
 40
0.2955601971652377
 40
0.4362601844617096
 40
0.6162252844507428
 40
0.8256392189704875
 40
1.054685709844457
 40
1.293548478893577
 40
1.532411247938321
 40
1.761457738799586
 40
1.970871673298583
 40
2.150836773256807
 40
2.291536760495668
 40
2.383155356836746
 40
2.415876284101395
 40
2.442629517488036
 40
2.501486630949164
 40
2.560343744424308
 40
2.587096977826579
 40
2.617068194441006
 40
2.699247336756176
 40
2.82203264346646
 40
2.973822353258018
 40
3.14301470482346
 40
3.318007936880039
 40
3.487200288186872
 40
3.63898999754841
 40
3.761775303794908
 40
3.843954445753243
 40
3.873925662229939
 40
3.89081277350065
 40
3.907699884771832
 40
3.93796076785741
 40
3.98098361814242
 40
4.199085915228587
 40
4.439444339237355
 40
4.677588241260987
 40
5.050698317837902
 40
5.44821245476326
 40
5.855291218044786
 40
6.138575438885463
 40
6.417434507584294
 40
6.444551104393947
 40
6.504207617363209
 40
6.563864130314521
 40
6.590980727104084
 40
6.848609460381474
 40
7.109611990668421
 40
7.352910904446138
 40
7.557830220705537
 40
7.587518925913427
 40
7.652834077375835
 40
7.718149228845785
 40
7.747837934062059
 40
7.854880190301036
 40
7.976511257403525
 40
8.369487896592323
 40
8.757514959223617
 40
9.126072419331107
 40
9.4606393803922
 40
9.74669559303597
 40
9.77756994311871
 40
9.807050320931802
 40
9.830377336128922
 40
9.886003295435998
 40
9.952395569429884
 40
10.00802152870623
 40
10.03134854388214
 40
10.21356951009585
 40
10.4220347929287
 40
10.66154556731063
 40
10.91693789564306
 40
11.15832906556571
 40
11.18982674596629
 40
11.27286608520413
 40
11.39026653033361
 40
11.52484752840897
 40
11.65942852648456
 40
11.77682897161498
 40
11.85986831085697
 40
11.89136598230442
 40
11.89136598230442
 40
11.89136598230442
 40
11.89136598230442
 10
190.7027885008196
 20
14.70699600701778
 30
0.0
 10
190.7028237765288
 20
14.71587847311991
 30
0.0
 10
190.7029366710796
 20
14.74430237047352
 30
0.0
 10
190.7012984568489
 20
14.79409639169809
 30
0.0
 10
190.7069750292911
 20
14.8365756447816
 30
0.0
 10
190.6956928731706
 20
14.88730154856852
 30
0.0
 10
190.7632296979032
 20
14.87012900740114
 30
0.0
 10
190.8388029210701
 20
14.88290227166001
 30
0.0
 10
190.9828357056001
 20
14.87629729457387
 30
0.0
 10
191.1569419185427
 20
14.87888462206471
 30
0.0
 10
191.3639599611003
 20
14.87800591955557
 30
0.0
 10
191.5894688172378
 20
14.87828207920032
 30
0.0
 10
191.8251162293406
 20
14.87818339658668
 30
0.0
 10
192.0607640531349
 20
14.87828184412772
 30
0.0
 10
192.2862717580626
 20
14.87800678190793
 30
0.0
 10
192.4932934632805
 20
14.87888186270739
 30
0.0
 10
192.667388891529
 20
14.87630522678452
 30
0.0
 10
192.8114492071986
 20
14.88288290449218
 30
0.0
 10
192.8869691915293
 20
14.87016243405608
 30
0.0
 10
192.9545776037031
 20
14.88726400191693
 30
0.0
 10
192.9430840140676
 20
14.83674785802945
 30
0.0
 10
192.9505104581735
 20
14.79253252226507
 30
0.0
 10
192.9428838927986
 20
14.74867966503615
 30
0.0
 10
192.9546489459426
 20
14.69878374479334
 30
0.0
 10
192.8930788491983
 20
14.71393227712518
 30
0.0
 10
192.8256791738672
 20
14.70310665350679
 30
0.0
 10
192.7013004056222
 20
14.70852031626242
 30
0.0
 10
192.5554428236572
 20
14.70649205390791
 30
0.0
 10
192.3893576440086
 20
14.70715777578393
 30
0.0
 10
192.2188412621725
 20
14.70689643521248
 30
0.0
 10
192.0519790855389
 20
14.707215533911
 30
0.0
 10
191.9087346827105
 20
14.70635302590768
 30
0.0
 10
191.7773313869835
 20
14.70863300482995
 30
0.0
 10
191.7239859134655
 20
14.70407704374207
 30
0.0
 10
191.6485188456913
 20
14.70999914992884
 30
0.0
 10
191.6769075779232
 20
14.70094169343358
 30
0.0
 10
191.7033652409542
 20
14.69725912268934
 30
0.0
 10
191.6633522907701
 20
14.66654271968275
 30
0.0
 10
191.571366369187
 20
14.6766759117463
 30
0.0
 10
191.5439396207069
 20
14.4303250224779
 30
0.0
 10
191.4478793967235
 20
14.27499558764377
 30
0.0
 10
191.1917277964474
 20
13.94525417931566
 30
0.0
 10
191.7627537732763
 20
14.08430022210458
 30
0.0
 10
192.0173656320517
 20
14.08291779973365
 30
0.0
 10
192.6279647048618
 20
13.99790569242096
 30
0.0
 10
192.3340698578082
 20
14.29685417558202
 30
0.0
 10
192.013330428652
 20
14.44330856901787
 30
0.0
 10
192.1313543360433
 20
14.50025540818293
 30
0.0
 10
192.1724716466263
 20
14.52420099873353
 30
0.0
 10
192.2156812394411
 20
14.54599758811231
 30
0.0
 10
192.317457409445
 20
14.60928721253904
 30
0.0
 10
192.4328867625248
 20
14.35147151408787
 30
0.0
 10
192.6329591642277
 20
14.21616041113687
 30
0.0
 10
192.7269077387229
 20
14.03792795138888
 30
0.0
 10
192.9558829746393
 20
13.87997821027051
 30
0.0
 10
192.8596031846709
 20
13.82915972576299
 30
0.0
 10
192.816795976378
 20
13.79881292523055
 30
0.0
 10
192.771824352878
 20
13.77466130281464
 30
0.0
 10
192.7121720925215
 20
13.72552146747572
 30
0.0
 10
192.6789731061325
 20
13.8599747567361
 30
0.0
 10
192.5582013350796
 20
14.0159426528658
 30
0.0
 10
192.1970976005979
 20
13.88569928059559
 30
0.0
 10
191.8385061955541
 20
13.90224694409488
 30
0.0
 10
191.457092045008
 20
13.89331229351869
 30
0.0
 10
191.1703455282893
 20
13.82882671672413
 30
0.0
 10
190.8592055599712
 20
13.9423066819282
 30
0.0
 10
190.8268737818788
 20
13.83122259927769
 30
0.0
 10
190.7896178253317
 20
13.81196313850016
 30
0.0
 10
190.7865737632754
 20
13.85874784087301
 30
0.0
 10
190.7679892860606
 20
13.89806853919136
 30
0.0
 10
190.751243661678
 20
13.95765983478235
 30
0.0
 10
190.7383730915753
 20
14.00201969871283
 30
0.0
 10
190.7042327806432
 20
14.09106331120203
 30
0.0
 10
190.9482714457753
 20
14.02181042943772
 30
0.0
 10
191.1441394486673
 20
14.00030369057738
 30
0.0
 10
191.2395426381277
 20
14.28226484478464
 30
0.0
 10
191.2945135769597
 20
14.44363045421123
 30
0.0
 10
191.5159619357157
 20
14.71391177589745
 30
0.0
 10
191.3849239381217
 20
14.7054844685374
 30
0.0
 10
191.3110026555854
 20
14.70779008496976
 30
0.0
 10
191.1977459876244
 20
14.70671378321664
 30
0.0
 10
191.0694251807485
 20
14.70707639076516
 30
0.0
 10
190.9404252030415
 20
14.70697724466091
 30
0.0
 10
190.8287840946292
 20
14.70699932712579
 30
0.0
 10
190.7514663970025
 20
14.70699579189676
 30
0.0
 10
190.713287653201
 20
14.70699595845087
 30
0.0
 10
190.7027885008196
 20
14.70699600701778
 30
0.0
 11
190.7027885008196
 21
14.70699600701778
 31
0.0
 11
190.7027885008196
 21
14.73374924051803
 31
0.0
 11
190.7027885008196
 21
14.79260635421859
 31
0.0
 11
190.7027885008196
 21
14.85146346791915
 31
0.0
 11
190.7027885008196
 21
14.8782167014194
 31
0.0
 11
190.7355094280989
 21
14.8782167014194
 31
0.0
 11
190.8271280244809
 21
14.8782167014194
 31
0.0
 11
190.9678280117819
 21
14.8782167014194
 31
0.0
 11
191.147793111818
 21
14.8782167014194
 31
0.0
 11
191.3572070464054
 21
14.8782167014194
 31
0.0
 11
191.5862535373604
 21
14.8782167014194
 31
0.0
 11
191.8251163064993
 21
14.8782167014194
 31
0.0
 11
192.0639790756381
 21
14.8782167014194
 31
0.0
 11
192.2930255665931
 21
14.8782167014194
 31
0.0
 11
192.5024395011806
 21
14.8782167014194
 31
0.0
 11
192.6824046012168
 21
14.8782167014194
 31
0.0
 11
192.8231045885177
 21
14.8782167014194
 31
0.0
 11
192.9147231848997
 21
14.8782167014194
 31
0.0
 11
192.947444112179
 21
14.8782167014194
 31
0.0
 11
192.947444112179
 21
14.85146346791915
 31
0.0
 11
192.947444112179
 21
14.79260635421859
 31
0.0
 11
192.947444112179
 21
14.73374924051803
 31
0.0
 11
192.947444112179
 21
14.70699600701778
 31
0.0
 11
192.9174728954758
 21
14.70699600701778
 31
0.0
 11
192.8352937529027
 21
14.70699600701778
 31
0.0
 11
192.712508445764
 21
14.70699600701778
 31
0.0
 11
192.5607187353642
 21
14.70699600701778
 31
0.0
 11
192.3915263830078
 21
14.70699600701778
 31
0.0
 11
192.2165331499991
 21
14.70699600701778
 31
0.0
 11
192.0473407976427
 21
14.70699600701778
 31
0.0
 11
191.8955510872428
 21
14.70699600701778
 31
0.0
 11
191.7727657801042
 21
14.70699600701778
 31
0.0
 11
191.690586637531
 21
14.70699600701778
 31
0.0
 11
191.6606154208279
 21
14.70699600701778
 31
0.0
 11
191.6766359412525
 21
14.70165583340798
 31
0.0
 11
191.6926564616771
 21
14.69631565979819
 31
0.0
 11
191.6706155681421
 21
14.67558114591445
 31
0.0
 11
191.6284861855364
 21
14.66685871536109
 31
0.0
 11
191.5365235541377
 21
14.46909247312658
 31
0.0
 11
191.4279078521764
 21
14.25467511978511
 31
0.0
 11
191.3127500824808
 21
14.0462255905162
 31
0.0
 11
191.6857366675021
 21
14.05582441253033
 31
0.0
 11
192.0830700036151
 21
14.06781232404999
 31
0.0
 11
192.4899342191146
 21
14.08102711828539
 31
0.0
 11
192.2983119496979
 21
14.28966761302483
 31
0.0
 11
192.0966752013699
 21
14.48229420151839
 31
0.0
 11
192.120494779475
 21
14.49525327269571
 31
0.0
 11
192.1728978513062
 21
14.52376322928579
 31
0.0
 11
192.2253009231374
 21
14.55227318587589
 31
0.0
 11
192.2491205012425
 21
14.5652322570532
 31
0.0
 11
192.4387101558627
 21
14.39079508370273
 31
0.0
 11
192.6200310940436
 21
14.20305846374098
 31
0.0
 11
192.7777729231148
 21
14.01782380992441
 31
0.0
 11
192.8966252504059
 21
13.85089253500948
 31
0.0
 11
192.8715408217924
 21
13.83501202286069
 31
0.0
 11
192.8163550788427
 21
13.80007489613334
 31
0.0
 11
192.7611693358929
 21
13.76513776940599
 31
0.0
 11
192.7360849072794
 21
13.7492572572572
 31
0.0
 11
192.6775518151613
 21
13.83887824681813
 31
0.0
 11
192.6050015078458
 21
13.93650288221031
 31
0.0
 11
192.2125412924096
 21
13.91636286943762
 31
0.0
 11
191.8249474069561
 21
13.89803302999778
 31
0.0
 11
191.4567378976213
 21
13.882021787224
 31
0.0
 11
191.1224308105413
 21
13.86883756444949
 31
0.0
 11
190.8365441918518
 21
13.85898878500748
 31
0.0
 11
190.821186232174
 21
13.83220523466697
 31
0.0
 11
190.7937434290546
 21
13.82143559057249
 31
0.0
 11
190.786792719232
 21
13.84370299445581
 31
0.0
 11
190.7702179496548
 21
13.89680218833141
 31
0.0
 11
190.7504351601596
 21
13.96017864553778
 31
0.0
 11
190.7338603905825
 21
14.01327783941338
 31
0.0
 11
190.7269096807599
 21
14.0355452432967
 31
0.0
 11
190.9091199859154
 21
14.03751638912954
 31
0.0
 11
191.1174975848589
 21
14.04356211829469
 31
0.0
 11
191.2303203127217
 21
14.25483550301553
 31
0.0
 11
191.3407936722036
 21
14.48509813155881
 31
0.0
 11
191.4358254265628
 21
14.70699600701778
 31
0.0
 11
191.4043277461597
 21
14.70699600701778
 31
0.0
 11
191.3212884069154
 21
14.70699600701778
 31
0.0
 11
191.2038879617768
 21
14.70699600701778
 31
0.0
 11
191.0693069636912
 21
14.70699600701778
 31
0.0
 11
190.9347259656055
 21
14.70699600701778
 31
0.0
 11
190.817325520467
 21
14.70699600701778
 31
0.0
 11
190.7342861812226
 21
14.70699600701778
 31
0.0
 11
190.7027885008196
 21
14.70699600701778
 31
0.0
  0
SPLINE
  5
C4
102
{ACAD_REACTORS
330
E1
102
}
330
48
100
AcDbEntity
  8
_U_30EC_U_30A4_U_30E4_U_30FC_1
  6
Continuous
 62
     2
100
AcDbSpline
210
0.0
220
0.0
230
1.0
 70
    11
 71
     3
 72
   131
 73
   127
 74
   125
 42
0.000000001
 43
0.0000000001
 44
0.00000001
 40
0.0
 40
0.0
 40
0.0
 40
0.0
 40
0.0195577029826212
 40
0.0426490537460395
 40
0.2863607575855931
 40
0.5344948436188836
 40
0.7842238845573071
 40
0.873731578946741
 40
0.9803832810313087
 40
1.092842274517074
 40
1.199761146656804
 40
1.289788768186503
 40
1.351573580786146
 40
1.370727117561382
 40
1.416400936017798
 40
1.470914848355931
 40
1.516588666791724
 40
1.535742203552812
 40
1.634216592293195
 40
1.76028334117502
 40
1.897966686682147
 40
2.031216387368945
 40
2.049689751137941
 40
2.101115601646879
 40
2.17950257774
 40
2.27885931831412
 40
2.393194462258781
 40
2.516516648383901
 40
2.642834515406034
 40
2.766156701983543
 40
2.880491846754661
 40
2.979848588358707
 40
3.058235565443888
 40
3.109661416669044
 40
3.128134780704221
 40
3.146783742386538
 40
3.191254343315399
 40
3.244332157316058
 40
3.288802758225933
 40
3.307451719895204
 40
3.327717853844816
 40
3.38374775358018
 40
3.468388665924574
 40
3.574487837698885
 40
3.694892515728994
 40
3.822449946852138
 40
3.950007377920532
 40
4.070412055800626
 40
4.176511227368187
 40
4.261152139501635
 40
4.317182039076831
 40
4.337448172964751
 40
4.62001100269634
 40
4.885096638397646
 40
4.945373043518359
 40
5.014107710488666
 40
5.070481727652115
 40
5.319246955636645
 40
5.584812164506181
 40
5.859000912057043
 40
6.133746937542206
 40
6.401732212969013
 40
6.420736683995632
 40
6.472845717451198
 40
6.550702743894182
 40
6.646951193874391
 40
6.754234497930686
 40
6.865196086587464
 40
6.972479390357923
 40
7.068727839772085
 40
7.146584865451094
 40
7.198693898189323
 40
7.217698368905464
 40
7.23495040163094
 40
7.276089864269987
 40
7.325191803516097
 40
7.366331266090483
 40
7.383583298769834
 40
7.40277916349224
 40
7.453386443254614
 40
7.524934666445644
 40
7.606953361405956
 40
7.688972056429136
 40
7.76052027978433
 40
7.8111275597346
 40
7.830323424546221
 40
7.847844055299846
 40
7.894799345666885
 40
7.962779392744566
 40
8.043374293560607
 40
8.128174145149504
 40
8.208769044817299
 40
8.276749090376995
 40
8.32370437966955
 40
8.34122501005628
 40
8.358497614800429
 40
8.401679126686606
 40
8.457815092185664
 40
8.513951057728068
 40
8.557132569707967
 40
8.57440517450501
 40
8.602340668616328
 40
8.643455660539846
 40
8.663225271966517
 40
8.715345156564165
 40
8.789031889628511
 40
8.873502045520246
 40
8.957972194323878
 40
9.031658925567775
 40
9.083778811234469
 40
9.103548423002934
 40
9.1195500831235
 40
9.160817522379773
 40
9.217244429110167
 40
9.278724491644653
 40
9.335151398295409
 40
9.376418837357704
 40
9.392420497300492
 40
9.401196302734684
 40
9.417494229384106
 40
9.426270027749378
 40
9.440875075477413
 40
9.475702496998595
 40
9.517270709865763
 40
9.552098131993933
 40
9.566703169884143
 40
9.566703169884143
 40
9.566703169884143
 40
9.566703169884143
 10
194.6170254148479
 20
15.67015871511029
 30
0.0
 10
194.6134345093371
 20
15.66453690702161
 30
0.0
 10
194.6056039123625
 20
15.65227754419116
 30
0.0
 10
194.5129968974548
 20
15.61601916040959
 30
0.0
 10
194.4887622233247
 20
15.4014844421272
 30
0.0
 10
194.3858709845939
 20
15.22197284509706
 30
0.0
 10
194.1220492364305
 20
15.03615573798144
 30
0.0
 10
194.284547156918
 20
14.95959336566083
 30
0.0
 10
194.3607225760839
 20
14.89856693195444
 30
0.0
 10
194.4492171072759
 20
14.83515804544764
 30
0.0
 10
194.538993023311
 20
14.77525634219563
 30
0.0
 10
194.5883817636047
 20
14.72102154849215
 30
0.0
 10
194.6745708157382
 20
14.69286240541838
 30
0.0
 10
194.641126067423
 20
14.65713309652816
 30
0.0
 10
194.621467116631
 20
14.62550387991908
 30
0.0
 10
194.5919888217882
 20
14.58475872796069
 30
0.0
 10
194.5688989446032
 20
14.55504663489641
 30
0.0
 10
194.5380205968358
 20
14.50211422668488
 30
0.0
 10
194.4729193365742
 20
14.62740334938903
 30
0.0
 10
194.3796000122416
 20
14.6821390023394
 30
0.0
 10
194.2950636285139
 20
14.7391642393934
 30
0.0
 10
194.1722498125745
 20
14.89675287427524
 30
0.0
 10
194.1764450847301
 20
14.82035806766838
 30
0.0
 10
194.1751478652679
 20
14.77361280161297
 30
0.0
 10
194.1758126448078
 20
14.69584785812603
 30
0.0
 10
194.1755549986958
 20
14.59902068324423
 30
0.0
 10
194.1756431239922
 20
14.4865027907881
 30
0.0
 10
194.1756077302282
 20
14.36524085945699
 30
0.0
 10
194.175651175828
 20
14.2408689785896
 30
0.0
 10
194.1755199942406
 20
14.11967683631335
 30
0.0
 10
194.1759477562047
 20
14.00691148919741
 30
0.0
 10
194.1746678202312
 20
13.91082913768742
 30
0.0
 10
194.1779759851042
 20
13.83113826468697
 30
0.0
 10
194.1715197740088
 20
13.78815175788782
 30
0.0
 10
194.1806208705556
 20
13.74955432372039
 30
0.0
 10
194.1447910339936
 20
13.75810887724068
 30
0.0
 10
194.1115223815252
 20
13.75342519985443
 30
0.0
 10
194.0604562576042
 20
13.75351298759782
 30
0.0
 10
194.0269723972814
 20
13.75794430283818
 30
0.0
 10
193.9907585408754
 20
13.74960793842506
 30
0.0
 10
194.0009782568667
 20
13.79145277179281
 30
0.0
 10
193.9936487887773
 20
13.83778560820171
 30
0.0
 10
193.9973633136103
 20
13.92374831106012
 30
0.0
 10
193.9959480554897
 20
14.02605142704847
 30
0.0
 10
193.9964105554639
 20
14.1445322393151
 30
0.0
 10
193.9962773686231
 20
14.26957683153355
 30
0.0
 10
193.9963015910046
 20
14.39475828107049
 30
0.0
 10
193.9963354925552
 20
14.51286645379058
 30
0.0
 10
193.9962060293133
 20
14.61628748709516
 30
0.0
 10
193.9965507549081
 20
14.69932036153667
 30
0.0
 10
193.9958698278691
 20
14.75143368521244
 30
0.0
 10
193.9994586600623
 20
14.87912907821361
 30
0.0
 10
193.7826171386438
 20
14.58048716819616
 30
0.0
 10
193.6021354921951
 20
14.35263981511522
 30
0.0
 10
193.5490322295612
 20
14.4937344328982
 30
0.0
 10
193.5200429133149
 20
14.54325767560945
 30
0.0
 10
193.419664806282
 20
14.64641779790106
 30
0.0
 10
193.7405127723261
 20
14.72695035023786
 30
0.0
 10
193.868989700543
 20
14.91066283036436
 30
0.0
 10
194.090645432536
 20
15.11931995771764
 30
0.0
 10
194.1770224894069
 20
15.29339211228347
 30
0.0
 10
194.4549394229077
 20
15.56967051342517
 30
0.0
 10
194.3346247839285
 20
15.56534559551116
 30
0.0
 10
194.286319735135
 20
15.56614856202556
 30
0.0
 10
194.2102377454905
 20
15.56574582146586
 30
0.0
 10
194.1167010009752
 20
15.56590275611613
 30
0.0
 10
194.0117594788557
 20
15.56582502576226
 30
0.0
 10
193.9033887738719
 20
15.56595464378557
 30
0.0
 10
193.7981454235898
 20
15.56554393490694
 30
0.0
 10
193.7056237819414
 20
15.56682073671594
 30
0.0
 10
193.6268130800708
 20
15.56340766534853
 30
0.0
 10
193.5839674565381
 20
15.57023350036323
 30
0.0
 10
193.5449499586516
 20
15.56065064201126
 30
0.0
 10
193.5526365271865
 20
15.59420779565546
 30
0.0
 10
193.5485464404313
 20
15.62523550322236
 30
0.0
 10
193.5485531368815
 20
15.67236529270903
 30
0.0
 10
193.5526239724913
 20
15.70340941646782
 30
0.0
 10
193.5449495574584
 20
15.73701861635905
 30
0.0
 10
193.5834819405495
 20
15.72748410420875
 30
0.0
 10
193.624122801448
 20
15.73397435498074
 30
0.0
 10
193.6951471850464
 20
15.73100150650257
 30
0.0
 10
193.7729318149634
 20
15.7317476139916
 30
0.0
 10
193.8507292246476
 20
15.73247814044529
 30
0.0
 10
193.9217232089908
 20
15.72954235514163
 30
0.0
 10
193.9624279791821
 20
15.73595468772955
 30
0.0
 10
194.000985348991
 20
15.72650524176007
 30
0.0
 10
193.9927342754929
 20
15.76264692158787
 30
0.0
 10
193.9982346669358
 20
15.80129837613229
 30
0.0
 10
193.9955754206164
 20
15.86913528561841
 30
0.0
 10
193.9965815471534
 20
15.94591641538741
 30
0.0
 10
193.996017801832
 20
16.02849393582756
 30
0.0
 10
193.9970714526594
 20
16.10517329229878
 30
0.0
 10
193.994267586313
 20
16.17331990776698
 30
0.0
 10
194.0000702721305
 20
16.21132399809345
 30
0.0
 10
193.9915654551159
 20
16.24758448077644
 30
0.0
 10
194.0255610233125
 20
16.2375572377185
 30
0.0
 10
194.0594575683099
 20
16.24073266813705
 30
0.0
 10
194.1126669060347
 20
16.23508965640608
 30
0.0
 10
194.1660768574483
 20
16.23434774436425
 30
0.0
 10
194.1995914649491
 20
16.2281922348298
 30
0.0
 10
194.2388086183038
 20
16.23346029773593
 30
0.0
 10
194.2120263698494
 20
16.19253380793486
 30
0.0
 10
194.1708111001725
 20
16.20371204538118
 30
0.0
 10
194.1782641540874
 20
16.1586705619213
 30
0.0
 10
194.1742227952186
 20
16.11412278028151
 30
0.0
 10
194.1761714049641
 20
16.04223572621709
 30
0.0
 10
194.1752364849759
 20
15.96168630588775
 30
0.0
 10
194.176510719003
 20
15.88173995404999
 30
0.0
 10
194.1732043793864
 20
15.80841837083186
 30
0.0
 10
194.1802106179962
 20
15.76688643002572
 30
0.0
 10
194.1701440380126
 20
15.72752418568115
 30
0.0
 10
194.2029814803922
 20
15.73468063430984
 30
0.0
 10
194.2364577296482
 20
15.73027243137947
 30
0.0
 10
194.2915053476019
 20
15.732179433479
 30
0.0
 10
194.3489502595316
 20
15.73185366407291
 30
0.0
 10
194.402302624831
 20
15.73106308733085
 30
0.0
 10
194.4398540896639
 20
15.73313959118077
 30
0.0
 10
194.4623172523238
 20
15.73022338167112
 30
0.0
 10
194.4751678073731
 20
15.73572552644059
 30
0.0
 10
194.4858255685889
 20
15.73801118197794
 30
0.0
 10
194.4986635650143
 20
15.74494972588057
 30
0.0
 10
194.514599103307
 20
15.72853046313675
 30
0.0
 10
194.5410623920892
 20
15.71709122319452
 30
0.0
 10
194.5726805253757
 20
15.69644687835193
 30
0.0
 10
194.5987255892151
 20
15.68116869628296
 30
0.0
 10
194.6128517723973
 20
15.67266976323186
 30
0.0
 10
194.6170254148479
 20
15.67015871511029
 30
0.0
 11
194.6170254148479
 21
15.67015871511029
 31
0.0
 11
194.6049990002243
 21
15.65473571164189
 31
0.0
 11
194.5848961795566
 21
15.64337406233921
 31
0.0
 11
194.4778986355814
 21
15.4244062023116
 31
0.0
 11
194.3477039934325
 21
15.21317201512161
 31
0.0
 11
194.1996540366071
 21
15.01206059027479
 31
0.0
 11
194.2734958253735
 21
14.9614738493538
 31
0.0
 11
194.36056643118
 21
14.89988411653741
 31
0.0
 11
194.4518003750405
 21
14.83413160594429
 31
0.0
 11
194.5381321779688
 21
14.77105653169308
 31
0.0
 11
194.6104963609788
 21
14.71749910790247
 31
0.0
 11
194.6598274450843
 21
14.6802995486911
 31
0.0
 11
194.6486940702213
 21
14.66471410869499
 31
0.0
 11
194.6221452532403
 21
14.62754882870426
 31
0.0
 11
194.5904579555534
 21
14.58319026871532
 31
0.0
 11
194.5639091385724
 21
14.54602498872459
 31
0.0
 11
194.5527757637094
 21
14.53043954872848
 31
0.0
 11
194.4807013362948
 21
14.59754008690618
 31
0.0
 11
194.3852856985382
 21
14.67993354174672
 31
0.0
 11
194.279326415217
 21
14.76785017366918
 31
0.0
 11
194.1756210511091
 21
14.85152024309269
 31
0.0
 11
194.1756210511091
 21
14.83304687900865
 31
0.0
 11
194.1756210511091
 21
14.78162102763957
 31
0.0
 11
194.1756210511091
 21
14.70323405031
 31
0.0
 11
194.1756210511091
 21
14.60387730834449
 31
0.0
 11
194.1756210511091
 21
14.48954216306761
 31
0.0
 11
194.1756210511091
 21
14.36621997580389
 31
0.0
 11
194.1756210511091
 21
14.23990210787789
 31
0.0
 11
194.1756210511091
 21
14.11657992061417
 31
0.0
 11
194.1756210511091
 21
14.00224477533729
 31
0.0
 11
194.1756210511091
 21
13.90288803337178
 31
0.0
 11
194.1756210511091
 21
13.82450105604221
 31
0.0
 11
194.1756210511091
 21
13.77307520467313
 31
0.0
 11
194.1756210511091
 21
13.75460184058909
 31
0.0
 11
194.1569720893627
 21
13.75460184058909
 31
0.0
 11
194.112501488275
 21
13.75460184058909
 31
0.0
 11
194.0594236740737
 21
13.75460184058909
 31
0.0
 11
194.014953072986
 21
13.75460184058909
 31
0.0
 11
193.9963041112396
 21
13.75460184058909
 31
0.0
 11
193.9963041112396
 21
13.77486797460216
 31
0.0
 11
193.9963041112396
 21
13.83089787452064
 31
0.0
 11
193.9963041112396
 21
13.91553878716345
 31
0.0
 11
193.9963041112396
 21
14.02163795934951
 31
0.0
 11
193.9963041112396
 21
14.14204263789774
 31
0.0
 11
193.9963041112396
 21
14.26960006962705
 31
0.0
 11
193.9963041112396
 21
14.39715750135635
 31
0.0
 11
193.9963041112396
 21
14.51756217990458
 31
0.0
 11
193.9963041112396
 21
14.62366135209064
 31
0.0
 11
193.9963041112396
 21
14.70830226473345
 31
0.0
 11
193.9963041112396
 21
14.76433216465193
 31
0.0
 11
193.9963041112396
 21
14.784598298665
 31
0.0
 11
193.7883272849482
 21
14.59331998274058
 31
0.0
 11
193.5763486358425
 21
14.43414885430821
 31
0.0
 11
193.5495629014483
 21
14.48814671952098
 31
0.0
 11
193.5138765415025
 21
14.54689140572026
 31
0.0
 11
193.4799697494124
 21
14.59192871537979
 31
0.0
 11
193.6830287742319
 21
14.73563387201057
 31
0.0
 11
193.8818531958261
 21
14.91168423529992
 31
0.0
 11
194.0677041444179
 21
15.11327514524952
 31
0.0
 11
194.2318427502304
 21
15.33360194186111
 31
0.0
 11
194.3655301434865
 21
15.56585996513638
 31
0.0
 11
194.3465256724482
 21
15.56585996513638
 31
0.0
 11
194.2944166389563
 21
15.56585996513638
 31
0.0
 11
194.2165596124448
 21
15.56585996513638
 31
0.0
 11
194.1203111623479
 21
15.56585996513638
 31
0.0
 11
194.0130278580998
 21
15.56585996513638
 31
0.0
 11
193.9020662691346
 21
15.56585996513638
 31
0.0
 11
193.7947829648865
 21
15.56585996513638
 31
0.0
 11
193.6985345147896
 21
15.56585996513638
 31
0.0
 11
193.6206774882781
 21
15.56585996513638
 31
0.0
 11
193.5685684547861
 21
15.56585996513638
 31
0.0
 11
193.5495639837479
 21
15.56585996513638
 31
0.0
 11
193.5495639837479
 21
15.58311199790984
 31
0.0
 11
193.5495639837479
 21
15.62425146067734
 31
0.0
 11
193.5495639837479
 21
15.67335340010952
 31
0.0
 11
193.5495639837479
 21
15.71449286287701
 31
0.0
 11
193.5495639837479
 21
15.73174489565048
 31
0.0
 11
193.5687598486011
 21
15.73174489565048
 31
0.0
 11
193.6193671286684
 21
15.73174489565048
 31
0.0
 11
193.6909153522121
 21
15.73174489565048
 31
0.0
 11
193.7729340474937
 21
15.73174489565048
 31
0.0
 11
193.8549527427755
 21
15.73174489565048
 31
0.0
 11
193.926500966319
 21
15.73174489565048
 31
0.0
 11
193.9771082463865
 21
15.73174489565048
 31
0.0
 11
193.9963041112396
 21
15.73174489565048
 31
0.0
 11
193.9963041112396
 21
15.74926552655221
 31
0.0
 11
193.9963041112396
 21
15.79622081736884
 31
0.0
 11
193.9963041112396
 21
15.86420086526755
 31
0.0
 11
193.9963041112396
 21
15.9447957674155
 31
0.0
 11
193.9963041112396
 21
16.02959562097986
 31
0.0
 11
193.9963041112396
 21
16.11019052312781
 31
0.0
 11
193.9963041112396
 21
16.17817057102652
 31
0.0
 11
193.9963041112396
 21
16.22512586184315
 31
0.0
 11
193.9963041112396
 21
16.24264649274488
 31
0.0
 11
194.0135484112112
 21
16.24165806167517
 31
0.0
 11
194.0566591611401
 21
16.2391869840009
 31
0.0
 11
194.1127031360478
 21
16.23597458302434
 31
0.0
 11
194.1687471109554
 21
16.23276218204779
 31
0.0
 11
194.2118578608843
 21
16.23029110437352
 31
0.0
 11
194.2291021608559
 21
16.22930267330381
 31
0.0
 11
194.2143774674852
 21
16.2055629337264
 31
0.0
 11
194.1756210511091
 21
16.19183767331319
 31
0.0
 11
194.1756210511091
 21
16.172068061773
 31
0.0
 11
194.1756210511091
 21
16.11994817680339
 31
0.0
 11
194.1756210511091
 21
16.04626144288085
 31
0.0
 11
194.1756210511091
 21
15.96179128448184
 31
0.0
 11
194.1756210511091
 21
15.87732112608282
 31
0.0
 11
194.1756210511091
 21
15.80363439216028
 31
0.0
 11
194.1756210511091
 21
15.75151450719068
 31
0.0
 11
194.1756210511091
 21
15.73174489565048
 31
0.0
 11
194.1916227112937
 21
15.73174489565048
 31
0.0
 11
194.2328901507171
 21
15.73174489565048
 31
0.0
 11
194.2893170576838
 21
15.73174489565048
 31
0.0
 11
194.3507971204982
 21
15.73174489565048
 31
0.0
 11
194.4072240274649
 21
15.73174489565048
 31
0.0
 11
194.4484914668883
 21
15.73174489565048
 31
0.0
 11
194.4644931270729
 21
15.73174489565048
 31
0.0
 11
194.4728206422925
 21
15.73451387455924
 31
0.0
 11
194.4882860277004
 21
15.73965626396122
 31
0.0
 11
194.49661354292
 21
15.74242524286998
 31
0.0
 11
194.5091363776005
 21
15.73490952398297
 31
0.0
 11
194.5389985218386
 21
15.71698742509857
 31
0.0
 11
194.5746404359293
 21
15.6955965328817
 31
0.0
 11
194.6045025801674
 21
15.6776744339973
 31
0.0
 11
194.6170254148479
 21
15.67015871511029
 31
0.0
  0
SPLINE
  5
C5
102
{ACAD_REACTORS
330
E2
102
}
330
48
100
AcDbEntity
  8
_U_30EC_U_30A4_U_30E4_U_30FC_1
  6
Continuous
 62
     2
100
AcDbSpline
210
0.0
220
0.0
230
1.0
 70
    11
 71
     3
 72
   124
 73
   120
 74
   118
 42
0.000000001
 43
0.0000000001
 44
0.00000001
 40
0.0
 40
0.0
 40
0.0
 40
0.0
 40
0.027818722962451
 40
0.1011590162384269
 40
0.2048470170590523
 40
0.3237088716559245
 40
0.4425707262522284
 40
0.5462587270700116
 40
0.6195990203312934
 40
0.6474177522579513
 40
0.6750060736116095
 40
0.7357003855243611
 40
0.7963946998055327
 40
0.8239830245572619
 40
0.8540933811103997
 40
0.9373396629410109
 40
1.063094687343349
 40
1.220731268638187
 40
1.399622220914861
 40
1.589140358637846
 40
1.778658496424012
 40
1.957549448940679
 40
2.115186030873329
 40
2.240941056914605
 40
2.324187341760703
 40
2.354297700109552
 40
2.381886024672061
 40
2.442580338710646
 40
2.503274652750668
 40
2.530862977314777
 40
2.56098394927873
 40
2.640393784453075
 40
2.752662861759299
 40
2.881361560118315
 40
3.010060258455362
 40
3.122329335705509
 40
3.201739170818123
 40
3.231860142753484
 40
3.26429802403054
 40
3.352343701778408
 40
3.482095226868931
 40
3.639650650173189
 40
3.811108022565644
 40
3.982565394928149
 40
4.140120818152728
 40
4.269872343141437
 40
4.357918020802498
 40
4.390355902044125
 40
4.423256253992695
 40
4.508104530073216
 40
4.624121560636984
 40
4.75052817603174
 40
4.866545206602187
 40
4.951393482692144
 40
4.984293834645546
 40
5.011450833242457
 40
5.071196230152236
 40
5.130941627057306
 40
5.158098625648969
 40
5.19099897760166
 40
5.275847253689485
 40
5.391864284256919
 40
5.518270899648464
 40
5.634287930209504
 40
5.719136206288177
 40
5.752036558236065
 40
5.782130946283092
 40
5.862783906229269
 40
5.979550131775142
 40
6.117984316640553
 40
6.263641154588103
 40
6.402075339414316
 40
6.51884156490812
 40
6.599494524815705
 40
6.629588912848942
 40
6.654403028226519
 40
6.713575149488315
 40
6.78419993932969
 40
6.843372060493793
 40
6.868186175803038
 40
6.89624624320207
 40
6.939586233758567
 40
6.967846564565202
 40
7.043584251090141
 40
7.153234334452008
 40
7.283231855734766
 40
7.420011856035811
 40
7.550009376580172
 40
7.65965945883558
 40
7.735397144417578
 40
7.763657474851752
 40
7.796409728011409
 40
7.880876065096683
 40
7.996370852466069
 40
8.122208446418965
 40
8.237703224799558
 40
8.322169562011252
 40
8.354921815206266
 40
8.382078813308043
 40
8.441824209207343
 40
8.501569605240485
 40
8.528726603486062
 40
8.56147885669611
 40
8.64594519387816
 40
8.761439980865672
 40
8.887277580764815
 40
9.002772362001336
 40
9.087238696661556
 40
9.11999094923601
 40
9.15242883061371
 40
9.240474508638924
 40
9.370226034149873
 40
9.527781457984755
 40
9.699238830981741
 40
9.870696203978929
 40
10.02825162781435
 40
10.15800315332597
 40
10.24604883135151
 40
10.27848670378554
 40
10.27848670378554
 40
10.27848670378554
 40
10.27848670378554
 10
195.3821827564383
 20
14.01410517385759
 30
0.0
 10
195.3914554737523
 20
14.01410498511276
 30
0.0
 10
195.425174453686
 20
14.01410430876716
 30
0.0
 10
195.4934706812465
 20
14.01411807243307
 30
0.0
 10
195.592014171158
 20
14.01403224219547
 30
0.0
 10
195.7062066464812
 20
14.01441755612252
 30
0.0
 10
195.8185894417071
 20
14.01300835897547
 30
0.0
 10
195.9214376600119
 20
14.01719117422245
 30
0.0
 10
195.980683987485
 20
14.00823089251985
 30
0.0
 10
196.0371265937034
 20
14.02164434526062
 30
0.0
 10
196.0246255586955
 20
13.97087198613363
 30
0.0
 10
196.0329549635705
 20
13.92589320939069
 30
0.0
 10
196.0248170841119
 20
13.8805675299049
 30
0.0
 10
196.0370529214458
 20
13.82931932408467
 30
0.0
 10
195.9747773490334
 20
13.84447955365278
 30
0.0
 10
195.9060513026869
 20
13.83359750710745
 30
0.0
 10
195.7782756749592
 20
13.83911304747974
 30
0.0
 10
195.6262984511643
 20
13.837008512537
 30
0.0
 10
195.4502695972523
 20
13.83771002588476
 30
0.0
 10
195.2644431934287
 20
13.83745237531293
 30
0.0
 10
195.0786167437175
 20
13.83771005144606
 30
0.0
 10
194.9025880142169
 20
13.83700841847733
 30
0.0
 10
194.7506104154194
 20
13.83911332229991
 30
0.0
 10
194.6228357664555
 20
13.83359680767642
 30
0.0
 10
194.554107783658
 20
13.84448077125944
 30
0.0
 10
194.4918349042883
 20
13.82931786684211
 30
0.0
 10
194.5040616290017
 20
13.88057510805173
 30
0.0
 10
194.4960004462597
 20
13.92582473272427
 30
0.0
 10
194.5040675809893
 20
13.97106357955325
 30
0.0
 10
194.4918238487083
 20
14.0223417690996
 30
0.0
 10
194.5525017120697
 20
14.00749577363136
 30
0.0
 10
194.6162810745736
 20
14.01756448170737
 30
0.0
 10
194.7277314353502
 20
14.01294644212001
 30
0.0
 10
194.8497533443824
 20
14.01413328905471
 30
0.0
 10
194.9719538137823
 20
14.01515863900637
 30
0.0
 10
195.0829794287392
 20
14.01092475623403
 30
0.0
 10
195.1476517413958
 20
14.02018584521741
 30
0.0
 10
195.2091162810501
 20
14.00604423049684
 30
0.0
 10
195.1930065601337
 20
14.07235527884519
 30
0.0
 10
195.2042980327358
 20
14.14447790121977
 30
0.0
 10
195.1987400822561
 20
14.27513760888288
 30
0.0
 10
195.200803506169
 20
14.42607323708242
 30
0.0
 10
195.2000167127295
 20
14.59335873107887
 30
0.0
 10
195.2007845215628
 20
14.76061110332304
 30
0.0
 10
195.1988038785628
 20
14.91163289269915
 30
0.0
 10
195.204130615662
 20
15.04206069552995
 30
0.0
 10
195.1933101388425
 20
15.114654426059
 30
0.0
 10
195.2090326429875
 20
15.18150469436799
 30
0.0
 10
195.143270813249
 20
15.16580512490825
 30
0.0
 10
195.0756367830763
 20
15.17609243083996
 30
0.0
 10
194.9615885293809
 20
15.17113786847123
 30
0.0
 10
194.8451242674902
 20
15.17414128030475
 30
0.0
 10
194.7306554121477
 20
15.16880303143389
 30
0.0
 10
194.6640324657812
 20
15.18001268074826
 30
0.0
 10
194.5990769715186
 20
15.16349132665012
 30
0.0
 10
194.6107989758707
 20
15.21473720477059
 30
0.0
 10
194.6032830189122
 20
15.25950333784091
 30
0.0
 10
194.6107989878835
 20
15.3042694489796
 30
0.0
 10
194.5990769505347
 20
15.3555153612974
 30
0.0
 10
194.66403263392
 20
15.33899381766814
 30
0.0
 10
194.7306533339822
 20
15.35020571373943
 30
0.0
 10
194.8451352858063
 20
15.34485436710663
 30
0.0
 10
194.9615454436962
 20
15.34791188771116
 30
0.0
 10
195.0757660174641
 20
15.34278499010707
 30
0.0
 10
195.1430150439226
 20
15.35345733355597
 30
0.0
 10
195.2083325941438
 20
15.33742082669076
 30
0.0
 10
195.1941391448552
 20
15.39949685750052
 30
0.0
 10
195.2036059462994
 20
15.46586761628762
 30
0.0
 10
195.1990269004085
 20
15.58239972741966
 30
0.0
 10
195.2007696555948
 20
15.71426685022376
 30
0.0
 10
195.1997551495392
 20
15.85615960150274
 30
0.0
 10
195.2017191344372
 20
15.98769050702581
 30
0.0
 10
195.1964668553851
 20
16.10524577283005
 30
0.0
 10
195.2073408763474
 20
16.16947789001586
 30
0.0
 10
195.1919536641853
 20
16.2310880254505
 30
0.0
 10
195.2407591537801
 20
16.21702407382113
 30
0.0
 10
195.2853995564725
 20
16.21954742075315
 30
0.0
 10
195.3538643946744
 20
16.2151279740171
 30
0.0
 10
195.3959106169102
 20
16.20613025544034
 30
0.0
 10
195.4487544758776
 20
16.2141171486651
 30
0.0
 10
195.4207035002014
 20
16.17113917611671
 30
0.0
 10
195.3749142248594
 20
16.18259552043846
 30
0.0
 10
195.3869539073265
 20
16.12173520005141
 30
0.0
 10
195.379608607064
 20
16.05769299468777
 30
0.0
 10
195.3831195826162
 20
15.94909368863915
 30
0.0
 10
195.3819806760173
 20
15.82494319144755
 30
0.0
 10
195.3819174780262
 20
15.69189719829879
 30
0.0
 10
195.3832872966868
 20
15.56797381249556
 30
0.0
 10
195.3791638801313
 20
15.45868337849338
 30
0.0
 10
195.3877763103563
 20
15.39608580094169
 30
0.0
 10
195.3746757454402
 20
15.33740133296364
 30
0.0
 10
195.4393884328198
 20
15.35362113810901
 30
0.0
 10
195.5060405953155
 20
15.34270260383311
 30
0.0
 10
195.6198779541103
 20
15.34793740173755
 30
0.0
 10
195.7357259122097
 20
15.34485547516912
 30
0.0
 10
195.849692426328
 20
15.35018259812512
 30
0.0
 10
195.9160341018099
 20
15.33904208166541
 30
0.0
 10
195.980718852548
 20
15.35546979593177
 30
0.0
 10
195.9689820772722
 20
15.30425925210049
 30
0.0
 10
195.9765168063041
 20
15.25950334121001
 30
0.0
 10
195.9689820992257
 20
15.21474739010027
 30
0.0
 10
195.9807188140736
 20
15.16353690871041
 30
0.0
 10
195.9160344075252
 20
15.1799642779422
 30
0.0
 10
195.8496886430824
 20
15.1688278444727
 30
0.0
 10
195.7357459487012
 20
15.17413115893121
 30
0.0
 10
195.6197995623054
 20
15.17114764593544
 30
0.0
 10
195.5062756882122
 20
15.17606892268395
 30
0.0
 10
195.4389231318804
 20
15.1658508751352
 30
0.0
 10
195.3734285122495
 20
15.18145996138817
 30
0.0
 10
195.3891713619218
 20
15.11463851827412
 30
0.0
 10
195.3783275998213
 20
15.0420705781588
 30
0.0
 10
195.3836581629792
 20
14.91162247614417
 30
0.0
 10
195.3817136151855
 20
14.76064558185227
 30
0.0
 10
195.3823133683214
 20
14.5932224393416
 30
0.0
 10
195.3821506559604
 20
14.42656176118373
 30
0.0
 10
195.3821895488136
 20
14.27360142921638
 30
0.0
 10
195.38218164131
 20
14.14849178985707
 30
0.0
 10
195.3821828382744
 20
14.06507890991422
 30
0.0
 10
195.3821827716208
 20
14.02491778281978
 30
0.0
 10
195.3821827564383
 20
14.01410517385759
 30
0.0
 11
195.3821827564383
 21
14.01410517385759
 31
0.0
 11
195.4100014883675
 21
14.01410517385759
 31
0.0
 11
195.4833417816353
 21
14.01410517385759
 31
0.0
 11
195.5870297824623
 21
14.01410517385759
 31
0.0
 11
195.7058916370687
 21
14.01410517385759
 31
0.0
 11
195.8247534916752
 21
14.01410517385759
 31
0.0
 11
195.9284414925021
 21
14.01410517385759
 31
0.0
 11
196.0017817857699
 21
14.01410517385759
 31
0.0
 11
196.0296005176991
 21
14.01410517385759
 31
0.0
 11
196.0296005176991
 21
13.98651684921171
 31
0.0
 11
196.0296005176991
 21
13.92582253499079
 31
0.0
 11
196.0296005176991
 21
13.86512822076986
 31
0.0
 11
196.0296005176991
 21
13.83753989612399
 31
0.0
 11
195.9994901593494
 21
13.83753989612399
 31
0.0
 11
195.9162438745005
 21
13.83753989612399
 31
0.0
 11
195.7904888484522
 21
13.83753989612399
 31
0.0
 11
195.6328522665042
 21
13.83753989612399
 31
0.0
 11
195.4539613139565
 21
13.83753989612399
 31
0.0
 11
195.2644431761089
 21
13.83753989612399
 31
0.0
 11
195.0749250382613
 21
13.83753989612399
 31
0.0
 11
194.8960340857136
 21
13.83753989612399
 31
0.0
 11
194.7383975037656
 21
13.83753989612399
 31
0.0
 11
194.6126424777173
 21
13.83753989612399
 31
0.0
 11
194.5293961928683
 21
13.83753989612399
 31
0.0
 11
194.4992858345187
 21
13.83753989612399
 31
0.0
 11
194.4992858345187
 21
13.86512822076987
 31
0.0
 11
194.4992858345187
 21
13.92582253499079
 31
0.0
 11
194.4992858345187
 21
13.98651684921171
 31
0.0
 11
194.4992858345187
 21
14.01410517385759
 31
0.0
 11
194.5294068064947
 21
14.01410517385759
 31
0.0
 11
194.608816641704
 21
14.01410517385759
 31
0.0
 11
194.721085719069
 21
14.01410517385759
 31
0.0
 11
194.8497844175118
 21
14.01410517385759
 31
0.0
 11
194.9784831159545
 21
14.01410517385759
 31
0.0
 11
195.0907521933195
 21
14.01410517385759
 31
0.0
 11
195.1701620285289
 21
14.01410517385759
 31
0.0
 11
195.2002830005048
 21
14.01410517385759
 31
0.0
 11
195.2002830005048
 21
14.04654305523837
 31
0.0
 11
195.2002830005048
 21
14.13458873327192
 31
0.0
 11
195.2002830005048
 21
14.26434025879504
 31
0.0
 11
195.2002830005048
 21
14.42189568264455
 31
0.0
 11
195.2002830005048
 21
14.59335305565725
 31
0.0
 11
195.2002830005048
 21
14.76481042866995
 31
0.0
 11
195.2002830005048
 21
14.92236585251946
 31
0.0
 11
195.2002830005048
 21
15.05211737804258
 31
0.0
 11
195.2002830005048
 21
15.14016305607613
 31
0.0
 11
195.2002830005048
 21
15.17260093745691
 31
0.0
 11
195.1673826485529
 21
15.17260093745691
 31
0.0
 11
195.0825343724662
 21
15.17260093745691
 31
0.0
 11
194.9665173418988
 21
15.17260093745691
 31
0.0
 11
194.8401107265044
 21
15.17260093745691
 31
0.0
 11
194.724093695937
 21
15.17260093745691
 31
0.0
 11
194.6392454198503
 21
15.17260093745691
 31
0.0
 11
194.6063450678984
 21
15.17260093745691
 31
0.0
 11
194.6063450678984
 21
15.19975793614803
 31
0.0
 11
194.6063450678984
 21
15.2595033332685
 31
0.0
 11
194.6063450678984
 21
15.31924873038897
 31
0.0
 11
194.6063450678984
 21
15.34640572908009
 31
0.0
 11
194.6392454198504
 21
15.34640572908009
 31
0.0
 11
194.724093695937
 21
15.34640572908009
 31
0.0
 11
194.8401107265044
 21
15.34640572908009
 31
0.0
 11
194.9665173418988
 21
15.34640572908009
 31
0.0
 11
195.0825343724662
 21
15.34640572908009
 31
0.0
 11
195.1673826485529
 21
15.34640572908009
 31
0.0
 11
195.2002830005048
 21
15.34640572908009
 31
0.0
 11
195.2002830005048
 21
15.37650011731369
 31
0.0
 11
195.2002830005048
 21
15.45715307777973
 31
0.0
 11
195.2002830005048
 21
15.57391930412609
 31
0.0
 11
195.2002830005048
 21
15.71235349000064
 31
0.0
 11
195.2002830005048
 21
15.85801032905125
 31
0.0
 11
195.2002830005048
 21
15.9964445149258
 31
0.0
 11
195.2002830005048
 21
16.11321074127216
 31
0.0
 11
195.2002830005048
 21
16.1938637017382
 31
0.0
 11
195.2002830005048
 21
16.2239580899718
 31
0.0
 11
195.2250405288618
 21
16.22228324219444
 31
0.0
 11
195.284077711867
 21
16.21828937441767
 31
0.0
 11
195.3545414464215
 21
16.21352249997442
 31
0.0
 11
195.4135786294266
 21
16.20952863219764
 31
0.0
 11
195.4383361577836
 21
16.20785378442028
 31
0.0
 11
195.4233067224031
 21
16.18415814206513
 31
0.0
 11
195.3821827564383
 21
16.17047697887409
 31
0.0
 11
195.3821827564383
 21
16.14221664794837
 31
0.0
 11
195.3821827564383
 21
16.06647896106744
 31
0.0
 11
195.3821827564383
 21
15.95682887707564
 31
0.0
 11
195.3821827564383
 21
15.82683135481733
 31
0.0
 11
195.3821827564383
 21
15.69005135313684
 31
0.0
 11
195.3821827564383
 21
15.56005383087853
 31
0.0
 11
195.3821827564383
 21
15.45040374688674
 31
0.0
 11
195.3821827564383
 21
15.37466606000581
 31
0.0
 11
195.3821827564383
 21
15.34640572908009
 31
0.0
 11
195.4149350096115
 21
15.34640572908009
 31
0.0
 11
195.4994013467422
 21
15.34640572908009
 31
0.0
 11
195.6148961342476
 21
15.34640572908009
 31
0.0
 11
195.7407337385445
 21
15.34640572908009
 31
0.0
 11
195.8562285260498
 21
15.34640572908009
 31
0.0
 11
195.9406948631806
 21
15.34640572908009
 31
0.0
 11
195.9734471163538
 21
15.34640572908009
 31
0.0
 11
195.9734471163538
 21
15.31924873038897
 31
0.0
 11
195.9734471163538
 21
15.2595033332685
 31
0.0
 11
195.9734471163538
 21
15.19975793614803
 31
0.0
 11
195.9734471163538
 21
15.17260093745691
 31
0.0
 11
195.9406948631806
 21
15.17260093745691
 31
0.0
 11
195.8562285260498
 21
15.17260093745691
 31
0.0
 11
195.7407337385445
 21
15.17260093745691
 31
0.0
 11
195.6148961342476
 21
15.17260093745691
 31
0.0
 11
195.4994013467422
 21
15.17260093745691
 31
0.0
 11
195.4149350096114
 21
15.17260093745691
 31
0.0
 11
195.3821827564383
 21
15.17260093745691
 31
0.0
 11
195.3821827564383
 21
15.14016305607613
 31
0.0
 11
195.3821827564383
 21
15.05211737804258
 31
0.0
 11
195.3821827564383
 21
14.92236585251946
 31
0.0
 11
195.3821827564383
 21
14.76481042866995
 31
0.0
 11
195.3821827564383
 21
14.59335305565725
 31
0.0
 11
195.3821827564383
 21
14.42189568264455
 31
0.0
 11
195.3821827564383
 21
14.26434025879504
 31
0.0
 11
195.3821827564383
 21
14.13458873327192
 31
0.0
 11
195.3821827564383
 21
14.04654305523837
 31
0.0
 11
195.3821827564383
 21
14.01410517385759
 31
0.0
  0
SPLINE
  5
C6
102
{ACAD_REACTORS
330
E3
102
}
330
48
100
AcDbEntity
  8
_U_30EC_U_30A4_U_30E4_U_30FC_1
  6
Continuous
 62
     2
100
AcDbSpline
210
0.0
220
0.0
230
1.0
 70
     8
 71
     3
 72
    62
 73
    58
 74
    56
 42
0.000000001
 43
0.0000000001
 44
0.00000001
 40
0.0
 40
0.0
 40
0.0
 40
0.0
 40
0.0598250028308769
 40
0.2024846486897616
 40
0.3727558389220746
 40
0.515415484793607
 40
0.5752404975785339
 40
0.9332326775487111
 40
1.290451762839417
 40
1.602077253145761
 40
1.69993163411195
 40
1.799359756424964
 40
2.270120149657027
 40
2.804661928461424
 40
2.88234228738313
 40
3.07654318571897
 40
3.329004354835414
 40
3.581465524568223
 40
3.775666424543493
 40
3.853346784558109
 40
3.899120679594883
 40
3.98412934179191
 40
4.029903236817287
 40
4.105797496059441
 40
4.295533144152397
 40
4.542189486611633
 40
4.788845828875578
 40
4.978581476409959
 40
5.0544757352442
 40
5.621734664339205
 40
6.130867242037213
 40
6.225249780948356
 40
6.318913039727068
 40
6.663579954558608
 40
7.047498900224451
 40
7.435230791575397
 40
7.498943906667809
 40
7.650875181209831
 40
7.83221250900137
 40
7.984143783696784
 40
8.047856898902939
 40
8.091554632732459
 40
8.17270756696414
 40
8.216405300767875
 40
8.28902178216076
 40
8.462184160757133
 40
8.668861838005213
 40
8.842024215263805
 40
8.914640695475
 40
8.98988158086121
 40
9.155411528827129
 40
9.320941477743924
 40
9.39618235248718
 40
9.454709011143727
 40
9.583467660170662
 40
9.71222630901294
 40
9.770752957989394
 40
9.770752957989394
 40
9.770752957989394
 40
9.770752957989394
 10
187.1521871691834
 20
14.93980288195948
 30
0.0
 10
187.1322348171624
 20
14.93980875568669
 30
0.0
 10
187.0647037716466
 20
14.93982863806155
 30
0.0
 10
186.9410612161789
 20
14.93949362520324
 30
0.0
 10
186.7863180150057
 20
14.9410767375051
 30
0.0
 10
186.6697349482481
 20
14.93686078860493
 30
0.0
 10
186.4550942634242
 20
14.95215205331624
 30
0.0
 10
186.8518948407229
 20
14.59198721286194
 30
0.0
 10
186.8945656069268
 20
14.37510503397165
 30
0.0
 10
187.3189162146611
 20
14.19325062511456
 30
0.0
 10
187.1439821496074
 20
14.08985196568069
 30
0.0
 10
187.0194523925084
 20
13.87831523212725
 30
0.0
 10
186.7666277235944
 20
14.34806081001555
 30
0.0
 10
186.4797602893624
 20
14.99511516984518
 30
0.0
 10
186.4906335926662
 20
14.68782672154694
 30
0.0
 10
186.4882892777959
 20
14.52288616971779
 30
0.0
 10
186.4861096126413
 20
14.28879670711696
 30
0.0
 10
186.4980774396347
 20
14.04498072421787
 30
0.0
 10
186.4687984740631
 20
13.89855796860989
 30
0.0
 10
186.5114522625471
 20
13.75113490174544
 30
0.0
 10
186.4239814005639
 20
13.76685797306226
 30
0.0
 10
186.3768527606745
 20
13.76694303543461
 30
0.0
 10
186.2898973207713
 20
13.75109425482915
 30
0.0
 10
186.3313474021722
 20
13.89527771422768
 30
0.0
 10
186.3029875004286
 20
14.03855052698461
 30
0.0
 10
186.3145973775299
 20
14.27674947365269
 30
0.0
 10
186.3124175648272
 20
14.50517235240351
 30
0.0
 10
186.3103111127994
 20
14.66705729375999
 30
0.0
 10
186.3208035438323
 20
14.98153709333755
 30
0.0
 10
186.0128963252894
 20
14.29229470872441
 30
0.0
 10
185.7055258267455
 20
13.81476750243054
 30
0.0
 10
185.5851367066275
 20
14.03741112637433
 30
0.0
 10
185.4074607910724
 20
14.15011034955571
 30
0.0
 10
185.8853326362894
 20
14.32548143465467
 30
0.0
 10
185.9353959057208
 20
14.56091929252031
 30
0.0
 10
186.3583799621719
 20
14.95322989344605
 30
0.0
 10
186.1276754273541
 20
14.93655307029064
 30
0.0
 10
186.0049685859342
 20
14.94269518948769
 30
0.0
 10
185.8325483095662
 20
14.93312822699571
 30
0.0
 10
185.7213224694449
 20
14.95448818489664
 30
0.0
 10
185.6025779627448
 20
14.92136265357417
 30
0.0
 10
185.6183169706686
 20
15.00203900606883
 30
0.0
 10
185.6178550933763
 20
15.04645414290855
 30
0.0
 10
185.6027881889931
 20
15.12967081778536
 30
0.0
 10
185.7372380935444
 20
15.09062651983886
 30
0.0
 10
185.8619755545746
 20
15.11739729328424
 30
0.0
 10
186.062875523728
 20
15.10063949044055
 30
0.0
 10
186.1921540949353
 20
15.12204225913007
 30
0.0
 10
186.3328419928294
 20
15.08868778853423
 30
0.0
 10
186.2980927452614
 20
15.22651875785071
 30
0.0
 10
186.3222185666714
 20
15.34963257349485
 30
0.0
 10
186.2967086182392
 20
15.47024055670341
 30
0.0
 10
186.3333251146685
 20
15.60539865141501
 30
0.0
 10
186.2211417027769
 20
15.58094545781896
 30
0.0
 10
186.1280356457136
 20
15.59307749842028
 30
0.0
 10
186.0191547579819
 20
15.5895763007
 30
0.0
 10
185.9569697640964
 20
15.58981755951609
 30
0.0
 10
185.9375369557246
 20
15.5898929512415
 30
0.0
 11
187.1521871691834
 21
14.93980288195948
 31
0.0
 11
187.0923621563983
 21
14.93980288195948
 31
0.0
 11
186.949702510526
 21
14.93980288195948
 31
0.0
 11
186.7794313202915
 21
14.93980288195948
 31
0.0
 11
186.6367716744192
 21
14.93980288195948
 31
0.0
 11
186.5769466616341
 21
14.93980288195948
 31
0.0
 11
186.7679960754843
 21
14.6370512796689
 31
0.0
 11
186.994127278563
 21
14.36051890576685
 31
0.0
 11
187.2244526173371
 21
14.1506125349346
 31
0.0
 11
187.1521596330705
 21
14.0846640366872
 31
0.0
 11
187.0879364402643
 21
14.00876059052558
 31
0.0
 11
186.7732818215558
 21
14.35891458349364
 31
0.0
 11
186.4886640249977
 21
14.811382951436
 31
0.0
 11
186.4886640249977
 21
14.73370259137313
 31
0.0
 11
186.4886640249977
 21
14.53950169121594
 31
0.0
 11
186.4886640249977
 21
14.28704052101159
 31
0.0
 11
186.4886640249977
 21
14.03457935080725
 31
0.0
 11
186.4886640249977
 21
13.84037845065006
 31
0.0
 11
186.4886640249977
 21
13.76269809058718
 31
0.0
 11
186.4428901295606
 21
13.76269809058718
 31
0.0
 11
186.3578814666058
 21
13.76269809058718
 31
0.0
 11
186.3121075711687
 21
13.76269809058718
 31
0.0
 11
186.3121075711687
 21
13.83859234982746
 31
0.0
 11
186.3121075711687
 21
14.02832799792817
 31
0.0
 11
186.3121075711687
 21
14.27498434045908
 31
0.0
 11
186.3121075711687
 21
14.52164068299
 31
0.0
 11
186.3121075711687
 21
14.71137633109071
 31
0.0
 11
186.3121075711687
 21
14.78727059033099
 31
0.0
 11
185.9987626399267
 21
14.31440946197697
 31
0.0
 11
185.6352328662148
 21
13.95795177109389
 31
0.0
 11
185.5773927461628
 21
14.03253450545025
 31
0.0
 11
185.5094852305342
 21
14.09704322939248
 31
0.0
 11
185.7750721898319
 21
14.31672219795893
 31
0.0
 11
186.0233764972062
 21
14.60953395971697
 31
0.0
 11
186.2264982805261
 21
14.93980288195948
 31
0.0
 11
186.1627851652722
 21
14.93980288195948
 31
0.0
 11
186.010853890436
 21
14.93980288195948
 31
0.0
 11
185.8295165624056
 21
14.93980288195948
 31
0.0
 11
185.6775852875693
 21
14.93980288195948
 31
0.0
 11
185.6138721723154
 21
14.93980288195948
 31
0.0
 11
185.6138721723154
 21
14.98350061600208
 31
0.0
 11
185.6138721723154
 21
15.06465355065261
 31
0.0
 11
185.6138721723154
 21
15.1083512846952
 31
0.0
 11
185.6864886537961
 21
15.1083512846952
 31
0.0
 11
185.8596510327118
 21
15.1083512846952
 31
0.0
 11
186.0663287107723
 21
15.1083512846952
 31
0.0
 11
186.239491089688
 21
15.1083512846952
 31
0.0
 11
186.3121075711687
 21
15.1083512846952
 31
0.0
 11
186.3121075711687
 21
15.18359217009306
 31
0.0
 11
186.3121075711687
 21
15.34912211796835
 31
0.0
 11
186.3121075711687
 21
15.51465206584364
 31
0.0
 11
186.3121075711687
 21
15.5898929512415
 31
0.0
 11
186.2535809125055
 21
15.5898929512415
 31
0.0
 11
186.1248222634467
 21
15.5898929512415
 31
0.0
 11
185.9960636143877
 21
15.5898929512415
 31
0.0
 11
185.9375369557246
 21
15.5898929512415
 31
0.0
  0
SPLINE
  5
C7
102
{ACAD_REACTORS
330
E3
102
}
330
48
100
AcDbEntity
  8
_U_30EC_U_30A4_U_30E4_U_30FC_1
  6
Continuous
 62
     2
100
AcDbSpline
210
0.0
220
0.0
230
1.0
 70
     8
 71
     3
 72
    70
 73
    66
 74
    64
 42
0.000000001
 43
0.0000000001
 44
0.00000001
 40
0.0
 40
0.0
 40
0.0
 40
0.0
 40
0.0241731073021472
 40
0.0846058988986729
 40
0.1631685280352999
 40
0.2417311571788903
 40
0.3021639488291898
 40
0.3263370654894688
 40
0.3533118254248011
 40
0.4228783438921205
 40
0.5179999095312425
 40
0.6216398239465072
 40
0.7167613891498604
 40
0.7863279069648726
 40
0.8133026791760664
 40
0.8372943998770503
 40
0.8945054261371701
 40
0.9627895541961762
 40
1.020000580349044
 40
1.043992300975142
 40
1.07193434552292
 40
1.113121768772828
 40
1.145225199332152
 40
1.225483775412691
 40
1.329819923771403
 40
1.434156071994293
 40
1.514414647795716
 40
1.546518078208325
 40
1.578974764260127
 40
1.662678849314065
 40
1.777131373668286
 40
1.901833377474677
 40
2.016285900500438
 40
2.099989982527777
 40
2.132446666570135
 40
2.158782354485859
 40
2.21672086790765
 40
2.274659381334069
 40
2.300995069256005
 40
2.333451754065977
 40
2.41715583654363
 40
2.531608358985069
 40
2.656310362283564
 40
2.770762886388668
 40
2.854466971339805
 40
2.886923657363611
 40
2.913597976833047
 40
2.982389642874855
 40
3.076451716946724
 40
3.178937260458345
 40
3.272999334739756
 40
3.341791001058984
 40
3.368465320663297
 40
3.396976080738547
 40
3.472140811845754
 40
3.578408190308444
 40
3.700226892455909
 40
3.822045594634126
 40
3.928312973256233
 40
4.00347770531463
 40
4.031988456866696
 40
4.058324144797501
 40
4.11626265823668
 40
4.174201171400497
 40
4.200536849608437
 40
4.200536849608437
 40
4.200536849608437
 40
4.200536849608437
 10
185.985770496161
 20
15.75844135397711
 30
0.0
 10
185.993825954468
 20
15.75844359811693
 30
0.0
 10
186.0220200663241
 20
15.75845146032804
 30
0.0
 10
186.0765534803674
 20
15.75830754828377
 30
0.0
 10
186.1482891808604
 20
15.75909120499904
 30
0.0
 10
186.2236240137062
 20
15.75627570463817
 30
0.0
 10
186.2713052366439
 20
15.76298403400963
 30
0.0
 10
186.3195071245616
 20
15.75197563692439
 30
0.0
 10
186.3062571799873
 20
15.80546402997039
 30
0.0
 10
186.3151093964538
 20
15.86049583543097
 30
0.0
 10
186.3108698036285
 20
15.95419908726114
 30
0.0
 10
186.313348348128
 20
16.04959482218536
 30
0.0
 10
186.3090938706059
 20
16.14356821983391
 30
0.0
 10
186.3179818665847
 20
16.19795062438015
 30
0.0
 10
186.3046977409945
 20
16.25233997691463
 30
0.0
 10
186.3514119277109
 20
16.2384221633536
 30
0.0
 10
186.3943254545736
 20
16.24103877374045
 30
0.0
 10
186.4605443456686
 20
16.23648422450755
 30
0.0
 10
186.5013342271799
 20
16.22778162134162
 30
0.0
 10
186.552514569082
 20
16.23531799890194
 30
0.0
 10
186.52537204872
 20
16.1934997022329
 30
0.0
 10
186.4803096055708
 20
16.202849920726
 30
0.0
 10
186.4942065045051
 20
16.13841207371843
 30
0.0
 10
186.4858414431654
 20
16.07378219627406
 30
0.0
 10
186.4903632178399
 20
15.97529141193894
 30
0.0
 10
186.4854741311168
 20
15.87595932842577
 30
0.0
 10
186.4950258992082
 20
15.81293115552974
 30
0.0
 10
186.4799761455201
 20
15.74964011499794
 30
0.0
 10
186.5449159457209
 20
15.76515072944274
 30
0.0
 10
186.6116246399498
 20
15.75499387697818
 30
0.0
 10
186.7241435470828
 20
15.75988800099373
 30
0.0
 10
186.8390235448954
 20
15.7569120473279
 30
0.0
 10
186.9519871999748
 20
15.76221664184997
 30
0.0
 10
187.0176267597677
 20
15.75107306472095
 30
0.0
 10
187.0816276691053
 20
15.76744532319863
 30
0.0
 10
187.0703142889189
 20
15.71761689905281
 30
0.0
 10
187.0775339871509
 20
15.67416715212128
 30
0.0
 10
187.0703142611269
 20
15.63071745587451
 30
0.0
 10
187.0816277175994
 20
15.58088895196882
 30
0.0
 10
187.0176263598972
 20
15.59726166091368
 30
0.0
 10
186.951992124046
 20
15.58611271661594
 30
0.0
 10
186.838997431733
 20
15.5914485720686
 30
0.0
 10
186.7242456548643
 20
15.58834345663828
 30
0.0
 10
186.6113183686861
 20
15.59364894682594
 30
0.0
 10
186.5455220903585
 20
15.58257300019599
 30
0.0
 10
186.4816097975359
 20
15.59887597847624
 30
0.0
 10
186.4936015165127
 20
15.54423524395747
 30
0.0
 10
186.4862104613006
 20
15.48854295047848
 30
0.0
 10
186.4892684841984
 20
15.39649689140575
 30
0.0
 10
186.4893422785684
 20
15.30179109873105
 30
0.0
 10
186.4860313578361
 20
15.20952782902269
 30
0.0
 10
186.4939505989905
 20
15.15435768736143
 30
0.0
 10
186.4815076611617
 20
15.10058169100138
 30
0.0
 10
186.5389116551633
 20
15.11453768862784
 30
0.0
 10
186.5994708140384
 20
15.1051145788423
 30
0.0
 10
186.7048680855082
 20
15.10942885928708
 30
0.0
 10
186.8204294070624
 20
15.10835504612034
 30
0.0
 10
186.9359688877798
 20
15.10725965900997
 30
0.0
 10
187.0414181130842
 20
15.11162525770635
 30
0.0
 10
187.1018680471805
 20
15.10209426030674
 30
0.0
 10
187.1592837739111
 20
15.11617289606382
 30
0.0
 10
187.1477773876711
 20
15.06707153265684
 30
0.0
 10
187.1537566781749
 20
15.02564658018649
 30
0.0
 10
187.1520311050804
 20
14.97651677966694
 30
0.0
 10
187.1521500122972
 20
14.94854428447606
 30
0.0
 10
187.1521871691834
 20
14.93980288195948
 30
0.0
 11
185.985770496161
 21
15.75844135397711
 31
0.0
 11
186.0099436128282
 21
15.75844135397711
 31
0.0
 11
186.0703764044963
 21
15.75844135397711
 31
0.0
 11
186.1489390336649
 21
15.75844135397711
 31
0.0
 11
186.2275016628334
 21
15.75844135397711
 31
0.0
 11
186.2879344545015
 21
15.75844135397711
 31
0.0
 11
186.3121075711687
 21
15.75844135397711
 31
0.0
 11
186.3121075711687
 21
15.78541612620069
 31
0.0
 11
186.3121075711687
 21
15.85498264404044
 31
0.0
 11
186.3121075711687
 21
15.9501042092499
 31
0.0
 11
186.3121075711687
 21
16.0537441235826
 31
0.0
 11
186.3121075711687
 21
16.14886568879206
 31
0.0
 11
186.3121075711687
 21
16.21843220663181
 31
0.0
 11
186.3121075711687
 21
16.24540697885539
 31
0.0
 11
186.3360407604892
 21
16.24373213107803
 31
0.0
 11
186.3931122119458
 21
16.23973826330123
 31
0.0
 11
186.4612297507811
 21
16.23497138885796
 31
0.0
 11
186.5183012022377
 21
16.23097752108117
 31
0.0
 11
186.5422343915582
 21
16.22930267330381
 31
0.0
 11
186.5274972731229
 21
16.2055629337264
 31
0.0
 11
186.4886640249977
 21
16.19183767331319
 31
0.0
 11
186.4886640249977
 21
16.15973424225126
 31
0.0
 11
186.4886640249977
 21
16.07947566459643
 31
0.0
 11
186.4886640249977
 21
15.97513951364515
 31
0.0
 11
186.4886640249977
 21
15.87080336269387
 31
0.0
 11
186.4886640249977
 21
15.79054478503904
 31
0.0
 11
186.4886640249977
 21
15.75844135397711
 31
0.0
 11
186.5211207110825
 21
15.75844135397711
 31
0.0
 11
186.6048247962486
 21
15.75844135397711
 31
0.0
 11
186.7192773208635
 21
15.75844135397711
 31
0.0
 11
186.8439793252946
 21
15.75844135397711
 31
0.0
 11
186.9584318499095
 21
15.75844135397711
 31
0.0
 11
187.0421359350756
 21
15.75844135397711
 31
0.0
 11
187.0745926211604
 21
15.75844135397711
 31
0.0
 11
187.0745926211604
 21
15.73210566604967
 31
0.0
 11
187.0745926211604
 21
15.6741671526093
 31
0.0
 11
187.0745926211604
 21
15.61622863916894
 31
0.0
 11
187.0745926211604
 21
15.5898929512415
 31
0.0
 11
187.0421359350756
 21
15.5898929512415
 31
0.0
 11
186.9584318499095
 21
15.5898929512415
 31
0.0
 11
186.8439793252946
 21
15.5898929512415
 31
0.0
 11
186.7192773208635
 21
15.5898929512415
 31
0.0
 11
186.6048247962486
 21
15.5898929512415
 31
0.0
 11
186.5211207110825
 21
15.5898929512415
 31
0.0
 11
186.4886640249977
 21
15.5898929512415
 31
0.0
 11
186.4886640249977
 21
15.56321863152028
 31
0.0
 11
186.4886640249977
 21
15.4944269648708
 31
0.0
 11
186.4886640249977
 21
15.40036489006439
 31
0.0
 11
186.4886640249977
 21
15.29787934587232
 31
0.0
 11
186.4886640249977
 21
15.20381727106589
 31
0.0
 11
186.4886640249977
 21
15.13502560441642
 31
0.0
 11
186.4886640249977
 21
15.1083512846952
 31
0.0
 11
186.5171747850994
 21
15.1083512846952
 31
0.0
 11
186.5923395162767
 21
15.1083512846952
 31
0.0
 11
186.6986068948377
 21
15.1083512846952
 31
0.0
 11
186.8204255970905
 21
15.1083512846952
 31
0.0
 11
186.9422442993434
 21
15.1083512846952
 31
0.0
 11
187.0485116779044
 21
15.1083512846952
 31
0.0
 11
187.1236764090817
 21
15.1083512846952
 31
0.0
 11
187.1521871691834
 21
15.1083512846952
 31
0.0
 11
187.1521871691834
 21
15.08201559676774
 31
0.0
 11
187.1521871691834
 21
15.02407708332734
 31
0.0
 11
187.1521871691834
 21
14.96613856988693
 31
0.0
 11
187.1521871691834
 21
14.93980288195948
 31
0.0
  0
SPLINE
  5
C8
102
{ACAD_REACTORS
330
E3
102
}
330
48
100
AcDbEntity
  8
_U_30EC_U_30A4_U_30E4_U_30FC_1
  6
Continuous
 62
     2
100
AcDbSpline
210
0.0
220
0.0
230
1.0
 70
     8
 71
     3
 72
    24
 73
    20
 74
    18
 42
0.000000001
 43
0.0000000001
 44
0.00000001
 40
0.0
 40
0.0
 40
0.0
 40
0.0
 40
0.2211075008753741
 40
0.4273218586245133
 40
0.5080174679238474
 40
0.5914835907869699
 40
0.8143265690192438
 40
1.05465130268657
 40
1.295452694023167
 40
1.518109231328831
 40
1.540864321905475
 40
1.595126460622736
 40
1.659890947896078
 40
1.714153085187465
 40
1.736908174961766
 40
1.764951100735468
 40
1.801562291221115
 40
1.953914424543784
 40
2.12610416737982
 40
2.12610416737982
 40
2.12610416737982
 40
2.12610416737982
 10
185.9375369556889
 20
15.5898929511302
 30
0.0
 10
185.9112579081812
 20
15.53097628234377
 30
0.0
 10
185.8604698894425
 20
15.41711139679259
 30
0.0
 10
185.8131784839112
 20
15.14441958233124
 30
0.0
 10
185.7043482802618
 20
15.24445482575461
 30
0.0
 10
185.5514800279637
 20
15.27118593367322
 30
0.0
 10
185.7686155181199
 20
15.48518135017637
 30
0.0
 10
185.7838483674381
 20
15.70332117782488
 30
0.0
 10
185.8906889492001
 20
15.88451579066431
 30
0.0
 10
185.8305380947078
 20
16.16913226311407
 30
0.0
 10
185.9334317395402
 20
16.14114089222455
 30
0.0
 10
185.977993346815
 20
16.13243251602303
 30
0.0
 10
186.0380842395397
 20
16.12139654183358
 30
0.0
 10
186.0756619587439
 20
16.10767523055564
 30
0.0
 10
186.1252466928607
 20
16.10756076160225
 30
0.0
 10
186.0930158919325
 20
16.07306592398626
 30
0.0
 10
186.0171802221882
 20
16.08404104537968
 30
0.0
 10
186.0429447159693
 20
15.89858969582454
 30
0.0
 10
186.0055896763851
 20
15.80702313549595
 30
0.0
 10
185.985770496161
 20
15.75844135397711
 30
0.0
 11
185.9375369556889
 21
15.5898929511302
 31
0.0
 11
185.8616471328552
 21
15.38221708318563
 31
0.0
 11
185.7717402238433
 21
15.19663392356199
 31
0.0
 11
185.701149392311
 21
15.23573272563554
 31
0.0
 11
185.6245525192651
 21
15.26889163187718
 31
0.0
 11
185.7214026947455
 21
15.46958801203539
 31
0.0
 11
185.7994641467471
 21
15.69688163177027
 31
0.0
 11
185.858971692972
 21
15.93021436608695
 31
0.0
 11
185.9001601511226
 21
16.14902808999059
 31
0.0
 11
185.9224183822215
 21
16.14429889221399
 31
0.0
 11
185.975495702534
 21
16.13302157443903
 31
0.0
 11
186.0388460525845
 21
16.11956154999796
 31
0.0
 11
186.0919233728971
 21
16.108284232223
 31
0.0
 11
186.1141816039959
 21
16.1035550344464
 31
0.0
 11
186.0964097157461
 21
16.08186250841013
 31
0.0
 11
186.0606122998071
 21
16.0741862844537
 31
0.0
 11
186.028195330148
 21
15.92532288171316
 31
0.0
 11
185.985770496161
 21
15.75844135397711
 31
0.0
  0
LWPOLYLINE
  5
C9
102
{ACAD_REACTORS
330
E4
102
}
330
48
100
AcDbEntity
  8
_U_30EC_U_30A4_U_30E4_U_30FC_1
  6
Continuous
 62
     2
100
AcDbPolyline
 90
        5
 70
     1
 43
0.0
 10
191.1602971697031
 20
15.39722336795629
 10
192.4578138032672
 20
15.39722336795629
 10
192.4578138032672
 20
15.2287543402206
 10
191.1602971697031
 20
15.2287543402206
 10
191.1602971697031
 20
15.39722336795629
  0
MTEXT
  5
CB
330
48
100
AcDbEntity
  8
1
 62
   250
100
AcDbMText
 10
25.00000000000004
 20
5.0
 30
0.0
 40
3.5
 41
0.0
 71
     4
 72
     1
  1
備考欄の文字列 原点位置=4
  7
CONVERTER_11
 73
     1
 44
0.54545454545455
  0
MTEXT
  5
CC
330
48
100
AcDbEntity
  8
1
 62
     2
100
AcDbMText
 10
89.50000000000004
 20
24.0
 30
0.0
 40
3.5
 41
0.0
 71
     5
 72
     1
  1
尺度
  7
CONVERTER_11
 73
     1
 44
0.54545454545455
  0
MTEXT
  5
CD
330
48
100
AcDbEntity
  8
1
 62
     2
100
AcDbMText
 10
135.5000000000001
 20
25.0
 30
0.0
 40
3.0
 41
0.0
 71
     5
 72
     1
  1
製図
  7
CONVERTER_11
 73
     1
 44
0.59090909090909
  0
MTEXT
  5
CE
330
48
100
AcDbEntity
  8
1
 62
     2
100
AcDbMText
 10
152.5000000000001
 20
25.0
 30
0.0
 40
3.0
 41
0.0
 71
     5
 72
     1
  1
設計
  7
CONVERTER_11
 73
     1
 44
0.59090909090909
  0
MTEXT
  5
CF
330
48
100
AcDbEntity
  8
1
 62
     2
100
AcDbMText
 10
118.5
 20
25.0
 30
0.0
 40
3.0
 41
0.0
 71
     5
 72
     1
  1
検図
  7
CONVERTER_11
 73
     1
 44
0.59090909090909
  0
MTEXT
  5
D0
330
48
100
AcDbEntity
  8
1
 62
     2
100
AcDbMText
 10
175.0000000000001
 20
23.5
 30
0.0
 40
3.5
 41
0.0
 71
     5
 72
     1
  1
第三角法
  7
CONVERTER_11
 73
     1
 44
0.54545454545455
  0
MTEXT
  5
D1
330
48
100
AcDbEntity
  8
1
 62
     2
100
AcDbMText
 10
101.5
 20
25.0
 30
0.0
 40
3.0
 41
0.0
 71
     5
 72
     1
  1
承認
  7
CONVERTER_11
 73
     1
 44
0.59090909090909
  0
MTEXT
  5
D2
330
48
100
AcDbEntity
  8
1
 62
     2
100
AcDbMText
 10
29.00000000000004
 20
14.25
 30
0.0
 40
3.5
 41
0.0
 71
     5
 72
     1
  1
品番
  7
CONVERTER_11
 73
     1
 44
0.72727272727273
  0
MTEXT
  5
D3
330
48
100
AcDbEntity
  8
1
 62
     2
100
AcDbMText
 10
29.00000000000004
 20
22.75
 30
0.0
 40
3.5
 41
0.0
 71
     5
 72
     1
  1
品名
  7
CONVERTER_11
 73
     1
 44
0.72727272727273
  0
MTEXT
  5
D4
330
48
100
AcDbEntity
  8
1
 62
     2
100
AcDbMText
 10
29.00000000000004
 20
34.0
 30
0.0
 40
3.5
 41
0.0
 71
     5
 72
     1
  1
備考
  7
CONVERTER_11
 73
     1
 44
0.45454545454545
  0
MTEXT
  5
D5
330
48
100
AcDbEntity
  8
1
 62
     2
100
AcDbMText
 10
32.50000000000004
 20
282.0000000000003
 30
0.0
 40
5.0
 41
0.0
 71
     5
 72
     1
  1
図番
  7
CONVERTER_11
 73
     1
 44
0.45454545454545
  0
HATCH
  5
D6
330
48
100
AcDbEntity
  8
1
  6
Continuous
 62
     2
100
AcDbHatch
 10
0.0
 20
0.0
 30
0.0
210
0.0
220
0.0
230
1.0
  2
CUSTOM0
 70
     0
 71
     1
 91
        1
 92
        1
 93
        1
 72
     4
 94
        3
 73
     0
 74
     0
 95
       99
 96
       95
 40
0.0
 40
0.0
 40
0.0
 40
0.0
 40
0.079641717227271
 40
0.1621768542356327
 40
0.2486489160958314
 40
0.3404969668525517
 40
0.4381912511165593
 40
0.543446366024591
 40
0.6518115192847687
 40
0.7530190937887153
 40
0.849219691972509
 40
0.9419290312998004
 40
1.034249663570028
 40
1.129078600620293
 40
1.226697027573297
 40
1.327220425421724
 40
1.470572134938068
 40
1.595489863371289
 40
1.719934125348428
 40
1.850576620127396
 40
1.989059629987332
 40
2.134139054227001
 40
2.28069800720727
 40
2.424529739039465
 40
2.565929576985906
 40
2.708239260773566
 40
2.861717887443733
 40
3.045168540347459
 40
3.183798301138694
 40
3.314813961455499
 40
3.442083470447365
 40
3.569912708373058
 40
3.702177512509439
 40
3.842307559659556
 40
3.992872223245977
 40
4.156750662218337
 40
4.310981861107642
 40
4.445859909322682
 40
4.572393936131625
 40
4.701656719782062
 40
4.768279086008578
 40
4.835960697898487
 40
4.912788918729444
 40
5.00628520848165
 40
5.026909478751698
 40
5.047533749021206
 40
5.101808031471283
 40
5.162325165538586
 40
5.226919745995855
 40
5.29423180659679
 40
5.364544852554977
 40
5.438319055468043
 40
5.517877651324288
 40
5.607647714861655
 40
5.700449642544471
 40
5.788251142364137
 40
5.872714706039777
 40
5.955167292575303
 40
6.037192395190433
 40
6.12066918146912
 40
6.206848616686356
 40
6.29668085541674
 40
6.442558392872571
 40
6.568190371608297
 40
6.692904567360329
 40
6.824220446557067
 40
6.963121850329423
 40
7.107843738851193
 40
7.253431663907281
 40
7.395187468036731
 40
7.533140753237772
 40
7.670550457175163
 40
7.816236511769268
 40
7.987691657359204
 40
8.142277421969206
 40
8.293662615415014
 40
8.44296246087925
 40
8.59159831618525
 40
8.743678992361767
 40
8.903725323699197
 40
9.076307008890447
 40
9.265578604680584
 40
9.459203795360729
 40
9.617619810273416
 40
9.753609671361819
 40
9.874873300003983
 40
9.954520184977667
 40
10.0241641371924
 40
10.09769764405435
 40
10.18909955924959
 40
10.20974586420126
 40
10.23039218263375
 40
10.30057101881257
 40
10.37632012987532
 40
10.37632012987532
 40
10.37632012987532
 40
10.37632012987532
 10
170.1465954835851
 20
14.13795663215998
 10
170.1632217851219
 20
14.11720608845316
 10
170.1970784206577
 20
14.07495111711903
 10
170.2599822541036
 20
14.0202981139207
 10
170.3332500940394
 20
13.97299025121054
 10
170.4175969238636
 20
13.93527231437938
 10
170.5132240615461
 20
13.91040619731951
 10
170.6171853775346
 20
13.90309559345935
 10
170.7224020220405
 20
13.91142322794053
 10
170.8206626371333
 20
13.94149179651539
 10
170.9058986427548
 20
13.98848822971874
 10
170.9779220206103
 20
14.04952991250856
 10
171.0350917709097
 20
14.12412969578585
 10
171.076786874744
 20
14.21002464660175
 10
171.1026952846293
 20
14.30485850432214
 10
171.1118037332654
 20
14.41854979038368
 10
171.0986864796487
 20
14.5433258777078
 10
171.0325330334414
 20
14.66014719171892
 10
170.9369370919568
 20
14.74512539577375
 10
170.824968102237
 20
14.81416684459166
 10
170.6993659583269
 20
14.8720414204589
 10
170.5656691620857
 20
14.92373723284338
 10
170.4313122818831
 20
14.97899092397183
 10
170.3051983986877
 20
15.04939770641649
 10
170.1926579987535
 20
15.13785540731248
 10
170.0969963064459
 20
15.24981067868478
 10
170.0334157151825
 20
15.39949910101384
 10
170.0200706505016
 20
15.55932794385147
 10
170.0320510987448
 20
15.71048405306848
 10
170.0712298928841
 20
15.8380924459154
 10
170.135498775091
 20
15.95080874030847
 10
170.2238204999741
 20
16.04648609268678
 10
170.3338091207628
 20
16.12354214985756
 10
170.4632284401265
 20
16.18151396936283
 10
170.6111838967793
 20
16.21739177588819
 10
170.7682069455487
 20
16.2274671905056
 10
170.917494046643
 20
16.21863637762589
 10
171.0596253614171
 20
16.19074899340356
 10
171.1595922609625
 20
16.13413314701135
 10
171.3125074736186
 20
16.08674602105509
 10
171.2455131717169
 20
16.00197553001188
 10
171.2296479120269
 20
15.93438901873484
 10
171.1978750531298
 20
15.86926092793192
 10
171.2150202209571
 20
15.76723453256955
 10
171.1666427208232
 20
15.77493211681903
 10
171.1315789440766
 20
15.76806771724811
 10
171.1296697985719
 20
15.832638311582
 10
171.0985692931989
 20
15.8782563962139
 10
171.0664551628456
 20
15.9356103662846
 10
171.0208038475168
 20
15.98540462692555
 10
170.9658508218387
 20
16.02994813719001
 10
170.9010841173008
 20
16.06763988836562
 10
170.8232377310597
 20
16.09283375791349
 10
170.7355160553352
 20
16.09931230998107
 10
170.6452903277807
 20
16.09235709285608
 10
170.5594594694065
 20
16.06909190460924
 10
170.4828343638596
 20
16.03131644107549
 10
170.4165265636202
 20
15.98051641089565
 10
170.3622560536964
 20
15.91731143407218
 10
170.3224925345459
 20
15.84276455710365
 10
170.2976775510589
 20
15.75917313997767
 10
170.2892124262871
 20
15.6519294838229
 10
170.3019697987104
 20
15.52965457267562
 10
170.3681548409273
 20
15.41149724291217
 10
170.4640977399832
 20
15.32606325709529
 10
170.5757914963183
 20
15.25583362306727
 10
170.7010863668703
 20
15.19659162305306
 10
170.8349823941448
 20
15.14616708086143
 10
170.968993033315
 20
15.09322516984377
 10
171.0950885316915
 20
15.02750170625175
 10
171.2076216638418
 20
14.94480352537326
 10
171.3031370284232
 20
14.83996006310074
 10
171.3672706486963
 20
14.69937117251574
 10
171.3811103725279
 20
14.54065409451594
 10
171.3673954712229
 20
14.38153155217878
 10
171.3244739153985
 20
14.23483828819212
 10
171.2545906329065
 20
14.10119796587148
 10
171.157459221383
 20
13.98532387699289
 10
171.0347806023657
 20
13.89089981770092
 10
170.8874408413168
 20
13.82179270651978
 10
170.7177132497125
 20
13.77953210858857
 10
170.5317404979597
 20
13.76781736230415
 10
170.3528955926184
 20
13.77809486683442
 10
170.1881733753744
 20
13.81966573769151
 10
170.0834410841057
 20
13.88797642883944
 10
169.9350960790366
 20
13.93675219032106
 10
169.9980378194729
 20
14.02976591290845
 10
170.007227443006
 20
14.10296536248285
 10
170.0303711301231
 20
14.16936294501351
 10
170.0034588335318
 20
14.26974809527582
 10
170.0521338956339
 20
14.26234033517378
 10
170.0916530580698
 20
14.26894063620895
 10
170.0996204944703
 20
14.19078703218938
 10
170.1305436967923
 20
14.15600927375861
 10
170.1465954835851
 20
14.13795663215998
 97
        1
330
B8
 75
     1
 76
     2
 52
45.0
 41
0.1
 77
     0
 78
     1
 53
45.0
 43
0.0
 44
0.0
 45
-0.282842712474619
 46
0.0
 79
     0
 98
        1
 10
0.0
 20
0.0
  0
HATCH
  5
D7
330
48
100
AcDbEntity
  8
1
  6
Continuous
 62
     2
100
AcDbHatch
 10
0.0
 20
0.0
 30
0.0
210
0.0
220
0.0
230
1.0
  2
CUSTOM1
 70
     0
 71
     1
 91
        2
 92
        1
 93
        1
 72
     4
 94
        3
 73
     0
 74
     0
 95
       57
 96
       53
 40
0.0
 40
0.0
 40
0.0
 40
0.0
 40
0.0471632082808642
 40
0.0914861054632115
 40
0.1357762519702067
 40
0.1826527001609793
 40
0.2295203288571418
 40
0.2737751972219588
 40
0.3181310461542167
 40
0.365260719839843
 40
0.4571007286314145
 40
0.5671851029165035
 40
0.6894623283867752
 40
0.818175827254572
 40
0.951008722927343
 40
1.08585222967406
 40
1.218126164475319
 40
1.343545131142379
 40
1.454537202956795
 40
1.567187607530718
 40
1.680710966642309
 40
1.794226869736701
 40
1.900009184247501
 40
2.004085860447781
 40
2.108162674451697
 40
2.214000150155298
 40
2.496038577352131
 40
2.76235074547928
 40
2.997275353279394
 40
3.185110082137725
 40
3.246407890063893
 40
3.312607550212566
 40
3.378877742711496
 40
3.440140399651433
 40
4.100501696006499
 40
4.754913085563573
 40
5.411331693423944
 40
6.077890432568654
 40
6.110575292670933
 40
6.143260152775713
 40
6.367989363395088
 40
6.610525374951457
 40
6.863389136467216
 40
7.11938002554753
 40
7.376036605091014
 40
7.631164770966279
 40
7.876722425456382
 40
8.104953735855938
 40
8.312916685924206
 40
8.497730294941215
 40
8.651018984313763
 40
8.76473885362449
 40
8.76473885362449
 40
8.76473885362449
 40
8.76473885362449
 10
174.7922649500513
 20
13.81626739612929
 10
174.7766616726931
 20
13.81826231079079
 10
174.7463947960302
 20
13.82213201360299
 10
174.7010994202252
 20
13.82341984967263
 10
174.6559553129349
 20
13.82308683554047
 10
174.60990171234
 20
13.82314658674219
 10
174.5640496172097
 20
13.82325813649997
 10
174.5183711648166
 20
13.82277833456585
 10
174.4750811541609
 20
13.82461109618722
 10
174.4039947951513
 20
13.80049556814658
 10
174.4057477261441
 20
13.92184693977252
 10
174.358619637057
 20
14.00726239751231
 10
174.3191478251763
 20
14.12486929345139
 10
174.2706635532645
 20
14.24232752540434
 10
174.2201017402523
 20
14.36405935761513
 10
174.1718634610477
 20
14.49075967862466
 10
174.1135232947594
 20
14.59933687784955
 10
174.0980892667261
 20
14.75620657134412
 10
173.9566586330636
 20
14.72373446548325
 10
173.8508397414904
 20
14.73512888682175
 10
173.7358569725223
 20
14.73392591514618
 10
173.6253142252141
 20
14.73506945347417
 10
173.5176583522783
 20
14.73418350037529
 10
173.4121322529244
 20
14.73416602390515
 10
173.3109192682013
 20
14.72714032472417
 10
173.1266804827753
 20
14.75135859859871
 10
173.1157393685412
 20
14.44741691121885
 10
173.0087691634751
 20
14.22353177253395
 10
172.9098148604347
 20
14.03895314292498
 10
172.9225090524008
 20
13.79530204804211
 10
172.8050091716397
 20
13.82508046753196
 10
172.7422055868311
 20
13.82258089509597
 10
172.67858720934
 20
13.82344075102804
 10
172.3946014194075
 20
13.78098039941955
 10
173.0251638499382
 20
14.50081952444782
 10
173.1087645289072
 20
15.01276539435733
 10
173.4929252789339
 20
15.53353743550047
 10
173.4777208288565
 20
16.23519626253214
 10
173.7239265722696
 20
16.22345633081253
 10
173.8256346157562
 20
16.23225004452771
 10
173.8249752035819
 20
15.98059650730351
 10
173.9428317155828
 20
15.79818020733958
 10
174.0315515260484
 20
15.55563740662867
 10
174.1322292485261
 20
15.32340030530134
 10
174.2311142712243
 20
15.08674644566911
 10
174.3299676990671
 20
14.85461739170096
 10
174.4256166390926
 20
14.63122222788785
 10
174.5159904573272
 20
14.42272549049318
 10
174.598994456819
 20
14.23308448529323
 10
174.6726088582798
 20
14.06663106068098
 10
174.7342815895547
 20
13.92917699626104
 10
174.7749458885604
 20
13.84999239430036
 10
174.7922649500513
 20
13.81626739612929
 97
        1
330
B9
 92
       16
 93
        1
 72
     4
 94
        3
 73
     0
 74
     0
 95
       25
 96
       21
 40
0.0
 40
0.0
 40
0.0
 40
0.0
 40
0.0911479969064534
 40
0.1858117896204942
 40
0.2804128399735053
 40
0.371588919071479
 40
0.4679080494218135
 40
0.5642683809229223
 40
0.6605683222644702
 40
0.7569653015809392
 40
0.8561348172521958
 40
1.092615965104221
 40
1.374867658141824
 40
1.611348812011532
 40
1.7105183284252
 40
1.809403163726514
 40
2.045205463294057
 40
2.326646917622127
 40
2.56244921719062
 40
2.661334043833934
 40
2.661334043833934
 40
2.661334043833934
 40
2.661334043833934
 10
173.26837005672
 20
14.88614538197288
 10
173.2987525917923
 20
14.88598079714551
 10
173.3606895889113
 20
14.88564528689922
 10
173.454135696033
 20
14.88269055452001
 10
173.5475095236359
 20
14.87977752877152
 10
173.6417760753476
 20
14.87894201643415
 10
173.7354964790968
 20
14.87996644658046
 10
173.8352040303205
 20
14.87916977470967
 10
173.9188949546312
 20
14.88921410235218
 10
174.0637996315045
 20
14.86234617674162
 10
173.93961324448
 20
15.03665530280046
 10
173.8965867286283
 20
15.19651711006092
 10
173.7808922142209
 20
15.45518458550213
 10
173.7017565431258
 20
15.59231052861863
 10
173.6431576621816
 20
15.80937033134081
 10
173.586480393944
 20
15.59266134213429
 10
173.5052809900478
 20
15.4532701243824
 10
173.4063701281488
 20
15.20406969370191
 10
173.325362509426
 20
15.01925830226072
 10
173.2813683325839
 20
14.91650446856113
 10
173.26837005672
 20
14.88614538197288
 97
        1
330
BA
 75
     1
 76
     2
 52
45.0
 41
0.1
 77
     0
 78
     1
 53
45.0
 43
0.0
 44
0.0
 45
-0.282842712474619
 46
0.0
 79
     0
 98
        1
 10
0.0
 20
0.0
  0
HATCH
  5
D8
330
48
100
AcDbEntity
  8
1
  6
Continuous
 62
     2
100
AcDbHatch
 10
0.0
 20
0.0
 30
0.0
210
0.0
220
0.0
230
1.0
  2
CUSTOM2
 70
     0
 71
     1
 91
        1
 92
        1
 93
        1
 72
     4
 94
        3
 73
     0
 74
     0
 95
       95
 96
       91
 40
0.0
 40
0.0
 40
0.0
 40
0.0
 40
0.6550406656911468
 40
1.308087289031915
 40
1.420803739835769
 40
1.566130759770805
 40
1.757067341888447
 40
2.006513545026407
 40
2.087328263121525
 40
2.185328872295648
 40
2.294612454748385
 40
2.408936380534804
 40
2.526802767798554
 40
2.646360524615599
 40
2.762535723971569
 40
2.870057342870139
 40
2.966883448431623
 40
3.050803243518198
 40
3.115818222436549
 40
3.156030057150217
 40
3.213914225080146
 40
3.276689026450602
 40
3.342960320981293
 40
3.40423066715054
 40
3.45382280949337
 40
3.532499827188423
 40
3.634775188507157
 40
3.75490933300818
 40
3.889736761660634
 40
4.035769602175205
 40
4.187256681197595
 40
4.338733685675972
 40
4.488478734676119
 40
4.634708317831609
 40
4.77149318992126
 40
4.892686571561144
 40
5.199775528944385
 40
5.46035356692963
 40
5.667603142345452
 40
5.81472290540442
 40
5.828990806219718
 40
5.855488336304415
 40
5.869756237118747
 40
6.189796507762707
 40
6.531890469872923
 40
6.883053637016932
 40
7.23051202491146
 40
7.566966656764529
 40
7.885203559707387
 40
8.172887439719188
 40
8.41801159406267
 40
8.443926721190591
 40
8.510760470613082
 40
8.602145393795595
 40
8.70171404164704
 40
8.793098965075277
 40
8.859932715057852
 40
8.885847842603502
 40
9.24230125661269
 40
9.58927545501669
 40
9.921808543164055
 40
10.23479624298455
 40
10.29968150889162
 40
10.35323493887753
 40
10.40154625355129
 40
10.4648292247781
 40
10.55973900668387
 40
10.69239545985596
 40
10.84920353475656
 40
11.01626328594766
 40
11.18672024367426
 40
11.35372582577195
 40
11.50257442292409
 40
11.61866495023277
 40
11.71329869152855
 40
11.8251105057389
 40
11.94464880845701
 40
12.06929242642491
 40
12.19707290435157
 40
12.32562632860513
 40
12.45034565331259
 40
12.56646595170312
 40
12.67099007414616
 40
12.7607762593676
 40
12.82703233506674
 40
12.87429132785971
 40
12.8983199032331
 40
12.92234847859998
 40
13.53984767410298
 40
14.1829428435934
 40
14.1829428435934
 40
14.1829428435934
 40
14.1829428435934
 10
177.3067935648022
 20
14.7089803820173
 10
177.1752019758551
 20
14.82265058603236
 10
176.9124193802729
 20
15.04964496316159
 10
176.3997393441023
 20
15.89214462956286
 10
176.4106654595362
 20
15.5342337757702
 10
176.4041226527993
 20
15.39267392272133
 10
176.4028026631772
 20
15.19421305299281
 10
176.4018117602538
 20
15.02150296045985
 10
176.4024101751974
 20
14.8786537325758
 10
176.4038994301882
 20
14.78265005413356
 10
176.4055683588472
 20
14.67545503263139
 10
176.407193495462
 20
14.56164211517581
 10
176.4092429501686
 20
14.44441572604588
 10
176.4123165501927
 20
14.3265641123297
 10
176.4156339697044
 20
14.21228087320621
 10
176.419360534028
 20
14.10521401867277
 10
176.4217338161424
 20
14.01007408766925
 10
176.4278718888359
 20
13.92558557205701
 10
176.4239784495946
 20
13.86923087298146
 10
176.4455230443079
 20
13.79825022472357
 10
176.3680940058618
 20
13.82902677604484
 10
176.3116353240192
 20
13.82011242517608
 10
176.2540495896807
 20
13.82896218398274
 10
176.1690163478474
 20
13.79738225225947
 10
176.2009714146382
 20
13.88095155992194
 10
176.1990705282539
 20
13.94882608968314
 10
176.2107960047301
 20
14.05233256764423
 10
176.2164241052999
 20
14.170021256167
 10
176.2237902178942
 20
14.30388609164427
 10
176.232075970161
 20
14.44764152872635
 10
176.2398851897428
 20
14.59714022843448
 10
176.2457571222658
 20
14.74792549402083
 10
176.250366781797
 20
14.89699943878443
 10
176.2542632117542
 20
15.04122913163027
 10
176.2570715126564
 20
15.1758390521302
 10
176.2576698755023
 20
15.36469614347355
 10
176.2616023867151
 20
15.58975494313154
 10
176.2442175378499
 20
15.86367091125707
 10
176.2850417342584
 20
16.02787112098597
 10
176.1995153256002
 20
16.22749661465092
 10
176.2660558907688
 20
16.22385458403976
 10
176.283872427323
 20
16.22413447160851
 10
176.4056801797506
 20
16.22632927398611
 10
176.5080770335461
 20
15.94675118721518
 10
176.7580021509357
 20
15.74563008536012
 10
176.987003533111
 20
15.47792614987915
 10
177.224515121311
 20
15.2264641386238
 10
177.4486090740772
 20
14.98969974061354
 10
177.675071628301
 20
14.73218692583081
 10
177.8325687886515
 20
14.61649335056926
 10
178.0472129612674
 20
14.27997152538796
 10
178.0422645974618
 20
14.40464754091603
 10
178.0433931602545
 20
14.46327691935737
 10
178.0428877841517
 20
14.55043662371978
 10
178.0430475158113
 20
14.64416143182873
 10
178.0430054891318
 20
14.73018971297036
 10
178.0430202040372
 20
14.79153891945497
 10
178.0429706255985
 20
14.94135231520995
 10
178.0458811522811
 20
15.17989612510106
 10
178.0259521041162
 20
15.54486509868702
 10
178.0750433936248
 20
15.80799631993414
 10
177.917795150918
 20
16.21928904947747
 10
178.0762112872423
 20
16.16398282551748
 10
178.1311680478629
 20
16.16199686500178
 10
178.182788776674
 20
16.16264778248254
 10
178.2713198965367
 20
16.20369527738244
 10
178.2204898303169
 20
16.05696326622991
 10
178.2313389930285
 20
15.95019971954435
 10
178.2166036994848
 20
15.79085705414114
 10
178.2099976446203
 20
15.62853061652874
 10
178.2014961399916
 20
15.45992521892395
 10
178.1943227202198
 20
15.29814814703542
 10
178.188906321539
 20
15.15422331457933
 10
178.1871713967648
 20
15.03437493466927
 10
178.1875440672319
 20
14.92686101590517
 10
178.1873656126262
 20
14.81820024645588
 10
178.187701086314
 20
14.69953570165531
 10
178.1890040622185
 20
14.57555163512742
 10
178.1908887351574
 20
14.44858294171106
 10
178.1925004454852
 20
14.32153861551034
 10
178.194140313743
 20
14.19854884492179
 10
178.1962570745752
 20
14.08300931383762
 10
178.1963848422364
 20
13.9809090395584
 10
178.2006514396555
 20
13.89009848838161
 10
178.190844008529
 20
13.83213621208792
 10
178.211847477169
 20
13.76517130132036
 10
178.1725639739898
 20
13.77291153966695
 10
177.9595307117744
 20
13.75755254145199
 10
177.7636297943188
 20
14.31403058094467
 10
177.4611197631544
 20
14.57556035348513
 10
177.3067935648022
 20
14.7089803820173
 97
        1
330
BB
 75
     1
 76
     2
 52
45.0
 41
0.1
 77
     0
 78
     1
 53
45.0
 43
0.0
 44
0.0
 45
-0.282842712474619
 46
0.0
 79
     0
 98
        1
 10
0.0
 20
0.0
  0
HATCH
  5
D9
330
48
100
AcDbEntity
  8
1
  6
Continuous
 62
     2
100
AcDbHatch
 10
0.0
 20
0.0
 30
0.0
210
0.0
220
0.0
230
1.0
  2
CUSTOM3
 70
     0
 71
     1
 91
        1
 92
        1
 93
        1
 72
     4
 94
        3
 73
     0
 74
     0
 95
      110
 96
      106
 40
0.0
 40
0.0
 40
0.0
 40
0.0
 40
0.2203406257278051
 40
0.440780878283809
 40
0.5952494494615065
 40
0.7488431659393051
 40
0.9023581831308465
 40
1.056801968670402
 40
1.210736449099874
 40
1.363041386539781
 40
1.515315729683094
 40
1.669377239148073
 40
1.721611652756531
 40
1.77319950294287
 40
1.824933793209963
 40
1.877110426487899
 40
1.98268228120666
 40
2.078781667087441
 40
2.172809640822218
 40
2.271937807378843
 40
2.378349933379237
 40
2.494131557736512
 40
2.626681683943616
 40
2.783145050795987
 40
2.890701232940809
 40
2.993130312454654
 40
3.099869730691667
 40
3.220237816691209
 40
3.352695482737467
 40
3.48173280638968
 40
3.593499473690249
 40
3.674323013331736
 40
3.817951711952629
 40
3.946167120793598
 40
4.061405053453312
 40
4.166480796002924
 40
4.262478775059074
 40
4.35073667355103
 40
4.433071991253917
 40
4.511216293814407
 40
4.564262454117721
 40
4.618474415571352
 40
4.670128488753956
 40
4.722296879126209
 40
4.819540945314086
 40
4.931194984127945
 40
5.049996040257527
 40
5.168643755415015
 40
5.283970811762313
 40
5.392260784910167
 40
5.486512254876185
 40
5.559178233949556
 40
5.591425852853207
 40
5.626215969637582
 40
5.667155838674147
 40
5.717449290213984
 40
5.738402360944579
 40
5.784499116553509
 40
5.83059587216444
 40
5.85154894289728
 40
5.873019280661407
 40
5.924217778407978
 40
5.985325662817389
 40
6.036524160567432
 40
6.057994498333971
 40
6.236847789607215
 40
6.381409928945415
 40
6.493190424178419
 40
6.574067534230177
 40
6.691018086205243
 40
6.814881554220189
 40
6.94430782324017
 40
7.071266716065677
 40
7.193488604461525
 40
7.309042773127748
 40
7.414007203170435
 40
7.505140441886212
 40
7.5311503605993
 40
7.559221645321839
 40
7.587202218920535
 40
7.612569159498792
 40
7.662550809480654
 40
7.702878875763772
 40
7.857328205230585
 40
8.010799568088203
 40
8.165256399657181
 40
8.322232698713492
 40
8.479564855016207
 40
8.63521623029041
 40
8.790882550925357
 40
8.948305154946894
 40
9.16827183903259
 40
9.387358980986827
 40
9.6080479610331
 40
9.83291423479232
 40
9.858338694962653
 40
9.925366817229655
 40
10.02013071422723
 40
10.12876249858961
 40
10.23739428295211
 40
10.33215817995152
 40
10.39918630222355
 40
10.42461076239744
 40
10.64992019336904
 40
10.87188524531147
 40
10.87188524531147
 40
10.87188524531147
 40
10.87188524531147
 10
179.9057788376619
 20
15.73923260398189
 10
179.9092864933542
 20
15.80616462073803
 10
179.9163033987662
 20
15.94005891915858
 10
179.8198027599073
 20
16.22548554971468
 10
180.0510134726109
 20
16.16284386190281
 10
180.1919290057157
 20
16.17001554055997
 10
180.3490417757588
 20
16.16235883078251
 10
180.5025913427288
 20
16.1625275228304
 10
180.6545104935082
 20
16.16182040535438
 10
180.8142214813232
 20
16.17210158351645
 10
180.9408972601118
 20
16.15496511080748
 10
181.1370821122081
 20
16.22727260107147
 10
181.1034395279079
 20
16.12640699080119
 10
181.1052011317184
 20
16.07619253947674
 10
181.102734207346
 20
16.02712335586471
 10
181.1347076966011
 20
15.94063490847005
 10
181.0010399903257
 20
15.98997438608336
 10
180.9172208688057
 20
15.98430634314173
 10
180.8173861139325
 20
15.99465516706297
 10
180.7186576720146
 20
16.00086450411087
 10
180.6121532771111
 20
16.0069776381678
 10
180.4910511698059
 20
16.01588883484594
 10
180.3703381502455
 20
16.00521605912381
 10
180.1812553843437
 20
16.06468503080362
 10
180.2129028505312
 20
15.90558320077542
 10
180.1995563316835
 20
15.80839128339907
 10
180.1974958426449
 20
15.69634065110105
 10
180.195818804467
 20
15.57699685629351
 10
180.1973336794234
 20
15.45032592155112
 10
180.1956582478669
 20
15.32301588016119
 10
180.2058844271659
 20
15.22451566404467
 10
180.1779006596583
 20
15.08388702625636
 10
180.3508029999306
 20
15.13989551134098
 10
180.4645020202772
 20
15.127199514785
 10
180.5840151672239
 20
15.13448377051257
 10
180.6888491425072
 20
15.13878017056759
 10
180.7843084898613
 20
15.14330568258978
 10
180.8763823507032
 20
15.15149201146201
 10
180.947655178244
 20
15.14643850638114
 10
181.0544931705684
 20
15.18536425031674
 10
181.0226603598037
 20
15.10517122005881
 10
181.0266164503929
 20
15.05562936846037
 10
181.0234502392014
 20
15.0055747803982
 10
181.0550791490584
 20
14.92128847612016
 10
180.9210133677692
 20
14.97425365495163
 10
180.82923227932
 20
14.9654008089045
 10
180.7079729189603
 20
14.97570049965155
 10
180.5914113119772
 20
14.97748911767501
 10
180.478337574588
 20
14.97787017109693
 10
180.3679246308471
 20
14.98415449472183
 10
180.2898124067841
 20
14.97189133255364
 10
180.1913625833645
 20
15.00453887616126
 10
180.2012355173562
 20
14.94769748054209
 10
180.1973923244402
 20
14.91392130557987
 10
180.1966789884268
 20
14.87119604709412
 10
180.1963369642975
 20
14.83401607262153
 10
180.1963834255345
 20
14.79487237370772
 10
180.1963649429927
 20
14.7571684949769
 10
180.1963703431806
 20
14.71944955232409
 10
180.1963697214201
 20
14.68994324745159
 10
180.1963698151544
 20
14.65873577699309
 10
180.1963704287921
 20
14.6141442490809
 10
180.1963671499337
 20
14.55963956508854
 10
180.196375962348
 20
14.51505540201448
 10
180.1963359653417
 20
14.4311780858574
 10
180.1976024270256
 20
14.31737520677677
 10
180.1950274117841
 20
14.16830395933707
 10
180.206500938172
 20
14.06597203813905
 10
180.1823506222264
 20
13.93338903885839
 10
180.3332993946477
 20
13.97895732272027
 10
180.4428436671556
 20
13.96427012162353
 10
180.5733970473921
 20
13.96920435125071
 10
180.6990312209514
 20
13.97257705323351
 10
180.8188730625601
 20
13.97711497498779
 10
180.9391362611426
 20
13.99048536181997
 10
181.0222761663516
 20
13.98068712782598
 10
181.1456080421074
 20
14.04126214623316
 10
181.1244269203958
 20
13.98532460134023
 10
181.1235950270118
 20
13.9593924937235
 10
181.121896370756
 20
13.93197256190942
 10
181.1217974888831
 20
13.89738195206386
 10
181.120365930133
 20
13.86050408220767
 10
181.1532804192191
 20
13.76846841021809
 10
180.9551306988108
 20
13.8413201597483
 10
180.8300548294892
 20
13.81825726508601
 10
180.6673071295157
 20
13.82454021985782
 10
180.5129366450002
 20
13.82260943909922
 10
180.3566670436944
 20
13.82393762599263
 10
180.1970544465283
 20
13.82059872487858
 10
180.0540326342237
 20
13.8326579572824
 10
179.8197144881629
 20
13.76952001976922
 10
179.9173810751197
 20
14.05620527466319
 10
179.9006868780059
 20
14.24988308142661
 10
179.9146296709685
 20
14.47848242880297
 10
179.9142987846632
 20
14.63384593955051
 10
179.9143078119264
 20
14.7396633644413
 10
179.9143055876317
 20
14.80205784124217
 10
179.914306555189
 20
14.89220425248329
 10
179.9143065473262
 20
14.99621167157439
 10
179.9143053861104
 20
15.10022131375298
 10
179.9143090971502
 20
15.19036243688768
 10
179.9143011051052
 20
15.25276803097215
 10
179.914333427502
 20
15.3586883596112
 10
179.913144078832
 20
15.51626716544739
 10
179.9082216489257
 20
15.66528219822065
 10
179.9057788376619
 20
15.73923260398189
 97
        1
330
BC
 75
     1
 76
     2
 52
45.0
 41
0.1
 77
     0
 78
     1
 53
45.0
 43
0.0
 44
0.0
 45
-0.282842712474619
 46
0.0
 79
     0
 98
        1
 10
0.0
 20
0.0
  0
HATCH
  5
DA
330
48
100
AcDbEntity
  8
1
  6
Continuous
 62
     2
100
AcDbHatch
 10
0.0
 20
0.0
 30
0.0
210
0.0
220
0.0
230
1.0
  2
CUSTOM4
 70
     0
 71
     1
 91
        1
 92
        1
 93
        1
 72
     4
 94
        3
 73
     0
 74
     0
 95
       47
 96
       43
 40
0.0
 40
0.0
 40
0.0
 40
0.0
 40
0.2207912809957716
 40
0.4459404186303189
 40
0.490238719045883
 40
0.5327473892722
 40
0.5742260451224752
 40
0.6155432630560623
 40
0.6568164066315267
 40
0.6982511618779619
 40
0.7407663929316063
 40
0.7851366743174113
 40
1.010288833836174
 40
1.231080507002075
 40
1.451765243652256
 40
1.676638205891539
 40
1.720461045359511
 40
1.830018144043377
 40
1.972442372353011
 40
2.11486660067738
 40
2.224423699395009
 40
2.26824653888325
 40
2.493628801207062
 40
2.715602830286489
 40
2.93421133070622
 40
3.149502369855212
 40
3.231387784850742
 40
3.318231873853805
 40
3.405143198197793
 40
3.486970301720199
 40
3.70225817249364
 40
3.920866283533847
 40
4.142839325931666
 40
4.36822190386511
 40
4.412044743359592
 40
4.521601842095607
 40
4.664026070452089
 40
4.806450298808802
 40
4.916007397546497
 40
4.95983023704282
 40
5.184703515846851
 40
5.40538725076718
 40
5.40538725076718
 40
5.40538725076718
 40
5.40538725076718
 10
182.6507427258645
 20
15.73406440953869
 10
182.6568139420002
 20
15.79758482501208
 10
182.6690762107243
 20
15.92587938689624
 10
182.5604706879412
 20
16.20166220174076
 10
182.6761985896604
 20
16.17188133432051
 10
182.7171842509016
 20
16.16765556262827
 10
182.7591205797519
 20
16.16310446389613
 10
182.800419662571
 20
16.16201982929485
 10
182.8417032115556
 20
16.16310338195233
 10
182.8836148270648
 20
16.1676611271135
 10
182.9245983549019
 20
16.17187430209726
 10
183.0404922843489
 20
16.20177611317534
 10
182.9295652727457
 20
15.92339806609887
 10
182.9574856365268
 20
15.74283140824953
 10
182.940426734697
 20
15.50961042346471
 10
182.9414637282103
 20
15.34906622543148
 10
182.9414099399405
 20
15.22284817558723
 10
182.9414277372482
 20
15.12428963336242
 10
182.9414188581081
 20
14.99280702442964
 10
182.9414263928035
 20
14.86132844968651
 10
182.9414129405129
 20
14.76276222694091
 10
182.9414531717493
 20
14.63639735624153
 10
182.9406746403818
 20
14.47482068822871
 10
182.9565958319268
 20
14.24361821892916
 10
182.9333468885408
 20
14.05874351972003
 10
183.0360183444366
 20
13.78935602770061
 10
182.8820238362837
 20
13.82660112685817
 10
182.8004129802832
 20
13.82137994680528
 10
182.7188192292583
 20
13.82660620378351
 10
182.5648513666843
 20
13.7893706988539
 10
182.6674183421917
 20
14.05875129862881
 10
182.6442045316088
 20
14.24361585325416
 10
182.6600444655139
 20
14.47482218565639
 10
182.6593296313428
 20
14.63639712308505
 10
182.6593664569907
 20
14.76276231210521
 10
182.6593549000272
 20
14.86132756635983
 10
182.6593575019214
 20
14.9928112741722
 10
182.6593648531779
 20
15.12427548031201
 10
182.6593442541352
 20
15.22287786275328
 10
182.6594082192029
 20
15.34896149354429
 10
182.658173394759
 20
15.51210091383771
 10
182.6532040396745
 20
15.66054183777548
 10
182.6507427258645
 20
15.73406440953869
 97
        1
330
BD
 75
     1
 76
     2
 52
45.0
 41
0.1
 77
     0
 78
     1
 53
45.0
 43
0.0
 44
0.0
 45
-0.282842712474619
 46
0.0
 79
     0
 98
        1
 10
0.0
 20
0.0
  0
HATCH
  5
DB
330
48
100
AcDbEntity
  8
1
  6
Continuous
 62
     2
100
AcDbHatch
 10
0.0
 20
0.0
 30
0.0
210
0.0
220
0.0
230
1.0
  2
CUSTOM5
 70
     0
 71
     1
 91
        1
 92
        1
 93
        1
 72
     4
 94
        3
 73
     0
 74
     0
 95
      118
 96
      114
 40
0.0
 40
0.0
 40
0.0
 40
0.0
 40
0.1054708162972979
 40
0.2466098270051479
 40
0.3965912874590696
 40
0.5285525069753496
 40
0.6156245055641607
 40
0.6431434105796708
 40
0.7036850037985158
 40
0.7642265984503134
 40
0.7917455052353409
 40
0.9287404319988846
 40
1.106572819087944
 40
1.287544879680951
 40
1.31757830803047
 40
1.399928030857108
 40
1.522968204799885
 40
1.675072986590511
 40
1.844616533180594
 40
2.019973001638661
 40
2.189516548879978
 40
2.341621331585318
 40
2.464661506320458
 40
2.547011229647023
 40
2.577044658167989
 40
2.603797890893059
 40
2.662655002908775
 40
2.721512114949615
 40
2.748265347702767
 40
2.774215307344841
 40
2.845959313407173
 40
2.954338556588367
 40
3.090194227585544
 40
3.244367517100509
 40
3.407699615844262
 40
3.571031714539409
 40
3.725205003920083
 40
3.861060674729583
 40
3.969439917716273
 40
4.041183923628944
 40
4.067133883212938
 40
4.311886746012153
 40
4.547897258335508
 40
4.764747083043951
 40
4.952749679951741
 40
5.0457729741958
 40
5.137862019644931
 40
5.330543169792924
 40
5.553448265243897
 40
5.795083855888052
 40
6.043293412177142
 40
6.285761695541094
 40
6.313902908752606
 40
6.384255941793196
 40
6.475714884766784
 40
6.567173827758875
 40
6.637526860839682
 40
6.665668074074045
 40
6.692018920328021
 40
6.749990782071098
 40
6.807962643790473
 40
6.83431349001795
 40
6.856393084245228
 40
6.913335195649852
 40
6.991194817302544
 40
7.076026942283834
 40
7.153886563725353
 40
7.210828674844906
 40
7.23290826893127
 40
7.258199334923789
 40
7.324875781592434
 40
7.419142481925084
 40
7.527204308842018
 40
7.635266135230589
 40
7.729532834168568
 40
7.796209279292883
 40
7.821500344594829
 40
7.8446529888509
 40
7.899863140541651
 40
7.965759128053789
 40
8.020969279771046
 40
8.044121924046513
 40
8.069356610160593
 40
8.109134395441298
 40
8.13223810019101
 40
8.193147867786365
 40
8.27926167887653
 40
8.377977512673732
 40
8.476693347146508
 40
8.562807160411548
 40
8.623716930826326
 40
8.64682063685328
 40
8.671988793774092
 40
8.734909185827975
 40
8.81670569518869
 40
8.89850220481526
 40
8.961422597377721
 40
8.986590754550834
 40
9.012941600732992
 40
9.070913462380084
 40
9.128885324081585
 40
9.155236170324908
 40
9.180404327928951
 40
9.243324721948024
 40
9.325121234211789
 40
9.406917746637443
 40
9.469838141977899
 40
9.495006288270673
 40
9.51781118437882
 40
9.572192090486837
 40
9.637098333281083
 40
9.6914792395153
 40
9.714284125643344
 40
9.714284125643344
 40
9.714284125643344
 40
9.714284125643344
 10
185.2874469028654
 20
15.26889163187718
 10
185.3090990569039
 20
15.2411186924281
 10
185.3597257109474
 20
15.17618054561234
 10
185.4349383202592
 20
15.06891060312898
 10
185.5248482274347
 20
14.95377438266624
 10
185.5709169676674
 20
14.85357045748319
 10
185.6655825294654
 20
14.78434006814942
 10
185.6204439320413
 20
14.73771639678272
 10
185.5947047785789
 20
14.6966030886604
 10
185.5645196708014
 20
14.66065971727938
 10
185.5193684730562
 20
14.58579782596093
 10
185.4710504458563
 20
14.80782524253605
 10
185.3968539713073
 20
14.84510677337714
 10
185.2836047324608
 20
15.1161020213061
 10
185.288513357817
 20
15.00095328446237
 10
185.2868486556306
 20
14.92836675781636
 10
185.2876830076715
 20
14.80625588483995
 10
185.2873609540265
 20
14.65913800810469
 10
185.2875076912456
 20
14.49307063956564
 10
185.2872950092724
 20
14.32187554608609
 10
185.2879497252034
 20
14.15552828635505
 10
185.285919246114
 20
14.009351730557
 10
185.2913460399932
 20
13.88471047474618
 10
185.2804930868709
 20
13.81718656540632
 10
185.2956739155556
 20
13.75549061417028
 10
185.2457895108134
 20
13.76727503897007
 10
185.2017150342522
 20
13.75943822779975
 10
185.1582371630201
 20
13.76760441372709
 10
185.1092346786489
 20
13.75538056738474
 10
185.1218731234826
 20
13.8096066724932
 10
185.113018296845
 20
13.86936918907563
 10
185.1175058770314
 20
13.97922029044376
 10
185.1157960135992
 20
14.11029975405684
 10
185.1163550915987
 20
14.26198011444333
 10
185.1161928768695
 20
14.42211074929958
 10
185.1162269924676
 20
14.58236865674571
 10
185.1162514960127
 20
14.73370247520444
 10
185.1161453543226
 20
14.86582156338605
 10
185.1164299141932
 20
14.97294802533198
 10
185.1158675547568
 20
15.03808619579478
 10
185.1180765083689
 20
15.1661895785868
 10
185.0319435998603
 20
14.79097610391579
 10
184.95551408185
 20
14.63918193123396
 10
184.8660040767833
 20
14.47766206446314
 10
184.7640413217326
 20
14.2047184882018
 10
184.7187976491039
 20
14.36717346596515
 10
184.6102355941672
 20
14.45605432058131
 10
184.7995791751753
 20
14.60549794961414
 10
184.8565340545701
 20
14.79749136974929
 10
184.9717520993352
 20
15.02899622906761
 10
184.9940151630134
 20
15.21797259759065
 10
185.177190515214
 20
15.49454089325936
 10
185.0538033597553
 20
15.48698978832099
 10
184.9925684166834
 20
15.48856772366123
 10
184.9081999617065
 20
15.48882592573678
 10
184.8204235085965
 20
15.4854484575121
 10
184.7656768696122
 20
15.49394814982026
 10
184.7104703026025
 20
15.48048561049793
 10
184.7222823035536
 20
15.52931442126769
 10
184.7142496151794
 20
15.57269004896715
 10
184.7228186104678
 20
15.61509438309579
 10
184.7102943409157
 20
15.66267796552125
 10
184.7555101538735
 20
15.65267212995116
 10
184.8014815562724
 20
15.65894105174068
 10
184.877722204771
 20
15.65593561405879
 10
184.9561296131994
 20
15.65770448278548
 10
185.0323992648933
 20
15.65464793981667
 10
185.0783009459475
 20
15.66103971376184
 10
185.1231733965401
 20
15.65093822978903
 10
185.1105552275634
 20
15.70157201581904
 10
185.1191936582707
 20
15.75501261882076
 10
185.1152361595445
 20
15.84863255131686
 10
185.1162325068335
 20
15.95112606688929
 10
185.1171927413074
 20
16.05353270248167
 10
185.1133211458005
 20
16.14735929609324
 10
185.1217789814366
 20
16.20036542840356
 10
185.1093075932836
 20
16.25211435651191
 10
185.1542106389851
 20
16.2385074722676
 10
185.1955083836772
 20
16.24100480320587
 10
185.2595344281051
 20
16.23648060574489
 10
185.2986111148786
 20
16.22781003043307
 10
185.3476543498742
 20
16.23515102070688
 10
185.3225080030591
 20
16.19602896051755
 10
185.2815901333724
 20
16.20563842455807
 10
185.2910109616605
 20
16.15540148169779
 10
185.2855647318747
 20
16.10385945639492
 10
185.2881699601804
 20
16.01959707584523
 10
185.2870102202155
 20
15.92559135583412
 10
185.2883591064232
 20
15.8319686539553
 10
185.284997010151
 20
15.74679517552229
 10
185.292095991777
 20
15.69716856072051
 10
185.2812569154546
 20
15.64993694969996
 10
185.3304010225246
 20
15.66201674936858
 10
185.3794877630148
 20
15.65447393363019
 10
185.4573714280642
 20
15.65686070361439
 10
185.5350365172897
 20
15.65899381905422
 10
185.5845393931355
 20
15.65193391922461
 10
185.634459475064
 20
15.66360151936221
 10
185.6223198516882
 20
15.61540235371399
 10
185.6305838229144
 20
15.57249219801241
 10
185.6223198650785
 20
15.5295820185139
 10
185.6344594549856
 20
15.4813828875487
 10
185.5845395158747
 20
15.49305034471515
 10
185.5350350651204
 20
15.48599202435051
 10
185.4573784382974
 20
15.48811665228608
 10
185.3794643865761
 20
15.49053389365765
 10
185.3304500352717
 20
15.48291848194491
 10
185.2813246108944
 20
15.49507952557597
 10
185.2915559988573
 20
15.45073013424162
 10
185.2856677678054
 20
15.40925436202914
 10
185.2878788305569
 20
15.34915394315304
 10
185.2874109346147
 20
15.30225782762888
 10
185.2874386992914
 20
15.27650146418195
 10
185.2874469028654
 20
15.26889163187718
 97
        1
330
BE
 75
     1
 76
     2
 52
45.0
 41
0.1
 77
     0
 78
     1
 53
45.0
 43
0.0
 44
0.0
 45
-0.282842712474619
 46
0.0
 79
     0
 98
        1
 10
0.0
 20
0.0
  0
HATCH
  5
DC
330
48
100
AcDbEntity
  8
1
  6
Continuous
 62
     2
100
AcDbHatch
 10
0.0
 20
0.0
 30
0.0
210
0.0
220
0.0
230
1.0
  2
CUSTOM6
 70
     0
 71
     1
 91
        1
 92
        1
 93
        1
 72
     4
 94
        3
 73
     0
 74
     0
 95
       91
 96
       87
 40
0.0
 40
0.0
 40
0.0
 40
0.0
 40
0.0345987051695718
 40
0.1258134969461085
 40
0.2547723404888703
 40
0.4026032099153556
 40
0.550434079341642
 40
0.6793929228835227
 40
0.7706077146570467
 40
0.8052064287780072
 40
1.124852390615187
 40
1.427402236308775
 40
1.706356627453406
 40
1.95554141787507
 40
2.169485938566205
 40
2.344350786664665
 40
2.48056841156181
 40
2.590440557428831
 40
2.649189927150934
 40
2.749320643306137
 40
2.912632739879836
 40
3.147745656000039
 40
3.244827496384875
 40
3.338490056946481
 40
3.583815413206887
 40
3.761423943238232
 40
3.886956104362375
 40
3.985855451886557
 40
4.091766255337386
 40
4.250186473811607
 40
4.422734315084275
 40
4.628285684838372
 40
4.872093227758206
 40
5.152549652145315
 40
5.46496713583729
 40
5.803201477852208
 40
6.160362988813675
 40
6.193449448275758
 40
6.284170385501413
 40
6.419718138764254
 40
6.587285046385532
 40
6.774063446723418
 40
6.967245678113401
 40
7.154024078817415
 40
7.321590987025773
 40
7.457138740890131
 40
7.547859678555867
 40
7.580946138182427
 40
7.608533084714481
 40
7.669224367077459
 40
7.729915649429681
 40
7.757502595949734
 40
7.790278062553216
 40
7.880146277430685
 40
8.01441996318012
 40
8.180411842397621
 40
8.36543463767909
 40
8.556801071622363
 40
8.741823866830448
 40
8.907815745916015
 40
9.042089431507112
 40
9.131957646249237
 40
9.164733112796814
 40
9.415425063139722
 40
9.667986180958273
 40
9.694169807462412
 40
9.756607686047344
 40
9.83113031532218
 40
9.893568193899647
 40
9.919751820398464
 40
9.950967964690268
 40
9.996421631210376
 40
10.22087981037424
 40
10.44341866197516
 40
10.47847970788828
 40
10.57091337438729
 40
10.70159545461203
 40
10.85140174170334
 40
11.00120802880451
 40
11.13189010907356
 40
11.22432377582984
 40
11.2593848093893
 40
11.28697175596119
 40
11.34766303835893
 40
11.40835432042044
 40
11.43594125892079
 40
11.43594125892079
 40
11.43594125892079
 40
11.43594125892079
 10
190.0818114333289
 20
15.55242795125079
 10
190.070278584494
 20
15.55242790287917
 10
190.0283409444999
 20
15.55242773704167
 10
189.9434129719025
 20
15.5524312580091
 10
189.8207688553129
 20
15.55240926435881
 10
189.6791206916993
 20
15.55250801177056
 10
189.537975369849
 20
15.55214686232423
 10
189.4141351317905
 20
15.5532188360909
 10
189.3317217825382
 20
15.55092249091271
 10
189.1727791229693
 20
15.5604856937342
 10
189.3503402353376
 20
15.19785394311373
 10
189.3379739205454
 20
14.95243127723118
 10
189.4064519473865
 20
14.6686250132484
 10
189.4693024320971
 20
14.43250999939041
 10
189.5452253431728
 20
14.23326740396135
 10
189.6303189577018
 20
14.07745347451382
 10
189.7244607592936
 20
13.97657857781402
 10
189.8282648207729
 20
13.92465852638973
 10
189.9125872030774
 20
13.97606484379628
 10
189.9351322179453
 20
14.09144544037524
 10
189.9745730975372
 20
14.21885149702386
 10
189.9202919734944
 20
14.53622328086769
 10
190.0451218072473
 20
14.38982180140904
 10
190.2019291513603
 20
14.35795300331169
 10
190.0947720007056
 20
14.12421357767627
 10
190.0808711209868
 20
13.95972776583658
 10
190.0234709467226
 20
13.83130869122482
 10
189.9335020145009
 20
13.7601880235283
 10
189.8095274657878
 20
13.74432324142255
 10
189.663427319686
 20
13.77993797554174
 10
189.5243894320284
 20
13.90000570500279
 10
189.4102003962144
 20
14.07435682550322
 10
189.3146141301486
 20
14.29946603111243
 10
189.2318652572627
 20
14.56388246006445
 10
189.1807179256412
 20
14.88187933098546
 10
189.077018920734
 20
15.15543728488915
 10
189.204284120852
 20
15.56005818612869
 10
189.0357890623019
 20
15.5511236784968
 10
188.9511995787077
 20
15.55315961418365
 10
188.8189876387628
 20
15.55213937388407
 10
188.6560505094104
 20
15.55253230318431
 10
188.4733759170534
 20
15.5523569631337
 10
188.2847057373383
 20
15.5526010530747
 10
188.101446902019
 20
15.55185657906238
 10
187.9404746832718
 20
15.55416360522428
 10
187.8029808335277
 20
15.54799804883664
 10
187.7289590372312
 20
15.56032838458213
 10
187.6613215186857
 20
15.54329323723558
 10
187.673237371927
 20
15.5952443844753
 10
187.6655677285694
 20
15.64071424966531
 10
187.6732592225117
 20
15.68614453703708
 10
187.6613141797762
 20
15.73802395984573
 10
187.7283588305868
 20
15.72119143490266
 10
187.8017375665677
 20
15.73335409092673
 10
187.9379128305272
 20
15.7272723107496
 10
188.0973811801513
 20
15.7295483431506
 10
188.2789173085837
 20
15.72881233998964
 10
188.4658034862179
 20
15.72905954196136
 10
188.6468012316836
 20
15.72886400799256
 10
188.8080802578879
 20
15.72932234714841
 10
188.9393882124887
 20
15.72812673751208
 10
189.0225051322596
 20
15.73051347319745
 10
189.1556236547813
 20
15.72230605725466
 10
189.064589350266
 20
15.97752868952658
 10
188.978963307442
 20
16.24164358328262
 10
189.0990589003456
 20
16.22904442969173
 10
189.1514264948544
 20
16.22694235763082
 10
189.2214497569717
 20
16.2253539988966
 10
189.2671922337818
 20
16.21602567538115
 10
189.3220812646933
 20
16.22545966915425
 10
189.2963574785682
 20
16.17733028655176
 10
189.1825397571454
 20
16.18266829744172
 10
189.3159346621136
 20
15.9544917457678
 10
189.1943658735471
 20
15.72156856595924
 10
189.3223188769413
 20
15.73087258884442
 10
189.4049048406461
 20
15.72801001754682
 10
189.5307214850824
 20
15.72923437412305
 10
189.6741469838057
 20
15.72932431888966
 10
189.8157420951728
 20
15.72746163183855
 10
189.9459127249967
 20
15.73333075937165
 10
190.0193452286191
 20
15.72070340823206
 10
190.0891112922096
 20
15.73877563110414
 10
190.0775772605396
 20
15.68612850546328
 10
190.0833184346682
 20
15.64221317686549
 10
190.081661577091
 20
15.5908998267655
 10
190.081775756167
 20
15.56158792021636
 10
190.0818114333289
 20
15.55242795125079
 97
        1
330
BF
 75
     1
 76
     2
 52
45.0
 41
0.1
 77
     0
 78
     1
 53
45.0
 43
0.0
 44
0.0
 45
-0.282842712474619
 46
0.0
 79
     0
 98
        1
 10
0.0
 20
0.0
  0
HATCH
  5
DD
330
48
100
AcDbEntity
  8
1
  6
Continuous
 62
     2
100
AcDbHatch
 10
0.0
 20
0.0
 30
0.0
210
0.0
220
0.0
230
1.0
  2
CUSTOM7
 70
     0
 71
     1
 91
        1
 92
        1
 93
        1
 72
     4
 94
        3
 73
     0
 74
     0
 95
       75
 96
       71
 40
0.0
 40
0.0
 40
0.0
 40
0.0
 40
0.0342546099129709
 40
0.12456224144324
 40
0.2522385480897589
 40
0.3985991922940786
 40
0.5449598364980963
 40
0.6726361431439012
 40
0.7629437746737138
 40
0.7971983935298186
 40
1.101723623449742
 40
1.408591244036676
 40
1.433332471690377
 40
1.487763172450162
 40
1.542193873081984
 40
1.566935100592527
 40
1.923523931821777
 40
2.27175570495355
 40
2.59057975510077
 40
2.858943305581064
 40
2.889120339309028
 40
2.918305855190982
 40
2.941366645531099
 40
2.996357760972973
 40
3.0619923181405
 40
3.116983433626671
 40
3.140044223997353
 40
3.411273122936282
 40
3.732441619740858
 40
3.761068217532559
 40
3.837787499630128
 40
3.948858699125776
 40
4.080541049104168
 40
4.219093782625562
 40
4.350776132722125
 40
4.461847332405471
 40
4.538566614678212
 40
4.56719321254446
 40
4.594907573998718
 40
4.666381453557257
 40
4.764111044010839
 40
4.870592538125642
 40
4.968322128642036
 40
5.03979600828675
 40
5.067510369784181
 40
5.094263603185395
 40
5.153120716668031
 40
5.211977830150477
 40
5.238731063551482
 40
5.272290535138749
 40
5.363380529444553
 40
5.497618415781259
 40
5.660621563453473
 40
5.838007341749174
 40
6.015393119910554
 40
6.178396267038151
 40
6.312634151842131
 40
6.403724143059121
 40
6.437283612672216
 40
6.464036846260834
 40
6.522893960004447
 40
6.581751071483714
 40
6.60850430159066
 40
6.637253941280807
 40
6.711397748902687
 40
6.8127780572833
 40
6.923237199249076
 40
7.02461750762372
 40
7.09876131520743
 40
7.12751094600738
 40
7.12751094600738
 40
7.12751094600738
 40
7.12751094600738
 10
188.4418622390564
 20
14.9584912847327
 10
188.4418622819707
 20
14.94707313408726
 10
188.4418624481128
 20
14.90555257842634
 10
188.4418593081787
 20
14.82146922003778
 10
188.44187882798
 20
14.70004497322333
 10
188.4417912187737
 20
14.55980494047453
 10
188.4421116235231
 20
14.42006556794581
 10
188.441160590974
 20
14.29745038894933
 10
188.4431978595968
 20
14.21587074438047
 10
188.4349433178744
 20
14.06271267077698
 10
188.74307979409
 20
14.22560236054726
 10
189.0350645173738
 20
14.39482938688001
 10
189.0408354448707
 20
14.2597323578191
 10
189.0455471719891
 20
14.21617221160445
 10
189.0482535411918
 20
14.17211249350546
 10
189.0672545672958
 20
14.02272590363137
 10
188.6583942247303
 20
14.08681172241267
 10
188.3793710348832
 20
13.9729634141102
 10
188.1018081587167
 20
13.87364095811147
 10
187.8099837184401
 20
13.91630687596349
 10
187.7869144678659
 20
13.81321679744544
 10
187.7537474383334
 20
13.78691091244472
 10
187.7480653962739
 20
13.83455309036306
 10
187.7284214559045
 20
13.8718033611507
 10
187.7095089485624
 20
13.93007387847562
 10
187.6942849867708
 20
13.97385201007803
 10
187.6477246372935
 20
14.08759421046304
 10
187.9890897312451
 20
14.05576301120054
 10
188.2679649367386
 20
14.0216143510648
 10
188.2617753034907
 20
14.1691397647965
 10
188.2630935452773
 20
14.24013150908831
 10
188.2624831689949
 20
14.34719767958662
 10
188.2625871570725
 20
14.47398529785999
 10
188.2629987964055
 20
14.60849243496052
 10
188.2613907841968
 20
14.73395549951188
 10
188.2659902567925
 20
14.84505246719122
 10
188.256418650221
 20
14.90761886800694
 10
188.2704001783691
 20
14.96595388295007
 10
188.2147384386705
 20
14.95289710582244
 10
188.1575655197821
 20
14.96136307749505
 10
188.0616048925648
 20
14.95729976080642
 10
187.9633767522821
 20
14.9597088985248
 10
187.8672582457561
 20
14.95551600613394
 10
187.8104648525812
 20
14.96429346441168
 10
187.7550356873385
 20
14.95094936850127
 10
187.7670679427918
 20
15.00036910959263
 10
187.7592003173937
 20
15.04393988030401
 10
187.766629556383
 20
15.08830469118531
 10
187.7551930564144
 20
15.13902297763998
 10
187.8232102370134
 20
15.1216246075775
 10
187.8968496879747
 20
15.13417450237194
 10
188.0325064058211
 20
15.12799677011103
 10
188.1884909024526
 20
15.1302920309309
 10
188.3615926358144
 20
15.12940968262536
 10
188.5346942964182
 20
15.13029207142414
 10
188.6906789811218
 20
15.12799662955556
 10
188.8263351889798
 20
15.13417486262437
 10
188.8999756705653
 20
15.12162394218341
 10
188.9679914174724
 20
15.13902373012148
 10
188.9565590885923
 20
15.08830130414561
 10
188.9639539458297
 20
15.04397060811114
 10
188.9562039912273
 20
15.00028307550202
 10
188.9681203741877
 20
14.95063590098483
 10
188.9108170223618
 20
14.96461411338431
 10
188.8520145789773
 20
14.95539755673259
 10
188.75252936332
 20
14.95952268164936
 10
188.649428009835
 20
14.95822760025893
 10
188.5537846354574
 20
14.95854077077646
 10
188.4857467971617
 20
14.95848776697151
 10
188.4514462213443
 20
14.95849051871662
 10
188.4418622390564
 20
14.9584912847327
 97
        1
330
C0
 75
     1
 76
     2
 52
45.0
 41
0.1
 77
     0
 78
     1
 53
45.0
 43
0.0
 44
0.0
 45
-0.282842712474619
 46
0.0
 79
     0
 98
        1
 10
0.0
 20
0.0
  0
HATCH
  5
DE
330
48
100
AcDbEntity
  8
1
  6
Continuous
 62
     2
100
AcDbHatch
 10
0.0
 20
0.0
 30
0.0
210
0.0
220
0.0
230
1.0
  2
CUSTOM8
 70
     0
 71
     1
 91
        1
 92
        1
 93
        1
 72
     4
 94
        3
 73
     0
 74
     0
 95
       15
 96
       11
 40
0.0
 40
0.0
 40
0.0
 40
0.0
 40
0.2785535985096675
 40
0.5215624748198513
 40
0.6076917376040135
 40
0.6938210001741075
 40
0.9405019146455593
 40
1.221691403489087
 40
1.300471877080998
 40
1.37925234168478
 40
1.37925234168478
 40
1.37925234168478
 40
1.37925234168478
 10
189.5681493631
 20
16.22930267330381
 10
189.6296017794179
 20
16.17691646592716
 10
189.7446649974114
 20
16.07882876798224
 10
190.0397348497245
 20
15.9288978589723
 10
189.9025147631857
 20
15.84343227515016
 10
189.804122784378
 20
15.71085785201552
 10
189.7130033590649
 20
16.01616985781415
 10
189.3636839480657
 20
16.07967869465368
 10
189.5119258376571
 20
16.17896509880877
 10
189.5494081874238
 20
16.21252348402382
 10
189.5681493631
 20
16.22930267330381
 97
        1
330
C1
 75
     1
 76
     2
 52
45.0
 41
0.1
 77
     0
 78
     1
 53
45.0
 43
0.0
 44
0.0
 45
-0.282842712474619
 46
0.0
 79
     0
 98
        1
 10
0.0
 20
0.0
  0
HATCH
  5
DF
330
48
100
AcDbEntity
  8
1
  6
Continuous
 62
     2
100
AcDbHatch
 10
0.0
 20
0.0
 30
0.0
210
0.0
220
0.0
230
1.0
  2
CUSTOM9
 70
     0
 71
     1
 91
        1
 92
        1
 93
        1
 72
     4
 94
        3
 73
     0
 74
     0
 95
       35
 96
       31
 40
0.0
 40
0.0
 40
0.0
 40
0.0
 40
0.0335231036620455
 40
0.0713218571712811
 40
0.4278866681487855
 40
0.8116865841965069
 40
1.198190238000168
 40
1.561379546812827
 40
1.659983174622194
 40
1.759315573807297
 40
2.13271961723115
 40
2.52523336358889
 40
2.910815397779796
 40
3.265244364303441
 40
3.592606723582135
 40
3.964386154604094
 40
4.359942131737942
 40
4.758154118639497
 40
4.843846538700096
 40
4.936650065543382
 40
5.256616602537491
 40
5.58170740441623
 40
5.899719158308326
 40
6.198363494280907
 40
6.466301046615948
 40
6.493895311537269
 40
6.559697020197005
 40
6.63823454344258
 40
6.704036252154303
 40
6.731630508423081
 40
6.731630508423081
 40
6.731630508423081
 40
6.731630508423081
 10
191.9736010568669
 20
16.23463843719139
 10
191.967600609779
 20
16.22480690542325
 10
191.9548344099157
 20
16.2038898857979
 10
191.7949362006554
 20
16.17127126532726
 10
192.2322025842337
 20
15.88206680336689
 10
192.4345394828263
 20
15.68041138358447
 10
192.6819564267973
 20
15.43749387603276
 10
193.1831513624608
 20
15.3604766275778
 10
193.0125562198971
 20
15.21876939174658
 10
192.9383299463202
 20
15.01710366209116
 10
192.6131432248189
 20
15.36956287174731
 10
192.3277741670665
 20
15.53175212559566
 10
192.0337604077658
 20
15.73687130053048
 10
191.8084452691134
 20
16.21827488595461
 10
191.5993085055522
 20
15.75343046609224
 10
191.3207873674835
 20
15.54350952252913
 10
191.037138317721
 20
15.37424456359987
 10
190.707863952783
 20
15.00142360907932
 10
190.6277012318225
 20
15.19708014459005
 10
190.4759724909745
 20
15.32491104190598
 10
190.9083395826796
 20
15.40454031765938
 10
191.0962565329767
 20
15.60026634915477
 10
191.3468477420503
 20
15.81632996916758
 10
191.5714350470162
 20
15.98190992300064
 10
191.6259775409713
 20
16.26133964636828
 10
191.7494661029012
 20
16.24737950408081
 10
191.8060273344521
 20
16.2452126886765
 10
191.8761870984945
 20
16.24046859881364
 10
191.9333414022106
 20
16.23709429350546
 10
191.9644190320839
 20
16.23519854711124
 10
191.9736010568669
 20
16.23463843719139
 97
        1
330
C2
 75
     1
 76
     2
 52
45.0
 41
0.1
 77
     0
 78
     1
 53
45.0
 43
0.0
 44
0.0
 45
-0.282842712474619
 46
0.0
 79
     0
 98
        1
 10
0.0
 20
0.0
  0
HATCH
  5
E0
330
48
100
AcDbEntity
  8
1
  6
Continuous
 62
     2
100
AcDbHatch
 10
0.0
 20
0.0
 30
0.0
210
0.0
220
0.0
230
1.0
  2
CUSTOM10
 70
     0
 71
     1
 91
        1
 92
        1
 93
        1
 72
     4
 94
        3
 73
     0
 74
     0
 95
       91
 96
       87
 40
0.0
 40
0.0
 40
0.0
 40
0.0
 40
0.0267532254356684
 40
0.0856103386464066
 40
0.1444674521996532
 40
0.1712206856618408
 40
0.203941600564243
 40
0.2955601971652377
 40
0.4362601844617096
 40
0.6162252844507428
 40
0.8256392189704875
 40
1.054685709844457
 40
1.293548478893577
 40
1.532411247938321
 40
1.761457738799586
 40
1.970871673298583
 40
2.150836773256807
 40
2.291536760495668
 40
2.383155356836746
 40
2.415876284101395
 40
2.442629517488036
 40
2.501486630949164
 40
2.560343744424308
 40
2.587096977826579
 40
2.617068194441006
 40
2.699247336756176
 40
2.82203264346646
 40
2.973822353258018
 40
3.14301470482346
 40
3.318007936880039
 40
3.487200288186872
 40
3.63898999754841
 40
3.761775303794908
 40
3.843954445753243
 40
3.873925662229939
 40
3.89081277350065
 40
3.907699884771832
 40
3.93796076785741
 40
3.98098361814242
 40
4.199085915228587
 40
4.439444339237355
 40
4.677588241260987
 40
5.050698317837902
 40
5.44821245476326
 40
5.855291218044786
 40
6.138575438885463
 40
6.417434507584294
 40
6.444551104393947
 40
6.504207617363209
 40
6.563864130314521
 40
6.590980727104084
 40
6.848609460381474
 40
7.109611990668421
 40
7.352910904446138
 40
7.557830220705537
 40
7.587518925913427
 40
7.652834077375835
 40
7.718149228845785
 40
7.747837934062059
 40
7.854880190301036
 40
7.976511257403525
 40
8.369487896592323
 40
8.757514959223617
 40
9.126072419331107
 40
9.4606393803922
 40
9.74669559303597
 40
9.77756994311871
 40
9.807050320931802
 40
9.830377336128922
 40
9.886003295435998
 40
9.952395569429884
 40
10.00802152870623
 40
10.03134854388214
 40
10.21356951009585
 40
10.4220347929287
 40
10.66154556731063
 40
10.91693789564306
 40
11.15832906556571
 40
11.18982674596629
 40
11.27286608520413
 40
11.39026653033361
 40
11.52484752840897
 40
11.65942852648456
 40
11.77682897161498
 40
11.85986831085697
 40
11.89136598230442
 40
11.89136598230442
 40
11.89136598230442
 40
11.89136598230442
 10
190.7027885008196
 20
14.70699600701778
 10
190.7028237765288
 20
14.71587847311991
 10
190.7029366710796
 20
14.74430237047352
 10
190.7012984568489
 20
14.79409639169809
 10
190.7069750292911
 20
14.8365756447816
 10
190.6956928731706
 20
14.88730154856852
 10
190.7632296979032
 20
14.87012900740114
 10
190.8388029210701
 20
14.88290227166001
 10
190.9828357056001
 20
14.87629729457387
 10
191.1569419185427
 20
14.87888462206471
 10
191.3639599611003
 20
14.87800591955557
 10
191.5894688172378
 20
14.87828207920032
 10
191.8251162293406
 20
14.87818339658668
 10
192.0607640531349
 20
14.87828184412772
 10
192.2862717580626
 20
14.87800678190793
 10
192.4932934632805
 20
14.87888186270739
 10
192.667388891529
 20
14.87630522678452
 10
192.8114492071986
 20
14.88288290449218
 10
192.8869691915293
 20
14.87016243405608
 10
192.9545776037031
 20
14.88726400191693
 10
192.9430840140676
 20
14.83674785802945
 10
192.9505104581735
 20
14.79253252226507
 10
192.9428838927986
 20
14.74867966503615
 10
192.9546489459426
 20
14.69878374479334
 10
192.8930788491983
 20
14.71393227712518
 10
192.8256791738672
 20
14.70310665350679
 10
192.7013004056222
 20
14.70852031626242
 10
192.5554428236572
 20
14.70649205390791
 10
192.3893576440086
 20
14.70715777578393
 10
192.2188412621725
 20
14.70689643521248
 10
192.0519790855389
 20
14.707215533911
 10
191.9087346827105
 20
14.70635302590768
 10
191.7773313869835
 20
14.70863300482995
 10
191.7239859134655
 20
14.70407704374207
 10
191.6485188456913
 20
14.70999914992884
 10
191.6769075779232
 20
14.70094169343358
 10
191.7033652409542
 20
14.69725912268934
 10
191.6633522907701
 20
14.66654271968275
 10
191.571366369187
 20
14.6766759117463
 10
191.5439396207069
 20
14.4303250224779
 10
191.4478793967235
 20
14.27499558764377
 10
191.1917277964474
 20
13.94525417931566
 10
191.7627537732763
 20
14.08430022210458
 10
192.0173656320517
 20
14.08291779973365
 10
192.6279647048618
 20
13.99790569242096
 10
192.3340698578082
 20
14.29685417558202
 10
192.013330428652
 20
14.44330856901787
 10
192.1313543360433
 20
14.50025540818293
 10
192.1724716466263
 20
14.52420099873353
 10
192.2156812394411
 20
14.54599758811231
 10
192.317457409445
 20
14.60928721253904
 10
192.4328867625248
 20
14.35147151408787
 10
192.6329591642277
 20
14.21616041113687
 10
192.7269077387229
 20
14.03792795138888
 10
192.9558829746393
 20
13.87997821027051
 10
192.8596031846709
 20
13.82915972576299
 10
192.816795976378
 20
13.79881292523055
 10
192.771824352878
 20
13.77466130281464
 10
192.7121720925215
 20
13.72552146747572
 10
192.6789731061325
 20
13.8599747567361
 10
192.5582013350796
 20
14.0159426528658
 10
192.1970976005979
 20
13.88569928059559
 10
191.8385061955541
 20
13.90224694409488
 10
191.457092045008
 20
13.89331229351869
 10
191.1703455282893
 20
13.82882671672413
 10
190.8592055599712
 20
13.9423066819282
 10
190.8268737818788
 20
13.83122259927769
 10
190.7896178253317
 20
13.81196313850016
 10
190.7865737632754
 20
13.85874784087301
 10
190.7679892860606
 20
13.89806853919136
 10
190.751243661678
 20
13.95765983478235
 10
190.7383730915753
 20
14.00201969871283
 10
190.7042327806432
 20
14.09106331120203
 10
190.9482714457753
 20
14.02181042943772
 10
191.1441394486673
 20
14.00030369057738
 10
191.2395426381277
 20
14.28226484478464
 10
191.2945135769597
 20
14.44363045421123
 10
191.5159619357157
 20
14.71391177589745
 10
191.3849239381217
 20
14.7054844685374
 10
191.3110026555854
 20
14.70779008496976
 10
191.1977459876244
 20
14.70671378321664
 10
191.0694251807485
 20
14.70707639076516
 10
190.9404252030415
 20
14.70697724466091
 10
190.8287840946292
 20
14.70699932712579
 10
190.7514663970025
 20
14.70699579189676
 10
190.713287653201
 20
14.70699595845087
 10
190.7027885008196
 20
14.70699600701778
 97
        1
330
C3
 75
     1
 76
     2
 52
45.0
 41
0.1
 77
     0
 78
     1
 53
45.0
 43
0.0
 44
0.0
 45
-0.282842712474619
 46
0.0
 79
     0
 98
        1
 10
0.0
 20
0.0
  0
HATCH
  5
E1
330
48
100
AcDbEntity
  8
1
  6
Continuous
 62
     2
100
AcDbHatch
 10
0.0
 20
0.0
 30
0.0
210
0.0
220
0.0
230
1.0
  2
CUSTOM11
 70
     0
 71
     1
 91
        1
 92
        1
 93
        1
 72
     4
 94
        3
 73
     0
 74
     0
 95
      131
 96
      127
 40
0.0
 40
0.0
 40
0.0
 40
0.0
 40
0.0195577029826212
 40
0.0426490537460395
 40
0.2863607575855931
 40
0.5344948436188836
 40
0.7842238845573071
 40
0.873731578946741
 40
0.9803832810313087
 40
1.092842274517074
 40
1.199761146656804
 40
1.289788768186503
 40
1.351573580786146
 40
1.370727117561382
 40
1.416400936017798
 40
1.470914848355931
 40
1.516588666791724
 40
1.535742203552812
 40
1.634216592293195
 40
1.76028334117502
 40
1.897966686682147
 40
2.031216387368945
 40
2.049689751137941
 40
2.101115601646879
 40
2.17950257774
 40
2.27885931831412
 40
2.393194462258781
 40
2.516516648383901
 40
2.642834515406034
 40
2.766156701983543
 40
2.880491846754661
 40
2.979848588358707
 40
3.058235565443888
 40
3.109661416669044
 40
3.128134780704221
 40
3.146783742386538
 40
3.191254343315399
 40
3.244332157316058
 40
3.288802758225933
 40
3.307451719895204
 40
3.327717853844816
 40
3.38374775358018
 40
3.468388665924574
 40
3.574487837698885
 40
3.694892515728994
 40
3.822449946852138
 40
3.950007377920532
 40
4.070412055800626
 40
4.176511227368187
 40
4.261152139501635
 40
4.317182039076831
 40
4.337448172964751
 40
4.62001100269634
 40
4.885096638397646
 40
4.945373043518359
 40
5.014107710488666
 40
5.070481727652115
 40
5.319246955636645
 40
5.584812164506181
 40
5.859000912057043
 40
6.133746937542206
 40
6.401732212969013
 40
6.420736683995632
 40
6.472845717451198
 40
6.550702743894182
 40
6.646951193874391
 40
6.754234497930686
 40
6.865196086587464
 40
6.972479390357923
 40
7.068727839772085
 40
7.146584865451094
 40
7.198693898189323
 40
7.217698368905464
 40
7.23495040163094
 40
7.276089864269987
 40
7.325191803516097
 40
7.366331266090483
 40
7.383583298769834
 40
7.40277916349224
 40
7.453386443254614
 40
7.524934666445644
 40
7.606953361405956
 40
7.688972056429136
 40
7.76052027978433
 40
7.8111275597346
 40
7.830323424546221
 40
7.847844055299846
 40
7.894799345666885
 40
7.962779392744566
 40
8.043374293560607
 40
8.128174145149504
 40
8.208769044817299
 40
8.276749090376995
 40
8.32370437966955
 40
8.34122501005628
 40
8.358497614800429
 40
8.401679126686606
 40
8.457815092185664
 40
8.513951057728068
 40
8.557132569707967
 40
8.57440517450501
 40
8.602340668616328
 40
8.643455660539846
 40
8.663225271966517
 40
8.715345156564165
 40
8.789031889628511
 40
8.873502045520246
 40
8.957972194323878
 40
9.031658925567775
 40
9.083778811234469
 40
9.103548423002934
 40
9.1195500831235
 40
9.160817522379773
 40
9.217244429110167
 40
9.278724491644653
 40
9.335151398295409
 40
9.376418837357704
 40
9.392420497300492
 40
9.401196302734684
 40
9.417494229384106
 40
9.426270027749378
 40
9.440875075477413
 40
9.475702496998595
 40
9.517270709865763
 40
9.552098131993933
 40
9.566703169884143
 40
9.566703169884143
 40
9.566703169884143
 40
9.566703169884143
 10
194.6170254148479
 20
15.67015871511029
 10
194.6134345093371
 20
15.66453690702161
 10
194.6056039123625
 20
15.65227754419116
 10
194.5129968974548
 20
15.61601916040959
 10
194.4887622233247
 20
15.4014844421272
 10
194.3858709845939
 20
15.22197284509706
 10
194.1220492364305
 20
15.03615573798144
 10
194.284547156918
 20
14.95959336566083
 10
194.3607225760839
 20
14.89856693195444
 10
194.4492171072759
 20
14.83515804544764
 10
194.538993023311
 20
14.77525634219563
 10
194.5883817636047
 20
14.72102154849215
 10
194.6745708157382
 20
14.69286240541838
 10
194.641126067423
 20
14.65713309652816
 10
194.621467116631
 20
14.62550387991908
 10
194.5919888217882
 20
14.58475872796069
 10
194.5688989446032
 20
14.55504663489641
 10
194.5380205968358
 20
14.50211422668488
 10
194.4729193365742
 20
14.62740334938903
 10
194.3796000122416
 20
14.6821390023394
 10
194.2950636285139
 20
14.7391642393934
 10
194.1722498125745
 20
14.89675287427524
 10
194.1764450847301
 20
14.82035806766838
 10
194.1751478652679
 20
14.77361280161297
 10
194.1758126448078
 20
14.69584785812603
 10
194.1755549986958
 20
14.59902068324423
 10
194.1756431239922
 20
14.4865027907881
 10
194.1756077302282
 20
14.36524085945699
 10
194.175651175828
 20
14.2408689785896
 10
194.1755199942406
 20
14.11967683631335
 10
194.1759477562047
 20
14.00691148919741
 10
194.1746678202312
 20
13.91082913768742
 10
194.1779759851042
 20
13.83113826468697
 10
194.1715197740088
 20
13.78815175788782
 10
194.1806208705556
 20
13.74955432372039
 10
194.1447910339936
 20
13.75810887724068
 10
194.1115223815252
 20
13.75342519985443
 10
194.0604562576042
 20
13.75351298759782
 10
194.0269723972814
 20
13.75794430283818
 10
193.9907585408754
 20
13.74960793842506
 10
194.0009782568667
 20
13.79145277179281
 10
193.9936487887773
 20
13.83778560820171
 10
193.9973633136103
 20
13.92374831106012
 10
193.9959480554897
 20
14.02605142704847
 10
193.9964105554639
 20
14.1445322393151
 10
193.9962773686231
 20
14.26957683153355
 10
193.9963015910046
 20
14.39475828107049
 10
193.9963354925552
 20
14.51286645379058
 10
193.9962060293133
 20
14.61628748709516
 10
193.9965507549081
 20
14.69932036153667
 10
193.9958698278691
 20
14.75143368521244
 10
193.9994586600623
 20
14.87912907821361
 10
193.7826171386438
 20
14.58048716819616
 10
193.6021354921951
 20
14.35263981511522
 10
193.5490322295612
 20
14.4937344328982
 10
193.5200429133149
 20
14.54325767560945
 10
193.419664806282
 20
14.64641779790106
 10
193.7405127723261
 20
14.72695035023786
 10
193.868989700543
 20
14.91066283036436
 10
194.090645432536
 20
15.11931995771764
 10
194.1770224894069
 20
15.29339211228347
 10
194.4549394229077
 20
15.56967051342517
 10
194.3346247839285
 20
15.56534559551116
 10
194.286319735135
 20
15.56614856202556
 10
194.2102377454905
 20
15.56574582146586
 10
194.1167010009752
 20
15.56590275611613
 10
194.0117594788557
 20
15.56582502576226
 10
193.9033887738719
 20
15.56595464378557
 10
193.7981454235898
 20
15.56554393490694
 10
193.7056237819414
 20
15.56682073671594
 10
193.6268130800708
 20
15.56340766534853
 10
193.5839674565381
 20
15.57023350036323
 10
193.5449499586516
 20
15.56065064201126
 10
193.5526365271865
 20
15.59420779565546
 10
193.5485464404313
 20
15.62523550322236
 10
193.5485531368815
 20
15.67236529270903
 10
193.5526239724913
 20
15.70340941646782
 10
193.5449495574584
 20
15.73701861635905
 10
193.5834819405495
 20
15.72748410420875
 10
193.624122801448
 20
15.73397435498074
 10
193.6951471850464
 20
15.73100150650257
 10
193.7729318149634
 20
15.7317476139916
 10
193.8507292246476
 20
15.73247814044529
 10
193.9217232089908
 20
15.72954235514163
 10
193.9624279791821
 20
15.73595468772955
 10
194.000985348991
 20
15.72650524176007
 10
193.9927342754929
 20
15.76264692158787
 10
193.9982346669358
 20
15.80129837613229
 10
193.9955754206164
 20
15.86913528561841
 10
193.9965815471534
 20
15.94591641538741
 10
193.996017801832
 20
16.02849393582756
 10
193.9970714526594
 20
16.10517329229878
 10
193.994267586313
 20
16.17331990776698
 10
194.0000702721305
 20
16.21132399809345
 10
193.9915654551159
 20
16.24758448077644
 10
194.0255610233125
 20
16.2375572377185
 10
194.0594575683099
 20
16.24073266813705
 10
194.1126669060347
 20
16.23508965640608
 10
194.1660768574483
 20
16.23434774436425
 10
194.1995914649491
 20
16.2281922348298
 10
194.2388086183038
 20
16.23346029773593
 10
194.2120263698494
 20
16.19253380793486
 10
194.1708111001725
 20
16.20371204538118
 10
194.1782641540874
 20
16.1586705619213
 10
194.1742227952186
 20
16.11412278028151
 10
194.1761714049641
 20
16.04223572621709
 10
194.1752364849759
 20
15.96168630588775
 10
194.176510719003
 20
15.88173995404999
 10
194.1732043793864
 20
15.80841837083186
 10
194.1802106179962
 20
15.76688643002572
 10
194.1701440380126
 20
15.72752418568115
 10
194.2029814803922
 20
15.73468063430984
 10
194.2364577296482
 20
15.73027243137947
 10
194.2915053476019
 20
15.732179433479
 10
194.3489502595316
 20
15.73185366407291
 10
194.402302624831
 20
15.73106308733085
 10
194.4398540896639
 20
15.73313959118077
 10
194.4623172523238
 20
15.73022338167112
 10
194.4751678073731
 20
15.73572552644059
 10
194.4858255685889
 20
15.73801118197794
 10
194.4986635650143
 20
15.74494972588057
 10
194.514599103307
 20
15.72853046313675
 10
194.5410623920892
 20
15.71709122319452
 10
194.5726805253757
 20
15.69644687835193
 10
194.5987255892151
 20
15.68116869628296
 10
194.6128517723973
 20
15.67266976323186
 10
194.6170254148479
 20
15.67015871511029
 97
        1
330
C4
 75
     1
 76
     2
 52
45.0
 41
0.1
 77
     0
 78
     1
 53
45.0
 43
0.0
 44
0.0
 45
-0.282842712474619
 46
0.0
 79
     0
 98
        1
 10
0.0
 20
0.0
  0
HATCH
  5
E2
330
48
100
AcDbEntity
  8
1
  6
Continuous
 62
     2
100
AcDbHatch
 10
0.0
 20
0.0
 30
0.0
210
0.0
220
0.0
230
1.0
  2
CUSTOM12
 70
     0
 71
     1
 91
        1
 92
        1
 93
        1
 72
     4
 94
        3
 73
     0
 74
     0
 95
      124
 96
      120
 40
0.0
 40
0.0
 40
0.0
 40
0.0
 40
0.027818722962451
 40
0.1011590162384269
 40
0.2048470170590523
 40
0.3237088716559245
 40
0.4425707262522284
 40
0.5462587270700116
 40
0.6195990203312934
 40
0.6474177522579513
 40
0.6750060736116095
 40
0.7357003855243611
 40
0.7963946998055327
 40
0.8239830245572619
 40
0.8540933811103997
 40
0.9373396629410109
 40
1.063094687343349
 40
1.220731268638187
 40
1.399622220914861
 40
1.589140358637846
 40
1.778658496424012
 40
1.957549448940679
 40
2.115186030873329
 40
2.240941056914605
 40
2.324187341760703
 40
2.354297700109552
 40
2.381886024672061
 40
2.442580338710646
 40
2.503274652750668
 40
2.530862977314777
 40
2.56098394927873
 40
2.640393784453075
 40
2.752662861759299
 40
2.881361560118315
 40
3.010060258455362
 40
3.122329335705509
 40
3.201739170818123
 40
3.231860142753484
 40
3.26429802403054
 40
3.352343701778408
 40
3.482095226868931
 40
3.639650650173189
 40
3.811108022565644
 40
3.982565394928149
 40
4.140120818152728
 40
4.269872343141437
 40
4.357918020802498
 40
4.390355902044125
 40
4.423256253992695
 40
4.508104530073216
 40
4.624121560636984
 40
4.75052817603174
 40
4.866545206602187
 40
4.951393482692144
 40
4.984293834645546
 40
5.011450833242457
 40
5.071196230152236
 40
5.130941627057306
 40
5.158098625648969
 40
5.19099897760166
 40
5.275847253689485
 40
5.391864284256919
 40
5.518270899648464
 40
5.634287930209504
 40
5.719136206288177
 40
5.752036558236065
 40
5.782130946283092
 40
5.862783906229269
 40
5.979550131775142
 40
6.117984316640553
 40
6.263641154588103
 40
6.402075339414316
 40
6.51884156490812
 40
6.599494524815705
 40
6.629588912848942
 40
6.654403028226519
 40
6.713575149488315
 40
6.78419993932969
 40
6.843372060493793
 40
6.868186175803038
 40
6.89624624320207
 40
6.939586233758567
 40
6.967846564565202
 40
7.043584251090141
 40
7.153234334452008
 40
7.283231855734766
 40
7.420011856035811
 40
7.550009376580172
 40
7.65965945883558
 40
7.735397144417578
 40
7.763657474851752
 40
7.796409728011409
 40
7.880876065096683
 40
7.996370852466069
 40
8.122208446418965
 40
8.237703224799558
 40
8.322169562011252
 40
8.354921815206266
 40
8.382078813308043
 40
8.441824209207343
 40
8.501569605240485
 40
8.528726603486062
 40
8.56147885669611
 40
8.64594519387816
 40
8.761439980865672
 40
8.887277580764815
 40
9.002772362001336
 40
9.087238696661556
 40
9.11999094923601
 40
9.15242883061371
 40
9.240474508638924
 40
9.370226034149873
 40
9.527781457984755
 40
9.699238830981741
 40
9.870696203978929
 40
10.02825162781435
 40
10.15800315332597
 40
10.24604883135151
 40
10.27848670378554
 40
10.27848670378554
 40
10.27848670378554
 40
10.27848670378554
 10
195.3821827564383
 20
14.01410517385759
 10
195.3914554737523
 20
14.01410498511276
 10
195.425174453686
 20
14.01410430876716
 10
195.4934706812465
 20
14.01411807243307
 10
195.592014171158
 20
14.01403224219547
 10
195.7062066464812
 20
14.01441755612252
 10
195.8185894417071
 20
14.01300835897547
 10
195.9214376600119
 20
14.01719117422245
 10
195.980683987485
 20
14.00823089251985
 10
196.0371265937034
 20
14.02164434526062
 10
196.0246255586955
 20
13.97087198613363
 10
196.0329549635705
 20
13.92589320939069
 10
196.0248170841119
 20
13.8805675299049
 10
196.0370529214458
 20
13.82931932408467
 10
195.9747773490334
 20
13.84447955365278
 10
195.9060513026869
 20
13.83359750710745
 10
195.7782756749592
 20
13.83911304747974
 10
195.6262984511643
 20
13.837008512537
 10
195.4502695972523
 20
13.83771002588476
 10
195.2644431934287
 20
13.83745237531293
 10
195.0786167437175
 20
13.83771005144606
 10
194.9025880142169
 20
13.83700841847733
 10
194.7506104154194
 20
13.83911332229991
 10
194.6228357664555
 20
13.83359680767642
 10
194.554107783658
 20
13.84448077125944
 10
194.4918349042883
 20
13.82931786684211
 10
194.5040616290017
 20
13.88057510805173
 10
194.4960004462597
 20
13.92582473272427
 10
194.5040675809893
 20
13.97106357955325
 10
194.4918238487083
 20
14.0223417690996
 10
194.5525017120697
 20
14.00749577363136
 10
194.6162810745736
 20
14.01756448170737
 10
194.7277314353502
 20
14.01294644212001
 10
194.8497533443824
 20
14.01413328905471
 10
194.9719538137823
 20
14.01515863900637
 10
195.0829794287392
 20
14.01092475623403
 10
195.1476517413958
 20
14.02018584521741
 10
195.2091162810501
 20
14.00604423049684
 10
195.1930065601337
 20
14.07235527884519
 10
195.2042980327358
 20
14.14447790121977
 10
195.1987400822561
 20
14.27513760888288
 10
195.200803506169
 20
14.42607323708242
 10
195.2000167127295
 20
14.59335873107887
 10
195.2007845215628
 20
14.76061110332304
 10
195.1988038785628
 20
14.91163289269915
 10
195.204130615662
 20
15.04206069552995
 10
195.1933101388425
 20
15.114654426059
 10
195.2090326429875
 20
15.18150469436799
 10
195.143270813249
 20
15.16580512490825
 10
195.0756367830763
 20
15.17609243083996
 10
194.9615885293809
 20
15.17113786847123
 10
194.8451242674902
 20
15.17414128030475
 10
194.7306554121477
 20
15.16880303143389
 10
194.6640324657812
 20
15.18001268074826
 10
194.5990769715186
 20
15.16349132665012
 10
194.6107989758707
 20
15.21473720477059
 10
194.6032830189122
 20
15.25950333784091
 10
194.6107989878835
 20
15.3042694489796
 10
194.5990769505347
 20
15.3555153612974
 10
194.66403263392
 20
15.33899381766814
 10
194.7306533339822
 20
15.35020571373943
 10
194.8451352858063
 20
15.34485436710663
 10
194.9615454436962
 20
15.34791188771116
 10
195.0757660174641
 20
15.34278499010707
 10
195.1430150439226
 20
15.35345733355597
 10
195.2083325941438
 20
15.33742082669076
 10
195.1941391448552
 20
15.39949685750052
 10
195.2036059462994
 20
15.46586761628762
 10
195.1990269004085
 20
15.58239972741966
 10
195.2007696555948
 20
15.71426685022376
 10
195.1997551495392
 20
15.85615960150274
 10
195.2017191344372
 20
15.98769050702581
 10
195.1964668553851
 20
16.10524577283005
 10
195.2073408763474
 20
16.16947789001586
 10
195.1919536641853
 20
16.2310880254505
 10
195.2407591537801
 20
16.21702407382113
 10
195.2853995564725
 20
16.21954742075315
 10
195.3538643946744
 20
16.2151279740171
 10
195.3959106169102
 20
16.20613025544034
 10
195.4487544758776
 20
16.2141171486651
 10
195.4207035002014
 20
16.17113917611671
 10
195.3749142248594
 20
16.18259552043846
 10
195.3869539073265
 20
16.12173520005141
 10
195.379608607064
 20
16.05769299468777
 10
195.3831195826162
 20
15.94909368863915
 10
195.3819806760173
 20
15.82494319144755
 10
195.3819174780262
 20
15.69189719829879
 10
195.3832872966868
 20
15.56797381249556
 10
195.3791638801313
 20
15.45868337849338
 10
195.3877763103563
 20
15.39608580094169
 10
195.3746757454402
 20
15.33740133296364
 10
195.4393884328198
 20
15.35362113810901
 10
195.5060405953155
 20
15.34270260383311
 10
195.6198779541103
 20
15.34793740173755
 10
195.7357259122097
 20
15.34485547516912
 10
195.849692426328
 20
15.35018259812512
 10
195.9160341018099
 20
15.33904208166541
 10
195.980718852548
 20
15.35546979593177
 10
195.9689820772722
 20
15.30425925210049
 10
195.9765168063041
 20
15.25950334121001
 10
195.9689820992257
 20
15.21474739010027
 10
195.9807188140736
 20
15.16353690871041
 10
195.9160344075252
 20
15.1799642779422
 10
195.8496886430824
 20
15.1688278444727
 10
195.7357459487012
 20
15.17413115893121
 10
195.6197995623054
 20
15.17114764593544
 10
195.5062756882122
 20
15.17606892268395
 10
195.4389231318804
 20
15.1658508751352
 10
195.3734285122495
 20
15.18145996138817
 10
195.3891713619218
 20
15.11463851827412
 10
195.3783275998213
 20
15.0420705781588
 10
195.3836581629792
 20
14.91162247614417
 10
195.3817136151855
 20
14.76064558185227
 10
195.3823133683214
 20
14.5932224393416
 10
195.3821506559604
 20
14.42656176118373
 10
195.3821895488136
 20
14.27360142921638
 10
195.38218164131
 20
14.14849178985707
 10
195.3821828382744
 20
14.06507890991422
 10
195.3821827716208
 20
14.02491778281978
 10
195.3821827564383
 20
14.01410517385759
 97
        1
330
C5
 75
     1
 76
     2
 52
45.0
 41
0.1
 77
     0
 78
     1
 53
45.0
 43
0.0
 44
0.0
 45
-0.282842712474619
 46
0.0
 79
     0
 98
        1
 10
0.0
 20
0.0
  0
HATCH
  5
E3
330
48
100
AcDbEntity
  8
1
  6
Continuous
 62
     2
100
AcDbHatch
 10
0.0
 20
0.0
 30
0.0
210
0.0
220
0.0
230
1.0
  2
CUSTOM13
 70
     0
 71
     1
 91
        1
 92
        1
 93
        3
 72
     4
 94
        3
 73
     0
 74
     0
 95
       24
 96
       20
 40
0.0
 40
0.0
 40
0.0
 40
0.0
 40
0.2211075008753741
 40
0.4273218586245133
 40
0.5080174679238474
 40
0.5914835907869699
 40
0.8143265690192438
 40
1.05465130268657
 40
1.295452694023167
 40
1.518109231328831
 40
1.540864321905475
 40
1.595126460622736
 40
1.659890947896078
 40
1.714153085187465
 40
1.736908174961766
 40
1.764951100735468
 40
1.801562291221115
 40
1.953914424543784
 40
2.12610416737982
 40
2.12610416737982
 40
2.12610416737982
 40
2.12610416737982
 10
185.9375369556889
 20
15.5898929511302
 10
185.9112579081812
 20
15.53097628234377
 10
185.8604698894425
 20
15.41711139679259
 10
185.8131784839112
 20
15.14441958233124
 10
185.7043482802618
 20
15.24445482575461
 10
185.5514800279637
 20
15.27118593367322
 10
185.7686155181199
 20
15.48518135017637
 10
185.7838483674381
 20
15.70332117782488
 10
185.8906889492001
 20
15.88451579066431
 10
185.8305380947078
 20
16.16913226311407
 10
185.9334317395402
 20
16.14114089222455
 10
185.977993346815
 20
16.13243251602303
 10
186.0380842395397
 20
16.12139654183358
 10
186.0756619587439
 20
16.10767523055564
 10
186.1252466928607
 20
16.10756076160225
 10
186.0930158919325
 20
16.07306592398626
 10
186.0171802221882
 20
16.08404104537968
 10
186.0429447159693
 20
15.89858969582454
 10
186.0055896763851
 20
15.80702313549595
 10
185.985770496161
 20
15.75844135397711
 72
     4
 94
        3
 73
     0
 74
     0
 95
       70
 96
       66
 40
0.0
 40
0.0
 40
0.0
 40
0.0
 40
0.0241731073021472
 40
0.0846058988986729
 40
0.1631685280352999
 40
0.2417311571788903
 40
0.3021639488291898
 40
0.3263370654894688
 40
0.3533118254248011
 40
0.4228783438921205
 40
0.5179999095312425
 40
0.6216398239465072
 40
0.7167613891498604
 40
0.7863279069648726
 40
0.8133026791760664
 40
0.8372943998770503
 40
0.8945054261371701
 40
0.9627895541961762
 40
1.020000580349044
 40
1.043992300975142
 40
1.07193434552292
 40
1.113121768772828
 40
1.145225199332152
 40
1.225483775412691
 40
1.329819923771403
 40
1.434156071994293
 40
1.514414647795716
 40
1.546518078208325
 40
1.578974764260127
 40
1.662678849314065
 40
1.777131373668286
 40
1.901833377474677
 40
2.016285900500438
 40
2.099989982527777
 40
2.132446666570135
 40
2.158782354485859
 40
2.21672086790765
 40
2.274659381334069
 40
2.300995069256005
 40
2.333451754065977
 40
2.41715583654363
 40
2.531608358985069
 40
2.656310362283564
 40
2.770762886388668
 40
2.854466971339805
 40
2.886923657363611
 40
2.913597976833047
 40
2.982389642874855
 40
3.076451716946724
 40
3.178937260458345
 40
3.272999334739756
 40
3.341791001058984
 40
3.368465320663297
 40
3.396976080738547
 40
3.472140811845754
 40
3.578408190308444
 40
3.700226892455909
 40
3.822045594634126
 40
3.928312973256233
 40
4.00347770531463
 40
4.031988456866696
 40
4.058324144797501
 40
4.11626265823668
 40
4.174201171400497
 40
4.200536849608437
 40
4.200536849608437
 40
4.200536849608437
 40
4.200536849608437
 10
185.985770496161
 20
15.75844135397711
 10
185.993825954468
 20
15.75844359811693
 10
186.0220200663241
 20
15.75845146032804
 10
186.0765534803674
 20
15.75830754828377
 10
186.1482891808604
 20
15.75909120499904
 10
186.2236240137062
 20
15.75627570463817
 10
186.2713052366439
 20
15.76298403400963
 10
186.3195071245616
 20
15.75197563692439
 10
186.3062571799873
 20
15.80546402997039
 10
186.3151093964538
 20
15.86049583543097
 10
186.3108698036285
 20
15.95419908726114
 10
186.313348348128
 20
16.04959482218536
 10
186.3090938706059
 20
16.14356821983391
 10
186.3179818665847
 20
16.19795062438015
 10
186.3046977409945
 20
16.25233997691463
 10
186.3514119277109
 20
16.2384221633536
 10
186.3943254545736
 20
16.24103877374045
 10
186.4605443456686
 20
16.23648422450755
 10
186.5013342271799
 20
16.22778162134162
 10
186.552514569082
 20
16.23531799890194
 10
186.52537204872
 20
16.1934997022329
 10
186.4803096055708
 20
16.202849920726
 10
186.4942065045051
 20
16.13841207371843
 10
186.4858414431654
 20
16.07378219627406
 10
186.4903632178399
 20
15.97529141193894
 10
186.4854741311168
 20
15.87595932842577
 10
186.4950258992082
 20
15.81293115552974
 10
186.4799761455201
 20
15.74964011499794
 10
186.5449159457209
 20
15.76515072944274
 10
186.6116246399498
 20
15.75499387697818
 10
186.7241435470828
 20
15.75988800099373
 10
186.8390235448954
 20
15.7569120473279
 10
186.9519871999748
 20
15.76221664184997
 10
187.0176267597677
 20
15.75107306472095
 10
187.0816276691053
 20
15.76744532319863
 10
187.0703142889189
 20
15.71761689905281
 10
187.0775339871509
 20
15.67416715212128
 10
187.0703142611269
 20
15.63071745587451
 10
187.0816277175994
 20
15.58088895196882
 10
187.0176263598972
 20
15.59726166091368
 10
186.951992124046
 20
15.58611271661594
 10
186.838997431733
 20
15.5914485720686
 10
186.7242456548643
 20
15.58834345663828
 10
186.6113183686861
 20
15.59364894682594
 10
186.5455220903585
 20
15.58257300019599
 10
186.4816097975359
 20
15.59887597847624
 10
186.4936015165127
 20
15.54423524395747
 10
186.4862104613006
 20
15.48854295047848
 10
186.4892684841984
 20
15.39649689140575
 10
186.4893422785684
 20
15.30179109873105
 10
186.4860313578361
 20
15.20952782902269
 10
186.4939505989905
 20
15.15435768736143
 10
186.4815076611617
 20
15.10058169100138
 10
186.5389116551633
 20
15.11453768862784
 10
186.5994708140384
 20
15.1051145788423
 10
186.7048680855082
 20
15.10942885928708
 10
186.8204294070624
 20
15.10835504612034
 10
186.9359688877798
 20
15.10725965900997
 10
187.0414181130842
 20
15.11162525770635
 10
187.1018680471805
 20
15.10209426030674
 10
187.1592837739111
 20
15.11617289606382
 10
187.1477773876711
 20
15.06707153265684
 10
187.1537566781749
 20
15.02564658018649
 10
187.1520311050804
 20
14.97651677966694
 10
187.1521500122972
 20
14.94854428447606
 10
187.1521871691834
 20
14.93980288195948
 72
     4
 94
        3
 73
     0
 74
     0
 95
       62
 96
       58
 40
0.0
 40
0.0
 40
0.0
 40
0.0
 40
0.0598250028308769
 40
0.2024846486897616
 40
0.3727558389220746
 40
0.515415484793607
 40
0.5752404975785339
 40
0.9332326775487111
 40
1.290451762839417
 40
1.602077253145761
 40
1.69993163411195
 40
1.799359756424964
 40
2.270120149657027
 40
2.804661928461424
 40
2.88234228738313
 40
3.07654318571897
 40
3.329004354835414
 40
3.581465524568223
 40
3.775666424543493
 40
3.853346784558109
 40
3.899120679594883
 40
3.98412934179191
 40
4.029903236817287
 40
4.105797496059441
 40
4.295533144152397
 40
4.542189486611633
 40
4.788845828875578
 40
4.978581476409959
 40
5.0544757352442
 40
5.621734664339205
 40
6.130867242037213
 40
6.225249780948356
 40
6.318913039727068
 40
6.663579954558608
 40
7.047498900224451
 40
7.435230791575397
 40
7.498943906667809
 40
7.650875181209831
 40
7.83221250900137
 40
7.984143783696784
 40
8.047856898902939
 40
8.091554632732459
 40
8.17270756696414
 40
8.216405300767875
 40
8.28902178216076
 40
8.462184160757133
 40
8.668861838005213
 40
8.842024215263805
 40
8.914640695475
 40
8.98988158086121
 40
9.155411528827129
 40
9.320941477743924
 40
9.39618235248718
 40
9.454709011143727
 40
9.583467660170662
 40
9.71222630901294
 40
9.770752957989394
 40
9.770752957989394
 40
9.770752957989394
 40
9.770752957989394
 10
187.1521871691834
 20
14.93980288195948
 10
187.1322348171624
 20
14.93980875568669
 10
187.0647037716466
 20
14.93982863806155
 10
186.9410612161789
 20
14.93949362520324
 10
186.7863180150057
 20
14.9410767375051
 10
186.6697349482481
 20
14.93686078860493
 10
186.4550942634242
 20
14.95215205331624
 10
186.8518948407229
 20
14.59198721286194
 10
186.8945656069268
 20
14.37510503397165
 10
187.3189162146611
 20
14.19325062511456
 10
187.1439821496074
 20
14.08985196568069
 10
187.0194523925084
 20
13.87831523212725
 10
186.7666277235944
 20
14.34806081001555
 10
186.4797602893624
 20
14.99511516984518
 10
186.4906335926662
 20
14.68782672154694
 10
186.4882892777959
 20
14.52288616971779
 10
186.4861096126413
 20
14.28879670711696
 10
186.4980774396347
 20
14.04498072421787
 10
186.4687984740631
 20
13.89855796860989
 10
186.5114522625471
 20
13.75113490174544
 10
186.4239814005639
 20
13.76685797306226
 10
186.3768527606745
 20
13.76694303543461
 10
186.2898973207713
 20
13.75109425482915
 10
186.3313474021722
 20
13.89527771422768
 10
186.3029875004286
 20
14.03855052698461
 10
186.3145973775299
 20
14.27674947365269
 10
186.3124175648272
 20
14.50517235240351
 10
186.3103111127994
 20
14.66705729375999
 10
186.3208035438323
 20
14.98153709333755
 10
186.0128963252894
 20
14.29229470872441
 10
185.7055258267455
 20
13.81476750243054
 10
185.5851367066275
 20
14.03741112637433
 10
185.4074607910724
 20
14.15011034955571
 10
185.8853326362894
 20
14.32548143465467
 10
185.9353959057208
 20
14.56091929252031
 10
186.3583799621719
 20
14.95322989344605
 10
186.1276754273541
 20
14.93655307029064
 10
186.0049685859342
 20
14.94269518948769
 10
185.8325483095662
 20
14.93312822699571
 10
185.7213224694449
 20
14.95448818489664
 10
185.6025779627448
 20
14.92136265357417
 10
185.6183169706686
 20
15.00203900606883
 10
185.6178550933763
 20
15.04645414290855
 10
185.6027881889931
 20
15.12967081778536
 10
185.7372380935444
 20
15.09062651983886
 10
185.8619755545746
 20
15.11739729328424
 10
186.062875523728
 20
15.10063949044055
 10
186.1921540949353
 20
15.12204225913007
 10
186.3328419928294
 20
15.08868778853423
 10
186.2980927452614
 20
15.22651875785071
 10
186.3222185666714
 20
15.34963257349485
 10
186.2967086182392
 20
15.47024055670341
 10
186.3333251146685
 20
15.60539865141501
 10
186.2211417027769
 20
15.58094545781896
 10
186.1280356457136
 20
15.59307749842028
 10
186.0191547579819
 20
15.5895763007
 10
185.9569697640964
 20
15.58981755951609
 10
185.9375369557246
 20
15.5898929512415
 97
        3
330
C7
330
C8
330
C6
 75
     1
 76
     2
 52
45.0
 41
0.1
 77
     0
 78
     1
 53
45.0
 43
0.0
 44
0.0
 45
-0.282842712474619
 46
0.0
 79
     0
 98
        1
 10
0.0
 20
0.0
  0
HATCH
  5
E4
330
48
100
AcDbEntity
  8
1
  6
Continuous
 62
     2
100
AcDbHatch
 10
0.0
 20
0.0
 30
0.0
210
0.0
220
0.0
230
1.0
  2
CUSTOM14
 70
     0
 71
     1
 91
        1
 92
        1
 93
        4
 72
     1
 10
192.4578138032672
 20
15.2287543402206
 11
191.1602971697031
 21
15.2287543402206
 72
     1
 10
191.1602971697031
 20
15.2287543402206
 11
191.1602971697031
 21
15.39722336795629
 72
     1
 10
191.1602971697031
 20
15.39722336795629
 11
192.4578138032672
 21
15.39722336795629
 72
     1
 10
192.4578138032672
 20
15.39722336795629
 11
192.4578138032672
 21
15.2287543402206
 97
        1
330
C9
 75
     1
 76
     2
 52
45.0
 41
0.1
 77
     0
 78
     1
 53
45.0
 43
0.0
 44
0.0
 45
-0.282842712474619
 46
0.0
 79
     0
 98
        1
 10
0.0
 20
0.0
  0
ENDBLK
  5
4A
330
48
100
AcDbEntity
  8
0
100
AcDbBlockEnd
  0
BLOCK
  5
4D
330
4B
100
AcDbEntity
  8
0
100
AcDbBlockBegin
  2
開示A4枠
 70
     0
 10
0.0
 20
0.0
 30
0.0
  3
開示A4枠
  1

  0
INSERT
  5
4C
330
4B
100
AcDbEntity
  8
1
100
AcDbBlockReference
  2
開示A4
 10
0.0
 20
0.0
 30
0.0
  0
ENDBLK
  5
4E
330
4B
100
AcDbEntity
  8
0
100
AcDbBlockEnd
  0
BLOCK
  5
50
330
4F
100
AcDbEntity
  8
0
100
AcDbBlockBegin
  2
R44-1
 70
     0
 10
104.286713324672
 20
71.8070337580651
 30
0.0
  3
R44-1
  1

  0
LINE
  5
E5
330
4F
100
AcDbEntity
  8
1
  6
Continuous
 62
     7
100
AcDbLine
 10
118.286713324672
 20
102.387011405985
 30
0.0
 11
118.786713324672
 21
102.887011405985
 31
0.0
  0
LINE
  5
E6
330
4F
100
AcDbEntity
  8
1
  6
Continuous
 62
     2
100
AcDbLine
 10
118.286713324672
 20
129.887011405985
 30
0.0
 11
118.286713324672
 21
102.387011405985
 31
0.0
  0
LINE
  5
E7
330
4F
100
AcDbEntity
  8
1
  6
Continuous
 62
     7
100
AcDbLine
 10
118.786713324672
 20
102.887011405985
 30
0.0
 11
118.786713324672
 21
129.887011405985
 31
0.0
  0
LINE
  5
E8
330
4F
100
AcDbEntity
  8
1
  6
Continuous
 62
     7
100
AcDbLine
 10
118.786713324672
 20
136.387011405985
 30
0.0
 11
118.786713324672
 21
139.387011405985
 31
0.0
  0
LINE
  5
E9
330
4F
100
AcDbEntity
  8
1
  6
Continuous
 62
     2
100
AcDbLine
 10
118.286713324672
 20
136.387011405985
 30
0.0
 11
118.286713324672
 21
139.387011405985
 31
0.0
  0
LINE
  5
EA
330
4F
100
AcDbEntity
  8
1
  6
Continuous
 62
     2
100
AcDbLine
 10
118.286713324672
 20
140.387011405985
 30
0.0
 11
118.286713324672
 21
149.887011405985
 31
0.0
  0
LINE
  5
EB
330
4F
100
AcDbEntity
  8
1
  6
Continuous
 62
     7
100
AcDbLine
 10
118.786713324672
 20
140.387011405985
 30
0.0
 11
118.786713324672
 21
149.887011405985
 31
0.0
  0
LINE
  5
EC
330
4F
100
AcDbEntity
  8
1
  6
Continuous
 62
     7
100
AcDbLine
 10
118.786713324672
 20
154.387011405985
 30
0.0
 11
118.786713324672
 21
158.387011405985
 31
0.0
  0
LINE
  5
ED
330
4F
100
AcDbEntity
  8
1
  6
Continuous
 62
     2
100
AcDbLine
 10
118.286713324672
 20
154.387011405985
 30
0.0
 11
118.286713324672
 21
158.387011405985
 31
0.0
  0
LINE
  5
EE
330
4F
100
AcDbEntity
  8
1
  6
Continuous
 62
     7
100
AcDbLine
 10
118.786713324672
 20
159.387011405985
 30
0.0
 11
118.786713324672
 21
162.387011405985
 31
0.0
  0
LINE
  5
EF
330
4F
100
AcDbEntity
  8
1
  6
Continuous
 62
     2
100
AcDbLine
 10
118.286713324672
 20
159.387011405985
 30
0.0
 11
118.286713324672
 21
162.387011405985
 31
0.0
  0
LINE
  5
F0
330
4F
100
AcDbEntity
  8
1
  6
Continuous
 62
     7
100
AcDbLine
 10
111.286713324672
 20
102.387011405985
 30
0.0
 11
118.286713324672
 21
102.387011405985
 31
0.0
  0
LINE
  5
F1
330
4F
100
AcDbEntity
  8
1
  6
Continuous
 62
     7
100
AcDbLine
 10
117.786713324672
 20
99.38701140598499
 30
0.0
 11
118.286713324672
 21
102.387011405985
 31
0.0
  0
LINE
  5
F2
330
4F
100
AcDbEntity
  8
1
  6
Continuous
 62
     7
100
AcDbLine
 10
111.286713324672
 20
102.387011405985
 30
0.0
 11
111.786713324672
 21
99.38701140598499
 31
0.0
  0
LINE
  5
F3
330
4F
100
AcDbEntity
  8
1
  6
Continuous
 62
     7
100
AcDbLine
 10
111.786713324672
 20
99.38701140598499
 30
0.0
 11
117.786713324672
 21
99.38701140598499
 31
0.0
  0
LINE
  5
F4
330
4F
100
AcDbEntity
  8
1
  6
Continuous
 62
     7
100
AcDbLine
 10
110.786713324672
 20
102.887011405985
 30
0.0
 11
118.786713324672
 21
102.887011405985
 31
0.0
  0
LINE
  5
F5
330
4F
100
AcDbEntity
  8
1
  6
Continuous
 62
     7
100
AcDbLine
 10
110.786713324672
 20
102.887011405985
 30
0.0
 11
111.286713324672
 21
102.387011405985
 31
0.0
  0
LINE
  5
F6
330
4F
100
AcDbEntity
  8
1
  6
Continuous
 62
     2
100
AcDbLine
 10
111.286713324672
 20
102.387011405985
 30
0.0
 11
111.286713324672
 21
129.887011405985
 31
0.0
  0
LINE
  5
F7
330
4F
100
AcDbEntity
  8
1
  6
Continuous
 62
     7
100
AcDbLine
 10
118.286713324672
 20
102.387011405985
 30
0.0
 11
118.786713324672
 21
102.887011405985
 31
0.0
  0
LINE
  5
F8
330
4F
100
AcDbEntity
  8
1
  6
Continuous
 62
     7
100
AcDbLine
 10
115.321713324672
 20
224.412011405985
 30
0.0
 11
115.321713324672
 21
222.922011405985
 31
0.0
  0
LINE
  5
F9
330
4F
100
AcDbEntity
  8
1
  6
Continuous
 62
     7
100
AcDbLine
 10
114.251713324672
 20
224.412011405985
 30
0.0
 11
114.251713324672
 21
222.922011405985
 31
0.0
  0
LINE
  5
FA
330
4F
100
AcDbEntity
  8
1
  6
Continuous
 62
     7
100
AcDbLine
 10
111.761713324672
 20
221.922011405985
 30
0.0
 11
113.251713324672
 21
221.922011405985
 31
0.0
  0
LINE
  5
FB
330
4F
100
AcDbEntity
  8
1
  6
Continuous
 62
     7
100
AcDbLine
 10
117.811713324672
 20
221.922011405985
 30
0.0
 11
116.321713324672
 21
221.922011405985
 31
0.0
  0
LINE
  5
FC
330
4F
100
AcDbEntity
  8
1
  6
Continuous
 62
     7
100
AcDbLine
 10
113.251713324672
 20
220.852011405985
 30
0.0
 11
111.761713324672
 21
220.852011405985
 31
0.0
  0
LINE
  5
FD
330
4F
100
AcDbEntity
  8
1
  6
Continuous
 62
     7
100
AcDbLine
 10
116.321713324672
 20
220.852011405985
 30
0.0
 11
117.811713324672
 21
220.852011405985
 31
0.0
  0
LINE
  5
FE
330
4F
100
AcDbEntity
  8
1
  6
Continuous
 62
     7
100
AcDbLine
 10
115.321713324672
 20
219.852011405985
 30
0.0
 11
115.321713324672
 21
218.362011405985
 31
0.0
  0
LINE
  5
FF
330
4F
100
AcDbEntity
  8
1
  6
Continuous
 62
     7
100
AcDbLine
 10
114.251713324672
 20
219.852011405985
 30
0.0
 11
114.251713324672
 21
218.362011405985
 31
0.0
  0
LINE
  5
100
330
4F
100
AcDbEntity
  8
1
  6
Continuous
 62
     7
100
AcDbLine
 10
114.251713324672
 20
218.362011405985
 30
0.0
 11
115.321713324672
 21
218.362011405985
 31
0.0
  0
LINE
  5
101
330
4F
100
AcDbEntity
  8
1
  6
Continuous
 62
     7
100
AcDbLine
 10
114.251713324672
 20
224.412011405985
 30
0.0
 11
115.321713324672
 21
224.412011405985
 31
0.0
  0
LINE
  5
102
330
4F
100
AcDbEntity
  8
1
  6
Continuous
 62
     7
100
AcDbLine
 10
117.811713324672
 20
221.922011405985
 30
0.0
 11
117.811713324672
 21
220.852011405985
 31
0.0
  0
LINE
  5
103
330
4F
100
AcDbEntity
  8
1
  6
Continuous
 62
     7
100
AcDbLine
 10
111.761713324672
 20
221.922011405985
 30
0.0
 11
111.761713324672
 21
220.852011405985
 31
0.0
  0
LINE
  5
104
330
4F
100
AcDbEntity
  8
1
  6
Continuous
 62
     7
100
AcDbLine
 10
104.536713324672
 20
171.347011405985
 30
0.0
 11
104.536713324672
 21
171.5851479913596
 31
0.0
  0
LINE
  5
105
330
4F
100
AcDbEntity
  8
1
  6
Continuous
 62
     7
100
AcDbLine
 10
125.036713324672
 20
171.347011405985
 30
0.0
 11
125.036713324672
 21
171.5851479913596
 31
0.0
  0
LINE
  5
106
330
4F
100
AcDbEntity
  8
1
  6
Continuous
 62
     7
100
AcDbLine
 10
110.786713324672
 20
129.887011405985
 30
0.0
 11
110.786713324672
 21
102.887011405985
 31
0.0
  0
LINE
  5
107
330
4F
100
AcDbEntity
  8
1
  6
Continuous
 62
     7
100
AcDbLine
 10
110.786713324672
 20
139.387011405985
 30
0.0
 11
110.786713324672
 21
136.387011405985
 31
0.0
  0
LINE
  5
108
330
4F
100
AcDbEntity
  8
1
  6
Continuous
 62
     2
100
AcDbLine
 10
111.286713324672
 20
139.387011405985
 30
0.0
 11
111.286713324672
 21
136.387011405985
 31
0.0
  0
LINE
  5
109
330
4F
100
AcDbEntity
  8
1
  6
Continuous
 62
     2
100
AcDbLine
 10
111.286713324672
 20
149.887011405985
 30
0.0
 11
111.286713324672
 21
140.387011405985
 31
0.0
  0
LINE
  5
10A
330
4F
100
AcDbEntity
  8
1
  6
Continuous
 62
     7
100
AcDbLine
 10
110.786713324672
 20
149.887011405985
 30
0.0
 11
110.786713324672
 21
140.387011405985
 31
0.0
  0
LINE
  5
10B
330
4F
100
AcDbEntity
  8
1
  6
Continuous
 62
     7
100
AcDbLine
 10
110.786713324672
 20
158.387011405985
 30
0.0
 11
110.786713324672
 21
154.387011405985
 31
0.0
  0
LINE
  5
10C
330
4F
100
AcDbEntity
  8
1
  6
Continuous
 62
     2
100
AcDbLine
 10
111.286713324672
 20
158.387011405985
 30
0.0
 11
111.286713324672
 21
154.387011405985
 31
0.0
  0
LINE
  5
10D
330
4F
100
AcDbEntity
  8
1
  6
Continuous
 62
     7
100
AcDbLine
 10
110.786713324672
 20
162.387011405985
 30
0.0
 11
110.786713324672
 21
159.387011405985
 31
0.0
  0
LINE
  5
10E
330
4F
100
AcDbEntity
  8
1
  6
Continuous
 62
     2
100
AcDbLine
 10
111.286713324672
 20
162.387011405985
 30
0.0
 11
111.286713324672
 21
159.387011405985
 31
0.0
  0
LINE
  5
10F
330
4F
100
AcDbEntity
  8
1
  6
Continuous
 62
     7
100
AcDbLine
 10
125.036713324672
 20
169.387011405985
 30
0.0
 11
114.786713324672
 21
169.387011405985
 31
0.0
  0
LINE
  5
110
330
4F
100
AcDbEntity
  8
1
  6
Continuous
 62
     7
100
AcDbLine
 10
125.036713324672
 20
171.347011405985
 30
0.0
 11
125.036713324672
 21
169.387011405985
 31
0.0
  0
LINE
  5
111
330
4F
100
AcDbEntity
  8
1
  6
Continuous
 62
     7
100
AcDbLine
 10
104.536713324672
 20
169.387011405985
 30
0.0
 11
104.536713324672
 21
171.347011405985
 31
0.0
  0
LINE
  5
112
330
4F
100
AcDbEntity
  8
1
  6
Continuous
 62
     7
100
AcDbLine
 10
125.036713324672
 20
171.347011405985
 30
0.0
 11
104.536713324672
 21
171.347011405985
 31
0.0
  0
LINE
  5
113
330
4F
100
AcDbEntity
  8
1
  6
Continuous
 62
     7
100
AcDbLine
 10
114.251713324672
 20
173.3857411806765
 30
0.0
 11
114.251713324672
 21
172.8905119766848
 31
0.0
  0
LINE
  5
114
330
4F
100
AcDbEntity
  8
1
  6
Continuous
 62
     7
100
AcDbLine
 10
115.321713324672
 20
173.3857411806765
 30
0.0
 11
115.321713324672
 21
172.8905119766848
 31
0.0
  0
LINE
  5
115
330
4F
100
AcDbEntity
  8
1
  6
Continuous
 62
     7
100
AcDbLine
 10
114.251713324672
 20
172.8905119766848
 30
0.0
 11
115.321713324672
 21
172.8905119766848
 31
0.0
  0
ARC
  5
116
330
4F
100
AcDbEntity
  8
1
  6
Continuous
 62
     7
100
AcDbCircle
 10
114.786713324672
 20
143.3905119766848
 30
0.0
 40
29.99999999999994
100
AcDbArc
 50
88.97817109880637
 51
90.0
  0
ARC
  5
117
330
4F
100
AcDbEntity
  8
1
  6
Continuous
 62
     7
100
AcDbCircle
 10
114.786713324672
 20
143.3905119766848
 30
0.0
 40
29.99999999999994
100
AcDbArc
 50
91.0218289011936
 51
109.9784489794657
  0
ARC
  5
118
330
4F
100
AcDbEntity
  8
1
  6
Continuous
 62
     7
100
AcDbCircle
 10
114.786713324672
 20
143.3905119766848
 30
0.0
 40
30.0
100
AcDbArc
 50
90.0
 51
91.0218289011936
  0
ARC
  5
119
330
4F
100
AcDbEntity
  8
1
  6
Continuous
 62
     7
100
AcDbCircle
 10
114.786713324672
 20
143.3905119766848
 30
0.0
 40
29.99999999999997
100
AcDbArc
 50
70.0215510205343
 51
88.97817109880637
  0
CIRCLE
  5
11A
330
4F
100
AcDbEntity
  8
1
  6
Continuous
 62
     7
100
AcDbCircle
 10
114.786713324672
 20
221.387011405985
 30
0.0
 40
10.25
  0
ARC
  5
11B
330
4F
100
AcDbEntity
  8
1
  6
Continuous
 62
     7
100
AcDbCircle
 10
113.251713324672
 20
219.852011405985
 30
0.0
 40
1.0
100
AcDbArc
 50
0.0
 51
90.0
  0
ARC
  5
11C
330
4F
100
AcDbEntity
  8
1
  6
Continuous
 62
     7
100
AcDbCircle
 10
116.321713324672
 20
219.852011405985
 30
0.0
 40
1.0
100
AcDbArc
 50
90.0
 51
180.0
  0
ARC
  5
11D
330
4F
100
AcDbEntity
  8
1
  6
Continuous
 62
     7
100
AcDbCircle
 10
116.321713324672
 20
222.922011405985
 30
0.0
 40
1.0
100
AcDbArc
 50
180.0
 51
270.0
  0
ARC
  5
11E
330
4F
100
AcDbEntity
  8
1
  6
Continuous
 62
     7
100
AcDbCircle
 10
113.251713324672
 20
222.922011405985
 30
0.0
 40
1.0
100
AcDbArc
 50
270.0
 51
0.0
  0
ENDBLK
  5
51
330
4F
100
AcDbEntity
  8
0
100
AcDbBlockEnd
  0
BLOCK
  5
53
330
52
100
AcDbEntity
  8
0
100
AcDbBlockBegin
  2
R44-2
 70
     0
 10
100.786713324672
 20
61.8070337580651
 30
0.0
  3
R44-2
  1

  0
LINE
  5
11F
330
52
100
AcDbEntity
  8
1
  6
Continuous
 62
     7
100
AcDbLine
 10
114.786713324672
 20
167.387011405985
 30
0.0
 11
128.786713324672
 21
167.387011405985
 31
0.0
  0
LINE
  5
120
330
52
100
AcDbEntity
  8
1
  6
Continuous
 62
     7
100
AcDbLine
 10
114.786713324672
 20
162.387011405985
 30
0.0
 11
118.786713324672
 21
162.387011405985
 31
0.0
  0
LINE
  5
121
330
52
100
AcDbEntity
  8
1
  6
Continuous
 62
     7
100
AcDbLine
 10
114.786713324672
 20
169.387011405985
 30
0.0
 11
118.786713324672
 21
169.387011405985
 31
0.0
  0
LINE
  5
122
330
52
100
AcDbEntity
  8
1
  6
Continuous
 62
     7
100
AcDbLine
 10
128.786713324672
 20
167.387011405985
 30
0.0
 11
118.786713324672
 21
162.387011405985
 31
0.0
  0
LINE
  5
123
330
52
100
AcDbEntity
  8
1
  6
Continuous
 62
     7
100
AcDbLine
 10
128.786713324672
 20
169.387011405985
 30
0.0
 11
128.786713324672
 21
167.387011405985
 31
0.0
  0
LINE
  5
124
330
52
100
AcDbEntity
  8
1
  6
Continuous
 62
     7
100
AcDbLine
 10
118.786713324672
 20
169.387011405985
 30
0.0
 11
128.786713324672
 21
169.387011405985
 31
0.0
  0
LINE
  5
125
330
52
100
AcDbEntity
  8
1
  6
Continuous
 62
     7
100
AcDbLine
 10
100.786713324672
 20
167.387011405985
 30
0.0
 11
114.786713324672
 21
167.387011405985
 31
0.0
  0
LINE
  5
126
330
52
100
AcDbEntity
  8
1
  6
Continuous
 62
     7
100
AcDbLine
 10
110.786713324672
 20
162.387011405985
 30
0.0
 11
114.786713324672
 21
162.387011405985
 31
0.0
  0
LINE
  5
127
330
52
100
AcDbEntity
  8
1
  6
Continuous
 62
     7
100
AcDbLine
 10
110.786713324672
 20
169.387011405985
 30
0.0
 11
114.786713324672
 21
169.387011405985
 31
0.0
  0
LINE
  5
128
330
52
100
AcDbEntity
  8
1
  6
Continuous
 62
     7
100
AcDbLine
 10
110.786713324672
 20
162.387011405985
 30
0.0
 11
100.786713324672
 21
167.387011405985
 31
0.0
  0
LINE
  5
129
330
52
100
AcDbEntity
  8
1
  6
Continuous
 62
     7
100
AcDbLine
 10
100.786713324672
 20
167.387011405985
 30
0.0
 11
100.786713324672
 21
169.387011405985
 31
0.0
  0
LINE
  5
12A
330
52
100
AcDbEntity
  8
1
  6
Continuous
 62
     7
100
AcDbLine
 10
100.786713324672
 20
169.387011405985
 30
0.0
 11
110.786713324672
 21
169.387011405985
 31
0.0
  0
CIRCLE
  5
12B
330
52
100
AcDbEntity
  8
0
  6
Continuous
 62
     7
100
AcDbCircle
 10
114.786713324672
 20
221.387011405985
 30
0.0
 40
14.00000000000001
  0
ENDBLK
  5
54
330
52
100
AcDbEntity
  8
0
100
AcDbBlockEnd
  0
BLOCK
  5
56
330
55
100
AcDbEntity
  8
0
100
AcDbBlockBegin
  2
R44-3__1
 70
     0
 10
103.786713324672
 20
158.387011405985
 30
0.0
  3
R44-3__1
  1

  0
LINE
  5
12C
330
55
100
AcDbEntity
  8
1
  6
Continuous
 62
     7
100
AcDbLine
 10
114.786713324672
 20
159.387011405985
 30
0.0
 11
125.786713324672
 21
159.387011405985
 31
0.0
  0
LINE
  5
12D
330
55
100
AcDbEntity
  8
1
  6
Continuous
 62
     7
100
AcDbLine
 10
125.786713324672
 20
159.387011405985
 30
0.0
 11
125.786713324672
 21
158.387011405985
 31
0.0
  0
LINE
  5
12E
330
55
100
AcDbEntity
  8
1
  6
Continuous
 62
     7
100
AcDbLine
 10
125.786713324672
 20
158.387011405985
 30
0.0
 11
114.786713324672
 21
158.387011405985
 31
0.0
  0
LINE
  5
12F
330
55
100
AcDbEntity
  8
1
  6
Continuous
 62
     7
100
AcDbLine
 10
103.786713324672
 20
159.387011405985
 30
0.0
 11
114.786713324672
 21
159.387011405985
 31
0.0
  0
LINE
  5
130
330
55
100
AcDbEntity
  8
1
  6
Continuous
 62
     7
100
AcDbLine
 10
103.786713324672
 20
158.387011405985
 30
0.0
 11
103.786713324672
 21
159.387011405985
 31
0.0
  0
LINE
  5
131
330
55
100
AcDbEntity
  8
1
  6
Continuous
 62
     7
100
AcDbLine
 10
114.786713324672
 20
158.387011405985
 30
0.0
 11
103.786713324672
 21
158.387011405985
 31
0.0
  0
ENDBLK
  5
57
330
55
100
AcDbEntity
  8
0
100
AcDbBlockEnd
  0
BLOCK
  5
59
330
58
100
AcDbEntity
  8
0
100
AcDbBlockBegin
  2
R44-4
 70
     0
 10
107.8585100943965
 20
149.886381568716
 30
0.0
  3
R44-4
  1

  0
LINE
  5
132
330
58
100
AcDbEntity
  8
1
  6
Continuous
 62
     7
100
AcDbLine
 10
114.786713324672
 20
149.887011405985
 30
0.0
 11
121.3640635938616
 21
149.887011405985
 31
0.0
  0
LINE
  5
133
330
58
100
AcDbEntity
  8
1
  6
Continuous
 62
     7
100
AcDbLine
 10
122.2922668241371
 20
150.8152146362605
 30
0.0
 11
121.3640635938616
 21
149.887011405985
 31
0.0
  0
LINE
  5
134
330
58
100
AcDbEntity
  8
1
  6
Continuous
 62
     7
100
AcDbLine
 10
122.2922668241371
 20
154.387011405985
 30
0.0
 11
122.2922668241371
 21
150.8152146362605
 31
0.0
  0
LINE
  5
135
330
58
100
AcDbEntity
  8
1
  6
Continuous
 62
     7
100
AcDbLine
 10
122.2922668241371
 20
154.387011405985
 30
0.0
 11
114.786713324672
 21
154.387011405985
 31
0.0
  0
LINE
  5
136
330
58
100
AcDbEntity
  8
1
  6
Continuous
 62
     7
100
AcDbLine
 10
118.5394900744046
 20
154.387011405985
 30
0.0
 11
118.5394900744046
 21
150.8152146362605
 31
0.0
  0
LINE
  5
137
330
58
100
AcDbEntity
  8
1
  6
Continuous
 62
     7
100
AcDbLine
 10
108.2093630554824
 20
149.887011405985
 30
0.0
 11
114.786713324672
 21
149.887011405985
 31
0.0
  0
LINE
  5
138
330
58
100
AcDbEntity
  8
1
  6
Continuous
 62
     7
100
AcDbLine
 10
108.2093630554824
 20
149.887011405985
 30
0.0
 11
107.2811598252069
 21
150.8152146362605
 31
0.0
  0
LINE
  5
139
330
58
100
AcDbEntity
  8
1
  6
Continuous
 62
     7
100
AcDbLine
 10
107.2811598252069
 20
150.8152146362605
 30
0.0
 11
107.2811598252069
 21
154.387011405985
 31
0.0
  0
LINE
  5
13A
330
58
100
AcDbEntity
  8
1
  6
Continuous
 62
     7
100
AcDbLine
 10
114.786713324672
 20
154.387011405985
 30
0.0
 11
107.2811598252069
 21
154.387011405985
 31
0.0
  0
LINE
  5
13B
330
58
100
AcDbEntity
  8
1
  6
Continuous
 62
     7
100
AcDbLine
 10
111.0339365749394
 20
150.8152146362605
 30
0.0
 11
111.0339365749394
 21
154.387011405985
 31
0.0
  0
ARC
  5
13C
330
58
100
AcDbEntity
  8
1
  6
Continuous
 62
     7
100
AcDbCircle
 10
120.4158784492709
 20
152.247698390842
 30
0.0
 40
2.36068698485703
100
AcDbArc
 50
217.3590569277689
 51
307.3590569277667
  0
ARC
  5
13D
330
58
100
AcDbEntity
  8
1
  6
Continuous
 62
     7
100
AcDbCircle
 10
114.786713324672
 20
157.9374544999997
 30
0.0
 40
8.050443094014696
100
AcDbArc
 50
270.0
 51
297.785177901426
  0
ARC
  5
13E
330
58
100
AcDbEntity
  8
1
  6
Continuous
 62
     7
100
AcDbCircle
 10
109.1575482000731
 20
152.247698390842
 30
0.0
 40
2.36068698485696
100
AcDbArc
 50
232.6409430722333
 51
322.6409430722311
  0
ARC
  5
13F
330
58
100
AcDbEntity
  8
1
  6
Continuous
 62
     7
100
AcDbCircle
 10
114.786713324672
 20
157.9374544999997
 30
0.0
 40
8.050443094014716
100
AcDbArc
 50
242.2148220985741
 51
270.0
  0
ENDBLK
  5
5A
330
58
100
AcDbEntity
  8
0
100
AcDbBlockEnd
  0
BLOCK
  5
5C
330
5B
100
AcDbEntity
  8
0
100
AcDbBlockBegin
  2
R44-3__2
 70
     0
 10
103.786713324672
 20
64.8070337580651
 30
0.0
  3
R44-3__2
  1

  0
LINE
  5
140
330
5B
100
AcDbEntity
  8
1
  6
Continuous
 62
     7
100
AcDbLine
 10
125.786713324672
 20
139.387011405985
 30
0.0
 11
114.786713324672
 21
139.387011405985
 31
0.0
  0
LINE
  5
141
330
5B
100
AcDbEntity
  8
1
  6
Continuous
 62
     7
100
AcDbLine
 10
125.786713324672
 20
140.387011405985
 30
0.0
 11
125.786713324672
 21
139.387011405985
 31
0.0
  0
LINE
  5
142
330
5B
100
AcDbEntity
  8
1
  6
Continuous
 62
     7
100
AcDbLine
 10
114.786713324672
 20
140.387011405985
 30
0.0
 11
125.786713324672
 21
140.387011405985
 31
0.0
  0
LINE
  5
143
330
5B
100
AcDbEntity
  8
1
  6
Continuous
 62
     7
100
AcDbLine
 10
114.786713324672
 20
139.387011405985
 30
0.0
 11
103.786713324672
 21
139.387011405985
 31
0.0
  0
LINE
  5
144
330
5B
100
AcDbEntity
  8
1
  6
Continuous
 62
     7
100
AcDbLine
 10
103.786713324672
 20
139.387011405985
 30
0.0
 11
103.786713324672
 21
140.387011405985
 31
0.0
  0
LINE
  5
145
330
5B
100
AcDbEntity
  8
1
  6
Continuous
 62
     7
100
AcDbLine
 10
103.786713324672
 20
140.387011405985
 30
0.0
 11
114.786713324672
 21
140.387011405985
 31
0.0
  0
ENDBLK
  5
5D
330
5B
100
AcDbEntity
  8
0
100
AcDbBlockEnd
  0
BLOCK
  5
5F
330
5E
100
AcDbEntity
  8
0
100
AcDbBlockBegin
  2
R44-5
 70
     0
 10
107.2811598252069
 20
69.3070337580651
 30
0.0
  3
R44-5
  1

  0
LINE
  5
146
330
5E
100
AcDbEntity
  8
1
  6
Continuous
 62
     7
100
AcDbLine
 10
118.5394900744046
 20
130.7850071399244
 30
0.0
 11
118.5394900744046
 21
136.387011405985
 31
0.0
  0
LINE
  5
147
330
5E
100
AcDbEntity
  8
1
  6
Continuous
 62
     7
100
AcDbLine
 10
122.2922668241371
 20
136.387011405985
 30
0.0
 11
122.2922668241371
 21
130.8925649054501
 31
0.0
  0
LINE
  5
148
330
5E
100
AcDbEntity
  8
1
  6
Continuous
 62
     7
100
AcDbLine
 10
122.2922668241371
 20
130.8925649054501
 30
0.0
 11
121.286713324672
 21
129.887011405985
 31
0.0
  0
LINE
  5
149
330
5E
100
AcDbEntity
  8
1
  6
Continuous
 62
     7
100
AcDbLine
 10
121.286713324672
 20
129.887011405985
 30
0.0
 11
114.786713324672
 21
129.887011405985
 31
0.0
  0
LINE
  5
14A
330
5E
100
AcDbEntity
  8
1
  6
Continuous
 62
     7
100
AcDbLine
 10
122.2922668241371
 20
136.387011405985
 30
0.0
 11
114.786713324672
 21
136.387011405985
 31
0.0
  0
LINE
  5
14B
330
5E
100
AcDbEntity
  8
1
  6
Continuous
 62
     7
100
AcDbLine
 10
111.0339365749394
 20
136.387011405985
 30
0.0
 11
111.0339365749394
 21
130.7850071399244
 31
0.0
  0
LINE
  5
14C
330
5E
100
AcDbEntity
  8
1
  6
Continuous
 62
     7
100
AcDbLine
 10
107.2811598252069
 20
130.8925649054501
 30
0.0
 11
107.2811598252069
 21
136.387011405985
 31
0.0
  0
LINE
  5
14D
330
5E
100
AcDbEntity
  8
1
  6
Continuous
 62
     7
100
AcDbLine
 10
108.286713324672
 20
129.887011405985
 30
0.0
 11
107.2811598252069
 21
130.8925649054501
 31
0.0
  0
LINE
  5
14E
330
5E
100
AcDbEntity
  8
1
  6
Continuous
 62
     7
100
AcDbLine
 10
114.786713324672
 20
129.887011405985
 30
0.0
 11
108.286713324672
 21
129.887011405985
 31
0.0
  0
LINE
  5
14F
330
5E
100
AcDbEntity
  8
1
  6
Continuous
 62
     7
100
AcDbLine
 10
114.786713324672
 20
136.387011405985
 30
0.0
 11
107.2811598252069
 21
136.387011405985
 31
0.0
  0
ARC
  5
150
330
5E
100
AcDbEntity
  8
1
  6
Continuous
 62
     7
100
AcDbCircle
 10
120.4158784492709
 20
132.1404189995103
 30
0.0
 40
2.25343585961444
100
AcDbArc
 50
213.6250880666678
 51
303.6250880666651
  0
ARC
  5
151
330
5E
100
AcDbEntity
  8
1
  6
Continuous
 62
     7
100
AcDbCircle
 10
114.786713324672
 20
137.3925649054501
 30
0.0
 40
7.505553499465094
100
AcDbArc
 50
270.0
 51
300.0000000000002
  0
ARC
  5
152
330
5E
100
AcDbEntity
  8
1
  6
Continuous
 62
     7
100
AcDbCircle
 10
109.1575482000731
 20
132.1404189995103
 30
0.0
 40
2.25343585961437
100
AcDbArc
 50
236.3749119333349
 51
326.3749119333322
  0
ARC
  5
153
330
5E
100
AcDbEntity
  8
1
  6
Continuous
 62
     7
100
AcDbCircle
 10
114.786713324672
 20
137.3925649054501
 30
0.0
 40
7.505553499465146
100
AcDbArc
 50
239.9999999999998
 51
270.0
  0
ENDBLK
  5
60
330
5E
100
AcDbEntity
  8
0
100
AcDbBlockEnd
  0
BLOCK
  5
16F
330
168
100
AcDbEntity
  8
0
100
AcDbBlockBegin
  2
*D9
 70
     1
 10
0.0
 20
0.0
 30
0.0
  3
*D9
  1

  0
LINE
  5
169
330
168
100
AcDbEntity
  8
1
  6
Continuous
 62
     2
100
AcDbLine
 10
137.786713324672
 20
99.38701140598499
 30
0.0
 11
137.786713324672
 21
173.3905119766848
 31
0.0
  0
LINE
  5
16A
330
168
100
AcDbEntity
  8
1
  6
Continuous
 62
     2
100
AcDbLine
 10
114.786713324672
 20
173.3905119766848
 30
0.0
 11
138.786713324672
 21
173.3905119766848
 31
0.0
  0
LINE
  5
16B
330
168
100
AcDbEntity
  8
1
  6
Continuous
 62
     2
100
AcDbLine
 10
117.786713324672
 20
99.38701140598499
 30
0.0
 11
138.786713324672
 21
99.38701140598499
 31
0.0
  0
SOLID
  5
16C
330
168
100
AcDbEntity
  8
1
 62
     2
100
AcDbTrace
 10
137.3259295831161
 20
102.887011405985
 30
0.0
 11
138.2474970662279
 21
102.887011405985
 31
0.0
 12
137.786713324672
 22
99.38701140598499
 32
0.0
 13
137.786713324672
 23
99.38701140598499
 33
0.0
  0
SOLID
  5
16D
330
168
100
AcDbEntity
  8
1
 62
     2
100
AcDbTrace
 10
138.2474970662279
 20
169.8905119766848
 30
0.0
 11
137.3259295831161
 21
169.8905119766848
 31
0.0
 12
137.786713324672
 22
173.3905119766848
 32
0.0
 13
137.786713324672
 23
173.3905119766848
 33
0.0
  0
MTEXT
  5
16E
330
168
100
AcDbEntity
  8
1
 62
     7
100
AcDbMText
 10
136.786713324672
 20
134.5035242415965
 30
0.0
 40
3.5
 41
0.0
 71
     7
 72
     1
  1
74
  7
CONVERTER_12
 11
0.0
 21
1.0
 31
0.0
 73
     1
 44
0.60024009603842
  0
ENDBLK
  5
170
330
168
100
AcDbEntity
  8
0
100
AcDbBlockEnd
  0
BLOCK
  5
17A
330
173
100
AcDbEntity
  8
0
100
AcDbBlockBegin
  2
*D10
 70
     1
 10
0.0
 20
0.0
 30
0.0
  3
*D10
  1

  0
LINE
  5
174
330
173
100
AcDbEntity
  8
1
  6
Continuous
 62
     2
100
AcDbLine
 10
103.786713324672
 20
82.38701140598499
 30
0.0
 11
125.786713324672
 21
82.38701140598499
 31
0.0
  0
LINE
  5
175
330
173
100
AcDbEntity
  8
1
  6
Continuous
 62
     2
100
AcDbLine
 10
125.786713324672
 20
158.387011405985
 30
0.0
 11
125.786713324672
 21
81.38701140598499
 31
0.0
  0
LINE
  5
176
330
173
100
AcDbEntity
  8
1
  6
Continuous
 62
     2
100
AcDbLine
 10
103.786713324672
 20
158.387011405985
 30
0.0
 11
103.786713324672
 21
81.38701140598499
 31
0.0
  0
SOLID
  5
177
330
173
100
AcDbEntity
  8
1
 62
     2
100
AcDbTrace
 10
107.286713324672
 20
82.84779514754088
 30
0.0
 11
107.286713324672
 21
81.9262276644291
 31
0.0
 12
103.786713324672
 22
82.38701140598499
 32
0.0
 13
103.786713324672
 23
82.38701140598499
 33
0.0
  0
SOLID
  5
178
330
173
100
AcDbEntity
  8
1
 62
     2
100
AcDbTrace
 10
122.286713324672
 20
81.9262276644291
 30
0.0
 11
122.286713324672
 21
82.84779514754088
 31
0.0
 12
125.786713324672
 22
82.38701140598499
 32
0.0
 13
125.786713324672
 23
82.38701140598499
 33
0.0
  0
MTEXT
  5
179
330
173
100
AcDbEntity
  8
1
 62
     7
100
AcDbMText
 10
111.4040664623181
 20
83.38700444890867
 30
0.0
 40
3.5
 41
0.0
 71
     7
 72
     1
  1
\C7;{\Fgdt;n}\C7;22
  7
CONVERTER_12
 11
0.9999999999970619
 21
2.424068405545306E-6
 31
0.0
 73
     1
 44
0.60024009603842
  0
ENDBLK
  5
17B
330
173
100
AcDbEntity
  8
0
100
AcDbBlockEnd
  0
BLOCK
  5
185
330
17E
100
AcDbEntity
  8
0
100
AcDbBlockBegin
  2
*D11
 70
     1
 10
0.0
 20
0.0
 30
0.0
  3
*D11
  1

  0
LINE
  5
17F
330
17E
100
AcDbEntity
  8
1
  6
Continuous
 62
     2
100
AcDbLine
 10
100.786713324672
 20
192.3857411806765
 30
0.0
 11
128.786713324672
 21
192.3857411806765
 31
0.0
  0
LINE
  5
180
330
17E
100
AcDbEntity
  8
1
  6
Continuous
 62
     2
100
AcDbLine
 10
128.786713324672
 20
169.387011405985
 30
0.0
 11
128.786713324672
 21
193.3857411806765
 31
0.0
  0
LINE
  5
181
330
17E
100
AcDbEntity
  8
1
  6
Continuous
 62
     2
100
AcDbLine
 10
100.786713324672
 20
169.387011405985
 30
0.0
 11
100.786713324672
 21
193.3857411806765
 31
0.0
  0
SOLID
  5
182
330
17E
100
AcDbEntity
  8
1
 62
     2
100
AcDbTrace
 10
104.286713324672
 20
192.8465249222324
 30
0.0
 11
104.286713324672
 21
191.9249574391206
 31
0.0
 12
100.786713324672
 22
192.3857411806765
 32
0.0
 13
100.786713324672
 23
192.3857411806765
 33
0.0
  0
SOLID
  5
183
330
17E
100
AcDbEntity
  8
1
 62
     2
100
AcDbTrace
 10
125.286713324672
 20
191.9249574391206
 30
0.0
 11
125.286713324672
 21
192.8465249222324
 31
0.0
 12
128.786713324672
 22
192.3857411806765
 32
0.0
 13
128.786713324672
 23
192.3857411806765
 33
0.0
  0
MTEXT
  5
184
330
17E
100
AcDbEntity
  8
1
 62
     7
100
AcDbMText
 10
111.9267133246804
 20
193.3857342236002
 30
0.0
 40
3.5
 41
0.0
 71
     7
 72
     1
  1
\C7;{\Fgdt;n}\C7;28
  7
CONVERTER_12
 11
0.9999999999970619
 21
2.424068405545306E-6
 31
0.0
 73
     1
 44
0.60024009603842
  0
ENDBLK
  5
186
330
17E
100
AcDbEntity
  8
0
100
AcDbBlockEnd
  0
BLOCK
  5
190
330
189
100
AcDbEntity
  8
0
100
AcDbBlockBegin
  2
*D12
 70
     1
 10
0.0
 20
0.0
 30
0.0
  3
*D12
  1

  0
LINE
  5
18A
330
189
100
AcDbEntity
  8
1
  6
Continuous
 62
     2
100
AcDbLine
 10
104.536713324672
 20
184.3857411806765
 30
0.0
 11
125.036713324672
 21
184.3857411806765
 31
0.0
  0
LINE
  5
18B
330
189
100
AcDbEntity
  8
1
  6
Continuous
 62
     2
100
AcDbLine
 10
125.036713324672
 20
171.347011405985
 30
0.0
 11
125.036713324672
 21
185.3857411806765
 31
0.0
  0
LINE
  5
18C
330
189
100
AcDbEntity
  8
1
  6
Continuous
 62
     2
100
AcDbLine
 10
104.536713324672
 20
171.3470114059849
 30
0.0
 11
104.536713324672
 21
185.3857411806765
 31
0.0
  0
SOLID
  5
18D
330
189
100
AcDbEntity
  8
1
 62
     2
100
AcDbTrace
 10
108.036713324672
 20
184.8465249222324
 30
0.0
 11
108.036713324672
 21
183.9249574391206
 31
0.0
 12
104.536713324672
 22
184.3857411806765
 32
0.0
 13
104.536713324672
 23
184.3857411806765
 33
0.0
  0
SOLID
  5
18E
330
189
100
AcDbEntity
  8
1
 62
     2
100
AcDbTrace
 10
121.536713324672
 20
183.9249574391206
 30
0.0
 11
121.536713324672
 21
184.8465249222324
 31
0.0
 12
125.036713324672
 22
184.3857411806765
 32
0.0
 13
125.036713324672
 23
184.3857411806765
 33
0.0
  0
MTEXT
  5
18F
330
189
100
AcDbEntity
  8
1
 62
     7
100
AcDbMText
 10
112.4517133246804
 20
185.3857342236002
 30
0.0
 40
3.5
 41
0.0
 71
     7
 72
     1
  1
\C7;{\Fgdt;n}\C7;21
  7
CONVERTER_12
 11
0.9999999999970619
 21
2.424068405545306E-6
 31
0.0
 73
     1
 44
0.60024009603842
  0
ENDBLK
  5
191
330
189
100
AcDbEntity
  8
0
100
AcDbBlockEnd
  0
BLOCK
  5
19D
330
194
100
AcDbEntity
  8
0
100
AcDbBlockBegin
  2
*D13
 70
     1
 10
0.0
 20
0.0
 30
0.0
  3
*D13
  1

  0
LINE
  5
195
330
194
100
AcDbEntity
  8
1
  6
Continuous
 62
     2
100
AcDbLine
 10
117.786713324672
 20
90.38701140598499
 30
0.0
 11
124.786713324672
 21
90.38701140598499
 31
0.0
  0
LINE
  5
196
330
194
100
AcDbEntity
  8
1
  6
Continuous
 62
     2
100
AcDbLine
 10
111.786713324672
 20
90.38701140598499
 30
0.0
 11
117.786713324672
 21
90.38701140598499
 31
0.0
  0
LINE
  5
197
330
194
100
AcDbEntity
  8
1
  6
Continuous
 62
     2
100
AcDbLine
 10
104.786713324672
 20
90.38701140598499
 30
0.0
 11
111.786713324672
 21
90.38701140598499
 31
0.0
  0
LINE
  5
198
330
194
100
AcDbEntity
  8
1
  6
Continuous
 62
     2
100
AcDbLine
 10
117.786713324672
 20
99.38701140598499
 30
0.0
 11
117.786713324672
 21
89.38701140598499
 31
0.0
  0
LINE
  5
199
330
194
100
AcDbEntity
  8
1
  6
Continuous
 62
     2
100
AcDbLine
 10
111.786713324672
 20
99.38701140598499
 30
0.0
 11
111.786713324672
 21
89.38701140598499
 31
0.0
  0
SOLID
  5
19A
330
194
100
AcDbEntity
  8
1
 62
     2
100
AcDbTrace
 10
108.286713324672
 20
89.9262276644291
 30
0.0
 11
108.286713324672
 21
90.84779514754088
 31
0.0
 12
111.786713324672
 22
90.38701140598499
 32
0.0
 13
111.786713324672
 23
90.38701140598499
 33
0.0
  0
SOLID
  5
19B
330
194
100
AcDbEntity
  8
1
 62
     2
100
AcDbTrace
 10
121.286713324672
 20
90.84779514754088
 30
0.0
 11
121.286713324672
 21
89.9262276644291
 31
0.0
 12
117.786713324672
 22
90.38701140598499
 32
0.0
 13
117.786713324672
 23
90.38701140598499
 33
0.0
  0
MTEXT
  5
19C
330
194
100
AcDbEntity
  8
1
 62
     7
100
AcDbMText
 10
113.0922103920286
 20
91.38700444890867
 30
0.0
 40
3.5
 41
0.0
 71
     7
 72
     1
  1
\C7;{\Fgdt;n}\C7;6
  7
CONVERTER_12
 11
0.9999999999970619
 21
2.424068405545306E-6
 31
0.0
 73
     1
 44
0.60024009603842
  0
ENDBLK
  5
19E
330
194
100
AcDbEntity
  8
0
100
AcDbBlockEnd
  0
ENDSEC
  0
SECTION
  2
ENTITIES
  0
INSERT
  5
61
330
1F
100
AcDbEntity
  8
0
100
AcDbBlockReference
  2
開示A4枠
 10
0.0
 20
0.0
 30
0.0
  0
INSERT
  5
62
330
1F
100
AcDbEntity
  8
1
100
AcDbBlockReference
  2
R44-1
 10
104.286713324672
 20
71.8070337580651
 30
0.0
  0
INSERT
  5
63
330
1F
100
AcDbEntity
  8
1
100
AcDbBlockReference
  2
R44-2
 10
100.786713324672
 20
61.8070337580651
 30
0.0
  0
INSERT
  5
64
330
1F
100
AcDbEntity
  8
1
100
AcDbBlockReference
  2
R44-3__1
 10
103.786713324672
 20
158.387011405985
 30
0.0
  0
INSERT
  5
65
330
1F
100
AcDbEntity
  8
1
100
AcDbBlockReference
  2
R44-4
 10
107.8585100943965
 20
149.886381568716
 30
0.0
  0
INSERT
  5
66
330
1F
100
AcDbEntity
  8
1
100
AcDbBlockReference
  2
R44-3__2
 10
103.786713324672
 20
64.8070337580651
 30
0.0
  0
INSERT
  5
67
330
1F
100
AcDbEntity
  8
1
100
AcDbBlockReference
  2
R44-5
 10
107.2811598252069
 20
69.3070337580651
 30
0.0
  0
LINE
  5
154
330
1F
100
AcDbEntity
  8
1
  6
DASH_CENTER
 62
     2
100
AcDbLine
 10
114.786713324672
 20
204.387011405985
 30
0.0
 11
114.786713324672
 21
238.387011405985
 31
0.0
  0
LINE
  5
155
330
1F
100
AcDbEntity
  8
1
  6
DASH_CENTER
 62
     2
100
AcDbLine
 10
97.786713324672
 20
221.387011405985
 30
0.0
 11
131.786713324672
 21
221.387011405985
 31
0.0
  0
LINE
  5
156
330
1F
100
AcDbEntity
  8
1
  6
DASH_CENTER
 62
     2
100
AcDbLine
 10
114.786713324672
 20
176.387011405985
 30
0.0
 11
114.786713324672
 21
96.38701140598499
 31
0.0
  0
SOLID
  5
157
330
1F
100
AcDbEntity
  8
1
 62
     2
100
AcDbTrace
 10
109.4357637505102
 20
115.9016148464705
 30
0.0
 11
108.6376628988338
 21
116.3623985880264
 31
0.0
 12
110.786713324672
 22
119.163095630494
 32
0.0
 13
110.786713324672
 23
119.163095630494
 33
0.0
  0
LEADER
  5
158
330
1F
100
AcDbEntity
  8
1
  6
Continuous
 62
     2
100
AcDbLeader
  3
Standard
 71
     0
 76
     3
 10
110.786713324672
 20
119.163095630494
 30
0.0
 10
100.8825075351082
 20
102.0085079943516
 30
0.0
 10
81.8774875943237
 20
102.0085079943516
 30
0.0
  0
MTEXT
  5
15A
330
1F
100
AcDbEntity
  8
1
 62
     7
100
AcDbMText
 10
157.5000000000001
 20
12.5
 30
0.0
 40
2.5
 41
0.0
 71
     5
 72
     1
  1
2
  7
CONVERTER_12
 73
     1
 44
0.7202881152461
  0
MTEXT
  5
15B
330
1F
100
AcDbEntity
  8
1
 62
     7
100
AcDbMText
 10
151.7500000000001
 20
12.5
 30
0.0
 40
2.5
 41
0.0
 71
     5
 72
     1
  1
04
  7
CONVERTER_12
 73
     1
 44
0.7202881152461
  0
MTEXT
  5
15C
330
1F
100
AcDbEntity
  8
1
 62
     7
100
AcDbMText
 10
140.5000000000001
 20
12.5
 30
0.0
 40
2.5
 41
0.0
 71
     5
 72
     1
  1
2
  7
CONVERTER_12
 73
     1
 44
0.7202881152461
  0
MTEXT
  5
15D
330
1F
100
AcDbEntity
  8
1
 62
     7
100
AcDbMText
 10
134.7500000000001
 20
12.5
 30
0.0
 40
2.5
 41
0.0
 71
     5
 72
     1
  1
04
  7
CONVERTER_12
 73
     1
 44
0.7202881152461
  0
MTEXT
  5
15E
330
1F
100
AcDbEntity
  8
1
 62
     7
100
AcDbMText
 10
123.5000000000001
 20
12.5
 30
0.0
 40
2.5
 41
0.0
 71
     5
 72
     1
  1
2
  7
CONVERTER_12
 73
     1
 44
0.7202881152461
  0
MTEXT
  5
15F
330
1F
100
AcDbEntity
  8
1
 62
     7
100
AcDbMText
 10
117.7500000000001
 20
12.5
 30
0.0
 40
2.5
 41
0.0
 71
     5
 72
     1
  1
04
  7
CONVERTER_12
 73
     1
 44
0.7202881152461
  0
MTEXT
  5
160
330
1F
100
AcDbEntity
  8
1
 62
     7
100
AcDbMText
 10
100.75
 20
12.5
 30
0.0
 40
2.5
 41
0.0
 71
     5
 72
     1
  1
04
  7
CONVERTER_12
 73
     1
 44
0.7202881152461
  0
MTEXT
  5
161
330
1F
100
AcDbEntity
  8
1
 62
     7
100
AcDbMText
 10
106.5
 20
12.5
 30
0.0
 40
2.5
 41
0.0
 71
     5
 72
     1
  1
3
  7
CONVERTER_12
 73
     1
 44
0.7202881152461
  0
MTEXT
  5
162
330
1F
100
AcDbEntity
  8
1
 62
     7
100
AcDbMText
 10
90.6839508957896
 20
105.6043084153512
 30
0.0
 40
3.0
 41
0.0
 71
     5
 72
     1
  1
M8X1,25
  7
CONVERTER_12
 73
     1
 44
1.32052821128451
  0
MTEXT
  5
163
330
1F
100
AcDbEntity
  8
1
 62
     7
100
AcDbMText
 10
93.75000000000004
 20
17.0
 30
0.0
 40
3.5
 41
0.0
 71
     5
 72
     1
  1
1
  7
CONVERTER_12
 73
     1
 44
0.7202881152461
  0
MTEXT
  5
164
330
1F
100
AcDbEntity
  8
1
 62
     7
100
AcDbMText
 10
57.00000000000004
 20
14.25
 30
0.0
 40
3.5
 41
0.0
 71
     5
 72
     1
  1
R44
  7
CONVERTER_12
 73
     1
 44
0.7202881152461
  0
MTEXT
  5
165
330
1F
100
AcDbEntity
  8
1
 62
     7
100
AcDbMText
 10
57.00000000000004
 20
22.75000000000009
 30
0.0
 40
3.5
 41
0.0
 71
     5
 72
     1
  1
密結ロ-タンクボルト
  7
CONVERTER_11
 73
     1
 44
0.54545454545455
  0
MTEXT
  5
166
330
1F
100
AcDbEntity
  8
1
 62
     7
100
AcDbMText
 10
85.25000000000004
 20
17.0
 30
0.0
 40
3.5
 41
0.0
 71
     5
 72
     1
  1
1
  7
CONVERTER_12
 73
     1
 44
0.7202881152461
  0
MTEXT
  5
167
330
1F
100
AcDbEntity
  8
0
 62
     7
100
AcDbMText
 10
34.00000000000004
 20
34.0
 30
0.0
 40
3.5
 41
0.0
 71
     4
 72
     1
  1
2セット入
  7
CONVERTER_11
 73
     1
 44
0.63636363636364
  0
DIMENSION
  5
172
330
1F
100
AcDbEntity
  8
1
100
AcDbDimension
  2
*D9
 10
137.786713324672
 20
99.38701140598499
 30
0.0
 11
135.036713324672
 21
137.1285242415965
 31
0.0
 70
    32
  1
<>
 71
     5
 42
-1.0
 53
90.0
  3
ME10_DIM_10
100
AcDbAlignedDimension
 13
114.786713324672
 23
173.3905119766848
 33
0.0
 14
117.786713324672
 24
99.38701140598499
 34
0.0
 50
90.0
100
AcDbRotatedDimension
  0
DIMENSION
  5
17D
330
1F
100
AcDbEntity
  8
1
100
AcDbDimension
  2
*D10
 10
103.786713324672
 20
82.38701140598499
 30
0.0
 11
114.7990664623097
 21
85.13701140598499
 31
0.0
 70
    32
  1
<>
 71
     5
 42
-1.0
 53
0.00013888888889
  3
ME10_DIM_11
100
AcDbAlignedDimension
 13
125.786713324672
 23
158.387011405985
 33
0.0
 14
103.786713324672
 24
158.387011405985
 34
0.0
100
AcDbRotatedDimension
  0
DIMENSION
  5
188
330
1F
100
AcDbEntity
  8
1
100
AcDbDimension
  2
*D11
 10
100.786713324672
 20
192.3857411806765
 30
0.0
 11
115.321713324672
 21
195.1357411806765
 31
0.0
 70
    32
  1
<>
 71
     5
 42
-1.0
 53
0.00013888888889
  3
ME10_DIM_12
100
AcDbAlignedDimension
 13
128.786713324672
 23
169.387011405985
 33
0.0
 14
100.786713324672
 24
169.387011405985
 34
0.0
100
AcDbRotatedDimension
  0
DIMENSION
  5
193
330
1F
100
AcDbEntity
  8
1
100
AcDbDimension
  2
*D12
 10
104.536713324672
 20
184.3857411806765
 30
0.0
 11
115.321713324672
 21
187.1357411806765
 31
0.0
 70
    32
  1
{\Fgdt;n}21
 71
     5
 42
-1.0
 53
0.00013888888889
  3
ME10_DIM_13
100
AcDbAlignedDimension
 13
125.036713324672
 23
171.347011405985
 33
0.0
 14
104.536713324672
 24
171.347011405985
 34
0.0
100
AcDbRotatedDimension
  0
DIMENSION
  5
1A0
330
1F
100
AcDbEntity
  8
1
100
AcDbDimension
  2
*D13
 10
111.786713324672
 20
90.38701140598499
 30
0.0
 11
114.9122103920202
 21
93.13701140598499
 31
0.0
 70
    32
  1
<>
 71
     5
 42
-1.0
 53
0.00013888888889
  3
ME10_DIM_14
100
AcDbAlignedDimension
 13
117.786713324672
 23
99.38701140598499
 33
0.0
 14
111.786713324672
 24
99.38701140598499
 34
0.0
100
AcDbRotatedDimension
  0
ENDSEC
  0
SECTION
  2
OBJECTS
  0
DICTIONARY
  5
C
330
0
100
AcDbDictionary
281
     1
  3
ACAD_GROUP
350
D
  3
ACAD_LAYOUT
350
1A
  3
ACAD_MATERIAL
350
3B
  3
ACAD_MLEADERSTYLE
350
1A3
  3
ACAD_MLINESTYLE
350
17
  3
ACAD_PLOTSETTINGS
350
19
  3
ACAD_PLOTSTYLENAME
350
E
  3
ACAD_VISUALSTYLE
350
2A
  3
AcDbVariableDictionary
350
1A1
  0
DICTIONARY
  5
D
102
{ACAD_REACTORS
330
C
102
}
330
C
100
AcDbDictionary
281
     1
  0
DICTIONARY
  5
1A
102
{ACAD_REACTORS
330
C
102
}
330
C
100
AcDbDictionary
281
     1
  3
Layout1
350
1E
  3
Layout2
350
26
  3
Model
350
22
  0
DICTIONARY
  5
3B
102
{ACAD_REACTORS
330
C
102
}
330
C
100
AcDbDictionary
281
     1
  3
ByBlock
350
3D
  3
ByLayer
350
3C
  3
Global
350
3E
  0
DICTIONARY
  5
1A3
102
{ACAD_REACTORS
330
C
102
}
330
C
100
AcDbDictionary
281
     1
  0
DICTIONARY
  5
17
102
{ACAD_REACTORS
330
C
102
}
330
C
100
AcDbDictionary
281
     1
  3
Standard
350
18
  0
DICTIONARY
  5
19
102
{ACAD_REACTORS
330
C
102
}
330
C
100
AcDbDictionary
281
     1
  0
ACDBDICTIONARYWDFLT
  5
E
102
{ACAD_REACTORS
330
C
102
}
330
C
100
AcDbDictionary
281
     1
  3
Normal
350
F
100
AcDbDictionaryWithDefault
340
F
  0
DICTIONARY
  5
2A
102
{ACAD_REACTORS
330
C
102
}
330
C
100
AcDbDictionary
281
     1
  3
2dWireframe
350
2F
  3
3D Hidden
350
31
  3
3dWireframe
350
30
  3
Basic
350
32
  3
Brighten
350
36
  3
ColorChange
350
3A
  3
Conceptual
350
34
  3
Dim
350
35
  3
Facepattern
350
39
  3
Flat
350
2B
  3
FlatWithEdges
350
2C
  3
Gouraud
350
2D
  3
GouraudWithEdges
350
2E
  3
Linepattern
350
38
  3
Realistic
350
33
  3
Thicken
350
37
  0
DICTIONARY
  5
1A1
102
{ACAD_REACTORS
330
C
102
}
330
C
100
AcDbDictionary
281
     1
  3
DIMASSOC
350
1A4
  3
HIDETEXT
350
1A5
  0
LAYOUT
  5
1E
102
{ACAD_REACTORS
330
1A
102
}
330
1A
100
AcDbPlotSettings
  1

  2
none_device
  4

  6

 40
0.0
 41
0.0
 42
0.0
 43
0.0
 44
0.0
 45
0.0
 46
0.0
 47
0.0
 48
0.0
 49
0.0
140
0.0
141
0.0
142
1.0
143
1.0
 70
   688
 72
     0
 73
     0
 74
     5
  7

 75
    16
147
1.0
148
0.0
149
0.0
100
AcDbLayout
  1
Layout1
 70
     1
 71
     1
 10
0.0
 20
0.0
 11
12.0
 21
9.0
 12
0.0
 22
0.0
 32
0.0
 14
1.00000000000000E+20
 24
1.00000000000000E+20
 34
1.00000000000000E+20
 15
-1.00000000000000E+20
 25
-1.00000000000000E+20
 35
-1.00000000000000E+20
146
0.0
 13
0.0
 23
0.0
 33
0.0
 16
1.0
 26
0.0
 36
0.0
 17
0.0
 27
1.0
 37
0.0
 76
     0
330
1B
  0
LAYOUT
  5
26
102
{ACAD_REACTORS
330
1A
102
}
330
1A
100
AcDbPlotSettings
  1

  2
none_device
  4

  6

 40
0.0
 41
0.0
 42
0.0
 43
0.0
 44
0.0
 45
0.0
 46
0.0
 47
0.0
 48
0.0
 49
0.0
140
0.0
141
0.0
142
1.0
143
1.0
 70
   688
 72
     0
 73
     0
 74
     5
  7

 75
    16
147
1.0
148
0.0
149
0.0
100
AcDbLayout
  1
Layout2
 70
     1
 71
     2
 10
0.0
 20
0.0
 11
0.0
 21
0.0
 12
0.0
 22
0.0
 32
0.0
 14
0.0
 24
0.0
 34
0.0
 15
0.0
 25
0.0
 35
0.0
146
0.0
 13
0.0
 23
0.0
 33
0.0
 16
1.0
 26
0.0
 36
0.0
 17
0.0
 27
1.0
 37
0.0
 76
     0
330
23
  0
LAYOUT
  5
22
102
{ACAD_REACTORS
330
1A
102
}
330
1A
100
AcDbPlotSettings
  1

  2
none_device
  4

  6

 40
0.0
 41
0.0
 42
0.0
 43
0.0
 44
0.0
 45
0.0
 46
0.0
 47
0.0
 48
0.0
 49
0.0
140
0.0
141
0.0
142
1.0
143
1.0
 70
  1712
 72
     0
 73
     0
 74
     0
  7

 75
     0
147
1.0
148
0.0
149
0.0
100
AcDbLayout
  1
Model
 70
     1
 71
     0
 10
0.0
 20
0.0
 11
12.0
 21
9.0
 12
0.0
 22
0.0
 32
0.0
 14
0.0
 24
0.0
 34
0.0
 15
210.0000000000001
 25
297.0
 35
0.0
146
0.0
 13
0.0
 23
0.0
 33
0.0
 16
1.0
 26
0.0
 36
0.0
 17
0.0
 27
1.0
 37
0.0
 76
     0
330
1F
331
29
  0
MATERIAL
  5
3D
102
{ACAD_REACTORS
330
3B
102
}
102
{ACAD_XDICTIONARY
360
1C8
102
}
330
3B
100
AcDbMaterial
  1
ByBlock
  0
MATERIAL
  5
3C
102
{ACAD_REACTORS
330
3B
102
}
102
{ACAD_XDICTIONARY
360
1C6
102
}
330
3B
100
AcDbMaterial
  1
ByLayer
  0
MATERIAL
  5
3E
102
{ACAD_REACTORS
330
3B
102
}
102
{ACAD_XDICTIONARY
360
1CA
102
}
330
3B
100
AcDbMaterial
  1
Global
  0
MLINESTYLE
  5
18
102
{ACAD_REACTORS
330
17
102
}
330
17
100
AcDbMlineStyle
  2
Standard
 70
     0
  3

 62
   256
 51
90.0
 52
90.0
 71
     2
 49
0.5
 62
   256
  6
BYLAYER
 49
-0.5
 62
   256
  6
BYLAYER
  0
ACDBPLACEHOLDER
  5
F
102
{ACAD_REACTORS
330
E
102
}
330
E
  0
VISUALSTYLE
  5
2F
102
{ACAD_REACTORS
330
2A
102
}
102
{ACAD_XDICTIONARY
360
1AE
102
}
330
2A
100
AcDbVisualStyle
  2
2dWireframe
 70
     4
 71
     0
 72
     2
 73
     0
 90
        0
 40
-0.6
 41
-30.0
 62
     5
 63
     7
 74
     1
 91
        4
 64
     7
 65
   257
 75
     1
175
     1
 42
1.0
 92
        0
 66
   257
 43
1.0
 76
     1
 77
     6
 78
     2
 67
     7
 79
     5
170
     0
171
     0
290
     0
174
     0
 93
        1
 44
0.0
173
     0
291
     0
 45
0.0
1001
ACAD
1000
AcDbSavedByObjectVersion
1070
     0
  0
VISUALSTYLE
  5
31
102
{ACAD_REACTORS
330
2A
102
}
102
{ACAD_XDICTIONARY
360
1B2
102
}
330
2A
100
AcDbVisualStyle
  2
3D Hidden
 70
     6
 71
     1
 72
     2
 73
     2
 90
        0
 40
-0.6
 41
-30.0
 62
     5
 63
     7
 74
     2
 91
        2
 64
     7
 65
   257
 75
     2
175
     1
 42
40.0
 92
        0
 66
   257
 43
1.0
 76
     1
 77
     6
 78
     2
 67
     7
 79
     3
170
     0
171
     0
290
     0
174
     0
 93
        1
 44
0.0
173
     0
291
     0
 45
0.0
1001
ACAD
1000
AcDbSavedByObjectVersion
1070
     0
  0
VISUALSTYLE
  5
30
102
{ACAD_REACTORS
330
2A
102
}
102
{ACAD_XDICTIONARY
360
1B0
102
}
330
2A
100
AcDbVisualStyle
  2
3dWireframe
 70
     5
 71
     0
 72
     2
 73
     0
 90
        0
 40
-0.6
 41
-30.0
 62
     5
 63
     7
 74
     1
 91
        4
 64
     7
 65
   257
 75
     1
175
     1
 42
1.0
 92
        0
 66
   257
 43
1.0
 76
     1
 77
     6
 78
     2
 67
     7
 79
     5
170
     0
171
     0
290
     0
174
     0
 93
        1
 44
0.0
173
     0
291
     0
 45
0.0
1001
ACAD
1000
AcDbSavedByObjectVersion
1070
     0
  0
VISUALSTYLE
  5
32
102
{ACAD_REACTORS
330
2A
102
}
102
{ACAD_XDICTIONARY
360
1B4
102
}
330
2A
100
AcDbVisualStyle
  2
Basic
 70
     7
 71
     1
 72
     0
 73
     1
 90
        0
 40
-0.6
 41
-30.0
 62
     5
 63
     7
 74
     0
 91
        4
 64
     7
 65
   257
 75
     1
175
     1
 42
1.0
 92
        8
 66
     7
 43
1.0
 76
     1
 77
     6
 78
     2
 67
     7
 79
     5
170
     0
171
     0
290
     0
174
     0
 93
        1
 44
0.0
173
     0
291
     1
 45
0.0
1001
ACAD
1000
AcDbSavedByObjectVersion
1070
     0
  0
VISUALSTYLE
  5
36
102
{ACAD_REACTORS
330
2A
102
}
102
{ACAD_XDICTIONARY
360
1BC
102
}
330
2A
100
AcDbVisualStyle
  2
Brighten
 70
    12
 71
     2
 72
     2
 73
     0
 90
        0
 40
-0.6
 41
-30.0
 62
     5
 63
     7
 74
     1
 91
        4
 64
     7
 65
   257
 75
     1
175
     1
 42
1.0
 92
        8
 66
     7
 43
1.0
 76
     1
 77
     6
 78
     2
 67
     7
 79
     5
170
     0
171
     0
290
     0
174
     0
 93
        1
 44
50.0
173
     0
291
     1
 45
0.0
1001
ACAD
1000
AcDbSavedByObjectVersion
1070
     0
  0
VISUALSTYLE
  5
3A
102
{ACAD_REACTORS
330
2A
102
}
102
{ACAD_XDICTIONARY
360
1C4
102
}
330
2A
100
AcDbVisualStyle
  2
ColorChange
 70
    16
 71
     2
 72
     2
 73
     3
 90
        0
 40
-0.6
 41
-30.0
 62
     5
 63
     8
 74
     1
 91
        4
 64
     7
 65
   257
 75
     1
175
     1
 42
1.0
 92
        8
 66
     8
 43
1.0
 76
     1
 77
     6
 78
     2
 67
     7
 79
     5
170
     0
171
     0
290
     0
174
     0
 93
        1
 44
0.0
173
     0
291
     1
 45
0.0
1001
ACAD
1000
AcDbSavedByObjectVersion
1070
     0
  0
VISUALSTYLE
  5
34
102
{ACAD_REACTORS
330
2A
102
}
102
{ACAD_XDICTIONARY
360
1B8
102
}
330
2A
100
AcDbVisualStyle
  2
Conceptual
 70
     9
 71
     3
 72
     2
 73
     0
 90
        0
 40
-0.6
 41
-30.0
 62
     5
 63
     7
 74
     2
 91
        2
 64
     7
 65
   257
 75
     1
175
     1
 42
40.0
 92
        8
 66
     7
 43
1.0
 76
     1
 77
     6
 78
     2
 67
     7
 79
     3
170
     0
171
     0
290
     0
174
     0
 93
        1
 44
0.0
173
     0
291
     0
 45
0.0
1001
ACAD
1000
AcDbSavedByObjectVersion
1070
     0
  0
VISUALSTYLE
  5
35
102
{ACAD_REACTORS
330
2A
102
}
102
{ACAD_XDICTIONARY
360
1BA
102
}
330
2A
100
AcDbVisualStyle
  2
Dim
 70
    11
 71
     2
 72
     2
 73
     0
 90
        0
 40
-0.6
 41
-30.0
 62
     5
 63
     7
 74
     1
 91
        4
 64
     7
 65
   257
 75
     1
175
     1
 42
1.0
 92
        8
 66
     7
 43
1.0
 76
     1
 77
     6
 78
     2
 67
     7
 79
     5
170
     0
171
     0
290
     0
174
     0
 93
        1
 44
-50.0
173
     0
291
     1
 45
0.0
1001
ACAD
1000
AcDbSavedByObjectVersion
1070
     0
  0
VISUALSTYLE
  5
39
102
{ACAD_REACTORS
330
2A
102
}
102
{ACAD_XDICTIONARY
360
1C2
102
}
330
2A
100
AcDbVisualStyle
  2
Facepattern
 70
    15
 71
     2
 72
     2
 73
     0
 90
        0
 40
-0.6
 41
-30.0
 62
     5
 63
     7
 74
     1
 91
        4
 64
     7
 65
   257
 75
     1
175
     1
 42
1.0
 92
        8
 66
     7
 43
1.0
 76
     1
 77
     6
 78
     2
 67
     7
 79
     5
170
     0
171
     0
290
     0
174
     0
 93
        1
 44
0.0
173
     0
291
     1
 45
0.0
1001
ACAD
1000
AcDbSavedByObjectVersion
1070
     0
  0
VISUALSTYLE
  5
2B
102
{ACAD_REACTORS
330
2A
102
}
102
{ACAD_XDICTIONARY
360
1A6
102
}
330
2A
100
AcDbVisualStyle
  2
Flat
 70
     0
 71
     2
 72
     1
 73
     1
 90
        2
 40
-0.6
 41
30.0
 62
     5
 63
     7
 74
     0
 91
        4
 64
     7
 65
   257
 75
     1
175
     1
 42
1.0
 92
        8
 66
     7
 43
1.0
 76
     1
 77
     6
 78
     2
 67
     7
 79
     5
170
     0
171
     0
290
     0
174
     0
 93
       13
 44
0.0
173
     0
291
     1
 45
0.0
1001
ACAD
1000
AcDbSavedByObjectVersion
1070
     0
  0
VISUALSTYLE
  5
2C
102
{ACAD_REACTORS
330
2A
102
}
102
{ACAD_XDICTIONARY
360
1A8
102
}
330
2A
100
AcDbVisualStyle
  2
FlatWithEdges
 70
     1
 71
     2
 72
     1
 73
     1
 90
        2
 40
-0.6
 41
30.0
 62
     5
 63
     7
 74
     1
 91
        4
 64
     7
 65
   257
 75
     1
175
     1
 42
1.0
 92
        0
 66
   257
 43
1.0
 76
     1
 77
     6
 78
     2
 67
     7
 79
     5
170
     0
171
     0
290
     0
174
     0
 93
       13
 44
0.0
173
     0
291
     1
 45
0.0
1001
ACAD
1000
AcDbSavedByObjectVersion
1070
     0
  0
VISUALSTYLE
  5
2D
102
{ACAD_REACTORS
330
2A
102
}
102
{ACAD_XDICTIONARY
360
1AA
102
}
330
2A
100
AcDbVisualStyle
  2
Gouraud
 70
     2
 71
     2
 72
     2
 73
     1
 90
        2
 40
-0.6
 41
30.0
 62
     5
 63
     7
 74
     0
 91
        4
 64
     7
 65
   257
 75
     1
175
     1
 42
1.0
 92
        0
 66
     7
 43
1.0
 76
     1
 77
     6
 78
     2
 67
     7
 79
     5
170
     0
171
     0
290
     0
174
     0
 93
       13
 44
0.0
173
     0
291
     1
 45
0.0
1001
ACAD
1000
AcDbSavedByObjectVersion
1070
     0
  0
VISUALSTYLE
  5
2E
102
{ACAD_REACTORS
330
2A
102
}
102
{ACAD_XDICTIONARY
360
1AC
102
}
330
2A
100
AcDbVisualStyle
  2
GouraudWithEdges
 70
     3
 71
     2
 72
     2
 73
     1
 90
        2
 40
-0.6
 41
30.0
 62
     5
 63
     7
 74
     1
 91
        4
 64
     7
 65
   257
 75
     1
175
     1
 42
1.0
 92
        0
 66
   257
 43
1.0
 76
     1
 77
     6
 78
     2
 67
     7
 79
     5
170
     0
171
     0
290
     0
174
     0
 93
       13
 44
0.0
173
     0
291
     1
 45
0.0
1001
ACAD
1000
AcDbSavedByObjectVersion
1070
     0
  0
VISUALSTYLE
  5
38
102
{ACAD_REACTORS
330
2A
102
}
102
{ACAD_XDICTIONARY
360
1C0
102
}
330
2A
100
AcDbVisualStyle
  2
Linepattern
 70
    14
 71
     2
 72
     2
 73
     0
 90
        0
 40
-0.6
 41
-30.0
 62
     5
 63
     7
 74
     1
 91
        4
 64
     7
 65
   257
 75
     7
175
     7
 42
1.0
 92
        8
 66
     7
 43
1.0
 76
     1
 77
     6
 78
     2
 67
     7
 79
     5
170
     0
171
     0
290
     0
174
     0
 93
        1
 44
0.0
173
     0
291
     1
 45
0.0
1001
ACAD
1000
AcDbSavedByObjectVersion
1070
     0
  0
VISUALSTYLE
  5
33
102
{ACAD_REACTORS
330
2A
102
}
102
{ACAD_XDICTIONARY
360
1B6
102
}
330
2A
100
AcDbVisualStyle
  2
Realistic
 70
     8
 71
     2
 72
     2
 73
     0
 90
        0
 40
-0.6
 41
-30.0
 62
     5
 63
     7
 74
     1
 91
        0
 64
     7
 65
   257
 75
     1
175
     1
 42
1.0
 92
        8
 66
     8
 43
1.0
 76
     1
 77
     6
 78
     2
 67
     7
 79
     5
170
     0
171
     0
290
     0
174
     0
 93
       13
 44
0.0
173
     0
291
     0
 45
0.0
1001
ACAD
1000
AcDbSavedByObjectVersion
1070
     0
  0
VISUALSTYLE
  5
37
102
{ACAD_REACTORS
330
2A
102
}
102
{ACAD_XDICTIONARY
360
1BE
102
}
330
2A
100
AcDbVisualStyle
  2
Thicken
 70
    13
 71
     2
 72
     2
 73
     0
 90
        0
 40
-0.6
 41
-30.0
 62
     5
 63
     7
 74
     1
 91
        4
 64
     7
 65
   257
 75
     1
175
     1
 42
1.0
 92
       12
 66
     7
 43
1.0
 76
     1
 77
     6
 78
     2
 67
     7
 79
     5
170
     0
171
     0
290
     0
174
     0
 93
        1
 44
0.0
173
     0
291
     1
 45
0.0
1001
ACAD
1000
AcDbSavedByObjectVersion
1070
     0
  0
DICTIONARYVAR
  5
1A4
102
{ACAD_REACTORS
330
1A1
102
}
330
1A1
100
DictionaryVariables
280
     0
  1
2
  0
DICTIONARYVAR
  5
1A5
102
{ACAD_REACTORS
330
1A1
102
}
330
1A1
100
DictionaryVariables
280
     0
  1
1
  0
DICTIONARY
  5
1C8
330
3D
100
AcDbDictionary
280
     1
281
     1
  3
ACAD_XREC_ROUNDTRIP
360
1C9
  0
DICTIONARY
  5
1C6
330
3C
100
AcDbDictionary
280
     1
281
     1
  3
ACAD_XREC_ROUNDTRIP
360
1C7
  0
DICTIONARY
  5
1CA
330
3E
100
AcDbDictionary
280
     1
281
     1
  3
ACAD_XREC_ROUNDTRIP
360
1CB
  0
DICTIONARY
  5
1AE
330
2F
100
AcDbDictionary
280
     1
281
     1
  3
ACAD_XREC_ROUNDTRIP
360
1AF
  0
DICTIONARY
  5
1B2
330
31
100
AcDbDictionary
280
     1
281
     1
  3
ACAD_XREC_ROUNDTRIP
360
1B3
  0
DICTIONARY
  5
1B0
330
30
100
AcDbDictionary
280
     1
281
     1
  3
ACAD_XREC_ROUNDTRIP
360
1B1
  0
DICTIONARY
  5
1B4
330
32
100
AcDbDictionary
280
     1
281
     1
  3
ACAD_XREC_ROUNDTRIP
360
1B5
  0
DICTIONARY
  5
1BC
330
36
100
AcDbDictionary
280
     1
281
     1
  3
ACAD_XREC_ROUNDTRIP
360
1BD
  0
DICTIONARY
  5
1C4
330
3A
100
AcDbDictionary
280
     1
281
     1
  3
ACAD_XREC_ROUNDTRIP
360
1C5
  0
DICTIONARY
  5
1B8
330
34
100
AcDbDictionary
280
     1
281
     1
  3
ACAD_XREC_ROUNDTRIP
360
1B9
  0
DICTIONARY
  5
1BA
330
35
100
AcDbDictionary
280
     1
281
     1
  3
ACAD_XREC_ROUNDTRIP
360
1BB
  0
DICTIONARY
  5
1C2
330
39
100
AcDbDictionary
280
     1
281
     1
  3
ACAD_XREC_ROUNDTRIP
360
1C3
  0
DICTIONARY
  5
1A6
330
2B
100
AcDbDictionary
280
     1
281
     1
  3
ACAD_XREC_ROUNDTRIP
360
1A7
  0
DICTIONARY
  5
1A8
330
2C
100
AcDbDictionary
280
     1
281
     1
  3
ACAD_XREC_ROUNDTRIP
360
1A9
  0
DICTIONARY
  5
1AA
330
2D
100
AcDbDictionary
280
     1
281
     1
  3
ACAD_XREC_ROUNDTRIP
360
1AB
  0
DICTIONARY
  5
1AC
330
2E
100
AcDbDictionary
280
     1
281
     1
  3
ACAD_XREC_ROUNDTRIP
360
1AD
  0
DICTIONARY
  5
1C0
330
38
100
AcDbDictionary
280
     1
281
     1
  3
ACAD_XREC_ROUNDTRIP
360
1C1
  0
DICTIONARY
  5
1B6
330
33
100
AcDbDictionary
280
     1
281
     1
  3
ACAD_XREC_ROUNDTRIP
360
1B7
  0
DICTIONARY
  5
1BE
330
37
100
AcDbDictionary
280
     1
281
     1
  3
ACAD_XREC_ROUNDTRIP
360
1BF
  0
XRECORD
  5
1C9
102
{ACAD_REACTORS
330
1C8
102
}
330
1C8
100
AcDbXrecord
280
     1
102
MATERIAL
148
0.0
149
0.0
149
0.0
 93
        0
 94
      127
282
     0
 72
     1
 77
     1
171
     1
175
     1
179
     1
273
     0
  0
XRECORD
  5
1C7
102
{ACAD_REACTORS
330
1C6
102
}
330
1C6
100
AcDbXrecord
280
     1
102
MATERIAL
148
0.0
149
0.0
149
0.0
 93
        0
 94
      127
282
     0
 72
     1
 77
     1
171
     1
175
     1
179
     1
273
     0
  0
XRECORD
  5
1CB
102
{ACAD_REACTORS
330
1CA
102
}
330
1CA
100
AcDbXrecord
280
     1
102
MATERIAL
148
0.0
149
0.0
149
0.0
 93
        0
 94
      127
282
     0
 72
     1
 77
     1
171
     1
175
     1
179
     1
273
     0
  0
XRECORD
  5
1AF
102
{ACAD_REACTORS
330
1AE
102
}
330
1AE
100
AcDbXrecord
280
     1
102
RTVSPropertyOp0
 70
     1
102
RTVSPropertyOp1
 70
     1
102
RTVSPropertyOp2
 70
     1
102
RTVSPropertyOp3
 70
     1
102
RTVSPropertyOp4
 70
     1
102
RTVSPropertyOp5
 70
     1
102
RTVSPropertyOp6
 70
     1
102
RTVSPropertyOp7
 70
     1
102
RTVSPropertyOp8
 70
     1
102
RTVSPropertyOp9
 70
     1
102
RTVSPropertyOp10
 70
     1
102
RTVSPropertyOp11
 70
     1
102
RTVSPropertyOp12
 70
     1
102
RTVSPropertyOp13
 70
     1
102
RTVSPropertyOp14
 70
     1
102
RTVSPropertyOp15
 70
     1
102
RTVSPropertyOp16
 70
     1
102
RTVSPropertyOp17
 70
     1
102
RTVSPropertyOp18
 70
     1
102
RTVSPropertyOp19
 70
     1
102
RTVSPropertyOp20
 70
     1
102
RTVSPropertyOp21
 70
     1
102
RTVSPropertyOp22
 70
     1
102
RTVSPropertyOp23
 70
     1
102
RTVSPropertyOp24
 70
     1
102
RTVSPropertyOp25
 70
     1
102
RTVSPropertyOp26
 70
     1
102
RTVSPropertyOp27
 70
     1
102
RTVSPropertyOp28
 70
     1
102
RTVSPropertyOp29
 70
     1
102
RTVSPropertyOp30
 70
     1
102
RTVSPropertyOp31
 70
     1
102
RTVSPropertyOp32
 70
     1
  0
XRECORD
  5
1B3
102
{ACAD_REACTORS
330
1B2
102
}
330
1B2
100
AcDbXrecord
280
     1
102
RTVSPropertyOp0
 70
     1
102
RTVSPropertyOp1
 70
     1
102
RTVSPropertyOp2
 70
     1
102
RTVSPropertyOp3
 70
     1
102
RTVSPropertyOp4
 70
     1
102
RTVSPropertyOp5
 70
     1
102
RTVSPropertyOp6
 70
     1
102
RTVSPropertyOp7
 70
     1
102
RTVSPropertyOp8
 70
     1
102
RTVSPropertyOp9
 70
     1
102
RTVSPropertyOp10
 70
     1
102
RTVSPropertyOp11
 70
     1
102
RTVSPropertyOp12
 70
     1
102
RTVSPropertyOp13
 70
     1
102
RTVSPropertyOp14
 70
     1
102
RTVSPropertyOp15
 70
     1
102
RTVSPropertyOp16
 70
     1
102
RTVSPropertyOp17
 70
     1
102
RTVSPropertyOp18
 70
     1
102
RTVSPropertyOp19
 70
     1
102
RTVSPropertyOp20
 70
     1
102
RTVSPropertyOp21
 70
     1
102
RTVSPropertyOp22
 70
     1
102
RTVSPropertyOp23
 70
     1
102
RTVSPropertyOp24
 70
     1
102
RTVSPropertyOp25
 70
     1
102
RTVSPropertyOp26
 70
     1
102
RTVSPropertyOp27
 70
     1
102
RTVSPropertyOp28
 70
     1
102
RTVSPropertyOp29
 70
     1
102
RTVSPropertyOp30
 70
     1
102
RTVSPropertyOp31
 70
     1
102
RTVSPropertyOp32
 70
     1
  0
XRECORD
  5
1B1
102
{ACAD_REACTORS
330
1B0
102
}
330
1B0
100
AcDbXrecord
280
     1
102
RTVSPropertyOp0
 70
     1
102
RTVSPropertyOp1
 70
     1
102
RTVSPropertyOp2
 70
     1
102
RTVSPropertyOp3
 70
     1
102
RTVSPropertyOp4
 70
     1
102
RTVSPropertyOp5
 70
     1
102
RTVSPropertyOp6
 70
     1
102
RTVSPropertyOp7
 70
     1
102
RTVSPropertyOp8
 70
     1
102
RTVSPropertyOp9
 70
     1
102
RTVSPropertyOp10
 70
     1
102
RTVSPropertyOp11
 70
     1
102
RTVSPropertyOp12
 70
     1
102
RTVSPropertyOp13
 70
     1
102
RTVSPropertyOp14
 70
     1
102
RTVSPropertyOp15
 70
     1
102
RTVSPropertyOp16
 70
     1
102
RTVSPropertyOp17
 70
     1
102
RTVSPropertyOp18
 70
     1
102
RTVSPropertyOp19
 70
     1
102
RTVSPropertyOp20
 70
     1
102
RTVSPropertyOp21
 70
     1
102
RTVSPropertyOp22
 70
     1
102
RTVSPropertyOp23
 70
     1
102
RTVSPropertyOp24
 70
     1
102
RTVSPropertyOp25
 70
     1
102
RTVSPropertyOp26
 70
     1
102
RTVSPropertyOp27
 70
     1
102
RTVSPropertyOp28
 70
     1
102
RTVSPropertyOp29
 70
     1
102
RTVSPropertyOp30
 70
     1
102
RTVSPropertyOp31
 70
     1
102
RTVSPropertyOp32
 70
     1
  0
XRECORD
  5
1B5
102
{ACAD_REACTORS
330
1B4
102
}
330
1B4
100
AcDbXrecord
280
     1
102
RTVSPropertyOp0
 70
     1
102
RTVSPropertyOp1
 70
     1
102
RTVSPropertyOp2
 70
     1
102
RTVSPropertyOp3
 70
     1
102
RTVSPropertyOp4
 70
     1
102
RTVSPropertyOp5
 70
     1
102
RTVSPropertyOp6
 70
     1
102
RTVSPropertyOp7
 70
     1
102
RTVSPropertyOp8
 70
     1
102
RTVSPropertyOp9
 70
     1
102
RTVSPropertyOp10
 70
     1
102
RTVSPropertyOp11
 70
     1
102
RTVSPropertyOp12
 70
     1
102
RTVSPropertyOp13
 70
     1
102
RTVSPropertyOp14
 70
     1
102
RTVSPropertyOp15
 70
     1
102
RTVSPropertyOp16
 70
     1
102
RTVSPropertyOp17
 70
     1
102
RTVSPropertyOp18
 70
     1
102
RTVSPropertyOp19
 70
     1
102
RTVSPropertyOp20
 70
     1
102
RTVSPropertyOp21
 70
     1
102
RTVSPropertyOp22
 70
     1
102
RTVSPropertyOp23
 70
     1
102
RTVSPropertyOp24
 70
     1
102
RTVSPropertyOp25
 70
     1
102
RTVSPropertyOp26
 70
     1
102
RTVSPropertyOp27
 70
     1
102
RTVSPropertyOp28
 70
     1
102
RTVSPropertyOp29
 70
     1
102
RTVSPropertyOp30
 70
     1
102
RTVSPropertyOp31
 70
     1
102
RTVSPropertyOp32
 70
     1
  0
XRECORD
  5
1BD
102
{ACAD_REACTORS
330
1BC
102
}
330
1BC
100
AcDbXrecord
280
     1
102
RTVSPropertyOp0
 70
     1
102
RTVSPropertyOp1
 70
     1
102
RTVSPropertyOp2
 70
     1
102
RTVSPropertyOp3
 70
     1
102
RTVSPropertyOp4
 70
     1
102
RTVSPropertyOp5
 70
     1
102
RTVSPropertyOp6
 70
     1
102
RTVSPropertyOp7
 70
     1
102
RTVSPropertyOp8
 70
     1
102
RTVSPropertyOp9
 70
     1
102
RTVSPropertyOp10
 70
     1
102
RTVSPropertyOp11
 70
     1
102
RTVSPropertyOp12
 70
     1
102
RTVSPropertyOp13
 70
     1
102
RTVSPropertyOp14
 70
     1
102
RTVSPropertyOp15
 70
     1
102
RTVSPropertyOp16
 70
     1
102
RTVSPropertyOp17
 70
     1
102
RTVSPropertyOp18
 70
     1
102
RTVSPropertyOp19
 70
     1
102
RTVSPropertyOp20
 70
     1
102
RTVSPropertyOp21
 70
     1
102
RTVSPropertyOp22
 70
     1
102
RTVSPropertyOp23
 70
     1
102
RTVSPropertyOp24
 70
     1
102
RTVSPropertyOp25
 70
     1
102
RTVSPropertyOp26
 70
     1
102
RTVSPropertyOp27
 70
     1
102
RTVSPropertyOp28
 70
     1
102
RTVSPropertyOp29
 70
     1
102
RTVSPropertyOp30
 70
     1
102
RTVSPropertyOp31
 70
     1
102
RTVSPropertyOp32
 70
     1
  0
XRECORD
  5
1C5
102
{ACAD_REACTORS
330
1C4
102
}
330
1C4
100
AcDbXrecord
280
     1
102
RTVSPropertyOp0
 70
     1
102
RTVSPropertyOp1
 70
     1
102
RTVSPropertyOp2
 70
     1
102
RTVSPropertyOp3
 70
     1
102
RTVSPropertyOp4
 70
     1
102
RTVSPropertyOp5
 70
     1
102
RTVSPropertyOp6
 70
     1
102
RTVSPropertyOp7
 70
     1
102
RTVSPropertyOp8
 70
     1
102
RTVSPropertyOp9
 70
     1
102
RTVSPropertyOp10
 70
     1
102
RTVSPropertyOp11
 70
     1
102
RTVSPropertyOp12
 70
     1
102
RTVSPropertyOp13
 70
     1
102
RTVSPropertyOp14
 70
     1
102
RTVSPropertyOp15
 70
     1
102
RTVSPropertyOp16
 70
     1
102
RTVSPropertyOp17
 70
     1
102
RTVSPropertyOp18
 70
     1
102
RTVSPropertyOp19
 70
     1
102
RTVSPropertyOp20
 70
     1
102
RTVSPropertyOp21
 70
     1
102
RTVSPropertyOp22
 70
     1
102
RTVSPropertyOp23
 70
     1
102
RTVSPropertyOp24
 70
     1
102
RTVSPropertyOp25
 70
     1
102
RTVSPropertyOp26
 70
     1
102
RTVSPropertyOp27
 70
     1
102
RTVSPropertyOp28
 70
     1
102
RTVSPropertyOp29
 70
     1
102
RTVSPropertyOp30
 70
     1
102
RTVSPropertyOp31
 70
     1
102
RTVSPropertyOp32
 70
     1
  0
XRECORD
  5
1B9
102
{ACAD_REACTORS
330
1B8
102
}
330
1B8
100
AcDbXrecord
280
     1
102
RTVSPropertyOp0
 70
     1
102
RTVSPropertyOp1
 70
     1
102
RTVSPropertyOp2
 70
     1
102
RTVSPropertyOp3
 70
     1
102
RTVSPropertyOp4
 70
     1
102
RTVSPropertyOp5
 70
     1
102
RTVSPropertyOp6
 70
     1
102
RTVSPropertyOp7
 70
     1
102
RTVSPropertyOp8
 70
     1
102
RTVSPropertyOp9
 70
     1
102
RTVSPropertyOp10
 70
     1
102
RTVSPropertyOp11
 70
     1
102
RTVSPropertyOp12
 70
     1
102
RTVSPropertyOp13
 70
     1
102
RTVSPropertyOp14
 70
     1
102
RTVSPropertyOp15
 70
     1
102
RTVSPropertyOp16
 70
     1
102
RTVSPropertyOp17
 70
     1
102
RTVSPropertyOp18
 70
     1
102
RTVSPropertyOp19
 70
     1
102
RTVSPropertyOp20
 70
     1
102
RTVSPropertyOp21
 70
     1
102
RTVSPropertyOp22
 70
     1
102
RTVSPropertyOp23
 70
     1
102
RTVSPropertyOp24
 70
     1
102
RTVSPropertyOp25
 70
     1
102
RTVSPropertyOp26
 70
     1
102
RTVSPropertyOp27
 70
     1
102
RTVSPropertyOp28
 70
     1
102
RTVSPropertyOp29
 70
     1
102
RTVSPropertyOp30
 70
     1
102
RTVSPropertyOp31
 70
     1
102
RTVSPropertyOp32
 70
     1
  0
XRECORD
  5
1BB
102
{ACAD_REACTORS
330
1BA
102
}
330
1BA
100
AcDbXrecord
280
     1
102
RTVSPropertyOp0
 70
     1
102
RTVSPropertyOp1
 70
     1
102
RTVSPropertyOp2
 70
     1
102
RTVSPropertyOp3
 70
     1
102
RTVSPropertyOp4
 70
     1
102
RTVSPropertyOp5
 70
     1
102
RTVSPropertyOp6
 70
     1
102
RTVSPropertyOp7
 70
     1
102
RTVSPropertyOp8
 70
     1
102
RTVSPropertyOp9
 70
     1
102
RTVSPropertyOp10
 70
     1
102
RTVSPropertyOp11
 70
     1
102
RTVSPropertyOp12
 70
     1
102
RTVSPropertyOp13
 70
     1
102
RTVSPropertyOp14
 70
     1
102
RTVSPropertyOp15
 70
     1
102
RTVSPropertyOp16
 70
     1
102
RTVSPropertyOp17
 70
     1
102
RTVSPropertyOp18
 70
     1
102
RTVSPropertyOp19
 70
     1
102
RTVSPropertyOp20
 70
     1
102
RTVSPropertyOp21
 70
     1
102
RTVSPropertyOp22
 70
     1
102
RTVSPropertyOp23
 70
     1
102
RTVSPropertyOp24
 70
     1
102
RTVSPropertyOp25
 70
     1
102
RTVSPropertyOp26
 70
     1
102
RTVSPropertyOp27
 70
     1
102
RTVSPropertyOp28
 70
     1
102
RTVSPropertyOp29
 70
     1
102
RTVSPropertyOp30
 70
     1
102
RTVSPropertyOp31
 70
     1
102
RTVSPropertyOp32
 70
     1
  0
XRECORD
  5
1C3
102
{ACAD_REACTORS
330
1C2
102
}
330
1C2
100
AcDbXrecord
280
     1
102
RTVSPropertyOp0
 70
     1
102
RTVSPropertyOp1
 70
     1
102
RTVSPropertyOp2
 70
     1
102
RTVSPropertyOp3
 70
     1
102
RTVSPropertyOp4
 70
     1
102
RTVSPropertyOp5
 70
     1
102
RTVSPropertyOp6
 70
     1
102
RTVSPropertyOp7
 70
     1
102
RTVSPropertyOp8
 70
     1
102
RTVSPropertyOp9
 70
     1
102
RTVSPropertyOp10
 70
     1
102
RTVSPropertyOp11
 70
     1
102
RTVSPropertyOp12
 70
     1
102
RTVSPropertyOp13
 70
     1
102
RTVSPropertyOp14
 70
     1
102
RTVSPropertyOp15
 70
     1
102
RTVSPropertyOp16
 70
     1
102
RTVSPropertyOp17
 70
     1
102
RTVSPropertyOp18
 70
     1
102
RTVSPropertyOp19
 70
     1
102
RTVSPropertyOp20
 70
     1
102
RTVSPropertyOp21
 70
     1
102
RTVSPropertyOp22
 70
     1
102
RTVSPropertyOp23
 70
     1
102
RTVSPropertyOp24
 70
     1
102
RTVSPropertyOp25
 70
     1
102
RTVSPropertyOp26
 70
     1
102
RTVSPropertyOp27
 70
     1
102
RTVSPropertyOp28
 70
     1
102
RTVSPropertyOp29
 70
     1
102
RTVSPropertyOp30
 70
     1
102
RTVSPropertyOp31
 70
     1
102
RTVSPropertyOp32
 70
     1
  0
XRECORD
  5
1A7
102
{ACAD_REACTORS
330
1A6
102
}
330
1A6
100
AcDbXrecord
280
     1
102
RTVSPropertyOp0
 70
     1
102
RTVSPropertyOp1
 70
     1
102
RTVSPropertyOp2
 70
     1
102
RTVSPropertyOp3
 70
     1
102
RTVSPropertyOp4
 70
     1
102
RTVSPropertyOp5
 70
     1
102
RTVSPropertyOp6
 70
     1
102
RTVSPropertyOp7
 70
     1
102
RTVSPropertyOp8
 70
     1
102
RTVSPropertyOp9
 70
     1
102
RTVSPropertyOp10
 70
     1
102
RTVSPropertyOp11
 70
     1
102
RTVSPropertyOp12
 70
     1
102
RTVSPropertyOp13
 70
     1
102
RTVSPropertyOp14
 70
     1
102
RTVSPropertyOp15
 70
     1
102
RTVSPropertyOp16
 70
     1
102
RTVSPropertyOp17
 70
     1
102
RTVSPropertyOp18
 70
     1
102
RTVSPropertyOp19
 70
     1
102
RTVSPropertyOp20
 70
     1
102
RTVSPropertyOp21
 70
     1
102
RTVSPropertyOp22
 70
     1
102
RTVSPropertyOp23
 70
     1
102
RTVSPropertyOp24
 70
     1
102
RTVSPropertyOp25
 70
     1
102
RTVSPropertyOp26
 70
     1
102
RTVSPropertyOp27
 70
     1
102
RTVSPropertyOp28
 70
     1
102
RTVSPropertyOp29
 70
     1
102
RTVSPropertyOp30
 70
     1
102
RTVSPropertyOp31
 70
     1
102
RTVSPropertyOp32
 70
     1
  0
XRECORD
  5
1A9
102
{ACAD_REACTORS
330
1A8
102
}
330
1A8
100
AcDbXrecord
280
     1
102
RTVSPropertyOp0
 70
     1
102
RTVSPropertyOp1
 70
     1
102
RTVSPropertyOp2
 70
     1
102
RTVSPropertyOp3
 70
     1
102
RTVSPropertyOp4
 70
     1
102
RTVSPropertyOp5
 70
     1
102
RTVSPropertyOp6
 70
     1
102
RTVSPropertyOp7
 70
     1
102
RTVSPropertyOp8
 70
     1
102
RTVSPropertyOp9
 70
     1
102
RTVSPropertyOp10
 70
     1
102
RTVSPropertyOp11
 70
     1
102
RTVSPropertyOp12
 70
     1
102
RTVSPropertyOp13
 70
     1
102
RTVSPropertyOp14
 70
     1
102
RTVSPropertyOp15
 70
     1
102
RTVSPropertyOp16
 70
     1
102
RTVSPropertyOp17
 70
     1
102
RTVSPropertyOp18
 70
     1
102
RTVSPropertyOp19
 70
     1
102
RTVSPropertyOp20
 70
     1
102
RTVSPropertyOp21
 70
     1
102
RTVSPropertyOp22
 70
     1
102
RTVSPropertyOp23
 70
     1
102
RTVSPropertyOp24
 70
     1
102
RTVSPropertyOp25
 70
     1
102
RTVSPropertyOp26
 70
     1
102
RTVSPropertyOp27
 70
     1
102
RTVSPropertyOp28
 70
     1
102
RTVSPropertyOp29
 70
     1
102
RTVSPropertyOp30
 70
     1
102
RTVSPropertyOp31
 70
     1
102
RTVSPropertyOp32
 70
     1
  0
XRECORD
  5
1AB
102
{ACAD_REACTORS
330
1AA
102
}
330
1AA
100
AcDbXrecord
280
     1
102
RTVSPropertyOp0
 70
     1
102
RTVSPropertyOp1
 70
     1
102
RTVSPropertyOp2
 70
     1
102
RTVSPropertyOp3
 70
     1
102
RTVSPropertyOp4
 70
     1
102
RTVSPropertyOp5
 70
     1
102
RTVSPropertyOp6
 70
     1
102
RTVSPropertyOp7
 70
     1
102
RTVSPropertyOp8
 70
     1
102
RTVSPropertyOp9
 70
     1
102
RTVSPropertyOp10
 70
     1
102
RTVSPropertyOp11
 70
     1
102
RTVSPropertyOp12
 70
     1
102
RTVSPropertyOp13
 70
     1
102
RTVSPropertyOp14
 70
     1
102
RTVSPropertyOp15
 70
     1
102
RTVSPropertyOp16
 70
     1
102
RTVSPropertyOp17
 70
     1
102
RTVSPropertyOp18
 70
     1
102
RTVSPropertyOp19
 70
     1
102
RTVSPropertyOp20
 70
     1
102
RTVSPropertyOp21
 70
     1
102
RTVSPropertyOp22
 70
     1
102
RTVSPropertyOp23
 70
     1
102
RTVSPropertyOp24
 70
     1
102
RTVSPropertyOp25
 70
     1
102
RTVSPropertyOp26
 70
     1
102
RTVSPropertyOp27
 70
     1
102
RTVSPropertyOp28
 70
     1
102
RTVSPropertyOp29
 70
     1
102
RTVSPropertyOp30
 70
     1
102
RTVSPropertyOp31
 70
     1
102
RTVSPropertyOp32
 70
     1
  0
XRECORD
  5
1AD
102
{ACAD_REACTORS
330
1AC
102
}
330
1AC
100
AcDbXrecord
280
     1
102
RTVSPropertyOp0
 70
     1
102
RTVSPropertyOp1
 70
     1
102
RTVSPropertyOp2
 70
     1
102
RTVSPropertyOp3
 70
     1
102
RTVSPropertyOp4
 70
     1
102
RTVSPropertyOp5
 70
     1
102
RTVSPropertyOp6
 70
     1
102
RTVSPropertyOp7
 70
     1
102
RTVSPropertyOp8
 70
     1
102
RTVSPropertyOp9
 70
     1
102
RTVSPropertyOp10
 70
     1
102
RTVSPropertyOp11
 70
     1
102
RTVSPropertyOp12
 70
     1
102
RTVSPropertyOp13
 70
     1
102
RTVSPropertyOp14
 70
     1
102
RTVSPropertyOp15
 70
     1
102
RTVSPropertyOp16
 70
     1
102
RTVSPropertyOp17
 70
     1
102
RTVSPropertyOp18
 70
     1
102
RTVSPropertyOp19
 70
     1
102
RTVSPropertyOp20
 70
     1
102
RTVSPropertyOp21
 70
     1
102
RTVSPropertyOp22
 70
     1
102
RTVSPropertyOp23
 70
     1
102
RTVSPropertyOp24
 70
     1
102
RTVSPropertyOp25
 70
     1
102
RTVSPropertyOp26
 70
     1
102
RTVSPropertyOp27
 70
     1
102
RTVSPropertyOp28
 70
     1
102
RTVSPropertyOp29
 70
     1
102
RTVSPropertyOp30
 70
     1
102
RTVSPropertyOp31
 70
     1
102
RTVSPropertyOp32
 70
     1
  0
XRECORD
  5
1C1
102
{ACAD_REACTORS
330
1C0
102
}
330
1C0
100
AcDbXrecord
280
     1
102
RTVSPropertyOp0
 70
     1
102
RTVSPropertyOp1
 70
     1
102
RTVSPropertyOp2
 70
     1
102
RTVSPropertyOp3
 70
     1
102
RTVSPropertyOp4
 70
     1
102
RTVSPropertyOp5
 70
     1
102
RTVSPropertyOp6
 70
     1
102
RTVSPropertyOp7
 70
     1
102
RTVSPropertyOp8
 70
     1
102
RTVSPropertyOp9
 70
     1
102
RTVSPropertyOp10
 70
     1
102
RTVSPropertyOp11
 70
     1
102
RTVSPropertyOp12
 70
     1
102
RTVSPropertyOp13
 70
     1
102
RTVSPropertyOp14
 70
     1
102
RTVSPropertyOp15
 70
     1
102
RTVSPropertyOp16
 70
     1
102
RTVSPropertyOp17
 70
     1
102
RTVSPropertyOp18
 70
     1
102
RTVSPropertyOp19
 70
     1
102
RTVSPropertyOp20
 70
     1
102
RTVSPropertyOp21
 70
     1
102
RTVSPropertyOp22
 70
     1
102
RTVSPropertyOp23
 70
     1
102
RTVSPropertyOp24
 70
     1
102
RTVSPropertyOp25
 70
     1
102
RTVSPropertyOp26
 70
     1
102
RTVSPropertyOp27
 70
     1
102
RTVSPropertyOp28
 70
     1
102
RTVSPropertyOp29
 70
     1
102
RTVSPropertyOp30
 70
     1
102
RTVSPropertyOp31
 70
     1
102
RTVSPropertyOp32
 70
     1
  0
XRECORD
  5
1B7
102
{ACAD_REACTORS
330
1B6
102
}
330
1B6
100
AcDbXrecord
280
     1
102
RTVSPropertyOp0
 70
     1
102
RTVSPropertyOp1
 70
     1
102
RTVSPropertyOp2
 70
     1
102
RTVSPropertyOp3
 70
     1
102
RTVSPropertyOp4
 70
     1
102
RTVSPropertyOp5
 70
     1
102
RTVSPropertyOp6
 70
     1
102
RTVSPropertyOp7
 70
     1
102
RTVSPropertyOp8
 70
     1
102
RTVSPropertyOp9
 70
     1
102
RTVSPropertyOp10
 70
     1
102
RTVSPropertyOp11
 70
     1
102
RTVSPropertyOp12
 70
     1
102
RTVSPropertyOp13
 70
     1
102
RTVSPropertyOp14
 70
     1
102
RTVSPropertyOp15
 70
     1
102
RTVSPropertyOp16
 70
     1
102
RTVSPropertyOp17
 70
     1
102
RTVSPropertyOp18
 70
     1
102
RTVSPropertyOp19
 70
     1
102
RTVSPropertyOp20
 70
     1
102
RTVSPropertyOp21
 70
     1
102
RTVSPropertyOp22
 70
     1
102
RTVSPropertyOp23
 70
     1
102
RTVSPropertyOp24
 70
     1
102
RTVSPropertyOp25
 70
     1
102
RTVSPropertyOp26
 70
     1
102
RTVSPropertyOp27
 70
     1
102
RTVSPropertyOp28
 70
     1
102
RTVSPropertyOp29
 70
     1
102
RTVSPropertyOp30
 70
     1
102
RTVSPropertyOp31
 70
     1
102
RTVSPropertyOp32
 70
     1
  0
XRECORD
  5
1BF
102
{ACAD_REACTORS
330
1BE
102
}
330
1BE
100
AcDbXrecord
280
     1
102
RTVSPropertyOp0
 70
     1
102
RTVSPropertyOp1
 70
     1
102
RTVSPropertyOp2
 70
     1
102
RTVSPropertyOp3
 70
     1
102
RTVSPropertyOp4
 70
     1
102
RTVSPropertyOp5
 70
     1
102
RTVSPropertyOp6
 70
     1
102
RTVSPropertyOp7
 70
     1
102
RTVSPropertyOp8
 70
     1
102
RTVSPropertyOp9
 70
     1
102
RTVSPropertyOp10
 70
     1
102
RTVSPropertyOp11
 70
     1
102
RTVSPropertyOp12
 70
     1
102
RTVSPropertyOp13
 70
     1
102
RTVSPropertyOp14
 70
     1
102
RTVSPropertyOp15
 70
     1
102
RTVSPropertyOp16
 70
     1
102
RTVSPropertyOp17
 70
     1
102
RTVSPropertyOp18
 70
     1
102
RTVSPropertyOp19
 70
     1
102
RTVSPropertyOp20
 70
     1
102
RTVSPropertyOp21
 70
     1
102
RTVSPropertyOp22
 70
     1
102
RTVSPropertyOp23
 70
     1
102
RTVSPropertyOp24
 70
     1
102
RTVSPropertyOp25
 70
     1
102
RTVSPropertyOp26
 70
     1
102
RTVSPropertyOp27
 70
     1
102
RTVSPropertyOp28
 70
     1
102
RTVSPropertyOp29
 70
     1
102
RTVSPropertyOp30
 70
     1
102
RTVSPropertyOp31
 70
     1
102
RTVSPropertyOp32
 70
     1
  0
ENDSEC
  0
EOF
