  0
SECTION
  2
HEADER
  9
$ACADVER
  1
AC1015
  9
$ACADMAINTVER
 70
     6
  9
$DWGCODEPAGE
  3
ANSI_932
  9
$INSBASE
 10
0.0
 20
0.0
 30
0.0
  9
$EXTMIN
 10
0.0
 20
0.0
 30
0.0
  9
$EXTMAX
 10
210.0
 20
297.0
 30
0.0
  9
$LIMMIN
 10
0.0
 20
0.0
  9
$LIMMAX
 10
12.0
 20
9.0
  9
$ORTHOMODE
 70
     0
  9
$REGENMODE
 70
     1
  9
$FILLMODE
 70
     1
  9
$QTEXTMODE
 70
     0
  9
$MIRRTEXT
 70
     1
  9
$LTSCALE
 40
1.0
  9
$ATTMODE
 70
     1
  9
$TEXTSIZE
 40
0.2
  9
$TRACEWID
 40
0.05
  9
$TEXTSTYLE
  7
Standard
  9
$CLAYER
  8
0
  9
$CELTYPE
  6
ByLayer
  9
$CECOLOR
 62
   256
  9
$CELTSCALE
 40
1.0
  9
$DISPSILH
 70
     0
  9
$DIMSCALE
 40
1.0
  9
$DIMASZ
 40
0.18
  9
$DIMEXO
 40
0.0625
  9
$DIMDLI
 40
0.38
  9
$DIMRND
 40
0.0
  9
$DIMDLE
 40
0.0
  9
$DIMEXE
 40
0.18
  9
$DIMTP
 40
0.0
  9
$DIMTM
 40
0.0
  9
$DIMTXT
 40
0.18
  9
$DIMCEN
 40
0.09
  9
$DIMTSZ
 40
0.0
  9
$DIMTOL
 70
     0
  9
$DIMLIM
 70
     0
  9
$DIMTIH
 70
     1
  9
$DIMTOH
 70
     1
  9
$DIMSE1
 70
     0
  9
$DIMSE2
 70
     0
  9
$DIMTAD
 70
     0
  9
$DIMZIN
 70
     0
  9
$DIMBLK
  1

  9
$DIMASO
 70
     1
  9
$DIMSHO
 70
     1
  9
$DIMPOST
  1

  9
$DIMAPOST
  1

  9
$DIMALT
 70
     0
  9
$DIMALTD
 70
     2
  9
$DIMALTF
 40
25.4
  9
$DIMLFAC
 40
1.0
  9
$DIMTOFL
 70
     0
  9
$DIMTVP
 40
0.0
  9
$DIMTIX
 70
     0
  9
$DIMSOXD
 70
     0
  9
$DIMSAH
 70
     0
  9
$DIMBLK1
  1

  9
$DIMBLK2
  1

  9
$DIMSTYLE
  2
Standard
  9
$DIMCLRD
 70
     0
  9
$DIMCLRE
 70
     0
  9
$DIMCLRT
 70
     0
  9
$DIMTFAC
 40
1.0
  9
$DIMGAP
 40
0.09
  9
$DIMJUST
 70
     0
  9
$DIMSD1
 70
     0
  9
$DIMSD2
 70
     0
  9
$DIMTOLJ
 70
     1
  9
$DIMTZIN
 70
     0
  9
$DIMALTZ
 70
     0
  9
$DIMALTTZ
 70
     0
  9
$DIMUPT
 70
     0
  9
$DIMDEC
 70
     4
  9
$DIMTDEC
 70
     4
  9
$DIMALTU
 70
     2
  9
$DIMALTTD
 70
     2
  9
$DIMTXSTY
  7
Standard
  9
$DIMAUNIT
 70
     0
  9
$DIMADEC
 70
     0
  9
$DIMALTRND
 40
0.0
  9
$DIMAZIN
 70
     0
  9
$DIMDSEP
 70
    46
  9
$DIMATFIT
 70
     3
  9
$DIMFRAC
 70
     0
  9
$DIMLDRBLK
  1

  9
$DIMLUNIT
 70
     2
  9
$DIMLWD
 70
    -2
  9
$DIMLWE
 70
    -2
  9
$DIMTMOVE
 70
     0
  9
$LUNITS
 70
     2
  9
$LUPREC
 70
     4
  9
$SKETCHINC
 40
0.1
  9
$FILLETRAD
 40
0.5
  9
$AUNITS
 70
     0
  9
$AUPREC
 70
     0
  9
$MENU
  1
.
  9
$ELEVATION
 40
0.0
  9
$PELEVATION
 40
0.0
  9
$THICKNESS
 40
0.0
  9
$LIMCHECK
 70
     0
  9
$CHAMFERA
 40
0.5
  9
$CHAMFERB
 40
0.5
  9
$CHAMFERC
 40
1.0
  9
$CHAMFERD
 40
0.0
  9
$SKPOLY
 70
     0
  9
$TDCREATE
 40
2459816.655540023
  9
$TDUCREATE
 40
2459816.280540023
  9
$TDUPDATE
 40
2459816.655541285
  9
$TDUUPDATE
 40
2459816.280541285
  9
$TDINDWG
 40
0.0000000116
  9
$TDUSRTIMER
 40
0.0000000116
  9
$USRTIMER
 70
     1
  9
$ANGBASE
 50
0.0
  9
$ANGDIR
 70
     0
  9
$PDMODE
 70
     0
  9
$PDSIZE
 40
0.0
  9
$PLINEWID
 40
0.0
  9
$SPLFRAME
 70
     0
  9
$SPLINETYPE
 70
     6
  9
$SPLINESEGS
 70
     8
  9
$HANDSEED
  5
12D
  9
$SURFTAB1
 70
     6
  9
$SURFTAB2
 70
     6
  9
$SURFTYPE
 70
     6
  9
$SURFU
 70
     6
  9
$SURFV
 70
     6
  9
$UCSBASE
  2

  9
$UCSNAME
  2

  9
$UCSORG
 10
0.0
 20
0.0
 30
0.0
  9
$UCSXDIR
 10
1.0
 20
0.0
 30
0.0
  9
$UCSYDIR
 10
0.0
 20
1.0
 30
0.0
  9
$UCSORTHOREF
  2

  9
$UCSORTHOVIEW
 70
     0
  9
$UCSORGTOP
 10
0.0
 20
0.0
 30
0.0
  9
$UCSORGBOTTOM
 10
0.0
 20
0.0
 30
0.0
  9
$UCSORGLEFT
 10
0.0
 20
0.0
 30
0.0
  9
$UCSORGRIGHT
 10
0.0
 20
0.0
 30
0.0
  9
$UCSORGFRONT
 10
0.0
 20
0.0
 30
0.0
  9
$UCSORGBACK
 10
0.0
 20
0.0
 30
0.0
  9
$PUCSBASE
  2

  9
$PUCSNAME
  2

  9
$PUCSORG
 10
0.0
 20
0.0
 30
0.0
  9
$PUCSXDIR
 10
1.0
 20
0.0
 30
0.0
  9
$PUCSYDIR
 10
0.0
 20
1.0
 30
0.0
  9
$PUCSORTHOREF
  2

  9
$PUCSORTHOVIEW
 70
     0
  9
$PUCSORGTOP
 10
0.0
 20
0.0
 30
0.0
  9
$PUCSORGBOTTOM
 10
0.0
 20
0.0
 30
0.0
  9
$PUCSORGLEFT
 10
0.0
 20
0.0
 30
0.0
  9
$PUCSORGRIGHT
 10
0.0
 20
0.0
 30
0.0
  9
$PUCSORGFRONT
 10
0.0
 20
0.0
 30
0.0
  9
$PUCSORGBACK
 10
0.0
 20
0.0
 30
0.0
  9
$USERI1
 70
     0
  9
$USERI2
 70
     0
  9
$USERI3
 70
     0
  9
$USERI4
 70
     0
  9
$USERI5
 70
     0
  9
$USERR1
 40
18.1
  9
$USERR2
 40
0.0
  9
$USERR3
 40
0.0
  9
$USERR4
 40
0.0
  9
$USERR5
 40
0.0
  9
$WORLDVIEW
 70
     1
  9
$SHADEDGE
 70
     3
  9
$SHADEDIF
 70
    70
  9
$TILEMODE
 70
     1
  9
$MAXACTVP
 70
    64
  9
$PINSBASE
 10
0.0
 20
0.0
 30
0.0
  9
$PLIMCHECK
 70
     0
  9
$PEXTMIN
 10
1.00000000000000E+20
 20
1.00000000000000E+20
 30
1.00000000000000E+20
  9
$PEXTMAX
 10
-1.00000000000000E+20
 20
-1.00000000000000E+20
 30
-1.00000000000000E+20
  9
$PLIMMIN
 10
0.0
 20
0.0
  9
$PLIMMAX
 10
12.0
 20
9.0
  9
$UNITMODE
 70
     0
  9
$VISRETAIN
 70
     1
  9
$PLINEGEN
 70
     0
  9
$PSLTSCALE
 70
     1
  9
$TREEDEPTH
 70
  3020
  9
$CMLSTYLE
  2
Standard
  9
$CMLJUST
 70
     0
  9
$CMLSCALE
 40
1.0
  9
$PROXYGRAPHICS
 70
     1
  9
$MEASUREMENT
 70
     1
  9
$CELWEIGHT
370
    -1
  9
$ENDCAPS
280
     0
  9
$JOINSTYLE
280
     0
  9
$LWDISPLAY
290
     0
  9
$INSUNITS
 70
     4
  9
$HYPERLINKBASE
  1

  9
$STYLESHEET
  1

  9
$XEDIT
290
     1
  9
$CEPSNTYPE
380
     0
  9
$PSTYLEMODE
290
     1
  9
$FINGERPRINTGUID
  2
{F3933C0A-9C05-4E76-B6BC-3EA0F8453640}
  9
$VERSIONGUID
  2
{FAEB1C32-E019-11D5-929B-00C0DF256EC4}
  9
$EXTNAMES
290
     1
  9
$PSVPSCALE
 40
0.0
  9
$OLESTARTUP
290
     0
  0
ENDSEC
  0
SECTION
  2
CLASSES
  0
CLASS
  1
ACDBDICTIONARYWDFLT
  2
AcDbDictionaryWithDefault
  3
ObjectDBX Classes
 90
        0
280
     0
281
     0
  0
CLASS
  1
VISUALSTYLE
  2
AcDbVisualStyle
  3
ObjectDBX Classes
 90
     4095
280
     0
281
     0
  0
CLASS
  1
MATERIAL
  2
AcDbMaterial
  3
ObjectDBX Classes
 90
     1153
280
     0
281
     0
  0
CLASS
  1
DICTIONARYVAR
  2
AcDbDictionaryVar
  3
ObjectDBX Classes
 90
        0
280
     0
281
     0
  0
CLASS
  1
ACDBPLACEHOLDER
  2
AcDbPlaceHolder
  3
ObjectDBX Classes
 90
        0
280
     0
281
     0
  0
CLASS
  1
LAYOUT
  2
AcDbLayout
  3
ObjectDBX Classes
 90
        0
280
     0
281
     0
  0
ENDSEC
  0
SECTION
  2
TABLES
  0
TABLE
  2
VPORT
  5
8
330
0
100
AcDbSymbolTable
 70
     1
  0
VPORT
  5
29
330
8
100
AcDbSymbolTableRecord
100
AcDbViewportTableRecord
  2
*Active
 70
     0
 10
0.0
 20
0.0
 11
1.0
 21
1.0
 12
105.0
 22
148.5
 13
0.0
 23
0.0
 14
0.5
 24
0.5
 15
0.5
 25
0.5
 16
0.0
 26
0.0
 36
1.0
 17
0.0
 27
0.0
 37
0.0
 40
326.7
 41
1.60267857142857
 42
50.0
 43
0.0
 44
0.0
 50
0.0
 51
0.0
 71
     0
 72
   100
 73
     1
 74
     3
 75
     0
 76
     0
 77
     0
 78
     0
281
     0
 65
     1
110
0.0
120
0.0
130
0.0
111
1.0
121
0.0
131
0.0
112
0.0
122
1.0
132
0.0
 79
     0
146
0.0
  0
ENDTAB
  0
TABLE
  2
LTYPE
  5
5
330
0
100
AcDbSymbolTable
 70
     8
  0
LTYPE
  5
14
330
5
100
AcDbSymbolTableRecord
100
AcDbLinetypeTableRecord
  2
ByBlock
 70
     0
  3

 72
    65
 73
     0
 40
0.0
  0
LTYPE
  5
15
330
5
100
AcDbSymbolTableRecord
100
AcDbLinetypeTableRecord
  2
ByLayer
 70
     0
  3

 72
    65
 73
     0
 40
0.0
  0
LTYPE
  5
16
330
5
100
AcDbSymbolTableRecord
100
AcDbLinetypeTableRecord
  2
Continuous
 70
     0
  3
Solid line
 72
    65
 73
     0
 40
0.0
  0
LTYPE
  5
3F
330
5
100
AcDbSymbolTableRecord
100
AcDbLinetypeTableRecord
  2
DASHED
 70
     0
  3
Dashed
 72
    65
 73
     2
 40
15.0
 49
7.0
 74
     0
 49
-8.0
 74
     0
  0
LTYPE
  5
40
330
5
100
AcDbSymbolTableRecord
100
AcDbLinetypeTableRecord
  2
DOTTED
 70
     0
  3
Dotted
 72
    65
 73
     2
 40
1.0
 49
0.0
 74
     0
 49
-1.0
 74
     0
  0
LTYPE
  5
41
330
5
100
AcDbSymbolTableRecord
100
AcDbLinetypeTableRecord
  2
DOT_CENTER
 70
     0
  3
Dot_Center
 72
    65
 73
     4
 40
14.0
 49
12.0
 74
     0
 49
-1.0
 74
     0
 49
0.0
 74
     0
 49
-1.0
 74
     0
  0
LTYPE
  5
42
330
5
100
AcDbSymbolTableRecord
100
AcDbLinetypeTableRecord
  2
LONG_DASHED
 70
     0
  3
Long_Dashed
 72
    65
 73
     2
 40
15.0
 49
10.0
 74
     0
 49
-5.0
 74
     0
  0
LTYPE
  5
43
330
5
100
AcDbSymbolTableRecord
100
AcDbLinetypeTableRecord
  2
DASH_CENTER
 70
     0
  3
Dash_Center
 72
    65
 73
     4
 40
14.0
 49
11.0
 74
     0
 49
-1.0
 74
     0
 49
1.0
 74
     0
 49
-1.0
 74
     0
  0
LTYPE
  5
44
330
5
100
AcDbSymbolTableRecord
100
AcDbLinetypeTableRecord
  2
PHANTOM
 70
     0
  3
Phantom
 72
    65
 73
     6
 40
13.0
 49
10.0
 74
     0
 49
-1.0
 74
     0
 49
0.0
 74
     0
 49
-1.0
 74
     0
 49
0.0
 74
     0
 49
-1.0
 74
     0
  0
LTYPE
  5
45
330
5
100
AcDbSymbolTableRecord
100
AcDbLinetypeTableRecord
  2
CENTER_DASH_DASH
 70
     0
  3
Center_Dash_Dash
 72
    65
 73
     6
 40
14.0
 49
9.0
 74
     0
 49
-1.0
 74
     0
 49
1.0
 74
     0
 49
-1.0
 74
     0
 49
1.0
 74
     0
 49
-1.0
 74
     0
  0
ENDTAB
  0
TABLE
  2
LAYER
  5
2
330
0
100
AcDbSymbolTable
 70
     3
  0
LAYER
  5
10
330
2
100
AcDbSymbolTableRecord
100
AcDbLayerTableRecord
  2
0
 70
     0
 62
     7
  6
Continuous
370
    -3
390
F
  0
LAYER
  5
46
330
2
100
AcDbSymbolTableRecord
100
AcDbLayerTableRecord
  2
1
 70
     0
 62
     7
  6
Continuous
370
    -3
390
F
  0
LAYER
  5
47
330
2
100
AcDbSymbolTableRecord
100
AcDbLayerTableRecord
  2
_U_30EC_U_30A4_U_30E4_U_30FC_1
 70
     0
 62
     7
  6
Continuous
370
    -3
390
F
  0
ENDTAB
  0
TABLE
  2
STYLE
  5
3
330
0
100
AcDbSymbolTable
 70
     3
  0
STYLE
  5
11
330
3
100
AcDbSymbolTableRecord
100
AcDbTextStyleTableRecord
  2
Standard
 70
     0
 40
0.0
 41
1.0
 50
0.0
 71
     0
 42
0.2
  3
txt
  4

  0
STYLE
  5
B2
330
3
100
AcDbSymbolTableRecord
100
AcDbTextStyleTableRecord
  2
CONVERTER_11
 70
     0
 40
0.0
 41
0.89
 50
0.0
 71
     0
 42
0.2
  3
MS Mincho.ttf
  4

1001
ACAD
1000
MS Mincho
1071
    32785
  0
STYLE
  5
DA
330
3
100
AcDbSymbolTableRecord
100
AcDbTextStyleTableRecord
  2
CONVERTER_12
 70
     0
 40
0.0
 41
0.9
 50
0.0
 71
     0
 42
0.2
  3
txt.shx
  4

  0
ENDTAB
  0
TABLE
  2
VIEW
  5
6
330
0
100
AcDbSymbolTable
 70
     0
  0
ENDTAB
  0
TABLE
  2
UCS
  5
7
330
0
100
AcDbSymbolTable
 70
     0
  0
ENDTAB
  0
TABLE
  2
APPID
  5
9
330
0
100
AcDbSymbolTable
 70
     1
  0
APPID
  5
12
330
9
100
AcDbSymbolTableRecord
100
AcDbRegAppTableRecord
  2
ACAD
 70
     0
  0
ENDTAB
  0
TABLE
  2
DIMSTYLE
  5
A
330
0
100
AcDbSymbolTable
 70
     2
100
AcDbDimStyleTable
  0
DIMSTYLE
105
27
330
A
100
AcDbSymbolTableRecord
100
AcDbDimStyleTableRecord
  2
Standard
 70
     0
178
     0
340
11
  0
DIMSTYLE
105
F0
102
{ACAD_REACTORS
330
F1
102
}
330
A
100
AcDbSymbolTableRecord
100
AcDbDimStyleTableRecord
  2
ME10_DIM_10
 70
     0
 41
3.5
 42
0.0
 44
1.0
 73
     0
 74
     0
 77
     1
 78
     8
140
3.5
147
1.0
172
     1
173
     1
174
     1
175
     1
176
     2
177
     2
271
     2
178
     7
271
     2
340
DA
  0
ENDTAB
  0
TABLE
  2
BLOCK_RECORD
  5
1
330
0
100
AcDbSymbolTable
 70
     6
  0
BLOCK_RECORD
  5
1F
330
1
100
AcDbSymbolTableRecord
100
AcDbBlockTableRecord
  2
*Model_Space
340
22
  0
BLOCK_RECORD
  5
1B
330
1
100
AcDbSymbolTableRecord
100
AcDbBlockTableRecord
  2
*Paper_Space
340
1E
  0
BLOCK_RECORD
  5
23
330
1
100
AcDbSymbolTableRecord
100
AcDbBlockTableRecord
  2
*Paper_Space0
340
26
  0
BLOCK_RECORD
  5
48
330
1
100
AcDbSymbolTableRecord
100
AcDbBlockTableRecord
  2
開示A4
340
0
102
{BLKREFS
331
4C
102
}
  0
BLOCK_RECORD
  5
4B
330
1
100
AcDbSymbolTableRecord
100
AcDbBlockTableRecord
  2
開示A4枠
340
0
102
{BLKREFS
331
4F
102
}
  0
BLOCK_RECORD
  5
E7
330
1
100
AcDbSymbolTableRecord
100
AcDbBlockTableRecord
  2
*D3
340
0
  0
BLOCK_RECORD
  5
F2
330
1
100
AcDbSymbolTableRecord
100
AcDbBlockTableRecord
  2
*D4
340
0
102
{BLKREFS
331
F9
102
}
  0
BLOCK_RECORD
  5
FA
330
1
100
AcDbSymbolTableRecord
100
AcDbBlockTableRecord
  2
*D5
340
0
102
{BLKREFS
331
101
102
}
  0
ENDTAB
  0
ENDSEC
  0
SECTION
  2
BLOCKS
  0
BLOCK
  5
20
330
1F
100
AcDbEntity
  8
0
100
AcDbBlockBegin
  2
*Model_Space
 70
     0
 10
0.0
 20
0.0
 30
0.0
  3
*Model_Space
  1

  0
ENDBLK
  5
21
330
1F
100
AcDbEntity
  8
0
100
AcDbBlockEnd
  0
BLOCK
  5
1C
330
1B
100
AcDbEntity
 67
     1
  8
0
100
AcDbBlockBegin
  2
*Paper_Space
 70
     0
 10
0.0
 20
0.0
 30
0.0
  3
*Paper_Space
  1

  0
ENDBLK
  5
1D
330
1B
100
AcDbEntity
 67
     1
  8
0
100
AcDbBlockEnd
  0
BLOCK
  5
24
330
23
100
AcDbEntity
  8
0
100
AcDbBlockBegin
  2
*Paper_Space0
 70
     0
 10
0.0
 20
0.0
 30
0.0
  3
*Paper_Space0
  1

  0
ENDBLK
  5
25
330
23
100
AcDbEntity
  8
0
100
AcDbBlockEnd
  0
BLOCK
  5
49
330
48
100
AcDbEntity
  8
0
100
AcDbBlockBegin
  2
開示A4
 70
     0
 10
0.0
 20
0.0
 30
0.0
  3
開示A4
  1

  0
POINT
  5
50
330
48
100
AcDbEntity
  8
1
 62
     4
100
AcDbPoint
 10
34.0
 20
34.00000000000002
 30
0.0
  0
POINT
  5
51
330
48
100
AcDbEntity
  8
1
 62
     4
100
AcDbPoint
 10
57.0
 20
12.25
 30
0.0
  0
POINT
  5
52
330
48
100
AcDbEntity
  8
1
 62
     4
100
AcDbPoint
 10
57.0
 20
20.75000000000002
 30
0.0
  0
POINT
  5
53
330
48
100
AcDbEntity
  8
1
 62
     4
100
AcDbPoint
 10
57.0
 20
24.75000000000002
 30
0.0
  0
POINT
  5
54
330
48
100
AcDbEntity
  8
1
 62
     4
100
AcDbPoint
 10
57.0
 20
16.25
 30
0.0
  0
POINT
  5
55
330
48
100
AcDbEntity
  8
1
 62
     4
100
AcDbPoint
 10
157.5
 20
19.00000000000002
 30
0.0
  0
POINT
  5
56
330
48
100
AcDbEntity
  8
1
 62
     4
100
AcDbPoint
 10
47.5
 20
282.0000000000003
 30
0.0
  0
POINT
  5
57
330
48
100
AcDbEntity
  8
1
 62
     4
100
AcDbPoint
 10
57.0
 20
22.75000000000002
 30
0.0
  0
POINT
  5
58
330
48
100
AcDbEntity
  8
1
 62
     4
100
AcDbPoint
 10
57.0
 20
14.25
 30
0.0
  0
POINT
  5
59
330
48
100
AcDbEntity
  8
1
 62
     4
100
AcDbPoint
 10
157.5
 20
12.5
 30
0.0
  0
POINT
  5
5A
330
48
100
AcDbEntity
  8
1
 62
     4
100
AcDbPoint
 10
163.25
 20
12.5
 30
0.0
  0
POINT
  5
5B
330
48
100
AcDbEntity
  8
1
 62
     4
100
AcDbPoint
 10
151.75
 20
12.5
 30
0.0
  0
POINT
  5
5C
330
48
100
AcDbEntity
  8
1
 62
     4
100
AcDbPoint
 10
134.75
 20
12.5
 30
0.0
  0
POINT
  5
5D
330
48
100
AcDbEntity
  8
1
 62
     4
100
AcDbPoint
 10
146.25
 20
12.5
 30
0.0
  0
POINT
  5
5E
330
48
100
AcDbEntity
  8
1
 62
     4
100
AcDbPoint
 10
140.5
 20
12.5
 30
0.0
  0
POINT
  5
5F
330
48
100
AcDbEntity
  8
1
 62
     4
100
AcDbPoint
 10
140.5
 20
19.00000000000002
 30
0.0
  0
POINT
  5
60
330
48
100
AcDbEntity
  8
1
 62
     4
100
AcDbPoint
 10
117.75
 20
12.5
 30
0.0
  0
POINT
  5
61
330
48
100
AcDbEntity
  8
1
 62
     4
100
AcDbPoint
 10
129.25
 20
12.5
 30
0.0
  0
POINT
  5
62
330
48
100
AcDbEntity
  8
1
 62
     4
100
AcDbPoint
 10
123.5
 20
12.5
 30
0.0
  0
POINT
  5
63
330
48
100
AcDbEntity
  8
1
 62
     4
100
AcDbPoint
 10
123.5
 20
19.00000000000002
 30
0.0
  0
POINT
  5
64
330
48
100
AcDbEntity
  8
1
 62
     4
100
AcDbPoint
 10
100.75
 20
12.5
 30
0.0
  0
POINT
  5
65
330
48
100
AcDbEntity
  8
1
 62
     4
100
AcDbPoint
 10
112.25
 20
12.5
 30
0.0
  0
POINT
  5
66
330
48
100
AcDbEntity
  8
1
 62
     4
100
AcDbPoint
 10
106.5
 20
12.5
 30
0.0
  0
POINT
  5
67
330
48
100
AcDbEntity
  8
1
 62
     4
100
AcDbPoint
 10
106.5
 20
19.00000000000002
 30
0.0
  0
POINT
  5
68
330
48
100
AcDbEntity
  8
1
 62
     4
100
AcDbPoint
 10
85.25
 20
16.99999999999999
 30
0.0
  0
POINT
  5
69
330
48
100
AcDbEntity
  8
1
 62
     4
100
AcDbPoint
 10
93.75
 20
16.99999999999999
 30
0.0
  0
POINT
  5
6A
330
48
100
AcDbEntity
  8
1
 62
     4
100
AcDbPoint
 10
183.0
 20
15.00000000000001
 30
0.0
  0
LINE
  5
6B
330
48
100
AcDbEntity
  8
1
  6
Continuous
 62
     2
100
AcDbLine
 10
81.0
 20
27.00000000000002
 30
0.0
 11
81.0
 21
10.0
 31
0.0
  0
LINE
  5
6C
330
48
100
AcDbEntity
  8
1
  6
DOT_CENTER
 62
     2
100
AcDbLine
 10
187.0
 20
26.50000000000002
 30
0.0
 11
187.0
 21
20.50000000000002
 31
0.0
  0
LINE
  5
6D
330
48
100
AcDbEntity
  8
1
  6
DOT_CENTER
 62
     2
100
AcDbLine
 10
184.0
 20
23.50000000000002
 30
0.0
 11
197.0
 21
23.50000000000002
 31
0.0
  0
LINE
  5
6E
330
48
100
AcDbEntity
  8
1
  6
Continuous
 62
     7
100
AcDbLine
 10
196.0
 20
21.50000000000002
 30
0.0
 11
191.0
 21
22.3
 31
0.0
  0
LINE
  5
6F
330
48
100
AcDbEntity
  8
1
  6
Continuous
 62
     7
100
AcDbLine
 10
196.0
 20
25.50000000000002
 30
0.0
 11
196.0
 21
21.50000000000002
 31
0.0
  0
LINE
  5
70
330
48
100
AcDbEntity
  8
1
  6
Continuous
 62
     7
100
AcDbLine
 10
191.0
 20
24.70000000000001
 30
0.0
 11
196.0
 21
25.50000000000002
 31
0.0
  0
LINE
  5
71
330
48
100
AcDbEntity
  8
1
  6
Continuous
 62
     7
100
AcDbLine
 10
191.0
 20
24.70000000000001
 30
0.0
 11
191.0
 21
22.3
 31
0.0
  0
LINE
  5
72
330
48
100
AcDbEntity
  8
1
  6
Continuous
 62
     2
100
AcDbLine
 10
33.0
 20
26.99999999999999
 30
0.0
 11
33.0
 21
10.0
 31
0.0
  0
LINE
  5
73
330
48
100
AcDbEntity
  8
1
  6
Continuous
 62
     2
100
AcDbLine
 10
25.0
 20
18.50000000000002
 30
0.0
 11
81.0
 21
18.50000000000002
 31
0.0
  0
LINE
  5
74
330
48
100
AcDbEntity
  8
1
  6
Continuous
 62
     7
100
AcDbLine
 10
200.0
 20
287.0000000000003
 30
0.0
 11
105.0
 21
287.0000000000003
 31
0.0
  0
LINE
  5
75
330
48
100
AcDbEntity
  8
1
  6
Continuous
 62
     7
100
AcDbLine
 10
200.0
 20
10.0
 30
0.0
 11
200.0
 21
148.5
 31
0.0
  0
LINE
  5
76
330
48
100
AcDbEntity
  8
1
  6
Continuous
 62
     7
100
AcDbLine
 10
25.0
 20
10.0
 30
0.0
 11
105.0
 21
10.0
 31
0.0
  0
LINE
  5
77
330
48
100
AcDbEntity
  8
1
  6
PHANTOM
 62
     4
100
AcDbLine
 10
0.0
 20
297.0
 30
0.0
 11
0.0
 21
0.0
 31
0.0
  0
LINE
  5
78
330
48
100
AcDbEntity
  8
1
  6
PHANTOM
 62
     4
100
AcDbLine
 10
210.0
 20
297.0
 30
0.0
 11
0.0
 21
297.0
 31
0.0
  0
LINE
  5
79
330
48
100
AcDbEntity
  8
1
  6
PHANTOM
 62
     4
100
AcDbLine
 10
210.0
 20
0.0
 30
0.0
 11
210.0
 21
297.0
 31
0.0
  0
LINE
  5
7A
330
48
100
AcDbEntity
  8
1
  6
PHANTOM
 62
     4
100
AcDbLine
 10
0.0
 20
0.0
 30
0.0
 11
210.0
 21
0.0
 31
0.0
  0
LINE
  5
7B
330
48
100
AcDbEntity
  8
1
  6
Continuous
 62
     7
100
AcDbLine
 10
25.0
 20
40.99999999999999
 30
0.0
 11
200.0
 21
40.99999999999999
 31
0.0
  0
LINE
  5
7C
330
48
100
AcDbEntity
  8
1
  6
Continuous
 62
     7
100
AcDbLine
 10
200.0
 20
27.00000000000002
 30
0.0
 11
25.0
 21
27.00000000000002
 31
0.0
  0
LINE
  5
7D
330
48
100
AcDbEntity
  8
1
  6
Continuous
 62
     2
100
AcDbLine
 10
33.0
 20
41.00000000000002
 30
0.0
 11
33.0
 21
26.99999999999999
 31
0.0
  0
LINE
  5
7E
330
48
100
AcDbEntity
  8
1
  6
Continuous
 62
     2
100
AcDbLine
 10
55.0
 20
287.0000000000003
 30
0.0
 11
55.0
 21
277.0000000000003
 31
0.0
  0
LINE
  5
7F
330
48
100
AcDbEntity
  8
1
  6
Continuous
 62
     2
100
AcDbLine
 10
40.0
 20
287.0000000000003
 30
0.0
 11
40.0
 21
277.0000000000003
 31
0.0
  0
LINE
  5
80
330
48
100
AcDbEntity
  8
1
  6
Continuous
 62
     7
100
AcDbLine
 10
25.0
 20
10.0
 30
0.0
 11
25.0
 21
148.5
 31
0.0
  0
LINE
  5
81
330
48
100
AcDbEntity
  8
1
  6
Continuous
 62
     2
100
AcDbLine
 10
55.0
 20
277.0000000000003
 30
0.0
 11
25.0
 21
277.0000000000003
 31
0.0
  0
LINE
  5
82
330
48
100
AcDbEntity
  8
1
  6
Continuous
 62
     2
100
AcDbLine
 10
166.0
 20
27.00000000000002
 30
0.0
 11
166.0
 21
10.0
 31
0.0
  0
LINE
  5
83
330
48
100
AcDbEntity
  8
1
  6
Continuous
 62
     2
100
AcDbLine
 10
132.0
 20
27.00000000000002
 30
0.0
 11
132.0
 21
9.99999999999999
 31
0.0
  0
LINE
  5
84
330
48
100
AcDbEntity
  8
1
  6
Continuous
 62
     2
100
AcDbLine
 10
149.0
 20
27.00000000000002
 30
0.0
 11
149.0
 21
10.0
 31
0.0
  0
LINE
  5
85
330
48
100
AcDbEntity
  8
1
  6
Continuous
 62
     2
100
AcDbLine
 10
115.0
 20
27.00000000000002
 30
0.0
 11
115.0
 21
9.99999999999999
 31
0.0
  0
LINE
  5
86
330
48
100
AcDbEntity
  8
1
  6
Continuous
 62
     2
100
AcDbLine
 10
98.0
 20
27.00000000000002
 30
0.0
 11
98.0
 21
9.99999999999999
 31
0.0
  0
LINE
  5
87
330
48
100
AcDbEntity
  8
1
  6
Continuous
 62
     2
100
AcDbLine
 10
166.0
 20
20.00000000000002
 30
0.0
 11
200.0
 21
20.00000000000002
 31
0.0
  0
LINE
  5
88
330
48
100
AcDbEntity
  8
1
  6
Continuous
 62
     2
100
AcDbLine
 10
105.0
 20
287.0000000000003
 30
0.0
 11
105.0
 21
292.0000000000003
 31
0.0
  0
LINE
  5
89
330
48
100
AcDbEntity
  8
1
  6
Continuous
 62
     7
100
AcDbLine
 10
105.0
 20
287.0000000000003
 30
0.0
 11
25.0
 21
287.0000000000003
 31
0.0
  0
LINE
  5
8A
330
48
100
AcDbEntity
  8
1
  6
Continuous
 62
     2
100
AcDbLine
 10
25.0
 20
148.5
 30
0.0
 11
20.0
 21
148.5
 31
0.0
  0
LINE
  5
8B
330
48
100
AcDbEntity
  8
1
  6
Continuous
 62
     7
100
AcDbLine
 10
25.0
 20
148.5
 30
0.0
 11
25.0
 21
287.0000000000003
 31
0.0
  0
LINE
  5
8C
330
48
100
AcDbEntity
  8
1
  6
Continuous
 62
     2
100
AcDbLine
 10
200.0
 20
148.5
 30
0.0
 11
205.0
 21
148.5
 31
0.0
  0
LINE
  5
8D
330
48
100
AcDbEntity
  8
1
  6
Continuous
 62
     7
100
AcDbLine
 10
200.0
 20
148.5
 30
0.0
 11
200.0
 21
287.0000000000003
 31
0.0
  0
LINE
  5
8E
330
48
100
AcDbEntity
  8
1
  6
Continuous
 62
     2
100
AcDbLine
 10
105.0
 20
10.0
 30
0.0
 11
105.0
 21
5.0
 31
0.0
  0
LINE
  5
8F
330
48
100
AcDbEntity
  8
1
  6
Continuous
 62
     7
100
AcDbLine
 10
105.0
 20
10.0
 30
0.0
 11
200.0
 21
10.0
 31
0.0
  0
CIRCLE
  5
94
330
48
100
AcDbEntity
  8
1
  6
DOT_CENTER
 62
     7
100
AcDbCircle
 10
89.5
 20
17.99999999999999
 30
0.0
 40
0.1000000000000227
  0
CIRCLE
  5
95
330
48
100
AcDbEntity
  8
1
  6
DOT_CENTER
 62
     7
100
AcDbCircle
 10
89.5
 20
16.0
 30
0.0
 40
0.1000000000000227
  0
CIRCLE
  5
96
330
48
100
AcDbEntity
  8
1
  6
Continuous
 62
     7
100
AcDbCircle
 10
187.0
 20
23.50000000000002
 30
0.0
 40
2.0
  0
CIRCLE
  5
97
330
48
100
AcDbEntity
  8
1
  6
Continuous
 62
     7
100
AcDbCircle
 10
187.0
 20
23.50000000000002
 30
0.0
 40
1.200000000000102
  0
CIRCLE
  5
98
330
48
100
AcDbEntity
  8
1
  6
Continuous
 62
     7
100
AcDbCircle
 10
154.5
 20
12.5
 30
0.0
 40
0.3000000000000114
  0
CIRCLE
  5
99
330
48
100
AcDbEntity
  8
1
  6
Continuous
 62
     7
100
AcDbCircle
 10
160.5
 20
12.5
 30
0.0
 40
0.3000000000000114
  0
CIRCLE
  5
9A
330
48
100
AcDbEntity
  8
1
  6
Continuous
 62
     7
100
AcDbCircle
 10
143.5
 20
12.5
 30
0.0
 40
0.3000000000000114
  0
CIRCLE
  5
9B
330
48
100
AcDbEntity
  8
1
  6
Continuous
 62
     7
100
AcDbCircle
 10
137.5
 20
12.5
 30
0.0
 40
0.3000000000000114
  0
CIRCLE
  5
9C
330
48
100
AcDbEntity
  8
1
  6
Continuous
 62
     7
100
AcDbCircle
 10
126.5
 20
12.5
 30
0.0
 40
0.2999999999999972
  0
CIRCLE
  5
9D
330
48
100
AcDbEntity
  8
1
  6
Continuous
 62
     7
100
AcDbCircle
 10
120.5
 20
12.5
 30
0.0
 40
0.2999999999999972
  0
CIRCLE
  5
9E
330
48
100
AcDbEntity
  8
1
  6
Continuous
 62
     7
100
AcDbCircle
 10
109.5
 20
12.5
 30
0.0
 40
0.2999999999999972
  0
CIRCLE
  5
9F
330
48
100
AcDbEntity
  8
1
  6
Continuous
 62
     7
100
AcDbCircle
 10
103.5
 20
12.5
 30
0.0
 40
0.2999999999999972
  0
SPLINE
  5
A0
102
{ACAD_REACTORS
330
BE
102
}
330
48
100
AcDbEntity
  8
_U_30EC_U_30A4_U_30E4_U_30FC_1
  6
Continuous
 62
     2
100
AcDbSpline
210
0.0
220
0.0
230
1.0
 70
    11
 71
     3
 72
    99
 73
    95
 74
    93
 42
0.000000001
 43
0.0000000001
 44
0.00000001
 40
0.0
 40
0.0
 40
0.0
 40
0.0
 40
0.0796417172272903
 40
0.1621768542355975
 40
0.2486489160957629
 40
0.3404969668524587
 40
0.438191251116516
 40
0.5434463660244895
 40
0.6518115192847216
 40
0.753019093788763
 40
0.8492196919725626
 40
0.9419290312998804
 40
1.034249663570092
 40
1.129078600620231
 40
1.226697027573271
 40
1.327220425421728
 40
1.470572134938042
 40
1.595489863371234
 40
1.719934125348423
 40
1.850576620127444
 40
1.989059629987328
 40
2.134139054226948
 40
2.280698007207237
 40
2.424529739039504
 40
2.565929576985826
 40
2.708239260773557
 40
2.861717887443668
 40
3.045168540347361
 40
3.183798301138607
 40
3.314813961455433
 40
3.442083470447286
 40
3.56991270837294
 40
3.702177512509337
 40
3.842307559659507
 40
3.992872223245911
 40
4.1567506622183
 40
4.310981861107522
 40
4.445859909322568
 40
4.572393936131591
 40
4.70165671978196
 40
4.768279086008423
 40
4.835960697898377
 40
4.91278891872931
 40
5.006285208481509
 40
5.026909478751586
 40
5.04753374902115
 40
5.101808031471221
 40
5.162325165538511
 40
5.226919745995823
 40
5.294231806596695
 40
5.364544852554823
 40
5.438319055467818
 40
5.517877651324234
 40
5.607647714861546
 40
5.700449642544394
 40
5.788251142364124
 40
5.872714706039756
 40
5.955167292575264
 40
6.037192395190361
 40
6.120669181469093
 40
6.206848616686329
 40
6.296680855416755
 40
6.442558392872575
 40
6.568190371608272
 40
6.692904567360391
 40
6.824220446557185
 40
6.963121850329371
 40
7.107843738851135
 40
7.253431663907247
 40
7.395187468036669
 40
7.533140753237725
 40
7.670550457175269
 40
7.816236511769274
 40
7.987691657359232
 40
8.142277421969274
 40
8.293662615415009
 40
8.442962460879313
 40
8.591598316185351
 40
8.74367899236183
 40
8.903725323699142
 40
9.076307008890542
 40
9.26557860468054
 40
9.459203795360771
 40
9.617619810273581
 40
9.753609671361945
 40
9.874873300004118
 40
9.954520184977822
 40
10.02416413719251
 40
10.09769764405451
 40
10.18909955924977
 40
10.20974586420139
 40
10.23039218263384
 40
10.3005710188127
 40
10.3763201298755
 40
10.3763201298755
 40
10.3763201298755
 40
10.3763201298755
 10
170.1465954835851
 20
14.13795663215994
 30
0.0
 10
170.1632217851219
 20
14.11720608845313
 30
0.0
 10
170.1970784206578
 20
14.07495111711905
 30
0.0
 10
170.2599822541035
 20
14.02029811392069
 30
0.0
 10
170.3332500940393
 20
13.9729902512105
 30
0.0
 10
170.4175969238635
 20
13.93527231437933
 30
0.0
 10
170.513224061546
 20
13.91040619731953
 30
0.0
 10
170.6171853775346
 20
13.90309559345936
 30
0.0
 10
170.7224020220406
 20
13.91142322794055
 30
0.0
 10
170.8206626371334
 20
13.94149179651527
 30
0.0
 10
170.9058986427549
 20
13.98848822971878
 30
0.0
 10
170.9779220206104
 20
14.04952991250855
 30
0.0
 10
171.0350917709096
 20
14.12412969578583
 30
0.0
 10
171.0767868747439
 20
14.21002464660176
 30
0.0
 10
171.1026952846292
 20
14.30485850432211
 30
0.0
 10
171.1118037332654
 20
14.41854979038368
 30
0.0
 10
171.0986864796486
 20
14.54332587770778
 30
0.0
 10
171.0325330334414
 20
14.66014719171892
 30
0.0
 10
170.9369370919568
 20
14.74512539577373
 30
0.0
 10
170.8249681022369
 20
14.81416684459163
 30
0.0
 10
170.6993659583269
 20
14.87204142045889
 30
0.0
 10
170.5656691620856
 20
14.9237372328434
 30
0.0
 10
170.431312281883
 20
14.97899092397182
 30
0.0
 10
170.3051983986877
 20
15.04939770641647
 30
0.0
 10
170.1926579987536
 20
15.13785540731253
 30
0.0
 10
170.0969963064457
 20
15.2498106786847
 30
0.0
 10
170.0334157151827
 20
15.39949910101384
 30
0.0
 10
170.0200706505016
 20
15.55932794385142
 30
0.0
 10
170.0320510987449
 20
15.71048405306843
 30
0.0
 10
170.071229892884
 20
15.83809244591541
 30
0.0
 10
170.1354987750911
 20
15.95080874030845
 30
0.0
 10
170.223820499974
 20
16.04648609268687
 30
0.0
 10
170.3338091207627
 20
16.12354214985752
 30
0.0
 10
170.4632284401265
 20
16.18151396936278
 30
0.0
 10
170.6111838967793
 20
16.21739177588822
 30
0.0
 10
170.7682069455487
 20
16.22746719050566
 30
0.0
 10
170.917494046643
 20
16.2186363776259
 30
0.0
 10
171.0596253614169
 20
16.19074899340352
 30
0.0
 10
171.1595922609625
 20
16.13413314701138
 30
0.0
 10
171.3125074736184
 20
16.08674602105508
 30
0.0
 10
171.2455131717169
 20
16.00197553001182
 30
0.0
 10
171.2296479120268
 20
15.93438901873486
 30
0.0
 10
171.1978750531297
 20
15.8692609279319
 30
0.0
 10
171.215020220957
 20
15.76723453256953
 30
0.0
 10
171.1666427208232
 20
15.77493211681903
 30
0.0
 10
171.1315789440766
 20
15.76806771724808
 30
0.0
 10
171.1296697985718
 20
15.83263831158196
 30
0.0
 10
171.0985692931989
 20
15.87825639621396
 30
0.0
 10
171.0664551628455
 20
15.93561036628455
 30
0.0
 10
171.0208038475168
 20
15.98540462692558
 30
0.0
 10
170.9658508218387
 20
16.02994813718994
 30
0.0
 10
170.9010841173008
 20
16.06763988836553
 30
0.0
 10
170.8232377310597
 20
16.0928337579135
 30
0.0
 10
170.7355160553352
 20
16.09931230998112
 30
0.0
 10
170.6452903277806
 20
16.09235709285606
 30
0.0
 10
170.5594594694064
 20
16.06909190460921
 30
0.0
 10
170.4828343638596
 20
16.03131644107544
 30
0.0
 10
170.4165265636201
 20
15.98051641089575
 30
0.0
 10
170.3622560536963
 20
15.9173114340721
 30
0.0
 10
170.3224925345459
 20
15.84276455710367
 30
0.0
 10
170.2976775510588
 20
15.75917313997763
 30
0.0
 10
170.289212426287
 20
15.65192948382285
 30
0.0
 10
170.3019697987103
 20
15.52965457267559
 30
0.0
 10
170.3681548409273
 20
15.41149724291209
 30
0.0
 10
170.4640977399833
 20
15.32606325709528
 30
0.0
 10
170.5757914963182
 20
15.25583362306725
 30
0.0
 10
170.7010863668703
 20
15.19659162305304
 30
0.0
 10
170.8349823941447
 20
15.1461670808613
 30
0.0
 10
170.968993033315
 20
15.09322516984382
 30
0.0
 10
171.0950885316914
 20
15.02750170625175
 30
0.0
 10
171.2076216638417
 20
14.94480352537319
 30
0.0
 10
171.3031370284234
 20
14.83996006310078
 30
0.0
 10
171.3672706486962
 20
14.69937117251568
 30
0.0
 10
171.3811103725279
 20
14.54065409451592
 30
0.0
 10
171.3673954712229
 20
14.38153155217876
 30
0.0
 10
171.3244739153986
 20
14.23483828819206
 30
0.0
 10
171.2545906329065
 20
14.10119796587143
 30
0.0
 10
171.157459221383
 20
13.98532387699292
 30
0.0
 10
171.0347806023656
 20
13.8908998177009
 30
0.0
 10
170.8874408413168
 20
13.82179270651976
 30
0.0
 10
170.7177132497125
 20
13.77953210858855
 30
0.0
 10
170.5317404979597
 20
13.76781736230406
 30
0.0
 10
170.3528955926184
 20
13.77809486683438
 30
0.0
 10
170.1881733753743
 20
13.81966573769151
 30
0.0
 10
170.0834410841057
 20
13.88797642883941
 30
0.0
 10
169.9350960790365
 20
13.93675219032106
 30
0.0
 10
169.9980378194729
 20
14.02976591290843
 30
0.0
 10
170.0072274430061
 20
14.10296536248279
 30
0.0
 10
170.0303711301233
 20
14.16936294501345
 30
0.0
 10
170.0034588335316
 20
14.2697480952758
 30
0.0
 10
170.0521338956339
 20
14.26234033517378
 30
0.0
 10
170.0916530580697
 20
14.26894063620895
 30
0.0
 10
170.0996204944702
 20
14.19078703218931
 30
0.0
 10
170.1305436967922
 20
14.15600927375856
 30
0.0
 10
170.1465954835851
 20
14.13795663215994
 30
0.0
 11
170.1465954835851
 21
14.13795663215994
 31
0.0
 11
170.1982038075864
 21
14.07729869814735
 31
0.0
 11
170.2601105501335
 21
14.0227129516332
 31
0.0
 11
170.3327764009802
 21
13.97583980928383
 31
0.0
 11
170.4166468655843
 21
13.93839906276537
 31
0.0
 11
170.511221073241
 21
13.91390636311877
 31
0.0
 11
170.6161603327165
 21
13.90575829888472
 31
0.0
 11
170.7240739497552
 21
13.91564048638223
 31
0.0
 11
170.8208419941617
 21
13.94528704887483
 31
0.0
 11
170.9050776083319
 21
13.99175118948819
 31
0.0
 11
170.9756144207687
 21
14.05191413218149
 31
0.0
 11
171.031944210998
 21
14.12505819466319
 31
0.0
 11
171.0736690016003
 21
14.21021434047523
 31
0.0
 11
171.0994680808032
 21
14.30436190989613
 31
0.0
 11
171.1080824729446
 21
14.4045155209822
 31
0.0
 11
171.0878517703357
 21
14.54643250879397
 31
0.0
 11
171.0272522666731
 21
14.65566684036386
 31
0.0
 11
170.9364971286285
 21
14.74081306430095
 31
0.0
 11
170.826010188474
 21
14.81052746532517
 31
0.0
 11
170.7008523531254
 21
14.86979854169922
 31
0.0
 11
170.5662951950998
 21
14.9240425347412
 31
0.0
 11
170.4316884277007
 21
14.98201274306004
 31
0.0
 11
170.3065802017258
 21
15.05297399304232
 31
0.0
 11
170.196027609828
 21
15.14113315968694
 31
0.0
 11
170.1053381235265
 21
15.25080295132617
 31
0.0
 11
170.0447055469484
 21
15.39179720476315
 31
0.0
 11
170.0245079172554
 21
15.57413260402313
 31
0.0
 11
170.0374030471348
 21
15.71216131926641
 31
0.0
 11
170.0761016659391
 21
15.83733128451289
 31
0.0
 11
170.1393141731506
 21
15.94779262129084
 31
0.0
 11
170.2257499954545
 21
16.04196885390621
 31
0.0
 11
170.3336492808962
 21
16.1184654077065
 31
0.0
 11
170.4613526283328
 21
16.17615670109488
 31
0.0
 11
170.6075393259923
 21
16.21220066809974
 31
0.0
 11
170.770976856545
 21
16.22421385386063
 31
0.0
 11
170.9248918431289
 21
16.21434269066864
 31
0.0
 11
171.0564887242607
 21
16.18477329831497
 31
0.0
 11
171.172563634494
 21
16.13439993895251
 31
0.0
 11
171.2800792741122
 21
16.06264163167877
 31
0.0
 11
171.2516994050445
 21
16.00236624106886
 31
0.0
 11
171.2284855254283
 21
15.93879017337648
 31
0.0
 11
171.2078381040801
 21
15.86478841992269
 31
0.0
 11
171.1871840681487
 21
15.77360197897328
 31
0.0
 11
171.1665597978415
 21
15.77360197897328
 31
0.0
 11
171.1459355275343
 21
15.77360197897328
 31
0.0
 11
171.1256706495791
 21
15.82395108486347
 31
0.0
 11
171.0994658759421
 21
15.8785004511693
 31
0.0
 11
171.0650468924451
 21
15.93316116296115
 31
0.0
 11
171.0203554612937
 21
15.98349593725411
 31
0.0
 11
170.9657333359511
 21
16.02777175321529
 31
0.0
 11
170.9016722004327
 21
16.06436142334501
 31
0.0
 11
170.825968296114
 21
16.08882545979727
 31
0.0
 11
170.7365722046449
 21
16.09701100667022
 31
0.0
 11
170.6440937174207
 21
16.08926973931101
 31
0.0
 11
170.5594072091645
 21
16.06609003445566
 31
0.0
 11
170.483702448884
 21
16.02863495634008
 31
0.0
 11
170.4183754766516
 21
15.97832774281103
 31
0.0
 11
170.3650487887664
 21
15.9160029337988
 31
0.0
 11
170.3254809233901
 21
15.84249947895607
 31
0.0
 11
170.3009523754711
 21
15.75988443557392
 31
0.0
 11
170.2927954104108
 21
15.67042329844352
 31
0.0
 11
170.3130095765617
 21
15.52595308146574
 31
0.0
 11
170.373625616682
 21
15.41591177072936
 31
0.0
 11
170.4643479320758
 21
15.33033670130631
 31
0.0
 11
170.5748676948814
 21
15.25941954854626
 31
0.0
 11
170.7000089937719
 21
15.1991430555058
 31
0.0
 11
170.8345826882553
 21
15.14590447913021
 31
0.0
 11
170.9691729191968
 21
15.09039489581073
 31
0.0
 11
171.0942976816297
 21
15.0237728124941
 31
0.0
 11
171.204800907977
 21
14.94118863716749
 31
0.0
 11
171.2955397598289
 21
14.83800003476272
 31
0.0
 11
171.3561557999489
 21
14.70552315979584
 31
0.0
 11
171.3763699660998
 21
14.53526378483839
 31
0.0
 11
171.3621839747998
 21
14.38133030397411
 31
0.0
 11
171.3196087009194
 21
14.23605531269097
 31
0.0
 11
171.2499752884265
 21
14.10398854189067
 31
0.0
 11
171.1544992078713
 21
13.99007218775248
 31
0.0
 11
171.0341060772624
 21
13.89715272597017
 31
0.0
 11
170.8896160201847
 21
13.82832357668179
 31
0.0
 11
170.7223519532714
 21
13.78581275203967
 31
0.0
 11
170.5336103348227
 21
13.77165864614041
 31
0.0
 11
170.3405031726388
 21
13.78581275203967
 31
0.0
 11
170.1878975900911
 21
13.82832357668179
 31
0.0
 11
170.0661897942203
 21
13.88899033013889
 31
0.0
 11
169.9660261826363
 21
13.95734322942737
 31
0.0
 11
169.9922320587039
 21
14.03255545163076
 31
0.0
 11
170.0090121537619
 21
14.10014767383612
 31
0.0
 11
170.0206196447853
 21
14.17275926235962
 31
0.0
 11
170.0313606254139
 21
14.26352788212859
 31
0.0
 11
170.0520069443315
 21
14.26352788212859
 31
0.0
 11
170.0726532632492
 21
14.26352788212859
 31
0.0
 11
170.1048916391629
 21
14.20119204881083
 31
0.0
 11
170.1465954835851
 21
14.13795663215994
 31
0.0
  0
SPLINE
  5
A1
102
{ACAD_REACTORS
330
BF
102
}
330
48
100
AcDbEntity
  8
_U_30EC_U_30A4_U_30E4_U_30FC_1
  6
Continuous
 62
     2
100
AcDbSpline
210
0.0
220
0.0
230
1.0
 70
    11
 71
     3
 72
    57
 73
    53
 74
    51
 42
0.000000001
 43
0.0000000001
 44
0.00000001
 40
0.0
 40
0.0
 40
0.0
 40
0.0
 40
0.0471632082810086
 40
0.0914861054633007
 40
0.1357762519703243
 40
0.1826527001611537
 40
0.2295203288573446
 40
0.2737751972221616
 40
0.3181310461543928
 40
0.3652607198398525
 40
0.4571007286314639
 40
0.5671851029165579
 40
0.6894623283868666
 40
0.8181758272545937
 40
0.9510087229274233
 40
1.085852229674063
 40
1.218126164475326
 40
1.343545131142381
 40
1.454537202956882
 40
1.567187607530891
 40
1.68071096664251
 40
1.794226869736874
 40
1.900009184247674
 40
2.004085860447953
 40
2.108162674451841
 40
2.214000150155301
 40
2.496038577352169
 40
2.762350745479308
 40
2.997275353279419
 40
3.18511008213776
 40
3.246407890063988
 40
3.312607550212719
 40
3.378877742711621
 40
3.440140399651476
 40
4.100501696006495
 40
4.754913085563562
 40
5.411331693423959
 40
6.077890432568749
 40
6.110575292671028
 40
6.143260152775808
 40
6.367989363395203
 40
6.610525374951639
 40
6.863389136467381
 40
7.119380025547662
 40
7.376036605091161
 40
7.631164770966356
 40
7.876722425456497
 40
8.104953735856006
 40
8.312916685924348
 40
8.497730294941402
 40
8.651018984313923
 40
8.76473885362468
 40
8.76473885362468
 40
8.76473885362468
 40
8.76473885362468
 10
174.7922649500514
 20
13.81626739612927
 30
0.0
 10
174.7766616726932
 20
13.81826231079078
 30
0.0
 10
174.7463947960302
 20
13.82213201360298
 30
0.0
 10
174.7010994202253
 20
13.82341984967269
 30
0.0
 10
174.6559553129349
 20
13.82308683554051
 30
0.0
 10
174.60990171234
 20
13.82314658674225
 30
0.0
 10
174.5640496172096
 20
13.82325813650001
 30
0.0
 10
174.5183711648165
 20
13.82277833456591
 30
0.0
 10
174.4750811541608
 20
13.82461109618722
 30
0.0
 10
174.4039947951514
 20
13.80049556814658
 30
0.0
 10
174.4057477261441
 20
13.92184693977252
 30
0.0
 10
174.358619637057
 20
14.00726239751233
 30
0.0
 10
174.3191478251762
 20
14.12486929345133
 30
0.0
 10
174.2706635532646
 20
14.24232752540443
 30
0.0
 10
174.2201017402522
 20
14.36405935761505
 30
0.0
 10
174.1718634610478
 20
14.49075967862469
 30
0.0
 10
174.1135232947595
 20
14.59933687784951
 30
0.0
 10
174.0980892667262
 20
14.75620657134413
 30
0.0
 10
173.9566586330635
 20
14.72373446548322
 30
0.0
 10
173.8508397414904
 20
14.7351288868218
 30
0.0
 10
173.7358569725222
 20
14.73392591514616
 30
0.0
 10
173.625314225214
 20
14.73506945347408
 30
0.0
 10
173.5176583522783
 20
14.73418350037527
 30
0.0
 10
173.4121322529242
 20
14.73416602390519
 30
0.0
 10
173.3109192682013
 20
14.72714032472416
 30
0.0
 10
173.1266804827754
 20
14.75135859859864
 30
0.0
 10
173.1157393685411
 20
14.44741691121887
 30
0.0
 10
173.008769163475
 20
14.22353177253398
 30
0.0
 10
172.9098148604348
 20
14.03895314292495
 30
0.0
 10
172.9225090524007
 20
13.79530204804206
 30
0.0
 10
172.8050091716397
 20
13.82508046753197
 30
0.0
 10
172.742205586831
 20
13.82258089509604
 30
0.0
 10
172.67858720934
 20
13.82344075102805
 30
0.0
 10
172.3946014194075
 20
13.78098039941944
 30
0.0
 10
173.0251638499381
 20
14.50081952444786
 30
0.0
 10
173.1087645289071
 20
15.0127653943573
 30
0.0
 10
173.4929252789339
 20
15.53353743550044
 30
0.0
 10
173.4777208288565
 20
16.23519626253214
 30
0.0
 10
173.7239265722697
 20
16.22345633081257
 30
0.0
 10
173.825634615756
 20
16.23225004452773
 30
0.0
 10
173.8249752035818
 20
15.98059650730345
 30
0.0
 10
173.9428317155829
 20
15.79818020733962
 30
0.0
 10
174.0315515260484
 20
15.55563740662864
 30
0.0
 10
174.1322292485259
 20
15.32340030530126
 30
0.0
 10
174.2311142712243
 20
15.08674644566914
 30
0.0
 10
174.3299676990669
 20
14.8546173917009
 30
0.0
 10
174.4256166390926
 20
14.63122222788791
 30
0.0
 10
174.5159904573271
 20
14.42272549049316
 30
0.0
 10
174.5989944568188
 20
14.23308448529317
 30
0.0
 10
174.67260885828
 20
14.06663106068103
 30
0.0
 10
174.7342815895545
 20
13.92917699626094
 30
0.0
 10
174.7749458885604
 20
13.84999239430033
 30
0.0
 10
174.7922649500514
 20
13.81626739612927
 30
0.0
 11
174.7922649500514
 21
13.81626739612927
 31
0.0
 11
174.7453878317448
 21
13.82145433189186
 31
0.0
 11
174.7010975896125
 21
13.82315538223863
 31
0.0
 11
174.6568074431729
 21
13.82315538223863
 31
0.0
 11
174.6099309947159
 21
13.82315538223863
 31
0.0
 11
174.5630633657033
 21
13.82315538223863
 31
0.0
 11
174.5188084970408
 21
13.82315538223863
 31
0.0
 11
174.4744852776854
 21
13.82145433189185
 31
0.0
 11
174.4276419021444
 21
13.81626739612927
 31
0.0
 11
174.3992532136325
 21
13.90360966173244
 31
0.0
 11
174.3622721815898
 21
14.0072965627482
 31
0.0
 11
174.3188386236701
 21
14.12159987001127
 31
0.0
 11
174.2711055866937
 21
14.24113531268969
 31
0.0
 11
174.2208160133237
 21
14.36408057307565
 31
0.0
 11
174.1696467003933
 21
14.48883822929447
 31
0.0
 11
174.1197531801326
 21
14.61134141502772
 31
0.0
 11
174.0733119111842
 21
14.72784517367917
 31
0.0
 11
173.9623611907589
 21
14.73087465284506
 31
0.0
 11
173.8497309225089
 21
14.7330045486779
 31
0.0
 11
173.7362152069449
 21
14.73432195319141
 31
0.0
 11
173.62270004768
 21
14.73473315978853
 31
0.0
 11
173.5169185312816
 21
14.73432195319141
 31
0.0
 11
173.4128501919225
 21
14.7330045486779
 31
0.0
 11
173.3087951724045
 21
14.73087465284506
 31
0.0
 11
173.2030010615597
 21
14.72784517367917
 31
0.0
 11
173.0980914750139
 21
14.4660443751335
 31
0.0
 11
173.0034868690331
 21
14.2171023265846
 31
0.0
 11
172.9252231210299
 21
13.99559756969557
 31
0.0
 11
172.8693431224555
 21
13.81626739612927
 31
0.0
 11
172.8082651639442
 21
13.82145433189186
 31
0.0
 11
172.742087361813
 21
13.82315538223863
 31
0.0
 11
172.6758390041282
 21
13.82145433189185
 31
0.0
 11
172.6147963233938
 21
13.81626739612927
 31
0.0
 11
172.889968495193
 21
14.41656508695142
 31
0.0
 11
173.158294573417
 21
15.01343642360776
 31
0.0
 11
173.4240277350405
 21
15.61366245644381
 31
0.0
 11
173.6914740737033
 21
16.22421385386063
 31
0.0
 11
173.7241589339806
 21
16.22421385386063
 31
0.0
 11
173.7568437942579
 21
16.22421385386063
 31
0.0
 11
173.8428300681057
 21
16.01658539037084
 31
0.0
 11
173.935728581361
 21
15.79254614563517
 31
0.0
 11
174.0328714521464
 21
15.55908663180468
 31
0.0
 11
174.1317936458031
 21
15.32298128464144
 31
0.0
 11
174.2315341249927
 21
15.08649780379783
 31
0.0
 11
174.3313071129353
 21
14.85168781253709
 31
0.0
 11
174.4280608257449
 21
14.6259949219685
 31
0.0
 11
174.5188084970408
 21
14.4165805209792
 31
0.0
 11
174.6022150834546
 21
14.22607611130461
 31
0.0
 11
174.6770293263378
 21
14.05708232662466
 31
0.0
 11
174.7410729186603
 21
13.91781337700667
 31
0.0
 11
174.7922649500514
 21
13.81626739612927
 31
0.0
  0
SPLINE
  5
A2
102
{ACAD_REACTORS
330
BF
102
}
330
48
100
AcDbEntity
  8
_U_30EC_U_30A4_U_30E4_U_30FC_1
  6
Continuous
 62
     2
100
AcDbSpline
210
0.0
220
0.0
230
1.0
 70
    11
 71
     3
 72
    25
 73
    21
 74
    19
 42
0.000000001
 43
0.0000000001
 44
0.00000001
 40
0.0
 40
0.0
 40
0.0
 40
0.0
 40
0.091147996906539
 40
0.1858117896204668
 40
0.2804128399734491
 40
0.371588919071451
 40
0.4679080494218708
 40
0.5642683809229231
 40
0.6605683222645274
 40
0.7569653015811109
 40
0.8561348172523592
 40
1.092615965104389
 40
1.374867658141983
 40
1.61134881201172
 40
1.710518328425368
 40
1.809403163726687
 40
2.045205463294189
 40
2.32664691762225
 40
2.562449217190712
 40
2.661334043834031
 40
2.661334043834031
 40
2.661334043834031
 40
2.661334043834031
 10
173.2683700567199
 20
14.88614538197292
 30
0.0
 10
173.2987525917923
 20
14.88598079714555
 30
0.0
 10
173.3606895889112
 20
14.88564528689922
 30
0.0
 10
173.454135696033
 20
14.88269055451998
 30
0.0
 10
173.5475095236357
 20
14.87977752877151
 30
0.0
 10
173.6417760753476
 20
14.87894201643417
 30
0.0
 10
173.7354964790967
 20
14.87996644658046
 30
0.0
 10
173.8352040303205
 20
14.87916977470972
 30
0.0
 10
173.9188949546313
 20
14.88921410235219
 30
0.0
 10
174.0637996315045
 20
14.86234617674163
 30
0.0
 10
173.9396132444802
 20
15.03665530280049
 30
0.0
 10
173.8965867286282
 20
15.19651711006091
 30
0.0
 10
173.780892214221
 20
15.45518458550216
 30
0.0
 10
173.7017565431257
 20
15.59231052861857
 30
0.0
 10
173.6431576621816
 20
15.80937033134077
 30
0.0
 10
173.5864803939438
 20
15.59266134213428
 30
0.0
 10
173.5052809900477
 20
15.45327012438235
 30
0.0
 10
173.4063701281488
 20
15.20406969370195
 30
0.0
 10
173.325362509426
 20
15.01925830226073
 30
0.0
 10
173.2813683325838
 20
14.91650446856116
 30
0.0
 10
173.2683700567199
 20
14.88614538197292
 30
0.0
 11
173.2683700567199
 21
14.88614538197292
 31
0.0
 11
173.3595137737821
 21
14.88526123266759
 31
0.0
 11
173.4541428297581
 21
14.88269697919598
 31
0.0
 11
173.5487082179706
 21
14.88009965280777
 31
0.0
 11
173.6398803250196
 21
14.8792485764191
 31
0.0
 11
173.7361985777706
 21
14.87965978301621
 31
0.0
 11
173.8325499034376
 21
14.88097718752971
 31
0.0
 11
173.9288262638286
 21
14.88310818579312
 31
0.0
 11
174.0251753846344
 21
14.88614538197292
 31
0.0
 11
173.9854633323142
 21
14.9770164219502
 31
0.0
 11
173.8907653613969
 21
15.19370890189602
 31
0.0
 11
173.7777387509471
 21
15.45234186183135
 31
0.0
 11
173.6830407800297
 21
15.66903434177717
 31
0.0
 11
173.6433287277095
 21
15.75990538175445
 31
0.0
 11
173.6043330259266
 21
15.66903434177717
 31
0.0
 11
173.5113432755212
 21
15.45234186183135
 31
0.0
 11
173.4003555089082
 21
15.19370890189602
 31
0.0
 11
173.3073657585028
 21
14.9770164219502
 31
0.0
 11
173.2683700567199
 21
14.88614538197292
 31
0.0
  0
SPLINE
  5
A3
102
{ACAD_REACTORS
330
C0
102
}
330
48
100
AcDbEntity
  8
_U_30EC_U_30A4_U_30E4_U_30FC_1
  6
Continuous
 62
     2
100
AcDbSpline
210
0.0
220
0.0
230
1.0
 70
    11
 71
     3
 72
    95
 73
    91
 74
    89
 42
0.000000001
 43
0.0000000001
 44
0.00000001
 40
0.0
 40
0.0
 40
0.0
 40
0.0
 40
0.6550406656911508
 40
1.308087289031932
 40
1.420803739835805
 40
1.566130759770813
 40
1.75706734188847
 40
2.006513545026472
 40
2.087328263121553
 40
2.185328872295633
 40
2.294612454748369
 40
2.408936380534819
 40
2.526802767798565
 40
2.646360524615613
 40
2.762535723971582
 40
2.870057342870154
 40
2.966883448431652
 40
3.050803243518303
 40
3.115818222436618
 40
3.156030057150248
 40
3.213914225080122
 40
3.276689026450466
 40
3.342960320981329
 40
3.404230667150578
 40
3.453822809493392
 40
3.532499827188454
 40
3.634775188507196
 40
3.754909333008199
 40
3.889736761660688
 40
4.035769602175249
 40
4.187256681197632
 40
4.338733685675981
 40
4.488478734676139
 40
4.63470831783162
 40
4.771493189921297
 40
4.892686571561235
 40
5.199775528944471
 40
5.460353566929661
 40
5.667603142345536
 40
5.814722905404523
 40
5.828990806219849
 40
5.855488336304518
 40
5.86975623711885
 40
6.189796507762807
 40
6.531890469872999
 40
6.883053637016985
 40
7.230512024911456
 40
7.566966656764582
 40
7.88520355970739
 40
8.172887439719213
 40
8.418011594062804
 40
8.443926721190726
 40
8.510760470613214
 40
8.602145393795723
 40
8.701714041647165
 40
8.793098965075394
 40
8.859932715057967
 40
8.885847842603617
 40
9.242301256612834
 40
9.589275455016777
 40
9.921808543164197
 40
10.2347962429847
 40
10.29968150889181
 40
10.35323493887769
 40
10.40154625355156
 40
10.46482922477829
 40
10.5597390066841
 40
10.69239545985621
 40
10.84920353475676
 40
11.01626328594784
 40
11.18672024367448
 40
11.35372582577215
 40
11.50257442292431
 40
11.61866495023295
 40
11.71329869152878
 40
11.82511050573912
 40
11.9446488084572
 40
12.0692924264251
 40
12.19707290435181
 40
12.32562632860533
 40
12.45034565331283
 40
12.56646595170331
 40
12.6709900741464
 40
12.76077625936787
 40
12.82703233506699
 40
12.87429132785998
 40
12.89831990323337
 40
12.92234847860025
 40
13.53984767410323
 40
14.18294284359371
 40
14.18294284359371
 40
14.18294284359371
 40
14.18294284359371
 10
177.3067935648021
 20
14.70898038201725
 30
0.0
 10
177.1752019758551
 20
14.82265058603232
 30
0.0
 10
176.9124193802728
 20
15.04964496316158
 30
0.0
 10
176.399739344102
 20
15.89214462956288
 30
0.0
 10
176.4106654595362
 20
15.53423377577019
 30
0.0
 10
176.4041226527991
 20
15.39267392272133
 30
0.0
 10
176.4028026631773
 20
15.1942130529928
 30
0.0
 10
176.4018117602538
 20
15.02150296045982
 30
0.0
 10
176.4024101751975
 20
14.8786537325758
 30
0.0
 10
176.4038994301882
 20
14.78265005413358
 30
0.0
 10
176.4055683588473
 20
14.67545503263142
 30
0.0
 10
176.4071934954617
 20
14.56164211517582
 30
0.0
 10
176.4092429501685
 20
14.44441572604589
 30
0.0
 10
176.4123165501927
 20
14.3265641123297
 30
0.0
 10
176.4156339697043
 20
14.21228087320621
 30
0.0
 10
176.419360534028
 20
14.10521401867278
 30
0.0
 10
176.4217338161424
 20
14.01007408766922
 30
0.0
 10
176.4278718888357
 20
13.92558557205695
 30
0.0
 10
176.4239784495947
 20
13.86923087298142
 30
0.0
 10
176.4455230443077
 20
13.79825022472356
 30
0.0
 10
176.3680940058618
 20
13.82902677604483
 30
0.0
 10
176.3116353240191
 20
13.82011242517614
 30
0.0
 10
176.2540495896807
 20
13.82896218398276
 30
0.0
 10
176.1690163478472
 20
13.79738225225945
 30
0.0
 10
176.2009714146383
 20
13.88095155992189
 30
0.0
 10
176.199070528254
 20
13.9488260896831
 30
0.0
 10
176.21079600473
 20
14.05233256764419
 30
0.0
 10
176.2164241053001
 20
14.17002125616695
 30
0.0
 10
176.223790217894
 20
14.30388609164423
 30
0.0
 10
176.2320759701611
 20
14.44764152872632
 30
0.0
 10
176.2398851897426
 20
14.59714022843445
 30
0.0
 10
176.2457571222657
 20
14.74792549402078
 30
0.0
 10
176.2503667817968
 20
14.89699943878438
 30
0.0
 10
176.2542632117542
 20
15.04122913163022
 30
0.0
 10
176.2570715126564
 20
15.17583905213018
 30
0.0
 10
176.2576698755022
 20
15.36469614347354
 30
0.0
 10
176.261602386715
 20
15.58975494313154
 30
0.0
 10
176.2442175378499
 20
15.86367091125707
 30
0.0
 10
176.2850417342582
 20
16.02787112098597
 30
0.0
 10
176.1995153256003
 20
16.22749661465098
 30
0.0
 10
176.2660558907689
 20
16.22385458403979
 30
0.0
 10
176.2838724273231
 20
16.22413447160854
 30
0.0
 10
176.4056801797504
 20
16.22632927398616
 30
0.0
 10
176.5080770335462
 20
15.9467511872151
 30
0.0
 10
176.7580021509355
 20
15.74563008536002
 30
0.0
 10
176.9870035331111
 20
15.47792614987916
 30
0.0
 10
177.2245151213108
 20
15.22646413862375
 30
0.0
 10
177.4486090740772
 20
14.98969974061361
 30
0.0
 10
177.6750716283009
 20
14.73218692583078
 30
0.0
 10
177.8325687886513
 20
14.6164933505692
 30
0.0
 10
178.0472129612677
 20
14.27997152538793
 30
0.0
 10
178.0422645974619
 20
14.40464754091603
 30
0.0
 10
178.0433931602548
 20
14.46327691935737
 30
0.0
 10
178.0428877841517
 20
14.55043662371977
 30
0.0
 10
178.0430475158113
 20
14.64416143182872
 30
0.0
 10
178.043005489132
 20
14.73018971297035
 30
0.0
 10
178.0430202040374
 20
14.79153891945496
 30
0.0
 10
178.0429706255984
 20
14.94135231520992
 30
0.0
 10
178.0458811522811
 20
15.17989612510104
 30
0.0
 10
178.0259521041161
 20
15.544865098687
 30
0.0
 10
178.0750433936248
 20
15.80799631993412
 30
0.0
 10
177.9177951509179
 20
16.21928904947751
 30
0.0
 10
178.0762112872422
 20
16.16398282551748
 30
0.0
 10
178.1311680478628
 20
16.16199686500175
 30
0.0
 10
178.182788776674
 20
16.16264778248251
 30
0.0
 10
178.2713198965366
 20
16.20369527738245
 30
0.0
 10
178.2204898303168
 20
16.05696326622986
 30
0.0
 10
178.2313389930283
 20
15.95019971954434
 30
0.0
 10
178.2166036994847
 20
15.79085705414112
 30
0.0
 10
178.2099976446204
 20
15.62853061652874
 30
0.0
 10
178.2014961399914
 20
15.45992521892396
 30
0.0
 10
178.19432272022
 20
15.29814814703541
 30
0.0
 10
178.1889063215389
 20
15.15422331457933
 30
0.0
 10
178.1871713967649
 20
15.03437493466925
 30
0.0
 10
178.187544067232
 20
14.92686101590515
 30
0.0
 10
178.1873656126264
 20
14.81820024645586
 30
0.0
 10
178.1877010863139
 20
14.6995357016553
 30
0.0
 10
178.1890040622184
 20
14.57555163512741
 30
0.0
 10
178.1908887351574
 20
14.44858294171104
 30
0.0
 10
178.1925004454851
 20
14.32153861551032
 30
0.0
 10
178.1941403137429
 20
14.19854884492178
 30
0.0
 10
178.1962570745752
 20
14.08300931383759
 30
0.0
 10
178.1963848422364
 20
13.98090903955837
 30
0.0
 10
178.2006514396554
 20
13.89009848838156
 30
0.0
 10
178.1908440085289
 20
13.83213621208786
 30
0.0
 10
178.2118474771689
 20
13.76517130132029
 30
0.0
 10
178.1725639739896
 20
13.77291153966687
 30
0.0
 10
177.9595307117748
 20
13.75755254145192
 30
0.0
 10
177.7636297943186
 20
14.31403058094472
 30
0.0
 10
177.4611197631543
 20
14.57556035348511
 30
0.0
 10
177.3067935648021
 20
14.70898038201725
 30
0.0
 11
177.3067935648021
 21
14.70898038201725
 31
0.0
 11
176.8595529338511
 21
15.18757635411978
 31
0.0
 11
176.4124049070643
 21
15.6635264928897
 31
0.0
 11
176.4089664262494
 21
15.55086249986232
 31
0.0
 11
176.40556101835
 21
15.40557538184309
 31
0.0
 11
176.4029636920274
 21
15.21465645827967
 31
0.0
 11
176.4021126156603
 21
14.96521170139756
 31
0.0
 11
176.4025239230289
 21
14.8843980295428
 31
0.0
 11
176.4038420329817
 21
14.78640628477561
 31
0.0
 11
176.4055192267718
 21
14.67713557299739
 31
0.0
 11
176.4072367127518
 21
14.56282454872039
 31
0.0
 11
176.4094007838772
 21
14.44497802965266
 31
0.0
 11
176.4124049070643
 21
14.32545802100199
 31
0.0
 11
176.4158359733138
 21
14.20933349846156
 31
0.0
 11
176.4192928929998
 21
14.1018674655023
 31
0.0
 11
176.4227085253088
 21
14.00510162351264
 31
0.0
 11
176.4261896983793
 21
13.92125406276972
 31
0.0
 11
176.4296006184313
 21
13.85632862007759
 31
0.0
 11
176.4330776843148
 21
13.81626739612927
 31
0.0
 11
176.3754263821572
 21
13.82145433189186
 31
0.0
 11
176.312674631831
 21
13.82315538223863
 31
0.0
 11
176.2464251717157
 21
13.82145433189185
 31
0.0
 11
176.1853747739675
 21
13.81626739612927
 31
0.0
 11
176.1926772737813
 21
13.86531894125589
 31
0.0
 11
176.2008793569055
 21
13.94356725720855
 31
0.0
 11
176.2090098822349
 21
14.04551893253029
 31
0.0
 11
176.2163406441398
 21
14.16542920159753
 31
0.0
 11
176.2236358280421
 21
14.3000591234389
 31
0.0
 11
176.2318444255596
 21
14.44586107652745
 31
0.0
 11
176.2395504149465
 21
14.59715203135073
 31
0.0
 11
176.2455763002093
 21
14.74850913200734
 31
0.0
 11
176.2503046247416
 21
14.89817951391435
 31
0.0
 11
176.254192897212
 21
15.04435739582223
 31
0.0
 11
176.2567527408965
 21
15.18111831592696
 31
0.0
 11
176.2576324804574
 21
15.3023085068689
 31
0.0
 11
176.257192610677
 21
15.60939715262544
 31
0.0
 11
176.2559126888347
 21
15.86997204839365
 31
0.0
 11
176.2528658717893
 21
16.07719922716125
 31
0.0
 11
176.2473049112764
 21
16.22421385386063
 31
0.0
 11
176.261572812147
 21
16.22421385386063
 31
0.0
 11
176.2880703423353
 21
16.22421385386063
 31
0.0
 11
176.3023382432059
 21
16.22421385386063
 31
0.0
 11
176.5194743650277
 21
15.98910179662772
 31
0.0
 11
176.7512744123079
 21
15.73751281231561
 31
0.0
 11
176.9894816018839
 21
15.4794955554357
 31
0.0
 11
177.2260074557521
 21
15.22497079855489
 31
0.0
 11
177.4555698717706
 21
14.97899759549137
 31
0.0
 11
177.6731797360103
 21
14.74678934034107
 31
0.0
 11
177.8713724913707
 21
14.53826680567099
 31
0.0
 11
178.0430143099087
 21
14.36326697932589
 31
0.0
 11
178.0430143099087
 21
14.38918210687043
 31
0.0
 11
178.0430143099087
 21
14.45601585685371
 31
0.0
 11
178.0430143099087
 21
14.54740078030025
 31
0.0
 11
178.0430143099087
 21
14.64696942823453
 31
0.0
 11
178.0430143099087
 21
14.73835435168106
 31
0.0
 11
178.0430143099087
 21
14.80518810166435
 31
0.0
 11
178.0430143099087
 21
14.83110322920889
 31
0.0
 11
178.0417233637609
 21
15.18755430550867
 31
0.0
 11
178.0378461155958
 21
15.53450684014414
 31
0.0
 11
178.0296197790002
 21
15.86693815950552
 31
0.0
 11
178.0154535467228
 21
16.17960510387179
 31
0.0
 11
178.0790351249618
 21
16.16666367158334
 31
0.0
 11
178.1324170159611
 21
16.16238072887607
 31
0.0
 11
178.1805381084833
 21
16.16666367158334
 31
0.0
 11
178.2424836798197
 21
16.17960510387179
 31
0.0
 11
178.2351216487575
 21
16.084981284451
 31
0.0
 11
178.2269790968818
 21
15.95257496503965
 31
0.0
 11
178.2183705364004
 21
15.79600336785656
 31
0.0
 11
178.2097547223215
 21
15.62916593734271
 31
0.0
 11
178.2016187850289
 21
15.45890325509361
 31
0.0
 11
178.1942501393836
 21
15.292060312427
 31
0.0
 11
178.1891406931522
 21
15.1432994357281
 31
0.0
 11
178.1874503478905
 21
15.02722121527101
 31
0.0
 11
178.1874503478905
 21
14.93258747397519
 31
0.0
 11
178.1874503478905
 21
14.82077565976707
 31
0.0
 11
178.1878461204497
 21
14.70123801222749
 31
0.0
 11
178.1890819450708
 21
14.5766005209392
 31
0.0
 11
178.1908392193317
 21
14.44883212687391
 31
0.0
 11
178.1925303477608
 21
14.32028982655879
 31
0.0
 11
178.1942876220214
 21
14.19558288214555
 31
0.0
 11
178.1959787504505
 21
14.0794748960635
 31
0.0
 11
178.1972884379172
 21
13.97495896727017
 31
0.0
 11
178.1976985420735
 21
13.88517371555652
 31
0.0
 11
178.1976985420735
 21
13.81891763918416
 31
0.0
 11
178.1976985420735
 21
13.77165864614041
 31
0.0
 11
178.1736699662976
 21
13.77165864614041
 31
0.0
 11
178.1496413905217
 21
13.77165864614041
 31
0.0
 11
177.7410729200423
 21
14.23466735262191
 31
0.0
 11
177.3067935648021
 21
14.70898038201725
 31
0.0
  0
SPLINE
  5
A4
102
{ACAD_REACTORS
330
C1
102
}
330
48
100
AcDbEntity
  8
_U_30EC_U_30A4_U_30E4_U_30FC_1
  6
Continuous
 62
     2
100
AcDbSpline
210
0.0
220
0.0
230
1.0
 70
    11
 71
     3
 72
   110
 73
   106
 74
   104
 42
0.000000001
 43
0.0000000001
 44
0.00000001
 40
0.0
 40
0.0
 40
0.0
 40
0.0
 40
0.2203406257277732
 40
0.4407808782838093
 40
0.5952494494615073
 40
0.7488431659393074
 40
0.9023581831309344
 40
1.056801968670405
 40
1.210736449099962
 40
1.363041386539784
 40
1.515315729683126
 40
1.669377239148077
 40
1.721611652756564
 40
1.773199502942948
 40
1.824933793209997
 40
1.877110426487978
 40
1.982682281206742
 40
2.07878166708755
 40
2.172809640822272
 40
2.271937807378926
 40
2.378349933379319
 40
2.494131557736508
 40
2.626681683943613
 40
2.783145050796069
 40
2.890701232940918
 40
2.993130312454817
 40
3.099869730691807
 40
3.220237816691309
 40
3.352695482737586
 40
3.481732806389849
 40
3.593499473690368
 40
3.674323013331874
 40
3.817951711952824
 40
3.946167120793821
 40
4.061405053453535
 40
4.166480796003147
 40
4.262478775059185
 40
4.350736673551141
 40
4.433071991254026
 40
4.511216293814629
 40
4.564262454117956
 40
4.618474415571573
 40
4.670128488754176
 40
4.722296879126374
 40
4.819540945314244
 40
4.9311949841281
 40
5.049996040257742
 40
5.168643755415287
 40
5.283970811762499
 40
5.392260784910325
 40
5.486512254876371
 40
5.559178233949798
 40
5.591425852853458
 40
5.626215969637851
 40
5.667155838674379
 40
5.717449290214193
 40
5.738402360944806
 40
5.784499116553774
 40
5.830595872164742
 40
5.8515489428976
 40
5.873019280661715
 40
5.924217778408257
 40
5.985325662817636
 40
6.036524160567653
 40
6.057994498334181
 40
6.236847789607428
 40
6.381409928945596
 40
6.493190424178635
 40
6.574067534230446
 40
6.69101808620554
 40
6.814881554220458
 40
6.94430782324041
 40
7.071266716066035
 40
7.193488604461879
 40
7.309042773128192
 40
7.414007203170788
 40
7.505140441886488
 40
7.531150360599646
 40
7.559221645322241
 40
7.5872022189209
 40
7.612569159499103
 40
7.662550809480983
 40
7.70287887576411
 40
7.857328205230925
 40
8.01079956808857
 40
8.16525639965752
 40
8.32223269871386
 40
8.479564855016546
 40
8.63521623029075
 40
8.790882550925668
 40
8.948305154947233
 40
9.168271839032919
 40
9.387358980987194
 40
9.608047961033446
 40
9.832914234792648
 40
9.858338694962983
 40
9.925366817229989
 40
10.02013071422757
 40
10.12876249858996
 40
10.23739428295246
 40
10.33215817995187
 40
10.3991863022239
 40
10.4246107623978
 40
10.6499201933694
 40
10.87188524531184
 40
10.87188524531184
 40
10.87188524531184
 40
10.87188524531184
 10
179.9057788376618
 20
15.7392326039819
 30
0.0
 10
179.9092864933542
 20
15.80616462073804
 30
0.0
 10
179.9163033987664
 20
15.94005891915859
 30
0.0
 10
179.8198027599072
 20
16.2254855497147
 30
0.0
 10
180.0510134726108
 20
16.16284386190283
 30
0.0
 10
180.1919290057156
 20
16.17001554055992
 30
0.0
 10
180.3490417757588
 20
16.16235883078244
 30
0.0
 10
180.5025913427287
 20
16.1625275228304
 30
0.0
 10
180.6545104935081
 20
16.16182040535432
 30
0.0
 10
180.814221481323
 20
16.17210158351639
 30
0.0
 10
180.9408972601119
 20
16.1549651108075
 30
0.0
 10
181.137082112208
 20
16.22727260107145
 30
0.0
 10
181.1034395279078
 20
16.12640699080117
 30
0.0
 10
181.1052011317184
 20
16.07619253947671
 30
0.0
 10
181.1027342073458
 20
16.02712335586465
 30
0.0
 10
181.1347076966011
 20
15.94063490847
 30
0.0
 10
181.0010399903255
 20
15.98997438608336
 30
0.0
 10
180.9172208688056
 20
15.98430634314168
 30
0.0
 10
180.8173861139324
 20
15.99465516706298
 30
0.0
 10
180.7186576720145
 20
16.00086450411087
 30
0.0
 10
180.6121532771111
 20
16.00697763816778
 30
0.0
 10
180.4910511698059
 20
16.01588883484585
 30
0.0
 10
180.3703381502453
 20
16.00521605912384
 30
0.0
 10
180.1812553843436
 20
16.06468503080368
 30
0.0
 10
180.2129028505312
 20
15.9055832007754
 30
0.0
 10
180.1995563316833
 20
15.80839128339904
 30
0.0
 10
180.197495842645
 20
15.69634065110103
 30
0.0
 10
180.1958188044671
 20
15.5769968562935
 30
0.0
 10
180.1973336794233
 20
15.45032592155109
 30
0.0
 10
180.195658247867
 20
15.32301588016117
 30
0.0
 10
180.2058844271657
 20
15.22451566404463
 30
0.0
 10
180.1779006596582
 20
15.08388702625631
 30
0.0
 10
180.3508029999305
 20
15.13989551134096
 30
0.0
 10
180.4645020202772
 20
15.12719951478496
 30
0.0
 10
180.5840151672239
 20
15.13448377051254
 30
0.0
 10
180.6888491425072
 20
15.13878017056756
 30
0.0
 10
180.7843084898612
 20
15.14330568258977
 30
0.0
 10
180.8763823507032
 20
15.15149201146199
 30
0.0
 10
180.9476551782438
 20
15.14643850638112
 30
0.0
 10
181.0544931705685
 20
15.18536425031674
 30
0.0
 10
181.0226603598036
 20
15.1051712200588
 30
0.0
 10
181.0266164503929
 20
15.05562936846033
 30
0.0
 10
181.0234502392013
 20
15.00557478039819
 30
0.0
 10
181.0550791490584
 20
14.92128847612022
 30
0.0
 10
180.9210133677692
 20
14.97425365495158
 30
0.0
 10
180.8292322793199
 20
14.96540080890441
 30
0.0
 10
180.7079729189603
 20
14.97570049965155
 30
0.0
 10
180.5914113119771
 20
14.97748911767502
 30
0.0
 10
180.4783375745879
 20
14.97787017109694
 30
0.0
 10
180.3679246308471
 20
14.98415449472182
 30
0.0
 10
180.289812406784
 20
14.97189133255364
 30
0.0
 10
180.1913625833644
 20
15.00453887616126
 30
0.0
 10
180.2012355173561
 20
14.94769748054205
 30
0.0
 10
180.1973923244402
 20
14.91392130557983
 30
0.0
 10
180.1966789884268
 20
14.8711960470941
 30
0.0
 10
180.1963369642975
 20
14.83401607262153
 30
0.0
 10
180.1963834255346
 20
14.7948723737077
 30
0.0
 10
180.1963649429926
 20
14.75716849497685
 30
0.0
 10
180.1963703431807
 20
14.71944955232403
 30
0.0
 10
180.1963697214201
 20
14.6899432474515
 30
0.0
 10
180.1963698151545
 20
14.65873577699301
 30
0.0
 10
180.1963704287921
 20
14.61414424908085
 30
0.0
 10
180.1963671499336
 20
14.5596395650885
 30
0.0
 10
180.1963759623481
 20
14.51505540201448
 30
0.0
 10
180.1963359653416
 20
14.4311780858574
 30
0.0
 10
180.1976024270255
 20
14.31737520677678
 30
0.0
 10
180.1950274117842
 20
14.1683039593371
 30
0.0
 10
180.206500938172
 20
14.06597203813906
 30
0.0
 10
180.1823506222263
 20
13.93338903885834
 30
0.0
 10
180.3332993946476
 20
13.97895732272021
 30
0.0
 10
180.4428436671556
 20
13.96427012162349
 30
0.0
 10
180.573397047392
 20
13.96920435125062
 30
0.0
 10
180.6990312209514
 20
13.97257705323363
 30
0.0
 10
180.8188730625601
 20
13.97711497498773
 30
0.0
 10
180.9391362611427
 20
13.99048536182005
 30
0.0
 10
181.0222761663516
 20
13.98068712782596
 30
0.0
 10
181.1456080421074
 20
14.04126214623318
 30
0.0
 10
181.1244269203956
 20
13.9853246013402
 30
0.0
 10
181.1235950270116
 20
13.95939249372345
 30
0.0
 10
181.1218963707558
 20
13.93197256190938
 30
0.0
 10
181.1217974888829
 20
13.89738195206385
 30
0.0
 10
181.1203659301329
 20
13.86050408220767
 30
0.0
 10
181.153280419219
 20
13.76846841021807
 30
0.0
 10
180.9551306988107
 20
13.84132015974832
 30
0.0
 10
180.830054829489
 20
13.81825726508607
 30
0.0
 10
180.6673071295156
 20
13.82454021985787
 30
0.0
 10
180.5129366450001
 20
13.82260943909927
 30
0.0
 10
180.3566670436943
 20
13.82393762599269
 30
0.0
 10
180.1970544465282
 20
13.82059872487863
 30
0.0
 10
180.0540326342237
 20
13.8326579572824
 30
0.0
 10
179.8197144881628
 20
13.76952001976918
 30
0.0
 10
179.9173810751197
 20
14.05620527466317
 30
0.0
 10
179.9006868780059
 20
14.24988308142661
 30
0.0
 10
179.9146296709684
 20
14.47848242880295
 30
0.0
 10
179.9142987846633
 20
14.63384593955049
 30
0.0
 10
179.9143078119263
 20
14.73966336444126
 30
0.0
 10
179.9143055876316
 20
14.80205784124215
 30
0.0
 10
179.9143065551889
 20
14.89220425248327
 30
0.0
 10
179.9143065473262
 20
14.99621167157438
 30
0.0
 10
179.9143053861102
 20
15.10022131375296
 30
0.0
 10
179.9143090971502
 20
15.19036243688768
 30
0.0
 10
179.9143011051052
 20
15.25276803097215
 30
0.0
 10
179.9143334275017
 20
15.35868835961118
 30
0.0
 10
179.913144078832
 20
15.5162671654474
 30
0.0
 10
179.9082216489256
 20
15.66528219822066
 30
0.0
 10
179.9057788376618
 20
15.7392326039819
 30
0.0
 11
179.9057788376618
 21
15.7392326039819
 31
0.0
 11
179.8966918223741
 21
15.95938578101018
 31
0.0
 11
179.8868249573133
 21
16.17960510387179
 31
0.0
 11
180.04115751414
 21
16.17312391463728
 31
0.0
 11
180.1946500189046
 21
16.16754892331925
 31
0.0
 11
180.3481160653367
 21
16.16367167505631
 31
0.0
 11
180.5025544554939
 21
16.16238072887607
 31
0.0
 11
180.6564835227474
 21
16.16367167505631
 31
0.0
 11
180.80873910046
 21
16.16754892331925
 31
0.0
 11
180.9609113551074
 21
16.17312391463728
 31
0.0
 11
181.1148364762483
 21
16.17960510387179
 31
0.0
 11
181.1070811703123
 21
16.12794961777358
 31
0.0
 11
181.1044991623591
 21
16.07642642334204
 31
0.0
 11
181.1070811703123
 21
16.0247566056466
 31
0.0
 11
181.1148364762483
 21
15.97315954836784
 31
0.0
 11
181.0094874054411
 21
15.98001446156057
 31
0.0
 11
180.913637570006
 21
15.98693552058657
 31
0.0
 11
180.8198593171903
 21
15.99378381919598
 31
0.0
 11
180.7209679915881
 21
16.0006321178054
 31
0.0
 11
180.6147532199924
 21
16.00710999974824
 31
0.0
 11
180.4991060528038
 21
16.01268829835794
 31
0.0
 11
180.3666126447258
 21
16.01656554662088
 31
0.0
 11
180.2101546018423
 21
16.01785649280112
 31
0.0
 11
180.2062663293722
 21
15.91037061609187
 31
0.0
 11
180.20153800484
 21
15.80805072896465
 31
0.0
 11
180.1976607566749
 21
15.70138175329687
 31
0.0
 11
180.1963698105272
 21
15.58102059013249
 31
0.0
 11
180.1967799146836
 21
15.44856355891565
 31
0.0
 11
180.1980896021502
 21
15.31953288186454
 31
0.0
 11
180.1994074577049
 21
15.20777398432309
 31
0.0
 11
180.199819115366
 21
15.12695149302385
 31
0.0
 11
180.3434452935874
 21
15.1278025694125
 31
0.0
 11
180.4716343930758
 21
15.13039989580076
 31
0.0
 11
180.5868078221796
 21
15.13425509545253
 31
0.0
 11
180.691775631222
 21
15.13901649302076
 31
0.0
 11
180.7876346289421
 21
15.14418027774175
 31
0.0
 11
180.8757413374193
 21
15.14934406246267
 31
0.0
 11
180.9578881438496
 21
15.1549124391974
 31
0.0
 11
181.0357692335571
 21
15.16132086801525
 31
0.0
 11
181.0280180445186
 21
15.10884407115337
 31
0.0
 11
181.0254328449317
 21
15.05469378470858
 31
0.0
 11
181.0280180445186
 21
15.00310444444367
 31
0.0
 11
181.0357692335571
 21
14.95151510417882
 31
0.0
 11
180.9389813454014
 21
14.96092324653757
 31
0.0
 11
180.8275950722015
 21
14.96865128473012
 31
0.0
 11
180.7089261429373
 21
14.97425273438146
 31
0.0
 11
180.5903167449213
 21
14.97726788195011
 31
0.0
 11
180.4750025117521
 21
14.97898767361639
 31
0.0
 11
180.36672619507
 21
14.98070746528259
 31
0.0
 11
180.2724839317708
 21
14.98202486979616
 31
0.0
 11
180.199819115366
 21
14.98243607639328
 31
0.0
 11
180.199407457705
 21
14.9501910850819
 31
0.0
 11
180.1980896021502
 21
14.91542593752116
 31
0.0
 11
180.1967799146836
 21
14.87450702260085
 31
0.0
 11
180.1963698105272
 21
14.82421524309951
 31
0.0
 11
180.1963698105272
 21
14.80326217235821
 31
0.0
 11
180.1963698105272
 21
14.75716541672736
 31
0.0
 11
180.1963698105272
 21
14.71106866109651
 31
0.0
 11
180.1963698105272
 21
14.69011559035521
 31
0.0
 11
180.1963698105272
 21
14.6686452525828
 31
0.0
 11
180.1963698105272
 21
14.61744675481784
 31
0.0
 11
180.1963698105272
 21
14.55633887038868
 31
0.0
 11
180.1963698105272
 21
14.50514037262371
 31
0.0
 11
180.1963698105272
 21
14.4836700348513
 31
0.0
 11
180.1967799146836
 21
14.30481721371548
 31
0.0
 11
180.1980896021502
 21
14.16026100715443
 31
0.0
 11
180.2002868589709
 21
14.04850210961289
 31
0.0
 11
180.2032586986985
 21
13.96767961831365
 31
0.0
 11
180.3202092517447
 21
13.96767961831365
 31
0.0
 11
180.4440727208746
 21
13.96767961831365
 31
0.0
 11
180.5734925526422
 21
13.96897056449389
 31
0.0
 11
180.7003922282244
 21
13.97284781275683
 31
0.0
 11
180.8224658067973
 21
13.97886708358865
 31
0.0
 11
180.9377587499464
 21
13.98663260442002
 31
0.0
 11
181.0421754573519
 21
13.99734161483402
 31
0.0
 11
181.1320599255448
 21
14.01237656274692
 31
0.0
 11
181.1264254031191
 21
13.98698427976715
 31
0.0
 11
181.1234433285423
 21
13.95907184053801
 31
0.0
 11
181.12213398812
 21
13.93112191867001
 31
0.0
 11
181.1217235369195
 21
13.90575829888472
 31
0.0
 11
181.1243087365064
 21
13.85584355063325
 31
0.0
 11
181.1320599255448
 21
13.81626739612927
 31
0.0
 11
180.9776977178344
 21
13.82145433189186
 31
0.0
 11
180.8242357818765
 21
13.82315538223863
 31
0.0
 11
180.6697789496483
 21
13.82315538223863
 31
0.0
 11
180.5128026496768
 21
13.82315538223863
 31
0.0
 11
180.3554704921536
 21
13.82315538223863
 31
0.0
 11
180.199819115366
 21
13.82315538223863
 31
0.0
 11
180.0441620874241
 21
13.82145433189185
 31
0.0
 11
179.8868249573133
 21
13.81626739612927
 31
0.0
 11
179.896691822374
 21
14.0360126738521
 31
0.0
 11
179.9057788376618
 21
14.25491128490851
 31
0.0
 11
179.91217215184
 21
14.47550763902003
 31
0.0
 11
179.9143063455009
 21
14.70036378479716
 31
0.0
 11
179.9143063455009
 21
14.72578824496875
 31
0.0
 11
179.9143063455009
 21
14.79281636723932
 31
0.0
 11
179.9143063455009
 21
14.88758026424254
 31
0.0
 11
179.9143063455009
 21
14.99621204861208
 31
0.0
 11
179.9143063455009
 21
15.10484383298162
 31
0.0
 11
179.9143063455009
 21
15.19960772998484
 31
0.0
 11
179.9143063455009
 21
15.2666358522554
 31
0.0
 11
179.9143063455009
 21
15.292060312427
 31
0.0
 11
179.91217215184
 21
15.51735963528735
 31
0.0
 11
179.9057788376618
 21
15.7392326039819
 31
0.0
  0
SPLINE
  5
A5
102
{ACAD_REACTORS
330
C2
102
}
330
48
100
AcDbEntity
  8
_U_30EC_U_30A4_U_30E4_U_30FC_1
  6
Continuous
 62
     2
100
AcDbSpline
210
0.0
220
0.0
230
1.0
 70
    11
 71
     3
 72
    47
 73
    43
 74
    41
 42
0.000000001
 43
0.0000000001
 44
0.00000001
 40
0.0
 40
0.0
 40
0.0
 40
0.0
 40
0.2207912809957065
 40
0.4459404186302937
 40
0.4902387190459156
 40
0.53274738927221
 40
0.5742260451225428
 40
0.6155432630560721
 40
0.6568164066316208
 40
0.6982511618781418
 40
0.7407663929317354
 40
0.7851366743175139
 40
1.010288833836315
 40
1.231080507002152
 40
1.451765243652392
 40
1.676638205891677
 40
1.720461045359648
 40
1.830018144043515
 40
1.972442372353148
 40
2.114866600677521
 40
2.224423699395147
 40
2.268246538883389
 40
2.493628801207207
 40
2.715602830286609
 40
2.934211330706357
 40
3.149502369855357
 40
3.231387784851002
 40
3.318231873854038
 40
3.405143198198026
 40
3.486970301720462
 40
3.702258172493913
 40
3.920866283534135
 40
4.142839325931927
 40
4.368221903865377
 40
4.412044743359861
 40
4.521601842095876
 40
4.664026070452357
 40
4.806450298809068
 40
4.916007397546764
 40
4.959830237043088
 40
5.18470351584712
 40
5.405387250767506
 40
5.405387250767506
 40
5.405387250767506
 40
5.405387250767506
 10
182.6507427258645
 20
15.73406440953873
 30
0.0
 10
182.6568139420002
 20
15.79758482501211
 30
0.0
 10
182.6690762107245
 20
15.92587938689628
 30
0.0
 10
182.560470687941
 20
16.20166220174077
 30
0.0
 10
182.6761985896604
 20
16.17188133432052
 30
0.0
 10
182.7171842509015
 20
16.16765556262821
 30
0.0
 10
182.7591205797518
 20
16.16310446389607
 30
0.0
 10
182.800419662571
 20
16.16201982929485
 30
0.0
 10
182.8417032115556
 20
16.16310338195227
 30
0.0
 10
182.8836148270648
 20
16.16766112711344
 30
0.0
 10
182.9245983549019
 20
16.17187430209728
 30
0.0
 10
183.0404922843489
 20
16.20177611317535
 30
0.0
 10
182.9295652727457
 20
15.92339806609889
 30
0.0
 10
182.9574856365267
 20
15.74283140824953
 30
0.0
 10
182.9404267346969
 20
15.50961042346471
 30
0.0
 10
182.9414637282102
 20
15.34906622543146
 30
0.0
 10
182.9414099399404
 20
15.22284817558721
 30
0.0
 10
182.941427737248
 20
15.12428963336241
 30
0.0
 10
182.941418858108
 20
14.99280702442962
 30
0.0
 10
182.9414263928034
 20
14.86132844968649
 30
0.0
 10
182.9414129405128
 20
14.76276222694089
 30
0.0
 10
182.9414531717492
 20
14.63639735624151
 30
0.0
 10
182.9406746403817
 20
14.47482068822869
 30
0.0
 10
182.9565958319267
 20
14.24361821892914
 30
0.0
 10
182.9333468885407
 20
14.05874351972002
 30
0.0
 10
183.0360183444367
 20
13.78935602770055
 30
0.0
 10
182.8820238362836
 20
13.82660112685817
 30
0.0
 10
182.8004129802832
 20
13.82137994680535
 30
0.0
 10
182.7188192292582
 20
13.82660620378351
 30
0.0
 10
182.5648513666843
 20
13.78937069885386
 30
0.0
 10
182.6674183421918
 20
14.05875129862879
 30
0.0
 10
182.6442045316088
 20
14.24361585325415
 30
0.0
 10
182.6600444655139
 20
14.47482218565637
 30
0.0
 10
182.6593296313427
 20
14.63639712308503
 30
0.0
 10
182.6593664569907
 20
14.7627623121052
 30
0.0
 10
182.659354900027
 20
14.86132756635981
 30
0.0
 10
182.6593575019213
 20
14.99281127417219
 30
0.0
 10
182.6593648531779
 20
15.124275480312
 30
0.0
 10
182.6593442541351
 20
15.22287786275325
 30
0.0
 10
182.6594082192028
 20
15.34896149354427
 30
0.0
 10
182.6581733947592
 20
15.51210091383772
 30
0.0
 10
182.6532040396744
 20
15.6605418377755
 30
0.0
 10
182.6507427258645
 20
15.73406440953873
 30
0.0
 11
182.6507427258645
 21
15.73406440953873
 31
0.0
 11
182.6417328200379
 21
15.95467178795577
 31
0.0
 11
182.6318769706146
 21
16.17960510387179
 31
0.0
 11
182.6756985840801
 21
16.17312391463728
 31
0.0
 11
182.7178400934215
 21
16.16754892331925
 31
0.0
 11
182.759137140979
 21
16.16367167505631
 31
0.0
 11
182.8004341885365
 21
16.16238072887607
 31
0.0
 11
182.8416871388731
 21
16.16367167505631
 31
0.0
 11
182.8829400892098
 21
16.16754892331925
 31
0.0
 11
182.9250882131343
 21
16.17312391463728
 31
0.0
 11
182.9689825870145
 21
16.17960510387179
 31
0.0
 11
182.9590577693891
 21
15.95467178795577
 31
0.0
 11
182.950038420831
 21
15.73406440953873
 31
0.0
 11
182.9435638463435
 21
15.51347467001054
 31
0.0
 11
182.9414218238286
 21
15.28861190965007
 31
0.0
 11
182.9414218238286
 21
15.24478907015486
 31
0.0
 11
182.9414218238286
 21
15.13523197141682
 31
0.0
 11
182.9414218238286
 21
14.99280774305737
 31
0.0
 11
182.9414218238286
 21
14.85038351469791
 31
0.0
 11
182.9414218238286
 21
14.74082641595987
 31
0.0
 11
182.9414218238286
 21
14.69700357646466
 31
0.0
 11
182.9435638463435
 21
14.47163149318766
 31
0.0
 11
182.950038420831
 21
14.2497519099098
 31
0.0
 11
182.9590577693891
 21
14.0313295488533
 31
0.0
 11
182.9689825870145
 21
13.81626739612927
 31
0.0
 11
182.887261616877
 21
13.82145433189186
 31
0.0
 11
182.8004341885365
 21
13.82315538223863
 31
0.0
 11
182.7135395119339
 21
13.82145433189185
 31
0.0
 11
182.6318769706146
 21
13.81626739612927
 31
0.0
 11
182.641732820038
 21
14.0313295488533
 31
0.0
 11
182.6507427258645
 21
14.2497519099098
 31
0.0
 11
182.6571833838798
 21
14.47163149318766
 31
0.0
 11
182.6593583588023
 21
14.69700357646466
 31
0.0
 11
182.6593583588023
 21
14.74082641595988
 31
0.0
 11
182.6593583588023
 21
14.85038351469792
 31
0.0
 11
182.6593583588023
 21
14.99280774305736
 31
0.0
 11
182.6593583588023
 21
15.13523197141681
 31
0.0
 11
182.6593583588023
 21
15.24478907015486
 31
0.0
 11
182.6593583588023
 21
15.28861190965007
 31
0.0
 11
182.6571833838798
 21
15.51347467001054
 31
0.0
 11
182.6507427258645
 21
15.73406440953873
 31
0.0
  0
SPLINE
  5
A6
102
{ACAD_REACTORS
330
C3
102
}
330
48
100
AcDbEntity
  8
_U_30EC_U_30A4_U_30E4_U_30FC_1
  6
Continuous
 62
     2
100
AcDbSpline
210
0.0
220
0.0
230
1.0
 70
    11
 71
     3
 72
   118
 73
   114
 74
   112
 42
0.000000001
 43
0.0000000001
 44
0.00000001
 40
0.0
 40
0.0
 40
0.0
 40
0.0
 40
0.1054708162973382
 40
0.2466098270051896
 40
0.3965912874591399
 40
0.5285525069754184
 40
0.6156245055642774
 40
0.6431434105798086
 40
0.7036850037986945
 40
0.7642265984505511
 40
0.7917455052355983
 40
0.9287404319990757
 40
1.106572819088155
 40
1.287544879681155
 40
1.317578308030672
 40
1.399928030857311
 40
1.522968204800085
 40
1.675072986590706
 40
1.844616533180783
 40
2.019973001638848
 40
2.18951654888016
 40
2.341621331585499
 40
2.464661506320635
 40
2.547011229647199
 40
2.577044658168163
 40
2.603797890893233
 40
2.66265500290892
 40
2.721512114949732
 40
2.748265347702912
 40
2.774215307344988
 40
2.845959313407318
 40
2.954338556588519
 40
3.090194227585698
 40
3.244367517100663
 40
3.407699615844423
 40
3.571031714539574
 40
3.72520500392025
 40
3.861060674729753
 40
3.969439917716445
 40
4.04118392362912
 40
4.067133883213113
 40
4.311886746012312
 40
4.547897258335683
 40
4.764747083044115
 40
4.952749679951886
 40
5.045772974196028
 40
5.137862019645149
 40
5.3305431697932
 40
5.553448265244192
 40
5.795083855888351
 40
6.043293412177417
 40
6.285761695541368
 40
6.313902908752851
 40
6.384255941793441
 40
6.475714884767001
 40
6.567173827759035
 40
6.637526860839813
 40
6.665668074074148
 40
6.69201892032812
 40
6.749990782071185
 40
6.807962643790553
 40
6.834313490018024
 40
6.856393084245303
 40
6.913335195649926
 40
6.991194817302562
 40
7.076026942283823
 40
7.153886563725285
 40
7.210828674844839
 40
7.232908268931174
 40
7.258199334923695
 40
7.324875781592343
 40
7.419142481924998
 40
7.527204308841938
 40
7.635266135230513
 40
7.729532834168499
 40
7.796209279292817
 40
7.821500344594764
 40
7.844652988850862
 40
7.899863140541641
 40
7.965759128053836
 40
8.020969279771178
 40
8.044121924046644
 40
8.069356610160785
 40
8.109134395441556
 40
8.132238100191268
 40
8.193147867786633
 40
8.279261678876805
 40
8.37797751267402
 40
8.476693347146803
 40
8.562807160411857
 40
8.623716930826644
 40
8.646820636853596
 40
8.671988793774409
 40
8.73490918582832
 40
8.816705695189034
 40
8.898502204815605
 40
8.961422597378066
 40
8.986590754551179
 40
9.012941600733331
 40
9.070913462380414
 40
9.128885324081903
 40
9.155236170325225
 40
9.180404327929267
 40
9.24332472194834
 40
9.325121234212133
 40
9.406917746637788
 40
9.469838141978244
 40
9.495006288271018
 40
9.51781118437916
 40
9.572192090487162
 40
9.637098333281395
 40
9.691479239515598
 40
9.714284125643637
 40
9.714284125643637
 40
9.714284125643637
 40
9.714284125643637
 10
185.2874469028653
 20
15.26889163187719
 30
0.0
 10
185.3090990569037
 20
15.24111869242811
 30
0.0
 10
185.3597257109474
 20
15.17618054561236
 30
0.0
 10
185.4349383202591
 20
15.06891060312897
 30
0.0
 10
185.5248482274346
 20
14.95377438266626
 30
0.0
 10
185.5709169676674
 20
14.85357045748317
 30
0.0
 10
185.6655825294655
 20
14.78434006814943
 30
0.0
 10
185.6204439320414
 20
14.73771639678272
 30
0.0
 10
185.594704778579
 20
14.69660308866038
 30
0.0
 10
185.5645196708012
 20
14.66065971727938
 30
0.0
 10
185.5193684730561
 20
14.58579782596094
 30
0.0
 10
185.4710504458563
 20
14.80782524253608
 30
0.0
 10
185.3968539713073
 20
14.84510677337706
 30
0.0
 10
185.2836047324606
 20
15.11610202130601
 30
0.0
 10
185.288513357817
 20
15.00095328446229
 30
0.0
 10
185.2868486556306
 20
14.92836675781627
 30
0.0
 10
185.2876830076714
 20
14.80625588483986
 30
0.0
 10
185.2873609540264
 20
14.6591380081046
 30
0.0
 10
185.2875076912456
 20
14.49307063956557
 30
0.0
 10
185.2872950092722
 20
14.32187554608602
 30
0.0
 10
185.2879497252034
 20
14.15552828635498
 30
0.0
 10
185.2859192461139
 20
14.00935173055693
 30
0.0
 10
185.291346039993
 20
13.8847104747461
 30
0.0
 10
185.2804930868708
 20
13.81718656540626
 30
0.0
 10
185.2956739155555
 20
13.75549061417022
 30
0.0
 10
185.2457895108133
 20
13.76727503897002
 30
0.0
 10
185.2017150342522
 20
13.75943822779969
 30
0.0
 10
185.15823716302
 20
13.76760441372703
 30
0.0
 10
185.1092346786489
 20
13.75538056738468
 30
0.0
 10
185.1218731234825
 20
13.80960667249313
 30
0.0
 10
185.113018296845
 20
13.86936918907558
 30
0.0
 10
185.1175058770314
 20
13.97922029044371
 30
0.0
 10
185.115796013599
 20
14.11029975405678
 30
0.0
 10
185.1163550915987
 20
14.26198011444329
 30
0.0
 10
185.1161928768693
 20
14.42211074929953
 30
0.0
 10
185.1162269924675
 20
14.58236865674567
 30
0.0
 10
185.1162514960126
 20
14.7337024752044
 30
0.0
 10
185.1161453543226
 20
14.86582156338602
 30
0.0
 10
185.116429914193
 20
14.97294802533193
 30
0.0
 10
185.1158675547568
 20
15.03808619579474
 30
0.0
 10
185.1180765083689
 20
15.16618957858677
 30
0.0
 10
185.0319435998603
 20
14.79097610391575
 30
0.0
 10
184.9555140818499
 20
14.63918193123395
 30
0.0
 10
184.8660040767833
 20
14.47766206446305
 30
0.0
 10
184.7640413217328
 20
14.20471848820171
 30
0.0
 10
184.7187976491039
 20
14.36717346596512
 30
0.0
 10
184.6102355941671
 20
14.45605432058117
 30
0.0
 10
184.7995791751753
 20
14.60549794961409
 30
0.0
 10
184.8565340545699
 20
14.79749136974925
 30
0.0
 10
184.9717520993353
 20
15.02899622906757
 30
0.0
 10
184.9940151630132
 20
15.21797259759063
 30
0.0
 10
185.177190515214
 20
15.49454089325931
 30
0.0
 10
185.0538033597552
 20
15.48698978832095
 30
0.0
 10
184.9925684166834
 20
15.48856772366119
 30
0.0
 10
184.9081999617065
 20
15.48882592573673
 30
0.0
 10
184.8204235085966
 20
15.48544845751206
 30
0.0
 10
184.7656768696123
 20
15.49394814982021
 30
0.0
 10
184.7104703026025
 20
15.48048561049789
 30
0.0
 10
184.7222823035537
 20
15.52931442126765
 30
0.0
 10
184.7142496151795
 20
15.57269004896709
 30
0.0
 10
184.7228186104679
 20
15.61509438309573
 30
0.0
 10
184.7102943409158
 20
15.66267796552118
 30
0.0
 10
184.7555101538736
 20
15.65267212995109
 30
0.0
 10
184.8014815562725
 20
15.65894105174061
 30
0.0
 10
184.877722204771
 20
15.65593561405872
 30
0.0
 10
184.9561296131994
 20
15.65770448278541
 30
0.0
 10
185.0323992648933
 20
15.6546479398166
 30
0.0
 10
185.0783009459474
 20
15.66103971376176
 30
0.0
 10
185.12317339654
 20
15.65093822978897
 30
0.0
 10
185.1105552275634
 20
15.70157201581898
 30
0.0
 10
185.1191936582707
 20
15.7550126188207
 30
0.0
 10
185.1152361595443
 20
15.8486325513168
 30
0.0
 10
185.1162325068335
 20
15.95112606688923
 30
0.0
 10
185.1171927413073
 20
16.05353270248163
 30
0.0
 10
185.1133211458005
 20
16.1473592960932
 30
0.0
 10
185.1217789814364
 20
16.20036542840352
 30
0.0
 10
185.1093075932835
 20
16.25211435651187
 30
0.0
 10
185.154210638985
 20
16.23850747226756
 30
0.0
 10
185.1955083836772
 20
16.24100480320584
 30
0.0
 10
185.259534428105
 20
16.23648060574486
 30
0.0
 10
185.2986111148787
 20
16.22781003043308
 30
0.0
 10
185.3476543498743
 20
16.23515102070684
 30
0.0
 10
185.322508003059
 20
16.19602896051761
 30
0.0
 10
185.2815901333723
 20
16.20563842455808
 30
0.0
 10
185.2910109616604
 20
16.15540148169778
 30
0.0
 10
185.2855647318746
 20
16.1038594563949
 30
0.0
 10
185.2881699601804
 20
16.0195970758452
 30
0.0
 10
185.2870102202153
 20
15.92559135583408
 30
0.0
 10
185.2883591064231
 20
15.83196865395526
 30
0.0
 10
185.2849970101508
 20
15.74679517552223
 30
0.0
 10
185.2920959917769
 20
15.69716856072044
 30
0.0
 10
185.2812569154545
 20
15.64993694969989
 30
0.0
 10
185.3304010225245
 20
15.66201674936851
 30
0.0
 10
185.3794877630147
 20
15.65447393363011
 30
0.0
 10
185.4573714280642
 20
15.65686070361432
 30
0.0
 10
185.5350365172896
 20
15.65899381905415
 30
0.0
 10
185.5845393931355
 20
15.65193391922455
 30
0.0
 10
185.6344594750639
 20
15.66360151936214
 30
0.0
 10
185.6223198516881
 20
15.61540235371393
 30
0.0
 10
185.6305838229144
 20
15.57249219801236
 30
0.0
 10
185.6223198650783
 20
15.52958201851385
 30
0.0
 10
185.6344594549855
 20
15.48138288754865
 30
0.0
 10
185.5845395158746
 20
15.49305034471511
 30
0.0
 10
185.5350350651203
 20
15.48599202435046
 30
0.0
 10
185.4573784382973
 20
15.48811665228605
 30
0.0
 10
185.379464386576
 20
15.49053389365761
 30
0.0
 10
185.3304500352716
 20
15.48291848194487
 30
0.0
 10
185.2813246108943
 20
15.49507952557593
 30
0.0
 10
185.2915559988571
 20
15.45073013424159
 30
0.0
 10
185.2856677678053
 20
15.40925436202912
 30
0.0
 10
185.2878788305569
 20
15.34915394315304
 30
0.0
 10
185.2874109346146
 20
15.30225782762888
 30
0.0
 10
185.2874386992913
 20
15.27650146418196
 30
0.0
 10
185.2874469028653
 20
15.26889163187719
 30
0.0
 11
185.2874469028653
 21
15.26889163187719
 31
0.0
 11
185.3516977534484
 21
15.18524999634257
 31
0.0
 11
185.4348258835499
 21
15.07118889748221
 31
0.0
 11
185.5216831568896
 21
14.94891767195723
 31
0.0
 11
185.5971214371872
 21
14.84064565642876
 31
0.0
 11
185.6459925881627
 21
14.76858218755789
 31
0.0
 11
185.6296821285094
 21
14.74641782124398
 31
0.0
 11
185.593799117272
 21
14.69765621535339
 31
0.0
 11
185.5579161060346
 21
14.64889460946279
 31
0.0
 11
185.5416056463813
 21
14.62673024314888
 31
0.0
 11
185.4763067109446
 21
14.74716139023813
 31
0.0
 11
185.3848434243234
 21
14.89966983670207
 31
0.0
 11
185.2874469028653
 21
15.05219788193142
 31
0.0
 11
185.2874469028653
 21
15.02216445328253
 31
0.0
 11
185.2874469028653
 21
14.93981472956783
 31
0.0
 11
185.2874469028653
 21
14.81677455413528
 31
0.0
 11
185.2874469028653
 21
14.66466977033283
 31
0.0
 11
185.2874469028653
 21
14.49512622150845
 31
0.0
 11
185.2874469028653
 21
14.31976975101009
 31
0.0
 11
185.2874469028653
 21
14.15022620218571
 31
0.0
 11
185.2874469028653
 21
13.99812141838326
 31
0.0
 11
185.2874469028653
 21
13.87508124295071
 31
0.0
 11
185.2874469028653
 21
13.79273151923601
 31
0.0
 11
185.2874469028653
 21
13.76269809058712
 31
0.0
 11
185.2606936700409
 21
13.76269809058712
 31
0.0
 11
185.2018365578272
 21
13.76269809058712
 31
0.0
 11
185.1429794456134
 21
13.76269809058712
 31
0.0
 11
185.116226212789
 21
13.76269809058712
 31
0.0
 11
185.116226212789
 21
13.7886480503125
 31
0.0
 11
185.116226212789
 21
13.86039205661208
 31
0.0
 11
185.116226212789
 21
13.96877130017102
 31
0.0
 11
185.116226212789
 21
14.10462697167448
 31
0.0
 11
185.116226212789
 21
14.25880026180761
 31
0.0
 11
185.116226212789
 21
14.42213236125559
 31
0.0
 11
185.116226212789
 21
14.58546446070357
 31
0.0
 11
185.116226212789
 21
14.7396377508367
 31
0.0
 11
185.116226212789
 21
14.87549342234016
 31
0.0
 11
185.116226212789
 21
14.9838726658991
 31
0.0
 11
185.116226212789
 21
15.05561667219868
 31
0.0
 11
185.116226212789
 21
15.08156663192406
 31
0.0
 11
185.0379865861721
 21
14.84965603302372
 31
0.0
 11
184.9497110789303
 21
14.63077616328677
 31
0.0
 11
184.8544106930046
 21
14.43598991333545
 31
0.0
 11
184.7550964303357
 21
14.27636017379201
 31
0.0
 11
184.7109198342406
 21
14.35822446196598
 31
0.0
 11
184.658805738348
 21
14.43414885430811
 31
0.0
 11
184.7627302590299
 21
14.59640087926757
 31
0.0
 11
184.8629319864735
 21
14.79551465421781
 31
0.0
 11
184.9550446607901
 21
15.01890447916196
 31
0.0
 11
185.0347020220912
 21
15.2539846541032
 31
0.0
 11
185.097537810488
 21
15.48816947904466
 31
0.0
 11
185.0693965972142
 21
15.48816947904466
 31
0.0
 11
184.9990435640297
 21
15.48816947904466
 31
0.0
 11
184.9075846208898
 21
15.48816947904466
 31
0.0
 11
184.81612567775
 21
15.48816947904466
 31
0.0
 11
184.7457726445655
 21
15.48816947904466
 31
0.0
 11
184.7176314312917
 21
15.48816947904466
 31
0.0
 11
184.7176314312917
 21
15.51452032539223
 31
0.0
 11
184.7176314312917
 21
15.57249218735689
 31
0.0
 11
184.7176314312917
 21
15.63046404932155
 31
0.0
 11
184.7176314312917
 21
15.65681489566912
 31
0.0
 11
184.739711025602
 21
15.65681489566912
 31
0.0
 11
184.7966531372445
 21
15.65681489566912
 31
0.0
 11
184.8745127592863
 21
15.65681489566912
 31
0.0
 11
184.9593448847945
 21
15.65681489566912
 31
0.0
 11
185.0372045068362
 21
15.65681489566912
 31
0.0
 11
185.0941466184786
 21
15.65681489566912
 31
0.0
 11
185.116226212789
 21
15.65681489566912
 31
0.0
 11
185.116226212789
 21
15.68210596174353
 31
0.0
 11
185.116226212789
 21
15.74878240866697
 31
0.0
 11
185.116226212789
 21
15.84304910948976
 31
0.0
 11
185.116226212789
 21
15.95111093726224
 31
0.0
 11
185.116226212789
 21
16.05917276503471
 31
0.0
 11
185.116226212789
 21
16.1534394658575
 31
0.0
 11
185.116226212789
 21
16.22011591278094
 31
0.0
 11
185.116226212789
 21
16.24540697885535
 31
0.0
 11
185.1393181988666
 21
16.24373213107799
 31
0.0
 11
185.1943837041285
 21
16.23973826330121
 31
0.0
 11
185.2601070491185
 21
16.23497138885795
 31
0.0
 11
185.3151725543804
 21
16.23097752108116
 31
0.0
 11
185.3382645404579
 21
16.2293026733038
 31
0.0
 11
185.3249012644362
 21
16.20789677921191
 31
0.0
 11
185.2874469028653
 21
16.19450114553469
 31
0.0
 11
185.2874469028653
 21
16.17139743948578
 31
0.0
 11
185.2874469028653
 21
16.11048766899319
 31
0.0
 11
185.2874469028653
 21
16.02437385553816
 31
0.0
 11
185.2874469028653
 21
15.9256580206019
 31
0.0
 11
185.2874469028653
 21
15.82694218566565
 31
0.0
 11
185.2874469028653
 21
15.74082837221061
 31
0.0
 11
185.2874469028653
 21
15.67991860171803
 31
0.0
 11
185.2874469028653
 21
15.65681489566912
 31
0.0
 11
185.3126150604809
 21
15.65681489566912
 31
0.0
 11
185.3755354545199
 21
15.65681489566912
 31
0.0
 11
185.4573319667706
 21
15.65681489566912
 31
0.0
 11
185.5391284790212
 21
15.65681489566912
 31
0.0
 11
185.6020488730602
 21
15.65681489566912
 31
0.0
 11
185.6272170306758
 21
15.65681489566912
 31
0.0
 11
185.6272170306758
 21
15.63046404932155
 31
0.0
 11
185.6272170306758
 21
15.57249218735689
 31
0.0
 11
185.6272170306758
 21
15.51452032539223
 31
0.0
 11
185.6272170306758
 21
15.48816947904466
 31
0.0
 11
185.6020488730602
 21
15.48816947904466
 31
0.0
 11
185.5391284790212
 21
15.48816947904466
 31
0.0
 11
185.4573319667705
 21
15.48816947904466
 31
0.0
 11
185.3755354545199
 21
15.48816947904466
 31
0.0
 11
185.3126150604809
 21
15.48816947904466
 31
0.0
 11
185.2874469028653
 21
15.48816947904466
 31
0.0
 11
185.2874469028653
 21
15.46536458293924
 31
0.0
 11
185.2874469028653
 21
15.41098367684171
 31
0.0
 11
185.2874469028653
 21
15.34607743408014
 31
0.0
 11
185.2874469028653
 21
15.29169652798261
 31
0.0
 11
185.2874469028653
 21
15.26889163187719
 31
0.0
  0
SPLINE
  5
A7
102
{ACAD_REACTORS
330
C4
102
}
330
48
100
AcDbEntity
  8
_U_30EC_U_30A4_U_30E4_U_30FC_1
  6
Continuous
 62
     2
100
AcDbSpline
210
0.0
220
0.0
230
1.0
 70
    11
 71
     3
 72
    91
 73
    87
 74
    85
 42
0.000000001
 43
0.0000000001
 44
0.00000001
 40
0.0
 40
0.0
 40
0.0
 40
0.0
 40
0.0345987051695434
 40
0.1258134969461369
 40
0.2547723404888987
 40
0.4026032099154409
 40
0.5504340793417273
 40
0.6793929228836932
 40
0.7706077146571888
 40
0.8052064287781777
 40
1.12485239061537
 40
1.42740223630897
 40
1.706356627453613
 40
1.9555414178753
 40
2.169485938566445
 40
2.3443507866649
 40
2.48056841156205
 40
2.590440557429072
 40
2.649189927151274
 40
2.749320643306477
 40
2.912632739880167
 40
3.147745656000362
 40
3.244827496385288
 40
3.338490056946827
 40
3.583815413207258
 40
3.761423943238623
 40
3.886956104362787
 40
3.985855451886948
 40
4.091766255337832
 40
4.250186473811998
 40
4.422734315084621
 40
4.628285684838714
 40
4.872093227758559
 40
5.152549652145672
 40
5.464967135837655
 40
5.803201477852582
 40
6.160362988814065
 40
6.19344944827612
 40
6.284170385501775
 40
6.419718138764645
 40
6.587285046385895
 40
6.774063446723809
 40
6.967245678113792
 40
7.154024078817778
 40
7.321590987026164
 40
7.457138740890522
 40
7.547859678556258
 40
7.580946138182818
 40
7.608533084714868
 40
7.669224367077839
 40
7.729915649430054
 40
7.757502595950103
 40
7.790278062553557
 40
7.880146277431055
 40
8.014419963180519
 40
8.180411842398048
 40
8.365434637679517
 40
8.556801071622846
 40
8.74182386683093
 40
8.90781574591647
 40
9.042089431507652
 40
9.131957646249777
 40
9.164733112797354
 40
9.415425063140278
 40
9.667986180958744
 40
9.694169807462911
 40
9.75660768604787
 40
9.831130315322676
 40
9.89356819390014
 40
9.919751820398957
 40
9.950967964690795
 40
9.996421631210904
 40
10.22087981037479
 40
10.44341866197567
 40
10.47847970788879
 40
10.5709133743878
 40
10.7015954546126
 40
10.85140174170388
 40
11.00120802880511
 40
11.13189010907416
 40
11.22432377583041
 40
11.2593848093899
 40
11.28697175596178
 40
11.34766303835952
 40
11.40835432042102
 40
11.43594125892136
 40
11.43594125892136
 40
11.43594125892136
 40
11.43594125892136
 10
190.081811433329
 20
15.55242795125079
 30
0.0
 10
190.0702785844941
 20
15.55242790287917
 30
0.0
 10
190.0283409445
 20
15.55242773704166
 30
0.0
 10
189.9434129719026
 20
15.55243125800911
 30
0.0
 10
189.8207688553129
 20
15.5524092643588
 30
0.0
 10
189.6791206916994
 20
15.55250801177056
 30
0.0
 10
189.537975369849
 20
15.55214686232422
 30
0.0
 10
189.4141351317904
 20
15.55321883609091
 30
0.0
 10
189.3317217825381
 20
15.5509224909127
 30
0.0
 10
189.1727791229693
 20
15.56048569373423
 30
0.0
 10
189.3503402353375
 20
15.19785394311371
 30
0.0
 10
189.3379739205453
 20
14.95243127723115
 30
0.0
 10
189.4064519473865
 20
14.66862501324835
 30
0.0
 10
189.469302432097
 20
14.43250999939036
 30
0.0
 10
189.5452253431728
 20
14.23326740396129
 30
0.0
 10
189.6303189577016
 20
14.07745347451374
 30
0.0
 10
189.7244607592936
 20
13.97657857781392
 30
0.0
 10
189.8282648207727
 20
13.92465852638967
 30
0.0
 10
189.9125872030774
 20
13.97606484379614
 30
0.0
 10
189.9351322179452
 20
14.09144544037517
 30
0.0
 10
189.9745730975371
 20
14.21885149702381
 30
0.0
 10
189.9202919734942
 20
14.53622328086752
 30
0.0
 10
190.0451218072473
 20
14.3898218014091
 30
0.0
 10
190.2019291513603
 20
14.35795300331168
 30
0.0
 10
190.0947720007057
 20
14.12421357767629
 30
0.0
 10
190.0808711209867
 20
13.95972776583656
 30
0.0
 10
190.0234709467225
 20
13.83130869122484
 30
0.0
 10
189.9335020145008
 20
13.76018802352826
 30
0.0
 10
189.8095274657877
 20
13.74432324142254
 30
0.0
 10
189.6634273196861
 20
13.77993797554172
 30
0.0
 10
189.5243894320284
 20
13.90000570500278
 30
0.0
 10
189.4102003962145
 20
14.0743568255032
 30
0.0
 10
189.3146141301486
 20
14.2994660311124
 30
0.0
 10
189.2318652572627
 20
14.56388246006443
 30
0.0
 10
189.1807179256412
 20
14.88187933098544
 30
0.0
 10
189.0770189207337
 20
15.15543728488913
 30
0.0
 10
189.2042841208522
 20
15.5600581861287
 30
0.0
 10
189.0357890623018
 20
15.5511236784968
 30
0.0
 10
188.9511995787077
 20
15.55315961418365
 30
0.0
 10
188.8189876387627
 20
15.55213937388408
 30
0.0
 10
188.6560505094104
 20
15.55253230318431
 30
0.0
 10
188.4733759170532
 20
15.5523569631337
 30
0.0
 10
188.2847057373383
 20
15.5526010530747
 30
0.0
 10
188.1014469020189
 20
15.55185657906238
 30
0.0
 10
187.9404746832718
 20
15.55416360522428
 30
0.0
 10
187.8029808335276
 20
15.54799804883664
 30
0.0
 10
187.728959037231
 20
15.56032838458213
 30
0.0
 10
187.6613215186856
 20
15.54329323723558
 30
0.0
 10
187.6732373719269
 20
15.59524438447529
 30
0.0
 10
187.6655677285694
 20
15.6407142496653
 30
0.0
 10
187.6732592225115
 20
15.68614453703706
 30
0.0
 10
187.6613141797761
 20
15.7380239598457
 30
0.0
 10
187.7283588305867
 20
15.72119143490264
 30
0.0
 10
187.8017375665677
 20
15.73335409092671
 30
0.0
 10
187.9379128305272
 20
15.72727231074958
 30
0.0
 10
188.0973811801512
 20
15.72954834315057
 30
0.0
 10
188.2789173085837
 20
15.72881233998962
 30
0.0
 10
188.465803486218
 20
15.72905954196133
 30
0.0
 10
188.6468012316836
 20
15.72886400799254
 30
0.0
 10
188.8080802578879
 20
15.72932234714839
 30
0.0
 10
188.9393882124887
 20
15.72812673751206
 30
0.0
 10
189.0225051322597
 20
15.73051347319742
 30
0.0
 10
189.1556236547815
 20
15.72230605725464
 30
0.0
 10
189.0645893502658
 20
15.97752868952655
 30
0.0
 10
188.9789633074419
 20
16.24164358328245
 30
0.0
 10
189.0990589003455
 20
16.22904442969165
 30
0.0
 10
189.1514264948544
 20
16.22694235763075
 30
0.0
 10
189.2214497569715
 20
16.22535399889657
 30
0.0
 10
189.2671922337817
 20
16.21602567538113
 30
0.0
 10
189.3220812646933
 20
16.22545966915426
 30
0.0
 10
189.2963574785681
 20
16.17733028655172
 30
0.0
 10
189.1825397571452
 20
16.18266829744167
 30
0.0
 10
189.3159346621136
 20
15.95449174576776
 30
0.0
 10
189.1943658735472
 20
15.72156856595924
 30
0.0
 10
189.3223188769412
 20
15.73087258884438
 30
0.0
 10
189.4049048406461
 20
15.7280100175468
 30
0.0
 10
189.5307214850824
 20
15.72923437412302
 30
0.0
 10
189.6741469838059
 20
15.72932431888964
 30
0.0
 10
189.8157420951728
 20
15.72746163183853
 30
0.0
 10
189.9459127249969
 20
15.73333075937163
 30
0.0
 10
190.0193452286191
 20
15.72070340823203
 30
0.0
 10
190.0891112922097
 20
15.73877563110413
 30
0.0
 10
190.0775772605397
 20
15.68612850546327
 30
0.0
 10
190.0833184346683
 20
15.64221317686548
 30
0.0
 10
190.0816615770911
 20
15.5908998267655
 30
0.0
 10
190.0817757561671
 20
15.56158792021636
 30
0.0
 10
190.081811433329
 20
15.55242795125079
 30
0.0
 11
190.081811433329
 21
15.55242795125079
 31
0.0
 11
190.0472127192052
 21
15.55242795125079
 31
0.0
 11
189.9559979274242
 21
15.55242795125079
 31
0.0
 11
189.8270390838718
 21
15.55242795125079
 31
0.0
 11
189.6792082144336
 21
15.55242795125079
 31
0.0
 11
189.5313773449955
 21
15.55242795125079
 31
0.0
 11
189.402418501443
 21
15.55242795125079
 31
0.0
 11
189.311203709662
 21
15.55242795125079
 31
0.0
 11
189.2766049955382
 21
15.55242795125079
 31
0.0
 11
189.3083140497693
 21
15.23435864930122
 31
0.0
 11
189.3527866656865
 21
14.93509522788081
 31
0.0
 11
189.4092389118319
 21
14.66191269512576
 31
0.0
 11
189.4768868567478
 21
14.42208605917227
 31
0.0
 11
189.5549465689761
 21
14.22289032815655
 31
0.0
 11
189.6426341170591
 21
14.07160051021478
 31
0.0
 11
189.7391655695388
 21
13.97549161348317
 31
0.0
 11
189.8437569949575
 21
13.94183864609792
 31
0.0
 11
189.8943077302786
 21
13.97177376978835
 31
0.0
 11
189.9310588991552
 21
14.06491619815047
 31
0.0
 11
189.9562640977528
 21
14.22627151712054
 31
0.0
 11
189.9721769222368
 21
14.46084531263481
 31
0.0
 11
190.0494082682584
 21
14.40202182306619
 31
0.0
 11
190.1327184184385
 21
14.35921885432691
 31
0.0
 11
190.1066365811217
 21
14.1152838866101
 31
0.0
 11
190.0673317805105
 21
13.94207902887562
 31
0.0
 11
190.0105702596765
 21
13.83011272445917
 31
0.0
 11
189.932118261691
 21
13.76989341669645
 31
0.0
 11
189.8277420296256
 21
13.75192954892317
 31
0.0
 11
189.6738595065097
 21
13.78957440012361
 31
0.0
 11
189.5388902376748
 21
13.89707348877403
 31
0.0
 11
189.4221739916163
 21
14.06627361744808
 31
0.0
 11
189.32305053683
 21
14.28902158871943
 31
0.0
 11
189.2408596418113
 21
14.55716420516172
 31
0.0
 11
189.1749410750559
 21
14.86254826934861
 31
0.0
 11
189.1246346050593
 21
15.19702058385375
 31
0.0
 11
189.0892800003171
 21
15.55242795125079
 31
0.0
 11
189.0561935405844
 21
15.55242795125079
 31
0.0
 11
188.9654726026075
 21
15.55242795125079
 31
0.0
 11
188.8299248482185
 21
15.55242795125079
 31
0.0
 11
188.6623579392495
 21
15.55242795125079
 31
0.0
 11
188.4755795375324
 21
15.55242795125079
 31
0.0
 11
188.2823973048992
 21
15.55242795125079
 31
0.0
 11
188.0956189031822
 21
15.55242795125079
 31
0.0
 11
187.9280519942131
 21
15.55242795125079
 31
0.0
 11
187.7925042398241
 21
15.55242795125079
 31
0.0
 11
187.7017833018473
 21
15.55242795125079
 31
0.0
 11
187.6686968421145
 21
15.55242795125079
 31
0.0
 11
187.6686968421145
 21
15.58001489785848
 31
0.0
 11
187.6686968421145
 21
15.64070618039538
 31
0.0
 11
187.6686968421145
 21
15.70139746293229
 31
0.0
 11
187.6686968421145
 21
15.72898440953998
 31
0.0
 11
187.7014723087631
 21
15.72898440953998
 31
0.0
 11
187.7913405237673
 21
15.72898440953998
 31
0.0
 11
187.9256142097148
 21
15.72898440953998
 31
0.0
 11
188.0916060891932
 21
15.72898440953998
 31
0.0
 11
188.2766288847901
 21
15.72898440953998
 31
0.0
 11
188.4679953190933
 21
15.72898440953998
 31
0.0
 11
188.6530181146902
 21
15.72898440953998
 31
0.0
 11
188.8190099941685
 21
15.72898440953998
 31
0.0
 11
188.9532836801161
 21
15.72898440953998
 31
0.0
 11
189.0431518951203
 21
15.72898440953998
 31
0.0
 11
189.0759273617689
 21
15.72898440953998
 31
0.0
 11
189.0659183950103
 21
15.97947647544958
 31
0.0
 11
189.0599112510663
 21
16.23196614552531
 31
0.0
 11
189.0860575870659
 21
16.23056921608122
 31
0.0
 11
189.1484065421419
 21
16.22723807663761
 31
0.0
 11
189.2228230369099
 21
16.22326220052749
 31
0.0
 11
189.2851719919859
 21
16.21993106108388
 31
0.0
 11
189.3113183279855
 21
16.21853413163979
 31
0.0
 11
189.298293111304
 21
16.19016528616079
 31
0.0
 11
189.2551649266405
 21
16.17581274276164
 31
0.0
 11
189.2574991961821
 21
15.95136670115107
 31
0.0
 11
189.2658452735903
 21
15.72898440953998
 31
0.0
 11
189.3009063195165
 21
15.72898440953998
 31
0.0
 11
189.3933399860495
 21
15.72898440953998
 31
0.0
 11
189.5240220663201
 21
15.72898440953998
 31
0.0
 11
189.6738283534596
 21
15.72898440953998
 31
0.0
 11
189.8236346405992
 21
15.72898440953998
 31
0.0
 11
189.9543167208698
 21
15.72898440953998
 31
0.0
 11
190.0467503874027
 21
15.72898440953998
 31
0.0
 11
190.081811433329
 21
15.72898440953998
 31
0.0
 11
190.081811433329
 21
15.7013974629323
 31
0.0
 11
190.081811433329
 21
15.64070618039538
 31
0.0
 11
190.081811433329
 21
15.58001489785848
 31
0.0
 11
190.081811433329
 21
15.55242795125079
 31
0.0
  0
SPLINE
  5
A8
102
{ACAD_REACTORS
330
C5
102
}
330
48
100
AcDbEntity
  8
_U_30EC_U_30A4_U_30E4_U_30FC_1
  6
Continuous
 62
     2
100
AcDbSpline
210
0.0
220
0.0
230
1.0
 70
    11
 71
     3
 72
    75
 73
    71
 74
    69
 42
0.000000001
 43
0.0000000001
 44
0.00000001
 40
0.0
 40
0.0
 40
0.0
 40
0.0
 40
0.0342546099129691
 40
0.1245622414432364
 40
0.2522385480897589
 40
0.3985991922940769
 40
0.5449598364980963
 40
0.6726361431439012
 40
0.7629437746737155
 40
0.7971983935298186
 40
1.101723623449629
 40
1.408591244036606
 40
1.43333247169031
 40
1.487763172450105
 40
1.54219387308193
 40
1.566935100592478
 40
1.92352393182179
 40
2.27175570495359
 40
2.590579755100834
 40
2.858943305581095
 40
2.889120339309113
 40
2.918305855191055
 40
2.941366645531178
 40
2.99635776097307
 40
3.061992318140616
 40
3.116983433626811
 40
3.14004422399749
 40
3.41127312293641
 40
3.732441619741076
 40
3.761068217532774
 40
3.837787499630339
 40
3.948858699125976
 40
4.080541049104355
 40
4.219093782625741
 40
4.350776132722293
 40
4.461847332405627
 40
4.538566614678361
 40
4.567193212544609
 40
4.594907573998867
 40
4.666381453557406
 40
4.764111044011017
 40
4.87059253812582
 40
4.968322128642271
 40
5.039796008286956
 40
5.067510369784415
 40
5.094263603185627
 40
5.15312071666826
 40
5.211977830150703
 40
5.238731063551707
 40
5.272290535138946
 40
5.363380529444807
 40
5.497618415781485
 40
5.660621563453727
 40
5.838007341749428
 40
6.01539311991078
 40
6.178396267038405
 40
6.312634151842357
 40
6.403724143059346
 40
6.437283612672442
 40
6.464036846261058
 40
6.522893960004671
 40
6.58175107148393
 40
6.608504301590877
 40
6.637253941281024
 40
6.711397748902876
 40
6.81277805728346
 40
6.923237199249179
 40
7.024617507623852
 40
7.098761315207476
 40
7.127510946007426
 40
7.127510946007426
 40
7.127510946007426
 40
7.127510946007426
 10
188.4418622390565
 20
14.95849128473265
 30
0.0
 10
188.4418622819707
 20
14.9470731340872
 30
0.0
 10
188.4418624481129
 20
14.9055525784263
 30
0.0
 10
188.4418593081787
 20
14.82146922003772
 30
0.0
 10
188.4418788279802
 20
14.70004497322329
 30
0.0
 10
188.4417912187738
 20
14.55980494047448
 30
0.0
 10
188.4421116235231
 20
14.42006556794576
 30
0.0
 10
188.4411605909741
 20
14.29745038894928
 30
0.0
 10
188.4431978595968
 20
14.21587074438042
 30
0.0
 10
188.4349433178748
 20
14.06271267077699
 30
0.0
 10
188.7430797940901
 20
14.22560236054722
 30
0.0
 10
189.0350645173736
 20
14.39482938688002
 30
0.0
 10
189.0408354448707
 20
14.25973235781911
 30
0.0
 10
189.0455471719891
 20
14.21617221160444
 30
0.0
 10
189.0482535411917
 20
14.17211249350545
 30
0.0
 10
189.067254567296
 20
14.02272590363135
 30
0.0
 10
188.6583942247302
 20
14.08681172241262
 30
0.0
 10
188.3793710348831
 20
13.97296341411017
 30
0.0
 10
188.1018081587167
 20
13.87364095811142
 30
0.0
 10
187.8099837184399
 20
13.91630687596354
 30
0.0
 10
187.7869144678658
 20
13.8132167974454
 30
0.0
 10
187.7537474383332
 20
13.78691091244469
 30
0.0
 10
187.7480653962739
 20
13.83455309036304
 30
0.0
 10
187.7284214559044
 20
13.87180336115069
 30
0.0
 10
187.7095089485623
 20
13.93007387847564
 30
0.0
 10
187.6942849867707
 20
13.97385201007804
 30
0.0
 10
187.6477246372936
 20
14.08759421046312
 30
0.0
 10
187.9890897312449
 20
14.05576301120046
 30
0.0
 10
188.2679649367387
 20
14.02161435106479
 30
0.0
 10
188.2617753034907
 20
14.16913976479652
 30
0.0
 10
188.2630935452773
 20
14.24013150908832
 30
0.0
 10
188.2624831689948
 20
14.34719767958661
 30
0.0
 10
188.2625871570725
 20
14.47398529785998
 30
0.0
 10
188.2629987964055
 20
14.6084924349605
 30
0.0
 10
188.2613907841969
 20
14.73395549951185
 30
0.0
 10
188.2659902567924
 20
14.84505246719118
 30
0.0
 10
188.256418650221
 20
14.90761886800689
 30
0.0
 10
188.2704001783691
 20
14.96595388295002
 30
0.0
 10
188.2147384386704
 20
14.95289710582239
 30
0.0
 10
188.1575655197821
 20
14.96136307749499
 30
0.0
 10
188.0616048925648
 20
14.95729976080637
 30
0.0
 10
187.963376752282
 20
14.95970889852476
 30
0.0
 10
187.8672582457561
 20
14.95551600613388
 30
0.0
 10
187.8104648525811
 20
14.96429346441164
 30
0.0
 10
187.7550356873384
 20
14.95094936850121
 30
0.0
 10
187.7670679427917
 20
15.00036910959257
 30
0.0
 10
187.7592003173938
 20
15.04393988030396
 30
0.0
 10
187.7666295563828
 20
15.08830469118525
 30
0.0
 10
187.7551930564144
 20
15.13902297763991
 30
0.0
 10
187.8232102370132
 20
15.12162460757743
 30
0.0
 10
187.8968496879747
 20
15.13417450237189
 30
0.0
 10
188.0325064058211
 20
15.12799677011097
 30
0.0
 10
188.1884909024525
 20
15.13029203093084
 30
0.0
 10
188.3615926358143
 20
15.1294096826253
 30
0.0
 10
188.5346942964181
 20
15.13029207142408
 30
0.0
 10
188.6906789811216
 20
15.1279966295555
 30
0.0
 10
188.8263351889797
 20
15.13417486262432
 30
0.0
 10
188.8999756705652
 20
15.12162394218335
 30
0.0
 10
188.9679914174724
 20
15.13902373012142
 30
0.0
 10
188.9565590885922
 20
15.08830130414555
 30
0.0
 10
188.9639539458297
 20
15.04397060811109
 30
0.0
 10
188.956203991227
 20
15.00028307550197
 30
0.0
 10
188.9681203741877
 20
14.95063590098477
 30
0.0
 10
188.9108170223616
 20
14.96461411338426
 30
0.0
 10
188.8520145789773
 20
14.95539755673255
 30
0.0
 10
188.75252936332
 20
14.95952268164931
 30
0.0
 10
188.6494280098349
 20
14.95822760025888
 30
0.0
 10
188.5537846354574
 20
14.95854077077641
 30
0.0
 10
188.4857467971617
 20
14.95848776697147
 30
0.0
 10
188.4514462213444
 20
14.95849051871657
 30
0.0
 10
188.4418622390565
 20
14.95849128473265
 30
0.0
 11
188.4418622390565
 21
14.95849128473265
 31
0.0
 11
188.4418622390565
 21
14.92423666587186
 31
0.0
 11
188.4418622390565
 21
14.83392903432976
 31
0.0
 11
188.4418622390565
 21
14.70625272766679
 31
0.0
 11
188.4418622390565
 21
14.5598920834434
 31
0.0
 11
188.4418622390565
 21
14.41353143922
 31
0.0
 11
188.4418622390565
 21
14.28585513255703
 31
0.0
 11
188.4418622390565
 21
14.19554750101493
 31
0.0
 11
188.4418622390565
 21
14.16129288215414
 31
0.0
 11
188.7391932644567
 21
14.22709475713768
 31
0.0
 11
189.0384623627245
 21
14.29496038212072
 31
0.0
 11
189.0405487124976
 21
14.27030727882828
 31
0.0
 11
189.0451386819987
 21
14.2160704515849
 31
0.0
 11
189.0497286514996
 21
14.16183362434152
 31
0.0
 11
189.0518150012728
 21
14.13718052104908
 31
0.0
 11
188.705639688924
 21
14.05163370140898
 31
0.0
 11
188.3669653138838
 21
13.97060877629902
 31
0.0
 11
188.0563731516688
 21
13.89862764024929
 31
0.0
 11
187.7944444777955
 21
13.8402121877899
 31
0.0
 11
187.7817515029292
 21
13.81283442738012
 31
0.0
 11
187.7569794787513
 21
13.79740260446735
 31
0.0
 11
187.7491867589501
 21
13.81910683390636
 31
0.0
 11
187.7306041194242
 21
13.87086307333786
 31
0.0
 11
187.70842483999
 21
13.93263664943351
 31
0.0
 11
187.689842200464
 21
13.98439288886501
 31
0.0
 11
187.6820494806628
 21
14.00609711830402
 31
0.0
 11
187.9482776335931
 21
14.05794001759666
 31
0.0
 11
188.2626334936289
 21
14.1237396877191
 31
0.0
 11
188.2626334936289
 21
14.15236628569624
 31
0.0
 11
188.2626334936289
 21
14.22908556827499
 31
0.0
 11
188.2626334936289
 21
14.34015676842631
 31
0.0
 11
188.2626334936289
 21
14.47183911912118
 31
0.0
 11
188.2626334936289
 21
14.61039185333057
 31
0.0
 11
188.2626334936289
 21
14.74207420402543
 31
0.0
 11
188.2626334936289
 21
14.85314540417675
 31
0.0
 11
188.2626334936289
 21
14.9298646867555
 31
0.0
 11
188.2626334936289
 21
14.95849128473265
 31
0.0
 11
188.2349191321108
 21
14.95849128473265
 31
0.0
 11
188.1634452524063
 21
14.95849128473265
 31
0.0
 11
188.06571566179
 21
14.95849128473265
 31
0.0
 11
187.9592341675364
 21
14.95849128473265
 31
0.0
 11
187.8615045769201
 21
14.95849128473265
 31
0.0
 11
187.7900306972156
 21
14.95849128473265
 31
0.0
 11
187.7623163356975
 21
14.95849128473265
 31
0.0
 11
187.7623163356975
 21
14.9852445182329
 31
0.0
 11
187.7623163356975
 21
15.04410163193345
 31
0.0
 11
187.7623163356975
 21
15.10295874563399
 31
0.0
 11
187.7623163356975
 21
15.12971197913424
 31
0.0
 11
187.7958758072874
 21
15.12971197913424
 31
0.0
 11
187.8869658016031
 21
15.12971197913424
 31
0.0
 11
188.0212036879629
 21
15.12971197913424
 31
0.0
 11
188.1842068356856
 21
15.12971197913424
 31
0.0
 11
188.3615926140897
 21
15.12971197913424
 31
0.0
 11
188.5389783924938
 21
15.12971197913424
 31
0.0
 11
188.7019815402164
 21
15.12971197913424
 31
0.0
 11
188.8362194265763
 21
15.12971197913424
 31
0.0
 11
188.9273094208918
 21
15.12971197913424
 31
0.0
 11
188.9608688924818
 21
15.12971197913424
 31
0.0
 11
188.9608688924818
 21
15.10295874563399
 31
0.0
 11
188.9608688924818
 21
15.04410163193344
 31
0.0
 11
188.9608688924818
 21
14.9852445182329
 31
0.0
 11
188.9608688924818
 21
14.95849128473265
 31
0.0
 11
188.9321192527877
 21
14.95849128473265
 31
0.0
 11
188.8579754451555
 21
14.95849128473265
 31
0.0
 11
188.7565951367605
 21
14.95849128473265
 31
0.0
 11
188.6461359947778
 21
14.95849128473265
 31
0.0
 11
188.5447556863828
 21
14.95849128473265
 31
0.0
 11
188.4706118787506
 21
14.95849128473265
 31
0.0
 11
188.4418622390565
 21
14.95849128473265
 31
0.0
  0
SPLINE
  5
A9
102
{ACAD_REACTORS
330
C6
102
}
330
48
100
AcDbEntity
  8
_U_30EC_U_30A4_U_30E4_U_30FC_1
  6
Continuous
 62
     2
100
AcDbSpline
210
0.0
220
0.0
230
1.0
 70
    11
 71
     3
 72
    15
 73
    11
 74
     9
 42
0.000000001
 43
0.0000000001
 44
0.00000001
 40
0.0
 40
0.0
 40
0.0
 40
0.0
 40
0.2785535985096532
 40
0.5215624748198807
 40
0.6076917376040443
 40
0.6938210001741176
 40
0.9405019146454989
 40
1.221691403489134
 40
1.300471877081048
 40
1.379252341684808
 40
1.379252341684808
 40
1.379252341684808
 40
1.379252341684808
 10
189.5681493630999
 20
16.2293026733038
 30
0.0
 10
189.6296017794178
 20
16.17691646592715
 30
0.0
 10
189.7446649974113
 20
16.07882876798222
 30
0.0
 10
190.0397348497244
 20
15.92889785897222
 30
0.0
 10
189.9025147631857
 20
15.84343227515014
 30
0.0
 10
189.8041227843778
 20
15.71085785201555
 30
0.0
 10
189.713003359065
 20
16.0161698578142
 30
0.0
 10
189.3636839480655
 20
16.07967869465375
 30
0.0
 10
189.511925837657
 20
16.17896509880877
 30
0.0
 10
189.5494081874237
 20
16.21252348402382
 30
0.0
 10
189.5681493630999
 20
16.2293026733038
 30
0.0
 11
189.5681493630999
 21
16.2293026733038
 31
0.0
 11
189.7919222440596
 21
16.06341774278972
 31
0.0
 11
189.9695046306383
 21
15.89753281227564
 31
0.0
 11
189.9066308127979
 21
15.83866743034592
 31
0.0
 11
189.8437569949575
 21
15.7798020484162
 31
0.0
 11
189.6688535117725
 21
15.95375677059491
 31
0.0
 11
189.447825685614
 21
16.12757920110703
 31
0.0
 11
189.507987524357
 21
16.17844093720542
 31
0.0
 11
189.5681493630999
 21
16.2293026733038
 31
0.0
  0
SPLINE
  5
AA
102
{ACAD_REACTORS
330
C7
102
}
330
48
100
AcDbEntity
  8
_U_30EC_U_30A4_U_30E4_U_30FC_1
  6
Continuous
 62
     2
100
AcDbSpline
210
0.0
220
0.0
230
1.0
 70
    11
 71
     3
 72
    35
 73
    31
 74
    29
 42
0.000000001
 43
0.0000000001
 44
0.00000001
 40
0.0
 40
0.0
 40
0.0
 40
0.0
 40
0.0335231036620562
 40
0.0713218571711968
 40
0.4278866681486946
 40
0.8116865841963967
 40
1.198190238000054
 40
1.561379546812681
 40
1.659983174622039
 40
1.75931557380719
 40
2.132719617231078
 40
2.525233363588827
 40
2.910815397779692
 40
3.265244364303281
 40
3.59260672358202
 40
3.964386154603948
 40
4.359942131737772
 40
4.758154118639231
 40
4.843846538699894
 40
4.936650065543209
 40
5.25661660253729
 40
5.581707404416024
 40
5.899719158308121
 40
6.198363494280724
 40
6.466301046615757
 40
6.493895311537079
 40
6.559697020196872
 40
6.638234543442447
 40
6.7040362521542
 40
6.731630508423006
 40
6.731630508423006
 40
6.731630508423006
 40
6.731630508423006
 10
191.9736010568669
 20
16.23463843719133
 30
0.0
 10
191.9676006097788
 20
16.22480690542322
 30
0.0
 10
191.9548344099157
 20
16.20388988579798
 30
0.0
 10
191.7949362006556
 20
16.17127126532691
 30
0.0
 10
192.2322025842335
 20
15.88206680336701
 30
0.0
 10
192.4345394828262
 20
15.6804113835844
 30
0.0
 10
192.6819564267973
 20
15.43749387603276
 30
0.0
 10
193.1831513624606
 20
15.3604766275778
 30
0.0
 10
193.012556219897
 20
15.21876939174655
 30
0.0
 10
192.9383299463201
 20
15.01710366209109
 30
0.0
 10
192.6131432248188
 20
15.36956287174726
 30
0.0
 10
192.3277741670664
 20
15.53175212559563
 30
0.0
 10
192.0337604077658
 20
15.73687130053048
 30
0.0
 10
191.8084452691134
 20
16.21827488595455
 30
0.0
 10
191.5993085055522
 20
15.75343046609224
 30
0.0
 10
191.3207873674834
 20
15.54350952252912
 30
0.0
 10
191.0371383177208
 20
15.37424456359982
 30
0.0
 10
190.7078639527833
 20
15.00142360907944
 30
0.0
 10
190.6277012318224
 20
15.19708014458999
 30
0.0
 10
190.4759724909745
 20
15.32491104190597
 30
0.0
 10
190.9083395826794
 20
15.40454031765935
 30
0.0
 10
191.0962565329766
 20
15.60026634915473
 30
0.0
 10
191.3468477420503
 20
15.81632996916756
 30
0.0
 10
191.5714350470162
 20
15.98190992300058
 30
0.0
 10
191.6259775409712
 20
16.26133964636828
 30
0.0
 10
191.7494661029011
 20
16.24737950408078
 30
0.0
 10
191.806027334452
 20
16.24521268867647
 30
0.0
 10
191.8761870984944
 20
16.24046859881359
 30
0.0
 10
191.9333414022106
 20
16.2370942935054
 30
0.0
 10
191.9644190320839
 20
16.23519854711118
 30
0.0
 10
191.9736010568669
 20
16.23463843719133
 30
0.0
 11
191.9736010568669
 21
16.23463843719133
 31
0.0
 11
191.9525319069884
 21
16.20856374969785
 31
0.0
 11
191.9174464559425
 21
16.19450114553469
 31
0.0
 11
192.1512374769094
 21
15.92527961131382
 31
0.0
 11
192.4414585957566
 21
15.6741340796926
 31
0.0
 11
192.7612797483684
 21
15.45710987618784
 31
0.0
 11
193.0838708706289
 21
15.29025232631638
 31
0.0
 11
193.0213299868076
 21
15.21402035584928
 31
0.0
 11
192.9688035818975
 21
15.12971197913424
 31
0.0
 11
192.6436279095814
 21
15.3132640483158
 31
0.0
 11
192.3237227768436
 21
15.54070139743428
 31
0.0
 11
192.0354200158608
 21
15.7967385512331
 31
0.0
 11
191.8050514588095
 21
16.06609003445566
 31
0.0
 11
191.5995531719516
 21
15.81126348721036
 31
0.0
 11
191.3288301341536
 21
15.55645182277756
 31
0.0
 11
191.0119538423247
 21
15.31969466354855
 31
0.0
 11
190.6679957933742
 21
15.11903163191466
 31
0.0
 11
190.6218855341338
 21
15.19126067703554
 31
0.0
 11
190.5636970460348
 21
15.26355586798966
 31
0.0
 11
190.8433040489015
 21
15.41911456961744
 31
0.0
 11
191.1093004621154
 21
15.60601009790405
 31
0.0
 11
191.3499997459746
 21
15.81384496285209
 31
0.0
 11
191.5537153607774
 21
16.03222167446416
 31
0.0
 11
191.7087607668218
 21
16.25074274274287
 31
0.0
 11
191.7363041569865
 21
16.24906789496551
 31
0.0
 11
191.8019845489177
 21
16.24507402718873
 31
0.0
 11
191.880377274771
 21
16.24030715274547
 31
0.0
 11
191.9460576667022
 21
16.23631328496869
 31
0.0
 11
191.9736010568669
 21
16.23463843719133
 31
0.0
  0
SPLINE
  5
AB
102
{ACAD_REACTORS
330
C8
102
}
330
48
100
AcDbEntity
  8
_U_30EC_U_30A4_U_30E4_U_30FC_1
  6
Continuous
 62
     2
100
AcDbSpline
210
0.0
220
0.0
230
1.0
 70
    11
 71
     3
 72
    91
 73
    87
 74
    85
 42
0.000000001
 43
0.0000000001
 44
0.00000001
 40
0.0
 40
0.0
 40
0.0
 40
0.0
 40
0.0267532254356701
 40
0.0856103386464155
 40
0.1444674521996709
 40
0.1712206856618621
 40
0.2039416005642643
 40
0.2955601971652591
 40
0.4362601844617024
 40
0.6162252844507357
 40
0.8256392189704804
 40
1.054685709844421
 40
1.293548478893542
 40
1.532411247938314
 40
1.761457738799579
 40
1.970871673298547
 40
2.150836773256743
 40
2.291536760495604
 40
2.383155356836711
 40
2.415876284101331
 40
2.442629517487977
 40
2.501486630949111
 40
2.560343744424261
 40
2.587096977826536
 40
2.617068194440964
 40
2.699247336756105
 40
2.822032643466417
 40
2.973822353257947
 40
3.143014704823389
 40
3.318007936879968
 40
3.487200288186801
 40
3.638989997548282
 40
3.761775303794781
 40
3.843954445753115
 40
3.873925662229811
 40
3.890812773500573
 40
3.907699884771779
 40
3.937960767857426
 40
3.980983618142485
 40
4.199085915228607
 40
4.439444339237411
 40
4.677588241261068
 40
5.050698317837954
 40
5.44821245476334
 40
5.855291218044865
 40
6.138575438885541
 40
6.417434507584369
 40
6.444551104394051
 40
6.504207617363351
 40
6.563864130314675
 40
6.590980727104268
 40
6.848609460381646
 40
7.109611990668604
 40
7.352910904446267
 40
7.557830220705638
 40
7.587518925913556
 40
7.652834077375974
 40
7.718149228845911
 40
7.747837934062215
 40
7.854880190301176
 40
7.976511257403715
 40
8.369487896592515
 40
8.757514959223808
 40
9.12607241933127
 40
9.460639380392276
 40
9.74669559303596
 40
9.777569943118753
 40
9.80705032093193
 40
9.830377336129063
 40
9.886003295436138
 40
9.952395569430054
 40
10.00802152870641
 40
10.03134854388233
 40
10.21356951009604
 40
10.42203479292886
 40
10.6615455673108
 40
10.9169378956432
 40
11.15832906556581
 40
11.18982674596639
 40
11.27286608520423
 40
11.39026653033365
 40
11.52484752840901
 40
11.65942852648463
 40
11.77682897161499
 40
11.85986831085698
 40
11.89136598230444
 40
11.89136598230444
 40
11.89136598230444
 40
11.89136598230444
 10
190.7027885008196
 20
14.70699600701772
 30
0.0
 10
190.7028237765288
 20
14.71587847311985
 30
0.0
 10
190.7029366710796
 20
14.74430237047347
 30
0.0
 10
190.7012984568489
 20
14.79409639169803
 30
0.0
 10
190.7069750292911
 20
14.83657564478155
 30
0.0
 10
190.6956928731706
 20
14.88730154856848
 30
0.0
 10
190.7632296979031
 20
14.87012900740109
 30
0.0
 10
190.83880292107
 20
14.88290227165997
 30
0.0
 10
190.9828357056
 20
14.87629729457383
 30
0.0
 10
191.1569419185427
 20
14.87888462206467
 30
0.0
 10
191.3639599611003
 20
14.87800591955554
 30
0.0
 10
191.5894688172378
 20
14.87828207920028
 30
0.0
 10
191.8251162293406
 20
14.87818339658663
 30
0.0
 10
192.0607640531348
 20
14.87828184412768
 30
0.0
 10
192.2862717580626
 20
14.8780067819079
 30
0.0
 10
192.4932934632805
 20
14.87888186270736
 30
0.0
 10
192.6673888915288
 20
14.87630522678447
 30
0.0
 10
192.8114492071986
 20
14.88288290449214
 30
0.0
 10
192.8869691915293
 20
14.87016243405605
 30
0.0
 10
192.954577603703
 20
14.88726400191687
 30
0.0
 10
192.9430840140676
 20
14.83674785802941
 30
0.0
 10
192.9505104581733
 20
14.79253252226502
 30
0.0
 10
192.9428838927986
 20
14.7486796650361
 30
0.0
 10
192.9546489459425
 20
14.69878374479327
 30
0.0
 10
192.8930788491983
 20
14.71393227712512
 30
0.0
 10
192.8256791738671
 20
14.70310665350673
 30
0.0
 10
192.7013004056222
 20
14.70852031626236
 30
0.0
 10
192.555442823657
 20
14.70649205390785
 30
0.0
 10
192.3893576440086
 20
14.70715777578387
 30
0.0
 10
192.2188412621724
 20
14.70689643521242
 30
0.0
 10
192.0519790855388
 20
14.70721553391094
 30
0.0
 10
191.9087346827105
 20
14.70635302590763
 30
0.0
 10
191.7773313869834
 20
14.70863300482987
 30
0.0
 10
191.7239859134656
 20
14.70407704374203
 30
0.0
 10
191.6485188456912
 20
14.70999914992876
 30
0.0
 10
191.6769075779233
 20
14.70094169343353
 30
0.0
 10
191.7033652409543
 20
14.69725912268929
 30
0.0
 10
191.6633522907701
 20
14.66654271968275
 30
0.0
 10
191.5713663691868
 20
14.67667591174634
 30
0.0
 10
191.543939620707
 20
14.43032502247783
 30
0.0
 10
191.4478793967234
 20
14.27499558764376
 30
0.0
 10
191.1917277964474
 20
13.94525417931569
 30
0.0
 10
191.7627537732762
 20
14.08430022210451
 30
0.0
 10
192.0173656320516
 20
14.08291779973364
 30
0.0
 10
192.6279647048617
 20
13.99790569242085
 30
0.0
 10
192.3340698578083
 20
14.29685417558205
 30
0.0
 10
192.0133304286517
 20
14.4433085690178
 30
0.0
 10
192.1313543360434
 20
14.50025540818286
 30
0.0
 10
192.1724716466261
 20
14.52420099873347
 30
0.0
 10
192.2156812394411
 20
14.5459975881123
 30
0.0
 10
192.3174574094449
 20
14.60928721253901
 30
0.0
 10
192.4328867625248
 20
14.3514715140878
 30
0.0
 10
192.6329591642278
 20
14.21616041113682
 30
0.0
 10
192.7269077387228
 20
14.03792795138882
 30
0.0
 10
192.9558829746392
 20
13.87997821027049
 30
0.0
 10
192.8596031846708
 20
13.82915972576299
 30
0.0
 10
192.8167959763779
 20
13.79881292523055
 30
0.0
 10
192.7718243528779
 20
13.77466130281458
 30
0.0
 10
192.7121720925213
 20
13.72552146747568
 30
0.0
 10
192.6789731061325
 20
13.85997475673609
 30
0.0
 10
192.5582013350795
 20
14.0159426528658
 30
0.0
 10
192.1970976005979
 20
13.88569928059557
 30
0.0
 10
191.838506195554
 20
13.90224694409483
 30
0.0
 10
191.457092045008
 20
13.89331229351865
 30
0.0
 10
191.170345528289
 20
13.82882671672411
 30
0.0
 10
190.8592055599718
 20
13.94230668192821
 30
0.0
 10
190.8268737818788
 20
13.83122259927766
 30
0.0
 10
190.7896178253318
 20
13.81196313850011
 30
0.0
 10
190.7865737632753
 20
13.85874784087295
 30
0.0
 10
190.7679892860607
 20
13.89806853919135
 30
0.0
 10
190.7512436616778
 20
13.95765983478232
 30
0.0
 10
190.7383730915754
 20
14.00201969871284
 30
0.0
 10
190.7042327806427
 20
14.09106331120199
 30
0.0
 10
190.9482714457754
 20
14.02181042943771
 30
0.0
 10
191.1441394486671
 20
14.00030369057743
 30
0.0
 10
191.2395426381277
 20
14.28226484478463
 30
0.0
 10
191.2945135769597
 20
14.44363045421124
 30
0.0
 10
191.5159619357156
 20
14.71391177589738
 30
0.0
 10
191.3849239381216
 20
14.70548446853735
 30
0.0
 10
191.3110026555854
 20
14.7077900849697
 30
0.0
 10
191.1977459876244
 20
14.70671378321657
 30
0.0
 10
191.0694251807484
 20
14.7070763907651
 30
0.0
 10
190.9404252030415
 20
14.70697724466086
 30
0.0
 10
190.828784094629
 20
14.70699932712572
 30
0.0
 10
190.7514663970026
 20
14.7069957918967
 30
0.0
 10
190.713287653201
 20
14.70699595845081
 30
0.0
 10
190.7027885008196
 20
14.70699600701772
 30
0.0
 11
190.7027885008196
 21
14.70699600701772
 31
0.0
 11
190.7027885008196
 21
14.73374924051797
 31
0.0
 11
190.7027885008196
 21
14.79260635421854
 31
0.0
 11
190.7027885008196
 21
14.8514634679191
 31
0.0
 11
190.7027885008196
 21
14.87821670141936
 31
0.0
 11
190.7355094280989
 21
14.87821670141936
 31
0.0
 11
190.8271280244809
 21
14.87821670141936
 31
0.0
 11
190.9678280117818
 21
14.87821670141936
 31
0.0
 11
191.1477931118179
 21
14.87821670141936
 31
0.0
 11
191.3572070464054
 21
14.87821670141936
 31
0.0
 11
191.5862535373604
 21
14.87821670141936
 31
0.0
 11
191.8251163064992
 21
14.87821670141936
 31
0.0
 11
192.0639790756381
 21
14.87821670141936
 31
0.0
 11
192.2930255665931
 21
14.87821670141936
 31
0.0
 11
192.5024395011806
 21
14.87821670141936
 31
0.0
 11
192.6824046012167
 21
14.87821670141936
 31
0.0
 11
192.8231045885176
 21
14.87821670141936
 31
0.0
 11
192.9147231848996
 21
14.87821670141936
 31
0.0
 11
192.9474441121789
 21
14.87821670141936
 31
0.0
 11
192.9474441121789
 21
14.8514634679191
 31
0.0
 11
192.9474441121789
 21
14.79260635421854
 31
0.0
 11
192.9474441121789
 21
14.73374924051798
 31
0.0
 11
192.9474441121789
 21
14.70699600701772
 31
0.0
 11
192.9174728954758
 21
14.70699600701772
 31
0.0
 11
192.8352937529027
 21
14.70699600701772
 31
0.0
 11
192.7125084457639
 21
14.70699600701772
 31
0.0
 11
192.5607187353642
 21
14.70699600701772
 31
0.0
 11
192.3915263830077
 21
14.70699600701772
 31
0.0
 11
192.2165331499991
 21
14.70699600701772
 31
0.0
 11
192.0473407976426
 21
14.70699600701772
 31
0.0
 11
191.8955510872428
 21
14.70699600701772
 31
0.0
 11
191.7727657801042
 21
14.70699600701772
 31
0.0
 11
191.690586637531
 21
14.70699600701772
 31
0.0
 11
191.6606154208279
 21
14.70699600701772
 31
0.0
 11
191.6766359412526
 21
14.70165583340794
 31
0.0
 11
191.6926564616772
 21
14.69631565979815
 31
0.0
 11
191.6706155681421
 21
14.67558114591443
 31
0.0
 11
191.6284861855363
 21
14.6668587153611
 31
0.0
 11
191.5365235541378
 21
14.46909247312657
 31
0.0
 11
191.4279078521764
 21
14.25467511978509
 31
0.0
 11
191.3127500824807
 21
14.0462255905162
 31
0.0
 11
191.685736667502
 21
14.05582441253029
 31
0.0
 11
192.083070003615
 21
14.06781232404995
 31
0.0
 11
192.4899342191145
 21
14.08102711828532
 31
0.0
 11
192.2983119496978
 21
14.28966761302481
 31
0.0
 11
192.0966752013698
 21
14.48229420151831
 31
0.0
 11
192.1204947794749
 21
14.49525327269563
 31
0.0
 11
192.1728978513061
 21
14.52376322928575
 31
0.0
 11
192.2253009231374
 21
14.55227318587587
 31
0.0
 11
192.2491205012425
 21
14.56523225705319
 31
0.0
 11
192.4387101558627
 21
14.39079508370268
 31
0.0
 11
192.6200310940435
 21
14.20305846374091
 31
0.0
 11
192.7777729231147
 21
14.01782380992436
 31
0.0
 11
192.8966252504058
 21
13.85089253500949
 31
0.0
 11
192.8715408217923
 21
13.83501202286069
 31
0.0
 11
192.8163550788425
 21
13.80007489613332
 31
0.0
 11
192.7611693358928
 21
13.76513776940595
 31
0.0
 11
192.7360849072793
 21
13.74925725725715
 31
0.0
 11
192.6775518151612
 21
13.8388782468181
 31
0.0
 11
192.6050015078457
 21
13.93650288221032
 31
0.0
 11
192.2125412924095
 21
13.91636286943759
 31
0.0
 11
191.824947406956
 21
13.89803302999774
 31
0.0
 11
191.4567378976213
 21
13.88202178722396
 31
0.0
 11
191.1224308105413
 21
13.86883756444947
 31
0.0
 11
190.8365441918519
 21
13.8589887850075
 31
0.0
 11
190.8211862321741
 21
13.83220523466695
 31
0.0
 11
190.7937434290546
 21
13.82143559057245
 31
0.0
 11
190.7867927192319
 21
13.84370299445577
 31
0.0
 11
190.7702179496548
 21
13.89680218833139
 31
0.0
 11
190.7504351601596
 21
13.96017864553777
 31
0.0
 11
190.7338603905825
 21
14.01327783941338
 31
0.0
 11
190.7269096807598
 21
14.0355452432967
 31
0.0
 11
190.9091199859153
 21
14.03751638912953
 31
0.0
 11
191.1174975848588
 21
14.04356211829471
 31
0.0
 11
191.2303203127216
 21
14.25483550301554
 31
0.0
 11
191.3407936722035
 21
14.48509813155879
 31
0.0
 11
191.4358254265627
 21
14.70699600701772
 31
0.0
 11
191.4043277461597
 21
14.70699600701772
 31
0.0
 11
191.3212884069153
 21
14.70699600701772
 31
0.0
 11
191.2038879617768
 21
14.70699600701772
 31
0.0
 11
191.0693069636912
 21
14.70699600701772
 31
0.0
 11
190.9347259656055
 21
14.70699600701772
 31
0.0
 11
190.817325520467
 21
14.70699600701772
 31
0.0
 11
190.7342861812226
 21
14.70699600701772
 31
0.0
 11
190.7027885008196
 21
14.70699600701772
 31
0.0
  0
SPLINE
  5
AC
102
{ACAD_REACTORS
330
C9
102
}
330
48
100
AcDbEntity
  8
_U_30EC_U_30A4_U_30E4_U_30FC_1
  6
Continuous
 62
     2
100
AcDbSpline
210
0.0
220
0.0
230
1.0
 70
    11
 71
     3
 72
   131
 73
   127
 74
   125
 42
0.000000001
 43
0.0000000001
 44
0.00000001
 40
0.0
 40
0.0
 40
0.0
 40
0.0
 40
0.0195577029826184
 40
0.0426490537461576
 40
0.286360757585662
 40
0.5344948436189284
 40
0.7842238845573182
 40
0.8737315789467347
 40
0.9803832810312864
 40
1.092842274517035
 40
1.199761146656795
 40
1.2897887681865
 40
1.35157358078619
 40
1.370727117561419
 40
1.416400936017828
 40
1.470914848355973
 40
1.516588666791762
 40
1.535742203552843
 40
1.634216592293194
 40
1.76028334117503
 40
1.897966686682092
 40
2.031216387368914
 40
2.049689751137908
 40
2.101115601646843
 40
2.17950257773996
 40
2.278859318314074
 40
2.39319446225873
 40
2.516516648383842
 40
2.642834515405969
 40
2.766156701983473
 40
2.880491846754584
 40
2.979848588358625
 40
3.058235565443802
 40
3.109661416668956
 40
3.128134780704132
 40
3.146783742386448
 40
3.191254343315309
 40
3.244332157315968
 40
3.288802758225872
 40
3.307451719895115
 40
3.327717853844726
 40
3.383747753580087
 40
3.468388665924477
 40
3.574487837698785
 40
3.69489251572889
 40
3.822449946852027
 40
3.950007377920418
 40
4.070412055800508
 40
4.176511227368062
 40
4.26115213950151
 40
4.317182039076702
 40
4.337448172964622
 40
4.620011002696237
 40
4.885096638397509
 40
4.945373043518325
 40
5.014107710488642
 40
5.070481727652042
 40
5.319246955636566
 40
5.584812164506036
 40
5.859000912056887
 40
6.133746937542069
 40
6.401732212968875
 40
6.420736683995465
 40
6.472845717451116
 40
6.550702743894044
 40
6.646951193874252
 40
6.754234497930576
 40
6.865196086587354
 40
6.972479390357813
 40
7.068727839771975
 40
7.146584865450984
 40
7.198693898189213
 40
7.217698368905354
 40
7.23495040163083
 40
7.276089864269873
 40
7.32519180351598
 40
7.366331266090364
 40
7.383583298769714
 40
7.402779163492091
 40
7.453386443254522
 40
7.524934666445524
 40
7.606953361405863
 40
7.688972056429015
 40
7.760520279784266
 40
7.811127559734508
 40
7.830323424546129
 40
7.847844055299759
 40
7.894799345666798
 40
7.962779392744484
 40
8.043374293560532
 40
8.128174145149435
 40
8.208769044817236
 40
8.276749090376937
 40
8.323704379669499
 40
8.34122501005623
 40
8.358497614800378
 40
8.401679126686583
 40
8.45781509218564
 40
8.513951057728045
 40
8.557132569708001
 40
8.574405174505044
 40
8.602340668616392
 40
8.643455660539935
 40
8.663225271966603
 40
8.71534515656425
 40
8.789031889628586
 40
8.873502045520315
 40
8.957972194323938
 40
9.031658925567829
 40
9.08377881123452
 40
9.103548423002982
 40
9.119550083123519
 40
9.160817522379821
 40
9.217244429110186
 40
9.278724491644672
 40
9.335151398295457
 40
9.376418837357752
 40
9.39242049730054
 40
9.401196302734759
 40
9.417494229384234
 40
9.426270027749506
 40
9.440875075477539
 40
9.475702496998718
 40
9.51727070986588
 40
9.552098131994047
 40
9.566703169884255
 40
9.566703169884255
 40
9.566703169884255
 40
9.566703169884255
 10
194.6170254148479
 20
15.67015871511028
 30
0.0
 10
194.6134345093371
 20
15.6645369070216
 30
0.0
 10
194.6056039123625
 20
15.65227754419113
 30
0.0
 10
194.5129968974544
 20
15.61601916040964
 30
0.0
 10
194.4887622233248
 20
15.40148444212717
 30
0.0
 10
194.3858709845938
 20
15.22197284509707
 30
0.0
 10
194.1220492364306
 20
15.03615573798145
 30
0.0
 10
194.2845471569179
 20
14.95959336566081
 30
0.0
 10
194.3607225760838
 20
14.89856693195442
 30
0.0
 10
194.4492171072758
 20
14.83515804544759
 30
0.0
 10
194.538993023311
 20
14.7752563421956
 30
0.0
 10
194.5883817636046
 20
14.72102154849206
 30
0.0
 10
194.6745708157382
 20
14.69286240541834
 30
0.0
 10
194.6411260674229
 20
14.65713309652811
 30
0.0
 10
194.621467116631
 20
14.62550387991906
 30
0.0
 10
194.5919888217882
 20
14.58475872796069
 30
0.0
 10
194.5688989446031
 20
14.55504663489643
 30
0.0
 10
194.5380205968357
 20
14.50211422668494
 30
0.0
 10
194.472919336574
 20
14.62740334938902
 30
0.0
 10
194.3796000122415
 20
14.68213900233934
 30
0.0
 10
194.2950636285138
 20
14.73916423939343
 30
0.0
 10
194.1722498125742
 20
14.89675287427523
 30
0.0
 10
194.1764450847301
 20
14.82035806766836
 30
0.0
 10
194.1751478652677
 20
14.77361280161296
 30
0.0
 10
194.1758126448076
 20
14.69584785812601
 30
0.0
 10
194.1755549986957
 20
14.59902068324423
 30
0.0
 10
194.1756431239921
 20
14.48650279078809
 30
0.0
 10
194.1756077302281
 20
14.365240859457
 30
0.0
 10
194.1756511758279
 20
14.24086897858962
 30
0.0
 10
194.1755199942405
 20
14.11967683631336
 30
0.0
 10
194.1759477562046
 20
14.00691148919744
 30
0.0
 10
194.174667820231
 20
13.91082913768745
 30
0.0
 10
194.1779759851044
 20
13.83113826468701
 30
0.0
 10
194.1715197740086
 20
13.78815175788785
 30
0.0
 10
194.1806208705556
 20
13.74955432372044
 30
0.0
 10
194.1447910339935
 20
13.75810887724072
 30
0.0
 10
194.1115223815252
 20
13.75342519985448
 30
0.0
 10
194.0604562576041
 20
13.75351298759785
 30
0.0
 10
194.0269723972812
 20
13.75794430283822
 30
0.0
 10
193.9907585408754
 20
13.74960793842511
 30
0.0
 10
194.0009782568666
 20
13.79145277179286
 30
0.0
 10
193.9936487887773
 20
13.83778560820175
 30
0.0
 10
193.9973633136103
 20
13.92374831106015
 30
0.0
 10
193.9959480554896
 20
14.0260514270485
 30
0.0
 10
193.9964105554638
 20
14.14453223931513
 30
0.0
 10
193.9962773686231
 20
14.26957683153357
 30
0.0
 10
193.9963015910045
 20
14.39475828107051
 30
0.0
 10
193.9963354925551
 20
14.51286645379058
 30
0.0
 10
193.9962060293132
 20
14.61628748709516
 30
0.0
 10
193.9965507549081
 20
14.69932036153667
 30
0.0
 10
193.9958698278689
 20
14.75143368521244
 30
0.0
 10
193.9994586600625
 20
14.87912907821362
 30
0.0
 10
193.7826171386436
 20
14.5804871681962
 30
0.0
 10
193.6021354921951
 20
14.35263981511516
 30
0.0
 10
193.5490322295611
 20
14.49373443289813
 30
0.0
 10
193.5200429133149
 20
14.54325767560944
 30
0.0
 10
193.419664806282
 20
14.64641779790107
 30
0.0
 10
193.7405127723261
 20
14.7269503502378
 30
0.0
 10
193.8689897005429
 20
14.91066283036435
 30
0.0
 10
194.0906454325358
 20
15.11931995771763
 30
0.0
 10
194.1770224894069
 20
15.29339211228344
 30
0.0
 10
194.4549394229074
 20
15.56967051342514
 30
0.0
 10
194.3346247839284
 20
15.56534559551115
 30
0.0
 10
194.2863197351348
 20
15.56614856202554
 30
0.0
 10
194.2102377454905
 20
15.56574582146585
 30
0.0
 10
194.116701000975
 20
15.56590275611611
 30
0.0
 10
194.0117594788557
 20
15.56582502576224
 30
0.0
 10
193.9033887738717
 20
15.56595464378556
 30
0.0
 10
193.7981454235897
 20
15.56554393490692
 30
0.0
 10
193.7056237819412
 20
15.56682073671592
 30
0.0
 10
193.6268130800707
 20
15.5634076653485
 30
0.0
 10
193.5839674565379
 20
15.57023350036321
 30
0.0
 10
193.5449499586516
 20
15.56065064201124
 30
0.0
 10
193.5526365271863
 20
15.59420779565543
 30
0.0
 10
193.5485464404312
 20
15.62523550322234
 30
0.0
 10
193.5485531368814
 20
15.672365292709
 30
0.0
 10
193.5526239724911
 20
15.70340941646779
 30
0.0
 10
193.5449495574582
 20
15.73701861635901
 30
0.0
 10
193.5834819405495
 20
15.72748410420872
 30
0.0
 10
193.624122801448
 20
15.73397435498071
 30
0.0
 10
193.6951471850463
 20
15.73100150650254
 30
0.0
 10
193.7729318149633
 20
15.73174761399158
 30
0.0
 10
193.8507292246474
 20
15.73247814044525
 30
0.0
 10
193.9217232089907
 20
15.7295423551416
 30
0.0
 10
193.962427979182
 20
15.73595468772952
 30
0.0
 10
194.000985348991
 20
15.72650524176004
 30
0.0
 10
193.9927342754927
 20
15.76264692158784
 30
0.0
 10
193.9982346669358
 20
15.80129837613226
 30
0.0
 10
193.9955754206163
 20
15.86913528561839
 30
0.0
 10
193.9965815471533
 20
15.94591641538739
 30
0.0
 10
193.9960178018318
 20
16.02849393582756
 30
0.0
 10
193.9970714526593
 20
16.10517329229877
 30
0.0
 10
193.994267586313
 20
16.17331990776699
 30
0.0
 10
194.0000702721303
 20
16.21132399809345
 30
0.0
 10
193.9915654551159
 20
16.24758448077645
 30
0.0
 10
194.0255610233125
 20
16.23755723771851
 30
0.0
 10
194.0594575683099
 20
16.24073266813706
 30
0.0
 10
194.1126669060346
 20
16.23508965640608
 30
0.0
 10
194.1660768574483
 20
16.23434774436424
 30
0.0
 10
194.1995914649491
 20
16.22819223482978
 30
0.0
 10
194.2388086183038
 20
16.23346029773592
 30
0.0
 10
194.2120263698492
 20
16.1925338079349
 30
0.0
 10
194.1708111001724
 20
16.20371204538111
 30
0.0
 10
194.1782641540874
 20
16.15867056192123
 30
0.0
 10
194.1742227952184
 20
16.11412278028144
 30
0.0
 10
194.176171404964
 20
16.04223572621703
 30
0.0
 10
194.1752364849758
 20
15.96168630588771
 30
0.0
 10
194.176510719003
 20
15.88173995404994
 30
0.0
 10
194.1732043793863
 20
15.80841837083183
 30
0.0
 10
194.1802106179961
 20
15.76688643002568
 30
0.0
 10
194.1701440380126
 20
15.72752418568113
 30
0.0
 10
194.2029814803921
 20
15.73468063430981
 30
0.0
 10
194.236457729648
 20
15.73027243137945
 30
0.0
 10
194.2915053476019
 20
15.73217943347897
 30
0.0
 10
194.3489502595314
 20
15.73185366407288
 30
0.0
 10
194.4023026248309
 20
15.73106308733081
 30
0.0
 10
194.4398540896638
 20
15.73313959118074
 30
0.0
 10
194.4623172523237
 20
15.73022338167109
 30
0.0
 10
194.4751678073731
 20
15.73572552644056
 30
0.0
 10
194.4858255685888
 20
15.7380111819779
 30
0.0
 10
194.4986635650143
 20
15.74494972588052
 30
0.0
 10
194.5145991033071
 20
15.72853046313672
 30
0.0
 10
194.5410623920891
 20
15.71709122319449
 30
0.0
 10
194.5726805253757
 20
15.6964468783519
 30
0.0
 10
194.5987255892151
 20
15.68116869628295
 30
0.0
 10
194.6128517723973
 20
15.67266976323184
 30
0.0
 10
194.6170254148479
 20
15.67015871511028
 30
0.0
 11
194.6170254148479
 21
15.67015871511028
 31
0.0
 11
194.6049990002243
 21
15.65473571164188
 31
0.0
 11
194.5848961795565
 21
15.64337406233916
 31
0.0
 11
194.4778986355813
 21
15.42440620231159
 31
0.0
 11
194.3477039934324
 21
15.21317201512161
 31
0.0
 11
194.1996540366071
 21
15.01206059027479
 31
0.0
 11
194.2734958253735
 21
14.96147384935379
 31
0.0
 11
194.36056643118
 21
14.89988411653739
 31
0.0
 11
194.4518003750404
 21
14.83413160594425
 31
0.0
 11
194.5381321779687
 21
14.77105653169304
 31
0.0
 11
194.6104963609787
 21
14.71749910790241
 31
0.0
 11
194.6598274450843
 21
14.68029954869104
 31
0.0
 11
194.6486940702213
 21
14.66471410869494
 31
0.0
 11
194.6221452532403
 21
14.62754882870424
 31
0.0
 11
194.5904579555533
 21
14.58319026871533
 31
0.0
 11
194.5639091385723
 21
14.54602498872462
 31
0.0
 11
194.5527757637093
 21
14.53043954872852
 31
0.0
 11
194.4807013362947
 21
14.59754008690618
 31
0.0
 11
194.385285698538
 21
14.67993354174669
 31
0.0
 11
194.279326415217
 21
14.76785017366916
 31
0.0
 11
194.175621051109
 21
14.85152024309267
 31
0.0
 11
194.175621051109
 21
14.83304687900863
 31
0.0
 11
194.175621051109
 21
14.78162102763955
 31
0.0
 11
194.175621051109
 21
14.70323405030999
 31
0.0
 11
194.175621051109
 21
14.60387730834449
 31
0.0
 11
194.175621051109
 21
14.48954216306761
 31
0.0
 11
194.175621051109
 21
14.3662199758039
 31
0.0
 11
194.175621051109
 21
14.23990210787791
 31
0.0
 11
194.175621051109
 21
14.11657992061419
 31
0.0
 11
194.175621051109
 21
14.00224477533731
 31
0.0
 11
194.175621051109
 21
13.90288803337181
 31
0.0
 11
194.175621051109
 21
13.82450105604224
 31
0.0
 11
194.175621051109
 21
13.77307520467317
 31
0.0
 11
194.175621051109
 21
13.75460184058913
 31
0.0
 11
194.1569720893626
 21
13.75460184058913
 31
0.0
 11
194.1125014882749
 21
13.75460184058913
 31
0.0
 11
194.0594236740736
 21
13.75460184058913
 31
0.0
 11
194.0149530729859
 21
13.75460184058913
 31
0.0
 11
193.9963041112395
 21
13.75460184058913
 31
0.0
 11
193.9963041112395
 21
13.7748679746022
 31
0.0
 11
193.9963041112395
 21
13.83089787452067
 31
0.0
 11
193.9963041112395
 21
13.91553878716348
 31
0.0
 11
193.9963041112395
 21
14.02163795934954
 31
0.0
 11
193.9963041112395
 21
14.14204263789776
 31
0.0
 11
193.9963041112395
 21
14.26960006962706
 31
0.0
 11
193.9963041112395
 21
14.39715750135637
 31
0.0
 11
193.9963041112395
 21
14.51756217990459
 31
0.0
 11
193.9963041112395
 21
14.62366135209064
 31
0.0
 11
193.9963041112395
 21
14.70830226473345
 31
0.0
 11
193.9963041112395
 21
14.76433216465193
 31
0.0
 11
193.9963041112395
 21
14.784598298665
 31
0.0
 11
193.7883272849481
 21
14.59331998274057
 31
0.0
 11
193.5763486358425
 21
14.43414885430811
 31
0.0
 11
193.5495629014482
 21
14.48814671952095
 31
0.0
 11
193.5138765415024
 21
14.54689140572026
 31
0.0
 11
193.4799697494124
 21
14.59192871537977
 31
0.0
 11
193.6830287742319
 21
14.73563387201055
 31
0.0
 11
193.881853195826
 21
14.91168423529989
 31
0.0
 11
194.0677041444178
 21
15.1132751452495
 31
0.0
 11
194.2318427502303
 21
15.33360194186109
 31
0.0
 11
194.3655301434864
 21
15.56585996513636
 31
0.0
 11
194.3465256724482
 21
15.56585996513636
 31
0.0
 11
194.2944166389562
 21
15.56585996513636
 31
0.0
 11
194.2165596124447
 21
15.56585996513636
 31
0.0
 11
194.1203111623478
 21
15.56585996513636
 31
0.0
 11
194.0130278580997
 21
15.56585996513636
 31
0.0
 11
193.9020662691345
 21
15.56585996513636
 31
0.0
 11
193.7947829648864
 21
15.56585996513636
 31
0.0
 11
193.6985345147895
 21
15.56585996513636
 31
0.0
 11
193.620677488278
 21
15.56585996513636
 31
0.0
 11
193.568568454786
 21
15.56585996513636
 31
0.0
 11
193.5495639837478
 21
15.56585996513636
 31
0.0
 11
193.5495639837478
 21
15.58311199790982
 31
0.0
 11
193.5495639837478
 21
15.62425146067732
 31
0.0
 11
193.5495639837478
 21
15.67335340010949
 31
0.0
 11
193.5495639837478
 21
15.71449286287699
 31
0.0
 11
193.5495639837478
 21
15.73174489565045
 31
0.0
 11
193.5687598486009
 21
15.73174489565045
 31
0.0
 11
193.6193671286684
 21
15.73174489565045
 31
0.0
 11
193.690915352212
 21
15.73174489565045
 31
0.0
 11
193.7729340474937
 21
15.73174489565045
 31
0.0
 11
193.8549527427753
 21
15.73174489565045
 31
0.0
 11
193.9265009663189
 21
15.73174489565045
 31
0.0
 11
193.9771082463864
 21
15.73174489565045
 31
0.0
 11
193.9963041112395
 21
15.73174489565045
 31
0.0
 11
193.9963041112395
 21
15.74926552655218
 31
0.0
 11
193.9963041112395
 21
15.79622081736882
 31
0.0
 11
193.9963041112395
 21
15.86420086526753
 31
0.0
 11
193.9963041112395
 21
15.94479576741548
 31
0.0
 11
193.9963041112395
 21
16.02959562097985
 31
0.0
 11
193.9963041112395
 21
16.11019052312781
 31
0.0
 11
193.9963041112395
 21
16.17817057102652
 31
0.0
 11
193.9963041112395
 21
16.22512586184316
 31
0.0
 11
193.9963041112395
 21
16.24264649274489
 31
0.0
 11
194.0135484112111
 21
16.24165806167518
 31
0.0
 11
194.0566591611401
 21
16.2391869840009
 31
0.0
 11
194.1127031360477
 21
16.23597458302434
 31
0.0
 11
194.1687471109553
 21
16.23276218204779
 31
0.0
 11
194.2118578608843
 21
16.23029110437351
 31
0.0
 11
194.2291021608559
 21
16.2293026733038
 31
0.0
 11
194.2143774674851
 21
16.20556293372641
 31
0.0
 11
194.175621051109
 21
16.19183767331312
 31
0.0
 11
194.175621051109
 21
16.17206806177293
 31
0.0
 11
194.175621051109
 21
16.11994817680333
 31
0.0
 11
194.175621051109
 21
16.04626144288079
 31
0.0
 11
194.175621051109
 21
15.96179128448179
 31
0.0
 11
194.175621051109
 21
15.87732112608278
 31
0.0
 11
194.175621051109
 21
15.80363439216024
 31
0.0
 11
194.175621051109
 21
15.75151450719064
 31
0.0
 11
194.175621051109
 21
15.73174489565045
 31
0.0
 11
194.1916227112935
 21
15.73174489565045
 31
0.0
 11
194.232890150717
 21
15.73174489565045
 31
0.0
 11
194.2893170576837
 21
15.73174489565045
 31
0.0
 11
194.3507971204981
 21
15.73174489565045
 31
0.0
 11
194.4072240274648
 21
15.73174489565045
 31
0.0
 11
194.4484914668882
 21
15.73174489565045
 31
0.0
 11
194.4644931270728
 21
15.73174489565045
 31
0.0
 11
194.4728206422924
 21
15.73451387455921
 31
0.0
 11
194.4882860277004
 21
15.73965626396118
 31
0.0
 11
194.49661354292
 21
15.74242524286994
 31
0.0
 11
194.5091363776005
 21
15.73490952398294
 31
0.0
 11
194.5389985218386
 21
15.71698742509854
 31
0.0
 11
194.5746404359293
 21
15.69559653288168
 31
0.0
 11
194.6045025801674
 21
15.67767443399729
 31
0.0
 11
194.6170254148479
 21
15.67015871511028
 31
0.0
  0
SPLINE
  5
AD
102
{ACAD_REACTORS
330
CA
102
}
330
48
100
AcDbEntity
  8
_U_30EC_U_30A4_U_30E4_U_30FC_1
  6
Continuous
 62
     2
100
AcDbSpline
210
0.0
220
0.0
230
1.0
 70
    11
 71
     3
 72
   124
 73
   120
 74
   118
 42
0.000000001
 43
0.0000000001
 44
0.00000001
 40
0.0
 40
0.0
 40
0.0
 40
0.0
 40
0.0278187229624226
 40
0.1011590162383985
 40
0.2048470170589954
 40
0.3237088716558677
 40
0.4425707262521431
 40
0.5462587270698694
 40
0.6195990203311229
 40
0.6474177522577808
 40
0.6750060736114372
 40
0.7357003855241906
 40
0.7963946998053639
 40
0.8239830245570932
 40
0.8540933811102025
 40
0.9373396629408706
 40
1.063094687343123
 40
1.220731268637961
 40
1.399622220914636
 40
1.58914035863762
 40
1.77865849642373
 40
1.957549448940368
 40
2.11518603087299
 40
2.240941056914294
 40
2.324187341760363
 40
2.354297700109213
 40
2.38188602467172
 40
2.442580338710308
 40
2.503274652750332
 40
2.530862977314439
 40
2.560983949278392
 40
2.640393784452738
 40
2.752662861758961
 40
2.881361560117949
 40
3.010060258454996
 40
3.1223293357052
 40
3.201739170817757
 40
3.231860142753146
 40
3.264298024030201
 40
3.352343701778074
 40
3.482095226868597
 40
3.639650650172855
 40
3.811108022565311
 40
3.982565394927817
 40
4.140120818152398
 40
4.269872343141109
 40
4.35791802080217
 40
4.390355902043798
 40
4.423256253992368
 40
4.508104530072917
 40
4.624121560636685
 40
4.750528176031442
 40
4.866545206601917
 40
4.951393482691903
 40
4.984293834645304
 40
5.011450833242219
 40
5.071196230152004
 40
5.130941627057083
 40
5.158098625648747
 40
5.190998977601438
 40
5.275847253689263
 40
5.391864284256754
 40
5.518270899648299
 40
5.634287930209338
 40
5.719136206288012
 40
5.752036558235928
 40
5.782130946282954
 40
5.862783906229128
 40
5.979550131774995
 40
6.117984316640402
 40
6.263641154587947
 40
6.402075339414153
 40
6.518841564907947
 40
6.599494524815529
 40
6.629588912848766
 40
6.654403028226342
 40
6.713575149488081
 40
6.784199939329398
 40
6.843372060493444
 40
6.868186175802689
 40
6.896246243201769
 40
6.939586233758085
 40
6.967846564564713
 40
7.043584251089651
 40
7.153234334451509
 40
7.283231855734259
 40
7.420011856035293
 40
7.550009376579645
 40
7.659659458835044
 40
7.735397144417037
 40
7.763657474851209
 40
7.796409728010866
 40
7.880876065096141
 40
7.996370852465526
 40
8.122208446418421
 40
8.237703224799015
 40
8.322169562010737
 40
8.354921815205723
 40
8.382078813307503
 40
8.441824209206809
 40
8.50156960523996
 40
8.528726603485538
 40
8.561478856695558
 40
8.645945193877608
 40
8.761439980865148
 40
8.887277580764291
 40
9.002772362000812
 40
9.087238696661004
 40
9.119990949235486
 40
9.152428830613186
 40
9.240474508638401
 40
9.37022603414935
 40
9.527781457984233
 40
9.699238830981223
 40
9.870696203978412
 40
10.02825162781383
 40
10.15800315332545
 40
10.246048831351
 40
10.27848670378503
 40
10.27848670378503
 40
10.27848670378503
 40
10.27848670378503
 10
195.3821827564384
 20
14.01410517385757
 30
0.0
 10
195.3914554737524
 20
14.01410498511274
 30
0.0
 10
195.4251744536861
 20
14.01410430876714
 30
0.0
 10
195.4934706812466
 20
14.01411807243305
 30
0.0
 10
195.592014171158
 20
14.01403224219544
 30
0.0
 10
195.7062066464812
 20
14.01441755612251
 30
0.0
 10
195.8185894417071
 20
14.01300835897545
 30
0.0
 10
195.9214376600119
 20
14.01719117422243
 30
0.0
 10
195.9806839874848
 20
14.00823089251983
 30
0.0
 10
196.0371265937033
 20
14.0216443452606
 30
0.0
 10
196.0246255586955
 20
13.97087198613361
 30
0.0
 10
196.0329549635703
 20
13.92589320939067
 30
0.0
 10
196.024817084112
 20
13.88056752990488
 30
0.0
 10
196.0370529214457
 20
13.82931932408466
 30
0.0
 10
195.9747773490333
 20
13.84447955365276
 30
0.0
 10
195.9060513026868
 20
13.83359750710743
 30
0.0
 10
195.7782756749592
 20
13.83911304747972
 30
0.0
 10
195.6262984511643
 20
13.83700851253698
 30
0.0
 10
195.4502695972523
 20
13.83771002588473
 30
0.0
 10
195.2644431934287
 20
13.83745237531291
 30
0.0
 10
195.0786167437176
 20
13.83771005144603
 30
0.0
 10
194.9025880142169
 20
13.83700841847731
 30
0.0
 10
194.7506104154195
 20
13.83911332229988
 30
0.0
 10
194.6228357664555
 20
13.8335968076764
 30
0.0
 10
194.5541077836581
 20
13.84448077125942
 30
0.0
 10
194.4918349042884
 20
13.82931786684209
 30
0.0
 10
194.5040616290018
 20
13.88057510805171
 30
0.0
 10
194.4960004462598
 20
13.92582473272425
 30
0.0
 10
194.5040675809893
 20
13.97106357955323
 30
0.0
 10
194.4918238487084
 20
14.02234176909958
 30
0.0
 10
194.5525017120699
 20
14.00749577363134
 30
0.0
 10
194.6162810745737
 20
14.01756448170735
 30
0.0
 10
194.7277314353503
 20
14.01294644211999
 30
0.0
 10
194.8497533443824
 20
14.01413328905469
 30
0.0
 10
194.9719538137824
 20
14.01515863900635
 30
0.0
 10
195.0829794287392
 20
14.01092475623402
 30
0.0
 10
195.1476517413959
 20
14.02018584521739
 30
0.0
 10
195.2091162810502
 20
14.00604423049682
 30
0.0
 10
195.1930065601337
 20
14.07235527884516
 30
0.0
 10
195.204298032736
 20
14.14447790121976
 30
0.0
 10
195.1987400822561
 20
14.27513760888286
 30
0.0
 10
195.2008035061691
 20
14.42607323708241
 30
0.0
 10
195.2000167127295
 20
14.59335873107886
 30
0.0
 10
195.2007845215628
 20
14.76061110332302
 30
0.0
 10
195.198803878563
 20
14.91163289269914
 30
0.0
 10
195.2041306156621
 20
15.04206069552994
 30
0.0
 10
195.1933101388426
 20
15.11465442605899
 30
0.0
 10
195.2090326429876
 20
15.18150469436798
 30
0.0
 10
195.1432708132491
 20
15.16580512490824
 30
0.0
 10
195.0756367830764
 20
15.17609243083996
 30
0.0
 10
194.961588529381
 20
15.17113786847121
 30
0.0
 10
194.8451242674903
 20
15.17414128030475
 30
0.0
 10
194.7306554121477
 20
15.16880303143389
 30
0.0
 10
194.6640324657812
 20
15.18001268074824
 30
0.0
 10
194.5990769715186
 20
15.16349132665011
 30
0.0
 10
194.6107989758707
 20
15.21473720477058
 30
0.0
 10
194.6032830189122
 20
15.25950333784091
 30
0.0
 10
194.6107989878834
 20
15.30426944897961
 30
0.0
 10
194.5990769505347
 20
15.35551536129741
 30
0.0
 10
194.6640326339199
 20
15.33899381766815
 30
0.0
 10
194.7306533339822
 20
15.35020571373943
 30
0.0
 10
194.8451352858064
 20
15.34485436710665
 30
0.0
 10
194.9615454436963
 20
15.34791188771117
 30
0.0
 10
195.0757660174641
 20
15.34278499010708
 30
0.0
 10
195.1430150439228
 20
15.35345733355599
 30
0.0
 10
195.2083325941439
 20
15.33742082669076
 30
0.0
 10
195.1941391448553
 20
15.39949685750053
 30
0.0
 10
195.2036059462996
 20
15.46586761628763
 30
0.0
 10
195.1990269004085
 20
15.58239972741966
 30
0.0
 10
195.2007696555949
 20
15.71426685022376
 30
0.0
 10
195.1997551495392
 20
15.85615960150273
 30
0.0
 10
195.2017191344372
 20
15.9876905070258
 30
0.0
 10
195.1964668553852
 20
16.10524577283002
 30
0.0
 10
195.2073408763475
 20
16.16947789001584
 30
0.0
 10
195.1919536641854
 20
16.23108802545047
 30
0.0
 10
195.2407591537801
 20
16.21702407382111
 30
0.0
 10
195.2853995564726
 20
16.21954742075314
 30
0.0
 10
195.3538643946741
 20
16.21512797401709
 30
0.0
 10
195.3959106169103
 20
16.20613025544035
 30
0.0
 10
195.4487544758775
 20
16.2141171486651
 30
0.0
 10
195.4207035002014
 20
16.17113917611677
 30
0.0
 10
195.3749142248595
 20
16.18259552043834
 30
0.0
 10
195.3869539073265
 20
16.12173520005136
 30
0.0
 10
195.3796086070643
 20
16.05769299468773
 30
0.0
 10
195.3831195826162
 20
15.94909368863911
 30
0.0
 10
195.3819806760175
 20
15.82494319144753
 30
0.0
 10
195.3819174780263
 20
15.69189719829878
 30
0.0
 10
195.3832872966868
 20
15.56797381249555
 30
0.0
 10
195.3791638801314
 20
15.45868337849339
 30
0.0
 10
195.3877763103565
 20
15.3960858009417
 30
0.0
 10
195.3746757454402
 20
15.33740133296365
 30
0.0
 10
195.4393884328199
 20
15.35362113810902
 30
0.0
 10
195.5060405953157
 20
15.34270260383311
 30
0.0
 10
195.6198779541103
 20
15.34793740173756
 30
0.0
 10
195.7357259122097
 20
15.34485547516913
 30
0.0
 10
195.8496924263281
 20
15.35018259812513
 30
0.0
 10
195.9160341018099
 20
15.33904208166542
 30
0.0
 10
195.9807188525481
 20
15.35546979593177
 30
0.0
 10
195.9689820772723
 20
15.3042592521005
 30
0.0
 10
195.9765168063042
 20
15.25950334121001
 30
0.0
 10
195.9689820992259
 20
15.21474739010027
 30
0.0
 10
195.9807188140737
 20
15.16353690871041
 30
0.0
 10
195.9160344075253
 20
15.1799642779422
 30
0.0
 10
195.8496886430826
 20
15.1688278444727
 30
0.0
 10
195.7357459487013
 20
15.1741311589312
 30
0.0
 10
195.6197995623055
 20
15.17114764593544
 30
0.0
 10
195.5062756882124
 20
15.17606892268393
 30
0.0
 10
195.4389231318805
 20
15.1658508751352
 30
0.0
 10
195.3734285122496
 20
15.18145996138816
 30
0.0
 10
195.3891713619218
 20
15.11463851827411
 30
0.0
 10
195.3783275998215
 20
15.04207057815878
 30
0.0
 10
195.3836581629792
 20
14.91162247614416
 30
0.0
 10
195.3817136151857
 20
14.76064558185226
 30
0.0
 10
195.3823133683214
 20
14.59322243934158
 30
0.0
 10
195.3821506559606
 20
14.42656176118371
 30
0.0
 10
195.3821895488135
 20
14.27360142921636
 30
0.0
 10
195.38218164131
 20
14.14849178985705
 30
0.0
 10
195.3821828382745
 20
14.0650789099142
 30
0.0
 10
195.3821827716209
 20
14.02491778281976
 30
0.0
 10
195.3821827564384
 20
14.01410517385757
 30
0.0
 11
195.3821827564384
 21
14.01410517385757
 31
0.0
 11
195.4100014883675
 21
14.01410517385757
 31
0.0
 11
195.4833417816353
 21
14.01410517385757
 31
0.0
 11
195.5870297824623
 21
14.01410517385757
 31
0.0
 11
195.7058916370687
 21
14.01410517385757
 31
0.0
 11
195.8247534916752
 21
14.01410517385757
 31
0.0
 11
195.928441492502
 21
14.01410517385757
 31
0.0
 11
196.0017817857699
 21
14.01410517385757
 31
0.0
 11
196.029600517699
 21
14.01410517385757
 31
0.0
 11
196.029600517699
 21
13.9865168492117
 31
0.0
 11
196.029600517699
 21
13.92582253499077
 31
0.0
 11
196.029600517699
 21
13.86512822076984
 31
0.0
 11
196.029600517699
 21
13.83753989612397
 31
0.0
 11
195.9994901593494
 21
13.83753989612397
 31
0.0
 11
195.9162438745004
 21
13.83753989612397
 31
0.0
 11
195.7904888484521
 21
13.83753989612397
 31
0.0
 11
195.6328522665042
 21
13.83753989612397
 31
0.0
 11
195.4539613139565
 21
13.83753989612397
 31
0.0
 11
195.2644431761089
 21
13.83753989612397
 31
0.0
 11
195.0749250382613
 21
13.83753989612397
 31
0.0
 11
194.8960340857137
 21
13.83753989612397
 31
0.0
 11
194.7383975037657
 21
13.83753989612397
 31
0.0
 11
194.6126424777173
 21
13.83753989612397
 31
0.0
 11
194.5293961928684
 21
13.83753989612397
 31
0.0
 11
194.4992858345188
 21
13.83753989612397
 31
0.0
 11
194.4992858345188
 21
13.86512822076984
 31
0.0
 11
194.4992858345188
 21
13.92582253499077
 31
0.0
 11
194.4992858345188
 21
13.9865168492117
 31
0.0
 11
194.4992858345188
 21
14.01410517385757
 31
0.0
 11
194.5294068064948
 21
14.01410517385757
 31
0.0
 11
194.6088166417041
 21
14.01410517385757
 31
0.0
 11
194.7210857190691
 21
14.01410517385757
 31
0.0
 11
194.8497844175118
 21
14.01410517385757
 31
0.0
 11
194.9784831159546
 21
14.01410517385757
 31
0.0
 11
195.0907521933196
 21
14.01410517385757
 31
0.0
 11
195.1701620285289
 21
14.01410517385757
 31
0.0
 11
195.2002830005049
 21
14.01410517385757
 31
0.0
 11
195.2002830005049
 21
14.04654305523835
 31
0.0
 11
195.2002830005049
 21
14.1345887332719
 31
0.0
 11
195.2002830005049
 21
14.26434025879503
 31
0.0
 11
195.2002830005049
 21
14.42189568264454
 31
0.0
 11
195.2002830005049
 21
14.59335305565724
 31
0.0
 11
195.2002830005049
 21
14.76481042866994
 31
0.0
 11
195.2002830005049
 21
14.92236585251944
 31
0.0
 11
195.2002830005049
 21
15.05211737804257
 31
0.0
 11
195.2002830005049
 21
15.14016305607612
 31
0.0
 11
195.2002830005049
 21
15.1726009374569
 31
0.0
 11
195.1673826485529
 21
15.1726009374569
 31
0.0
 11
195.0825343724663
 21
15.1726009374569
 31
0.0
 11
194.9665173418989
 21
15.1726009374569
 31
0.0
 11
194.8401107265045
 21
15.1726009374569
 31
0.0
 11
194.724093695937
 21
15.1726009374569
 31
0.0
 11
194.6392454198503
 21
15.1726009374569
 31
0.0
 11
194.6063450678984
 21
15.1726009374569
 31
0.0
 11
194.6063450678984
 21
15.19975793614802
 31
0.0
 11
194.6063450678984
 21
15.2595033332685
 31
0.0
 11
194.6063450678984
 21
15.31924873038898
 31
0.0
 11
194.6063450678984
 21
15.3464057290801
 31
0.0
 11
194.6392454198504
 21
15.3464057290801
 31
0.0
 11
194.724093695937
 21
15.3464057290801
 31
0.0
 11
194.8401107265045
 21
15.3464057290801
 31
0.0
 11
194.9665173418989
 21
15.3464057290801
 31
0.0
 11
195.0825343724663
 21
15.3464057290801
 31
0.0
 11
195.1673826485529
 21
15.3464057290801
 31
0.0
 11
195.2002830005049
 21
15.3464057290801
 31
0.0
 11
195.2002830005049
 21
15.3765001173137
 31
0.0
 11
195.2002830005049
 21
15.45715307777974
 31
0.0
 11
195.2002830005049
 21
15.57391930412609
 31
0.0
 11
195.2002830005049
 21
15.71235349000063
 31
0.0
 11
195.2002830005049
 21
15.85801032905124
 31
0.0
 11
195.2002830005049
 21
15.99644451492578
 31
0.0
 11
195.2002830005049
 21
16.11321074127214
 31
0.0
 11
195.2002830005049
 21
16.19386370173817
 31
0.0
 11
195.2002830005049
 21
16.22395808997177
 31
0.0
 11
195.2250405288619
 21
16.22228324219442
 31
0.0
 11
195.284077711867
 21
16.21828937441765
 31
0.0
 11
195.3545414464215
 21
16.21352249997441
 31
0.0
 11
195.4135786294265
 21
16.20952863219765
 31
0.0
 11
195.4383361577835
 21
16.20785378442029
 31
0.0
 11
195.423306722403
 21
16.1841581420651
 31
0.0
 11
195.3821827564384
 21
16.17047697887404
 31
0.0
 11
195.3821827564384
 21
16.14221664794832
 31
0.0
 11
195.3821827564384
 21
16.0664789610674
 31
0.0
 11
195.3821827564384
 21
15.95682887707561
 31
0.0
 11
195.3821827564384
 21
15.82683135481731
 31
0.0
 11
195.3821827564384
 21
15.69005135313683
 31
0.0
 11
195.3821827564384
 21
15.56005383087853
 31
0.0
 11
195.3821827564384
 21
15.45040374688674
 31
0.0
 11
195.3821827564384
 21
15.37466606000582
 31
0.0
 11
195.3821827564384
 21
15.3464057290801
 31
0.0
 11
195.4149350096116
 21
15.3464057290801
 31
0.0
 11
195.4994013467423
 21
15.3464057290801
 31
0.0
 11
195.6148961342477
 21
15.3464057290801
 31
0.0
 11
195.7407337385446
 21
15.3464057290801
 31
0.0
 11
195.8562285260499
 21
15.3464057290801
 31
0.0
 11
195.9406948631807
 21
15.3464057290801
 31
0.0
 11
195.9734471163539
 21
15.3464057290801
 31
0.0
 11
195.9734471163539
 21
15.31924873038898
 31
0.0
 11
195.9734471163539
 21
15.2595033332685
 31
0.0
 11
195.9734471163539
 21
15.19975793614802
 31
0.0
 11
195.9734471163539
 21
15.1726009374569
 31
0.0
 11
195.9406948631807
 21
15.1726009374569
 31
0.0
 11
195.85622852605
 21
15.1726009374569
 31
0.0
 11
195.7407337385446
 21
15.1726009374569
 31
0.0
 11
195.6148961342477
 21
15.1726009374569
 31
0.0
 11
195.4994013467423
 21
15.1726009374569
 31
0.0
 11
195.4149350096116
 21
15.1726009374569
 31
0.0
 11
195.3821827564384
 21
15.1726009374569
 31
0.0
 11
195.3821827564384
 21
15.14016305607612
 31
0.0
 11
195.3821827564384
 21
15.05211737804257
 31
0.0
 11
195.3821827564384
 21
14.92236585251945
 31
0.0
 11
195.3821827564384
 21
14.76481042866994
 31
0.0
 11
195.3821827564384
 21
14.59335305565724
 31
0.0
 11
195.3821827564384
 21
14.42189568264453
 31
0.0
 11
195.3821827564384
 21
14.26434025879503
 31
0.0
 11
195.3821827564384
 21
14.1345887332719
 31
0.0
 11
195.3821827564384
 21
14.04654305523835
 31
0.0
 11
195.3821827564384
 21
14.01410517385757
 31
0.0
  0
SPLINE
  5
AE
102
{ACAD_REACTORS
330
CB
102
}
330
48
100
AcDbEntity
  8
_U_30EC_U_30A4_U_30E4_U_30FC_1
  6
Continuous
 62
     2
100
AcDbSpline
210
0.0
220
0.0
230
1.0
 70
     8
 71
     3
 72
    62
 73
    58
 74
    56
 42
0.000000001
 43
0.0000000001
 44
0.00000001
 40
0.0
 40
0.0
 40
0.0
 40
0.0
 40
0.0598250028308485
 40
0.2024846486897331
 40
0.3727558389221031
 40
0.515415484793607
 40
0.5752404975785339
 40
0.9332326775487172
 40
1.290451762839485
 40
1.602077253145936
 40
1.699931634112227
 40
1.79935975642516
 40
2.270120149657199
 40
2.804661928461659
 40
2.882342287383372
 40
3.076543185719222
 40
3.329004354835682
 40
3.581465524568509
 40
3.775666424543793
 40
3.853346784558413
 40
3.899120679595159
 40
3.984129341792157
 40
4.029903236817505
 40
4.105797496059662
 40
4.295533144152623
 40
4.542189486611868
 40
4.78884582887582
 40
4.978581476410204
 40
5.054475735244448
 40
5.621734664339471
 40
6.130867242037417
 40
6.22524978094871
 40
6.318913039727399
 40
6.663579954559024
 40
7.047498900224872
 40
7.435230791575796
 40
7.498943906668208
 40
7.650875181210145
 40
7.832212509001627
 40
7.984143783697013
 40
8.04785689890314
 40
8.09155463273265
 40
8.172707566964316
 40
8.216405300768045
 40
8.289021782160901
 40
8.462184160757246
 40
8.668861838005355
 40
8.84202421526389
 40
8.914640695475086
 40
8.989881580861294
 40
9.1554115288272
 40
9.320941477743983
 40
9.396182352487235
 40
9.454709011143782
 40
9.583467660170717
 40
9.712226309012996
 40
9.77075295798945
 40
9.77075295798945
 40
9.77075295798945
 40
9.77075295798945
 10
187.1521871691833
 20
14.93980288195949
 30
0.0
 10
187.1322348171623
 20
14.93980875568671
 30
0.0
 10
187.0647037716466
 20
14.93982863806156
 30
0.0
 10
186.9410612161788
 20
14.93949362520325
 30
0.0
 10
186.7863180150056
 20
14.94107673750511
 30
0.0
 10
186.669734948248
 20
14.93686078860494
 30
0.0
 10
186.455094263424
 20
14.95215205331625
 30
0.0
 10
186.8518948407229
 20
14.59198721286191
 30
0.0
 10
186.8945656069267
 20
14.37510503397166
 30
0.0
 10
187.3189162146612
 20
14.19325062511442
 30
0.0
 10
187.1439821496074
 20
14.08985196568073
 30
0.0
 10
187.0194523925084
 20
13.87831523212725
 30
0.0
 10
186.7666277235943
 20
14.34806081001561
 30
0.0
 10
186.4797602893628
 20
14.99511516984522
 30
0.0
 10
186.4906335926659
 20
14.68782672154694
 30
0.0
 10
186.488289277796
 20
14.52288616971778
 30
0.0
 10
186.4861096126411
 20
14.28879670711693
 30
0.0
 10
186.4980774396346
 20
14.04498072421783
 30
0.0
 10
186.4687984740631
 20
13.89855796860984
 30
0.0
 10
186.511452262547
 20
13.75113490174538
 30
0.0
 10
186.4239814005639
 20
13.7668579730622
 30
0.0
 10
186.3768527606744
 20
13.76694303543455
 30
0.0
 10
186.2898973207713
 20
13.75109425482909
 30
0.0
 10
186.3313474021722
 20
13.89527771422762
 30
0.0
 10
186.3029875004286
 20
14.03855052698455
 30
0.0
 10
186.31459737753
 20
14.27674947365265
 30
0.0
 10
186.3124175648272
 20
14.50517235240347
 30
0.0
 10
186.3103111127993
 20
14.66705729375996
 30
0.0
 10
186.3208035438323
 20
14.98153709333753
 30
0.0
 10
186.0128963252892
 20
14.29229470872436
 30
0.0
 10
185.7055258267458
 20
13.81476750243064
 30
0.0
 10
185.5851367066274
 20
14.03741112637425
 30
0.0
 10
185.4074607910722
 20
14.15011034955567
 30
0.0
 10
185.8853326362894
 20
14.3254814346546
 30
0.0
 10
185.9353959057208
 20
14.56091929252031
 30
0.0
 10
186.3583799621717
 20
14.95322989344606
 30
0.0
 10
186.127675427354
 20
14.93655307029065
 30
0.0
 10
186.0049685859341
 20
14.94269518948769
 30
0.0
 10
185.8325483095662
 20
14.93312822699574
 30
0.0
 10
185.721322469445
 20
14.95448818489665
 30
0.0
 10
185.6025779627449
 20
14.92136265357419
 30
0.0
 10
185.6183169706686
 20
15.00203900606883
 30
0.0
 10
185.6178550933764
 20
15.04645414290854
 30
0.0
 10
185.6027881889932
 20
15.12967081778533
 30
0.0
 10
185.7372380935444
 20
15.09062651983884
 30
0.0
 10
185.8619755545747
 20
15.11739729328423
 30
0.0
 10
186.062875523728
 20
15.10063949044053
 30
0.0
 10
186.1921540949353
 20
15.12204225913005
 30
0.0
 10
186.3328419928294
 20
15.08868778853421
 30
0.0
 10
186.2980927452615
 20
15.22651875785069
 30
0.0
 10
186.3222185666713
 20
15.34963257349482
 30
0.0
 10
186.2967086182392
 20
15.47024055670336
 30
0.0
 10
186.3333251146685
 20
15.60539865141496
 30
0.0
 10
186.2211417027769
 20
15.58094545781892
 30
0.0
 10
186.1280356457136
 20
15.59307749842024
 30
0.0
 10
186.0191547579819
 20
15.58957630069994
 30
0.0
 10
185.9569697640964
 20
15.58981755951604
 30
0.0
 10
185.9375369557246
 20
15.58989295124145
 30
0.0
 11
187.1521871691833
 21
14.93980288195949
 31
0.0
 11
187.0923621563982
 21
14.93980288195949
 31
0.0
 11
186.949702510526
 21
14.93980288195949
 31
0.0
 11
186.7794313202913
 21
14.93980288195949
 31
0.0
 11
186.6367716744191
 21
14.93980288195949
 31
0.0
 11
186.576946661634
 21
14.93980288195949
 31
0.0
 11
186.7679960754842
 21
14.63705127966891
 31
0.0
 11
186.994127278563
 21
14.36051890576684
 31
0.0
 11
187.2244526173372
 21
14.15061253493456
 31
0.0
 11
187.1521596330704
 21
14.08466403668716
 31
0.0
 11
187.0879364402643
 21
14.0087605905256
 31
0.0
 11
186.7732818215558
 21
14.35891458349363
 31
0.0
 11
186.4886640249976
 21
14.81138295143601
 31
0.0
 11
186.4886640249976
 21
14.73370259137313
 31
0.0
 11
186.4886640249976
 21
14.53950169121593
 31
0.0
 11
186.4886640249976
 21
14.28704052101157
 31
0.0
 11
186.4886640249976
 21
14.0345793508072
 31
0.0
 11
186.4886640249976
 21
13.84037845065
 31
0.0
 11
186.4886640249976
 21
13.76269809058712
 31
0.0
 11
186.4428901295605
 21
13.76269809058712
 31
0.0
 11
186.3578814666058
 21
13.76269809058712
 31
0.0
 11
186.3121075711687
 21
13.76269809058712
 31
0.0
 11
186.3121075711687
 21
13.8385923498274
 31
0.0
 11
186.3121075711687
 21
14.02832799792812
 31
0.0
 11
186.3121075711687
 21
14.27498434045904
 31
0.0
 11
186.3121075711687
 21
14.52164068298997
 31
0.0
 11
186.3121075711687
 21
14.71137633109067
 31
0.0
 11
186.3121075711687
 21
14.78727059033096
 31
0.0
 11
185.9987626399266
 21
14.31440946197694
 31
0.0
 11
185.6352328662149
 21
13.95795177109383
 31
0.0
 11
185.5773927461627
 21
14.03253450545023
 31
0.0
 11
185.5094852305341
 21
14.09704322939242
 31
0.0
 11
185.7750721898319
 21
14.3167221979589
 31
0.0
 11
186.0233764972061
 21
14.60953395971697
 31
0.0
 11
186.226498280526
 21
14.93980288195949
 31
0.0
 11
186.1627851652721
 21
14.93980288195949
 31
0.0
 11
186.0108538904359
 21
14.93980288195949
 31
0.0
 11
185.8295165624056
 21
14.93980288195949
 31
0.0
 11
185.6775852875694
 21
14.93980288195949
 31
0.0
 11
185.6138721723155
 21
14.93980288195949
 31
0.0
 11
185.6138721723155
 21
14.98350061600208
 31
0.0
 11
185.6138721723155
 21
15.06465355065259
 31
0.0
 11
185.6138721723155
 21
15.10835128469518
 31
0.0
 11
185.6864886537962
 21
15.10835128469518
 31
0.0
 11
185.8596510327118
 21
15.10835128469518
 31
0.0
 11
186.0663287107724
 21
15.10835128469518
 31
0.0
 11
186.239491089688
 21
15.10835128469518
 31
0.0
 11
186.3121075711687
 21
15.10835128469518
 31
0.0
 11
186.3121075711687
 21
15.18359217009304
 31
0.0
 11
186.3121075711687
 21
15.34912211796832
 31
0.0
 11
186.3121075711687
 21
15.5146520658436
 31
0.0
 11
186.3121075711687
 21
15.58989295124145
 31
0.0
 11
186.2535809125055
 21
15.58989295124145
 31
0.0
 11
186.1248222634467
 21
15.58989295124145
 31
0.0
 11
185.9960636143877
 21
15.58989295124145
 31
0.0
 11
185.9375369557246
 21
15.58989295124145
 31
0.0
  0
SPLINE
  5
AF
102
{ACAD_REACTORS
330
CB
102
}
330
48
100
AcDbEntity
  8
_U_30EC_U_30A4_U_30E4_U_30FC_1
  6
Continuous
 62
     2
100
AcDbSpline
210
0.0
220
0.0
230
1.0
 70
     8
 71
     3
 72
    70
 73
    66
 74
    64
 42
0.000000001
 43
0.0000000001
 44
0.00000001
 40
0.0
 40
0.0
 40
0.0
 40
0.0
 40
0.0241731073021472
 40
0.0846058988987013
 40
0.1631685280353284
 40
0.2417311571789756
 40
0.3021639488292751
 40
0.3263370654895541
 40
0.3533118254248881
 40
0.4228783438922076
 40
0.5179999095313313
 40
0.621639823946596
 40
0.7167613891499528
 40
0.7863279069649686
 40
0.8133026791761623
 40
0.837294399877146
 40
0.8945054261372656
 40
0.9627895541962423
 40
1.020000580349053
 40
1.043992300975151
 40
1.071934345522854
 40
1.113121768772895
 40
1.145225199332219
 40
1.225483775412751
 40
1.329819923771457
 40
1.434156071994347
 40
1.514414647795763
 40
1.546518078208371
 40
1.578974764260145
 40
1.66267884931414
 40
1.777131373668388
 40
1.901833377474808
 40
2.016285900500626
 40
2.099989982527993
 40
2.132446666570352
 40
2.158782354486076
 40
2.216720867907864
 40
2.274659381334289
 40
2.300995069256222
 40
2.333451754066194
 40
2.417155836543903
 40
2.531608358985342
 40
2.656310362283866
 40
2.770762886388998
 40
2.854466971340192
 40
2.886923657363998
 40
2.913597976833432
 40
2.982389642875234
 40
3.0764517169471
 40
3.178937260458713
 40
3.272999334740118
 40
3.341791001059341
 40
3.368465320663653
 40
3.396976080738875
 40
3.472140811846111
 40
3.5784081903088
 40
3.700226892456237
 40
3.822045594634454
 40
3.928312973256561
 40
4.003477705314958
 40
4.031988456867023
 40
4.058324144797823
 40
4.116262658236992
 40
4.174201171400798
 40
4.200536849608734
 40
4.200536849608734
 40
4.200536849608734
 40
4.200536849608734
 10
185.9857704961609
 20
15.75844135397706
 30
0.0
 10
185.9938259544679
 20
15.75844359811687
 30
0.0
 10
186.0220200663241
 20
15.75845146032799
 30
0.0
 10
186.0765534803672
 20
15.75830754828372
 30
0.0
 10
186.1482891808604
 20
15.75909120499899
 30
0.0
 10
186.2236240137062
 20
15.75627570463812
 30
0.0
 10
186.2713052366439
 20
15.76298403400958
 30
0.0
 10
186.3195071245616
 20
15.75197563692433
 30
0.0
 10
186.3062571799873
 20
15.80546402997034
 30
0.0
 10
186.3151093964538
 20
15.86049583543092
 30
0.0
 10
186.3108698036285
 20
15.95419908726109
 30
0.0
 10
186.313348348128
 20
16.04959482218532
 30
0.0
 10
186.3090938706059
 20
16.14356821983386
 30
0.0
 10
186.3179818665847
 20
16.19795062438011
 30
0.0
 10
186.3046977409945
 20
16.25233997691459
 30
0.0
 10
186.3514119277109
 20
16.23842216335357
 30
0.0
 10
186.3943254545736
 20
16.24103877374042
 30
0.0
 10
186.4605443456685
 20
16.23648422450754
 30
0.0
 10
186.5013342271798
 20
16.2277816213416
 30
0.0
 10
186.5525145690818
 20
16.23531799890194
 30
0.0
 10
186.52537204872
 20
16.19349970223284
 30
0.0
 10
186.4803096055706
 20
16.20284992072597
 30
0.0
 10
186.4942065045051
 20
16.13841207371838
 30
0.0
 10
186.4858414431653
 20
16.07378219627399
 30
0.0
 10
186.4903632178398
 20
15.97529141193888
 30
0.0
 10
186.4854741311167
 20
15.87595932842571
 30
0.0
 10
186.4950258992082
 20
15.81293115552969
 30
0.0
 10
186.47997614552
 20
15.7496401149979
 30
0.0
 10
186.5449159457208
 20
15.7651507294427
 30
0.0
 10
186.6116246399497
 20
15.75499387697813
 30
0.0
 10
186.7241435470827
 20
15.75988800099368
 30
0.0
 10
186.8390235448954
 20
15.75691204732784
 30
0.0
 10
186.9519871999747
 20
15.76221664184992
 30
0.0
 10
187.0176267597679
 20
15.7510730647209
 30
0.0
 10
187.0816276691054
 20
15.76744532319858
 30
0.0
 10
187.070314288919
 20
15.71761689905276
 30
0.0
 10
187.077533987151
 20
15.67416715212124
 30
0.0
 10
187.070314261127
 20
15.63071745587446
 30
0.0
 10
187.0816277175995
 20
15.58088895196877
 30
0.0
 10
187.0176263598972
 20
15.59726166091363
 30
0.0
 10
186.951992124046
 20
15.58611271661589
 30
0.0
 10
186.8389974317332
 20
15.59144857206855
 30
0.0
 10
186.7242456548643
 20
15.58834345663822
 30
0.0
 10
186.6113183686861
 20
15.5936489468259
 30
0.0
 10
186.5455220903584
 20
15.58257300019593
 30
0.0
 10
186.4816097975358
 20
15.59887597847619
 30
0.0
 10
186.4936015165125
 20
15.54423524395742
 30
0.0
 10
186.4862104613006
 20
15.48854295047843
 30
0.0
 10
186.4892684841983
 20
15.39649689140571
 30
0.0
 10
186.4893422785683
 20
15.30179109873102
 30
0.0
 10
186.486031357836
 20
15.20952782902266
 30
0.0
 10
186.4939505989904
 20
15.15435768736141
 30
0.0
 10
186.4815076611617
 20
15.10058169100137
 30
0.0
 10
186.5389116551631
 20
15.11453768862782
 30
0.0
 10
186.5994708140383
 20
15.10511457884227
 30
0.0
 10
186.7048680855081
 20
15.10942885928705
 30
0.0
 10
186.8204294070622
 20
15.10835504612032
 30
0.0
 10
186.9359688877797
 20
15.10725965900995
 30
0.0
 10
187.0414181130841
 20
15.11162525770633
 30
0.0
 10
187.1018680471805
 20
15.10209426030672
 30
0.0
 10
187.1592837739109
 20
15.1161728960638
 30
0.0
 10
187.1477773876709
 20
15.06707153265683
 30
0.0
 10
187.1537566781749
 20
15.02564658018649
 30
0.0
 10
187.1520311050801
 20
14.97651677966695
 30
0.0
 10
187.1521500122971
 20
14.94854428447607
 30
0.0
 10
187.1521871691833
 20
14.93980288195949
 30
0.0
 11
185.9857704961609
 21
15.75844135397706
 31
0.0
 11
186.0099436128282
 21
15.75844135397706
 31
0.0
 11
186.0703764044962
 21
15.75844135397706
 31
0.0
 11
186.1489390336648
 21
15.75844135397706
 31
0.0
 11
186.2275016628334
 21
15.75844135397706
 31
0.0
 11
186.2879344545015
 21
15.75844135397706
 31
0.0
 11
186.3121075711687
 21
15.75844135397706
 31
0.0
 11
186.3121075711687
 21
15.78541612620064
 31
0.0
 11
186.3121075711687
 21
15.85498264404039
 31
0.0
 11
186.3121075711687
 21
15.95010420924985
 31
0.0
 11
186.3121075711687
 21
16.05374412358255
 31
0.0
 11
186.3121075711687
 21
16.14886568879201
 31
0.0
 11
186.3121075711687
 21
16.21843220663177
 31
0.0
 11
186.3121075711687
 21
16.24540697885535
 31
0.0
 11
186.3360407604892
 21
16.24373213107799
 31
0.0
 11
186.3931122119458
 21
16.2397382633012
 31
0.0
 11
186.461229750781
 21
16.23497138885795
 31
0.0
 11
186.5183012022376
 21
16.23097752108116
 31
0.0
 11
186.5422343915581
 21
16.2293026733038
 31
0.0
 11
186.527497273123
 21
16.20556293372641
 31
0.0
 11
186.4886640249976
 21
16.19183767331312
 31
0.0
 11
186.4886640249976
 21
16.15973424225119
 31
0.0
 11
186.4886640249976
 21
16.07947566459637
 31
0.0
 11
186.4886640249976
 21
15.97513951364509
 31
0.0
 11
186.4886640249976
 21
15.87080336269381
 31
0.0
 11
186.4886640249976
 21
15.79054478503899
 31
0.0
 11
186.4886640249976
 21
15.75844135397706
 31
0.0
 11
186.5211207110824
 21
15.75844135397706
 31
0.0
 11
186.6048247962486
 21
15.75844135397706
 31
0.0
 11
186.7192773208635
 21
15.75844135397706
 31
0.0
 11
186.8439793252946
 21
15.75844135397706
 31
0.0
 11
186.9584318499095
 21
15.75844135397706
 31
0.0
 11
187.0421359350757
 21
15.75844135397706
 31
0.0
 11
187.0745926211605
 21
15.75844135397706
 31
0.0
 11
187.0745926211605
 21
15.73210566604962
 31
0.0
 11
187.0745926211605
 21
15.67416715260926
 31
0.0
 11
187.0745926211605
 21
15.61622863916889
 31
0.0
 11
187.0745926211605
 21
15.58989295124145
 31
0.0
 11
187.0421359350757
 21
15.58989295124145
 31
0.0
 11
186.9584318499095
 21
15.58989295124145
 31
0.0
 11
186.8439793252946
 21
15.58989295124145
 31
0.0
 11
186.7192773208635
 21
15.58989295124145
 31
0.0
 11
186.6048247962486
 21
15.58989295124145
 31
0.0
 11
186.5211207110824
 21
15.58989295124145
 31
0.0
 11
186.4886640249976
 21
15.58989295124145
 31
0.0
 11
186.4886640249976
 21
15.56321863152023
 31
0.0
 11
186.4886640249976
 21
15.49442696487076
 31
0.0
 11
186.4886640249976
 21
15.40036489006435
 31
0.0
 11
186.4886640249976
 21
15.29787934587229
 31
0.0
 11
186.4886640249976
 21
15.20381727106587
 31
0.0
 11
186.4886640249976
 21
15.1350256044164
 31
0.0
 11
186.4886640249976
 21
15.10835128469518
 31
0.0
 11
186.5171747850993
 21
15.10835128469518
 31
0.0
 11
186.5923395162766
 21
15.10835128469518
 31
0.0
 11
186.6986068948376
 21
15.10835128469518
 31
0.0
 11
186.8204255970904
 21
15.10835128469518
 31
0.0
 11
186.9422442993433
 21
15.10835128469518
 31
0.0
 11
187.0485116779043
 21
15.10835128469518
 31
0.0
 11
187.1236764090816
 21
15.10835128469518
 31
0.0
 11
187.1521871691833
 21
15.10835128469518
 31
0.0
 11
187.1521871691833
 21
15.08201559676773
 31
0.0
 11
187.1521871691833
 21
15.02407708332734
 31
0.0
 11
187.1521871691833
 21
14.96613856988694
 31
0.0
 11
187.1521871691833
 21
14.93980288195949
 31
0.0
  0
SPLINE
  5
B0
102
{ACAD_REACTORS
330
CB
102
}
330
48
100
AcDbEntity
  8
_U_30EC_U_30A4_U_30E4_U_30FC_1
  6
Continuous
 62
     2
100
AcDbSpline
210
0.0
220
0.0
230
1.0
 70
     8
 71
     3
 72
    24
 73
    20
 74
    18
 42
0.000000001
 43
0.0000000001
 44
0.00000001
 40
0.0
 40
0.0
 40
0.0
 40
0.0
 40
0.2211075008753642
 40
0.4273218586245305
 40
0.5080174679239067
 40
0.5914835907869425
 40
0.8143265690191785
 40
1.054651302686482
 40
1.295452694023077
 40
1.518109231328738
 40
1.540864321905326
 40
1.595126460622587
 40
1.6598909478959
 40
1.714153085187203
 40
1.736908174961503
 40
1.764951100735159
 40
1.80156229122072
 40
1.953914424543401
 40
2.126104167379485
 40
2.126104167379485
 40
2.126104167379485
 40
2.126104167379485
 10
185.9375369556889
 20
15.58989295113015
 30
0.0
 10
185.9112579081812
 20
15.53097628234373
 30
0.0
 10
185.8604698894426
 20
15.41711139679254
 30
0.0
 10
185.8131784839112
 20
15.14441958233116
 30
0.0
 10
185.7043482802618
 20
15.24445482575453
 30
0.0
 10
185.5514800279638
 20
15.27118593367334
 30
0.0
 10
185.76861551812
 20
15.48518135017631
 30
0.0
 10
185.7838483674381
 20
15.70332117782488
 30
0.0
 10
185.8906889492001
 20
15.88451579066424
 30
0.0
 10
185.8305380947078
 20
16.16913226311403
 30
0.0
 10
185.9334317395402
 20
16.1411408922245
 30
0.0
 10
185.977993346815
 20
16.13243251602299
 30
0.0
 10
186.0380842395397
 20
16.12139654183356
 30
0.0
 10
186.0756619587439
 20
16.10767523055559
 30
0.0
 10
186.1252466928606
 20
16.10756076160224
 30
0.0
 10
186.0930158919326
 20
16.07306592398622
 30
0.0
 10
186.0171802221882
 20
16.08404104537965
 30
0.0
 10
186.0429447159694
 20
15.89858969582449
 30
0.0
 10
186.005589676385
 20
15.80702313549589
 30
0.0
 10
185.9857704961609
 20
15.75844135397706
 30
0.0
 11
185.9375369556889
 21
15.58989295113015
 31
0.0
 11
185.8616471328552
 21
15.38221708318559
 31
0.0
 11
185.7717402238433
 21
15.19663392356192
 31
0.0
 11
185.701149392311
 21
15.23573272563551
 31
0.0
 11
185.6245525192652
 21
15.26889163187719
 31
0.0
 11
185.7214026947456
 21
15.46958801203538
 31
0.0
 11
185.7994641467471
 21
15.69688163177024
 31
0.0
 11
185.8589716929721
 21
15.93021436608691
 31
0.0
 11
185.9001601511227
 21
16.14902808999054
 31
0.0
 11
185.9224183822215
 21
16.14429889221395
 31
0.0
 11
185.975495702534
 21
16.13302157443899
 31
0.0
 11
186.0388460525845
 21
16.11956154999792
 31
0.0
 11
186.091923372897
 21
16.10828423222296
 31
0.0
 11
186.1141816039958
 21
16.10355503444637
 31
0.0
 11
186.0964097157461
 21
16.08186250841009
 31
0.0
 11
186.0606122998072
 21
16.07418628445367
 31
0.0
 11
186.028195330148
 21
15.92532288171314
 31
0.0
 11
185.9857704961609
 21
15.75844135397706
 31
0.0
  0
LWPOLYLINE
  5
B1
102
{ACAD_REACTORS
330
CC
102
}
330
48
100
AcDbEntity
  8
_U_30EC_U_30A4_U_30E4_U_30FC_1
  6
Continuous
 62
     2
100
AcDbPolyline
 90
        5
 70
     1
 43
0.0
 10
191.1602971697032
 20
15.39722336795624
 10
192.4578138032672
 20
15.39722336795624
 10
192.4578138032672
 20
15.22875434022058
 10
191.1602971697032
 20
15.22875434022058
 10
191.1602971697032
 20
15.39722336795624
  0
MTEXT
  5
B3
330
48
100
AcDbEntity
  8
1
 62
   250
100
AcDbMText
 10
25.0
 20
5.0
 30
0.0
 40
3.5
 41
0.0
 71
     4
 72
     1
  1
備考欄の文字列 原点位置=4
  7
CONVERTER_11
 73
     1
 44
0.54545454545455
  0
MTEXT
  5
B4
330
48
100
AcDbEntity
  8
1
 62
     2
100
AcDbMText
 10
89.5
 20
24.00000000000002
 30
0.0
 40
3.5
 41
0.0
 71
     5
 72
     1
  1
尺度
  7
CONVERTER_11
 73
     1
 44
0.54545454545455
  0
MTEXT
  5
B5
330
48
100
AcDbEntity
  8
1
 62
     2
100
AcDbMText
 10
135.5
 20
25.00000000000002
 30
0.0
 40
3.0
 41
0.0
 71
     5
 72
     1
  1
製図
  7
CONVERTER_11
 73
     1
 44
0.59090909090909
  0
MTEXT
  5
B6
330
48
100
AcDbEntity
  8
1
 62
     2
100
AcDbMText
 10
152.5
 20
25.00000000000002
 30
0.0
 40
3.0
 41
0.0
 71
     5
 72
     1
  1
設計
  7
CONVERTER_11
 73
     1
 44
0.59090909090909
  0
MTEXT
  5
B7
330
48
100
AcDbEntity
  8
1
 62
     2
100
AcDbMText
 10
118.5
 20
25.00000000000002
 30
0.0
 40
3.0
 41
0.0
 71
     5
 72
     1
  1
検図
  7
CONVERTER_11
 73
     1
 44
0.59090909090909
  0
MTEXT
  5
B8
330
48
100
AcDbEntity
  8
1
 62
     2
100
AcDbMText
 10
175.0
 20
23.50000000000002
 30
0.0
 40
3.5
 41
0.0
 71
     5
 72
     1
  1
第三角法
  7
CONVERTER_11
 73
     1
 44
0.54545454545455
  0
MTEXT
  5
B9
330
48
100
AcDbEntity
  8
1
 62
     2
100
AcDbMText
 10
101.5
 20
25.00000000000002
 30
0.0
 40
3.0
 41
0.0
 71
     5
 72
     1
  1
承認
  7
CONVERTER_11
 73
     1
 44
0.59090909090909
  0
MTEXT
  5
BA
330
48
100
AcDbEntity
  8
1
 62
     2
100
AcDbMText
 10
29.0
 20
14.25
 30
0.0
 40
3.5
 41
0.0
 71
     5
 72
     1
  1
品番
  7
CONVERTER_11
 73
     1
 44
0.72727272727273
  0
MTEXT
  5
BB
330
48
100
AcDbEntity
  8
1
 62
     2
100
AcDbMText
 10
29.0
 20
22.74999999999999
 30
0.0
 40
3.5
 41
0.0
 71
     5
 72
     1
  1
品名
  7
CONVERTER_11
 73
     1
 44
0.72727272727273
  0
MTEXT
  5
BC
330
48
100
AcDbEntity
  8
1
 62
     2
100
AcDbMText
 10
29.0
 20
34.00000000000002
 30
0.0
 40
3.5
 41
0.0
 71
     5
 72
     1
  1
備考
  7
CONVERTER_11
 73
     1
 44
0.45454545454545
  0
MTEXT
  5
BD
330
48
100
AcDbEntity
  8
1
 62
     2
100
AcDbMText
 10
32.5
 20
282.0000000000003
 30
0.0
 40
5.0
 41
0.0
 71
     5
 72
     1
  1
図番
  7
CONVERTER_11
 73
     1
 44
0.45454545454545
  0
HATCH
  5
BE
330
48
100
AcDbEntity
  8
1
  6
Continuous
 62
     2
100
AcDbHatch
 10
0.0
 20
0.0
 30
0.0
210
0.0
220
0.0
230
1.0
  2
CUSTOM0
 70
     0
 71
     1
 91
        1
 92
        1
 93
        1
 72
     4
 94
        3
 73
     0
 74
     0
 95
       99
 96
       95
 40
0.0
 40
0.0
 40
0.0
 40
0.0
 40
0.0796417172272903
 40
0.1621768542355975
 40
0.2486489160957629
 40
0.3404969668524587
 40
0.438191251116516
 40
0.5434463660244895
 40
0.6518115192847216
 40
0.753019093788763
 40
0.8492196919725626
 40
0.9419290312998804
 40
1.034249663570092
 40
1.129078600620231
 40
1.226697027573271
 40
1.327220425421728
 40
1.470572134938042
 40
1.595489863371234
 40
1.719934125348423
 40
1.850576620127444
 40
1.989059629987328
 40
2.134139054226948
 40
2.280698007207237
 40
2.424529739039504
 40
2.565929576985826
 40
2.708239260773557
 40
2.861717887443668
 40
3.045168540347361
 40
3.183798301138607
 40
3.314813961455433
 40
3.442083470447286
 40
3.56991270837294
 40
3.702177512509337
 40
3.842307559659507
 40
3.992872223245911
 40
4.1567506622183
 40
4.310981861107522
 40
4.445859909322568
 40
4.572393936131591
 40
4.70165671978196
 40
4.768279086008423
 40
4.835960697898377
 40
4.91278891872931
 40
5.006285208481509
 40
5.026909478751586
 40
5.04753374902115
 40
5.101808031471221
 40
5.162325165538511
 40
5.226919745995823
 40
5.294231806596695
 40
5.364544852554823
 40
5.438319055467818
 40
5.517877651324234
 40
5.607647714861546
 40
5.700449642544394
 40
5.788251142364124
 40
5.872714706039756
 40
5.955167292575264
 40
6.037192395190361
 40
6.120669181469093
 40
6.206848616686329
 40
6.296680855416755
 40
6.442558392872575
 40
6.568190371608272
 40
6.692904567360391
 40
6.824220446557185
 40
6.963121850329371
 40
7.107843738851135
 40
7.253431663907247
 40
7.395187468036669
 40
7.533140753237725
 40
7.670550457175269
 40
7.816236511769274
 40
7.987691657359232
 40
8.142277421969274
 40
8.293662615415009
 40
8.442962460879313
 40
8.591598316185351
 40
8.74367899236183
 40
8.903725323699142
 40
9.076307008890542
 40
9.26557860468054
 40
9.459203795360771
 40
9.617619810273581
 40
9.753609671361945
 40
9.874873300004118
 40
9.954520184977822
 40
10.02416413719251
 40
10.09769764405451
 40
10.18909955924977
 40
10.20974586420139
 40
10.23039218263384
 40
10.3005710188127
 40
10.3763201298755
 40
10.3763201298755
 40
10.3763201298755
 40
10.3763201298755
 10
170.1465954835851
 20
14.13795663215994
 10
170.1632217851219
 20
14.11720608845313
 10
170.1970784206578
 20
14.07495111711905
 10
170.2599822541035
 20
14.02029811392069
 10
170.3332500940393
 20
13.9729902512105
 10
170.4175969238635
 20
13.93527231437933
 10
170.513224061546
 20
13.91040619731953
 10
170.6171853775346
 20
13.90309559345936
 10
170.7224020220406
 20
13.91142322794055
 10
170.8206626371334
 20
13.94149179651527
 10
170.9058986427549
 20
13.98848822971878
 10
170.9779220206104
 20
14.04952991250855
 10
171.0350917709096
 20
14.12412969578583
 10
171.0767868747439
 20
14.21002464660176
 10
171.1026952846292
 20
14.30485850432211
 10
171.1118037332654
 20
14.41854979038368
 10
171.0986864796486
 20
14.54332587770778
 10
171.0325330334414
 20
14.66014719171892
 10
170.9369370919568
 20
14.74512539577373
 10
170.8249681022369
 20
14.81416684459163
 10
170.6993659583269
 20
14.87204142045889
 10
170.5656691620856
 20
14.9237372328434
 10
170.431312281883
 20
14.97899092397182
 10
170.3051983986877
 20
15.04939770641647
 10
170.1926579987536
 20
15.13785540731253
 10
170.0969963064457
 20
15.2498106786847
 10
170.0334157151827
 20
15.39949910101384
 10
170.0200706505016
 20
15.55932794385142
 10
170.0320510987449
 20
15.71048405306843
 10
170.071229892884
 20
15.83809244591541
 10
170.1354987750911
 20
15.95080874030845
 10
170.223820499974
 20
16.04648609268687
 10
170.3338091207627
 20
16.12354214985752
 10
170.4632284401265
 20
16.18151396936278
 10
170.6111838967793
 20
16.21739177588822
 10
170.7682069455487
 20
16.22746719050566
 10
170.917494046643
 20
16.2186363776259
 10
171.0596253614169
 20
16.19074899340352
 10
171.1595922609625
 20
16.13413314701138
 10
171.3125074736184
 20
16.08674602105508
 10
171.2455131717169
 20
16.00197553001182
 10
171.2296479120268
 20
15.93438901873486
 10
171.1978750531297
 20
15.8692609279319
 10
171.215020220957
 20
15.76723453256953
 10
171.1666427208232
 20
15.77493211681903
 10
171.1315789440766
 20
15.76806771724808
 10
171.1296697985718
 20
15.83263831158196
 10
171.0985692931989
 20
15.87825639621396
 10
171.0664551628455
 20
15.93561036628455
 10
171.0208038475168
 20
15.98540462692558
 10
170.9658508218387
 20
16.02994813718994
 10
170.9010841173008
 20
16.06763988836553
 10
170.8232377310597
 20
16.0928337579135
 10
170.7355160553352
 20
16.09931230998112
 10
170.6452903277806
 20
16.09235709285606
 10
170.5594594694064
 20
16.06909190460921
 10
170.4828343638596
 20
16.03131644107544
 10
170.4165265636201
 20
15.98051641089575
 10
170.3622560536963
 20
15.9173114340721
 10
170.3224925345459
 20
15.84276455710367
 10
170.2976775510588
 20
15.75917313997763
 10
170.289212426287
 20
15.65192948382285
 10
170.3019697987103
 20
15.52965457267559
 10
170.3681548409273
 20
15.41149724291209
 10
170.4640977399833
 20
15.32606325709528
 10
170.5757914963182
 20
15.25583362306725
 10
170.7010863668703
 20
15.19659162305304
 10
170.8349823941447
 20
15.1461670808613
 10
170.968993033315
 20
15.09322516984382
 10
171.0950885316914
 20
15.02750170625175
 10
171.2076216638417
 20
14.94480352537319
 10
171.3031370284234
 20
14.83996006310078
 10
171.3672706486962
 20
14.69937117251568
 10
171.3811103725279
 20
14.54065409451592
 10
171.3673954712229
 20
14.38153155217876
 10
171.3244739153986
 20
14.23483828819206
 10
171.2545906329065
 20
14.10119796587143
 10
171.157459221383
 20
13.98532387699292
 10
171.0347806023656
 20
13.8908998177009
 10
170.8874408413168
 20
13.82179270651976
 10
170.7177132497125
 20
13.77953210858855
 10
170.5317404979597
 20
13.76781736230406
 10
170.3528955926184
 20
13.77809486683438
 10
170.1881733753743
 20
13.81966573769151
 10
170.0834410841057
 20
13.88797642883941
 10
169.9350960790365
 20
13.93675219032106
 10
169.9980378194729
 20
14.02976591290843
 10
170.0072274430061
 20
14.10296536248279
 10
170.0303711301233
 20
14.16936294501345
 10
170.0034588335316
 20
14.2697480952758
 10
170.0521338956339
 20
14.26234033517378
 10
170.0916530580697
 20
14.26894063620895
 10
170.0996204944702
 20
14.19078703218931
 10
170.1305436967922
 20
14.15600927375856
 10
170.1465954835851
 20
14.13795663215994
 97
        1
330
A0
 75
     1
 76
     2
 52
45.0
 41
0.1
 77
     0
 78
     1
 53
45.0
 43
0.0
 44
0.0
 45
-0.282842712474619
 46
0.0
 79
     0
 98
        1
 10
0.0
 20
0.0
  0
HATCH
  5
BF
330
48
100
AcDbEntity
  8
1
  6
Continuous
 62
     2
100
AcDbHatch
 10
0.0
 20
0.0
 30
0.0
210
0.0
220
0.0
230
1.0
  2
CUSTOM1
 70
     0
 71
     1
 91
        2
 92
        1
 93
        1
 72
     4
 94
        3
 73
     0
 74
     0
 95
       57
 96
       53
 40
0.0
 40
0.0
 40
0.0
 40
0.0
 40
0.0471632082810086
 40
0.0914861054633007
 40
0.1357762519703243
 40
0.1826527001611537
 40
0.2295203288573446
 40
0.2737751972221616
 40
0.3181310461543928
 40
0.3652607198398525
 40
0.4571007286314639
 40
0.5671851029165579
 40
0.6894623283868666
 40
0.8181758272545937
 40
0.9510087229274233
 40
1.085852229674063
 40
1.218126164475326
 40
1.343545131142381
 40
1.454537202956882
 40
1.567187607530891
 40
1.68071096664251
 40
1.794226869736874
 40
1.900009184247674
 40
2.004085860447953
 40
2.108162674451841
 40
2.214000150155301
 40
2.496038577352169
 40
2.762350745479308
 40
2.997275353279419
 40
3.18511008213776
 40
3.246407890063988
 40
3.312607550212719
 40
3.378877742711621
 40
3.440140399651476
 40
4.100501696006495
 40
4.754913085563562
 40
5.411331693423959
 40
6.077890432568749
 40
6.110575292671028
 40
6.143260152775808
 40
6.367989363395203
 40
6.610525374951639
 40
6.863389136467381
 40
7.119380025547662
 40
7.376036605091161
 40
7.631164770966356
 40
7.876722425456497
 40
8.104953735856006
 40
8.312916685924348
 40
8.497730294941402
 40
8.651018984313923
 40
8.76473885362468
 40
8.76473885362468
 40
8.76473885362468
 40
8.76473885362468
 10
174.7922649500514
 20
13.81626739612927
 10
174.7766616726932
 20
13.81826231079078
 10
174.7463947960302
 20
13.82213201360298
 10
174.7010994202253
 20
13.82341984967269
 10
174.6559553129349
 20
13.82308683554051
 10
174.60990171234
 20
13.82314658674225
 10
174.5640496172096
 20
13.82325813650001
 10
174.5183711648165
 20
13.82277833456591
 10
174.4750811541608
 20
13.82461109618722
 10
174.4039947951514
 20
13.80049556814658
 10
174.4057477261441
 20
13.92184693977252
 10
174.358619637057
 20
14.00726239751233
 10
174.3191478251762
 20
14.12486929345133
 10
174.2706635532646
 20
14.24232752540443
 10
174.2201017402522
 20
14.36405935761505
 10
174.1718634610478
 20
14.49075967862469
 10
174.1135232947595
 20
14.59933687784951
 10
174.0980892667262
 20
14.75620657134413
 10
173.9566586330635
 20
14.72373446548322
 10
173.8508397414904
 20
14.7351288868218
 10
173.7358569725222
 20
14.73392591514616
 10
173.625314225214
 20
14.73506945347408
 10
173.5176583522783
 20
14.73418350037527
 10
173.4121322529242
 20
14.73416602390519
 10
173.3109192682013
 20
14.72714032472416
 10
173.1266804827754
 20
14.75135859859864
 10
173.1157393685411
 20
14.44741691121887
 10
173.008769163475
 20
14.22353177253398
 10
172.9098148604348
 20
14.03895314292495
 10
172.9225090524007
 20
13.79530204804206
 10
172.8050091716397
 20
13.82508046753197
 10
172.742205586831
 20
13.82258089509604
 10
172.67858720934
 20
13.82344075102805
 10
172.3946014194075
 20
13.78098039941944
 10
173.0251638499381
 20
14.50081952444786
 10
173.1087645289071
 20
15.0127653943573
 10
173.4929252789339
 20
15.53353743550044
 10
173.4777208288565
 20
16.23519626253214
 10
173.7239265722697
 20
16.22345633081257
 10
173.825634615756
 20
16.23225004452773
 10
173.8249752035818
 20
15.98059650730345
 10
173.9428317155829
 20
15.79818020733962
 10
174.0315515260484
 20
15.55563740662864
 10
174.1322292485259
 20
15.32340030530126
 10
174.2311142712243
 20
15.08674644566914
 10
174.3299676990669
 20
14.8546173917009
 10
174.4256166390926
 20
14.63122222788791
 10
174.5159904573271
 20
14.42272549049316
 10
174.5989944568188
 20
14.23308448529317
 10
174.67260885828
 20
14.06663106068103
 10
174.7342815895545
 20
13.92917699626094
 10
174.7749458885604
 20
13.84999239430033
 10
174.7922649500514
 20
13.81626739612927
 97
        1
330
A1
 92
       16
 93
        1
 72
     4
 94
        3
 73
     0
 74
     0
 95
       25
 96
       21
 40
0.0
 40
0.0
 40
0.0
 40
0.0
 40
0.091147996906539
 40
0.1858117896204668
 40
0.2804128399734491
 40
0.371588919071451
 40
0.4679080494218708
 40
0.5642683809229231
 40
0.6605683222645274
 40
0.7569653015811109
 40
0.8561348172523592
 40
1.092615965104389
 40
1.374867658141983
 40
1.61134881201172
 40
1.710518328425368
 40
1.809403163726687
 40
2.045205463294189
 40
2.32664691762225
 40
2.562449217190712
 40
2.661334043834031
 40
2.661334043834031
 40
2.661334043834031
 40
2.661334043834031
 10
173.2683700567199
 20
14.88614538197292
 10
173.2987525917923
 20
14.88598079714555
 10
173.3606895889112
 20
14.88564528689922
 10
173.454135696033
 20
14.88269055451998
 10
173.5475095236357
 20
14.87977752877151
 10
173.6417760753476
 20
14.87894201643417
 10
173.7354964790967
 20
14.87996644658046
 10
173.8352040303205
 20
14.87916977470972
 10
173.9188949546313
 20
14.88921410235219
 10
174.0637996315045
 20
14.86234617674163
 10
173.9396132444802
 20
15.03665530280049
 10
173.8965867286282
 20
15.19651711006091
 10
173.780892214221
 20
15.45518458550216
 10
173.7017565431257
 20
15.59231052861857
 10
173.6431576621816
 20
15.80937033134077
 10
173.5864803939438
 20
15.59266134213428
 10
173.5052809900477
 20
15.45327012438235
 10
173.4063701281488
 20
15.20406969370195
 10
173.325362509426
 20
15.01925830226073
 10
173.2813683325838
 20
14.91650446856116
 10
173.2683700567199
 20
14.88614538197292
 97
        1
330
A2
 75
     1
 76
     2
 52
45.0
 41
0.1
 77
     0
 78
     1
 53
45.0
 43
0.0
 44
0.0
 45
-0.282842712474619
 46
0.0
 79
     0
 98
        1
 10
0.0
 20
0.0
  0
HATCH
  5
C0
330
48
100
AcDbEntity
  8
1
  6
Continuous
 62
     2
100
AcDbHatch
 10
0.0
 20
0.0
 30
0.0
210
0.0
220
0.0
230
1.0
  2
CUSTOM2
 70
     0
 71
     1
 91
        1
 92
        1
 93
        1
 72
     4
 94
        3
 73
     0
 74
     0
 95
       95
 96
       91
 40
0.0
 40
0.0
 40
0.0
 40
0.0
 40
0.6550406656911508
 40
1.308087289031932
 40
1.420803739835805
 40
1.566130759770813
 40
1.75706734188847
 40
2.006513545026472
 40
2.087328263121553
 40
2.185328872295633
 40
2.294612454748369
 40
2.408936380534819
 40
2.526802767798565
 40
2.646360524615613
 40
2.762535723971582
 40
2.870057342870154
 40
2.966883448431652
 40
3.050803243518303
 40
3.115818222436618
 40
3.156030057150248
 40
3.213914225080122
 40
3.276689026450466
 40
3.342960320981329
 40
3.404230667150578
 40
3.453822809493392
 40
3.532499827188454
 40
3.634775188507196
 40
3.754909333008199
 40
3.889736761660688
 40
4.035769602175249
 40
4.187256681197632
 40
4.338733685675981
 40
4.488478734676139
 40
4.63470831783162
 40
4.771493189921297
 40
4.892686571561235
 40
5.199775528944471
 40
5.460353566929661
 40
5.667603142345536
 40
5.814722905404523
 40
5.828990806219849
 40
5.855488336304518
 40
5.86975623711885
 40
6.189796507762807
 40
6.531890469872999
 40
6.883053637016985
 40
7.230512024911456
 40
7.566966656764582
 40
7.88520355970739
 40
8.172887439719213
 40
8.418011594062804
 40
8.443926721190726
 40
8.510760470613214
 40
8.602145393795723
 40
8.701714041647165
 40
8.793098965075394
 40
8.859932715057967
 40
8.885847842603617
 40
9.242301256612834
 40
9.589275455016777
 40
9.921808543164197
 40
10.2347962429847
 40
10.29968150889181
 40
10.35323493887769
 40
10.40154625355156
 40
10.46482922477829
 40
10.5597390066841
 40
10.69239545985621
 40
10.84920353475676
 40
11.01626328594784
 40
11.18672024367448
 40
11.35372582577215
 40
11.50257442292431
 40
11.61866495023295
 40
11.71329869152878
 40
11.82511050573912
 40
11.9446488084572
 40
12.0692924264251
 40
12.19707290435181
 40
12.32562632860533
 40
12.45034565331283
 40
12.56646595170331
 40
12.6709900741464
 40
12.76077625936787
 40
12.82703233506699
 40
12.87429132785998
 40
12.89831990323337
 40
12.92234847860025
 40
13.53984767410323
 40
14.18294284359371
 40
14.18294284359371
 40
14.18294284359371
 40
14.18294284359371
 10
177.3067935648021
 20
14.70898038201725
 10
177.1752019758551
 20
14.82265058603232
 10
176.9124193802728
 20
15.04964496316158
 10
176.399739344102
 20
15.89214462956288
 10
176.4106654595362
 20
15.53423377577019
 10
176.4041226527991
 20
15.39267392272133
 10
176.4028026631773
 20
15.1942130529928
 10
176.4018117602538
 20
15.02150296045982
 10
176.4024101751975
 20
14.8786537325758
 10
176.4038994301882
 20
14.78265005413358
 10
176.4055683588473
 20
14.67545503263142
 10
176.4071934954617
 20
14.56164211517582
 10
176.4092429501685
 20
14.44441572604589
 10
176.4123165501927
 20
14.3265641123297
 10
176.4156339697043
 20
14.21228087320621
 10
176.419360534028
 20
14.10521401867278
 10
176.4217338161424
 20
14.01007408766922
 10
176.4278718888357
 20
13.92558557205695
 10
176.4239784495947
 20
13.86923087298142
 10
176.4455230443077
 20
13.79825022472356
 10
176.3680940058618
 20
13.82902677604483
 10
176.3116353240191
 20
13.82011242517614
 10
176.2540495896807
 20
13.82896218398276
 10
176.1690163478472
 20
13.79738225225945
 10
176.2009714146383
 20
13.88095155992189
 10
176.199070528254
 20
13.9488260896831
 10
176.21079600473
 20
14.05233256764419
 10
176.2164241053001
 20
14.17002125616695
 10
176.223790217894
 20
14.30388609164423
 10
176.2320759701611
 20
14.44764152872632
 10
176.2398851897426
 20
14.59714022843445
 10
176.2457571222657
 20
14.74792549402078
 10
176.2503667817968
 20
14.89699943878438
 10
176.2542632117542
 20
15.04122913163022
 10
176.2570715126564
 20
15.17583905213018
 10
176.2576698755022
 20
15.36469614347354
 10
176.261602386715
 20
15.58975494313154
 10
176.2442175378499
 20
15.86367091125707
 10
176.2850417342582
 20
16.02787112098597
 10
176.1995153256003
 20
16.22749661465098
 10
176.2660558907689
 20
16.22385458403979
 10
176.2838724273231
 20
16.22413447160854
 10
176.4056801797504
 20
16.22632927398616
 10
176.5080770335462
 20
15.9467511872151
 10
176.7580021509355
 20
15.74563008536002
 10
176.9870035331111
 20
15.47792614987916
 10
177.2245151213108
 20
15.22646413862375
 10
177.4486090740772
 20
14.98969974061361
 10
177.6750716283009
 20
14.73218692583078
 10
177.8325687886513
 20
14.6164933505692
 10
178.0472129612677
 20
14.27997152538793
 10
178.0422645974619
 20
14.40464754091603
 10
178.0433931602548
 20
14.46327691935737
 10
178.0428877841517
 20
14.55043662371977
 10
178.0430475158113
 20
14.64416143182872
 10
178.043005489132
 20
14.73018971297035
 10
178.0430202040374
 20
14.79153891945496
 10
178.0429706255984
 20
14.94135231520992
 10
178.0458811522811
 20
15.17989612510104
 10
178.0259521041161
 20
15.544865098687
 10
178.0750433936248
 20
15.80799631993412
 10
177.9177951509179
 20
16.21928904947751
 10
178.0762112872422
 20
16.16398282551748
 10
178.1311680478628
 20
16.16199686500175
 10
178.182788776674
 20
16.16264778248251
 10
178.2713198965366
 20
16.20369527738245
 10
178.2204898303168
 20
16.05696326622986
 10
178.2313389930283
 20
15.95019971954434
 10
178.2166036994847
 20
15.79085705414112
 10
178.2099976446204
 20
15.62853061652874
 10
178.2014961399914
 20
15.45992521892396
 10
178.19432272022
 20
15.29814814703541
 10
178.1889063215389
 20
15.15422331457933
 10
178.1871713967649
 20
15.03437493466925
 10
178.187544067232
 20
14.92686101590515
 10
178.1873656126264
 20
14.81820024645586
 10
178.1877010863139
 20
14.6995357016553
 10
178.1890040622184
 20
14.57555163512741
 10
178.1908887351574
 20
14.44858294171104
 10
178.1925004454851
 20
14.32153861551032
 10
178.1941403137429
 20
14.19854884492178
 10
178.1962570745752
 20
14.08300931383759
 10
178.1963848422364
 20
13.98090903955837
 10
178.2006514396554
 20
13.89009848838156
 10
178.1908440085289
 20
13.83213621208786
 10
178.2118474771689
 20
13.76517130132029
 10
178.1725639739896
 20
13.77291153966687
 10
177.9595307117748
 20
13.75755254145192
 10
177.7636297943186
 20
14.31403058094472
 10
177.4611197631543
 20
14.57556035348511
 10
177.3067935648021
 20
14.70898038201725
 97
        1
330
A3
 75
     1
 76
     2
 52
45.0
 41
0.1
 77
     0
 78
     1
 53
45.0
 43
0.0
 44
0.0
 45
-0.282842712474619
 46
0.0
 79
     0
 98
        1
 10
0.0
 20
0.0
  0
HATCH
  5
C1
330
48
100
AcDbEntity
  8
1
  6
Continuous
 62
     2
100
AcDbHatch
 10
0.0
 20
0.0
 30
0.0
210
0.0
220
0.0
230
1.0
  2
CUSTOM3
 70
     0
 71
     1
 91
        1
 92
        1
 93
        1
 72
     4
 94
        3
 73
     0
 74
     0
 95
      110
 96
      106
 40
0.0
 40
0.0
 40
0.0
 40
0.0
 40
0.2203406257277732
 40
0.4407808782838093
 40
0.5952494494615073
 40
0.7488431659393074
 40
0.9023581831309344
 40
1.056801968670405
 40
1.210736449099962
 40
1.363041386539784
 40
1.515315729683126
 40
1.669377239148077
 40
1.721611652756564
 40
1.773199502942948
 40
1.824933793209997
 40
1.877110426487978
 40
1.982682281206742
 40
2.07878166708755
 40
2.172809640822272
 40
2.271937807378926
 40
2.378349933379319
 40
2.494131557736508
 40
2.626681683943613
 40
2.783145050796069
 40
2.890701232940918
 40
2.993130312454817
 40
3.099869730691807
 40
3.220237816691309
 40
3.352695482737586
 40
3.481732806389849
 40
3.593499473690368
 40
3.674323013331874
 40
3.817951711952824
 40
3.946167120793821
 40
4.061405053453535
 40
4.166480796003147
 40
4.262478775059185
 40
4.350736673551141
 40
4.433071991254026
 40
4.511216293814629
 40
4.564262454117956
 40
4.618474415571573
 40
4.670128488754176
 40
4.722296879126374
 40
4.819540945314244
 40
4.9311949841281
 40
5.049996040257742
 40
5.168643755415287
 40
5.283970811762499
 40
5.392260784910325
 40
5.486512254876371
 40
5.559178233949798
 40
5.591425852853458
 40
5.626215969637851
 40
5.667155838674379
 40
5.717449290214193
 40
5.738402360944806
 40
5.784499116553774
 40
5.830595872164742
 40
5.8515489428976
 40
5.873019280661715
 40
5.924217778408257
 40
5.985325662817636
 40
6.036524160567653
 40
6.057994498334181
 40
6.236847789607428
 40
6.381409928945596
 40
6.493190424178635
 40
6.574067534230446
 40
6.69101808620554
 40
6.814881554220458
 40
6.94430782324041
 40
7.071266716066035
 40
7.193488604461879
 40
7.309042773128192
 40
7.414007203170788
 40
7.505140441886488
 40
7.531150360599646
 40
7.559221645322241
 40
7.5872022189209
 40
7.612569159499103
 40
7.662550809480983
 40
7.70287887576411
 40
7.857328205230925
 40
8.01079956808857
 40
8.16525639965752
 40
8.32223269871386
 40
8.479564855016546
 40
8.63521623029075
 40
8.790882550925668
 40
8.948305154947233
 40
9.168271839032919
 40
9.387358980987194
 40
9.608047961033446
 40
9.832914234792648
 40
9.858338694962983
 40
9.925366817229989
 40
10.02013071422757
 40
10.12876249858996
 40
10.23739428295246
 40
10.33215817995187
 40
10.3991863022239
 40
10.4246107623978
 40
10.6499201933694
 40
10.87188524531184
 40
10.87188524531184
 40
10.87188524531184
 40
10.87188524531184
 10
179.9057788376618
 20
15.7392326039819
 10
179.9092864933542
 20
15.80616462073804
 10
179.9163033987664
 20
15.94005891915859
 10
179.8198027599072
 20
16.2254855497147
 10
180.0510134726108
 20
16.16284386190283
 10
180.1919290057156
 20
16.17001554055992
 10
180.3490417757588
 20
16.16235883078244
 10
180.5025913427287
 20
16.1625275228304
 10
180.6545104935081
 20
16.16182040535432
 10
180.814221481323
 20
16.17210158351639
 10
180.9408972601119
 20
16.1549651108075
 10
181.137082112208
 20
16.22727260107145
 10
181.1034395279078
 20
16.12640699080117
 10
181.1052011317184
 20
16.07619253947671
 10
181.1027342073458
 20
16.02712335586465
 10
181.1347076966011
 20
15.94063490847
 10
181.0010399903255
 20
15.98997438608336
 10
180.9172208688056
 20
15.98430634314168
 10
180.8173861139324
 20
15.99465516706298
 10
180.7186576720145
 20
16.00086450411087
 10
180.6121532771111
 20
16.00697763816778
 10
180.4910511698059
 20
16.01588883484585
 10
180.3703381502453
 20
16.00521605912384
 10
180.1812553843436
 20
16.06468503080368
 10
180.2129028505312
 20
15.9055832007754
 10
180.1995563316833
 20
15.80839128339904
 10
180.197495842645
 20
15.69634065110103
 10
180.1958188044671
 20
15.5769968562935
 10
180.1973336794233
 20
15.45032592155109
 10
180.195658247867
 20
15.32301588016117
 10
180.2058844271657
 20
15.22451566404463
 10
180.1779006596582
 20
15.08388702625631
 10
180.3508029999305
 20
15.13989551134096
 10
180.4645020202772
 20
15.12719951478496
 10
180.5840151672239
 20
15.13448377051254
 10
180.6888491425072
 20
15.13878017056756
 10
180.7843084898612
 20
15.14330568258977
 10
180.8763823507032
 20
15.15149201146199
 10
180.9476551782438
 20
15.14643850638112
 10
181.0544931705685
 20
15.18536425031674
 10
181.0226603598036
 20
15.1051712200588
 10
181.0266164503929
 20
15.05562936846033
 10
181.0234502392013
 20
15.00557478039819
 10
181.0550791490584
 20
14.92128847612022
 10
180.9210133677692
 20
14.97425365495158
 10
180.8292322793199
 20
14.96540080890441
 10
180.7079729189603
 20
14.97570049965155
 10
180.5914113119771
 20
14.97748911767502
 10
180.4783375745879
 20
14.97787017109694
 10
180.3679246308471
 20
14.98415449472182
 10
180.289812406784
 20
14.97189133255364
 10
180.1913625833644
 20
15.00453887616126
 10
180.2012355173561
 20
14.94769748054205
 10
180.1973923244402
 20
14.91392130557983
 10
180.1966789884268
 20
14.8711960470941
 10
180.1963369642975
 20
14.83401607262153
 10
180.1963834255346
 20
14.7948723737077
 10
180.1963649429926
 20
14.75716849497685
 10
180.1963703431807
 20
14.71944955232403
 10
180.1963697214201
 20
14.6899432474515
 10
180.1963698151545
 20
14.65873577699301
 10
180.1963704287921
 20
14.61414424908085
 10
180.1963671499336
 20
14.5596395650885
 10
180.1963759623481
 20
14.51505540201448
 10
180.1963359653416
 20
14.4311780858574
 10
180.1976024270255
 20
14.31737520677678
 10
180.1950274117842
 20
14.1683039593371
 10
180.206500938172
 20
14.06597203813906
 10
180.1823506222263
 20
13.93338903885834
 10
180.3332993946476
 20
13.97895732272021
 10
180.4428436671556
 20
13.96427012162349
 10
180.573397047392
 20
13.96920435125062
 10
180.6990312209514
 20
13.97257705323363
 10
180.8188730625601
 20
13.97711497498773
 10
180.9391362611427
 20
13.99048536182005
 10
181.0222761663516
 20
13.98068712782596
 10
181.1456080421074
 20
14.04126214623318
 10
181.1244269203956
 20
13.9853246013402
 10
181.1235950270116
 20
13.95939249372345
 10
181.1218963707558
 20
13.93197256190938
 10
181.1217974888829
 20
13.89738195206385
 10
181.1203659301329
 20
13.86050408220767
 10
181.153280419219
 20
13.76846841021807
 10
180.9551306988107
 20
13.84132015974832
 10
180.830054829489
 20
13.81825726508607
 10
180.6673071295156
 20
13.82454021985787
 10
180.5129366450001
 20
13.82260943909927
 10
180.3566670436943
 20
13.82393762599269
 10
180.1970544465282
 20
13.82059872487863
 10
180.0540326342237
 20
13.8326579572824
 10
179.8197144881628
 20
13.76952001976918
 10
179.9173810751197
 20
14.05620527466317
 10
179.9006868780059
 20
14.24988308142661
 10
179.9146296709684
 20
14.47848242880295
 10
179.9142987846633
 20
14.63384593955049
 10
179.9143078119263
 20
14.73966336444126
 10
179.9143055876316
 20
14.80205784124215
 10
179.9143065551889
 20
14.89220425248327
 10
179.9143065473262
 20
14.99621167157438
 10
179.9143053861102
 20
15.10022131375296
 10
179.9143090971502
 20
15.19036243688768
 10
179.9143011051052
 20
15.25276803097215
 10
179.9143334275017
 20
15.35868835961118
 10
179.913144078832
 20
15.5162671654474
 10
179.9082216489256
 20
15.66528219822066
 10
179.9057788376618
 20
15.7392326039819
 97
        1
330
A4
 75
     1
 76
     2
 52
45.0
 41
0.1
 77
     0
 78
     1
 53
45.0
 43
0.0
 44
0.0
 45
-0.282842712474619
 46
0.0
 79
     0
 98
        1
 10
0.0
 20
0.0
  0
HATCH
  5
C2
330
48
100
AcDbEntity
  8
1
  6
Continuous
 62
     2
100
AcDbHatch
 10
0.0
 20
0.0
 30
0.0
210
0.0
220
0.0
230
1.0
  2
CUSTOM4
 70
     0
 71
     1
 91
        1
 92
        1
 93
        1
 72
     4
 94
        3
 73
     0
 74
     0
 95
       47
 96
       43
 40
0.0
 40
0.0
 40
0.0
 40
0.0
 40
0.2207912809957065
 40
0.4459404186302937
 40
0.4902387190459156
 40
0.53274738927221
 40
0.5742260451225428
 40
0.6155432630560721
 40
0.6568164066316208
 40
0.6982511618781418
 40
0.7407663929317354
 40
0.7851366743175139
 40
1.010288833836315
 40
1.231080507002152
 40
1.451765243652392
 40
1.676638205891677
 40
1.720461045359648
 40
1.830018144043515
 40
1.972442372353148
 40
2.114866600677521
 40
2.224423699395147
 40
2.268246538883389
 40
2.493628801207207
 40
2.715602830286609
 40
2.934211330706357
 40
3.149502369855357
 40
3.231387784851002
 40
3.318231873854038
 40
3.405143198198026
 40
3.486970301720462
 40
3.702258172493913
 40
3.920866283534135
 40
4.142839325931927
 40
4.368221903865377
 40
4.412044743359861
 40
4.521601842095876
 40
4.664026070452357
 40
4.806450298809068
 40
4.916007397546764
 40
4.959830237043088
 40
5.18470351584712
 40
5.405387250767506
 40
5.405387250767506
 40
5.405387250767506
 40
5.405387250767506
 10
182.6507427258645
 20
15.73406440953873
 10
182.6568139420002
 20
15.79758482501211
 10
182.6690762107245
 20
15.92587938689628
 10
182.560470687941
 20
16.20166220174077
 10
182.6761985896604
 20
16.17188133432052
 10
182.7171842509015
 20
16.16765556262821
 10
182.7591205797518
 20
16.16310446389607
 10
182.800419662571
 20
16.16201982929485
 10
182.8417032115556
 20
16.16310338195227
 10
182.8836148270648
 20
16.16766112711344
 10
182.9245983549019
 20
16.17187430209728
 10
183.0404922843489
 20
16.20177611317535
 10
182.9295652727457
 20
15.92339806609889
 10
182.9574856365267
 20
15.74283140824953
 10
182.9404267346969
 20
15.50961042346471
 10
182.9414637282102
 20
15.34906622543146
 10
182.9414099399404
 20
15.22284817558721
 10
182.941427737248
 20
15.12428963336241
 10
182.941418858108
 20
14.99280702442962
 10
182.9414263928034
 20
14.86132844968649
 10
182.9414129405128
 20
14.76276222694089
 10
182.9414531717492
 20
14.63639735624151
 10
182.9406746403817
 20
14.47482068822869
 10
182.9565958319267
 20
14.24361821892914
 10
182.9333468885407
 20
14.05874351972002
 10
183.0360183444367
 20
13.78935602770055
 10
182.8820238362836
 20
13.82660112685817
 10
182.8004129802832
 20
13.82137994680535
 10
182.7188192292582
 20
13.82660620378351
 10
182.5648513666843
 20
13.78937069885386
 10
182.6674183421918
 20
14.05875129862879
 10
182.6442045316088
 20
14.24361585325415
 10
182.6600444655139
 20
14.47482218565637
 10
182.6593296313427
 20
14.63639712308503
 10
182.6593664569907
 20
14.7627623121052
 10
182.659354900027
 20
14.86132756635981
 10
182.6593575019213
 20
14.99281127417219
 10
182.6593648531779
 20
15.124275480312
 10
182.6593442541351
 20
15.22287786275325
 10
182.6594082192028
 20
15.34896149354427
 10
182.6581733947592
 20
15.51210091383772
 10
182.6532040396744
 20
15.6605418377755
 10
182.6507427258645
 20
15.73406440953873
 97
        1
330
A5
 75
     1
 76
     2
 52
45.0
 41
0.1
 77
     0
 78
     1
 53
45.0
 43
0.0
 44
0.0
 45
-0.282842712474619
 46
0.0
 79
     0
 98
        1
 10
0.0
 20
0.0
  0
HATCH
  5
C3
330
48
100
AcDbEntity
  8
1
  6
Continuous
 62
     2
100
AcDbHatch
 10
0.0
 20
0.0
 30
0.0
210
0.0
220
0.0
230
1.0
  2
CUSTOM5
 70
     0
 71
     1
 91
        1
 92
        1
 93
        1
 72
     4
 94
        3
 73
     0
 74
     0
 95
      118
 96
      114
 40
0.0
 40
0.0
 40
0.0
 40
0.0
 40
0.1054708162973382
 40
0.2466098270051896
 40
0.3965912874591399
 40
0.5285525069754184
 40
0.6156245055642774
 40
0.6431434105798086
 40
0.7036850037986945
 40
0.7642265984505511
 40
0.7917455052355983
 40
0.9287404319990757
 40
1.106572819088155
 40
1.287544879681155
 40
1.317578308030672
 40
1.399928030857311
 40
1.522968204800085
 40
1.675072986590706
 40
1.844616533180783
 40
2.019973001638848
 40
2.18951654888016
 40
2.341621331585499
 40
2.464661506320635
 40
2.547011229647199
 40
2.577044658168163
 40
2.603797890893233
 40
2.66265500290892
 40
2.721512114949732
 40
2.748265347702912
 40
2.774215307344988
 40
2.845959313407318
 40
2.954338556588519
 40
3.090194227585698
 40
3.244367517100663
 40
3.407699615844423
 40
3.571031714539574
 40
3.72520500392025
 40
3.861060674729753
 40
3.969439917716445
 40
4.04118392362912
 40
4.067133883213113
 40
4.311886746012312
 40
4.547897258335683
 40
4.764747083044115
 40
4.952749679951886
 40
5.045772974196028
 40
5.137862019645149
 40
5.3305431697932
 40
5.553448265244192
 40
5.795083855888351
 40
6.043293412177417
 40
6.285761695541368
 40
6.313902908752851
 40
6.384255941793441
 40
6.475714884767001
 40
6.567173827759035
 40
6.637526860839813
 40
6.665668074074148
 40
6.69201892032812
 40
6.749990782071185
 40
6.807962643790553
 40
6.834313490018024
 40
6.856393084245303
 40
6.913335195649926
 40
6.991194817302562
 40
7.076026942283823
 40
7.153886563725285
 40
7.210828674844839
 40
7.232908268931174
 40
7.258199334923695
 40
7.324875781592343
 40
7.419142481924998
 40
7.527204308841938
 40
7.635266135230513
 40
7.729532834168499
 40
7.796209279292817
 40
7.821500344594764
 40
7.844652988850862
 40
7.899863140541641
 40
7.965759128053836
 40
8.020969279771178
 40
8.044121924046644
 40
8.069356610160785
 40
8.109134395441556
 40
8.132238100191268
 40
8.193147867786633
 40
8.279261678876805
 40
8.37797751267402
 40
8.476693347146803
 40
8.562807160411857
 40
8.623716930826644
 40
8.646820636853596
 40
8.671988793774409
 40
8.73490918582832
 40
8.816705695189034
 40
8.898502204815605
 40
8.961422597378066
 40
8.986590754551179
 40
9.012941600733331
 40
9.070913462380414
 40
9.128885324081903
 40
9.155236170325225
 40
9.180404327929267
 40
9.24332472194834
 40
9.325121234212133
 40
9.406917746637788
 40
9.469838141978244
 40
9.495006288271018
 40
9.51781118437916
 40
9.572192090487162
 40
9.637098333281395
 40
9.691479239515598
 40
9.714284125643637
 40
9.714284125643637
 40
9.714284125643637
 40
9.714284125643637
 10
185.2874469028653
 20
15.26889163187719
 10
185.3090990569037
 20
15.24111869242811
 10
185.3597257109474
 20
15.17618054561236
 10
185.4349383202591
 20
15.06891060312897
 10
185.5248482274346
 20
14.95377438266626
 10
185.5709169676674
 20
14.85357045748317
 10
185.6655825294655
 20
14.78434006814943
 10
185.6204439320414
 20
14.73771639678272
 10
185.594704778579
 20
14.69660308866038
 10
185.5645196708012
 20
14.66065971727938
 10
185.5193684730561
 20
14.58579782596094
 10
185.4710504458563
 20
14.80782524253608
 10
185.3968539713073
 20
14.84510677337706
 10
185.2836047324606
 20
15.11610202130601
 10
185.288513357817
 20
15.00095328446229
 10
185.2868486556306
 20
14.92836675781627
 10
185.2876830076714
 20
14.80625588483986
 10
185.2873609540264
 20
14.6591380081046
 10
185.2875076912456
 20
14.49307063956557
 10
185.2872950092722
 20
14.32187554608602
 10
185.2879497252034
 20
14.15552828635498
 10
185.2859192461139
 20
14.00935173055693
 10
185.291346039993
 20
13.8847104747461
 10
185.2804930868708
 20
13.81718656540626
 10
185.2956739155555
 20
13.75549061417022
 10
185.2457895108133
 20
13.76727503897002
 10
185.2017150342522
 20
13.75943822779969
 10
185.15823716302
 20
13.76760441372703
 10
185.1092346786489
 20
13.75538056738468
 10
185.1218731234825
 20
13.80960667249313
 10
185.113018296845
 20
13.86936918907558
 10
185.1175058770314
 20
13.97922029044371
 10
185.115796013599
 20
14.11029975405678
 10
185.1163550915987
 20
14.26198011444329
 10
185.1161928768693
 20
14.42211074929953
 10
185.1162269924675
 20
14.58236865674567
 10
185.1162514960126
 20
14.7337024752044
 10
185.1161453543226
 20
14.86582156338602
 10
185.116429914193
 20
14.97294802533193
 10
185.1158675547568
 20
15.03808619579474
 10
185.1180765083689
 20
15.16618957858677
 10
185.0319435998603
 20
14.79097610391575
 10
184.9555140818499
 20
14.63918193123395
 10
184.8660040767833
 20
14.47766206446305
 10
184.7640413217328
 20
14.20471848820171
 10
184.7187976491039
 20
14.36717346596512
 10
184.6102355941671
 20
14.45605432058117
 10
184.7995791751753
 20
14.60549794961409
 10
184.8565340545699
 20
14.79749136974925
 10
184.9717520993353
 20
15.02899622906757
 10
184.9940151630132
 20
15.21797259759063
 10
185.177190515214
 20
15.49454089325931
 10
185.0538033597552
 20
15.48698978832095
 10
184.9925684166834
 20
15.48856772366119
 10
184.9081999617065
 20
15.48882592573673
 10
184.8204235085966
 20
15.48544845751206
 10
184.7656768696123
 20
15.49394814982021
 10
184.7104703026025
 20
15.48048561049789
 10
184.7222823035537
 20
15.52931442126765
 10
184.7142496151795
 20
15.57269004896709
 10
184.7228186104679
 20
15.61509438309573
 10
184.7102943409158
 20
15.66267796552118
 10
184.7555101538736
 20
15.65267212995109
 10
184.8014815562725
 20
15.65894105174061
 10
184.877722204771
 20
15.65593561405872
 10
184.9561296131994
 20
15.65770448278541
 10
185.0323992648933
 20
15.6546479398166
 10
185.0783009459474
 20
15.66103971376176
 10
185.12317339654
 20
15.65093822978897
 10
185.1105552275634
 20
15.70157201581898
 10
185.1191936582707
 20
15.7550126188207
 10
185.1152361595443
 20
15.8486325513168
 10
185.1162325068335
 20
15.95112606688923
 10
185.1171927413073
 20
16.05353270248163
 10
185.1133211458005
 20
16.1473592960932
 10
185.1217789814364
 20
16.20036542840352
 10
185.1093075932835
 20
16.25211435651187
 10
185.154210638985
 20
16.23850747226756
 10
185.1955083836772
 20
16.24100480320584
 10
185.259534428105
 20
16.23648060574486
 10
185.2986111148787
 20
16.22781003043308
 10
185.3476543498743
 20
16.23515102070684
 10
185.322508003059
 20
16.19602896051761
 10
185.2815901333723
 20
16.20563842455808
 10
185.2910109616604
 20
16.15540148169778
 10
185.2855647318746
 20
16.1038594563949
 10
185.2881699601804
 20
16.0195970758452
 10
185.2870102202153
 20
15.92559135583408
 10
185.2883591064231
 20
15.83196865395526
 10
185.2849970101508
 20
15.74679517552223
 10
185.2920959917769
 20
15.69716856072044
 10
185.2812569154545
 20
15.64993694969989
 10
185.3304010225245
 20
15.66201674936851
 10
185.3794877630147
 20
15.65447393363011
 10
185.4573714280642
 20
15.65686070361432
 10
185.5350365172896
 20
15.65899381905415
 10
185.5845393931355
 20
15.65193391922455
 10
185.6344594750639
 20
15.66360151936214
 10
185.6223198516881
 20
15.61540235371393
 10
185.6305838229144
 20
15.57249219801236
 10
185.6223198650783
 20
15.52958201851385
 10
185.6344594549855
 20
15.48138288754865
 10
185.5845395158746
 20
15.49305034471511
 10
185.5350350651203
 20
15.48599202435046
 10
185.4573784382973
 20
15.48811665228605
 10
185.379464386576
 20
15.49053389365761
 10
185.3304500352716
 20
15.48291848194487
 10
185.2813246108943
 20
15.49507952557593
 10
185.2915559988571
 20
15.45073013424159
 10
185.2856677678053
 20
15.40925436202912
 10
185.2878788305569
 20
15.34915394315304
 10
185.2874109346146
 20
15.30225782762888
 10
185.2874386992913
 20
15.27650146418196
 10
185.2874469028653
 20
15.26889163187719
 97
        1
330
A6
 75
     1
 76
     2
 52
45.0
 41
0.1
 77
     0
 78
     1
 53
45.0
 43
0.0
 44
0.0
 45
-0.282842712474619
 46
0.0
 79
     0
 98
        1
 10
0.0
 20
0.0
  0
HATCH
  5
C4
330
48
100
AcDbEntity
  8
1
  6
Continuous
 62
     2
100
AcDbHatch
 10
0.0
 20
0.0
 30
0.0
210
0.0
220
0.0
230
1.0
  2
CUSTOM6
 70
     0
 71
     1
 91
        1
 92
        1
 93
        1
 72
     4
 94
        3
 73
     0
 74
     0
 95
       91
 96
       87
 40
0.0
 40
0.0
 40
0.0
 40
0.0
 40
0.0345987051695434
 40
0.1258134969461369
 40
0.2547723404888987
 40
0.4026032099154409
 40
0.5504340793417273
 40
0.6793929228836932
 40
0.7706077146571888
 40
0.8052064287781777
 40
1.12485239061537
 40
1.42740223630897
 40
1.706356627453613
 40
1.9555414178753
 40
2.169485938566445
 40
2.3443507866649
 40
2.48056841156205
 40
2.590440557429072
 40
2.649189927151274
 40
2.749320643306477
 40
2.912632739880167
 40
3.147745656000362
 40
3.244827496385288
 40
3.338490056946827
 40
3.583815413207258
 40
3.761423943238623
 40
3.886956104362787
 40
3.985855451886948
 40
4.091766255337832
 40
4.250186473811998
 40
4.422734315084621
 40
4.628285684838714
 40
4.872093227758559
 40
5.152549652145672
 40
5.464967135837655
 40
5.803201477852582
 40
6.160362988814065
 40
6.19344944827612
 40
6.284170385501775
 40
6.419718138764645
 40
6.587285046385895
 40
6.774063446723809
 40
6.967245678113792
 40
7.154024078817778
 40
7.321590987026164
 40
7.457138740890522
 40
7.547859678556258
 40
7.580946138182818
 40
7.608533084714868
 40
7.669224367077839
 40
7.729915649430054
 40
7.757502595950103
 40
7.790278062553557
 40
7.880146277431055
 40
8.014419963180519
 40
8.180411842398048
 40
8.365434637679517
 40
8.556801071622846
 40
8.74182386683093
 40
8.90781574591647
 40
9.042089431507652
 40
9.131957646249777
 40
9.164733112797354
 40
9.415425063140278
 40
9.667986180958744
 40
9.694169807462911
 40
9.75660768604787
 40
9.831130315322676
 40
9.89356819390014
 40
9.919751820398957
 40
9.950967964690795
 40
9.996421631210904
 40
10.22087981037479
 40
10.44341866197567
 40
10.47847970788879
 40
10.5709133743878
 40
10.7015954546126
 40
10.85140174170388
 40
11.00120802880511
 40
11.13189010907416
 40
11.22432377583041
 40
11.2593848093899
 40
11.28697175596178
 40
11.34766303835952
 40
11.40835432042102
 40
11.43594125892136
 40
11.43594125892136
 40
11.43594125892136
 40
11.43594125892136
 10
190.081811433329
 20
15.55242795125079
 10
190.0702785844941
 20
15.55242790287917
 10
190.0283409445
 20
15.55242773704166
 10
189.9434129719026
 20
15.55243125800911
 10
189.8207688553129
 20
15.5524092643588
 10
189.6791206916994
 20
15.55250801177056
 10
189.537975369849
 20
15.55214686232422
 10
189.4141351317904
 20
15.55321883609091
 10
189.3317217825381
 20
15.5509224909127
 10
189.1727791229693
 20
15.56048569373423
 10
189.3503402353375
 20
15.19785394311371
 10
189.3379739205453
 20
14.95243127723115
 10
189.4064519473865
 20
14.66862501324835
 10
189.469302432097
 20
14.43250999939036
 10
189.5452253431728
 20
14.23326740396129
 10
189.6303189577016
 20
14.07745347451374
 10
189.7244607592936
 20
13.97657857781392
 10
189.8282648207727
 20
13.92465852638967
 10
189.9125872030774
 20
13.97606484379614
 10
189.9351322179452
 20
14.09144544037517
 10
189.9745730975371
 20
14.21885149702381
 10
189.9202919734942
 20
14.53622328086752
 10
190.0451218072473
 20
14.3898218014091
 10
190.2019291513603
 20
14.35795300331168
 10
190.0947720007057
 20
14.12421357767629
 10
190.0808711209867
 20
13.95972776583656
 10
190.0234709467225
 20
13.83130869122484
 10
189.9335020145008
 20
13.76018802352826
 10
189.8095274657877
 20
13.74432324142254
 10
189.6634273196861
 20
13.77993797554172
 10
189.5243894320284
 20
13.90000570500278
 10
189.4102003962145
 20
14.0743568255032
 10
189.3146141301486
 20
14.2994660311124
 10
189.2318652572627
 20
14.56388246006443
 10
189.1807179256412
 20
14.88187933098544
 10
189.0770189207337
 20
15.15543728488913
 10
189.2042841208522
 20
15.5600581861287
 10
189.0357890623018
 20
15.5511236784968
 10
188.9511995787077
 20
15.55315961418365
 10
188.8189876387627
 20
15.55213937388408
 10
188.6560505094104
 20
15.55253230318431
 10
188.4733759170532
 20
15.5523569631337
 10
188.2847057373383
 20
15.5526010530747
 10
188.1014469020189
 20
15.55185657906238
 10
187.9404746832718
 20
15.55416360522428
 10
187.8029808335276
 20
15.54799804883664
 10
187.728959037231
 20
15.56032838458213
 10
187.6613215186856
 20
15.54329323723558
 10
187.6732373719269
 20
15.59524438447529
 10
187.6655677285694
 20
15.6407142496653
 10
187.6732592225115
 20
15.68614453703706
 10
187.6613141797761
 20
15.7380239598457
 10
187.7283588305867
 20
15.72119143490264
 10
187.8017375665677
 20
15.73335409092671
 10
187.9379128305272
 20
15.72727231074958
 10
188.0973811801512
 20
15.72954834315057
 10
188.2789173085837
 20
15.72881233998962
 10
188.465803486218
 20
15.72905954196133
 10
188.6468012316836
 20
15.72886400799254
 10
188.8080802578879
 20
15.72932234714839
 10
188.9393882124887
 20
15.72812673751206
 10
189.0225051322597
 20
15.73051347319742
 10
189.1556236547815
 20
15.72230605725464
 10
189.0645893502658
 20
15.97752868952655
 10
188.9789633074419
 20
16.24164358328245
 10
189.0990589003455
 20
16.22904442969165
 10
189.1514264948544
 20
16.22694235763075
 10
189.2214497569715
 20
16.22535399889657
 10
189.2671922337817
 20
16.21602567538113
 10
189.3220812646933
 20
16.22545966915426
 10
189.2963574785681
 20
16.17733028655172
 10
189.1825397571452
 20
16.18266829744167
 10
189.3159346621136
 20
15.95449174576776
 10
189.1943658735472
 20
15.72156856595924
 10
189.3223188769412
 20
15.73087258884438
 10
189.4049048406461
 20
15.7280100175468
 10
189.5307214850824
 20
15.72923437412302
 10
189.6741469838059
 20
15.72932431888964
 10
189.8157420951728
 20
15.72746163183853
 10
189.9459127249969
 20
15.73333075937163
 10
190.0193452286191
 20
15.72070340823203
 10
190.0891112922097
 20
15.73877563110413
 10
190.0775772605397
 20
15.68612850546327
 10
190.0833184346683
 20
15.64221317686548
 10
190.0816615770911
 20
15.5908998267655
 10
190.0817757561671
 20
15.56158792021636
 10
190.081811433329
 20
15.55242795125079
 97
        1
330
A7
 75
     1
 76
     2
 52
45.0
 41
0.1
 77
     0
 78
     1
 53
45.0
 43
0.0
 44
0.0
 45
-0.282842712474619
 46
0.0
 79
     0
 98
        1
 10
0.0
 20
0.0
  0
HATCH
  5
C5
330
48
100
AcDbEntity
  8
1
  6
Continuous
 62
     2
100
AcDbHatch
 10
0.0
 20
0.0
 30
0.0
210
0.0
220
0.0
230
1.0
  2
CUSTOM7
 70
     0
 71
     1
 91
        1
 92
        1
 93
        1
 72
     4
 94
        3
 73
     0
 74
     0
 95
       75
 96
       71
 40
0.0
 40
0.0
 40
0.0
 40
0.0
 40
0.0342546099129691
 40
0.1245622414432364
 40
0.2522385480897589
 40
0.3985991922940769
 40
0.5449598364980963
 40
0.6726361431439012
 40
0.7629437746737155
 40
0.7971983935298186
 40
1.101723623449629
 40
1.408591244036606
 40
1.43333247169031
 40
1.487763172450105
 40
1.54219387308193
 40
1.566935100592478
 40
1.92352393182179
 40
2.27175570495359
 40
2.590579755100834
 40
2.858943305581095
 40
2.889120339309113
 40
2.918305855191055
 40
2.941366645531178
 40
2.99635776097307
 40
3.061992318140616
 40
3.116983433626811
 40
3.14004422399749
 40
3.41127312293641
 40
3.732441619741076
 40
3.761068217532774
 40
3.837787499630339
 40
3.948858699125976
 40
4.080541049104355
 40
4.219093782625741
 40
4.350776132722293
 40
4.461847332405627
 40
4.538566614678361
 40
4.567193212544609
 40
4.594907573998867
 40
4.666381453557406
 40
4.764111044011017
 40
4.87059253812582
 40
4.968322128642271
 40
5.039796008286956
 40
5.067510369784415
 40
5.094263603185627
 40
5.15312071666826
 40
5.211977830150703
 40
5.238731063551707
 40
5.272290535138946
 40
5.363380529444807
 40
5.497618415781485
 40
5.660621563453727
 40
5.838007341749428
 40
6.01539311991078
 40
6.178396267038405
 40
6.312634151842357
 40
6.403724143059346
 40
6.437283612672442
 40
6.464036846261058
 40
6.522893960004671
 40
6.58175107148393
 40
6.608504301590877
 40
6.637253941281024
 40
6.711397748902876
 40
6.81277805728346
 40
6.923237199249179
 40
7.024617507623852
 40
7.098761315207476
 40
7.127510946007426
 40
7.127510946007426
 40
7.127510946007426
 40
7.127510946007426
 10
188.4418622390565
 20
14.95849128473265
 10
188.4418622819707
 20
14.9470731340872
 10
188.4418624481129
 20
14.9055525784263
 10
188.4418593081787
 20
14.82146922003772
 10
188.4418788279802
 20
14.70004497322329
 10
188.4417912187738
 20
14.55980494047448
 10
188.4421116235231
 20
14.42006556794576
 10
188.4411605909741
 20
14.29745038894928
 10
188.4431978595968
 20
14.21587074438042
 10
188.4349433178748
 20
14.06271267077699
 10
188.7430797940901
 20
14.22560236054722
 10
189.0350645173736
 20
14.39482938688002
 10
189.0408354448707
 20
14.25973235781911
 10
189.0455471719891
 20
14.21617221160444
 10
189.0482535411917
 20
14.17211249350545
 10
189.067254567296
 20
14.02272590363135
 10
188.6583942247302
 20
14.08681172241262
 10
188.3793710348831
 20
13.97296341411017
 10
188.1018081587167
 20
13.87364095811142
 10
187.8099837184399
 20
13.91630687596354
 10
187.7869144678658
 20
13.8132167974454
 10
187.7537474383332
 20
13.78691091244469
 10
187.7480653962739
 20
13.83455309036304
 10
187.7284214559044
 20
13.87180336115069
 10
187.7095089485623
 20
13.93007387847564
 10
187.6942849867707
 20
13.97385201007804
 10
187.6477246372936
 20
14.08759421046312
 10
187.9890897312449
 20
14.05576301120046
 10
188.2679649367387
 20
14.02161435106479
 10
188.2617753034907
 20
14.16913976479652
 10
188.2630935452773
 20
14.24013150908832
 10
188.2624831689948
 20
14.34719767958661
 10
188.2625871570725
 20
14.47398529785998
 10
188.2629987964055
 20
14.6084924349605
 10
188.2613907841969
 20
14.73395549951185
 10
188.2659902567924
 20
14.84505246719118
 10
188.256418650221
 20
14.90761886800689
 10
188.2704001783691
 20
14.96595388295002
 10
188.2147384386704
 20
14.95289710582239
 10
188.1575655197821
 20
14.96136307749499
 10
188.0616048925648
 20
14.95729976080637
 10
187.963376752282
 20
14.95970889852476
 10
187.8672582457561
 20
14.95551600613388
 10
187.8104648525811
 20
14.96429346441164
 10
187.7550356873384
 20
14.95094936850121
 10
187.7670679427917
 20
15.00036910959257
 10
187.7592003173938
 20
15.04393988030396
 10
187.7666295563828
 20
15.08830469118525
 10
187.7551930564144
 20
15.13902297763991
 10
187.8232102370132
 20
15.12162460757743
 10
187.8968496879747
 20
15.13417450237189
 10
188.0325064058211
 20
15.12799677011097
 10
188.1884909024525
 20
15.13029203093084
 10
188.3615926358143
 20
15.1294096826253
 10
188.5346942964181
 20
15.13029207142408
 10
188.6906789811216
 20
15.1279966295555
 10
188.8263351889797
 20
15.13417486262432
 10
188.8999756705652
 20
15.12162394218335
 10
188.9679914174724
 20
15.13902373012142
 10
188.9565590885922
 20
15.08830130414555
 10
188.9639539458297
 20
15.04397060811109
 10
188.956203991227
 20
15.00028307550197
 10
188.9681203741877
 20
14.95063590098477
 10
188.9108170223616
 20
14.96461411338426
 10
188.8520145789773
 20
14.95539755673255
 10
188.75252936332
 20
14.95952268164931
 10
188.6494280098349
 20
14.95822760025888
 10
188.5537846354574
 20
14.95854077077641
 10
188.4857467971617
 20
14.95848776697147
 10
188.4514462213444
 20
14.95849051871657
 10
188.4418622390565
 20
14.95849128473265
 97
        1
330
A8
 75
     1
 76
     2
 52
45.0
 41
0.1
 77
     0
 78
     1
 53
45.0
 43
0.0
 44
0.0
 45
-0.282842712474619
 46
0.0
 79
     0
 98
        1
 10
0.0
 20
0.0
  0
HATCH
  5
C6
330
48
100
AcDbEntity
  8
1
  6
Continuous
 62
     2
100
AcDbHatch
 10
0.0
 20
0.0
 30
0.0
210
0.0
220
0.0
230
1.0
  2
CUSTOM8
 70
     0
 71
     1
 91
        1
 92
        1
 93
        1
 72
     4
 94
        3
 73
     0
 74
     0
 95
       15
 96
       11
 40
0.0
 40
0.0
 40
0.0
 40
0.0
 40
0.2785535985096532
 40
0.5215624748198807
 40
0.6076917376040443
 40
0.6938210001741176
 40
0.9405019146454989
 40
1.221691403489134
 40
1.300471877081048
 40
1.379252341684808
 40
1.379252341684808
 40
1.379252341684808
 40
1.379252341684808
 10
189.5681493630999
 20
16.2293026733038
 10
189.6296017794178
 20
16.17691646592715
 10
189.7446649974113
 20
16.07882876798222
 10
190.0397348497244
 20
15.92889785897222
 10
189.9025147631857
 20
15.84343227515014
 10
189.8041227843778
 20
15.71085785201555
 10
189.713003359065
 20
16.0161698578142
 10
189.3636839480655
 20
16.07967869465375
 10
189.511925837657
 20
16.17896509880877
 10
189.5494081874237
 20
16.21252348402382
 10
189.5681493630999
 20
16.2293026733038
 97
        1
330
A9
 75
     1
 76
     2
 52
45.0
 41
0.1
 77
     0
 78
     1
 53
45.0
 43
0.0
 44
0.0
 45
-0.282842712474619
 46
0.0
 79
     0
 98
        1
 10
0.0
 20
0.0
  0
HATCH
  5
C7
330
48
100
AcDbEntity
  8
1
  6
Continuous
 62
     2
100
AcDbHatch
 10
0.0
 20
0.0
 30
0.0
210
0.0
220
0.0
230
1.0
  2
CUSTOM9
 70
     0
 71
     1
 91
        1
 92
        1
 93
        1
 72
     4
 94
        3
 73
     0
 74
     0
 95
       35
 96
       31
 40
0.0
 40
0.0
 40
0.0
 40
0.0
 40
0.0335231036620562
 40
0.0713218571711968
 40
0.4278866681486946
 40
0.8116865841963967
 40
1.198190238000054
 40
1.561379546812681
 40
1.659983174622039
 40
1.75931557380719
 40
2.132719617231078
 40
2.525233363588827
 40
2.910815397779692
 40
3.265244364303281
 40
3.59260672358202
 40
3.964386154603948
 40
4.359942131737772
 40
4.758154118639231
 40
4.843846538699894
 40
4.936650065543209
 40
5.25661660253729
 40
5.581707404416024
 40
5.899719158308121
 40
6.198363494280724
 40
6.466301046615757
 40
6.493895311537079
 40
6.559697020196872
 40
6.638234543442447
 40
6.7040362521542
 40
6.731630508423006
 40
6.731630508423006
 40
6.731630508423006
 40
6.731630508423006
 10
191.9736010568669
 20
16.23463843719133
 10
191.9676006097788
 20
16.22480690542322
 10
191.9548344099157
 20
16.20388988579798
 10
191.7949362006556
 20
16.17127126532691
 10
192.2322025842335
 20
15.88206680336701
 10
192.4345394828262
 20
15.6804113835844
 10
192.6819564267973
 20
15.43749387603276
 10
193.1831513624606
 20
15.3604766275778
 10
193.012556219897
 20
15.21876939174655
 10
192.9383299463201
 20
15.01710366209109
 10
192.6131432248188
 20
15.36956287174726
 10
192.3277741670664
 20
15.53175212559563
 10
192.0337604077658
 20
15.73687130053048
 10
191.8084452691134
 20
16.21827488595455
 10
191.5993085055522
 20
15.75343046609224
 10
191.3207873674834
 20
15.54350952252912
 10
191.0371383177208
 20
15.37424456359982
 10
190.7078639527833
 20
15.00142360907944
 10
190.6277012318224
 20
15.19708014458999
 10
190.4759724909745
 20
15.32491104190597
 10
190.9083395826794
 20
15.40454031765935
 10
191.0962565329766
 20
15.60026634915473
 10
191.3468477420503
 20
15.81632996916756
 10
191.5714350470162
 20
15.98190992300058
 10
191.6259775409712
 20
16.26133964636828
 10
191.7494661029011
 20
16.24737950408078
 10
191.806027334452
 20
16.24521268867647
 10
191.8761870984944
 20
16.24046859881359
 10
191.9333414022106
 20
16.2370942935054
 10
191.9644190320839
 20
16.23519854711118
 10
191.9736010568669
 20
16.23463843719133
 97
        1
330
AA
 75
     1
 76
     2
 52
45.0
 41
0.1
 77
     0
 78
     1
 53
45.0
 43
0.0
 44
0.0
 45
-0.282842712474619
 46
0.0
 79
     0
 98
        1
 10
0.0
 20
0.0
  0
HATCH
  5
C8
330
48
100
AcDbEntity
  8
1
  6
Continuous
 62
     2
100
AcDbHatch
 10
0.0
 20
0.0
 30
0.0
210
0.0
220
0.0
230
1.0
  2
CUSTOM10
 70
     0
 71
     1
 91
        1
 92
        1
 93
        1
 72
     4
 94
        3
 73
     0
 74
     0
 95
       91
 96
       87
 40
0.0
 40
0.0
 40
0.0
 40
0.0
 40
0.0267532254356701
 40
0.0856103386464155
 40
0.1444674521996709
 40
0.1712206856618621
 40
0.2039416005642643
 40
0.2955601971652591
 40
0.4362601844617024
 40
0.6162252844507357
 40
0.8256392189704804
 40
1.054685709844421
 40
1.293548478893542
 40
1.532411247938314
 40
1.761457738799579
 40
1.970871673298547
 40
2.150836773256743
 40
2.291536760495604
 40
2.383155356836711
 40
2.415876284101331
 40
2.442629517487977
 40
2.501486630949111
 40
2.560343744424261
 40
2.587096977826536
 40
2.617068194440964
 40
2.699247336756105
 40
2.822032643466417
 40
2.973822353257947
 40
3.143014704823389
 40
3.318007936879968
 40
3.487200288186801
 40
3.638989997548282
 40
3.761775303794781
 40
3.843954445753115
 40
3.873925662229811
 40
3.890812773500573
 40
3.907699884771779
 40
3.937960767857426
 40
3.980983618142485
 40
4.199085915228607
 40
4.439444339237411
 40
4.677588241261068
 40
5.050698317837954
 40
5.44821245476334
 40
5.855291218044865
 40
6.138575438885541
 40
6.417434507584369
 40
6.444551104394051
 40
6.504207617363351
 40
6.563864130314675
 40
6.590980727104268
 40
6.848609460381646
 40
7.109611990668604
 40
7.352910904446267
 40
7.557830220705638
 40
7.587518925913556
 40
7.652834077375974
 40
7.718149228845911
 40
7.747837934062215
 40
7.854880190301176
 40
7.976511257403715
 40
8.369487896592515
 40
8.757514959223808
 40
9.12607241933127
 40
9.460639380392276
 40
9.74669559303596
 40
9.777569943118753
 40
9.80705032093193
 40
9.830377336129063
 40
9.886003295436138
 40
9.952395569430054
 40
10.00802152870641
 40
10.03134854388233
 40
10.21356951009604
 40
10.42203479292886
 40
10.6615455673108
 40
10.9169378956432
 40
11.15832906556581
 40
11.18982674596639
 40
11.27286608520423
 40
11.39026653033365
 40
11.52484752840901
 40
11.65942852648463
 40
11.77682897161499
 40
11.85986831085698
 40
11.89136598230444
 40
11.89136598230444
 40
11.89136598230444
 40
11.89136598230444
 10
190.7027885008196
 20
14.70699600701772
 10
190.7028237765288
 20
14.71587847311985
 10
190.7029366710796
 20
14.74430237047347
 10
190.7012984568489
 20
14.79409639169803
 10
190.7069750292911
 20
14.83657564478155
 10
190.6956928731706
 20
14.88730154856848
 10
190.7632296979031
 20
14.87012900740109
 10
190.83880292107
 20
14.88290227165997
 10
190.9828357056
 20
14.87629729457383
 10
191.1569419185427
 20
14.87888462206467
 10
191.3639599611003
 20
14.87800591955554
 10
191.5894688172378
 20
14.87828207920028
 10
191.8251162293406
 20
14.87818339658663
 10
192.0607640531348
 20
14.87828184412768
 10
192.2862717580626
 20
14.8780067819079
 10
192.4932934632805
 20
14.87888186270736
 10
192.6673888915288
 20
14.87630522678447
 10
192.8114492071986
 20
14.88288290449214
 10
192.8869691915293
 20
14.87016243405605
 10
192.954577603703
 20
14.88726400191687
 10
192.9430840140676
 20
14.83674785802941
 10
192.9505104581733
 20
14.79253252226502
 10
192.9428838927986
 20
14.7486796650361
 10
192.9546489459425
 20
14.69878374479327
 10
192.8930788491983
 20
14.71393227712512
 10
192.8256791738671
 20
14.70310665350673
 10
192.7013004056222
 20
14.70852031626236
 10
192.555442823657
 20
14.70649205390785
 10
192.3893576440086
 20
14.70715777578387
 10
192.2188412621724
 20
14.70689643521242
 10
192.0519790855388
 20
14.70721553391094
 10
191.9087346827105
 20
14.70635302590763
 10
191.7773313869834
 20
14.70863300482987
 10
191.7239859134656
 20
14.70407704374203
 10
191.6485188456912
 20
14.70999914992876
 10
191.6769075779233
 20
14.70094169343353
 10
191.7033652409543
 20
14.69725912268929
 10
191.6633522907701
 20
14.66654271968275
 10
191.5713663691868
 20
14.67667591174634
 10
191.543939620707
 20
14.43032502247783
 10
191.4478793967234
 20
14.27499558764376
 10
191.1917277964474
 20
13.94525417931569
 10
191.7627537732762
 20
14.08430022210451
 10
192.0173656320516
 20
14.08291779973364
 10
192.6279647048617
 20
13.99790569242085
 10
192.3340698578083
 20
14.29685417558205
 10
192.0133304286517
 20
14.4433085690178
 10
192.1313543360434
 20
14.50025540818286
 10
192.1724716466261
 20
14.52420099873347
 10
192.2156812394411
 20
14.5459975881123
 10
192.3174574094449
 20
14.60928721253901
 10
192.4328867625248
 20
14.3514715140878
 10
192.6329591642278
 20
14.21616041113682
 10
192.7269077387228
 20
14.03792795138882
 10
192.9558829746392
 20
13.87997821027049
 10
192.8596031846708
 20
13.82915972576299
 10
192.8167959763779
 20
13.79881292523055
 10
192.7718243528779
 20
13.77466130281458
 10
192.7121720925213
 20
13.72552146747568
 10
192.6789731061325
 20
13.85997475673609
 10
192.5582013350795
 20
14.0159426528658
 10
192.1970976005979
 20
13.88569928059557
 10
191.838506195554
 20
13.90224694409483
 10
191.457092045008
 20
13.89331229351865
 10
191.170345528289
 20
13.82882671672411
 10
190.8592055599718
 20
13.94230668192821
 10
190.8268737818788
 20
13.83122259927766
 10
190.7896178253318
 20
13.81196313850011
 10
190.7865737632753
 20
13.85874784087295
 10
190.7679892860607
 20
13.89806853919135
 10
190.7512436616778
 20
13.95765983478232
 10
190.7383730915754
 20
14.00201969871284
 10
190.7042327806427
 20
14.09106331120199
 10
190.9482714457754
 20
14.02181042943771
 10
191.1441394486671
 20
14.00030369057743
 10
191.2395426381277
 20
14.28226484478463
 10
191.2945135769597
 20
14.44363045421124
 10
191.5159619357156
 20
14.71391177589738
 10
191.3849239381216
 20
14.70548446853735
 10
191.3110026555854
 20
14.7077900849697
 10
191.1977459876244
 20
14.70671378321657
 10
191.0694251807484
 20
14.7070763907651
 10
190.9404252030415
 20
14.70697724466086
 10
190.828784094629
 20
14.70699932712572
 10
190.7514663970026
 20
14.7069957918967
 10
190.713287653201
 20
14.70699595845081
 10
190.7027885008196
 20
14.70699600701772
 97
        1
330
AB
 75
     1
 76
     2
 52
45.0
 41
0.1
 77
     0
 78
     1
 53
45.0
 43
0.0
 44
0.0
 45
-0.282842712474619
 46
0.0
 79
     0
 98
        1
 10
0.0
 20
0.0
  0
HATCH
  5
C9
330
48
100
AcDbEntity
  8
1
  6
Continuous
 62
     2
100
AcDbHatch
 10
0.0
 20
0.0
 30
0.0
210
0.0
220
0.0
230
1.0
  2
CUSTOM11
 70
     0
 71
     1
 91
        1
 92
        1
 93
        1
 72
     4
 94
        3
 73
     0
 74
     0
 95
      131
 96
      127
 40
0.0
 40
0.0
 40
0.0
 40
0.0
 40
0.0195577029826184
 40
0.0426490537461576
 40
0.286360757585662
 40
0.5344948436189284
 40
0.7842238845573182
 40
0.8737315789467347
 40
0.9803832810312864
 40
1.092842274517035
 40
1.199761146656795
 40
1.2897887681865
 40
1.35157358078619
 40
1.370727117561419
 40
1.416400936017828
 40
1.470914848355973
 40
1.516588666791762
 40
1.535742203552843
 40
1.634216592293194
 40
1.76028334117503
 40
1.897966686682092
 40
2.031216387368914
 40
2.049689751137908
 40
2.101115601646843
 40
2.17950257773996
 40
2.278859318314074
 40
2.39319446225873
 40
2.516516648383842
 40
2.642834515405969
 40
2.766156701983473
 40
2.880491846754584
 40
2.979848588358625
 40
3.058235565443802
 40
3.109661416668956
 40
3.128134780704132
 40
3.146783742386448
 40
3.191254343315309
 40
3.244332157315968
 40
3.288802758225872
 40
3.307451719895115
 40
3.327717853844726
 40
3.383747753580087
 40
3.468388665924477
 40
3.574487837698785
 40
3.69489251572889
 40
3.822449946852027
 40
3.950007377920418
 40
4.070412055800508
 40
4.176511227368062
 40
4.26115213950151
 40
4.317182039076702
 40
4.337448172964622
 40
4.620011002696237
 40
4.885096638397509
 40
4.945373043518325
 40
5.014107710488642
 40
5.070481727652042
 40
5.319246955636566
 40
5.584812164506036
 40
5.859000912056887
 40
6.133746937542069
 40
6.401732212968875
 40
6.420736683995465
 40
6.472845717451116
 40
6.550702743894044
 40
6.646951193874252
 40
6.754234497930576
 40
6.865196086587354
 40
6.972479390357813
 40
7.068727839771975
 40
7.146584865450984
 40
7.198693898189213
 40
7.217698368905354
 40
7.23495040163083
 40
7.276089864269873
 40
7.32519180351598
 40
7.366331266090364
 40
7.383583298769714
 40
7.402779163492091
 40
7.453386443254522
 40
7.524934666445524
 40
7.606953361405863
 40
7.688972056429015
 40
7.760520279784266
 40
7.811127559734508
 40
7.830323424546129
 40
7.847844055299759
 40
7.894799345666798
 40
7.962779392744484
 40
8.043374293560532
 40
8.128174145149435
 40
8.208769044817236
 40
8.276749090376937
 40
8.323704379669499
 40
8.34122501005623
 40
8.358497614800378
 40
8.401679126686583
 40
8.45781509218564
 40
8.513951057728045
 40
8.557132569708001
 40
8.574405174505044
 40
8.602340668616392
 40
8.643455660539935
 40
8.663225271966603
 40
8.71534515656425
 40
8.789031889628586
 40
8.873502045520315
 40
8.957972194323938
 40
9.031658925567829
 40
9.08377881123452
 40
9.103548423002982
 40
9.119550083123519
 40
9.160817522379821
 40
9.217244429110186
 40
9.278724491644672
 40
9.335151398295457
 40
9.376418837357752
 40
9.39242049730054
 40
9.401196302734759
 40
9.417494229384234
 40
9.426270027749506
 40
9.440875075477539
 40
9.475702496998718
 40
9.51727070986588
 40
9.552098131994047
 40
9.566703169884255
 40
9.566703169884255
 40
9.566703169884255
 40
9.566703169884255
 10
194.6170254148479
 20
15.67015871511028
 10
194.6134345093371
 20
15.6645369070216
 10
194.6056039123625
 20
15.65227754419113
 10
194.5129968974544
 20
15.61601916040964
 10
194.4887622233248
 20
15.40148444212717
 10
194.3858709845938
 20
15.22197284509707
 10
194.1220492364306
 20
15.03615573798145
 10
194.2845471569179
 20
14.95959336566081
 10
194.3607225760838
 20
14.89856693195442
 10
194.4492171072758
 20
14.83515804544759
 10
194.538993023311
 20
14.7752563421956
 10
194.5883817636046
 20
14.72102154849206
 10
194.6745708157382
 20
14.69286240541834
 10
194.6411260674229
 20
14.65713309652811
 10
194.621467116631
 20
14.62550387991906
 10
194.5919888217882
 20
14.58475872796069
 10
194.5688989446031
 20
14.55504663489643
 10
194.5380205968357
 20
14.50211422668494
 10
194.472919336574
 20
14.62740334938902
 10
194.3796000122415
 20
14.68213900233934
 10
194.2950636285138
 20
14.73916423939343
 10
194.1722498125742
 20
14.89675287427523
 10
194.1764450847301
 20
14.82035806766836
 10
194.1751478652677
 20
14.77361280161296
 10
194.1758126448076
 20
14.69584785812601
 10
194.1755549986957
 20
14.59902068324423
 10
194.1756431239921
 20
14.48650279078809
 10
194.1756077302281
 20
14.365240859457
 10
194.1756511758279
 20
14.24086897858962
 10
194.1755199942405
 20
14.11967683631336
 10
194.1759477562046
 20
14.00691148919744
 10
194.174667820231
 20
13.91082913768745
 10
194.1779759851044
 20
13.83113826468701
 10
194.1715197740086
 20
13.78815175788785
 10
194.1806208705556
 20
13.74955432372044
 10
194.1447910339935
 20
13.75810887724072
 10
194.1115223815252
 20
13.75342519985448
 10
194.0604562576041
 20
13.75351298759785
 10
194.0269723972812
 20
13.75794430283822
 10
193.9907585408754
 20
13.74960793842511
 10
194.0009782568666
 20
13.79145277179286
 10
193.9936487887773
 20
13.83778560820175
 10
193.9973633136103
 20
13.92374831106015
 10
193.9959480554896
 20
14.0260514270485
 10
193.9964105554638
 20
14.14453223931513
 10
193.9962773686231
 20
14.26957683153357
 10
193.9963015910045
 20
14.39475828107051
 10
193.9963354925551
 20
14.51286645379058
 10
193.9962060293132
 20
14.61628748709516
 10
193.9965507549081
 20
14.69932036153667
 10
193.9958698278689
 20
14.75143368521244
 10
193.9994586600625
 20
14.87912907821362
 10
193.7826171386436
 20
14.5804871681962
 10
193.6021354921951
 20
14.35263981511516
 10
193.5490322295611
 20
14.49373443289813
 10
193.5200429133149
 20
14.54325767560944
 10
193.419664806282
 20
14.64641779790107
 10
193.7405127723261
 20
14.7269503502378
 10
193.8689897005429
 20
14.91066283036435
 10
194.0906454325358
 20
15.11931995771763
 10
194.1770224894069
 20
15.29339211228344
 10
194.4549394229074
 20
15.56967051342514
 10
194.3346247839284
 20
15.56534559551115
 10
194.2863197351348
 20
15.56614856202554
 10
194.2102377454905
 20
15.56574582146585
 10
194.116701000975
 20
15.56590275611611
 10
194.0117594788557
 20
15.56582502576224
 10
193.9033887738717
 20
15.56595464378556
 10
193.7981454235897
 20
15.56554393490692
 10
193.7056237819412
 20
15.56682073671592
 10
193.6268130800707
 20
15.5634076653485
 10
193.5839674565379
 20
15.57023350036321
 10
193.5449499586516
 20
15.56065064201124
 10
193.5526365271863
 20
15.59420779565543
 10
193.5485464404312
 20
15.62523550322234
 10
193.5485531368814
 20
15.672365292709
 10
193.5526239724911
 20
15.70340941646779
 10
193.5449495574582
 20
15.73701861635901
 10
193.5834819405495
 20
15.72748410420872
 10
193.624122801448
 20
15.73397435498071
 10
193.6951471850463
 20
15.73100150650254
 10
193.7729318149633
 20
15.73174761399158
 10
193.8507292246474
 20
15.73247814044525
 10
193.9217232089907
 20
15.7295423551416
 10
193.962427979182
 20
15.73595468772952
 10
194.000985348991
 20
15.72650524176004
 10
193.9927342754927
 20
15.76264692158784
 10
193.9982346669358
 20
15.80129837613226
 10
193.9955754206163
 20
15.86913528561839
 10
193.9965815471533
 20
15.94591641538739
 10
193.9960178018318
 20
16.02849393582756
 10
193.9970714526593
 20
16.10517329229877
 10
193.994267586313
 20
16.17331990776699
 10
194.0000702721303
 20
16.21132399809345
 10
193.9915654551159
 20
16.24758448077645
 10
194.0255610233125
 20
16.23755723771851
 10
194.0594575683099
 20
16.24073266813706
 10
194.1126669060346
 20
16.23508965640608
 10
194.1660768574483
 20
16.23434774436424
 10
194.1995914649491
 20
16.22819223482978
 10
194.2388086183038
 20
16.23346029773592
 10
194.2120263698492
 20
16.1925338079349
 10
194.1708111001724
 20
16.20371204538111
 10
194.1782641540874
 20
16.15867056192123
 10
194.1742227952184
 20
16.11412278028144
 10
194.176171404964
 20
16.04223572621703
 10
194.1752364849758
 20
15.96168630588771
 10
194.176510719003
 20
15.88173995404994
 10
194.1732043793863
 20
15.80841837083183
 10
194.1802106179961
 20
15.76688643002568
 10
194.1701440380126
 20
15.72752418568113
 10
194.2029814803921
 20
15.73468063430981
 10
194.236457729648
 20
15.73027243137945
 10
194.2915053476019
 20
15.73217943347897
 10
194.3489502595314
 20
15.73185366407288
 10
194.4023026248309
 20
15.73106308733081
 10
194.4398540896638
 20
15.73313959118074
 10
194.4623172523237
 20
15.73022338167109
 10
194.4751678073731
 20
15.73572552644056
 10
194.4858255685888
 20
15.7380111819779
 10
194.4986635650143
 20
15.74494972588052
 10
194.5145991033071
 20
15.72853046313672
 10
194.5410623920891
 20
15.71709122319449
 10
194.5726805253757
 20
15.6964468783519
 10
194.5987255892151
 20
15.68116869628295
 10
194.6128517723973
 20
15.67266976323184
 10
194.6170254148479
 20
15.67015871511028
 97
        1
330
AC
 75
     1
 76
     2
 52
45.0
 41
0.1
 77
     0
 78
     1
 53
45.0
 43
0.0
 44
0.0
 45
-0.282842712474619
 46
0.0
 79
     0
 98
        1
 10
0.0
 20
0.0
  0
HATCH
  5
CA
330
48
100
AcDbEntity
  8
1
  6
Continuous
 62
     2
100
AcDbHatch
 10
0.0
 20
0.0
 30
0.0
210
0.0
220
0.0
230
1.0
  2
CUSTOM12
 70
     0
 71
     1
 91
        1
 92
        1
 93
        1
 72
     4
 94
        3
 73
     0
 74
     0
 95
      124
 96
      120
 40
0.0
 40
0.0
 40
0.0
 40
0.0
 40
0.0278187229624226
 40
0.1011590162383985
 40
0.2048470170589954
 40
0.3237088716558677
 40
0.4425707262521431
 40
0.5462587270698694
 40
0.6195990203311229
 40
0.6474177522577808
 40
0.6750060736114372
 40
0.7357003855241906
 40
0.7963946998053639
 40
0.8239830245570932
 40
0.8540933811102025
 40
0.9373396629408706
 40
1.063094687343123
 40
1.220731268637961
 40
1.399622220914636
 40
1.58914035863762
 40
1.77865849642373
 40
1.957549448940368
 40
2.11518603087299
 40
2.240941056914294
 40
2.324187341760363
 40
2.354297700109213
 40
2.38188602467172
 40
2.442580338710308
 40
2.503274652750332
 40
2.530862977314439
 40
2.560983949278392
 40
2.640393784452738
 40
2.752662861758961
 40
2.881361560117949
 40
3.010060258454996
 40
3.1223293357052
 40
3.201739170817757
 40
3.231860142753146
 40
3.264298024030201
 40
3.352343701778074
 40
3.482095226868597
 40
3.639650650172855
 40
3.811108022565311
 40
3.982565394927817
 40
4.140120818152398
 40
4.269872343141109
 40
4.35791802080217
 40
4.390355902043798
 40
4.423256253992368
 40
4.508104530072917
 40
4.624121560636685
 40
4.750528176031442
 40
4.866545206601917
 40
4.951393482691903
 40
4.984293834645304
 40
5.011450833242219
 40
5.071196230152004
 40
5.130941627057083
 40
5.158098625648747
 40
5.190998977601438
 40
5.275847253689263
 40
5.391864284256754
 40
5.518270899648299
 40
5.634287930209338
 40
5.719136206288012
 40
5.752036558235928
 40
5.782130946282954
 40
5.862783906229128
 40
5.979550131774995
 40
6.117984316640402
 40
6.263641154587947
 40
6.402075339414153
 40
6.518841564907947
 40
6.599494524815529
 40
6.629588912848766
 40
6.654403028226342
 40
6.713575149488081
 40
6.784199939329398
 40
6.843372060493444
 40
6.868186175802689
 40
6.896246243201769
 40
6.939586233758085
 40
6.967846564564713
 40
7.043584251089651
 40
7.153234334451509
 40
7.283231855734259
 40
7.420011856035293
 40
7.550009376579645
 40
7.659659458835044
 40
7.735397144417037
 40
7.763657474851209
 40
7.796409728010866
 40
7.880876065096141
 40
7.996370852465526
 40
8.122208446418421
 40
8.237703224799015
 40
8.322169562010737
 40
8.354921815205723
 40
8.382078813307503
 40
8.441824209206809
 40
8.50156960523996
 40
8.528726603485538
 40
8.561478856695558
 40
8.645945193877608
 40
8.761439980865148
 40
8.887277580764291
 40
9.002772362000812
 40
9.087238696661004
 40
9.119990949235486
 40
9.152428830613186
 40
9.240474508638401
 40
9.37022603414935
 40
9.527781457984233
 40
9.699238830981223
 40
9.870696203978412
 40
10.02825162781383
 40
10.15800315332545
 40
10.246048831351
 40
10.27848670378503
 40
10.27848670378503
 40
10.27848670378503
 40
10.27848670378503
 10
195.3821827564384
 20
14.01410517385757
 10
195.3914554737524
 20
14.01410498511274
 10
195.4251744536861
 20
14.01410430876714
 10
195.4934706812466
 20
14.01411807243305
 10
195.592014171158
 20
14.01403224219544
 10
195.7062066464812
 20
14.01441755612251
 10
195.8185894417071
 20
14.01300835897545
 10
195.9214376600119
 20
14.01719117422243
 10
195.9806839874848
 20
14.00823089251983
 10
196.0371265937033
 20
14.0216443452606
 10
196.0246255586955
 20
13.97087198613361
 10
196.0329549635703
 20
13.92589320939067
 10
196.024817084112
 20
13.88056752990488
 10
196.0370529214457
 20
13.82931932408466
 10
195.9747773490333
 20
13.84447955365276
 10
195.9060513026868
 20
13.83359750710743
 10
195.7782756749592
 20
13.83911304747972
 10
195.6262984511643
 20
13.83700851253698
 10
195.4502695972523
 20
13.83771002588473
 10
195.2644431934287
 20
13.83745237531291
 10
195.0786167437176
 20
13.83771005144603
 10
194.9025880142169
 20
13.83700841847731
 10
194.7506104154195
 20
13.83911332229988
 10
194.6228357664555
 20
13.8335968076764
 10
194.5541077836581
 20
13.84448077125942
 10
194.4918349042884
 20
13.82931786684209
 10
194.5040616290018
 20
13.88057510805171
 10
194.4960004462598
 20
13.92582473272425
 10
194.5040675809893
 20
13.97106357955323
 10
194.4918238487084
 20
14.02234176909958
 10
194.5525017120699
 20
14.00749577363134
 10
194.6162810745737
 20
14.01756448170735
 10
194.7277314353503
 20
14.01294644211999
 10
194.8497533443824
 20
14.01413328905469
 10
194.9719538137824
 20
14.01515863900635
 10
195.0829794287392
 20
14.01092475623402
 10
195.1476517413959
 20
14.02018584521739
 10
195.2091162810502
 20
14.00604423049682
 10
195.1930065601337
 20
14.07235527884516
 10
195.204298032736
 20
14.14447790121976
 10
195.1987400822561
 20
14.27513760888286
 10
195.2008035061691
 20
14.42607323708241
 10
195.2000167127295
 20
14.59335873107886
 10
195.2007845215628
 20
14.76061110332302
 10
195.198803878563
 20
14.91163289269914
 10
195.2041306156621
 20
15.04206069552994
 10
195.1933101388426
 20
15.11465442605899
 10
195.2090326429876
 20
15.18150469436798
 10
195.1432708132491
 20
15.16580512490824
 10
195.0756367830764
 20
15.17609243083996
 10
194.961588529381
 20
15.17113786847121
 10
194.8451242674903
 20
15.17414128030475
 10
194.7306554121477
 20
15.16880303143389
 10
194.6640324657812
 20
15.18001268074824
 10
194.5990769715186
 20
15.16349132665011
 10
194.6107989758707
 20
15.21473720477058
 10
194.6032830189122
 20
15.25950333784091
 10
194.6107989878834
 20
15.30426944897961
 10
194.5990769505347
 20
15.35551536129741
 10
194.6640326339199
 20
15.33899381766815
 10
194.7306533339822
 20
15.35020571373943
 10
194.8451352858064
 20
15.34485436710665
 10
194.9615454436963
 20
15.34791188771117
 10
195.0757660174641
 20
15.34278499010708
 10
195.1430150439228
 20
15.35345733355599
 10
195.2083325941439
 20
15.33742082669076
 10
195.1941391448553
 20
15.39949685750053
 10
195.2036059462996
 20
15.46586761628763
 10
195.1990269004085
 20
15.58239972741966
 10
195.2007696555949
 20
15.71426685022376
 10
195.1997551495392
 20
15.85615960150273
 10
195.2017191344372
 20
15.9876905070258
 10
195.1964668553852
 20
16.10524577283002
 10
195.2073408763475
 20
16.16947789001584
 10
195.1919536641854
 20
16.23108802545047
 10
195.2407591537801
 20
16.21702407382111
 10
195.2853995564726
 20
16.21954742075314
 10
195.3538643946741
 20
16.21512797401709
 10
195.3959106169103
 20
16.20613025544035
 10
195.4487544758775
 20
16.2141171486651
 10
195.4207035002014
 20
16.17113917611677
 10
195.3749142248595
 20
16.18259552043834
 10
195.3869539073265
 20
16.12173520005136
 10
195.3796086070643
 20
16.05769299468773
 10
195.3831195826162
 20
15.94909368863911
 10
195.3819806760175
 20
15.82494319144753
 10
195.3819174780263
 20
15.69189719829878
 10
195.3832872966868
 20
15.56797381249555
 10
195.3791638801314
 20
15.45868337849339
 10
195.3877763103565
 20
15.3960858009417
 10
195.3746757454402
 20
15.33740133296365
 10
195.4393884328199
 20
15.35362113810902
 10
195.5060405953157
 20
15.34270260383311
 10
195.6198779541103
 20
15.34793740173756
 10
195.7357259122097
 20
15.34485547516913
 10
195.8496924263281
 20
15.35018259812513
 10
195.9160341018099
 20
15.33904208166542
 10
195.9807188525481
 20
15.35546979593177
 10
195.9689820772723
 20
15.3042592521005
 10
195.9765168063042
 20
15.25950334121001
 10
195.9689820992259
 20
15.21474739010027
 10
195.9807188140737
 20
15.16353690871041
 10
195.9160344075253
 20
15.1799642779422
 10
195.8496886430826
 20
15.1688278444727
 10
195.7357459487013
 20
15.1741311589312
 10
195.6197995623055
 20
15.17114764593544
 10
195.5062756882124
 20
15.17606892268393
 10
195.4389231318805
 20
15.1658508751352
 10
195.3734285122496
 20
15.18145996138816
 10
195.3891713619218
 20
15.11463851827411
 10
195.3783275998215
 20
15.04207057815878
 10
195.3836581629792
 20
14.91162247614416
 10
195.3817136151857
 20
14.76064558185226
 10
195.3823133683214
 20
14.59322243934158
 10
195.3821506559606
 20
14.42656176118371
 10
195.3821895488135
 20
14.27360142921636
 10
195.38218164131
 20
14.14849178985705
 10
195.3821828382745
 20
14.0650789099142
 10
195.3821827716209
 20
14.02491778281976
 10
195.3821827564384
 20
14.01410517385757
 97
        1
330
AD
 75
     1
 76
     2
 52
45.0
 41
0.1
 77
     0
 78
     1
 53
45.0
 43
0.0
 44
0.0
 45
-0.282842712474619
 46
0.0
 79
     0
 98
        1
 10
0.0
 20
0.0
  0
HATCH
  5
CB
330
48
100
AcDbEntity
  8
1
  6
Continuous
 62
     2
100
AcDbHatch
 10
0.0
 20
0.0
 30
0.0
210
0.0
220
0.0
230
1.0
  2
CUSTOM13
 70
     0
 71
     1
 91
        1
 92
        1
 93
        3
 72
     4
 94
        3
 73
     0
 74
     0
 95
       24
 96
       20
 40
0.0
 40
0.0
 40
0.0
 40
0.0
 40
0.2211075008753642
 40
0.4273218586245305
 40
0.5080174679239067
 40
0.5914835907869425
 40
0.8143265690191785
 40
1.054651302686482
 40
1.295452694023077
 40
1.518109231328738
 40
1.540864321905326
 40
1.595126460622587
 40
1.6598909478959
 40
1.714153085187203
 40
1.736908174961503
 40
1.764951100735159
 40
1.80156229122072
 40
1.953914424543401
 40
2.126104167379485
 40
2.126104167379485
 40
2.126104167379485
 40
2.126104167379485
 10
185.9375369556889
 20
15.58989295113015
 10
185.9112579081812
 20
15.53097628234373
 10
185.8604698894426
 20
15.41711139679254
 10
185.8131784839112
 20
15.14441958233116
 10
185.7043482802618
 20
15.24445482575453
 10
185.5514800279638
 20
15.27118593367334
 10
185.76861551812
 20
15.48518135017631
 10
185.7838483674381
 20
15.70332117782488
 10
185.8906889492001
 20
15.88451579066424
 10
185.8305380947078
 20
16.16913226311403
 10
185.9334317395402
 20
16.1411408922245
 10
185.977993346815
 20
16.13243251602299
 10
186.0380842395397
 20
16.12139654183356
 10
186.0756619587439
 20
16.10767523055559
 10
186.1252466928606
 20
16.10756076160224
 10
186.0930158919326
 20
16.07306592398622
 10
186.0171802221882
 20
16.08404104537965
 10
186.0429447159694
 20
15.89858969582449
 10
186.005589676385
 20
15.80702313549589
 10
185.9857704961609
 20
15.75844135397706
 72
     4
 94
        3
 73
     0
 74
     0
 95
       70
 96
       66
 40
0.0
 40
0.0
 40
0.0
 40
0.0
 40
0.0241731073021472
 40
0.0846058988987013
 40
0.1631685280353284
 40
0.2417311571789756
 40
0.3021639488292751
 40
0.3263370654895541
 40
0.3533118254248881
 40
0.4228783438922076
 40
0.5179999095313313
 40
0.621639823946596
 40
0.7167613891499528
 40
0.7863279069649686
 40
0.8133026791761623
 40
0.837294399877146
 40
0.8945054261372656
 40
0.9627895541962423
 40
1.020000580349053
 40
1.043992300975151
 40
1.071934345522854
 40
1.113121768772895
 40
1.145225199332219
 40
1.225483775412751
 40
1.329819923771457
 40
1.434156071994347
 40
1.514414647795763
 40
1.546518078208371
 40
1.578974764260145
 40
1.66267884931414
 40
1.777131373668388
 40
1.901833377474808
 40
2.016285900500626
 40
2.099989982527993
 40
2.132446666570352
 40
2.158782354486076
 40
2.216720867907864
 40
2.274659381334289
 40
2.300995069256222
 40
2.333451754066194
 40
2.417155836543903
 40
2.531608358985342
 40
2.656310362283866
 40
2.770762886388998
 40
2.854466971340192
 40
2.886923657363998
 40
2.913597976833432
 40
2.982389642875234
 40
3.0764517169471
 40
3.178937260458713
 40
3.272999334740118
 40
3.341791001059341
 40
3.368465320663653
 40
3.396976080738875
 40
3.472140811846111
 40
3.5784081903088
 40
3.700226892456237
 40
3.822045594634454
 40
3.928312973256561
 40
4.003477705314958
 40
4.031988456867023
 40
4.058324144797823
 40
4.116262658236992
 40
4.174201171400798
 40
4.200536849608734
 40
4.200536849608734
 40
4.200536849608734
 40
4.200536849608734
 10
185.9857704961609
 20
15.75844135397706
 10
185.9938259544679
 20
15.75844359811687
 10
186.0220200663241
 20
15.75845146032799
 10
186.0765534803672
 20
15.75830754828372
 10
186.1482891808604
 20
15.75909120499899
 10
186.2236240137062
 20
15.75627570463812
 10
186.2713052366439
 20
15.76298403400958
 10
186.3195071245616
 20
15.75197563692433
 10
186.3062571799873
 20
15.80546402997034
 10
186.3151093964538
 20
15.86049583543092
 10
186.3108698036285
 20
15.95419908726109
 10
186.313348348128
 20
16.04959482218532
 10
186.3090938706059
 20
16.14356821983386
 10
186.3179818665847
 20
16.19795062438011
 10
186.3046977409945
 20
16.25233997691459
 10
186.3514119277109
 20
16.23842216335357
 10
186.3943254545736
 20
16.24103877374042
 10
186.4605443456685
 20
16.23648422450754
 10
186.5013342271798
 20
16.2277816213416
 10
186.5525145690818
 20
16.23531799890194
 10
186.52537204872
 20
16.19349970223284
 10
186.4803096055706
 20
16.20284992072597
 10
186.4942065045051
 20
16.13841207371838
 10
186.4858414431653
 20
16.07378219627399
 10
186.4903632178398
 20
15.97529141193888
 10
186.4854741311167
 20
15.87595932842571
 10
186.4950258992082
 20
15.81293115552969
 10
186.47997614552
 20
15.7496401149979
 10
186.5449159457208
 20
15.7651507294427
 10
186.6116246399497
 20
15.75499387697813
 10
186.7241435470827
 20
15.75988800099368
 10
186.8390235448954
 20
15.75691204732784
 10
186.9519871999747
 20
15.76221664184992
 10
187.0176267597679
 20
15.7510730647209
 10
187.0816276691054
 20
15.76744532319858
 10
187.070314288919
 20
15.71761689905276
 10
187.077533987151
 20
15.67416715212124
 10
187.070314261127
 20
15.63071745587446
 10
187.0816277175995
 20
15.58088895196877
 10
187.0176263598972
 20
15.59726166091363
 10
186.951992124046
 20
15.58611271661589
 10
186.8389974317332
 20
15.59144857206855
 10
186.7242456548643
 20
15.58834345663822
 10
186.6113183686861
 20
15.5936489468259
 10
186.5455220903584
 20
15.58257300019593
 10
186.4816097975358
 20
15.59887597847619
 10
186.4936015165125
 20
15.54423524395742
 10
186.4862104613006
 20
15.48854295047843
 10
186.4892684841983
 20
15.39649689140571
 10
186.4893422785683
 20
15.30179109873102
 10
186.486031357836
 20
15.20952782902266
 10
186.4939505989904
 20
15.15435768736141
 10
186.4815076611617
 20
15.10058169100137
 10
186.5389116551631
 20
15.11453768862782
 10
186.5994708140383
 20
15.10511457884227
 10
186.7048680855081
 20
15.10942885928705
 10
186.8204294070622
 20
15.10835504612032
 10
186.9359688877797
 20
15.10725965900995
 10
187.0414181130841
 20
15.11162525770633
 10
187.1018680471805
 20
15.10209426030672
 10
187.1592837739109
 20
15.1161728960638
 10
187.1477773876709
 20
15.06707153265683
 10
187.1537566781749
 20
15.02564658018649
 10
187.1520311050801
 20
14.97651677966695
 10
187.1521500122971
 20
14.94854428447607
 10
187.1521871691833
 20
14.93980288195949
 72
     4
 94
        3
 73
     0
 74
     0
 95
       62
 96
       58
 40
0.0
 40
0.0
 40
0.0
 40
0.0
 40
0.0598250028308485
 40
0.2024846486897331
 40
0.3727558389221031
 40
0.515415484793607
 40
0.5752404975785339
 40
0.9332326775487172
 40
1.290451762839485
 40
1.602077253145936
 40
1.699931634112227
 40
1.79935975642516
 40
2.270120149657199
 40
2.804661928461659
 40
2.882342287383372
 40
3.076543185719222
 40
3.329004354835682
 40
3.581465524568509
 40
3.775666424543793
 40
3.853346784558413
 40
3.899120679595159
 40
3.984129341792157
 40
4.029903236817505
 40
4.105797496059662
 40
4.295533144152623
 40
4.542189486611868
 40
4.78884582887582
 40
4.978581476410204
 40
5.054475735244448
 40
5.621734664339471
 40
6.130867242037417
 40
6.22524978094871
 40
6.318913039727399
 40
6.663579954559024
 40
7.047498900224872
 40
7.435230791575796
 40
7.498943906668208
 40
7.650875181210145
 40
7.832212509001627
 40
7.984143783697013
 40
8.04785689890314
 40
8.09155463273265
 40
8.172707566964316
 40
8.216405300768045
 40
8.289021782160901
 40
8.462184160757246
 40
8.668861838005355
 40
8.84202421526389
 40
8.914640695475086
 40
8.989881580861294
 40
9.1554115288272
 40
9.320941477743983
 40
9.396182352487235
 40
9.454709011143782
 40
9.583467660170717
 40
9.712226309012996
 40
9.77075295798945
 40
9.77075295798945
 40
9.77075295798945
 40
9.77075295798945
 10
187.1521871691833
 20
14.93980288195949
 10
187.1322348171623
 20
14.93980875568671
 10
187.0647037716466
 20
14.93982863806156
 10
186.9410612161788
 20
14.93949362520325
 10
186.7863180150056
 20
14.94107673750511
 10
186.669734948248
 20
14.93686078860494
 10
186.455094263424
 20
14.95215205331625
 10
186.8518948407229
 20
14.59198721286191
 10
186.8945656069267
 20
14.37510503397166
 10
187.3189162146612
 20
14.19325062511442
 10
187.1439821496074
 20
14.08985196568073
 10
187.0194523925084
 20
13.87831523212725
 10
186.7666277235943
 20
14.34806081001561
 10
186.4797602893628
 20
14.99511516984522
 10
186.4906335926659
 20
14.68782672154694
 10
186.488289277796
 20
14.52288616971778
 10
186.4861096126411
 20
14.28879670711693
 10
186.4980774396346
 20
14.04498072421783
 10
186.4687984740631
 20
13.89855796860984
 10
186.511452262547
 20
13.75113490174538
 10
186.4239814005639
 20
13.7668579730622
 10
186.3768527606744
 20
13.76694303543455
 10
186.2898973207713
 20
13.75109425482909
 10
186.3313474021722
 20
13.89527771422762
 10
186.3029875004286
 20
14.03855052698455
 10
186.31459737753
 20
14.27674947365265
 10
186.3124175648272
 20
14.50517235240347
 10
186.3103111127993
 20
14.66705729375996
 10
186.3208035438323
 20
14.98153709333753
 10
186.0128963252892
 20
14.29229470872436
 10
185.7055258267458
 20
13.81476750243064
 10
185.5851367066274
 20
14.03741112637425
 10
185.4074607910722
 20
14.15011034955567
 10
185.8853326362894
 20
14.3254814346546
 10
185.9353959057208
 20
14.56091929252031
 10
186.3583799621717
 20
14.95322989344606
 10
186.127675427354
 20
14.93655307029065
 10
186.0049685859341
 20
14.94269518948769
 10
185.8325483095662
 20
14.93312822699574
 10
185.721322469445
 20
14.95448818489665
 10
185.6025779627449
 20
14.92136265357419
 10
185.6183169706686
 20
15.00203900606883
 10
185.6178550933764
 20
15.04645414290854
 10
185.6027881889932
 20
15.12967081778533
 10
185.7372380935444
 20
15.09062651983884
 10
185.8619755545747
 20
15.11739729328423
 10
186.062875523728
 20
15.10063949044053
 10
186.1921540949353
 20
15.12204225913005
 10
186.3328419928294
 20
15.08868778853421
 10
186.2980927452615
 20
15.22651875785069
 10
186.3222185666713
 20
15.34963257349482
 10
186.2967086182392
 20
15.47024055670336
 10
186.3333251146685
 20
15.60539865141496
 10
186.2211417027769
 20
15.58094545781892
 10
186.1280356457136
 20
15.59307749842024
 10
186.0191547579819
 20
15.58957630069994
 10
185.9569697640964
 20
15.58981755951604
 10
185.9375369557246
 20
15.58989295124145
 97
        3
330
AF
330
B0
330
AE
 75
     1
 76
     2
 52
45.0
 41
0.1
 77
     0
 78
     1
 53
45.0
 43
0.0
 44
0.0
 45
-0.282842712474619
 46
0.0
 79
     0
 98
        1
 10
0.0
 20
0.0
  0
HATCH
  5
CC
330
48
100
AcDbEntity
  8
1
  6
Continuous
 62
     2
100
AcDbHatch
 10
0.0
 20
0.0
 30
0.0
210
0.0
220
0.0
230
1.0
  2
CUSTOM14
 70
     0
 71
     1
 91
        1
 92
        1
 93
        4
 72
     1
 10
192.4578138032672
 20
15.22875434022058
 11
191.1602971697032
 21
15.22875434022058
 72
     1
 10
191.1602971697032
 20
15.22875434022058
 11
191.1602971697032
 21
15.39722336795624
 72
     1
 10
191.1602971697032
 20
15.39722336795624
 11
192.4578138032672
 21
15.39722336795624
 72
     1
 10
192.4578138032672
 20
15.39722336795624
 11
192.4578138032672
 21
15.22875434022058
 97
        1
330
B1
 75
     1
 76
     2
 52
45.0
 41
0.1
 77
     0
 78
     1
 53
45.0
 43
0.0
 44
0.0
 45
-0.282842712474619
 46
0.0
 79
     0
 98
        1
 10
0.0
 20
0.0
  0
ENDBLK
  5
4A
330
48
100
AcDbEntity
  8
0
100
AcDbBlockEnd
  0
BLOCK
  5
4D
330
4B
100
AcDbEntity
  8
0
100
AcDbBlockBegin
  2
開示A4枠
 70
     0
 10
0.0
 20
0.0
 30
0.0
  3
開示A4枠
  1

  0
INSERT
  5
4C
330
4B
100
AcDbEntity
  8
1
100
AcDbBlockReference
  2
開示A4
 10
0.0
 20
0.0
 30
0.0
  0
ENDBLK
  5
4E
330
4B
100
AcDbEntity
  8
0
100
AcDbBlockEnd
  0
BLOCK
  5
EE
330
E7
100
AcDbEntity
  8
0
100
AcDbBlockBegin
  2
*D3
 70
     1
 10
0.0
 20
0.0
 30
0.0
  3
*D3
  1

  0
LINE
  5
E8
330
E7
100
AcDbEntity
  8
0
  6
Continuous
 62
     2
100
AcDbLine
 10
152.526659831874
 20
103.3606832343818
 30
0.0
 11
152.526659831874
 21
118.3606832343818
 31
0.0
  0
LINE
  5
E9
330
E7
100
AcDbEntity
  8
0
  6
Continuous
 62
     2
100
AcDbLine
 10
137.4862778641664
 20
118.3606832343818
 30
0.0
 11
153.526659831874
 21
118.3606832343818
 31
0.0
  0
LINE
  5
EA
330
E7
100
AcDbEntity
  8
0
  6
Continuous
 62
     2
100
AcDbLine
 10
144.4862778641664
 20
103.3606832343818
 30
0.0
 11
153.526659831874
 21
103.3606832343818
 31
0.0
  0
SOLID
  5
EB
330
E7
100
AcDbEntity
  8
0
 62
     2
100
AcDbTrace
 10
152.0658760903181
 20
106.8606832343818
 30
0.0
 11
152.9874435734299
 21
106.8606832343818
 31
0.0
 12
152.526659831874
 22
103.3606832343818
 32
0.0
 13
152.526659831874
 23
103.3606832343818
 33
0.0
  0
SOLID
  5
EC
330
E7
100
AcDbEntity
  8
0
 62
     2
100
AcDbTrace
 10
152.9874435734299
 20
114.8606832343818
 30
0.0
 11
152.0658760903181
 21
114.8606832343818
 31
0.0
 12
152.526659831874
 22
118.3606832343818
 32
0.0
 13
152.526659831874
 23
118.3606832343818
 33
0.0
  0
MTEXT
  5
ED
330
E7
100
AcDbEntity
  8
0
 62
     7
100
AcDbMText
 10
151.526659831874
 20
108.1465573810957
 30
0.0
 40
3.5
 41
0.0
 71
     7
 72
     1
  1
15
  7
CONVERTER_12
 11
0.0
 21
1.0
 31
0.0
 73
     1
 44
0.60024009603842
  0
ENDBLK
  5
EF
330
E7
100
AcDbEntity
  8
0
100
AcDbBlockEnd
  0
BLOCK
  5
F7
330
F2
100
AcDbEntity
  8
0
100
AcDbBlockBegin
  2
*D4
 70
     1
 10
0.0
 20
0.0
 30
0.0
  3
*D4
  1

  0
LINE
  5
F3
330
F2
100
AcDbEntity
  8
1
  6
Continuous
 62
     2
100
AcDbLine
 10
101.5480265533869
 20
167.969642416095
 30
0.0
 11
142.3808795639178
 21
214.1071347766331
 31
0.0
  0
SOLID
  5
F4
330
F2
100
AcDbEntity
  8
1
 62
     2
100
AcDbTrace
 10
120.9196682564379
 20
190.5531390316569
 30
0.0
 11
121.6097786910581
 21
189.9423737625418
 31
0.0
 12
118.9451120713526
 22
187.6268018110989
 32
0.0
 13
118.9451120713526
 23
187.6268018110989
 33
0.0
  0
SOLID
  5
F5
330
F2
100
AcDbEntity
  8
1
 62
     2
100
AcDbTrace
 10
103.0528874718948
 20
168.9747370745377
 30
0.0
 11
102.3627770372745
 21
169.5855023436528
 31
0.0
 12
105.0274436569801
 22
171.9010742950958
 32
0.0
 13
105.0274436569801
 23
171.9010742950958
 33
0.0
  0
MTEXT
  5
F6
330
F2
100
AcDbEntity
  8
1
 62
     7
100
AcDbMText
 10
136.9464203636503
 20
209.4755526278822
 30
0.0
 40
3.5
 41
0.0
 71
     7
 72
     1
  1
\C7;{\Fgdt;n}\C7;21
  7
CONVERTER_12
 11
0.6627461149701206
 21
0.7488441674287191
 31
0.0
 73
     1
 44
0.60024009603842
  0
ENDBLK
  5
F8
330
F2
100
AcDbEntity
  8
0
100
AcDbBlockEnd
  0
BLOCK
  5
FF
330
FA
100
AcDbEntity
  8
0
100
AcDbBlockBegin
  2
*D5
 70
     1
 10
0.0
 20
0.0
 30
0.0
  3
*D5
  1

  0
LINE
  5
FB
330
FA
100
AcDbEntity
  8
1
  6
Continuous
 62
     2
100
AcDbLine
 10
79.23636779293567
 20
198.5390782743128
 30
0.0
 11
154.3630139275255
 21
155.4698511387661
 31
0.0
  0
SOLID
  5
FC
330
FA
100
AcDbEntity
  8
1
 62
     2
100
AcDbTrace
 10
143.4471531469127
 20
162.2589202553352
 30
0.0
 11
142.9888072205885
 21
161.459416885892
 31
0.0
 12
140.1815646804577
 22
163.5999100480773
 32
0.0
 13
140.1815646804577
 23
163.5999100480773
 33
0.0
  0
SOLID
  5
FD
330
FA
100
AcDbEntity
  8
1
 62
     2
100
AcDbTrace
 10
80.52540258142005
 20
197.2689558508594
 30
0.0
 11
80.9837485077442
 21
198.0684592203025
 31
0.0
 12
83.79099104787502
 22
195.9279660581172
 32
0.0
 13
83.79099104787502
 23
195.9279660581172
 33
0.0
  0
MTEXT
  5
FE
330
FA
100
AcDbEntity
  8
1
 62
     7
100
AcDbMText
 10
147.8158846677327
 20
160.375918653137
 30
0.0
 40
3.5
 41
0.0
 71
     7
 72
     1
  1
\C7;{\Fgdt;n}\C7;65
  7
CONVERTER_12
 11
0.8675472866551173
 21
-0.4973547078467677
 31
0.0
 73
     1
 44
0.60024009603842
  0
ENDBLK
  5
100
330
FA
100
AcDbEntity
  8
0
100
AcDbBlockEnd
  0
ENDSEC
  0
SECTION
  2
ENTITIES
  0
INSERT
  5
4F
330
1F
100
AcDbEntity
  8
0
100
AcDbBlockReference
  2
開示A4枠
 10
0.0
 20
0.0
 30
0.0
  0
LINE
  5
CD
330
1F
100
AcDbEntity
  8
1
  6
DASH_CENTER
 62
     2
100
AcDbLine
 10
76.48627786416635
 20
179.7639380530973
 30
0.0
 11
147.4862778641664
 21
179.7639380530973
 31
0.0
  0
LINE
  5
CE
330
1F
100
AcDbEntity
  8
1
  6
DASH_CENTER
 62
     2
100
AcDbLine
 10
111.9862778641664
 20
215.2639380530973
 30
0.0
 11
111.9862778641664
 21
144.2639380530973
 31
0.0
  0
LINE
  5
CF
330
1F
100
AcDbEntity
  8
1
  6
Continuous
 62
     7
100
AcDbLine
 10
100.112936786506
 20
118.3606832343818
 30
0.0
 11
100.4862778641664
 21
118.3606832343818
 31
0.0
  0
LINE
  5
D0
330
1F
100
AcDbEntity
  8
1
  6
Continuous
 62
     7
100
AcDbLine
 10
143.9862778641664
 20
103.3606832343818
 30
0.0
 11
79.48627786416635
 21
103.3606832343818
 31
0.0
  0
LINE
  5
D1
330
1F
100
AcDbEntity
  8
1
  6
Continuous
 62
     7
100
AcDbLine
 10
144.4862778641664
 20
103.3606832343818
 30
0.0
 11
143.9862778641664
 21
103.3606832343818
 31
0.0
  0
LINE
  5
D2
330
1F
100
AcDbEntity
  8
1
  6
Continuous
 62
     7
100
AcDbLine
 10
79.48627786416635
 20
103.3606832343818
 30
0.0
 11
79.48627786416635
 21
111.3606832343818
 31
0.0
  0
LINE
  5
D3
330
1F
100
AcDbEntity
  8
1
  6
Continuous
 62
     7
100
AcDbLine
 10
86.48627786416635
 20
118.3606832343818
 30
0.0
 11
137.4862778641664
 21
118.3606832343818
 31
0.0
  0
LINE
  5
D4
330
1F
100
AcDbEntity
  8
1
  6
Continuous
 62
     7
100
AcDbLine
 10
144.4862778641664
 20
111.3606832343818
 30
0.0
 11
144.4862778641664
 21
103.3606832343818
 31
0.0
  0
LINE
  5
D5
330
1F
100
AcDbEntity
  8
1
  6
DASH_CENTER
 62
     2
100
AcDbLine
 10
111.9862778641664
 20
100.3606832343818
 30
0.0
 11
111.9862778641664
 21
121.3606832343818
 31
0.0
  0
CIRCLE
  5
D6
330
1F
100
AcDbEntity
  8
1
  6
Continuous
 62
     7
100
AcDbCircle
 10
111.9862778641664
 20
179.7639380530973
 30
0.0
 40
32.5
  0
CIRCLE
  5
D7
330
1F
100
AcDbEntity
  8
1
  6
Continuous
 62
     7
100
AcDbCircle
 10
111.9862778641664
 20
179.7639380530973
 30
0.0
 40
10.5
  0
ARC
  5
D8
330
1F
100
AcDbEntity
  8
1
  6
Continuous
 62
     7
100
AcDbCircle
 10
86.48627786416635
 20
111.3606832343818
 30
0.0
 40
7.0
100
AcDbArc
 50
90.0
 51
180.0
  0
ARC
  5
D9
330
1F
100
AcDbEntity
  8
1
  6
Continuous
 62
     7
100
AcDbCircle
 10
137.4862778641664
 20
111.3606832343818
 30
0.0
 40
7.0
100
AcDbArc
 50
0.0
 51
90.0
  0
MTEXT
  5
DB
330
1F
100
AcDbEntity
  8
1
 62
     7
100
AcDbMText
 10
157.5
 20
12.5
 30
0.0
 40
2.5
 41
0.0
 71
     5
 72
     1
  1
3
  7
CONVERTER_12
 73
     1
 44
0.7202881152461
  0
MTEXT
  5
DC
330
1F
100
AcDbEntity
  8
1
 62
     7
100
AcDbMText
 10
151.75
 20
12.5
 30
0.0
 40
2.5
 41
0.0
 71
     5
 72
     1
  1
04
  7
CONVERTER_12
 73
     1
 44
0.7202881152461
  0
MTEXT
  5
DD
330
1F
100
AcDbEntity
  8
1
 62
     7
100
AcDbMText
 10
140.5
 20
12.5
 30
0.0
 40
2.5
 41
0.0
 71
     5
 72
     1
  1
3
  7
CONVERTER_12
 73
     1
 44
0.7202881152461
  0
MTEXT
  5
DE
330
1F
100
AcDbEntity
  8
1
 62
     7
100
AcDbMText
 10
134.75
 20
12.5
 30
0.0
 40
2.5
 41
0.0
 71
     5
 72
     1
  1
04
  7
CONVERTER_12
 73
     1
 44
0.7202881152461
  0
MTEXT
  5
DF
330
1F
100
AcDbEntity
  8
1
 62
     7
100
AcDbMText
 10
123.5
 20
12.5
 30
0.0
 40
2.5
 41
0.0
 71
     5
 72
     1
  1
3
  7
CONVERTER_12
 73
     1
 44
0.7202881152461
  0
MTEXT
  5
E0
330
1F
100
AcDbEntity
  8
1
 62
     7
100
AcDbMText
 10
117.75
 20
12.5
 30
0.0
 40
2.5
 41
0.0
 71
     5
 72
     1
  1
04
  7
CONVERTER_12
 73
     1
 44
0.7202881152461
  0
MTEXT
  5
E1
330
1F
100
AcDbEntity
  8
1
 62
     7
100
AcDbMText
 10
100.75
 20
12.5
 30
0.0
 40
2.5
 41
0.0
 71
     5
 72
     1
  1
04
  7
CONVERTER_12
 73
     1
 44
0.7202881152461
  0
MTEXT
  5
E2
330
1F
100
AcDbEntity
  8
1
 62
     7
100
AcDbMText
 10
106.5
 20
12.5
 30
0.0
 40
2.5
 41
0.0
 71
     5
 72
     1
  1
3
  7
CONVERTER_12
 73
     1
 44
0.7202881152461
  0
MTEXT
  5
E3
330
1F
100
AcDbEntity
  8
1
 62
     7
100
AcDbMText
 10
93.75
 20
16.99999999999999
 30
0.0
 40
3.5
 41
0.0
 71
     5
 72
     1
  1
1
  7
CONVERTER_12
 73
     1
 44
0.7202881152461
  0
MTEXT
  5
E4
330
1F
100
AcDbEntity
  8
1
 62
     7
100
AcDbMText
 10
57.0
 20
14.24999999999999
 30
0.0
 40
3.5
 41
0.0
 71
     5
 72
     1
  1
R53
  7
CONVERTER_12
 73
     1
 44
0.7202881152461
  0
MTEXT
  5
E5
330
1F
100
AcDbEntity
  8
1
 62
     7
100
AcDbMText
 10
57.0
 20
22.75000000000001
 30
0.0
 40
3.5
 41
0.0
 71
     5
 72
     1
  1
ユニット金具化粧座金
  7
CONVERTER_11
 73
     1
 44
0.54545454545455
  0
MTEXT
  5
E6
330
1F
100
AcDbEntity
  8
1
 62
     7
100
AcDbMText
 10
85.25
 20
16.99999999999999
 30
0.0
 40
3.5
 41
0.0
 71
     5
 72
     1
  1
1
  7
CONVERTER_12
 73
     1
 44
0.7202881152461
  0
DIMENSION
  5
F1
330
1F
100
AcDbEntity
  8
0
100
AcDbDimension
  2
*D3
 10
152.526659831874
 20
103.3606832343818
 30
0.0
 11
149.776659831874
 21
110.2465573810957
 31
0.0
 70
    32
  1
<>
 71
     5
 42
-1.0
 53
90.0
  3
ME10_DIM_10
100
AcDbAlignedDimension
 13
137.4862778641664
 23
118.3606832343818
 33
0.0
 14
144.4862778641664
 24
103.3606832343818
 34
0.0
 50
90.0
100
AcDbRotatedDimension
  0
INSERT
  5
F9
330
1F
100
AcDbEntity
  8
1
100
AcDbBlockReference
  2
*D4
 10
0.0
 20
0.0
 30
0.0
  0
INSERT
  5
101
330
1F
100
AcDbEntity
  8
1
100
AcDbBlockReference
  2
*D5
 10
0.0
 20
0.0
 30
0.0
  0
ENDSEC
  0
SECTION
  2
OBJECTS
  0
DICTIONARY
  5
C
330
0
100
AcDbDictionary
281
     1
  3
ACAD_GROUP
350
D
  3
ACAD_LAYOUT
350
1A
  3
ACAD_MATERIAL
350
3B
  3
ACAD_MLEADERSTYLE
350
104
  3
ACAD_MLINESTYLE
350
17
  3
ACAD_PLOTSETTINGS
350
19
  3
ACAD_PLOTSTYLENAME
350
E
  3
ACAD_VISUALSTYLE
350
2A
  3
AcDbVariableDictionary
350
102
  0
DICTIONARY
  5
D
102
{ACAD_REACTORS
330
C
102
}
330
C
100
AcDbDictionary
281
     1
  0
DICTIONARY
  5
1A
102
{ACAD_REACTORS
330
C
102
}
330
C
100
AcDbDictionary
281
     1
  3
Layout1
350
1E
  3
Layout2
350
26
  3
Model
350
22
  0
DICTIONARY
  5
3B
102
{ACAD_REACTORS
330
C
102
}
330
C
100
AcDbDictionary
281
     1
  3
ByBlock
350
3D
  3
ByLayer
350
3C
  3
Global
350
3E
  0
DICTIONARY
  5
104
102
{ACAD_REACTORS
330
C
102
}
330
C
100
AcDbDictionary
281
     1
  0
DICTIONARY
  5
17
102
{ACAD_REACTORS
330
C
102
}
330
C
100
AcDbDictionary
281
     1
  3
Standard
350
18
  0
DICTIONARY
  5
19
102
{ACAD_REACTORS
330
C
102
}
330
C
100
AcDbDictionary
281
     1
  0
ACDBDICTIONARYWDFLT
  5
E
102
{ACAD_REACTORS
330
C
102
}
330
C
100
AcDbDictionary
281
     1
  3
Normal
350
F
100
AcDbDictionaryWithDefault
340
F
  0
DICTIONARY
  5
2A
102
{ACAD_REACTORS
330
C
102
}
330
C
100
AcDbDictionary
281
     1
  3
2dWireframe
350
2F
  3
3D Hidden
350
31
  3
3dWireframe
350
30
  3
Basic
350
32
  3
Brighten
350
36
  3
ColorChange
350
3A
  3
Conceptual
350
34
  3
Dim
350
35
  3
Facepattern
350
39
  3
Flat
350
2B
  3
FlatWithEdges
350
2C
  3
Gouraud
350
2D
  3
GouraudWithEdges
350
2E
  3
Linepattern
350
38
  3
Realistic
350
33
  3
Thicken
350
37
  0
DICTIONARY
  5
102
102
{ACAD_REACTORS
330
C
102
}
330
C
100
AcDbDictionary
281
     1
  3
DIMASSOC
350
105
  3
HIDETEXT
350
106
  0
LAYOUT
  5
1E
102
{ACAD_REACTORS
330
1A
102
}
330
1A
100
AcDbPlotSettings
  1

  2
none_device
  4

  6

 40
0.0
 41
0.0
 42
0.0
 43
0.0
 44
0.0
 45
0.0
 46
0.0
 47
0.0
 48
0.0
 49
0.0
140
0.0
141
0.0
142
1.0
143
1.0
 70
   688
 72
     0
 73
     0
 74
     5
  7

 75
    16
147
1.0
148
0.0
149
0.0
100
AcDbLayout
  1
Layout1
 70
     1
 71
     1
 10
0.0
 20
0.0
 11
12.0
 21
9.0
 12
0.0
 22
0.0
 32
0.0
 14
1.00000000000000E+20
 24
1.00000000000000E+20
 34
1.00000000000000E+20
 15
-1.00000000000000E+20
 25
-1.00000000000000E+20
 35
-1.00000000000000E+20
146
0.0
 13
0.0
 23
0.0
 33
0.0
 16
1.0
 26
0.0
 36
0.0
 17
0.0
 27
1.0
 37
0.0
 76
     0
330
1B
  0
LAYOUT
  5
26
102
{ACAD_REACTORS
330
1A
102
}
330
1A
100
AcDbPlotSettings
  1

  2
none_device
  4

  6

 40
0.0
 41
0.0
 42
0.0
 43
0.0
 44
0.0
 45
0.0
 46
0.0
 47
0.0
 48
0.0
 49
0.0
140
0.0
141
0.0
142
1.0
143
1.0
 70
   688
 72
     0
 73
     0
 74
     5
  7

 75
    16
147
1.0
148
0.0
149
0.0
100
AcDbLayout
  1
Layout2
 70
     1
 71
     2
 10
0.0
 20
0.0
 11
0.0
 21
0.0
 12
0.0
 22
0.0
 32
0.0
 14
0.0
 24
0.0
 34
0.0
 15
0.0
 25
0.0
 35
0.0
146
0.0
 13
0.0
 23
0.0
 33
0.0
 16
1.0
 26
0.0
 36
0.0
 17
0.0
 27
1.0
 37
0.0
 76
     0
330
23
  0
LAYOUT
  5
22
102
{ACAD_REACTORS
330
1A
102
}
330
1A
100
AcDbPlotSettings
  1

  2
none_device
  4

  6

 40
0.0
 41
0.0
 42
0.0
 43
0.0
 44
0.0
 45
0.0
 46
0.0
 47
0.0
 48
0.0
 49
0.0
140
0.0
141
0.0
142
1.0
143
1.0
 70
  1712
 72
     0
 73
     0
 74
     0
  7

 75
     0
147
1.0
148
0.0
149
0.0
100
AcDbLayout
  1
Model
 70
     1
 71
     0
 10
0.0
 20
0.0
 11
12.0
 21
9.0
 12
0.0
 22
0.0
 32
0.0
 14
0.0
 24
0.0
 34
0.0
 15
210.0
 25
297.0
 35
0.0
146
0.0
 13
0.0
 23
0.0
 33
0.0
 16
1.0
 26
0.0
 36
0.0
 17
0.0
 27
1.0
 37
0.0
 76
     0
330
1F
331
29
  0
MATERIAL
  5
3D
102
{ACAD_REACTORS
330
3B
102
}
102
{ACAD_XDICTIONARY
360
129
102
}
330
3B
100
AcDbMaterial
  1
ByBlock
  0
MATERIAL
  5
3C
102
{ACAD_REACTORS
330
3B
102
}
102
{ACAD_XDICTIONARY
360
127
102
}
330
3B
100
AcDbMaterial
  1
ByLayer
  0
MATERIAL
  5
3E
102
{ACAD_REACTORS
330
3B
102
}
102
{ACAD_XDICTIONARY
360
12B
102
}
330
3B
100
AcDbMaterial
  1
Global
  0
MLINESTYLE
  5
18
102
{ACAD_REACTORS
330
17
102
}
330
17
100
AcDbMlineStyle
  2
Standard
 70
     0
  3

 62
   256
 51
90.0
 52
90.0
 71
     2
 49
0.5
 62
   256
  6
BYLAYER
 49
-0.5
 62
   256
  6
BYLAYER
  0
ACDBPLACEHOLDER
  5
F
102
{ACAD_REACTORS
330
E
102
}
330
E
  0
VISUALSTYLE
  5
2F
102
{ACAD_REACTORS
330
2A
102
}
102
{ACAD_XDICTIONARY
360
10F
102
}
330
2A
100
AcDbVisualStyle
  2
2dWireframe
 70
     4
 71
     0
 72
     2
 73
     0
 90
        0
 40
-0.6
 41
-30.0
 62
     5
 63
     7
 74
     1
 91
        4
 64
     7
 65
   257
 75
     1
175
     1
 42
1.0
 92
        0
 66
   257
 43
1.0
 76
     1
 77
     6
 78
     2
 67
     7
 79
     5
170
     0
171
     0
290
     0
174
     0
 93
        1
 44
0.0
173
     0
291
     0
 45
0.0
1001
ACAD
1000
AcDbSavedByObjectVersion
1070
     0
  0
VISUALSTYLE
  5
31
102
{ACAD_REACTORS
330
2A
102
}
102
{ACAD_XDICTIONARY
360
113
102
}
330
2A
100
AcDbVisualStyle
  2
3D Hidden
 70
     6
 71
     1
 72
     2
 73
     2
 90
        0
 40
-0.6
 41
-30.0
 62
     5
 63
     7
 74
     2
 91
        2
 64
     7
 65
   257
 75
     2
175
     1
 42
40.0
 92
        0
 66
   257
 43
1.0
 76
     1
 77
     6
 78
     2
 67
     7
 79
     3
170
     0
171
     0
290
     0
174
     0
 93
        1
 44
0.0
173
     0
291
     0
 45
0.0
1001
ACAD
1000
AcDbSavedByObjectVersion
1070
     0
  0
VISUALSTYLE
  5
30
102
{ACAD_REACTORS
330
2A
102
}
102
{ACAD_XDICTIONARY
360
111
102
}
330
2A
100
AcDbVisualStyle
  2
3dWireframe
 70
     5
 71
     0
 72
     2
 73
     0
 90
        0
 40
-0.6
 41
-30.0
 62
     5
 63
     7
 74
     1
 91
        4
 64
     7
 65
   257
 75
     1
175
     1
 42
1.0
 92
        0
 66
   257
 43
1.0
 76
     1
 77
     6
 78
     2
 67
     7
 79
     5
170
     0
171
     0
290
     0
174
     0
 93
        1
 44
0.0
173
     0
291
     0
 45
0.0
1001
ACAD
1000
AcDbSavedByObjectVersion
1070
     0
  0
VISUALSTYLE
  5
32
102
{ACAD_REACTORS
330
2A
102
}
102
{ACAD_XDICTIONARY
360
115
102
}
330
2A
100
AcDbVisualStyle
  2
Basic
 70
     7
 71
     1
 72
     0
 73
     1
 90
        0
 40
-0.6
 41
-30.0
 62
     5
 63
     7
 74
     0
 91
        4
 64
     7
 65
   257
 75
     1
175
     1
 42
1.0
 92
        8
 66
     7
 43
1.0
 76
     1
 77
     6
 78
     2
 67
     7
 79
     5
170
     0
171
     0
290
     0
174
     0
 93
        1
 44
0.0
173
     0
291
     1
 45
0.0
1001
ACAD
1000
AcDbSavedByObjectVersion
1070
     0
  0
VISUALSTYLE
  5
36
102
{ACAD_REACTORS
330
2A
102
}
102
{ACAD_XDICTIONARY
360
11D
102
}
330
2A
100
AcDbVisualStyle
  2
Brighten
 70
    12
 71
     2
 72
     2
 73
     0
 90
        0
 40
-0.6
 41
-30.0
 62
     5
 63
     7
 74
     1
 91
        4
 64
     7
 65
   257
 75
     1
175
     1
 42
1.0
 92
        8
 66
     7
 43
1.0
 76
     1
 77
     6
 78
     2
 67
     7
 79
     5
170
     0
171
     0
290
     0
174
     0
 93
        1
 44
50.0
173
     0
291
     1
 45
0.0
1001
ACAD
1000
AcDbSavedByObjectVersion
1070
     0
  0
VISUALSTYLE
  5
3A
102
{ACAD_REACTORS
330
2A
102
}
102
{ACAD_XDICTIONARY
360
125
102
}
330
2A
100
AcDbVisualStyle
  2
ColorChange
 70
    16
 71
     2
 72
     2
 73
     3
 90
        0
 40
-0.6
 41
-30.0
 62
     5
 63
     8
 74
     1
 91
        4
 64
     7
 65
   257
 75
     1
175
     1
 42
1.0
 92
        8
 66
     8
 43
1.0
 76
     1
 77
     6
 78
     2
 67
     7
 79
     5
170
     0
171
     0
290
     0
174
     0
 93
        1
 44
0.0
173
     0
291
     1
 45
0.0
1001
ACAD
1000
AcDbSavedByObjectVersion
1070
     0
  0
VISUALSTYLE
  5
34
102
{ACAD_REACTORS
330
2A
102
}
102
{ACAD_XDICTIONARY
360
119
102
}
330
2A
100
AcDbVisualStyle
  2
Conceptual
 70
     9
 71
     3
 72
     2
 73
     0
 90
        0
 40
-0.6
 41
-30.0
 62
     5
 63
     7
 74
     2
 91
        2
 64
     7
 65
   257
 75
     1
175
     1
 42
40.0
 92
        8
 66
     7
 43
1.0
 76
     1
 77
     6
 78
     2
 67
     7
 79
     3
170
     0
171
     0
290
     0
174
     0
 93
        1
 44
0.0
173
     0
291
     0
 45
0.0
1001
ACAD
1000
AcDbSavedByObjectVersion
1070
     0
  0
VISUALSTYLE
  5
35
102
{ACAD_REACTORS
330
2A
102
}
102
{ACAD_XDICTIONARY
360
11B
102
}
330
2A
100
AcDbVisualStyle
  2
Dim
 70
    11
 71
     2
 72
     2
 73
     0
 90
        0
 40
-0.6
 41
-30.0
 62
     5
 63
     7
 74
     1
 91
        4
 64
     7
 65
   257
 75
     1
175
     1
 42
1.0
 92
        8
 66
     7
 43
1.0
 76
     1
 77
     6
 78
     2
 67
     7
 79
     5
170
     0
171
     0
290
     0
174
     0
 93
        1
 44
-50.0
173
     0
291
     1
 45
0.0
1001
ACAD
1000
AcDbSavedByObjectVersion
1070
     0
  0
VISUALSTYLE
  5
39
102
{ACAD_REACTORS
330
2A
102
}
102
{ACAD_XDICTIONARY
360
123
102
}
330
2A
100
AcDbVisualStyle
  2
Facepattern
 70
    15
 71
     2
 72
     2
 73
     0
 90
        0
 40
-0.6
 41
-30.0
 62
     5
 63
     7
 74
     1
 91
        4
 64
     7
 65
   257
 75
     1
175
     1
 42
1.0
 92
        8
 66
     7
 43
1.0
 76
     1
 77
     6
 78
     2
 67
     7
 79
     5
170
     0
171
     0
290
     0
174
     0
 93
        1
 44
0.0
173
     0
291
     1
 45
0.0
1001
ACAD
1000
AcDbSavedByObjectVersion
1070
     0
  0
VISUALSTYLE
  5
2B
102
{ACAD_REACTORS
330
2A
102
}
102
{ACAD_XDICTIONARY
360
107
102
}
330
2A
100
AcDbVisualStyle
  2
Flat
 70
     0
 71
     2
 72
     1
 73
     1
 90
        2
 40
-0.6
 41
30.0
 62
     5
 63
     7
 74
     0
 91
        4
 64
     7
 65
   257
 75
     1
175
     1
 42
1.0
 92
        8
 66
     7
 43
1.0
 76
     1
 77
     6
 78
     2
 67
     7
 79
     5
170
     0
171
     0
290
     0
174
     0
 93
       13
 44
0.0
173
     0
291
     1
 45
0.0
1001
ACAD
1000
AcDbSavedByObjectVersion
1070
     0
  0
VISUALSTYLE
  5
2C
102
{ACAD_REACTORS
330
2A
102
}
102
{ACAD_XDICTIONARY
360
109
102
}
330
2A
100
AcDbVisualStyle
  2
FlatWithEdges
 70
     1
 71
     2
 72
     1
 73
     1
 90
        2
 40
-0.6
 41
30.0
 62
     5
 63
     7
 74
     1
 91
        4
 64
     7
 65
   257
 75
     1
175
     1
 42
1.0
 92
        0
 66
   257
 43
1.0
 76
     1
 77
     6
 78
     2
 67
     7
 79
     5
170
     0
171
     0
290
     0
174
     0
 93
       13
 44
0.0
173
     0
291
     1
 45
0.0
1001
ACAD
1000
AcDbSavedByObjectVersion
1070
     0
  0
VISUALSTYLE
  5
2D
102
{ACAD_REACTORS
330
2A
102
}
102
{ACAD_XDICTIONARY
360
10B
102
}
330
2A
100
AcDbVisualStyle
  2
Gouraud
 70
     2
 71
     2
 72
     2
 73
     1
 90
        2
 40
-0.6
 41
30.0
 62
     5
 63
     7
 74
     0
 91
        4
 64
     7
 65
   257
 75
     1
175
     1
 42
1.0
 92
        0
 66
     7
 43
1.0
 76
     1
 77
     6
 78
     2
 67
     7
 79
     5
170
     0
171
     0
290
     0
174
     0
 93
       13
 44
0.0
173
     0
291
     1
 45
0.0
1001
ACAD
1000
AcDbSavedByObjectVersion
1070
     0
  0
VISUALSTYLE
  5
2E
102
{ACAD_REACTORS
330
2A
102
}
102
{ACAD_XDICTIONARY
360
10D
102
}
330
2A
100
AcDbVisualStyle
  2
GouraudWithEdges
 70
     3
 71
     2
 72
     2
 73
     1
 90
        2
 40
-0.6
 41
30.0
 62
     5
 63
     7
 74
     1
 91
        4
 64
     7
 65
   257
 75
     1
175
     1
 42
1.0
 92
        0
 66
   257
 43
1.0
 76
     1
 77
     6
 78
     2
 67
     7
 79
     5
170
     0
171
     0
290
     0
174
     0
 93
       13
 44
0.0
173
     0
291
     1
 45
0.0
1001
ACAD
1000
AcDbSavedByObjectVersion
1070
     0
  0
VISUALSTYLE
  5
38
102
{ACAD_REACTORS
330
2A
102
}
102
{ACAD_XDICTIONARY
360
121
102
}
330
2A
100
AcDbVisualStyle
  2
Linepattern
 70
    14
 71
     2
 72
     2
 73
     0
 90
        0
 40
-0.6
 41
-30.0
 62
     5
 63
     7
 74
     1
 91
        4
 64
     7
 65
   257
 75
     7
175
     7
 42
1.0
 92
        8
 66
     7
 43
1.0
 76
     1
 77
     6
 78
     2
 67
     7
 79
     5
170
     0
171
     0
290
     0
174
     0
 93
        1
 44
0.0
173
     0
291
     1
 45
0.0
1001
ACAD
1000
AcDbSavedByObjectVersion
1070
     0
  0
VISUALSTYLE
  5
33
102
{ACAD_REACTORS
330
2A
102
}
102
{ACAD_XDICTIONARY
360
117
102
}
330
2A
100
AcDbVisualStyle
  2
Realistic
 70
     8
 71
     2
 72
     2
 73
     0
 90
        0
 40
-0.6
 41
-30.0
 62
     5
 63
     7
 74
     1
 91
        0
 64
     7
 65
   257
 75
     1
175
     1
 42
1.0
 92
        8
 66
     8
 43
1.0
 76
     1
 77
     6
 78
     2
 67
     7
 79
     5
170
     0
171
     0
290
     0
174
     0
 93
       13
 44
0.0
173
     0
291
     0
 45
0.0
1001
ACAD
1000
AcDbSavedByObjectVersion
1070
     0
  0
VISUALSTYLE
  5
37
102
{ACAD_REACTORS
330
2A
102
}
102
{ACAD_XDICTIONARY
360
11F
102
}
330
2A
100
AcDbVisualStyle
  2
Thicken
 70
    13
 71
     2
 72
     2
 73
     0
 90
        0
 40
-0.6
 41
-30.0
 62
     5
 63
     7
 74
     1
 91
        4
 64
     7
 65
   257
 75
     1
175
     1
 42
1.0
 92
       12
 66
     7
 43
1.0
 76
     1
 77
     6
 78
     2
 67
     7
 79
     5
170
     0
171
     0
290
     0
174
     0
 93
        1
 44
0.0
173
     0
291
     1
 45
0.0
1001
ACAD
1000
AcDbSavedByObjectVersion
1070
     0
  0
DICTIONARYVAR
  5
105
102
{ACAD_REACTORS
330
102
102
}
330
102
100
DictionaryVariables
280
     0
  1
2
  0
DICTIONARYVAR
  5
106
102
{ACAD_REACTORS
330
102
102
}
330
102
100
DictionaryVariables
280
     0
  1
1
  0
DICTIONARY
  5
129
330
3D
100
AcDbDictionary
280
     1
281
     1
  3
ACAD_XREC_ROUNDTRIP
360
12A
  0
DICTIONARY
  5
127
330
3C
100
AcDbDictionary
280
     1
281
     1
  3
ACAD_XREC_ROUNDTRIP
360
128
  0
DICTIONARY
  5
12B
330
3E
100
AcDbDictionary
280
     1
281
     1
  3
ACAD_XREC_ROUNDTRIP
360
12C
  0
DICTIONARY
  5
10F
330
2F
100
AcDbDictionary
280
     1
281
     1
  3
ACAD_XREC_ROUNDTRIP
360
110
  0
DICTIONARY
  5
113
330
31
100
AcDbDictionary
280
     1
281
     1
  3
ACAD_XREC_ROUNDTRIP
360
114
  0
DICTIONARY
  5
111
330
30
100
AcDbDictionary
280
     1
281
     1
  3
ACAD_XREC_ROUNDTRIP
360
112
  0
DICTIONARY
  5
115
330
32
100
AcDbDictionary
280
     1
281
     1
  3
ACAD_XREC_ROUNDTRIP
360
116
  0
DICTIONARY
  5
11D
330
36
100
AcDbDictionary
280
     1
281
     1
  3
ACAD_XREC_ROUNDTRIP
360
11E
  0
DICTIONARY
  5
125
330
3A
100
AcDbDictionary
280
     1
281
     1
  3
ACAD_XREC_ROUNDTRIP
360
126
  0
DICTIONARY
  5
119
330
34
100
AcDbDictionary
280
     1
281
     1
  3
ACAD_XREC_ROUNDTRIP
360
11A
  0
DICTIONARY
  5
11B
330
35
100
AcDbDictionary
280
     1
281
     1
  3
ACAD_XREC_ROUNDTRIP
360
11C
  0
DICTIONARY
  5
123
330
39
100
AcDbDictionary
280
     1
281
     1
  3
ACAD_XREC_ROUNDTRIP
360
124
  0
DICTIONARY
  5
107
330
2B
100
AcDbDictionary
280
     1
281
     1
  3
ACAD_XREC_ROUNDTRIP
360
108
  0
DICTIONARY
  5
109
330
2C
100
AcDbDictionary
280
     1
281
     1
  3
ACAD_XREC_ROUNDTRIP
360
10A
  0
DICTIONARY
  5
10B
330
2D
100
AcDbDictionary
280
     1
281
     1
  3
ACAD_XREC_ROUNDTRIP
360
10C
  0
DICTIONARY
  5
10D
330
2E
100
AcDbDictionary
280
     1
281
     1
  3
ACAD_XREC_ROUNDTRIP
360
10E
  0
DICTIONARY
  5
121
330
38
100
AcDbDictionary
280
     1
281
     1
  3
ACAD_XREC_ROUNDTRIP
360
122
  0
DICTIONARY
  5
117
330
33
100
AcDbDictionary
280
     1
281
     1
  3
ACAD_XREC_ROUNDTRIP
360
118
  0
DICTIONARY
  5
11F
330
37
100
AcDbDictionary
280
     1
281
     1
  3
ACAD_XREC_ROUNDTRIP
360
120
  0
XRECORD
  5
12A
102
{ACAD_REACTORS
330
129
102
}
330
129
100
AcDbXrecord
280
     1
102
MATERIAL
148
0.0
149
0.0
149
0.0
 93
        0
 94
      127
282
     0
 72
     1
 77
     1
171
     1
175
     1
179
     1
273
     0
  0
XRECORD
  5
128
102
{ACAD_REACTORS
330
127
102
}
330
127
100
AcDbXrecord
280
     1
102
MATERIAL
148
0.0
149
0.0
149
0.0
 93
        0
 94
      127
282
     0
 72
     1
 77
     1
171
     1
175
     1
179
     1
273
     0
  0
XRECORD
  5
12C
102
{ACAD_REACTORS
330
12B
102
}
330
12B
100
AcDbXrecord
280
     1
102
MATERIAL
148
0.0
149
0.0
149
0.0
 93
        0
 94
      127
282
     0
 72
     1
 77
     1
171
     1
175
     1
179
     1
273
     0
  0
XRECORD
  5
110
102
{ACAD_REACTORS
330
10F
102
}
330
10F
100
AcDbXrecord
280
     1
102
RTVSPropertyOp0
 70
     1
102
RTVSPropertyOp1
 70
     1
102
RTVSPropertyOp2
 70
     1
102
RTVSPropertyOp3
 70
     1
102
RTVSPropertyOp4
 70
     1
102
RTVSPropertyOp5
 70
     1
102
RTVSPropertyOp6
 70
     1
102
RTVSPropertyOp7
 70
     1
102
RTVSPropertyOp8
 70
     1
102
RTVSPropertyOp9
 70
     1
102
RTVSPropertyOp10
 70
     1
102
RTVSPropertyOp11
 70
     1
102
RTVSPropertyOp12
 70
     1
102
RTVSPropertyOp13
 70
     1
102
RTVSPropertyOp14
 70
     1
102
RTVSPropertyOp15
 70
     1
102
RTVSPropertyOp16
 70
     1
102
RTVSPropertyOp17
 70
     1
102
RTVSPropertyOp18
 70
     1
102
RTVSPropertyOp19
 70
     1
102
RTVSPropertyOp20
 70
     1
102
RTVSPropertyOp21
 70
     1
102
RTVSPropertyOp22
 70
     1
102
RTVSPropertyOp23
 70
     1
102
RTVSPropertyOp24
 70
     1
102
RTVSPropertyOp25
 70
     1
102
RTVSPropertyOp26
 70
     1
102
RTVSPropertyOp27
 70
     1
102
RTVSPropertyOp28
 70
     1
102
RTVSPropertyOp29
 70
     1
102
RTVSPropertyOp30
 70
     1
102
RTVSPropertyOp31
 70
     1
102
RTVSPropertyOp32
 70
     1
  0
XRECORD
  5
114
102
{ACAD_REACTORS
330
113
102
}
330
113
100
AcDbXrecord
280
     1
102
RTVSPropertyOp0
 70
     1
102
RTVSPropertyOp1
 70
     1
102
RTVSPropertyOp2
 70
     1
102
RTVSPropertyOp3
 70
     1
102
RTVSPropertyOp4
 70
     1
102
RTVSPropertyOp5
 70
     1
102
RTVSPropertyOp6
 70
     1
102
RTVSPropertyOp7
 70
     1
102
RTVSPropertyOp8
 70
     1
102
RTVSPropertyOp9
 70
     1
102
RTVSPropertyOp10
 70
     1
102
RTVSPropertyOp11
 70
     1
102
RTVSPropertyOp12
 70
     1
102
RTVSPropertyOp13
 70
     1
102
RTVSPropertyOp14
 70
     1
102
RTVSPropertyOp15
 70
     1
102
RTVSPropertyOp16
 70
     1
102
RTVSPropertyOp17
 70
     1
102
RTVSPropertyOp18
 70
     1
102
RTVSPropertyOp19
 70
     1
102
RTVSPropertyOp20
 70
     1
102
RTVSPropertyOp21
 70
     1
102
RTVSPropertyOp22
 70
     1
102
RTVSPropertyOp23
 70
     1
102
RTVSPropertyOp24
 70
     1
102
RTVSPropertyOp25
 70
     1
102
RTVSPropertyOp26
 70
     1
102
RTVSPropertyOp27
 70
     1
102
RTVSPropertyOp28
 70
     1
102
RTVSPropertyOp29
 70
     1
102
RTVSPropertyOp30
 70
     1
102
RTVSPropertyOp31
 70
     1
102
RTVSPropertyOp32
 70
     1
  0
XRECORD
  5
112
102
{ACAD_REACTORS
330
111
102
}
330
111
100
AcDbXrecord
280
     1
102
RTVSPropertyOp0
 70
     1
102
RTVSPropertyOp1
 70
     1
102
RTVSPropertyOp2
 70
     1
102
RTVSPropertyOp3
 70
     1
102
RTVSPropertyOp4
 70
     1
102
RTVSPropertyOp5
 70
     1
102
RTVSPropertyOp6
 70
     1
102
RTVSPropertyOp7
 70
     1
102
RTVSPropertyOp8
 70
     1
102
RTVSPropertyOp9
 70
     1
102
RTVSPropertyOp10
 70
     1
102
RTVSPropertyOp11
 70
     1
102
RTVSPropertyOp12
 70
     1
102
RTVSPropertyOp13
 70
     1
102
RTVSPropertyOp14
 70
     1
102
RTVSPropertyOp15
 70
     1
102
RTVSPropertyOp16
 70
     1
102
RTVSPropertyOp17
 70
     1
102
RTVSPropertyOp18
 70
     1
102
RTVSPropertyOp19
 70
     1
102
RTVSPropertyOp20
 70
     1
102
RTVSPropertyOp21
 70
     1
102
RTVSPropertyOp22
 70
     1
102
RTVSPropertyOp23
 70
     1
102
RTVSPropertyOp24
 70
     1
102
RTVSPropertyOp25
 70
     1
102
RTVSPropertyOp26
 70
     1
102
RTVSPropertyOp27
 70
     1
102
RTVSPropertyOp28
 70
     1
102
RTVSPropertyOp29
 70
     1
102
RTVSPropertyOp30
 70
     1
102
RTVSPropertyOp31
 70
     1
102
RTVSPropertyOp32
 70
     1
  0
XRECORD
  5
116
102
{ACAD_REACTORS
330
115
102
}
330
115
100
AcDbXrecord
280
     1
102
RTVSPropertyOp0
 70
     1
102
RTVSPropertyOp1
 70
     1
102
RTVSPropertyOp2
 70
     1
102
RTVSPropertyOp3
 70
     1
102
RTVSPropertyOp4
 70
     1
102
RTVSPropertyOp5
 70
     1
102
RTVSPropertyOp6
 70
     1
102
RTVSPropertyOp7
 70
     1
102
RTVSPropertyOp8
 70
     1
102
RTVSPropertyOp9
 70
     1
102
RTVSPropertyOp10
 70
     1
102
RTVSPropertyOp11
 70
     1
102
RTVSPropertyOp12
 70
     1
102
RTVSPropertyOp13
 70
     1
102
RTVSPropertyOp14
 70
     1
102
RTVSPropertyOp15
 70
     1
102
RTVSPropertyOp16
 70
     1
102
RTVSPropertyOp17
 70
     1
102
RTVSPropertyOp18
 70
     1
102
RTVSPropertyOp19
 70
     1
102
RTVSPropertyOp20
 70
     1
102
RTVSPropertyOp21
 70
     1
102
RTVSPropertyOp22
 70
     1
102
RTVSPropertyOp23
 70
     1
102
RTVSPropertyOp24
 70
     1
102
RTVSPropertyOp25
 70
     1
102
RTVSPropertyOp26
 70
     1
102
RTVSPropertyOp27
 70
     1
102
RTVSPropertyOp28
 70
     1
102
RTVSPropertyOp29
 70
     1
102
RTVSPropertyOp30
 70
     1
102
RTVSPropertyOp31
 70
     1
102
RTVSPropertyOp32
 70
     1
  0
XRECORD
  5
11E
102
{ACAD_REACTORS
330
11D
102
}
330
11D
100
AcDbXrecord
280
     1
102
RTVSPropertyOp0
 70
     1
102
RTVSPropertyOp1
 70
     1
102
RTVSPropertyOp2
 70
     1
102
RTVSPropertyOp3
 70
     1
102
RTVSPropertyOp4
 70
     1
102
RTVSPropertyOp5
 70
     1
102
RTVSPropertyOp6
 70
     1
102
RTVSPropertyOp7
 70
     1
102
RTVSPropertyOp8
 70
     1
102
RTVSPropertyOp9
 70
     1
102
RTVSPropertyOp10
 70
     1
102
RTVSPropertyOp11
 70
     1
102
RTVSPropertyOp12
 70
     1
102
RTVSPropertyOp13
 70
     1
102
RTVSPropertyOp14
 70
     1
102
RTVSPropertyOp15
 70
     1
102
RTVSPropertyOp16
 70
     1
102
RTVSPropertyOp17
 70
     1
102
RTVSPropertyOp18
 70
     1
102
RTVSPropertyOp19
 70
     1
102
RTVSPropertyOp20
 70
     1
102
RTVSPropertyOp21
 70
     1
102
RTVSPropertyOp22
 70
     1
102
RTVSPropertyOp23
 70
     1
102
RTVSPropertyOp24
 70
     1
102
RTVSPropertyOp25
 70
     1
102
RTVSPropertyOp26
 70
     1
102
RTVSPropertyOp27
 70
     1
102
RTVSPropertyOp28
 70
     1
102
RTVSPropertyOp29
 70
     1
102
RTVSPropertyOp30
 70
     1
102
RTVSPropertyOp31
 70
     1
102
RTVSPropertyOp32
 70
     1
  0
XRECORD
  5
126
102
{ACAD_REACTORS
330
125
102
}
330
125
100
AcDbXrecord
280
     1
102
RTVSPropertyOp0
 70
     1
102
RTVSPropertyOp1
 70
     1
102
RTVSPropertyOp2
 70
     1
102
RTVSPropertyOp3
 70
     1
102
RTVSPropertyOp4
 70
     1
102
RTVSPropertyOp5
 70
     1
102
RTVSPropertyOp6
 70
     1
102
RTVSPropertyOp7
 70
     1
102
RTVSPropertyOp8
 70
     1
102
RTVSPropertyOp9
 70
     1
102
RTVSPropertyOp10
 70
     1
102
RTVSPropertyOp11
 70
     1
102
RTVSPropertyOp12
 70
     1
102
RTVSPropertyOp13
 70
     1
102
RTVSPropertyOp14
 70
     1
102
RTVSPropertyOp15
 70
     1
102
RTVSPropertyOp16
 70
     1
102
RTVSPropertyOp17
 70
     1
102
RTVSPropertyOp18
 70
     1
102
RTVSPropertyOp19
 70
     1
102
RTVSPropertyOp20
 70
     1
102
RTVSPropertyOp21
 70
     1
102
RTVSPropertyOp22
 70
     1
102
RTVSPropertyOp23
 70
     1
102
RTVSPropertyOp24
 70
     1
102
RTVSPropertyOp25
 70
     1
102
RTVSPropertyOp26
 70
     1
102
RTVSPropertyOp27
 70
     1
102
RTVSPropertyOp28
 70
     1
102
RTVSPropertyOp29
 70
     1
102
RTVSPropertyOp30
 70
     1
102
RTVSPropertyOp31
 70
     1
102
RTVSPropertyOp32
 70
     1
  0
XRECORD
  5
11A
102
{ACAD_REACTORS
330
119
102
}
330
119
100
AcDbXrecord
280
     1
102
RTVSPropertyOp0
 70
     1
102
RTVSPropertyOp1
 70
     1
102
RTVSPropertyOp2
 70
     1
102
RTVSPropertyOp3
 70
     1
102
RTVSPropertyOp4
 70
     1
102
RTVSPropertyOp5
 70
     1
102
RTVSPropertyOp6
 70
     1
102
RTVSPropertyOp7
 70
     1
102
RTVSPropertyOp8
 70
     1
102
RTVSPropertyOp9
 70
     1
102
RTVSPropertyOp10
 70
     1
102
RTVSPropertyOp11
 70
     1
102
RTVSPropertyOp12
 70
     1
102
RTVSPropertyOp13
 70
     1
102
RTVSPropertyOp14
 70
     1
102
RTVSPropertyOp15
 70
     1
102
RTVSPropertyOp16
 70
     1
102
RTVSPropertyOp17
 70
     1
102
RTVSPropertyOp18
 70
     1
102
RTVSPropertyOp19
 70
     1
102
RTVSPropertyOp20
 70
     1
102
RTVSPropertyOp21
 70
     1
102
RTVSPropertyOp22
 70
     1
102
RTVSPropertyOp23
 70
     1
102
RTVSPropertyOp24
 70
     1
102
RTVSPropertyOp25
 70
     1
102
RTVSPropertyOp26
 70
     1
102
RTVSPropertyOp27
 70
     1
102
RTVSPropertyOp28
 70
     1
102
RTVSPropertyOp29
 70
     1
102
RTVSPropertyOp30
 70
     1
102
RTVSPropertyOp31
 70
     1
102
RTVSPropertyOp32
 70
     1
  0
XRECORD
  5
11C
102
{ACAD_REACTORS
330
11B
102
}
330
11B
100
AcDbXrecord
280
     1
102
RTVSPropertyOp0
 70
     1
102
RTVSPropertyOp1
 70
     1
102
RTVSPropertyOp2
 70
     1
102
RTVSPropertyOp3
 70
     1
102
RTVSPropertyOp4
 70
     1
102
RTVSPropertyOp5
 70
     1
102
RTVSPropertyOp6
 70
     1
102
RTVSPropertyOp7
 70
     1
102
RTVSPropertyOp8
 70
     1
102
RTVSPropertyOp9
 70
     1
102
RTVSPropertyOp10
 70
     1
102
RTVSPropertyOp11
 70
     1
102
RTVSPropertyOp12
 70
     1
102
RTVSPropertyOp13
 70
     1
102
RTVSPropertyOp14
 70
     1
102
RTVSPropertyOp15
 70
     1
102
RTVSPropertyOp16
 70
     1
102
RTVSPropertyOp17
 70
     1
102
RTVSPropertyOp18
 70
     1
102
RTVSPropertyOp19
 70
     1
102
RTVSPropertyOp20
 70
     1
102
RTVSPropertyOp21
 70
     1
102
RTVSPropertyOp22
 70
     1
102
RTVSPropertyOp23
 70
     1
102
RTVSPropertyOp24
 70
     1
102
RTVSPropertyOp25
 70
     1
102
RTVSPropertyOp26
 70
     1
102
RTVSPropertyOp27
 70
     1
102
RTVSPropertyOp28
 70
     1
102
RTVSPropertyOp29
 70
     1
102
RTVSPropertyOp30
 70
     1
102
RTVSPropertyOp31
 70
     1
102
RTVSPropertyOp32
 70
     1
  0
XRECORD
  5
124
102
{ACAD_REACTORS
330
123
102
}
330
123
100
AcDbXrecord
280
     1
102
RTVSPropertyOp0
 70
     1
102
RTVSPropertyOp1
 70
     1
102
RTVSPropertyOp2
 70
     1
102
RTVSPropertyOp3
 70
     1
102
RTVSPropertyOp4
 70
     1
102
RTVSPropertyOp5
 70
     1
102
RTVSPropertyOp6
 70
     1
102
RTVSPropertyOp7
 70
     1
102
RTVSPropertyOp8
 70
     1
102
RTVSPropertyOp9
 70
     1
102
RTVSPropertyOp10
 70
     1
102
RTVSPropertyOp11
 70
     1
102
RTVSPropertyOp12
 70
     1
102
RTVSPropertyOp13
 70
     1
102
RTVSPropertyOp14
 70
     1
102
RTVSPropertyOp15
 70
     1
102
RTVSPropertyOp16
 70
     1
102
RTVSPropertyOp17
 70
     1
102
RTVSPropertyOp18
 70
     1
102
RTVSPropertyOp19
 70
     1
102
RTVSPropertyOp20
 70
     1
102
RTVSPropertyOp21
 70
     1
102
RTVSPropertyOp22
 70
     1
102
RTVSPropertyOp23
 70
     1
102
RTVSPropertyOp24
 70
     1
102
RTVSPropertyOp25
 70
     1
102
RTVSPropertyOp26
 70
     1
102
RTVSPropertyOp27
 70
     1
102
RTVSPropertyOp28
 70
     1
102
RTVSPropertyOp29
 70
     1
102
RTVSPropertyOp30
 70
     1
102
RTVSPropertyOp31
 70
     1
102
RTVSPropertyOp32
 70
     1
  0
XRECORD
  5
108
102
{ACAD_REACTORS
330
107
102
}
330
107
100
AcDbXrecord
280
     1
102
RTVSPropertyOp0
 70
     1
102
RTVSPropertyOp1
 70
     1
102
RTVSPropertyOp2
 70
     1
102
RTVSPropertyOp3
 70
     1
102
RTVSPropertyOp4
 70
     1
102
RTVSPropertyOp5
 70
     1
102
RTVSPropertyOp6
 70
     1
102
RTVSPropertyOp7
 70
     1
102
RTVSPropertyOp8
 70
     1
102
RTVSPropertyOp9
 70
     1
102
RTVSPropertyOp10
 70
     1
102
RTVSPropertyOp11
 70
     1
102
RTVSPropertyOp12
 70
     1
102
RTVSPropertyOp13
 70
     1
102
RTVSPropertyOp14
 70
     1
102
RTVSPropertyOp15
 70
     1
102
RTVSPropertyOp16
 70
     1
102
RTVSPropertyOp17
 70
     1
102
RTVSPropertyOp18
 70
     1
102
RTVSPropertyOp19
 70
     1
102
RTVSPropertyOp20
 70
     1
102
RTVSPropertyOp21
 70
     1
102
RTVSPropertyOp22
 70
     1
102
RTVSPropertyOp23
 70
     1
102
RTVSPropertyOp24
 70
     1
102
RTVSPropertyOp25
 70
     1
102
RTVSPropertyOp26
 70
     1
102
RTVSPropertyOp27
 70
     1
102
RTVSPropertyOp28
 70
     1
102
RTVSPropertyOp29
 70
     1
102
RTVSPropertyOp30
 70
     1
102
RTVSPropertyOp31
 70
     1
102
RTVSPropertyOp32
 70
     1
  0
XRECORD
  5
10A
102
{ACAD_REACTORS
330
109
102
}
330
109
100
AcDbXrecord
280
     1
102
RTVSPropertyOp0
 70
     1
102
RTVSPropertyOp1
 70
     1
102
RTVSPropertyOp2
 70
     1
102
RTVSPropertyOp3
 70
     1
102
RTVSPropertyOp4
 70
     1
102
RTVSPropertyOp5
 70
     1
102
RTVSPropertyOp6
 70
     1
102
RTVSPropertyOp7
 70
     1
102
RTVSPropertyOp8
 70
     1
102
RTVSPropertyOp9
 70
     1
102
RTVSPropertyOp10
 70
     1
102
RTVSPropertyOp11
 70
     1
102
RTVSPropertyOp12
 70
     1
102
RTVSPropertyOp13
 70
     1
102
RTVSPropertyOp14
 70
     1
102
RTVSPropertyOp15
 70
     1
102
RTVSPropertyOp16
 70
     1
102
RTVSPropertyOp17
 70
     1
102
RTVSPropertyOp18
 70
     1
102
RTVSPropertyOp19
 70
     1
102
RTVSPropertyOp20
 70
     1
102
RTVSPropertyOp21
 70
     1
102
RTVSPropertyOp22
 70
     1
102
RTVSPropertyOp23
 70
     1
102
RTVSPropertyOp24
 70
     1
102
RTVSPropertyOp25
 70
     1
102
RTVSPropertyOp26
 70
     1
102
RTVSPropertyOp27
 70
     1
102
RTVSPropertyOp28
 70
     1
102
RTVSPropertyOp29
 70
     1
102
RTVSPropertyOp30
 70
     1
102
RTVSPropertyOp31
 70
     1
102
RTVSPropertyOp32
 70
     1
  0
XRECORD
  5
10C
102
{ACAD_REACTORS
330
10B
102
}
330
10B
100
AcDbXrecord
280
     1
102
RTVSPropertyOp0
 70
     1
102
RTVSPropertyOp1
 70
     1
102
RTVSPropertyOp2
 70
     1
102
RTVSPropertyOp3
 70
     1
102
RTVSPropertyOp4
 70
     1
102
RTVSPropertyOp5
 70
     1
102
RTVSPropertyOp6
 70
     1
102
RTVSPropertyOp7
 70
     1
102
RTVSPropertyOp8
 70
     1
102
RTVSPropertyOp9
 70
     1
102
RTVSPropertyOp10
 70
     1
102
RTVSPropertyOp11
 70
     1
102
RTVSPropertyOp12
 70
     1
102
RTVSPropertyOp13
 70
     1
102
RTVSPropertyOp14
 70
     1
102
RTVSPropertyOp15
 70
     1
102
RTVSPropertyOp16
 70
     1
102
RTVSPropertyOp17
 70
     1
102
RTVSPropertyOp18
 70
     1
102
RTVSPropertyOp19
 70
     1
102
RTVSPropertyOp20
 70
     1
102
RTVSPropertyOp21
 70
     1
102
RTVSPropertyOp22
 70
     1
102
RTVSPropertyOp23
 70
     1
102
RTVSPropertyOp24
 70
     1
102
RTVSPropertyOp25
 70
     1
102
RTVSPropertyOp26
 70
     1
102
RTVSPropertyOp27
 70
     1
102
RTVSPropertyOp28
 70
     1
102
RTVSPropertyOp29
 70
     1
102
RTVSPropertyOp30
 70
     1
102
RTVSPropertyOp31
 70
     1
102
RTVSPropertyOp32
 70
     1
  0
XRECORD
  5
10E
102
{ACAD_REACTORS
330
10D
102
}
330
10D
100
AcDbXrecord
280
     1
102
RTVSPropertyOp0
 70
     1
102
RTVSPropertyOp1
 70
     1
102
RTVSPropertyOp2
 70
     1
102
RTVSPropertyOp3
 70
     1
102
RTVSPropertyOp4
 70
     1
102
RTVSPropertyOp5
 70
     1
102
RTVSPropertyOp6
 70
     1
102
RTVSPropertyOp7
 70
     1
102
RTVSPropertyOp8
 70
     1
102
RTVSPropertyOp9
 70
     1
102
RTVSPropertyOp10
 70
     1
102
RTVSPropertyOp11
 70
     1
102
RTVSPropertyOp12
 70
     1
102
RTVSPropertyOp13
 70
     1
102
RTVSPropertyOp14
 70
     1
102
RTVSPropertyOp15
 70
     1
102
RTVSPropertyOp16
 70
     1
102
RTVSPropertyOp17
 70
     1
102
RTVSPropertyOp18
 70
     1
102
RTVSPropertyOp19
 70
     1
102
RTVSPropertyOp20
 70
     1
102
RTVSPropertyOp21
 70
     1
102
RTVSPropertyOp22
 70
     1
102
RTVSPropertyOp23
 70
     1
102
RTVSPropertyOp24
 70
     1
102
RTVSPropertyOp25
 70
     1
102
RTVSPropertyOp26
 70
     1
102
RTVSPropertyOp27
 70
     1
102
RTVSPropertyOp28
 70
     1
102
RTVSPropertyOp29
 70
     1
102
RTVSPropertyOp30
 70
     1
102
RTVSPropertyOp31
 70
     1
102
RTVSPropertyOp32
 70
     1
  0
XRECORD
  5
122
102
{ACAD_REACTORS
330
121
102
}
330
121
100
AcDbXrecord
280
     1
102
RTVSPropertyOp0
 70
     1
102
RTVSPropertyOp1
 70
     1
102
RTVSPropertyOp2
 70
     1
102
RTVSPropertyOp3
 70
     1
102
RTVSPropertyOp4
 70
     1
102
RTVSPropertyOp5
 70
     1
102
RTVSPropertyOp6
 70
     1
102
RTVSPropertyOp7
 70
     1
102
RTVSPropertyOp8
 70
     1
102
RTVSPropertyOp9
 70
     1
102
RTVSPropertyOp10
 70
     1
102
RTVSPropertyOp11
 70
     1
102
RTVSPropertyOp12
 70
     1
102
RTVSPropertyOp13
 70
     1
102
RTVSPropertyOp14
 70
     1
102
RTVSPropertyOp15
 70
     1
102
RTVSPropertyOp16
 70
     1
102
RTVSPropertyOp17
 70
     1
102
RTVSPropertyOp18
 70
     1
102
RTVSPropertyOp19
 70
     1
102
RTVSPropertyOp20
 70
     1
102
RTVSPropertyOp21
 70
     1
102
RTVSPropertyOp22
 70
     1
102
RTVSPropertyOp23
 70
     1
102
RTVSPropertyOp24
 70
     1
102
RTVSPropertyOp25
 70
     1
102
RTVSPropertyOp26
 70
     1
102
RTVSPropertyOp27
 70
     1
102
RTVSPropertyOp28
 70
     1
102
RTVSPropertyOp29
 70
     1
102
RTVSPropertyOp30
 70
     1
102
RTVSPropertyOp31
 70
     1
102
RTVSPropertyOp32
 70
     1
  0
XRECORD
  5
118
102
{ACAD_REACTORS
330
117
102
}
330
117
100
AcDbXrecord
280
     1
102
RTVSPropertyOp0
 70
     1
102
RTVSPropertyOp1
 70
     1
102
RTVSPropertyOp2
 70
     1
102
RTVSPropertyOp3
 70
     1
102
RTVSPropertyOp4
 70
     1
102
RTVSPropertyOp5
 70
     1
102
RTVSPropertyOp6
 70
     1
102
RTVSPropertyOp7
 70
     1
102
RTVSPropertyOp8
 70
     1
102
RTVSPropertyOp9
 70
     1
102
RTVSPropertyOp10
 70
     1
102
RTVSPropertyOp11
 70
     1
102
RTVSPropertyOp12
 70
     1
102
RTVSPropertyOp13
 70
     1
102
RTVSPropertyOp14
 70
     1
102
RTVSPropertyOp15
 70
     1
102
RTVSPropertyOp16
 70
     1
102
RTVSPropertyOp17
 70
     1
102
RTVSPropertyOp18
 70
     1
102
RTVSPropertyOp19
 70
     1
102
RTVSPropertyOp20
 70
     1
102
RTVSPropertyOp21
 70
     1
102
RTVSPropertyOp22
 70
     1
102
RTVSPropertyOp23
 70
     1
102
RTVSPropertyOp24
 70
     1
102
RTVSPropertyOp25
 70
     1
102
RTVSPropertyOp26
 70
     1
102
RTVSPropertyOp27
 70
     1
102
RTVSPropertyOp28
 70
     1
102
RTVSPropertyOp29
 70
     1
102
RTVSPropertyOp30
 70
     1
102
RTVSPropertyOp31
 70
     1
102
RTVSPropertyOp32
 70
     1
  0
XRECORD
  5
120
102
{ACAD_REACTORS
330
11F
102
}
330
11F
100
AcDbXrecord
280
     1
102
RTVSPropertyOp0
 70
     1
102
RTVSPropertyOp1
 70
     1
102
RTVSPropertyOp2
 70
     1
102
RTVSPropertyOp3
 70
     1
102
RTVSPropertyOp4
 70
     1
102
RTVSPropertyOp5
 70
     1
102
RTVSPropertyOp6
 70
     1
102
RTVSPropertyOp7
 70
     1
102
RTVSPropertyOp8
 70
     1
102
RTVSPropertyOp9
 70
     1
102
RTVSPropertyOp10
 70
     1
102
RTVSPropertyOp11
 70
     1
102
RTVSPropertyOp12
 70
     1
102
RTVSPropertyOp13
 70
     1
102
RTVSPropertyOp14
 70
     1
102
RTVSPropertyOp15
 70
     1
102
RTVSPropertyOp16
 70
     1
102
RTVSPropertyOp17
 70
     1
102
RTVSPropertyOp18
 70
     1
102
RTVSPropertyOp19
 70
     1
102
RTVSPropertyOp20
 70
     1
102
RTVSPropertyOp21
 70
     1
102
RTVSPropertyOp22
 70
     1
102
RTVSPropertyOp23
 70
     1
102
RTVSPropertyOp24
 70
     1
102
RTVSPropertyOp25
 70
     1
102
RTVSPropertyOp26
 70
     1
102
RTVSPropertyOp27
 70
     1
102
RTVSPropertyOp28
 70
     1
102
RTVSPropertyOp29
 70
     1
102
RTVSPropertyOp30
 70
     1
102
RTVSPropertyOp31
 70
     1
102
RTVSPropertyOp32
 70
     1
  0
ENDSEC
  0
EOF
