  0
SECTION
  2
HEADER
  9
$ACADVER
  1
AC1015
  9
$ACADMAINTVER
 70
     6
  9
$DWGCODEPAGE
  3
ANSI_932
  9
$INSBASE
 10
0.0
 20
0.0
 30
0.0
  9
$EXTMIN
 10
0.0
 20
0.0
 30
0.0
  9
$EXTMAX
 10
210.0
 20
297.0
 30
0.0
  9
$LIMMIN
 10
0.0
 20
0.0
  9
$LIMMAX
 10
12.0
 20
9.0
  9
$ORTHOMODE
 70
     0
  9
$REGENMODE
 70
     1
  9
$FILLMODE
 70
     1
  9
$QTEXTMODE
 70
     0
  9
$MIRRTEXT
 70
     1
  9
$LTSCALE
 40
1.0
  9
$ATTMODE
 70
     1
  9
$TEXTSIZE
 40
0.2
  9
$TRACEWID
 40
0.05
  9
$TEXTSTYLE
  7
Standard
  9
$CLAYER
  8
0
  9
$CELTYPE
  6
ByLayer
  9
$CECOLOR
 62
   256
  9
$CELTSCALE
 40
1.0
  9
$DISPSILH
 70
     0
  9
$DIMSCALE
 40
1.0
  9
$DIMASZ
 40
0.18
  9
$DIMEXO
 40
0.0625
  9
$DIMDLI
 40
0.38
  9
$DIMRND
 40
0.0
  9
$DIMDLE
 40
0.0
  9
$DIMEXE
 40
0.18
  9
$DIMTP
 40
0.0
  9
$DIMTM
 40
0.0
  9
$DIMTXT
 40
0.18
  9
$DIMCEN
 40
0.09
  9
$DIMTSZ
 40
0.0
  9
$DIMTOL
 70
     0
  9
$DIMLIM
 70
     0
  9
$DIMTIH
 70
     1
  9
$DIMTOH
 70
     1
  9
$DIMSE1
 70
     0
  9
$DIMSE2
 70
     0
  9
$DIMTAD
 70
     0
  9
$DIMZIN
 70
     0
  9
$DIMBLK
  1

  9
$DIMASO
 70
     1
  9
$DIMSHO
 70
     1
  9
$DIMPOST
  1

  9
$DIMAPOST
  1

  9
$DIMALT
 70
     0
  9
$DIMALTD
 70
     2
  9
$DIMALTF
 40
25.4
  9
$DIMLFAC
 40
1.0
  9
$DIMTOFL
 70
     0
  9
$DIMTVP
 40
0.0
  9
$DIMTIX
 70
     0
  9
$DIMSOXD
 70
     0
  9
$DIMSAH
 70
     0
  9
$DIMBLK1
  1

  9
$DIMBLK2
  1

  9
$DIMSTYLE
  2
Standard
  9
$DIMCLRD
 70
     0
  9
$DIMCLRE
 70
     0
  9
$DIMCLRT
 70
     0
  9
$DIMTFAC
 40
1.0
  9
$DIMGAP
 40
0.09
  9
$DIMJUST
 70
     0
  9
$DIMSD1
 70
     0
  9
$DIMSD2
 70
     0
  9
$DIMTOLJ
 70
     1
  9
$DIMTZIN
 70
     0
  9
$DIMALTZ
 70
     0
  9
$DIMALTTZ
 70
     0
  9
$DIMUPT
 70
     0
  9
$DIMDEC
 70
     4
  9
$DIMTDEC
 70
     4
  9
$DIMALTU
 70
     2
  9
$DIMALTTD
 70
     2
  9
$DIMTXSTY
  7
Standard
  9
$DIMAUNIT
 70
     0
  9
$DIMADEC
 70
     0
  9
$DIMALTRND
 40
0.0
  9
$DIMAZIN
 70
     0
  9
$DIMDSEP
 70
    46
  9
$DIMATFIT
 70
     3
  9
$DIMFRAC
 70
     0
  9
$DIMLDRBLK
  1

  9
$DIMLUNIT
 70
     2
  9
$DIMLWD
 70
    -2
  9
$DIMLWE
 70
    -2
  9
$DIMTMOVE
 70
     0
  9
$LUNITS
 70
     2
  9
$LUPREC
 70
     4
  9
$SKETCHINC
 40
0.1
  9
$FILLETRAD
 40
0.5
  9
$AUNITS
 70
     0
  9
$AUPREC
 70
     0
  9
$MENU
  1
.
  9
$ELEVATION
 40
0.0
  9
$PELEVATION
 40
0.0
  9
$THICKNESS
 40
0.0
  9
$LIMCHECK
 70
     0
  9
$CHAMFERA
 40
0.5
  9
$CHAMFERB
 40
0.5
  9
$CHAMFERC
 40
1.0
  9
$CHAMFERD
 40
0.0
  9
$SKPOLY
 70
     0
  9
$TDCREATE
 40
2459816.578784167
  9
$TDUCREATE
 40
2459816.203784167
  9
$TDUPDATE
 40
2459816.578785428
  9
$TDUUPDATE
 40
2459816.203785428
  9
$TDINDWG
 40
0.0000000116
  9
$TDUSRTIMER
 40
0.0000000116
  9
$USRTIMER
 70
     1
  9
$ANGBASE
 50
0.0
  9
$ANGDIR
 70
     0
  9
$PDMODE
 70
     0
  9
$PDSIZE
 40
0.0
  9
$PLINEWID
 40
0.0
  9
$SPLFRAME
 70
     0
  9
$SPLINETYPE
 70
     6
  9
$SPLINESEGS
 70
     8
  9
$HANDSEED
  5
131
  9
$SURFTAB1
 70
     6
  9
$SURFTAB2
 70
     6
  9
$SURFTYPE
 70
     6
  9
$SURFU
 70
     6
  9
$SURFV
 70
     6
  9
$UCSBASE
  2

  9
$UCSNAME
  2

  9
$UCSORG
 10
0.0
 20
0.0
 30
0.0
  9
$UCSXDIR
 10
1.0
 20
0.0
 30
0.0
  9
$UCSYDIR
 10
0.0
 20
1.0
 30
0.0
  9
$UCSORTHOREF
  2

  9
$UCSORTHOVIEW
 70
     0
  9
$UCSORGTOP
 10
0.0
 20
0.0
 30
0.0
  9
$UCSORGBOTTOM
 10
0.0
 20
0.0
 30
0.0
  9
$UCSORGLEFT
 10
0.0
 20
0.0
 30
0.0
  9
$UCSORGRIGHT
 10
0.0
 20
0.0
 30
0.0
  9
$UCSORGFRONT
 10
0.0
 20
0.0
 30
0.0
  9
$UCSORGBACK
 10
0.0
 20
0.0
 30
0.0
  9
$PUCSBASE
  2

  9
$PUCSNAME
  2

  9
$PUCSORG
 10
0.0
 20
0.0
 30
0.0
  9
$PUCSXDIR
 10
1.0
 20
0.0
 30
0.0
  9
$PUCSYDIR
 10
0.0
 20
1.0
 30
0.0
  9
$PUCSORTHOREF
  2

  9
$PUCSORTHOVIEW
 70
     0
  9
$PUCSORGTOP
 10
0.0
 20
0.0
 30
0.0
  9
$PUCSORGBOTTOM
 10
0.0
 20
0.0
 30
0.0
  9
$PUCSORGLEFT
 10
0.0
 20
0.0
 30
0.0
  9
$PUCSORGRIGHT
 10
0.0
 20
0.0
 30
0.0
  9
$PUCSORGFRONT
 10
0.0
 20
0.0
 30
0.0
  9
$PUCSORGBACK
 10
0.0
 20
0.0
 30
0.0
  9
$USERI1
 70
     0
  9
$USERI2
 70
     0
  9
$USERI3
 70
     0
  9
$USERI4
 70
     0
  9
$USERI5
 70
     0
  9
$USERR1
 40
18.1
  9
$USERR2
 40
0.0
  9
$USERR3
 40
0.0
  9
$USERR4
 40
0.0
  9
$USERR5
 40
0.0
  9
$WORLDVIEW
 70
     1
  9
$SHADEDGE
 70
     3
  9
$SHADEDIF
 70
    70
  9
$TILEMODE
 70
     1
  9
$MAXACTVP
 70
    64
  9
$PINSBASE
 10
0.0
 20
0.0
 30
0.0
  9
$PLIMCHECK
 70
     0
  9
$PEXTMIN
 10
1.00000000000000E+20
 20
1.00000000000000E+20
 30
1.00000000000000E+20
  9
$PEXTMAX
 10
-1.00000000000000E+20
 20
-1.00000000000000E+20
 30
-1.00000000000000E+20
  9
$PLIMMIN
 10
0.0
 20
0.0
  9
$PLIMMAX
 10
12.0
 20
9.0
  9
$UNITMODE
 70
     0
  9
$VISRETAIN
 70
     1
  9
$PLINEGEN
 70
     0
  9
$PSLTSCALE
 70
     1
  9
$TREEDEPTH
 70
  3020
  9
$CMLSTYLE
  2
Standard
  9
$CMLJUST
 70
     0
  9
$CMLSCALE
 40
1.0
  9
$PROXYGRAPHICS
 70
     1
  9
$MEASUREMENT
 70
     1
  9
$CELWEIGHT
370
    -1
  9
$ENDCAPS
280
     0
  9
$JOINSTYLE
280
     0
  9
$LWDISPLAY
290
     0
  9
$INSUNITS
 70
     4
  9
$HYPERLINKBASE
  1

  9
$STYLESHEET
  1

  9
$XEDIT
290
     1
  9
$CEPSNTYPE
380
     0
  9
$PSTYLEMODE
290
     1
  9
$FINGERPRINTGUID
  2
{03CFEB0F-9160-4F23-9335-8131B8AA2EF3}
  9
$VERSIONGUID
  2
{FAEB1C32-E019-11D5-929B-00C0DF256EC4}
  9
$EXTNAMES
290
     1
  9
$PSVPSCALE
 40
0.0
  9
$OLESTARTUP
290
     0
  0
ENDSEC
  0
SECTION
  2
CLASSES
  0
CLASS
  1
ACDBDICTIONARYWDFLT
  2
AcDbDictionaryWithDefault
  3
ObjectDBX Classes
 90
        0
280
     0
281
     0
  0
CLASS
  1
VISUALSTYLE
  2
AcDbVisualStyle
  3
ObjectDBX Classes
 90
     4095
280
     0
281
     0
  0
CLASS
  1
MATERIAL
  2
AcDbMaterial
  3
ObjectDBX Classes
 90
     1153
280
     0
281
     0
  0
CLASS
  1
DICTIONARYVAR
  2
AcDbDictionaryVar
  3
ObjectDBX Classes
 90
        0
280
     0
281
     0
  0
CLASS
  1
ACDBPLACEHOLDER
  2
AcDbPlaceHolder
  3
ObjectDBX Classes
 90
        0
280
     0
281
     0
  0
CLASS
  1
LAYOUT
  2
AcDbLayout
  3
ObjectDBX Classes
 90
        0
280
     0
281
     0
  0
ENDSEC
  0
SECTION
  2
TABLES
  0
TABLE
  2
VPORT
  5
8
330
0
100
AcDbSymbolTable
 70
     1
  0
VPORT
  5
29
330
8
100
AcDbSymbolTableRecord
100
AcDbViewportTableRecord
  2
*Active
 70
     0
 10
0.0
 20
0.0
 11
1.0
 21
1.0
 12
105.0
 22
148.5
 13
0.0
 23
0.0
 14
0.5
 24
0.5
 15
0.5
 25
0.5
 16
0.0
 26
0.0
 36
1.0
 17
0.0
 27
0.0
 37
0.0
 40
326.7
 41
1.60267857142857
 42
50.0
 43
0.0
 44
0.0
 50
0.0
 51
0.0
 71
     0
 72
   100
 73
     1
 74
     3
 75
     0
 76
     0
 77
     0
 78
     0
281
     0
 65
     1
110
0.0
120
0.0
130
0.0
111
1.0
121
0.0
131
0.0
112
0.0
122
1.0
132
0.0
 79
     0
146
0.0
  0
ENDTAB
  0
TABLE
  2
LTYPE
  5
5
330
0
100
AcDbSymbolTable
 70
     8
  0
LTYPE
  5
14
330
5
100
AcDbSymbolTableRecord
100
AcDbLinetypeTableRecord
  2
ByBlock
 70
     0
  3

 72
    65
 73
     0
 40
0.0
  0
LTYPE
  5
15
330
5
100
AcDbSymbolTableRecord
100
AcDbLinetypeTableRecord
  2
ByLayer
 70
     0
  3

 72
    65
 73
     0
 40
0.0
  0
LTYPE
  5
16
330
5
100
AcDbSymbolTableRecord
100
AcDbLinetypeTableRecord
  2
Continuous
 70
     0
  3
Solid line
 72
    65
 73
     0
 40
0.0
  0
LTYPE
  5
3F
330
5
100
AcDbSymbolTableRecord
100
AcDbLinetypeTableRecord
  2
DASHED
 70
     0
  3
Dashed
 72
    65
 73
     2
 40
15.0
 49
7.0
 74
     0
 49
-8.0
 74
     0
  0
LTYPE
  5
40
330
5
100
AcDbSymbolTableRecord
100
AcDbLinetypeTableRecord
  2
DOTTED
 70
     0
  3
Dotted
 72
    65
 73
     2
 40
1.0
 49
0.0
 74
     0
 49
-1.0
 74
     0
  0
LTYPE
  5
41
330
5
100
AcDbSymbolTableRecord
100
AcDbLinetypeTableRecord
  2
DOT_CENTER
 70
     0
  3
Dot_Center
 72
    65
 73
     4
 40
14.0
 49
12.0
 74
     0
 49
-1.0
 74
     0
 49
0.0
 74
     0
 49
-1.0
 74
     0
  0
LTYPE
  5
42
330
5
100
AcDbSymbolTableRecord
100
AcDbLinetypeTableRecord
  2
LONG_DASHED
 70
     0
  3
Long_Dashed
 72
    65
 73
     2
 40
15.0
 49
10.0
 74
     0
 49
-5.0
 74
     0
  0
LTYPE
  5
43
330
5
100
AcDbSymbolTableRecord
100
AcDbLinetypeTableRecord
  2
DASH_CENTER
 70
     0
  3
Dash_Center
 72
    65
 73
     4
 40
14.0
 49
11.0
 74
     0
 49
-1.0
 74
     0
 49
1.0
 74
     0
 49
-1.0
 74
     0
  0
LTYPE
  5
44
330
5
100
AcDbSymbolTableRecord
100
AcDbLinetypeTableRecord
  2
PHANTOM
 70
     0
  3
Phantom
 72
    65
 73
     6
 40
13.0
 49
10.0
 74
     0
 49
-1.0
 74
     0
 49
0.0
 74
     0
 49
-1.0
 74
     0
 49
0.0
 74
     0
 49
-1.0
 74
     0
  0
LTYPE
  5
45
330
5
100
AcDbSymbolTableRecord
100
AcDbLinetypeTableRecord
  2
CENTER_DASH_DASH
 70
     0
  3
Center_Dash_Dash
 72
    65
 73
     6
 40
14.0
 49
9.0
 74
     0
 49
-1.0
 74
     0
 49
1.0
 74
     0
 49
-1.0
 74
     0
 49
1.0
 74
     0
 49
-1.0
 74
     0
  0
ENDTAB
  0
TABLE
  2
LAYER
  5
2
330
0
100
AcDbSymbolTable
 70
     3
  0
LAYER
  5
10
330
2
100
AcDbSymbolTableRecord
100
AcDbLayerTableRecord
  2
0
 70
     0
 62
     7
  6
Continuous
370
    -3
390
F
  0
LAYER
  5
46
330
2
100
AcDbSymbolTableRecord
100
AcDbLayerTableRecord
  2
1
 70
     0
 62
     7
  6
Continuous
370
    -3
390
F
  0
LAYER
  5
47
330
2
100
AcDbSymbolTableRecord
100
AcDbLayerTableRecord
  2
_U_30EC_U_30A4_U_30E4_U_30FC_1
 70
     0
 62
     7
  6
Continuous
370
    -3
390
F
  0
ENDTAB
  0
TABLE
  2
STYLE
  5
3
330
0
100
AcDbSymbolTable
 70
     3
  0
STYLE
  5
11
330
3
100
AcDbSymbolTableRecord
100
AcDbTextStyleTableRecord
  2
Standard
 70
     0
 40
0.0
 41
1.0
 50
0.0
 71
     0
 42
0.2
  3
txt
  4

  0
STYLE
  5
B2
330
3
100
AcDbSymbolTableRecord
100
AcDbTextStyleTableRecord
  2
CONVERTER_11
 70
     0
 40
0.0
 41
0.89
 50
0.0
 71
     0
 42
0.2
  3
MS Mincho.ttf
  4

1001
ACAD
1000
MS Mincho
1071
    32785
  0
STYLE
  5
DB
330
3
100
AcDbSymbolTableRecord
100
AcDbTextStyleTableRecord
  2
CONVERTER_12
 70
     0
 40
0.0
 41
0.9
 50
0.0
 71
     0
 42
0.2
  3
txt.shx
  4

  0
ENDTAB
  0
TABLE
  2
VIEW
  5
6
330
0
100
AcDbSymbolTable
 70
     0
  0
ENDTAB
  0
TABLE
  2
UCS
  5
7
330
0
100
AcDbSymbolTable
 70
     0
  0
ENDTAB
  0
TABLE
  2
APPID
  5
9
330
0
100
AcDbSymbolTable
 70
     1
  0
APPID
  5
12
330
9
100
AcDbSymbolTableRecord
100
AcDbRegAppTableRecord
  2
ACAD
 70
     0
  0
ENDTAB
  0
TABLE
  2
DIMSTYLE
  5
A
330
0
100
AcDbSymbolTable
 70
     3
100
AcDbDimStyleTable
  0
DIMSTYLE
105
27
330
A
100
AcDbSymbolTableRecord
100
AcDbDimStyleTableRecord
  2
Standard
 70
     0
178
     0
340
11
  0
DIMSTYLE
105
F1
102
{ACAD_REACTORS
330
F2
102
}
330
A
100
AcDbSymbolTableRecord
100
AcDbDimStyleTableRecord
  2
ME10_DIM_10
 70
     0
 41
3.5
 42
0.0
 44
1.0
 73
     0
 74
     0
 77
     1
 78
     8
140
3.5
147
1.0
172
     1
173
     1
174
     1
175
     1
176
     2
177
     2
271
     2
178
     7
271
     2
340
DB
  0
DIMSTYLE
105
FC
102
{ACAD_REACTORS
330
FD
102
}
330
A
100
AcDbSymbolTableRecord
100
AcDbDimStyleTableRecord
  2
ME10_DIM_11
 70
     0
  3
{\Fgdt;n}<>
 41
3.5
 42
0.0
 44
1.0
 73
     0
 74
     0
 77
     1
 78
     8
140
3.5
147
1.0
172
     1
173
     1
174
     1
175
     1
176
     2
177
     2
271
     2
178
     7
271
     2
340
DB
  0
ENDTAB
  0
TABLE
  2
BLOCK_RECORD
  5
1
330
0
100
AcDbSymbolTable
 70
     6
  0
BLOCK_RECORD
  5
1F
330
1
100
AcDbSymbolTableRecord
100
AcDbBlockTableRecord
  2
*Model_Space
340
22
  0
BLOCK_RECORD
  5
1B
330
1
100
AcDbSymbolTableRecord
100
AcDbBlockTableRecord
  2
*Paper_Space
340
1E
  0
BLOCK_RECORD
  5
23
330
1
100
AcDbSymbolTableRecord
100
AcDbBlockTableRecord
  2
*Paper_Space0
340
26
  0
BLOCK_RECORD
  5
48
330
1
100
AcDbSymbolTableRecord
100
AcDbBlockTableRecord
  2
開示A4
340
0
102
{BLKREFS
331
4C
102
}
  0
BLOCK_RECORD
  5
4B
330
1
100
AcDbSymbolTableRecord
100
AcDbBlockTableRecord
  2
開示A4枠
340
0
102
{BLKREFS
331
4F
102
}
  0
BLOCK_RECORD
  5
E8
330
1
100
AcDbSymbolTableRecord
100
AcDbBlockTableRecord
  2
*D3
340
0
  0
BLOCK_RECORD
  5
F3
330
1
100
AcDbSymbolTableRecord
100
AcDbBlockTableRecord
  2
*D4
340
0
  0
BLOCK_RECORD
  5
FE
330
1
100
AcDbSymbolTableRecord
100
AcDbBlockTableRecord
  2
*D5
340
0
102
{BLKREFS
331
105
102
}
  0
ENDTAB
  0
ENDSEC
  0
SECTION
  2
BLOCKS
  0
BLOCK
  5
20
330
1F
100
AcDbEntity
  8
0
100
AcDbBlockBegin
  2
*Model_Space
 70
     0
 10
0.0
 20
0.0
 30
0.0
  3
*Model_Space
  1

  0
ENDBLK
  5
21
330
1F
100
AcDbEntity
  8
0
100
AcDbBlockEnd
  0
BLOCK
  5
1C
330
1B
100
AcDbEntity
 67
     1
  8
0
100
AcDbBlockBegin
  2
*Paper_Space
 70
     0
 10
0.0
 20
0.0
 30
0.0
  3
*Paper_Space
  1

  0
ENDBLK
  5
1D
330
1B
100
AcDbEntity
 67
     1
  8
0
100
AcDbBlockEnd
  0
BLOCK
  5
24
330
23
100
AcDbEntity
  8
0
100
AcDbBlockBegin
  2
*Paper_Space0
 70
     0
 10
0.0
 20
0.0
 30
0.0
  3
*Paper_Space0
  1

  0
ENDBLK
  5
25
330
23
100
AcDbEntity
  8
0
100
AcDbBlockEnd
  0
BLOCK
  5
49
330
48
100
AcDbEntity
  8
0
100
AcDbBlockBegin
  2
開示A4
 70
     0
 10
0.0
 20
0.0
 30
0.0
  3
開示A4
  1

  0
POINT
  5
50
330
48
100
AcDbEntity
  8
1
 62
     4
100
AcDbPoint
 10
34.0
 20
33.99999999999999
 30
0.0
  0
POINT
  5
51
330
48
100
AcDbEntity
  8
1
 62
     4
100
AcDbPoint
 10
57.00000000000001
 20
12.25
 30
0.0
  0
POINT
  5
52
330
48
100
AcDbEntity
  8
1
 62
     4
100
AcDbPoint
 10
57.00000000000001
 20
20.75000000000002
 30
0.0
  0
POINT
  5
53
330
48
100
AcDbEntity
  8
1
 62
     4
100
AcDbPoint
 10
57.00000000000001
 20
24.75000000000002
 30
0.0
  0
POINT
  5
54
330
48
100
AcDbEntity
  8
1
 62
     4
100
AcDbPoint
 10
57.00000000000001
 20
16.25
 30
0.0
  0
POINT
  5
55
330
48
100
AcDbEntity
  8
1
 62
     4
100
AcDbPoint
 10
157.5
 20
19.00000000000002
 30
0.0
  0
POINT
  5
56
330
48
100
AcDbEntity
  8
1
 62
     4
100
AcDbPoint
 10
47.50000000000001
 20
282.0000000000003
 30
0.0
  0
POINT
  5
57
330
48
100
AcDbEntity
  8
1
 62
     4
100
AcDbPoint
 10
57.00000000000001
 20
22.75000000000002
 30
0.0
  0
POINT
  5
58
330
48
100
AcDbEntity
  8
1
 62
     4
100
AcDbPoint
 10
57.00000000000001
 20
14.25
 30
0.0
  0
POINT
  5
59
330
48
100
AcDbEntity
  8
1
 62
     4
100
AcDbPoint
 10
157.5
 20
12.5
 30
0.0
  0
POINT
  5
5A
330
48
100
AcDbEntity
  8
1
 62
     4
100
AcDbPoint
 10
163.25
 20
12.5
 30
0.0
  0
POINT
  5
5B
330
48
100
AcDbEntity
  8
1
 62
     4
100
AcDbPoint
 10
151.75
 20
12.5
 30
0.0
  0
POINT
  5
5C
330
48
100
AcDbEntity
  8
1
 62
     4
100
AcDbPoint
 10
134.75
 20
12.5
 30
0.0
  0
POINT
  5
5D
330
48
100
AcDbEntity
  8
1
 62
     4
100
AcDbPoint
 10
146.25
 20
12.5
 30
0.0
  0
POINT
  5
5E
330
48
100
AcDbEntity
  8
1
 62
     4
100
AcDbPoint
 10
140.5
 20
12.5
 30
0.0
  0
POINT
  5
5F
330
48
100
AcDbEntity
  8
1
 62
     4
100
AcDbPoint
 10
140.5
 20
19.00000000000002
 30
0.0
  0
POINT
  5
60
330
48
100
AcDbEntity
  8
1
 62
     4
100
AcDbPoint
 10
117.75
 20
12.5
 30
0.0
  0
POINT
  5
61
330
48
100
AcDbEntity
  8
1
 62
     4
100
AcDbPoint
 10
129.25
 20
12.5
 30
0.0
  0
POINT
  5
62
330
48
100
AcDbEntity
  8
1
 62
     4
100
AcDbPoint
 10
123.5
 20
12.5
 30
0.0
  0
POINT
  5
63
330
48
100
AcDbEntity
  8
1
 62
     4
100
AcDbPoint
 10
123.5
 20
19.00000000000002
 30
0.0
  0
POINT
  5
64
330
48
100
AcDbEntity
  8
1
 62
     4
100
AcDbPoint
 10
100.75
 20
12.5
 30
0.0
  0
POINT
  5
65
330
48
100
AcDbEntity
  8
1
 62
     4
100
AcDbPoint
 10
112.25
 20
12.5
 30
0.0
  0
POINT
  5
66
330
48
100
AcDbEntity
  8
1
 62
     4
100
AcDbPoint
 10
106.5
 20
12.5
 30
0.0
  0
POINT
  5
67
330
48
100
AcDbEntity
  8
1
 62
     4
100
AcDbPoint
 10
106.5
 20
19.00000000000002
 30
0.0
  0
POINT
  5
68
330
48
100
AcDbEntity
  8
1
 62
     4
100
AcDbPoint
 10
85.25000000000001
 20
17.0
 30
0.0
  0
POINT
  5
69
330
48
100
AcDbEntity
  8
1
 62
     4
100
AcDbPoint
 10
93.75000000000001
 20
17.0
 30
0.0
  0
POINT
  5
6A
330
48
100
AcDbEntity
  8
1
 62
     4
100
AcDbPoint
 10
183.0
 20
15.00000000000002
 30
0.0
  0
LINE
  5
6B
330
48
100
AcDbEntity
  8
1
  6
Continuous
 62
     2
100
AcDbLine
 10
81.00000000000001
 20
27.00000000000002
 30
0.0
 11
81.00000000000001
 21
10.0
 31
0.0
  0
LINE
  5
6C
330
48
100
AcDbEntity
  8
1
  6
DOT_CENTER
 62
     2
100
AcDbLine
 10
187.0
 20
26.50000000000002
 30
0.0
 11
187.0
 21
20.50000000000002
 31
0.0
  0
LINE
  5
6D
330
48
100
AcDbEntity
  8
1
  6
DOT_CENTER
 62
     2
100
AcDbLine
 10
184.0
 20
23.50000000000002
 30
0.0
 11
197.0
 21
23.50000000000002
 31
0.0
  0
LINE
  5
6E
330
48
100
AcDbEntity
  8
1
  6
Continuous
 62
     7
100
AcDbLine
 10
196.0
 20
21.50000000000002
 30
0.0
 11
191.0
 21
22.30000000000001
 31
0.0
  0
LINE
  5
6F
330
48
100
AcDbEntity
  8
1
  6
Continuous
 62
     7
100
AcDbLine
 10
196.0
 20
25.50000000000002
 30
0.0
 11
196.0
 21
21.50000000000002
 31
0.0
  0
LINE
  5
70
330
48
100
AcDbEntity
  8
1
  6
Continuous
 62
     7
100
AcDbLine
 10
191.0
 20
24.70000000000001
 30
0.0
 11
196.0
 21
25.50000000000002
 31
0.0
  0
LINE
  5
71
330
48
100
AcDbEntity
  8
1
  6
Continuous
 62
     7
100
AcDbLine
 10
191.0
 20
24.70000000000001
 30
0.0
 11
191.0
 21
22.30000000000001
 31
0.0
  0
LINE
  5
72
330
48
100
AcDbEntity
  8
1
  6
Continuous
 62
     2
100
AcDbLine
 10
33.0
 20
26.99999999999999
 30
0.0
 11
33.0
 21
10.0
 31
0.0
  0
LINE
  5
73
330
48
100
AcDbEntity
  8
1
  6
Continuous
 62
     2
100
AcDbLine
 10
25.0
 20
18.50000000000002
 30
0.0
 11
81.00000000000001
 21
18.50000000000002
 31
0.0
  0
LINE
  5
74
330
48
100
AcDbEntity
  8
1
  6
Continuous
 62
     7
100
AcDbLine
 10
200.0
 20
287.0000000000003
 30
0.0
 11
105.0
 21
287.0000000000003
 31
0.0
  0
LINE
  5
75
330
48
100
AcDbEntity
  8
1
  6
Continuous
 62
     7
100
AcDbLine
 10
200.0
 20
10.0
 30
0.0
 11
200.0
 21
148.5
 31
0.0
  0
LINE
  5
76
330
48
100
AcDbEntity
  8
1
  6
Continuous
 62
     7
100
AcDbLine
 10
25.0
 20
10.0
 30
0.0
 11
105.0
 21
10.0
 31
0.0
  0
LINE
  5
77
330
48
100
AcDbEntity
  8
1
  6
PHANTOM
 62
     4
100
AcDbLine
 10
0.0
 20
297.0
 30
0.0
 11
0.0
 21
0.0
 31
0.0
  0
LINE
  5
78
330
48
100
AcDbEntity
  8
1
  6
PHANTOM
 62
     4
100
AcDbLine
 10
210.0
 20
297.0
 30
0.0
 11
0.0
 21
297.0
 31
0.0
  0
LINE
  5
79
330
48
100
AcDbEntity
  8
1
  6
PHANTOM
 62
     4
100
AcDbLine
 10
210.0
 20
0.0
 30
0.0
 11
210.0
 21
297.0
 31
0.0
  0
LINE
  5
7A
330
48
100
AcDbEntity
  8
1
  6
PHANTOM
 62
     4
100
AcDbLine
 10
0.0
 20
0.0
 30
0.0
 11
210.0
 21
0.0
 31
0.0
  0
LINE
  5
7B
330
48
100
AcDbEntity
  8
1
  6
Continuous
 62
     7
100
AcDbLine
 10
25.0
 20
40.99999999999999
 30
0.0
 11
200.0
 21
40.99999999999999
 31
0.0
  0
LINE
  5
7C
330
48
100
AcDbEntity
  8
1
  6
Continuous
 62
     7
100
AcDbLine
 10
200.0
 20
27.00000000000002
 30
0.0
 11
25.0
 21
27.00000000000002
 31
0.0
  0
LINE
  5
7D
330
48
100
AcDbEntity
  8
1
  6
Continuous
 62
     2
100
AcDbLine
 10
33.0
 20
40.99999999999999
 30
0.0
 11
33.0
 21
26.99999999999999
 31
0.0
  0
LINE
  5
7E
330
48
100
AcDbEntity
  8
1
  6
Continuous
 62
     2
100
AcDbLine
 10
55.00000000000001
 20
287.0000000000003
 30
0.0
 11
55.00000000000001
 21
277.0000000000003
 31
0.0
  0
LINE
  5
7F
330
48
100
AcDbEntity
  8
1
  6
Continuous
 62
     2
100
AcDbLine
 10
40.0
 20
287.0000000000003
 30
0.0
 11
40.0
 21
277.0000000000003
 31
0.0
  0
LINE
  5
80
330
48
100
AcDbEntity
  8
1
  6
Continuous
 62
     7
100
AcDbLine
 10
25.0
 20
10.0
 30
0.0
 11
25.0
 21
148.5
 31
0.0
  0
LINE
  5
81
330
48
100
AcDbEntity
  8
1
  6
Continuous
 62
     2
100
AcDbLine
 10
55.00000000000001
 20
277.0000000000003
 30
0.0
 11
25.0
 21
277.0000000000003
 31
0.0
  0
LINE
  5
82
330
48
100
AcDbEntity
  8
1
  6
Continuous
 62
     2
100
AcDbLine
 10
166.0
 20
27.00000000000002
 30
0.0
 11
166.0
 21
10.0
 31
0.0
  0
LINE
  5
83
330
48
100
AcDbEntity
  8
1
  6
Continuous
 62
     2
100
AcDbLine
 10
132.0
 20
27.00000000000002
 30
0.0
 11
132.0
 21
9.99999999999999
 31
0.0
  0
LINE
  5
84
330
48
100
AcDbEntity
  8
1
  6
Continuous
 62
     2
100
AcDbLine
 10
149.0
 20
27.00000000000002
 30
0.0
 11
149.0
 21
10.0
 31
0.0
  0
LINE
  5
85
330
48
100
AcDbEntity
  8
1
  6
Continuous
 62
     2
100
AcDbLine
 10
115.0
 20
27.00000000000002
 30
0.0
 11
115.0
 21
9.99999999999999
 31
0.0
  0
LINE
  5
86
330
48
100
AcDbEntity
  8
1
  6
Continuous
 62
     2
100
AcDbLine
 10
98.0
 20
27.00000000000002
 30
0.0
 11
98.0
 21
10.0
 31
0.0
  0
LINE
  5
87
330
48
100
AcDbEntity
  8
1
  6
Continuous
 62
     2
100
AcDbLine
 10
166.0
 20
20.00000000000002
 30
0.0
 11
200.0
 21
20.00000000000002
 31
0.0
  0
LINE
  5
88
330
48
100
AcDbEntity
  8
1
  6
Continuous
 62
     2
100
AcDbLine
 10
105.0
 20
287.0000000000003
 30
0.0
 11
105.0
 21
292.0000000000003
 31
0.0
  0
LINE
  5
89
330
48
100
AcDbEntity
  8
1
  6
Continuous
 62
     7
100
AcDbLine
 10
105.0
 20
287.0000000000003
 30
0.0
 11
25.0
 21
287.0000000000003
 31
0.0
  0
LINE
  5
8A
330
48
100
AcDbEntity
  8
1
  6
Continuous
 62
     2
100
AcDbLine
 10
25.0
 20
148.5
 30
0.0
 11
20.0
 21
148.5
 31
0.0
  0
LINE
  5
8B
330
48
100
AcDbEntity
  8
1
  6
Continuous
 62
     7
100
AcDbLine
 10
25.0
 20
148.5
 30
0.0
 11
25.0
 21
287.0000000000003
 31
0.0
  0
LINE
  5
8C
330
48
100
AcDbEntity
  8
1
  6
Continuous
 62
     2
100
AcDbLine
 10
200.0
 20
148.5
 30
0.0
 11
205.0
 21
148.5
 31
0.0
  0
LINE
  5
8D
330
48
100
AcDbEntity
  8
1
  6
Continuous
 62
     7
100
AcDbLine
 10
200.0
 20
148.5
 30
0.0
 11
200.0
 21
287.0000000000003
 31
0.0
  0
LINE
  5
8E
330
48
100
AcDbEntity
  8
1
  6
Continuous
 62
     2
100
AcDbLine
 10
105.0
 20
10.0
 30
0.0
 11
105.0
 21
5.0
 31
0.0
  0
LINE
  5
8F
330
48
100
AcDbEntity
  8
1
  6
Continuous
 62
     7
100
AcDbLine
 10
105.0
 20
10.0
 30
0.0
 11
200.0
 21
10.0
 31
0.0
  0
CIRCLE
  5
94
330
48
100
AcDbEntity
  8
1
  6
DOT_CENTER
 62
     7
100
AcDbCircle
 10
89.50000000000001
 20
18.0
 30
0.0
 40
0.1000000000000085
  0
CIRCLE
  5
95
330
48
100
AcDbEntity
  8
1
  6
DOT_CENTER
 62
     7
100
AcDbCircle
 10
89.50000000000001
 20
16.0
 30
0.0
 40
0.1000000000000085
  0
CIRCLE
  5
96
330
48
100
AcDbEntity
  8
1
  6
Continuous
 62
     7
100
AcDbCircle
 10
187.0
 20
23.50000000000002
 30
0.0
 40
2.0
  0
CIRCLE
  5
97
330
48
100
AcDbEntity
  8
1
  6
Continuous
 62
     7
100
AcDbCircle
 10
187.0
 20
23.50000000000002
 30
0.0
 40
1.200000000000102
  0
CIRCLE
  5
98
330
48
100
AcDbEntity
  8
1
  6
Continuous
 62
     7
100
AcDbCircle
 10
154.5
 20
12.5
 30
0.0
 40
0.3000000000000114
  0
CIRCLE
  5
99
330
48
100
AcDbEntity
  8
1
  6
Continuous
 62
     7
100
AcDbCircle
 10
160.5
 20
12.5
 30
0.0
 40
0.3000000000000114
  0
CIRCLE
  5
9A
330
48
100
AcDbEntity
  8
1
  6
Continuous
 62
     7
100
AcDbCircle
 10
143.5
 20
12.5
 30
0.0
 40
0.3000000000000114
  0
CIRCLE
  5
9B
330
48
100
AcDbEntity
  8
1
  6
Continuous
 62
     7
100
AcDbCircle
 10
137.5
 20
12.5
 30
0.0
 40
0.3000000000000114
  0
CIRCLE
  5
9C
330
48
100
AcDbEntity
  8
1
  6
Continuous
 62
     7
100
AcDbCircle
 10
126.5
 20
12.5
 30
0.0
 40
0.2999999999999972
  0
CIRCLE
  5
9D
330
48
100
AcDbEntity
  8
1
  6
Continuous
 62
     7
100
AcDbCircle
 10
120.5
 20
12.5
 30
0.0
 40
0.2999999999999972
  0
CIRCLE
  5
9E
330
48
100
AcDbEntity
  8
1
  6
Continuous
 62
     7
100
AcDbCircle
 10
109.5
 20
12.5
 30
0.0
 40
0.2999999999999972
  0
CIRCLE
  5
9F
330
48
100
AcDbEntity
  8
1
  6
Continuous
 62
     7
100
AcDbCircle
 10
103.5
 20
12.5
 30
0.0
 40
0.2999999999999972
  0
SPLINE
  5
A0
102
{ACAD_REACTORS
330
BE
102
}
330
48
100
AcDbEntity
  8
_U_30EC_U_30A4_U_30E4_U_30FC_1
  6
Continuous
 62
     2
100
AcDbSpline
210
0.0
220
0.0
230
1.0
 70
    11
 71
     3
 72
    99
 73
    95
 74
    93
 42
0.000000001
 43
0.0000000001
 44
0.00000001
 40
0.0
 40
0.0
 40
0.0
 40
0.0
 40
0.0796417172272862
 40
0.162176854235597
 40
0.2486489160957605
 40
0.3404969668524577
 40
0.4381912511165141
 40
0.5434463660244879
 40
0.6518115192847199
 40
0.7530190937887586
 40
0.8492196919725128
 40
0.9419290312998807
 40
1.03424966357005
 40
1.129078600620205
 40
1.22669702757325
 40
1.327220425421713
 40
1.470572134938027
 40
1.595489863371227
 40
1.719934125348412
 40
1.850576620127431
 40
1.98905962998732
 40
2.134139054226939
 40
2.280698007207225
 40
2.424529739039492
 40
2.565929576985812
 40
2.708239260773545
 40
2.861717887443652
 40
3.045168540347358
 40
3.183798301138599
 40
3.314813961455433
 40
3.442083470447283
 40
3.56991270837294
 40
3.702177512509341
 40
3.842307559659506
 40
3.99287222324591
 40
4.156750662218299
 40
4.31098186110752
 40
4.445859909322566
 40
4.572393936131585
 40
4.70165671978196
 40
4.768279086008421
 40
4.835960697898378
 40
4.912788918729308
 40
5.00628520848151
 40
5.026909478751587
 40
5.047533749021151
 40
5.101808031471224
 40
5.162325165538503
 40
5.226919745995823
 40
5.294231806596696
 40
5.364544852554821
 40
5.438319055467818
 40
5.517877651324234
 40
5.607647714861546
 40
5.700449642544393
 40
5.788251142364124
 40
5.872714706039754
 40
5.955167292575271
 40
6.037192395190358
 40
6.120669181469093
 40
6.206848616686332
 40
6.296680855416743
 40
6.442558392872574
 40
6.568190371608263
 40
6.692904567360386
 40
6.824220446557187
 40
6.963121850329372
 40
7.107843738851134
 40
7.253431663907245
 40
7.395187468036668
 40
7.533140753237724
 40
7.670550457175268
 40
7.816236511769272
 40
7.98769165735923
 40
8.142277421969256
 40
8.293662615415007
 40
8.442962460879302
 40
8.591598316185348
 40
8.743678992361824
 40
8.903725323699133
 40
9.076307008890534
 40
9.265578604680533
 40
9.459203795360764
 40
9.617619810273577
 40
9.753609671361936
 40
9.874873300004108
 40
9.954520184977811
 40
10.02416413719248
 40
10.09769764405449
 40
10.18909955924976
 40
10.20974586420137
 40
10.23039218263383
 40
10.30057101881268
 40
10.37632012987548
 40
10.37632012987548
 40
10.37632012987548
 40
10.37632012987548
 10
170.1465954835851
 20
14.13795663215994
 30
0.0
 10
170.1632217851219
 20
14.11720608845313
 30
0.0
 10
170.1970784206578
 20
14.07495111711905
 30
0.0
 10
170.2599822541035
 20
14.02029811392069
 30
0.0
 10
170.3332500940394
 20
13.97299025121052
 30
0.0
 10
170.4175969238636
 20
13.93527231437933
 30
0.0
 10
170.513224061546
 20
13.91040619731953
 30
0.0
 10
170.6171853775346
 20
13.90309559345936
 30
0.0
 10
170.7224020220405
 20
13.91142322794056
 30
0.0
 10
170.8206626371333
 20
13.94149179651523
 30
0.0
 10
170.9058986427548
 20
13.98848822971882
 30
0.0
 10
170.9779220206104
 20
14.04952991250851
 30
0.0
 10
171.0350917709096
 20
14.12412969578586
 30
0.0
 10
171.0767868747439
 20
14.21002464660174
 30
0.0
 10
171.1026952846292
 20
14.30485850432211
 30
0.0
 10
171.1118037332653
 20
14.41854979038367
 30
0.0
 10
171.0986864796487
 20
14.54332587770779
 30
0.0
 10
171.0325330334414
 20
14.66014719171892
 30
0.0
 10
170.9369370919569
 20
14.74512539577374
 30
0.0
 10
170.8249681022369
 20
14.81416684459162
 30
0.0
 10
170.6993659583269
 20
14.87204142045891
 30
0.0
 10
170.5656691620856
 20
14.92373723284342
 30
0.0
 10
170.431312281883
 20
14.97899092397181
 30
0.0
 10
170.3051983986877
 20
15.04939770641648
 30
0.0
 10
170.1926579987535
 20
15.13785540731252
 30
0.0
 10
170.0969963064458
 20
15.24981067868469
 30
0.0
 10
170.0334157151826
 20
15.39949910101384
 30
0.0
 10
170.0200706505016
 20
15.55932794385141
 30
0.0
 10
170.0320510987449
 20
15.71048405306846
 30
0.0
 10
170.071229892884
 20
15.83809244591539
 30
0.0
 10
170.135498775091
 20
15.95080874030844
 30
0.0
 10
170.223820499974
 20
16.04648609268686
 30
0.0
 10
170.3338091207628
 20
16.12354214985754
 30
0.0
 10
170.4632284401264
 20
16.18151396936277
 30
0.0
 10
170.6111838967793
 20
16.21739177588822
 30
0.0
 10
170.7682069455487
 20
16.22746719050564
 30
0.0
 10
170.917494046643
 20
16.2186363776259
 30
0.0
 10
171.059625361417
 20
16.19074899340351
 30
0.0
 10
171.1595922609625
 20
16.13413314701139
 30
0.0
 10
171.3125074736184
 20
16.08674602105508
 30
0.0
 10
171.2455131717169
 20
16.00197553001182
 30
0.0
 10
171.2296479120269
 20
15.93438901873486
 30
0.0
 10
171.1978750531297
 20
15.8692609279319
 30
0.0
 10
171.215020220957
 20
15.76723453256954
 30
0.0
 10
171.1666427208232
 20
15.77493211681902
 30
0.0
 10
171.1315789440766
 20
15.76806771724808
 30
0.0
 10
171.1296697985718
 20
15.83263831158196
 30
0.0
 10
171.0985692931988
 20
15.87825639621395
 30
0.0
 10
171.0664551628455
 20
15.93561036628455
 30
0.0
 10
171.0208038475168
 20
15.98540462692558
 30
0.0
 10
170.9658508218387
 20
16.02994813718993
 30
0.0
 10
170.9010841173008
 20
16.06763988836554
 30
0.0
 10
170.8232377310596
 20
16.0928337579135
 30
0.0
 10
170.7355160553352
 20
16.09931230998111
 30
0.0
 10
170.6452903277806
 20
16.09235709285607
 30
0.0
 10
170.5594594694064
 20
16.06909190460921
 30
0.0
 10
170.4828343638596
 20
16.03131644107545
 30
0.0
 10
170.4165265636201
 20
15.98051641089573
 30
0.0
 10
170.3622560536964
 20
15.9173114340721
 30
0.0
 10
170.3224925345459
 20
15.84276455710367
 30
0.0
 10
170.2976775510588
 20
15.75917313997763
 30
0.0
 10
170.2892124262869
 20
15.65192948382285
 30
0.0
 10
170.3019697987103
 20
15.52965457267559
 30
0.0
 10
170.3681548409273
 20
15.4114972429121
 30
0.0
 10
170.4640977399833
 20
15.32606325709528
 30
0.0
 10
170.5757914963182
 20
15.25583362306724
 30
0.0
 10
170.7010863668703
 20
15.19659162305303
 30
0.0
 10
170.8349823941447
 20
15.14616708086131
 30
0.0
 10
170.968993033315
 20
15.09322516984382
 30
0.0
 10
171.0950885316915
 20
15.02750170625176
 30
0.0
 10
171.2076216638417
 20
14.94480352537318
 30
0.0
 10
171.3031370284233
 20
14.83996006310077
 30
0.0
 10
171.3672706486963
 20
14.69937117251569
 30
0.0
 10
171.3811103725279
 20
14.54065409451592
 30
0.0
 10
171.367395471223
 20
14.38153155217877
 30
0.0
 10
171.3244739153986
 20
14.23483828819206
 30
0.0
 10
171.2545906329065
 20
14.10119796587144
 30
0.0
 10
171.157459221383
 20
13.98532387699291
 30
0.0
 10
171.0347806023657
 20
13.8908998177009
 30
0.0
 10
170.8874408413168
 20
13.82179270651978
 30
0.0
 10
170.7177132497125
 20
13.77953210858855
 30
0.0
 10
170.5317404979597
 20
13.76781736230406
 30
0.0
 10
170.3528955926183
 20
13.77809486683437
 30
0.0
 10
170.1881733753743
 20
13.81966573769153
 30
0.0
 10
170.0834410841056
 20
13.88797642883941
 30
0.0
 10
169.9350960790365
 20
13.93675219032106
 30
0.0
 10
169.9980378194729
 20
14.02976591290841
 30
0.0
 10
170.0072274430059
 20
14.10296536248281
 30
0.0
 10
170.0303711301232
 20
14.16936294501344
 30
0.0
 10
170.0034588335318
 20
14.26974809527582
 30
0.0
 10
170.0521338956338
 20
14.26234033517378
 30
0.0
 10
170.0916530580698
 20
14.26894063620895
 30
0.0
 10
170.0996204944701
 20
14.19078703218931
 30
0.0
 10
170.1305436967922
 20
14.15600927375856
 30
0.0
 10
170.1465954835851
 20
14.13795663215994
 30
0.0
 11
170.1465954835851
 21
14.13795663215994
 31
0.0
 11
170.1982038075864
 21
14.07729869814736
 31
0.0
 11
170.2601105501335
 21
14.0227129516332
 31
0.0
 11
170.3327764009802
 21
13.97583980928383
 31
0.0
 11
170.4166468655843
 21
13.93839906276537
 31
0.0
 11
170.511221073241
 21
13.91390636311878
 31
0.0
 11
170.6161603327165
 21
13.90575829888472
 31
0.0
 11
170.7240739497552
 21
13.91564048638223
 31
0.0
 11
170.8208419941617
 21
13.94528704887482
 31
0.0
 11
170.9050776083319
 21
13.99175118948819
 31
0.0
 11
170.9756144207687
 21
14.0519141321815
 31
0.0
 11
171.031944210998
 21
14.12505819466319
 31
0.0
 11
171.0736690016003
 21
14.21021434047522
 31
0.0
 11
171.0994680808032
 21
14.30436190989612
 31
0.0
 11
171.1080824729446
 21
14.4045155209822
 31
0.0
 11
171.0878517703357
 21
14.54643250879397
 31
0.0
 11
171.0272522666731
 21
14.65566684036387
 31
0.0
 11
170.9364971286285
 21
14.74081306430095
 31
0.0
 11
170.826010188474
 21
14.81052746532517
 31
0.0
 11
170.7008523531254
 21
14.86979854169923
 31
0.0
 11
170.5662951950998
 21
14.92404253474121
 31
0.0
 11
170.4316884277007
 21
14.98201274306004
 31
0.0
 11
170.3065802017258
 21
15.05297399304232
 31
0.0
 11
170.196027609828
 21
15.14113315968694
 31
0.0
 11
170.1053381235265
 21
15.25080295132617
 31
0.0
 11
170.0447055469484
 21
15.39179720476315
 31
0.0
 11
170.0245079172554
 21
15.57413260402314
 31
0.0
 11
170.0374030471347
 21
15.71216131926642
 31
0.0
 11
170.0761016659391
 21
15.83733128451289
 31
0.0
 11
170.1393141731506
 21
15.94779262129084
 31
0.0
 11
170.2257499954545
 21
16.04196885390621
 31
0.0
 11
170.3336492808962
 21
16.11846540770651
 31
0.0
 11
170.4613526283328
 21
16.17615670109487
 31
0.0
 11
170.6075393259923
 21
16.21220066809973
 31
0.0
 11
170.770976856545
 21
16.22421385386062
 31
0.0
 11
170.9248918431289
 21
16.21434269066864
 31
0.0
 11
171.0564887242607
 21
16.18477329831497
 31
0.0
 11
171.172563634494
 21
16.13439993895252
 31
0.0
 11
171.2800792741122
 21
16.06264163167877
 31
0.0
 11
171.2516994050445
 21
16.00236624106886
 31
0.0
 11
171.2284855254283
 21
15.93879017337648
 31
0.0
 11
171.2078381040801
 21
15.86478841992269
 31
0.0
 11
171.1871840681487
 21
15.77360197897328
 31
0.0
 11
171.1665597978415
 21
15.77360197897328
 31
0.0
 11
171.1459355275343
 21
15.77360197897328
 31
0.0
 11
171.1256706495791
 21
15.82395108486347
 31
0.0
 11
171.0994658759421
 21
15.87850045116929
 31
0.0
 11
171.0650468924451
 21
15.93316116296115
 31
0.0
 11
171.0203554612937
 21
15.98349593725411
 31
0.0
 11
170.9657333359511
 21
16.02777175321529
 31
0.0
 11
170.9016722004327
 21
16.06436142334501
 31
0.0
 11
170.825968296114
 21
16.08882545979727
 31
0.0
 11
170.7365722046449
 21
16.09701100667022
 31
0.0
 11
170.6440937174207
 21
16.08926973931101
 31
0.0
 11
170.5594072091645
 21
16.06609003445566
 31
0.0
 11
170.483702448884
 21
16.02863495634008
 31
0.0
 11
170.4183754766516
 21
15.97832774281102
 31
0.0
 11
170.3650487887664
 21
15.9160029337988
 31
0.0
 11
170.3254809233901
 21
15.84249947895607
 31
0.0
 11
170.3009523754711
 21
15.75988443557391
 31
0.0
 11
170.2927954104108
 21
15.67042329844353
 31
0.0
 11
170.3130095765617
 21
15.52595308146574
 31
0.0
 11
170.373625616682
 21
15.41591177072937
 31
0.0
 11
170.4643479320758
 21
15.33033670130631
 31
0.0
 11
170.5748676948814
 21
15.25941954854625
 31
0.0
 11
170.7000089937719
 21
15.19914305550579
 31
0.0
 11
170.8345826882553
 21
15.14590447913021
 31
0.0
 11
170.9691729191968
 21
15.09039489581074
 31
0.0
 11
171.0942976816297
 21
15.0237728124941
 31
0.0
 11
171.204800907977
 21
14.94118863716749
 31
0.0
 11
171.2955397598289
 21
14.83800003476272
 31
0.0
 11
171.3561557999489
 21
14.70552315979584
 31
0.0
 11
171.3763699660998
 21
14.53526378483839
 31
0.0
 11
171.3621839747998
 21
14.38133030397413
 31
0.0
 11
171.3196087009194
 21
14.23605531269097
 31
0.0
 11
171.2499752884265
 21
14.10398854189068
 31
0.0
 11
171.1544992078713
 21
13.99007218775248
 31
0.0
 11
171.0341060772624
 21
13.89715272597017
 31
0.0
 11
170.8896160201847
 21
13.8283235766818
 31
0.0
 11
170.7223519532714
 21
13.78581275203967
 31
0.0
 11
170.5336103348227
 21
13.77165864614041
 31
0.0
 11
170.3405031726388
 21
13.78581275203967
 31
0.0
 11
170.1878975900911
 21
13.8283235766818
 31
0.0
 11
170.0661897942203
 21
13.88899033013889
 31
0.0
 11
169.9660261826363
 21
13.95734322942737
 31
0.0
 11
169.9922320587039
 21
14.03255545163076
 31
0.0
 11
170.0090121537618
 21
14.10014767383612
 31
0.0
 11
170.0206196447852
 21
14.17275926235962
 31
0.0
 11
170.0313606254139
 21
14.26352788212859
 31
0.0
 11
170.0520069443315
 21
14.26352788212859
 31
0.0
 11
170.0726532632492
 21
14.26352788212859
 31
0.0
 11
170.1048916391629
 21
14.20119204881083
 31
0.0
 11
170.1465954835851
 21
14.13795663215994
 31
0.0
  0
SPLINE
  5
A1
102
{ACAD_REACTORS
330
BF
102
}
330
48
100
AcDbEntity
  8
_U_30EC_U_30A4_U_30E4_U_30FC_1
  6
Continuous
 62
     2
100
AcDbSpline
210
0.0
220
0.0
230
1.0
 70
    11
 71
     3
 72
    57
 73
    53
 74
    51
 42
0.000000001
 43
0.0000000001
 44
0.00000001
 40
0.0
 40
0.0
 40
0.0
 40
0.0
 40
0.0471632082810098
 40
0.0914861054633018
 40
0.1357762519703253
 40
0.1826527001611548
 40
0.2295203288573457
 40
0.2737751972221626
 40
0.3181310461543937
 40
0.3652607198398549
 40
0.4571007286314814
 40
0.5671851029165688
 40
0.6894623283868775
 40
0.8181758272546046
 40
0.9510087229274391
 40
1.085852229674096
 40
1.218126164475332
 40
1.343545131142392
 40
1.454537202956893
 40
1.567187607530903
 40
1.680710966642521
 40
1.794226869736885
 40
1.900009184247685
 40
2.004085860447964
 40
2.108162674451852
 40
2.214000150155311
 40
2.496038577352179
 40
2.762350745479318
 40
2.997275353279423
 40
3.18511008213778
 40
3.246407890064008
 40
3.312607550212739
 40
3.378877742711641
 40
3.440140399651497
 40
4.10050169600653
 40
4.754913085563581
 40
5.41133169342399
 40
6.077890432568768
 40
6.110575292671047
 40
6.143260152775827
 40
6.367989363395219
 40
6.610525374951648
 40
6.863389136467385
 40
7.119380025547652
 40
7.376036605091155
 40
7.631164770966346
 40
7.87672242545648
 40
8.104953735856014
 40
8.312916685924355
 40
8.497730294941402
 40
8.651018984313925
 40
8.764738853624696
 40
8.764738853624696
 40
8.764738853624696
 40
8.764738853624696
 10
174.7922649500514
 20
13.81626739612926
 30
0.0
 10
174.7766616726932
 20
13.81826231079078
 30
0.0
 10
174.7463947960302
 20
13.82213201360299
 30
0.0
 10
174.7010994202252
 20
13.82341984967269
 30
0.0
 10
174.6559553129349
 20
13.82308683554051
 30
0.0
 10
174.6099017123399
 20
13.82314658674225
 30
0.0
 10
174.5640496172097
 20
13.82325813650002
 30
0.0
 10
174.5183711648164
 20
13.8227783345659
 30
0.0
 10
174.4750811541608
 20
13.82461109618723
 30
0.0
 10
174.4039947951515
 20
13.80049556814656
 30
0.0
 10
174.4057477261441
 20
13.92184693977252
 30
0.0
 10
174.358619637057
 20
14.00726239751233
 30
0.0
 10
174.3191478251761
 20
14.12486929345133
 30
0.0
 10
174.2706635532646
 20
14.24232752540443
 30
0.0
 10
174.2201017402522
 20
14.36405935761507
 30
0.0
 10
174.1718634610477
 20
14.49075967862464
 30
0.0
 10
174.1135232947595
 20
14.59933687784953
 30
0.0
 10
174.0980892667262
 20
14.75620657134413
 30
0.0
 10
173.9566586330636
 20
14.72373446548322
 30
0.0
 10
173.8508397414903
 20
14.7351288868218
 30
0.0
 10
173.7358569725222
 20
14.73392591514615
 30
0.0
 10
173.6253142252141
 20
14.73506945347408
 30
0.0
 10
173.5176583522783
 20
14.73418350037526
 30
0.0
 10
173.4121322529242
 20
14.73416602390518
 30
0.0
 10
173.3109192682013
 20
14.72714032472416
 30
0.0
 10
173.1266804827754
 20
14.75135859859864
 30
0.0
 10
173.1157393685411
 20
14.44741691121887
 30
0.0
 10
173.008769163475
 20
14.22353177253398
 30
0.0
 10
172.9098148604348
 20
14.03895314292495
 30
0.0
 10
172.9225090524007
 20
13.79530204804204
 30
0.0
 10
172.8050091716397
 20
13.82508046753198
 30
0.0
 10
172.7422055868309
 20
13.82258089509604
 30
0.0
 10
172.67858720934
 20
13.82344075102806
 30
0.0
 10
172.3946014194075
 20
13.78098039941939
 30
0.0
 10
173.0251638499381
 20
14.50081952444788
 30
0.0
 10
173.108764528907
 20
15.01276539435728
 30
0.0
 10
173.492925278934
 20
15.53353743550044
 30
0.0
 10
173.4777208288563
 20
16.23519626253213
 30
0.0
 10
173.7239265722697
 20
16.22345633081256
 30
0.0
 10
173.8256346157561
 20
16.23225004452773
 30
0.0
 10
173.8249752035818
 20
15.98059650730344
 30
0.0
 10
173.9428317155829
 20
15.79818020733961
 30
0.0
 10
174.0315515260485
 20
15.55563740662865
 30
0.0
 10
174.1322292485259
 20
15.32340030530127
 30
0.0
 10
174.2311142712243
 20
15.08674644566914
 30
0.0
 10
174.3299676990669
 20
14.85461739170094
 30
0.0
 10
174.4256166390925
 20
14.63122222788788
 30
0.0
 10
174.5159904573271
 20
14.42272549049317
 30
0.0
 10
174.5989944568189
 20
14.23308448529318
 30
0.0
 10
174.6726088582801
 20
14.06663106068104
 30
0.0
 10
174.7342815895545
 20
13.92917699626094
 30
0.0
 10
174.7749458885604
 20
13.84999239430033
 30
0.0
 10
174.7922649500514
 20
13.81626739612926
 30
0.0
 11
174.7922649500514
 21
13.81626739612926
 31
0.0
 11
174.7453878317448
 21
13.82145433189186
 31
0.0
 11
174.7010975896125
 21
13.82315538223863
 31
0.0
 11
174.6568074431729
 21
13.82315538223863
 31
0.0
 11
174.6099309947159
 21
13.82315538223863
 31
0.0
 11
174.5630633657033
 21
13.82315538223863
 31
0.0
 11
174.5188084970408
 21
13.82315538223863
 31
0.0
 11
174.4744852776854
 21
13.82145433189186
 31
0.0
 11
174.4276419021444
 21
13.81626739612926
 31
0.0
 11
174.3992532136325
 21
13.90360966173245
 31
0.0
 11
174.3622721815898
 21
14.0072965627482
 31
0.0
 11
174.3188386236701
 21
14.12159987001127
 31
0.0
 11
174.2711055866937
 21
14.24113531268969
 31
0.0
 11
174.2208160133237
 21
14.36408057307565
 31
0.0
 11
174.1696467003932
 21
14.48883822929446
 31
0.0
 11
174.1197531801326
 21
14.61134141502772
 31
0.0
 11
174.0733119111842
 21
14.72784517367917
 31
0.0
 11
173.9623611907589
 21
14.73087465284506
 31
0.0
 11
173.8497309225089
 21
14.7330045486779
 31
0.0
 11
173.7362152069449
 21
14.7343219531914
 31
0.0
 11
173.62270004768
 21
14.73473315978852
 31
0.0
 11
173.5169185312816
 21
14.7343219531914
 31
0.0
 11
173.4128501919225
 21
14.7330045486779
 31
0.0
 11
173.3087951724045
 21
14.73087465284506
 31
0.0
 11
173.2030010615597
 21
14.72784517367917
 31
0.0
 11
173.0980914750139
 21
14.4660443751335
 31
0.0
 11
173.0034868690331
 21
14.2171023265846
 31
0.0
 11
172.9252231210299
 21
13.99559756969557
 31
0.0
 11
172.8693431224555
 21
13.81626739612926
 31
0.0
 11
172.8082651639442
 21
13.82145433189186
 31
0.0
 11
172.742087361813
 21
13.82315538223863
 31
0.0
 11
172.6758390041282
 21
13.82145433189186
 31
0.0
 11
172.6147963233938
 21
13.81626739612926
 31
0.0
 11
172.889968495193
 21
14.41656508695143
 31
0.0
 11
173.158294573417
 21
15.01343642360775
 31
0.0
 11
173.4240277350405
 21
15.61366245644382
 31
0.0
 11
173.6914740737033
 21
16.22421385386062
 31
0.0
 11
173.7241589339806
 21
16.22421385386062
 31
0.0
 11
173.7568437942579
 21
16.22421385386062
 31
0.0
 11
173.8428300681057
 21
16.01658539037084
 31
0.0
 11
173.935728581361
 21
15.79254614563517
 31
0.0
 11
174.0328714521464
 21
15.55908663180469
 31
0.0
 11
174.1317936458031
 21
15.32298128464146
 31
0.0
 11
174.2315341249927
 21
15.08649780379784
 31
0.0
 11
174.3313071129353
 21
14.85168781253711
 31
0.0
 11
174.4280608257448
 21
14.6259949219685
 31
0.0
 11
174.5188084970408
 21
14.4165805209792
 31
0.0
 11
174.6022150834546
 21
14.22607611130461
 31
0.0
 11
174.6770293263378
 21
14.05708232662467
 31
0.0
 11
174.7410729186603
 21
13.91781337700668
 31
0.0
 11
174.7922649500514
 21
13.81626739612926
 31
0.0
  0
SPLINE
  5
A2
102
{ACAD_REACTORS
330
BF
102
}
330
48
100
AcDbEntity
  8
_U_30EC_U_30A4_U_30E4_U_30FC_1
  6
Continuous
 62
     2
100
AcDbSpline
210
0.0
220
0.0
230
1.0
 70
    11
 71
     3
 72
    25
 73
    21
 74
    19
 42
0.000000001
 43
0.0000000001
 44
0.00000001
 40
0.0
 40
0.0
 40
0.0
 40
0.0
 40
0.0911479969064822
 40
0.1858117896204668
 40
0.2804128399734493
 40
0.3715889190714513
 40
0.467908049421871
 40
0.5642683809229233
 40
0.6605683222645279
 40
0.7569653015811114
 40
0.8561348172523597
 40
1.092615965104386
 40
1.374867658141977
 40
1.611348812011713
 40
1.710518328425359
 40
1.809403163726676
 40
2.045205463294179
 40
2.326646917622234
 40
2.562449217190693
 40
2.661334043834012
 40
2.661334043834012
 40
2.661334043834012
 40
2.661334043834012
 10
173.2683700567199
 20
14.88614538197293
 30
0.0
 10
173.2987525917923
 20
14.88598079714555
 30
0.0
 10
173.3606895889112
 20
14.88564528689922
 30
0.0
 10
173.454135696033
 20
14.88269055452
 30
0.0
 10
173.5475095236357
 20
14.8797775287715
 30
0.0
 10
173.6417760753476
 20
14.87894201643416
 30
0.0
 10
173.7354964790967
 20
14.87996644658047
 30
0.0
 10
173.8352040303204
 20
14.87916977470971
 30
0.0
 10
173.9188949546313
 20
14.8892141023522
 30
0.0
 10
174.0637996315046
 20
14.86234617674164
 30
0.0
 10
173.9396132444801
 20
15.03665530280049
 30
0.0
 10
173.8965867286283
 20
15.19651711006092
 30
0.0
 10
173.780892214221
 20
15.45518458550216
 30
0.0
 10
173.7017565431257
 20
15.59231052861857
 30
0.0
 10
173.6431576621816
 20
15.80937033134077
 30
0.0
 10
173.5864803939438
 20
15.59266134213428
 30
0.0
 10
173.5052809900478
 20
15.45327012438237
 30
0.0
 10
173.4063701281488
 20
15.20406969370195
 30
0.0
 10
173.3253625094259
 20
15.01925830226074
 30
0.0
 10
173.2813683325838
 20
14.91650446856117
 30
0.0
 10
173.2683700567199
 20
14.88614538197293
 30
0.0
 11
173.2683700567199
 21
14.88614538197293
 31
0.0
 11
173.359513773782
 21
14.8852612326676
 31
0.0
 11
173.4541428297581
 21
14.88269697919599
 31
0.0
 11
173.5487082179706
 21
14.88009965280777
 31
0.0
 11
173.6398803250196
 21
14.8792485764191
 31
0.0
 11
173.7361985777706
 21
14.87965978301621
 31
0.0
 11
173.8325499034376
 21
14.88097718752971
 31
0.0
 11
173.9288262638286
 21
14.88310818579313
 31
0.0
 11
174.0251753846344
 21
14.88614538197293
 31
0.0
 11
173.9854633323142
 21
14.97701642195021
 31
0.0
 11
173.8907653613969
 21
15.19370890189603
 31
0.0
 11
173.7777387509471
 21
15.45234186183135
 31
0.0
 11
173.6830407800297
 21
15.66903434177717
 31
0.0
 11
173.6433287277095
 21
15.75990538175445
 31
0.0
 11
173.6043330259266
 21
15.66903434177717
 31
0.0
 11
173.5113432755212
 21
15.45234186183135
 31
0.0
 11
173.4003555089082
 21
15.19370890189603
 31
0.0
 11
173.3073657585028
 21
14.97701642195021
 31
0.0
 11
173.2683700567199
 21
14.88614538197293
 31
0.0
  0
SPLINE
  5
A3
102
{ACAD_REACTORS
330
C0
102
}
330
48
100
AcDbEntity
  8
_U_30EC_U_30A4_U_30E4_U_30FC_1
  6
Continuous
 62
     2
100
AcDbSpline
210
0.0
220
0.0
230
1.0
 70
    11
 71
     3
 72
    95
 73
    91
 74
    89
 42
0.000000001
 43
0.0000000001
 44
0.00000001
 40
0.0
 40
0.0
 40
0.0
 40
0.0
 40
0.6550406656911508
 40
1.308087289031932
 40
1.420803739835798
 40
1.566130759770792
 40
1.757067341888463
 40
2.006513545026464
 40
2.087328263121557
 40
2.185328872295633
 40
2.294612454748369
 40
2.408936380534819
 40
2.526802767798565
 40
2.646360524615613
 40
2.762535723971582
 40
2.870057342870154
 40
2.966883448431648
 40
3.050803243518303
 40
3.115818222436611
 40
3.156030057150257
 40
3.213914225080161
 40
3.276689026450561
 40
3.342960320981339
 40
3.404230667150589
 40
3.453822809493419
 40
3.532499827188465
 40
3.634775188507211
 40
3.75490933300821
 40
3.889736761660706
 40
4.035769602175269
 40
4.187256681197661
 40
4.338733685676001
 40
4.488478734676166
 40
4.634708317831629
 40
4.771493189921316
 40
4.892686571561255
 40
5.199775528944494
 40
5.460353566929681
 40
5.667603142345556
 40
5.814722905404532
 40
5.828990806219858
 40
5.855488336304527
 40
5.869756237118859
 40
6.189796507762805
 40
6.531890469872992
 40
6.883053637016981
 40
7.230512024911457
 40
7.566966656764561
 40
7.88520355970739
 40
8.172887439719211
 40
8.418011594062806
 40
8.443926721190728
 40
8.510760470613215
 40
8.602145393795725
 40
8.701714041647167
 40
8.793098965075396
 40
8.859932715057969
 40
8.885847842603619
 40
9.242301256612837
 40
9.58927545501679
 40
9.9218085431642
 40
10.23479624298471
 40
10.29968150889182
 40
10.3532349388777
 40
10.40154625355158
 40
10.46482922477831
 40
10.55973900668412
 40
10.69239545985624
 40
10.84920353475678
 40
11.01626328594786
 40
11.1867202436745
 40
11.35372582577217
 40
11.50257442292433
 40
11.61866495023298
 40
11.71329869152882
 40
11.82511050573914
 40
11.94464880845723
 40
12.06929242642513
 40
12.19707290435183
 40
12.32562632860536
 40
12.45034565331286
 40
12.56646595170334
 40
12.67099007414642
 40
12.76077625936789
 40
12.82703233506701
 40
12.87429132786
 40
12.89831990323339
 40
12.92234847860028
 40
13.53984767410327
 40
14.18294284359373
 40
14.18294284359373
 40
14.18294284359373
 40
14.18294284359373
 10
177.3067935648021
 20
14.70898038201725
 30
0.0
 10
177.1752019758551
 20
14.82265058603232
 30
0.0
 10
176.9124193802728
 20
15.04964496316158
 30
0.0
 10
176.399739344102
 20
15.89214462956287
 30
0.0
 10
176.4106654595363
 20
15.5342337757702
 30
0.0
 10
176.404122652799
 20
15.39267392272133
 30
0.0
 10
176.4028026631773
 20
15.19421305299281
 30
0.0
 10
176.4018117602538
 20
15.02150296045983
 30
0.0
 10
176.4024101751974
 20
14.8786537325758
 30
0.0
 10
176.4038994301882
 20
14.78265005413357
 30
0.0
 10
176.4055683588473
 20
14.67545503263141
 30
0.0
 10
176.4071934954617
 20
14.56164211517582
 30
0.0
 10
176.4092429501685
 20
14.44441572604589
 30
0.0
 10
176.4123165501927
 20
14.3265641123297
 30
0.0
 10
176.4156339697043
 20
14.21228087320621
 30
0.0
 10
176.4193605340279
 20
14.10521401867277
 30
0.0
 10
176.4217338161424
 20
14.01007408766922
 30
0.0
 10
176.4278718888357
 20
13.92558557205695
 30
0.0
 10
176.4239784495948
 20
13.86923087298142
 30
0.0
 10
176.4455230443077
 20
13.79825022472354
 30
0.0
 10
176.3680940058618
 20
13.82902677604484
 30
0.0
 10
176.3116353240191
 20
13.82011242517614
 30
0.0
 10
176.2540495896807
 20
13.82896218398276
 30
0.0
 10
176.1690163478472
 20
13.79738225225943
 30
0.0
 10
176.2009714146384
 20
13.88095155992189
 30
0.0
 10
176.1990705282539
 20
13.94882608968308
 30
0.0
 10
176.21079600473
 20
14.05233256764418
 30
0.0
 10
176.2164241053001
 20
14.17002125616694
 30
0.0
 10
176.223790217894
 20
14.30388609164423
 30
0.0
 10
176.2320759701611
 20
14.44764152872632
 30
0.0
 10
176.2398851897426
 20
14.59714022843445
 30
0.0
 10
176.2457571222658
 20
14.74792549402078
 30
0.0
 10
176.2503667817969
 20
14.89699943878438
 30
0.0
 10
176.2542632117542
 20
15.04122913163022
 30
0.0
 10
176.2570715126564
 20
15.17583905213017
 30
0.0
 10
176.2576698755022
 20
15.36469614347355
 30
0.0
 10
176.261602386715
 20
15.58975494313154
 30
0.0
 10
176.2442175378498
 20
15.86367091125707
 30
0.0
 10
176.2850417342582
 20
16.02787112098597
 30
0.0
 10
176.1995153256002
 20
16.22749661465096
 30
0.0
 10
176.2660558907689
 20
16.22385458403978
 30
0.0
 10
176.2838724273231
 20
16.22413447160854
 30
0.0
 10
176.4056801797503
 20
16.22632927398611
 30
0.0
 10
176.5080770335462
 20
15.94675118721511
 30
0.0
 10
176.7580021509356
 20
15.74563008536002
 30
0.0
 10
176.987003533111
 20
15.47792614987917
 30
0.0
 10
177.2245151213109
 20
15.22646413862376
 30
0.0
 10
177.4486090740772
 20
14.98969974061359
 30
0.0
 10
177.6750716283009
 20
14.73218692583078
 30
0.0
 10
177.8325687886514
 20
14.6164933505692
 30
0.0
 10
178.0472129612676
 20
14.27997152538792
 30
0.0
 10
178.0422645974619
 20
14.40464754091603
 30
0.0
 10
178.0433931602548
 20
14.46327691935737
 30
0.0
 10
178.0428877841517
 20
14.55043662371977
 30
0.0
 10
178.0430475158114
 20
14.64416143182872
 30
0.0
 10
178.043005489132
 20
14.73018971297035
 30
0.0
 10
178.0430202040374
 20
14.79153891945496
 30
0.0
 10
178.0429706255983
 20
14.94135231520991
 30
0.0
 10
178.0458811522811
 20
15.17989612510105
 30
0.0
 10
178.0259521041162
 20
15.54486509868702
 30
0.0
 10
178.0750433936246
 20
15.80799631993411
 30
0.0
 10
177.917795150918
 20
16.21928904947755
 30
0.0
 10
178.0762112872421
 20
16.16398282551747
 30
0.0
 10
178.1311680478629
 20
16.16199686500175
 30
0.0
 10
178.1827887766739
 20
16.16264778248251
 30
0.0
 10
178.2713198965366
 20
16.20369527738247
 30
0.0
 10
178.2204898303169
 20
16.05696326622987
 30
0.0
 10
178.2313389930283
 20
15.95019971954433
 30
0.0
 10
178.2166036994847
 20
15.79085705414112
 30
0.0
 10
178.2099976446204
 20
15.62853061652874
 30
0.0
 10
178.2014961399914
 20
15.45992521892396
 30
0.0
 10
178.19432272022
 20
15.2981481470354
 30
0.0
 10
178.1889063215389
 20
15.15422331457933
 30
0.0
 10
178.1871713967649
 20
15.03437493466925
 30
0.0
 10
178.1875440672319
 20
14.92686101590514
 30
0.0
 10
178.1873656126264
 20
14.81820024645586
 30
0.0
 10
178.187701086314
 20
14.69953570165531
 30
0.0
 10
178.1890040622184
 20
14.57555163512741
 30
0.0
 10
178.1908887351574
 20
14.44858294171105
 30
0.0
 10
178.1925004454851
 20
14.32153861551032
 30
0.0
 10
178.194140313743
 20
14.19854884492178
 30
0.0
 10
178.1962570745751
 20
14.08300931383759
 30
0.0
 10
178.1963848422364
 20
13.98090903955836
 30
0.0
 10
178.2006514396554
 20
13.89009848838156
 30
0.0
 10
178.1908440085289
 20
13.83213621208786
 30
0.0
 10
178.2118474771689
 20
13.76517130132029
 30
0.0
 10
178.1725639739897
 20
13.77291153966688
 30
0.0
 10
177.9595307117747
 20
13.75755254145192
 30
0.0
 10
177.7636297943186
 20
14.3140305809447
 30
0.0
 10
177.4611197631544
 20
14.5755603534851
 30
0.0
 10
177.3067935648021
 20
14.70898038201725
 30
0.0
 11
177.3067935648021
 21
14.70898038201725
 31
0.0
 11
176.8595529338511
 21
15.18757635411978
 31
0.0
 11
176.4124049070643
 21
15.6635264928897
 31
0.0
 11
176.4089664262494
 21
15.55086249986233
 31
0.0
 11
176.40556101835
 21
15.40557538184311
 31
0.0
 11
176.4029636920274
 21
15.21465645827968
 31
0.0
 11
176.4021126156603
 21
14.96521170139757
 31
0.0
 11
176.4025239230289
 21
14.8843980295428
 31
0.0
 11
176.4038420329817
 21
14.78640628477561
 31
0.0
 11
176.4055192267718
 21
14.67713557299739
 31
0.0
 11
176.4072367127518
 21
14.56282454872039
 31
0.0
 11
176.4094007838772
 21
14.44497802965266
 31
0.0
 11
176.4124049070643
 21
14.32545802100199
 31
0.0
 11
176.4158359733138
 21
14.20933349846156
 31
0.0
 11
176.4192928929998
 21
14.1018674655023
 31
0.0
 11
176.4227085253088
 21
14.00510162351265
 31
0.0
 11
176.4261896983793
 21
13.92125406276972
 31
0.0
 11
176.4296006184313
 21
13.8563286200776
 31
0.0
 11
176.4330776843148
 21
13.81626739612926
 31
0.0
 11
176.3754263821571
 21
13.82145433189186
 31
0.0
 11
176.3126746318309
 21
13.82315538223863
 31
0.0
 11
176.2464251717157
 21
13.82145433189186
 31
0.0
 11
176.1853747739675
 21
13.81626739612926
 31
0.0
 11
176.1926772737813
 21
13.8653189412559
 31
0.0
 11
176.2008793569055
 21
13.94356725720854
 31
0.0
 11
176.2090098822349
 21
14.04551893253029
 31
0.0
 11
176.2163406441398
 21
14.16542920159752
 31
0.0
 11
176.2236358280421
 21
14.3000591234389
 31
0.0
 11
176.2318444255596
 21
14.44586107652745
 31
0.0
 11
176.2395504149465
 21
14.59715203135073
 31
0.0
 11
176.2455763002093
 21
14.74850913200734
 31
0.0
 11
176.2503046247416
 21
14.89817951391436
 31
0.0
 11
176.254192897212
 21
15.04435739582222
 31
0.0
 11
176.2567527408965
 21
15.18111831592696
 31
0.0
 11
176.2576324804574
 21
15.3023085068689
 31
0.0
 11
176.257192610677
 21
15.60939715262544
 31
0.0
 11
176.2559126888347
 21
15.86997204839365
 31
0.0
 11
176.2528658717893
 21
16.07719922716125
 31
0.0
 11
176.2473049112764
 21
16.22421385386062
 31
0.0
 11
176.261572812147
 21
16.22421385386062
 31
0.0
 11
176.2880703423353
 21
16.22421385386062
 31
0.0
 11
176.3023382432059
 21
16.22421385386062
 31
0.0
 11
176.5194743650277
 21
15.98910179662773
 31
0.0
 11
176.7512744123079
 21
15.73751281231562
 31
0.0
 11
176.9894816018839
 21
15.47949555543571
 31
0.0
 11
177.2260074557521
 21
15.22497079855489
 31
0.0
 11
177.4555698717705
 21
14.97899759549138
 31
0.0
 11
177.6731797360103
 21
14.74678934034107
 31
0.0
 11
177.8713724913707
 21
14.538266805671
 31
0.0
 11
178.0430143099087
 21
14.36326697932589
 31
0.0
 11
178.0430143099087
 21
14.38918210687043
 31
0.0
 11
178.0430143099087
 21
14.45601585685371
 31
0.0
 11
178.0430143099087
 21
14.54740078030025
 31
0.0
 11
178.0430143099087
 21
14.64696942823453
 31
0.0
 11
178.0430143099087
 21
14.73835435168106
 31
0.0
 11
178.0430143099087
 21
14.80518810166435
 31
0.0
 11
178.0430143099087
 21
14.83110322920889
 31
0.0
 11
178.0417233637609
 21
15.18755430550867
 31
0.0
 11
178.0378461155958
 21
15.53450684014415
 31
0.0
 11
178.0296197790002
 21
15.86693815950552
 31
0.0
 11
178.0154535467228
 21
16.1796051038718
 31
0.0
 11
178.0790351249618
 21
16.16666367158334
 31
0.0
 11
178.1324170159611
 21
16.16238072887607
 31
0.0
 11
178.1805381084833
 21
16.16666367158334
 31
0.0
 11
178.2424836798197
 21
16.1796051038718
 31
0.0
 11
178.2351216487575
 21
16.084981284451
 31
0.0
 11
178.2269790968818
 21
15.95257496503965
 31
0.0
 11
178.2183705364004
 21
15.79600336785656
 31
0.0
 11
178.2097547223215
 21
15.62916593734271
 31
0.0
 11
178.2016187850289
 21
15.4589032550936
 31
0.0
 11
178.1942501393836
 21
15.292060312427
 31
0.0
 11
178.1891406931522
 21
15.1432994357281
 31
0.0
 11
178.1874503478905
 21
15.02722121527101
 31
0.0
 11
178.1874503478905
 21
14.93258747397519
 31
0.0
 11
178.1874503478905
 21
14.82077565976707
 31
0.0
 11
178.1878461204497
 21
14.70123801222749
 31
0.0
 11
178.1890819450708
 21
14.5766005209392
 31
0.0
 11
178.1908392193317
 21
14.44883212687391
 31
0.0
 11
178.1925303477608
 21
14.32028982655879
 31
0.0
 11
178.1942876220214
 21
14.19558288214555
 31
0.0
 11
178.1959787504505
 21
14.07947489606349
 31
0.0
 11
178.1972884379172
 21
13.97495896727017
 31
0.0
 11
178.1976985420735
 21
13.88517371555652
 31
0.0
 11
178.1976985420735
 21
13.81891763918416
 31
0.0
 11
178.1976985420735
 21
13.77165864614041
 31
0.0
 11
178.1736699662976
 21
13.77165864614041
 31
0.0
 11
178.1496413905217
 21
13.77165864614041
 31
0.0
 11
177.7410729200423
 21
14.2346673526219
 31
0.0
 11
177.3067935648021
 21
14.70898038201725
 31
0.0
  0
SPLINE
  5
A4
102
{ACAD_REACTORS
330
C1
102
}
330
48
100
AcDbEntity
  8
_U_30EC_U_30A4_U_30E4_U_30FC_1
  6
Continuous
 62
     2
100
AcDbSpline
210
0.0
220
0.0
230
1.0
 70
    11
 71
     3
 72
   110
 73
   106
 74
   104
 42
0.000000001
 43
0.0000000001
 44
0.00000001
 40
0.0
 40
0.0
 40
0.0
 40
0.0
 40
0.2203406257277661
 40
0.4407808782838111
 40
0.595249449461509
 40
0.7488431659393096
 40
0.9023581831309365
 40
1.056801968670407
 40
1.210736449099964
 40
1.363041386539785
 40
1.515315729683128
 40
1.669377239148079
 40
1.721611652756573
 40
1.77319950294296
 40
1.824933793210006
 40
1.877110426487982
 40
1.982682281206745
 40
2.078781667087554
 40
2.172809640822275
 40
2.271937807378929
 40
2.378349933379323
 40
2.494131557736512
 40
2.626681683943616
 40
2.783145050796072
 40
2.890701232940925
 40
2.99313031245482
 40
3.099869730691806
 40
3.220237816691302
 40
3.352695482737591
 40
3.481732806389842
 40
3.593499473690373
 40
3.674323013331887
 40
3.817951711952837
 40
3.946167120793834
 40
4.061405053453548
 40
4.16648079600316
 40
4.262478775059198
 40
4.350736673551155
 40
4.43307199125404
 40
4.511216293814642
 40
4.564262454117964
 40
4.618474415571575
 40
4.670128488754179
 40
4.722296879126368
 40
4.819540945314237
 40
4.931194984128092
 40
5.049996040257734
 40
5.16864375541528
 40
5.283970811762492
 40
5.392260784910317
 40
5.486512254876364
 40
5.559178233949791
 40
5.591425852853458
 40
5.626215969637835
 40
5.667155838674381
 40
5.717449290214188
 40
5.738402360944803
 40
5.784499116553772
 40
5.830595872164746
 40
5.851548942897604
 40
5.873019280661718
 40
5.92421777840826
 40
5.985325662817639
 40
6.036524160567656
 40
6.057994498334184
 40
6.236847789607434
 40
6.38140992894561
 40
6.493190424178635
 40
6.574067534230439
 40
6.691018086205533
 40
6.814881554220451
 40
6.944307823240403
 40
7.071266716066027
 40
7.193488604461872
 40
7.309042773128185
 40
7.414007203170754
 40
7.505140441886481
 40
7.531150360599639
 40
7.559221645322225
 40
7.58720221892088
 40
7.612569159499095
 40
7.662550809480969
 40
7.702878875764111
 40
7.857328205230926
 40
8.010799568088572
 40
8.165256399657522
 40
8.322232698713862
 40
8.479564855016548
 40
8.635216230290752
 40
8.79088255092567
 40
8.948305154947235
 40
9.168271839032936
 40
9.387358980987196
 40
9.608047961033447
 40
9.83291423479265
 40
9.858338694962985
 40
9.925366817229992
 40
10.02013071422758
 40
10.12876249858996
 40
10.23739428295247
 40
10.33215817995189
 40
10.39918630222392
 40
10.42461076239781
 40
10.64992019336941
 40
10.87188524531186
 40
10.87188524531186
 40
10.87188524531186
 40
10.87188524531186
 10
179.9057788376618
 20
15.73923260398191
 30
0.0
 10
179.9092864933542
 20
15.80616462073805
 30
0.0
 10
179.9163033987664
 20
15.9400589191586
 30
0.0
 10
179.8198027599072
 20
16.22548554971471
 30
0.0
 10
180.0510134726109
 20
16.16284386190285
 30
0.0
 10
180.1919290057156
 20
16.17001554055991
 30
0.0
 10
180.3490417757588
 20
16.16235883078244
 30
0.0
 10
180.5025913427288
 20
16.1625275228304
 30
0.0
 10
180.6545104935081
 20
16.16182040535432
 30
0.0
 10
180.8142214813231
 20
16.17210158351639
 30
0.0
 10
180.9408972601118
 20
16.15496511080752
 30
0.0
 10
181.137082112208
 20
16.22727260107146
 30
0.0
 10
181.1034395279078
 20
16.12640699080117
 30
0.0
 10
181.1052011317184
 20
16.07619253947671
 30
0.0
 10
181.1027342073458
 20
16.02712335586466
 30
0.0
 10
181.1347076966011
 20
15.94063490846999
 30
0.0
 10
181.0010399903256
 20
15.98997438608336
 30
0.0
 10
180.9172208688056
 20
15.98430634314168
 30
0.0
 10
180.8173861139324
 20
15.99465516706298
 30
0.0
 10
180.7186576720146
 20
16.00086450411087
 30
0.0
 10
180.612153277111
 20
16.00697763816778
 30
0.0
 10
180.491051169806
 20
16.01588883484587
 30
0.0
 10
180.3703381502453
 20
16.00521605912383
 30
0.0
 10
180.1812553843436
 20
16.06468503080368
 30
0.0
 10
180.2129028505312
 20
15.9055832007754
 30
0.0
 10
180.1995563316833
 20
15.80839128339904
 30
0.0
 10
180.197495842645
 20
15.69634065110103
 30
0.0
 10
180.195818804467
 20
15.5769968562935
 30
0.0
 10
180.1973336794233
 20
15.4503259215511
 30
0.0
 10
180.195658247867
 20
15.32301588016117
 30
0.0
 10
180.2058844271657
 20
15.22451566404463
 30
0.0
 10
180.1779006596583
 20
15.0838870262563
 30
0.0
 10
180.3508029999306
 20
15.13989551134094
 30
0.0
 10
180.4645020202771
 20
15.12719951478498
 30
0.0
 10
180.5840151672239
 20
15.13448377051255
 30
0.0
 10
180.6888491425072
 20
15.13878017056755
 30
0.0
 10
180.7843084898612
 20
15.14330568258977
 30
0.0
 10
180.8763823507031
 20
15.15149201146201
 30
0.0
 10
180.947655178244
 20
15.14643850638112
 30
0.0
 10
181.0544931705684
 20
15.18536425031673
 30
0.0
 10
181.0226603598036
 20
15.10517122005879
 30
0.0
 10
181.026616450393
 20
15.05562936846034
 30
0.0
 10
181.0234502392013
 20
15.0055747803982
 30
0.0
 10
181.0550791490585
 20
14.92128847612023
 30
0.0
 10
180.9210133677691
 20
14.97425365495158
 30
0.0
 10
180.82923227932
 20
14.96540080890441
 30
0.0
 10
180.7079729189603
 20
14.97570049965154
 30
0.0
 10
180.5914113119771
 20
14.97748911767502
 30
0.0
 10
180.4783375745879
 20
14.97787017109695
 30
0.0
 10
180.3679246308471
 20
14.9841544947218
 30
0.0
 10
180.2898124067841
 20
14.97189133255364
 30
0.0
 10
180.1913625833643
 20
15.00453887616127
 30
0.0
 10
180.2012355173561
 20
14.94769748054206
 30
0.0
 10
180.1973923244403
 20
14.91392130557984
 30
0.0
 10
180.1966789884268
 20
14.87119604709412
 30
0.0
 10
180.1963369642975
 20
14.83401607262153
 30
0.0
 10
180.1963834255345
 20
14.79487237370771
 30
0.0
 10
180.1963649429927
 20
14.75716849497686
 30
0.0
 10
180.1963703431806
 20
14.71944955232402
 30
0.0
 10
180.1963697214201
 20
14.6899432474515
 30
0.0
 10
180.1963698151545
 20
14.65873577699301
 30
0.0
 10
180.1963704287921
 20
14.61414424908085
 30
0.0
 10
180.1963671499336
 20
14.5596395650885
 30
0.0
 10
180.1963759623481
 20
14.51505540201448
 30
0.0
 10
180.1963359653417
 20
14.4311780858574
 30
0.0
 10
180.1976024270255
 20
14.31737520677678
 30
0.0
 10
180.1950274117842
 20
14.16830395933709
 30
0.0
 10
180.2065009381719
 20
14.06597203813906
 30
0.0
 10
180.1823506222263
 20
13.93338903885835
 30
0.0
 10
180.3332993946476
 20
13.97895732272022
 30
0.0
 10
180.4428436671556
 20
13.96427012162351
 30
0.0
 10
180.573397047392
 20
13.96920435125063
 30
0.0
 10
180.6990312209514
 20
13.97257705323363
 30
0.0
 10
180.8188730625601
 20
13.97711497498772
 30
0.0
 10
180.9391362611427
 20
13.99048536182006
 30
0.0
 10
181.0222761663516
 20
13.98068712782597
 30
0.0
 10
181.1456080421075
 20
14.04126214623319
 30
0.0
 10
181.1244269203956
 20
13.9853246013402
 30
0.0
 10
181.1235950270117
 20
13.95939249372346
 30
0.0
 10
181.1218963707558
 20
13.93197256190939
 30
0.0
 10
181.1217974888829
 20
13.89738195206385
 30
0.0
 10
181.1203659301329
 20
13.86050408220767
 30
0.0
 10
181.153280419219
 20
13.76846841021806
 30
0.0
 10
180.9551306988107
 20
13.84132015974832
 30
0.0
 10
180.8300548294891
 20
13.81825726508606
 30
0.0
 10
180.6673071295156
 20
13.82454021985787
 30
0.0
 10
180.5129366450001
 20
13.82260943909927
 30
0.0
 10
180.3566670436943
 20
13.82393762599269
 30
0.0
 10
180.1970544465282
 20
13.82059872487863
 30
0.0
 10
180.0540326342236
 20
13.83265795728241
 30
0.0
 10
179.8197144881628
 20
13.76952001976916
 30
0.0
 10
179.9173810751197
 20
14.05620527466317
 30
0.0
 10
179.9006868780059
 20
14.2498830814266
 30
0.0
 10
179.9146296709684
 20
14.47848242880295
 30
0.0
 10
179.9142987846633
 20
14.63384593955048
 30
0.0
 10
179.9143078119263
 20
14.73966336444126
 30
0.0
 10
179.9143055876316
 20
14.80205784124214
 30
0.0
 10
179.9143065551888
 20
14.89220425248327
 30
0.0
 10
179.9143065473261
 20
14.99621167157438
 30
0.0
 10
179.9143053861102
 20
15.10022131375296
 30
0.0
 10
179.9143090971502
 20
15.19036243688768
 30
0.0
 10
179.9143011051051
 20
15.25276803097215
 30
0.0
 10
179.9143334275018
 20
15.35868835961119
 30
0.0
 10
179.9131440788319
 20
15.5162671654474
 30
0.0
 10
179.9082216489256
 20
15.66528219822066
 30
0.0
 10
179.9057788376618
 20
15.73923260398191
 30
0.0
 11
179.9057788376618
 21
15.73923260398191
 31
0.0
 11
179.8966918223741
 21
15.95938578101018
 31
0.0
 11
179.8868249573133
 21
16.1796051038718
 31
0.0
 11
180.04115751414
 21
16.17312391463729
 31
0.0
 11
180.1946500189046
 21
16.16754892331925
 31
0.0
 11
180.3481160653367
 21
16.16367167505631
 31
0.0
 11
180.5025544554939
 21
16.16238072887607
 31
0.0
 11
180.6564835227474
 21
16.16367167505631
 31
0.0
 11
180.80873910046
 21
16.16754892331925
 31
0.0
 11
180.9609113551074
 21
16.17312391463729
 31
0.0
 11
181.1148364762483
 21
16.1796051038718
 31
0.0
 11
181.1070811703123
 21
16.12794961777358
 31
0.0
 11
181.1044991623591
 21
16.07642642334204
 31
0.0
 11
181.1070811703123
 21
16.0247566056466
 31
0.0
 11
181.1148364762483
 21
15.97315954836785
 31
0.0
 11
181.0094874054411
 21
15.98001446156058
 31
0.0
 11
180.913637570006
 21
15.98693552058657
 31
0.0
 11
180.8198593171903
 21
15.99378381919598
 31
0.0
 11
180.7209679915881
 21
16.0006321178054
 31
0.0
 11
180.6147532199924
 21
16.00710999974824
 31
0.0
 11
180.4991060528038
 21
16.01268829835795
 31
0.0
 11
180.3666126447258
 21
16.01656554662088
 31
0.0
 11
180.2101546018423
 21
16.01785649280112
 31
0.0
 11
180.2062663293721
 21
15.91037061609187
 31
0.0
 11
180.20153800484
 21
15.80805072896465
 31
0.0
 11
180.1976607566749
 21
15.70138175329687
 31
0.0
 11
180.1963698105272
 21
15.5810205901325
 31
0.0
 11
180.1967799146836
 21
15.44856355891565
 31
0.0
 11
180.1980896021502
 21
15.31953288186455
 31
0.0
 11
180.1994074577049
 21
15.20777398432308
 31
0.0
 11
180.199819115366
 21
15.12695149302384
 31
0.0
 11
180.3434452935874
 21
15.1278025694125
 31
0.0
 11
180.4716343930758
 21
15.13039989580077
 31
0.0
 11
180.5868078221796
 21
15.13425509545254
 31
0.0
 11
180.691775631222
 21
15.13901649302076
 31
0.0
 11
180.7876346289421
 21
15.14418027774175
 31
0.0
 11
180.8757413374193
 21
15.14934406246268
 31
0.0
 11
180.9578881438496
 21
15.15491243919739
 31
0.0
 11
181.0357692335571
 21
15.16132086801524
 31
0.0
 11
181.0280180445186
 21
15.10884407115336
 31
0.0
 11
181.0254328449317
 21
15.05469378470858
 31
0.0
 11
181.0280180445186
 21
15.00310444444367
 31
0.0
 11
181.0357692335571
 21
14.95151510417883
 31
0.0
 11
180.9389813454014
 21
14.96092324653757
 31
0.0
 11
180.8275950722015
 21
14.96865128473012
 31
0.0
 11
180.7089261429373
 21
14.97425273438145
 31
0.0
 11
180.5903167449213
 21
14.97726788195011
 31
0.0
 11
180.4750025117521
 21
14.97898767361638
 31
0.0
 11
180.36672619507
 21
14.98070746528257
 31
0.0
 11
180.2724839317708
 21
14.98202486979617
 31
0.0
 11
180.199819115366
 21
14.98243607639329
 31
0.0
 11
180.199407457705
 21
14.95019108508191
 31
0.0
 11
180.1980896021502
 21
14.91542593752118
 31
0.0
 11
180.1967799146836
 21
14.87450702260085
 31
0.0
 11
180.1963698105272
 21
14.82421524309952
 31
0.0
 11
180.1963698105272
 21
14.80326217235822
 31
0.0
 11
180.1963698105272
 21
14.75716541672736
 31
0.0
 11
180.1963698105272
 21
14.71106866109651
 31
0.0
 11
180.1963698105272
 21
14.69011559035521
 31
0.0
 11
180.1963698105272
 21
14.6686452525828
 31
0.0
 11
180.1963698105272
 21
14.61744675481784
 31
0.0
 11
180.1963698105272
 21
14.55633887038868
 31
0.0
 11
180.1963698105272
 21
14.50514037262371
 31
0.0
 11
180.1963698105272
 21
14.4836700348513
 31
0.0
 11
180.1967799146836
 21
14.30481721371548
 31
0.0
 11
180.1980896021502
 21
14.16026100715442
 31
0.0
 11
180.2002868589709
 21
14.04850210961289
 31
0.0
 11
180.2032586986985
 21
13.96767961831366
 31
0.0
 11
180.3202092517447
 21
13.96767961831366
 31
0.0
 11
180.4440727208746
 21
13.96767961831366
 31
0.0
 11
180.5734925526422
 21
13.9689705644939
 31
0.0
 11
180.7003922282244
 21
13.97284781275683
 31
0.0
 11
180.8224658067973
 21
13.97886708358865
 31
0.0
 11
180.9377587499464
 21
13.98663260442003
 31
0.0
 11
181.0421754573518
 21
13.99734161483403
 31
0.0
 11
181.1320599255448
 21
14.01237656274692
 31
0.0
 11
181.1264254031191
 21
13.98698427976715
 31
0.0
 11
181.1234433285423
 21
13.95907184053802
 31
0.0
 11
181.12213398812
 21
13.93112191867002
 31
0.0
 11
181.1217235369195
 21
13.90575829888472
 31
0.0
 11
181.1243087365064
 21
13.85584355063326
 31
0.0
 11
181.1320599255448
 21
13.81626739612926
 31
0.0
 11
180.9776977178344
 21
13.82145433189186
 31
0.0
 11
180.8242357818765
 21
13.82315538223863
 31
0.0
 11
180.6697789496483
 21
13.82315538223863
 31
0.0
 11
180.5128026496768
 21
13.82315538223863
 31
0.0
 11
180.3554704921536
 21
13.82315538223863
 31
0.0
 11
180.199819115366
 21
13.82315538223863
 31
0.0
 11
180.0441620874241
 21
13.82145433189186
 31
0.0
 11
179.8868249573133
 21
13.81626739612926
 31
0.0
 11
179.896691822374
 21
14.0360126738521
 31
0.0
 11
179.9057788376618
 21
14.2549112849085
 31
0.0
 11
179.91217215184
 21
14.47550763902002
 31
0.0
 11
179.9143063455009
 21
14.70036378479715
 31
0.0
 11
179.9143063455009
 21
14.72578824496874
 31
0.0
 11
179.9143063455009
 21
14.79281636723931
 31
0.0
 11
179.9143063455009
 21
14.88758026424253
 31
0.0
 11
179.9143063455009
 21
14.99621204861207
 31
0.0
 11
179.9143063455009
 21
15.10484383298162
 31
0.0
 11
179.9143063455009
 21
15.19960772998484
 31
0.0
 11
179.9143063455009
 21
15.2666358522554
 31
0.0
 11
179.9143063455009
 21
15.292060312427
 31
0.0
 11
179.91217215184
 21
15.51735963528735
 31
0.0
 11
179.9057788376618
 21
15.73923260398191
 31
0.0
  0
SPLINE
  5
A5
102
{ACAD_REACTORS
330
C2
102
}
330
48
100
AcDbEntity
  8
_U_30EC_U_30A4_U_30E4_U_30FC_1
  6
Continuous
 62
     2
100
AcDbSpline
210
0.0
220
0.0
230
1.0
 70
    11
 71
     3
 72
    47
 73
    43
 74
    41
 42
0.000000001
 43
0.0000000001
 44
0.00000001
 40
0.0
 40
0.0
 40
0.0
 40
0.0
 40
0.220791280995719
 40
0.445940418630315
 40
0.490238719045937
 40
0.5327473892722328
 40
0.5742260451225656
 40
0.6155432630560949
 40
0.6568164066316435
 40
0.6982511618781646
 40
0.7407663929317596
 40
0.7851366743175381
 40
1.010288833836348
 40
1.231080507002198
 40
1.451765243652425
 40
1.676638205891712
 40
1.720461045359681
 40
1.830018144043547
 40
1.972442372353177
 40
2.114866600677547
 40
2.224423699395172
 40
2.268246538883413
 40
2.49362880120724
 40
2.715602830286635
 40
2.934211330706392
 40
3.1495023698554
 40
3.231387784851047
 40
3.318231873854082
 40
3.40514319819807
 40
3.486970301720507
 40
3.702258172493965
 40
3.920866283534198
 40
4.142839325931984
 40
4.368221903865441
 40
4.412044743359921
 40
4.521601842095937
 40
4.664026070452417
 40
4.806450298809125
 40
4.916007397546817
 40
4.959830237043141
 40
5.184703515847175
 40
5.405387250767549
 40
5.405387250767549
 40
5.405387250767549
 40
5.405387250767549
 10
182.6507427258645
 20
15.73406440953872
 30
0.0
 10
182.6568139420003
 20
15.7975848250121
 30
0.0
 10
182.6690762107244
 20
15.92587938689628
 30
0.0
 10
182.5604706879411
 20
16.20166220174077
 30
0.0
 10
182.6761985896604
 20
16.17188133432054
 30
0.0
 10
182.7171842509015
 20
16.16765556262821
 30
0.0
 10
182.7591205797519
 20
16.16310446389607
 30
0.0
 10
182.800419662571
 20
16.16201982929484
 30
0.0
 10
182.8417032115556
 20
16.16310338195227
 30
0.0
 10
182.8836148270647
 20
16.16766112711343
 30
0.0
 10
182.924598354902
 20
16.1718743020973
 30
0.0
 10
183.0404922843488
 20
16.20177611317534
 30
0.0
 10
182.9295652727457
 20
15.92339806609889
 30
0.0
 10
182.9574856365267
 20
15.74283140824953
 30
0.0
 10
182.9404267346969
 20
15.50961042346471
 30
0.0
 10
182.9414637282103
 20
15.34906622543146
 30
0.0
 10
182.9414099399404
 20
15.22284817558722
 30
0.0
 10
182.9414277372481
 20
15.12428963336242
 30
0.0
 10
182.941418858108
 20
14.99280702442962
 30
0.0
 10
182.9414263928033
 20
14.86132844968649
 30
0.0
 10
182.9414129405129
 20
14.76276222694091
 30
0.0
 10
182.9414531717491
 20
14.63639735624151
 30
0.0
 10
182.9406746403817
 20
14.4748206882287
 30
0.0
 10
182.9565958319267
 20
14.24361821892914
 30
0.0
 10
182.9333468885407
 20
14.05874351972003
 30
0.0
 10
183.0360183444366
 20
13.78935602770052
 30
0.0
 10
182.8820238362836
 20
13.82660112685818
 30
0.0
 10
182.8004129802832
 20
13.82137994680535
 30
0.0
 10
182.7188192292583
 20
13.82660620378351
 30
0.0
 10
182.5648513666842
 20
13.78937069885384
 30
0.0
 10
182.6674183421918
 20
14.0587512986288
 30
0.0
 10
182.6442045316087
 20
14.24361585325415
 30
0.0
 10
182.660044465514
 20
14.47482218565639
 30
0.0
 10
182.6593296313426
 20
14.63639712308503
 30
0.0
 10
182.6593664569907
 20
14.76276231210521
 30
0.0
 10
182.659354900027
 20
14.86132756635981
 30
0.0
 10
182.6593575019214
 20
14.9928112741722
 30
0.0
 10
182.6593648531779
 20
15.124275480312
 30
0.0
 10
182.6593442541351
 20
15.22287786275325
 30
0.0
 10
182.6594082192028
 20
15.34896149354427
 30
0.0
 10
182.658173394759
 20
15.51210091383771
 30
0.0
 10
182.6532040396745
 20
15.6605418377755
 30
0.0
 10
182.6507427258645
 20
15.73406440953872
 30
0.0
 11
182.6507427258645
 21
15.73406440953872
 31
0.0
 11
182.6417328200379
 21
15.95467178795577
 31
0.0
 11
182.6318769706146
 21
16.1796051038718
 31
0.0
 11
182.6756985840801
 21
16.17312391463729
 31
0.0
 11
182.7178400934215
 21
16.16754892331925
 31
0.0
 11
182.759137140979
 21
16.16367167505631
 31
0.0
 11
182.8004341885365
 21
16.16238072887607
 31
0.0
 11
182.8416871388731
 21
16.16367167505631
 31
0.0
 11
182.8829400892098
 21
16.16754892331925
 31
0.0
 11
182.9250882131343
 21
16.17312391463729
 31
0.0
 11
182.9689825870145
 21
16.1796051038718
 31
0.0
 11
182.9590577693891
 21
15.95467178795577
 31
0.0
 11
182.950038420831
 21
15.73406440953872
 31
0.0
 11
182.9435638463435
 21
15.51347467001054
 31
0.0
 11
182.9414218238286
 21
15.28861190965007
 31
0.0
 11
182.9414218238286
 21
15.24478907015486
 31
0.0
 11
182.9414218238286
 21
15.13523197141682
 31
0.0
 11
182.9414218238286
 21
14.99280774305737
 31
0.0
 11
182.9414218238286
 21
14.85038351469792
 31
0.0
 11
182.9414218238286
 21
14.74082641595989
 31
0.0
 11
182.9414218238286
 21
14.69700357646467
 31
0.0
 11
182.9435638463435
 21
14.47163149318767
 31
0.0
 11
182.950038420831
 21
14.24975190990981
 31
0.0
 11
182.9590577693891
 21
14.0313295488533
 31
0.0
 11
182.9689825870145
 21
13.81626739612926
 31
0.0
 11
182.887261616877
 21
13.82145433189186
 31
0.0
 11
182.8004341885365
 21
13.82315538223863
 31
0.0
 11
182.7135395119339
 21
13.82145433189186
 31
0.0
 11
182.6318769706146
 21
13.81626739612926
 31
0.0
 11
182.641732820038
 21
14.03132954885329
 31
0.0
 11
182.6507427258645
 21
14.24975190990981
 31
0.0
 11
182.6571833838798
 21
14.47163149318767
 31
0.0
 11
182.6593583588023
 21
14.69700357646467
 31
0.0
 11
182.6593583588023
 21
14.74082641595988
 31
0.0
 11
182.6593583588023
 21
14.85038351469792
 31
0.0
 11
182.6593583588023
 21
14.99280774305737
 31
0.0
 11
182.6593583588023
 21
15.13523197141682
 31
0.0
 11
182.6593583588023
 21
15.24478907015486
 31
0.0
 11
182.6593583588023
 21
15.28861190965007
 31
0.0
 11
182.6571833838798
 21
15.51347467001054
 31
0.0
 11
182.6507427258645
 21
15.73406440953872
 31
0.0
  0
SPLINE
  5
A6
102
{ACAD_REACTORS
330
C3
102
}
330
48
100
AcDbEntity
  8
_U_30EC_U_30A4_U_30E4_U_30FC_1
  6
Continuous
 62
     2
100
AcDbSpline
210
0.0
220
0.0
230
1.0
 70
    11
 71
     3
 72
   118
 73
   114
 74
   112
 42
0.000000001
 43
0.0000000001
 44
0.00000001
 40
0.0
 40
0.0
 40
0.0
 40
0.0
 40
0.105470816297341
 40
0.246609827005191
 40
0.3965912874591427
 40
0.5285525069754169
 40
0.6156245055642758
 40
0.6431434105798071
 40
0.7036850037986944
 40
0.764226598450551
 40
0.7917455052355982
 40
0.9287404319990646
 40
1.106572819088147
 40
1.287544879681147
 40
1.317578308030664
 40
1.399928030857303
 40
1.522968204800077
 40
1.675072986590698
 40
1.844616533180775
 40
2.01997300163884
 40
2.189516548880152
 40
2.341621331585491
 40
2.464661506320627
 40
2.547011229647191
 40
2.577044658168155
 40
2.603797890893225
 40
2.662655002908912
 40
2.721512114949724
 40
2.748265347702904
 40
2.77421530734498
 40
2.84595931340731
 40
2.954338556588509
 40
3.090194227585687
 40
3.24436751710065
 40
3.40769961584441
 40
3.57103171453956
 40
3.725205003920236
 40
3.861060674729736
 40
3.969439917716429
 40
4.041183923629101
 40
4.067133883213095
 40
4.311886746012281
 40
4.547897258335647
 40
4.764747083044075
 40
4.952749679951848
 40
5.045772974195986
 40
5.137862019645103
 40
5.330543169793155
 40
5.55344826524415
 40
5.795083855888305
 40
6.043293412177369
 40
6.285761695541312
 40
6.313902908752796
 40
6.384255941793386
 40
6.475714884766946
 40
6.56717382775898
 40
6.637526860839758
 40
6.665668074074093
 40
6.692018920328065
 40
6.749990782071135
 40
6.807962643790503
 40
6.834313490017978
 40
6.856393084245257
 40
6.91333519564988
 40
6.991194817302516
 40
7.076026942283777
 40
7.153886563725239
 40
7.210828674844793
 40
7.232908268931128
 40
7.258199334923649
 40
7.324875781592299
 40
7.419142481924956
 40
7.527204308841895
 40
7.635266135230474
 40
7.729532834168459
 40
7.796209279292782
 40
7.821500344594728
 40
7.844652988850799
 40
7.899863140541577
 40
7.965759128053744
 40
8.020969279771029
 40
8.044121924046495
 40
8.069356610160579
 40
8.109134395441352
 40
8.132238100191064
 40
8.19314786778643
 40
8.279261678876601
 40
8.377977512673816
 40
8.476693347146599
 40
8.562807160411653
 40
8.62371693082644
 40
8.646820636853391
 40
8.671988793774204
 40
8.734909185828116
 40
8.81670569518883
 40
8.8985022048154
 40
8.961422597377862
 40
8.986590754550974
 40
9.012941600733129
 40
9.070913462380213
 40
9.12888532408171
 40
9.15523617032503
 40
9.180404327929072
 40
9.243324721948145
 40
9.325121234211938
 40
9.406917746637593
 40
9.469838141978048
 40
9.495006288270822
 40
9.517811184378964
 40
9.572192090486961
 40
9.63709833328119
 40
9.691479239515385
 40
9.714284125643424
 40
9.714284125643424
 40
9.714284125643424
 40
9.714284125643424
 10
185.2874469028653
 20
15.2688916318772
 30
0.0
 10
185.3090990569037
 20
15.24111869242812
 30
0.0
 10
185.3597257109474
 20
15.17618054561237
 30
0.0
 10
185.4349383202591
 20
15.06891060312897
 30
0.0
 10
185.5248482274347
 20
14.95377438266628
 30
0.0
 10
185.5709169676672
 20
14.85357045748317
 30
0.0
 10
185.6655825294656
 20
14.78434006814944
 30
0.0
 10
185.6204439320413
 20
14.73771639678273
 30
0.0
 10
185.5947047785791
 20
14.69660308866039
 30
0.0
 10
185.5645196708012
 20
14.66065971727939
 30
0.0
 10
185.5193684730562
 20
14.58579782596095
 30
0.0
 10
185.4710504458563
 20
14.80782524253607
 30
0.0
 10
185.3968539713073
 20
14.84510677337707
 30
0.0
 10
185.2836047324606
 20
15.11610202130601
 30
0.0
 10
185.288513357817
 20
15.00095328446229
 30
0.0
 10
185.2868486556306
 20
14.92836675781627
 30
0.0
 10
185.2876830076714
 20
14.80625588483986
 30
0.0
 10
185.2873609540264
 20
14.6591380081046
 30
0.0
 10
185.2875076912456
 20
14.49307063956557
 30
0.0
 10
185.2872950092722
 20
14.32187554608602
 30
0.0
 10
185.2879497252034
 20
14.15552828635498
 30
0.0
 10
185.2859192461139
 20
14.00935173055693
 30
0.0
 10
185.291346039993
 20
13.8847104747461
 30
0.0
 10
185.2804930868708
 20
13.81718656540626
 30
0.0
 10
185.2956739155555
 20
13.75549061417022
 30
0.0
 10
185.2457895108133
 20
13.76727503897002
 30
0.0
 10
185.2017150342522
 20
13.75943822779969
 30
0.0
 10
185.15823716302
 20
13.76760441372703
 30
0.0
 10
185.1092346786489
 20
13.75538056738468
 30
0.0
 10
185.1218731234824
 20
13.80960667249313
 30
0.0
 10
185.113018296845
 20
13.86936918907557
 30
0.0
 10
185.1175058770314
 20
13.97922029044371
 30
0.0
 10
185.1157960135991
 20
14.11029975405679
 30
0.0
 10
185.1163550915986
 20
14.26198011444328
 30
0.0
 10
185.1161928768694
 20
14.42211074929953
 30
0.0
 10
185.1162269924675
 20
14.58236865674566
 30
0.0
 10
185.1162514960127
 20
14.73370247520439
 30
0.0
 10
185.1161453543224
 20
14.86582156338601
 30
0.0
 10
185.1164299141932
 20
14.97294802533193
 30
0.0
 10
185.1158675547567
 20
15.03808619579473
 30
0.0
 10
185.118076508369
 20
15.16618957858676
 30
0.0
 10
185.0319435998601
 20
14.79097610391574
 30
0.0
 10
184.95551408185
 20
14.63918193123396
 30
0.0
 10
184.8660040767834
 20
14.47766206446307
 30
0.0
 10
184.7640413217327
 20
14.20471848820172
 30
0.0
 10
184.7187976491039
 20
14.36717346596512
 30
0.0
 10
184.610235594167
 20
14.45605432058117
 30
0.0
 10
184.7995791751753
 20
14.6054979496141
 30
0.0
 10
184.8565340545699
 20
14.79749136974925
 30
0.0
 10
184.9717520993353
 20
15.02899622906758
 30
0.0
 10
184.9940151630132
 20
15.21797259759063
 30
0.0
 10
185.1771905152139
 20
15.49454089325931
 30
0.0
 10
185.0538033597552
 20
15.48698978832094
 30
0.0
 10
184.9925684166834
 20
15.48856772366118
 30
0.0
 10
184.9081999617064
 20
15.48882592573672
 30
0.0
 10
184.8204235085967
 20
15.48544845751206
 30
0.0
 10
184.7656768696123
 20
15.49394814982019
 30
0.0
 10
184.7104703026026
 20
15.48048561049789
 30
0.0
 10
184.7222823035537
 20
15.52931442126764
 30
0.0
 10
184.7142496151795
 20
15.57269004896708
 30
0.0
 10
184.7228186104678
 20
15.61509438309573
 30
0.0
 10
184.7102943409158
 20
15.66267796552118
 30
0.0
 10
184.7555101538736
 20
15.65267212995109
 30
0.0
 10
184.8014815562724
 20
15.65894105174061
 30
0.0
 10
184.8777222047711
 20
15.65593561405872
 30
0.0
 10
184.9561296131994
 20
15.65770448278541
 30
0.0
 10
185.0323992648933
 20
15.6546479398166
 30
0.0
 10
185.0783009459474
 20
15.66103971376177
 30
0.0
 10
185.12317339654
 20
15.65093822978896
 30
0.0
 10
185.1105552275634
 20
15.70157201581899
 30
0.0
 10
185.1191936582707
 20
15.75501261882069
 30
0.0
 10
185.1152361595443
 20
15.84863255131681
 30
0.0
 10
185.1162325068335
 20
15.95112606688924
 30
0.0
 10
185.1171927413073
 20
16.05353270248163
 30
0.0
 10
185.1133211458005
 20
16.14735929609321
 30
0.0
 10
185.1217789814364
 20
16.20036542840353
 30
0.0
 10
185.1093075932835
 20
16.25211435651188
 30
0.0
 10
185.1542106389849
 20
16.23850747226757
 30
0.0
 10
185.1955083836772
 20
16.24100480320585
 30
0.0
 10
185.259534428105
 20
16.23648060574488
 30
0.0
 10
185.2986111148786
 20
16.22781003043308
 30
0.0
 10
185.3476543498742
 20
16.23515102070687
 30
0.0
 10
185.3225080030591
 20
16.19602896051759
 30
0.0
 10
185.2815901333723
 20
16.20563842455807
 30
0.0
 10
185.2910109616604
 20
16.15540148169778
 30
0.0
 10
185.2855647318746
 20
16.1038594563949
 30
0.0
 10
185.2881699601804
 20
16.0195970758452
 30
0.0
 10
185.2870102202153
 20
15.92559135583408
 30
0.0
 10
185.2883591064231
 20
15.83196865395526
 30
0.0
 10
185.2849970101508
 20
15.74679517552223
 30
0.0
 10
185.2920959917769
 20
15.69716856072044
 30
0.0
 10
185.2812569154545
 20
15.64993694969989
 30
0.0
 10
185.3304010225245
 20
15.66201674936851
 30
0.0
 10
185.3794877630147
 20
15.65447393363011
 30
0.0
 10
185.4573714280641
 20
15.65686070361432
 30
0.0
 10
185.5350365172897
 20
15.65899381905415
 30
0.0
 10
185.5845393931354
 20
15.65193391922455
 30
0.0
 10
185.6344594750639
 20
15.66360151936214
 30
0.0
 10
185.622319851688
 20
15.61540235371393
 30
0.0
 10
185.6305838229143
 20
15.57249219801236
 30
0.0
 10
185.6223198650783
 20
15.52958201851384
 30
0.0
 10
185.6344594549855
 20
15.48138288754865
 30
0.0
 10
185.5845395158746
 20
15.4930503447151
 30
0.0
 10
185.5350350651203
 20
15.48599202435046
 30
0.0
 10
185.4573784382972
 20
15.48811665228603
 30
0.0
 10
185.379464386576
 20
15.4905338936576
 30
0.0
 10
185.3304500352716
 20
15.48291848194485
 30
0.0
 10
185.2813246108943
 20
15.49507952557592
 30
0.0
 10
185.2915559988571
 20
15.45073013424158
 30
0.0
 10
185.2856677678054
 20
15.40925436202912
 30
0.0
 10
185.2878788305568
 20
15.34915394315303
 30
0.0
 10
185.2874109346147
 20
15.3022578276289
 30
0.0
 10
185.2874386992913
 20
15.27650146418197
 30
0.0
 10
185.2874469028653
 20
15.2688916318772
 30
0.0
 11
185.2874469028653
 21
15.2688916318772
 31
0.0
 11
185.3516977534484
 21
15.18524999634257
 31
0.0
 11
185.4348258835499
 21
15.07118889748221
 31
0.0
 11
185.5216831568896
 21
14.94891767195724
 31
0.0
 11
185.5971214371872
 21
14.84064565642877
 31
0.0
 11
185.6459925881627
 21
14.7685821875579
 31
0.0
 11
185.6296821285094
 21
14.74641782124399
 31
0.0
 11
185.593799117272
 21
14.69765621535339
 31
0.0
 11
185.5579161060346
 21
14.6488946094628
 31
0.0
 11
185.5416056463813
 21
14.62673024314889
 31
0.0
 11
185.4763067109446
 21
14.74716139023813
 31
0.0
 11
185.3848434243234
 21
14.89966983670207
 31
0.0
 11
185.2874469028653
 21
15.05219788193142
 31
0.0
 11
185.2874469028653
 21
15.02216445328253
 31
0.0
 11
185.2874469028653
 21
14.93981472956783
 31
0.0
 11
185.2874469028653
 21
14.81677455413528
 31
0.0
 11
185.2874469028653
 21
14.66466977033283
 31
0.0
 11
185.2874469028653
 21
14.49512622150845
 31
0.0
 11
185.2874469028653
 21
14.31976975101009
 31
0.0
 11
185.2874469028653
 21
14.15022620218571
 31
0.0
 11
185.2874469028653
 21
13.99812141838326
 31
0.0
 11
185.2874469028653
 21
13.87508124295071
 31
0.0
 11
185.2874469028653
 21
13.79273151923601
 31
0.0
 11
185.2874469028653
 21
13.76269809058712
 31
0.0
 11
185.2606936700409
 21
13.76269809058712
 31
0.0
 11
185.2018365578272
 21
13.76269809058712
 31
0.0
 11
185.1429794456134
 21
13.76269809058712
 31
0.0
 11
185.116226212789
 21
13.76269809058712
 31
0.0
 11
185.116226212789
 21
13.7886480503125
 31
0.0
 11
185.116226212789
 21
13.86039205661208
 31
0.0
 11
185.116226212789
 21
13.96877130017102
 31
0.0
 11
185.116226212789
 21
14.10462697167447
 31
0.0
 11
185.116226212789
 21
14.25880026180761
 31
0.0
 11
185.116226212789
 21
14.42213236125558
 31
0.0
 11
185.116226212789
 21
14.58546446070356
 31
0.0
 11
185.116226212789
 21
14.7396377508367
 31
0.0
 11
185.116226212789
 21
14.87549342234015
 31
0.0
 11
185.116226212789
 21
14.98387266589909
 31
0.0
 11
185.116226212789
 21
15.05561667219867
 31
0.0
 11
185.116226212789
 21
15.08156663192405
 31
0.0
 11
185.0379865861721
 21
14.84965603302372
 31
0.0
 11
184.9497110789303
 21
14.63077616328678
 31
0.0
 11
184.8544106930046
 21
14.43598991333547
 31
0.0
 11
184.7550964303357
 21
14.27636017379202
 31
0.0
 11
184.7109198342406
 21
14.35822446196599
 31
0.0
 11
184.658805738348
 21
14.43414885430811
 31
0.0
 11
184.7627302590299
 21
14.59640087926757
 31
0.0
 11
184.8629319864735
 21
14.79551465421781
 31
0.0
 11
184.9550446607901
 21
15.01890447916196
 31
0.0
 11
185.0347020220912
 21
15.2539846541032
 31
0.0
 11
185.097537810488
 21
15.48816947904465
 31
0.0
 11
185.0693965972142
 21
15.48816947904465
 31
0.0
 11
184.9990435640297
 21
15.48816947904465
 31
0.0
 11
184.9075846208898
 21
15.48816947904465
 31
0.0
 11
184.81612567775
 21
15.48816947904465
 31
0.0
 11
184.7457726445655
 21
15.48816947904465
 31
0.0
 11
184.7176314312917
 21
15.48816947904465
 31
0.0
 11
184.7176314312917
 21
15.51452032539222
 31
0.0
 11
184.7176314312917
 21
15.57249218735688
 31
0.0
 11
184.7176314312917
 21
15.63046404932155
 31
0.0
 11
184.7176314312917
 21
15.65681489566912
 31
0.0
 11
184.739711025602
 21
15.65681489566912
 31
0.0
 11
184.7966531372445
 21
15.65681489566912
 31
0.0
 11
184.8745127592863
 21
15.65681489566912
 31
0.0
 11
184.9593448847945
 21
15.65681489566912
 31
0.0
 11
185.0372045068362
 21
15.65681489566912
 31
0.0
 11
185.0941466184786
 21
15.65681489566912
 31
0.0
 11
185.116226212789
 21
15.65681489566912
 31
0.0
 11
185.116226212789
 21
15.68210596174353
 31
0.0
 11
185.116226212789
 21
15.74878240866697
 31
0.0
 11
185.116226212789
 21
15.84304910948977
 31
0.0
 11
185.116226212789
 21
15.95111093726224
 31
0.0
 11
185.116226212789
 21
16.05917276503471
 31
0.0
 11
185.116226212789
 21
16.15343946585751
 31
0.0
 11
185.116226212789
 21
16.22011591278095
 31
0.0
 11
185.116226212789
 21
16.24540697885536
 31
0.0
 11
185.1393181988665
 21
16.243732131078
 31
0.0
 11
185.1943837041284
 21
16.23973826330122
 31
0.0
 11
185.2601070491184
 21
16.23497138885796
 31
0.0
 11
185.3151725543802
 21
16.23097752108117
 31
0.0
 11
185.3382645404578
 21
16.22930267330381
 31
0.0
 11
185.3249012644362
 21
16.20789677921192
 31
0.0
 11
185.2874469028653
 21
16.19450114553469
 31
0.0
 11
185.2874469028653
 21
16.17139743948578
 31
0.0
 11
185.2874469028653
 21
16.11048766899319
 31
0.0
 11
185.2874469028653
 21
16.02437385553816
 31
0.0
 11
185.2874469028653
 21
15.9256580206019
 31
0.0
 11
185.2874469028653
 21
15.82694218566565
 31
0.0
 11
185.2874469028653
 21
15.74082837221061
 31
0.0
 11
185.2874469028653
 21
15.67991860171803
 31
0.0
 11
185.2874469028653
 21
15.65681489566912
 31
0.0
 11
185.3126150604809
 21
15.65681489566912
 31
0.0
 11
185.3755354545199
 21
15.65681489566912
 31
0.0
 11
185.4573319667706
 21
15.65681489566912
 31
0.0
 11
185.5391284790212
 21
15.65681489566912
 31
0.0
 11
185.6020488730602
 21
15.65681489566912
 31
0.0
 11
185.6272170306758
 21
15.65681489566912
 31
0.0
 11
185.6272170306758
 21
15.63046404932155
 31
0.0
 11
185.6272170306758
 21
15.57249218735689
 31
0.0
 11
185.6272170306758
 21
15.51452032539222
 31
0.0
 11
185.6272170306758
 21
15.48816947904465
 31
0.0
 11
185.6020488730602
 21
15.48816947904465
 31
0.0
 11
185.5391284790212
 21
15.48816947904465
 31
0.0
 11
185.4573319667705
 21
15.48816947904465
 31
0.0
 11
185.3755354545199
 21
15.48816947904465
 31
0.0
 11
185.3126150604809
 21
15.48816947904465
 31
0.0
 11
185.2874469028653
 21
15.48816947904465
 31
0.0
 11
185.2874469028653
 21
15.46536458293924
 31
0.0
 11
185.2874469028653
 21
15.41098367684171
 31
0.0
 11
185.2874469028653
 21
15.34607743408014
 31
0.0
 11
185.2874469028653
 21
15.29169652798262
 31
0.0
 11
185.2874469028653
 21
15.2688916318772
 31
0.0
  0
SPLINE
  5
A7
102
{ACAD_REACTORS
330
C4
102
}
330
48
100
AcDbEntity
  8
_U_30EC_U_30A4_U_30E4_U_30FC_1
  6
Continuous
 62
     2
100
AcDbSpline
210
0.0
220
0.0
230
1.0
 70
    11
 71
     3
 72
    91
 73
    87
 74
    85
 42
0.000000001
 43
0.0000000001
 44
0.00000001
 40
0.0
 40
0.0
 40
0.0
 40
0.0
 40
0.0345987051695434
 40
0.1258134969461369
 40
0.2547723404888987
 40
0.4026032099154409
 40
0.5504340793417273
 40
0.6793929228836932
 40
0.7706077146571888
 40
0.8052064287781777
 40
1.124852390615365
 40
1.427402236308958
 40
1.706356627453599
 40
1.955541417875282
 40
2.169485938566426
 40
2.344350786664883
 40
2.480568411562031
 40
2.590440557429054
 40
2.649189927151256
 40
2.749320643306461
 40
2.912632739880157
 40
3.147745656000353
 40
3.244827496385291
 40
3.338490056946831
 40
3.583815413207258
 40
3.761423943238618
 40
3.886956104362782
 40
3.985855451886942
 40
4.091766255337826
 40
4.250186473811992
 40
4.422734315084615
 40
4.628285684838709
 40
4.872093227758551
 40
5.152549652145662
 40
5.464967135837642
 40
5.803201477852563
 40
6.160362988814038
 40
6.193449448276093
 40
6.284170385501747
 40
6.419718138764617
 40
6.587285046385867
 40
6.774063446723781
 40
6.967245678113764
 40
7.15402407881775
 40
7.321590987026136
 40
7.457138740890494
 40
7.547859678556231
 40
7.580946138182791
 40
7.608533084714843
 40
7.669224367077822
 40
7.729915649430044
 40
7.757502595950095
 40
7.790278062553549
 40
7.880146277431047
 40
8.01441996318051
 40
8.180411842398039
 40
8.365434637679508
 40
8.556801071622838
 40
8.741823866830922
 40
8.90781574591646
 40
9.042089431507643
 40
9.131957646249768
 40
9.164733112797345
 40
9.415425063140272
 40
9.667986180958735
 40
9.694169807462902
 40
9.756607686047861
 40
9.831130315322667
 40
9.893568193900132
 40
9.919751820398949
 40
9.95096796469078
 40
9.996421631210891
 40
10.22087981037478
 40
10.44341866197565
 40
10.47847970788878
 40
10.57091337438778
 40
10.70159545461259
 40
10.85140174170387
 40
11.00120802880509
 40
11.13189010907415
 40
11.2243237758304
 40
11.25938480938989
 40
11.28697175596177
 40
11.34766303835952
 40
11.40835432042102
 40
11.43594125892137
 40
11.43594125892137
 40
11.43594125892137
 40
11.43594125892137
 10
190.081811433329
 20
15.55242795125077
 30
0.0
 10
190.0702785844941
 20
15.55242790287915
 30
0.0
 10
190.0283409445
 20
15.55242773704164
 30
0.0
 10
189.9434129719026
 20
15.55243125800908
 30
0.0
 10
189.8207688553129
 20
15.55240926435879
 30
0.0
 10
189.6791206916993
 20
15.55250801177053
 30
0.0
 10
189.537975369849
 20
15.55214686232421
 30
0.0
 10
189.4141351317904
 20
15.55321883609088
 30
0.0
 10
189.3317217825381
 20
15.55092249091268
 30
0.0
 10
189.1727791229692
 20
15.5604856937342
 30
0.0
 10
189.3503402353376
 20
15.1978539431137
 30
0.0
 10
189.3379739205452
 20
14.95243127723114
 30
0.0
 10
189.4064519473864
 20
14.66862501324835
 30
0.0
 10
189.469302432097
 20
14.43250999939035
 30
0.0
 10
189.5452253431729
 20
14.23326740396129
 30
0.0
 10
189.6303189577015
 20
14.07745347451374
 30
0.0
 10
189.7244607592936
 20
13.97657857781392
 30
0.0
 10
189.8282648207727
 20
13.92465852638966
 30
0.0
 10
189.9125872030774
 20
13.97606484379614
 30
0.0
 10
189.9351322179452
 20
14.09144544037518
 30
0.0
 10
189.9745730975371
 20
14.21885149702382
 30
0.0
 10
189.9202919734942
 20
14.53622328086754
 30
0.0
 10
190.0451218072473
 20
14.38982180140909
 30
0.0
 10
190.2019291513602
 20
14.35795300331166
 30
0.0
 10
190.0947720007056
 20
14.12421357767628
 30
0.0
 10
190.0808711209867
 20
13.95972776583656
 30
0.0
 10
190.0234709467226
 20
13.83130869122484
 30
0.0
 10
189.9335020145008
 20
13.76018802352826
 30
0.0
 10
189.8095274657877
 20
13.74432324142254
 30
0.0
 10
189.663427319686
 20
13.77993797554172
 30
0.0
 10
189.5243894320284
 20
13.90000570500279
 30
0.0
 10
189.4102003962144
 20
14.0743568255032
 30
0.0
 10
189.3146141301487
 20
14.2994660311124
 30
0.0
 10
189.2318652572626
 20
14.56388246006442
 30
0.0
 10
189.1807179256411
 20
14.88187933098543
 30
0.0
 10
189.0770189207338
 20
15.15543728488912
 30
0.0
 10
189.2042841208519
 20
15.56005818612866
 30
0.0
 10
189.0357890623019
 20
15.55112367849678
 30
0.0
 10
188.9511995787077
 20
15.55315961418363
 30
0.0
 10
188.8189876387627
 20
15.55213937388406
 30
0.0
 10
188.6560505094104
 20
15.55253230318429
 30
0.0
 10
188.4733759170532
 20
15.55235696313368
 30
0.0
 10
188.2847057373383
 20
15.55260105307468
 30
0.0
 10
188.1014469020189
 20
15.55185657906236
 30
0.0
 10
187.9404746832718
 20
15.55416360522425
 30
0.0
 10
187.8029808335276
 20
15.54799804883662
 30
0.0
 10
187.728959037231
 20
15.56032838458211
 30
0.0
 10
187.6613215186856
 20
15.54329323723556
 30
0.0
 10
187.6732373719269
 20
15.59524438447528
 30
0.0
 10
187.6655677285694
 20
15.64071424966529
 30
0.0
 10
187.6732592225115
 20
15.68614453703705
 30
0.0
 10
187.6613141797762
 20
15.7380239598457
 30
0.0
 10
187.7283588305866
 20
15.72119143490264
 30
0.0
 10
187.8017375665677
 20
15.73335409092671
 30
0.0
 10
187.9379128305272
 20
15.72727231074958
 30
0.0
 10
188.0973811801512
 20
15.72954834315058
 30
0.0
 10
188.2789173085837
 20
15.72881233998962
 30
0.0
 10
188.465803486218
 20
15.72905954196134
 30
0.0
 10
188.6468012316836
 20
15.72886400799254
 30
0.0
 10
188.8080802578879
 20
15.72932234714839
 30
0.0
 10
188.9393882124887
 20
15.72812673751206
 30
0.0
 10
189.0225051322597
 20
15.73051347319742
 30
0.0
 10
189.1556236547815
 20
15.72230605725464
 30
0.0
 10
189.0645893502659
 20
15.97752868952655
 30
0.0
 10
188.9789633074419
 20
16.24164358328246
 30
0.0
 10
189.0990589003455
 20
16.22904442969165
 30
0.0
 10
189.1514264948544
 20
16.22694235763075
 30
0.0
 10
189.2214497569715
 20
16.22535399889657
 30
0.0
 10
189.2671922337817
 20
16.21602567538113
 30
0.0
 10
189.3220812646933
 20
16.22545966915426
 30
0.0
 10
189.2963574785681
 20
16.17733028655173
 30
0.0
 10
189.1825397571453
 20
16.18266829744167
 30
0.0
 10
189.3159346621136
 20
15.95449174576776
 30
0.0
 10
189.194365873547
 20
15.72156856595923
 30
0.0
 10
189.3223188769413
 20
15.73087258884438
 30
0.0
 10
189.4049048406461
 20
15.7280100175468
 30
0.0
 10
189.5307214850824
 20
15.72923437412302
 30
0.0
 10
189.6741469838059
 20
15.72932431888964
 30
0.0
 10
189.8157420951728
 20
15.72746163183853
 30
0.0
 10
189.9459127249968
 20
15.73333075937162
 30
0.0
 10
190.0193452286191
 20
15.72070340823204
 30
0.0
 10
190.0891112922097
 20
15.73877563110413
 30
0.0
 10
190.0775772605396
 20
15.68612850546326
 30
0.0
 10
190.0833184346683
 20
15.64221317686547
 30
0.0
 10
190.0816615770912
 20
15.59089982676549
 30
0.0
 10
190.081775756167
 20
15.56158792021634
 30
0.0
 10
190.081811433329
 20
15.55242795125077
 30
0.0
 11
190.081811433329
 21
15.55242795125077
 31
0.0
 11
190.0472127192052
 21
15.55242795125077
 31
0.0
 11
189.9559979274242
 21
15.55242795125077
 31
0.0
 11
189.8270390838718
 21
15.55242795125077
 31
0.0
 11
189.6792082144336
 21
15.55242795125077
 31
0.0
 11
189.5313773449955
 21
15.55242795125077
 31
0.0
 11
189.402418501443
 21
15.55242795125077
 31
0.0
 11
189.311203709662
 21
15.55242795125077
 31
0.0
 11
189.2766049955382
 21
15.55242795125077
 31
0.0
 11
189.3083140497693
 21
15.23435864930121
 31
0.0
 11
189.3527866656865
 21
14.9350952278808
 31
0.0
 11
189.4092389118319
 21
14.66191269512576
 31
0.0
 11
189.4768868567478
 21
14.42208605917227
 31
0.0
 11
189.5549465689761
 21
14.22289032815655
 31
0.0
 11
189.6426341170591
 21
14.07160051021477
 31
0.0
 11
189.7391655695388
 21
13.97549161348317
 31
0.0
 11
189.8437569949575
 21
13.94183864609792
 31
0.0
 11
189.8943077302786
 21
13.97177376978835
 31
0.0
 11
189.9310588991552
 21
14.06491619815047
 31
0.0
 11
189.9562640977528
 21
14.22627151712055
 31
0.0
 11
189.9721769222368
 21
14.46084531263482
 31
0.0
 11
190.0494082682584
 21
14.40202182306618
 31
0.0
 11
190.1327184184385
 21
14.3592188543269
 31
0.0
 11
190.1066365811217
 21
14.1152838866101
 31
0.0
 11
190.0673317805105
 21
13.94207902887562
 31
0.0
 11
190.0105702596765
 21
13.83011272445917
 31
0.0
 11
189.932118261691
 21
13.76989341669645
 31
0.0
 11
189.8277420296256
 21
13.75192954892317
 31
0.0
 11
189.6738595065097
 21
13.78957440012361
 31
0.0
 11
189.5388902376748
 21
13.89707348877403
 31
0.0
 11
189.4221739916163
 21
14.06627361744809
 31
0.0
 11
189.32305053683
 21
14.28902158871943
 31
0.0
 11
189.2408596418113
 21
14.55716420516172
 31
0.0
 11
189.1749410750559
 21
14.8625482693486
 31
0.0
 11
189.1246346050593
 21
15.19702058385374
 31
0.0
 11
189.0892800003171
 21
15.55242795125077
 31
0.0
 11
189.0561935405844
 21
15.55242795125077
 31
0.0
 11
188.9654726026075
 21
15.55242795125077
 31
0.0
 11
188.8299248482185
 21
15.55242795125077
 31
0.0
 11
188.6623579392495
 21
15.55242795125077
 31
0.0
 11
188.4755795375324
 21
15.55242795125077
 31
0.0
 11
188.2823973048992
 21
15.55242795125077
 31
0.0
 11
188.0956189031822
 21
15.55242795125077
 31
0.0
 11
187.9280519942131
 21
15.55242795125077
 31
0.0
 11
187.7925042398241
 21
15.55242795125077
 31
0.0
 11
187.7017833018473
 21
15.55242795125077
 31
0.0
 11
187.6686968421145
 21
15.55242795125077
 31
0.0
 11
187.6686968421145
 21
15.58001489785846
 31
0.0
 11
187.6686968421145
 21
15.64070618039537
 31
0.0
 11
187.6686968421145
 21
15.70139746293229
 31
0.0
 11
187.6686968421145
 21
15.72898440953998
 31
0.0
 11
187.7014723087631
 21
15.72898440953998
 31
0.0
 11
187.7913405237673
 21
15.72898440953998
 31
0.0
 11
187.9256142097148
 21
15.72898440953998
 31
0.0
 11
188.0916060891932
 21
15.72898440953998
 31
0.0
 11
188.2766288847901
 21
15.72898440953998
 31
0.0
 11
188.4679953190933
 21
15.72898440953998
 31
0.0
 11
188.6530181146902
 21
15.72898440953998
 31
0.0
 11
188.8190099941685
 21
15.72898440953998
 31
0.0
 11
188.9532836801161
 21
15.72898440953998
 31
0.0
 11
189.0431518951203
 21
15.72898440953998
 31
0.0
 11
189.0759273617689
 21
15.72898440953998
 31
0.0
 11
189.0659183950103
 21
15.97947647544959
 31
0.0
 11
189.0599112510663
 21
16.23196614552531
 31
0.0
 11
189.0860575870659
 21
16.23056921608122
 31
0.0
 11
189.1484065421419
 21
16.22723807663761
 31
0.0
 11
189.2228230369099
 21
16.22326220052749
 31
0.0
 11
189.2851719919859
 21
16.21993106108388
 31
0.0
 11
189.3113183279855
 21
16.21853413163979
 31
0.0
 11
189.298293111304
 21
16.1901652861608
 31
0.0
 11
189.2551649266405
 21
16.17581274276164
 31
0.0
 11
189.2574991961821
 21
15.95136670115108
 31
0.0
 11
189.2658452735903
 21
15.72898440953998
 31
0.0
 11
189.3009063195165
 21
15.72898440953998
 31
0.0
 11
189.3933399860495
 21
15.72898440953998
 31
0.0
 11
189.5240220663201
 21
15.72898440953998
 31
0.0
 11
189.6738283534596
 21
15.72898440953998
 31
0.0
 11
189.8236346405992
 21
15.72898440953998
 31
0.0
 11
189.9543167208698
 21
15.72898440953998
 31
0.0
 11
190.0467503874027
 21
15.72898440953998
 31
0.0
 11
190.081811433329
 21
15.72898440953998
 31
0.0
 11
190.081811433329
 21
15.70139746293229
 31
0.0
 11
190.081811433329
 21
15.64070618039537
 31
0.0
 11
190.081811433329
 21
15.58001489785846
 31
0.0
 11
190.081811433329
 21
15.55242795125077
 31
0.0
  0
SPLINE
  5
A8
102
{ACAD_REACTORS
330
C5
102
}
330
48
100
AcDbEntity
  8
_U_30EC_U_30A4_U_30E4_U_30FC_1
  6
Continuous
 62
     2
100
AcDbSpline
210
0.0
220
0.0
230
1.0
 70
    11
 71
     3
 72
    75
 73
    71
 74
    69
 42
0.000000001
 43
0.0000000001
 44
0.00000001
 40
0.0
 40
0.0
 40
0.0
 40
0.0
 40
0.0342546099129691
 40
0.1245622414432346
 40
0.2522385480897518
 40
0.398599192294068
 40
0.5449598364980821
 40
0.6726361431438816
 40
0.762943774673696
 40
0.7971983935297973
 40
1.101723623449603
 40
1.40859124403658
 40
1.433332471690284
 40
1.487763172450079
 40
1.542193873081904
 40
1.566935100592452
 40
1.923523931821765
 40
2.271755704953565
 40
2.590579755100807
 40
2.858943305581064
 40
2.889120339309089
 40
2.918305855191038
 40
2.941366645531159
 40
2.99635776097305
 40
3.061992318140593
 40
3.116983433626787
 40
3.140044223997464
 40
3.411273122936386
 40
3.732441619741051
 40
3.761068217532749
 40
3.837787499630315
 40
3.948858699125952
 40
4.08054104910433
 40
4.219093782625716
 40
4.350776132722268
 40
4.461847332405602
 40
4.538566614678336
 40
4.567193212544584
 40
4.594907573998842
 40
4.666381453557381
 40
4.764111044010992
 40
4.870592538125795
 40
4.968322128642246
 40
5.039796008286931
 40
5.06751036978439
 40
5.094263603185603
 40
5.153120716668235
 40
5.211977830150678
 40
5.238731063551683
 40
5.272290535138922
 40
5.363380529444782
 40
5.49761841578146
 40
5.660621563453702
 40
5.838007341749403
 40
6.015393119910755
 40
6.17839626703838
 40
6.312634151842332
 40
6.403724143059321
 40
6.437283612672417
 40
6.464036846261033
 40
6.522893960004646
 40
6.581751071483906
 40
6.608504301590852
 40
6.637253941280999
 40
6.711397748902851
 40
6.812778057283435
 40
6.923237199249154
 40
7.024617507623827
 40
7.098761315207451
 40
7.127510946007401
 40
7.127510946007401
 40
7.127510946007401
 40
7.127510946007401
 10
188.4418622390565
 20
14.95849128473265
 30
0.0
 10
188.4418622819707
 20
14.9470731340872
 30
0.0
 10
188.441862448113
 20
14.9055525784263
 30
0.0
 10
188.4418593081787
 20
14.82146922003772
 30
0.0
 10
188.4418788279801
 20
14.70004497322329
 30
0.0
 10
188.4417912187738
 20
14.55980494047449
 30
0.0
 10
188.4421116235231
 20
14.42006556794577
 30
0.0
 10
188.4411605909741
 20
14.29745038894929
 30
0.0
 10
188.4431978595968
 20
14.21587074438044
 30
0.0
 10
188.4349433178746
 20
14.062712670777
 30
0.0
 10
188.7430797940901
 20
14.22560236054721
 30
0.0
 10
189.0350645173737
 20
14.39482938688002
 30
0.0
 10
189.0408354448707
 20
14.25973235781911
 30
0.0
 10
189.0455471719891
 20
14.21617221160444
 30
0.0
 10
189.0482535411917
 20
14.17211249350545
 30
0.0
 10
189.0672545672961
 20
14.02272590363135
 30
0.0
 10
188.6583942247301
 20
14.08681172241261
 30
0.0
 10
188.3793710348833
 20
13.97296341411017
 30
0.0
 10
188.1018081587166
 20
13.87364095811142
 30
0.0
 10
187.8099837184401
 20
13.91630687596357
 30
0.0
 10
187.7869144678658
 20
13.81321679744542
 30
0.0
 10
187.7537474383332
 20
13.78691091244469
 30
0.0
 10
187.7480653962739
 20
13.83455309036304
 30
0.0
 10
187.7284214559044
 20
13.87180336115069
 30
0.0
 10
187.7095089485624
 20
13.93007387847564
 30
0.0
 10
187.6942849867707
 20
13.97385201007804
 30
0.0
 10
187.6477246372936
 20
14.0875942104631
 30
0.0
 10
187.989089731245
 20
14.05576301120048
 30
0.0
 10
188.2679649367386
 20
14.02161435106478
 30
0.0
 10
188.2617753034907
 20
14.16913976479652
 30
0.0
 10
188.2630935452773
 20
14.24013150908832
 30
0.0
 10
188.2624831689948
 20
14.34719767958662
 30
0.0
 10
188.2625871570725
 20
14.47398529785998
 30
0.0
 10
188.2629987964055
 20
14.60849243496051
 30
0.0
 10
188.2613907841969
 20
14.73395549951185
 30
0.0
 10
188.2659902567924
 20
14.84505246719118
 30
0.0
 10
188.256418650221
 20
14.90761886800689
 30
0.0
 10
188.2704001783691
 20
14.96595388295002
 30
0.0
 10
188.2147384386704
 20
14.95289710582239
 30
0.0
 10
188.1575655197821
 20
14.96136307749499
 30
0.0
 10
188.0616048925648
 20
14.95729976080637
 30
0.0
 10
187.963376752282
 20
14.95970889852476
 30
0.0
 10
187.8672582457561
 20
14.95551600613388
 30
0.0
 10
187.8104648525811
 20
14.96429346441164
 30
0.0
 10
187.7550356873384
 20
14.95094936850121
 30
0.0
 10
187.7670679427917
 20
15.00036910959257
 30
0.0
 10
187.7592003173938
 20
15.04393988030396
 30
0.0
 10
187.7666295563828
 20
15.08830469118525
 30
0.0
 10
187.7551930564144
 20
15.13902297763991
 30
0.0
 10
187.8232102370132
 20
15.12162460757743
 30
0.0
 10
187.8968496879747
 20
15.13417450237189
 30
0.0
 10
188.0325064058211
 20
15.12799677011097
 30
0.0
 10
188.1884909024525
 20
15.13029203093084
 30
0.0
 10
188.3615926358143
 20
15.1294096826253
 30
0.0
 10
188.5346942964181
 20
15.13029207142408
 30
0.0
 10
188.6906789811216
 20
15.1279966295555
 30
0.0
 10
188.8263351889797
 20
15.13417486262432
 30
0.0
 10
188.8999756705652
 20
15.12162394218335
 30
0.0
 10
188.9679914174724
 20
15.13902373012142
 30
0.0
 10
188.9565590885922
 20
15.08830130414555
 30
0.0
 10
188.9639539458297
 20
15.04397060811109
 30
0.0
 10
188.956203991227
 20
15.00028307550197
 30
0.0
 10
188.9681203741877
 20
14.95063590098477
 30
0.0
 10
188.9108170223616
 20
14.96461411338426
 30
0.0
 10
188.8520145789773
 20
14.95539755673255
 30
0.0
 10
188.75252936332
 20
14.95952268164931
 30
0.0
 10
188.6494280098349
 20
14.95822760025888
 30
0.0
 10
188.5537846354574
 20
14.95854077077641
 30
0.0
 10
188.4857467971617
 20
14.95848776697147
 30
0.0
 10
188.4514462213444
 20
14.95849051871657
 30
0.0
 10
188.4418622390565
 20
14.95849128473265
 30
0.0
 11
188.4418622390565
 21
14.95849128473265
 31
0.0
 11
188.4418622390565
 21
14.92423666587186
 31
0.0
 11
188.4418622390565
 21
14.83392903432976
 31
0.0
 11
188.4418622390565
 21
14.7062527276668
 31
0.0
 11
188.4418622390565
 21
14.5598920834434
 31
0.0
 11
188.4418622390565
 21
14.41353143922001
 31
0.0
 11
188.4418622390565
 21
14.28585513255705
 31
0.0
 11
188.4418622390565
 21
14.19554750101495
 31
0.0
 11
188.4418622390565
 21
14.16129288215416
 31
0.0
 11
188.7391932644567
 21
14.22709475713768
 31
0.0
 11
189.0384623627245
 21
14.29496038212072
 31
0.0
 11
189.0405487124976
 21
14.27030727882828
 31
0.0
 11
189.0451386819987
 21
14.2160704515849
 31
0.0
 11
189.0497286514996
 21
14.16183362434152
 31
0.0
 11
189.0518150012728
 21
14.13718052104908
 31
0.0
 11
188.705639688924
 21
14.05163370140898
 31
0.0
 11
188.3669653138838
 21
13.97060877629901
 31
0.0
 11
188.0563731516688
 21
13.89862764024929
 31
0.0
 11
187.7944444777955
 21
13.84021218778992
 31
0.0
 11
187.7817515029292
 21
13.81283442738013
 31
0.0
 11
187.7569794787513
 21
13.79740260446735
 31
0.0
 11
187.7491867589501
 21
13.81910683390636
 31
0.0
 11
187.7306041194242
 21
13.87086307333786
 31
0.0
 11
187.70842483999
 21
13.93263664943351
 31
0.0
 11
187.689842200464
 21
13.984392888865
 31
0.0
 11
187.6820494806628
 21
14.00609711830401
 31
0.0
 11
187.9482776335931
 21
14.05794001759666
 31
0.0
 11
188.2626334936289
 21
14.1237396877191
 31
0.0
 11
188.2626334936289
 21
14.15236628569624
 31
0.0
 11
188.2626334936289
 21
14.22908556827499
 31
0.0
 11
188.2626334936289
 21
14.34015676842631
 31
0.0
 11
188.2626334936289
 21
14.47183911912118
 31
0.0
 11
188.2626334936289
 21
14.61039185333057
 31
0.0
 11
188.2626334936289
 21
14.74207420402543
 31
0.0
 11
188.2626334936289
 21
14.85314540417675
 31
0.0
 11
188.2626334936289
 21
14.9298646867555
 31
0.0
 11
188.2626334936289
 21
14.95849128473265
 31
0.0
 11
188.2349191321108
 21
14.95849128473265
 31
0.0
 11
188.1634452524063
 21
14.95849128473265
 31
0.0
 11
188.06571566179
 21
14.95849128473265
 31
0.0
 11
187.9592341675364
 21
14.95849128473265
 31
0.0
 11
187.8615045769201
 21
14.95849128473265
 31
0.0
 11
187.7900306972156
 21
14.95849128473265
 31
0.0
 11
187.7623163356975
 21
14.95849128473265
 31
0.0
 11
187.7623163356975
 21
14.9852445182329
 31
0.0
 11
187.7623163356975
 21
15.04410163193345
 31
0.0
 11
187.7623163356975
 21
15.10295874563399
 31
0.0
 11
187.7623163356975
 21
15.12971197913424
 31
0.0
 11
187.7958758072874
 21
15.12971197913424
 31
0.0
 11
187.8869658016031
 21
15.12971197913424
 31
0.0
 11
188.0212036879629
 21
15.12971197913424
 31
0.0
 11
188.1842068356856
 21
15.12971197913424
 31
0.0
 11
188.3615926140897
 21
15.12971197913424
 31
0.0
 11
188.5389783924938
 21
15.12971197913424
 31
0.0
 11
188.7019815402164
 21
15.12971197913424
 31
0.0
 11
188.8362194265763
 21
15.12971197913424
 31
0.0
 11
188.9273094208918
 21
15.12971197913424
 31
0.0
 11
188.9608688924818
 21
15.12971197913424
 31
0.0
 11
188.9608688924818
 21
15.10295874563399
 31
0.0
 11
188.9608688924818
 21
15.04410163193344
 31
0.0
 11
188.9608688924818
 21
14.9852445182329
 31
0.0
 11
188.9608688924818
 21
14.95849128473265
 31
0.0
 11
188.9321192527877
 21
14.95849128473265
 31
0.0
 11
188.8579754451555
 21
14.95849128473265
 31
0.0
 11
188.7565951367605
 21
14.95849128473265
 31
0.0
 11
188.6461359947778
 21
14.95849128473265
 31
0.0
 11
188.5447556863828
 21
14.95849128473265
 31
0.0
 11
188.4706118787506
 21
14.95849128473265
 31
0.0
 11
188.4418622390565
 21
14.95849128473265
 31
0.0
  0
SPLINE
  5
A9
102
{ACAD_REACTORS
330
C6
102
}
330
48
100
AcDbEntity
  8
_U_30EC_U_30A4_U_30E4_U_30FC_1
  6
Continuous
 62
     2
100
AcDbSpline
210
0.0
220
0.0
230
1.0
 70
    11
 71
     3
 72
    15
 73
    11
 74
     9
 42
0.000000001
 43
0.0000000001
 44
0.00000001
 40
0.0
 40
0.0
 40
0.0
 40
0.0
 40
0.2785535985096574
 40
0.5215624748198874
 40
0.6076917376040509
 40
0.6938210001741243
 40
0.9405019146455056
 40
1.22169140348914
 40
1.300471877081057
 40
1.379252341684822
 40
1.379252341684822
 40
1.379252341684822
 40
1.379252341684822
 10
189.5681493630999
 20
16.22930267330381
 30
0.0
 10
189.6296017794178
 20
16.17691646592715
 30
0.0
 10
189.7446649974113
 20
16.07882876798222
 30
0.0
 10
190.0397348497243
 20
15.92889785897221
 30
0.0
 10
189.9025147631857
 20
15.84343227515014
 30
0.0
 10
189.8041227843778
 20
15.71085785201554
 30
0.0
 10
189.713003359065
 20
16.0161698578142
 30
0.0
 10
189.3636839480654
 20
16.07967869465374
 30
0.0
 10
189.5119258376571
 20
16.17896509880878
 30
0.0
 10
189.5494081874236
 20
16.21252348402382
 30
0.0
 10
189.5681493630999
 20
16.22930267330381
 30
0.0
 11
189.5681493630999
 21
16.22930267330381
 31
0.0
 11
189.7919222440596
 21
16.06341774278972
 31
0.0
 11
189.9695046306383
 21
15.89753281227564
 31
0.0
 11
189.9066308127979
 21
15.83866743034592
 31
0.0
 11
189.8437569949575
 21
15.7798020484162
 31
0.0
 11
189.6688535117725
 21
15.95375677059491
 31
0.0
 11
189.447825685614
 21
16.12757920110703
 31
0.0
 11
189.507987524357
 21
16.17844093720542
 31
0.0
 11
189.5681493630999
 21
16.22930267330381
 31
0.0
  0
SPLINE
  5
AA
102
{ACAD_REACTORS
330
C7
102
}
330
48
100
AcDbEntity
  8
_U_30EC_U_30A4_U_30E4_U_30FC_1
  6
Continuous
 62
     2
100
AcDbSpline
210
0.0
220
0.0
230
1.0
 70
    11
 71
     3
 72
    35
 73
    31
 74
    29
 42
0.000000001
 43
0.0000000001
 44
0.00000001
 40
0.0
 40
0.0
 40
0.0
 40
0.0
 40
0.033523103662059
 40
0.0713218571712022
 40
0.4278866681487
 40
0.8116865841964033
 40
1.198190238000064
 40
1.561379546812697
 40
1.659983174622037
 40
1.75931557380719
 40
2.132719617231075
 40
2.525233363588828
 40
2.910815397779696
 40
3.265244364303282
 40
3.592606723582021
 40
3.964386154603947
 40
4.359942131737768
 40
4.758154118639227
 40
4.84384653869988
 40
4.936650065543204
 40
5.256616602537282
 40
5.581707404416016
 40
5.899719158308111
 40
6.198363494280716
 40
6.466301046615746
 40
6.493895311537068
 40
6.559697020196861
 40
6.638234543442436
 40
6.704036252154189
 40
6.731630508422994
 40
6.731630508422994
 40
6.731630508422994
 40
6.731630508422994
 10
191.9736010568669
 20
16.23463843719134
 30
0.0
 10
191.9676006097788
 20
16.22480690542323
 30
0.0
 10
191.9548344099157
 20
16.20388988579798
 30
0.0
 10
191.7949362006552
 20
16.17127126532687
 30
0.0
 10
192.2322025842337
 20
15.88206680336703
 30
0.0
 10
192.4345394828262
 20
15.68041138358438
 30
0.0
 10
192.6819564267974
 20
15.43749387603276
 30
0.0
 10
193.1831513624605
 20
15.36047662757777
 30
0.0
 10
193.0125562198971
 20
15.21876939174654
 30
0.0
 10
192.93832994632
 20
15.01710366209109
 30
0.0
 10
192.6131432248188
 20
15.36956287174725
 30
0.0
 10
192.3277741670664
 20
15.53175212559562
 30
0.0
 10
192.0337604077658
 20
15.73687130053049
 30
0.0
 10
191.8084452691134
 20
16.21827488595455
 30
0.0
 10
191.5993085055522
 20
15.75343046609224
 30
0.0
 10
191.3207873674834
 20
15.54350952252911
 30
0.0
 10
191.0371383177209
 20
15.37424456359983
 30
0.0
 10
190.7078639527833
 20
15.00142360907946
 30
0.0
 10
190.6277012318224
 20
15.19708014458999
 30
0.0
 10
190.4759724909744
 20
15.32491104190598
 30
0.0
 10
190.9083395826794
 20
15.40454031765935
 30
0.0
 10
191.0962565329766
 20
15.60026634915473
 30
0.0
 10
191.3468477420502
 20
15.81632996916755
 30
0.0
 10
191.5714350470162
 20
15.98190992300059
 30
0.0
 10
191.6259775409711
 20
16.26133964636826
 30
0.0
 10
191.7494661029011
 20
16.24737950408079
 30
0.0
 10
191.806027334452
 20
16.24521268867647
 30
0.0
 10
191.8761870984944
 20
16.2404685988136
 30
0.0
 10
191.9333414022105
 20
16.23709429350541
 30
0.0
 10
191.9644190320839
 20
16.23519854711119
 30
0.0
 10
191.9736010568669
 20
16.23463843719134
 30
0.0
 11
191.9736010568669
 21
16.23463843719134
 31
0.0
 11
191.9525319069884
 21
16.20856374969786
 31
0.0
 11
191.9174464559425
 21
16.19450114553469
 31
0.0
 11
192.1512374769094
 21
15.92527961131382
 31
0.0
 11
192.4414585957566
 21
15.6741340796926
 31
0.0
 11
192.7612797483684
 21
15.45710987618784
 31
0.0
 11
193.0838708706289
 21
15.29025232631636
 31
0.0
 11
193.0213299868076
 21
15.21402035584928
 31
0.0
 11
192.9688035818975
 21
15.12971197913424
 31
0.0
 11
192.6436279095814
 21
15.3132640483158
 31
0.0
 11
192.3237227768436
 21
15.54070139743428
 31
0.0
 11
192.0354200158608
 21
15.7967385512331
 31
0.0
 11
191.8050514588095
 21
16.06609003445566
 31
0.0
 11
191.5995531719516
 21
15.81126348721036
 31
0.0
 11
191.3288301341536
 21
15.55645182277756
 31
0.0
 11
191.0119538423247
 21
15.31969466354856
 31
0.0
 11
190.6679957933742
 21
15.11903163191467
 31
0.0
 11
190.6218855341338
 21
15.19126067703553
 31
0.0
 11
190.5636970460348
 21
15.26355586798967
 31
0.0
 11
190.8433040489015
 21
15.41911456961745
 31
0.0
 11
191.1093004621154
 21
15.60601009790405
 31
0.0
 11
191.3499997459746
 21
15.81384496285209
 31
0.0
 11
191.5537153607774
 21
16.03222167446416
 31
0.0
 11
191.7087607668218
 21
16.25074274274287
 31
0.0
 11
191.7363041569865
 21
16.24906789496551
 31
0.0
 11
191.8019845489177
 21
16.24507402718873
 31
0.0
 11
191.880377274771
 21
16.24030715274548
 31
0.0
 11
191.9460576667022
 21
16.2363132849687
 31
0.0
 11
191.9736010568669
 21
16.23463843719134
 31
0.0
  0
SPLINE
  5
AB
102
{ACAD_REACTORS
330
C8
102
}
330
48
100
AcDbEntity
  8
_U_30EC_U_30A4_U_30E4_U_30FC_1
  6
Continuous
 62
     2
100
AcDbSpline
210
0.0
220
0.0
230
1.0
 70
    11
 71
     3
 72
    91
 73
    87
 74
    85
 42
0.000000001
 43
0.0000000001
 44
0.00000001
 40
0.0
 40
0.0
 40
0.0
 40
0.0
 40
0.0267532254356701
 40
0.0856103386464102
 40
0.1444674521996621
 40
0.1712206856618514
 40
0.2039416005642536
 40
0.2955601971652484
 40
0.4362601844616918
 40
0.616225284450725
 40
0.8256392189704698
 40
1.054685709844411
 40
1.293548478893531
 40
1.532411247938303
 40
1.761457738799568
 40
1.970871673298537
 40
2.150836773256732
 40
2.291536760495593
 40
2.3831553568367
 40
2.41587628410132
 40
2.442629517487965
 40
2.501486630949095
 40
2.560343744424242
 40
2.587096977826515
 40
2.617068194440942
 40
2.699247336756083
 40
2.822032643466396
 40
2.973822353257925
 40
3.143014704823368
 40
3.318007936879947
 40
3.48720028818678
 40
3.63898999754826
 40
3.761775303794759
 40
3.843954445753094
 40
3.87392566222979
 40
3.890812773500552
 40
3.907699884771757
 40
3.937960767857404
 40
3.980983618142464
 40
4.199085915228586
 40
4.439444339237389
 40
4.677588241261047
 40
5.050698317837933
 40
5.448212454763318
 40
5.855291218044844
 40
6.138575438885514
 40
6.417434507584355
 40
6.444551104394038
 40
6.504207617363337
 40
6.563864130314662
 40
6.590980727104255
 40
6.848609460381638
 40
7.109611990668596
 40
7.352910904446261
 40
7.557830220705632
 40
7.58751892591355
 40
7.652834077375967
 40
7.718149228845903
 40
7.747837934062205
 40
7.854880190301156
 40
7.976511257403697
 40
8.369487896592497
 40
8.75751495922379
 40
9.126072419331253
 40
9.460639380392315
 40
9.746695593036057
 40
9.777569943118802
 40
9.807050320931955
 40
9.830377336129088
 40
9.886003295436163
 40
9.95239556943008
 40
10.00802152870643
 40
10.03134854388236
 40
10.21356951009606
 40
10.42203479292889
 40
10.66154556731081
 40
10.91693789564322
 40
11.15832906556583
 40
11.1898267459664
 40
11.27286608520425
 40
11.39026653033367
 40
11.52484752840903
 40
11.65942852648465
 40
11.77682897161501
 40
11.859868310857
 40
11.89136598230445
 40
11.89136598230445
 40
11.89136598230445
 40
11.89136598230445
 10
190.7027885008196
 20
14.70699600701772
 30
0.0
 10
190.7028237765288
 20
14.71587847311985
 30
0.0
 10
190.7029366710796
 20
14.74430237047346
 30
0.0
 10
190.7012984568489
 20
14.79409639169803
 30
0.0
 10
190.7069750292911
 20
14.83657564478154
 30
0.0
 10
190.6956928731706
 20
14.88730154856847
 30
0.0
 10
190.7632296979031
 20
14.87012900740109
 30
0.0
 10
190.83880292107
 20
14.88290227165996
 30
0.0
 10
190.9828357056
 20
14.87629729457382
 30
0.0
 10
191.1569419185427
 20
14.87888462206466
 30
0.0
 10
191.3639599611003
 20
14.87800591955553
 30
0.0
 10
191.5894688172378
 20
14.87828207920027
 30
0.0
 10
191.8251162293406
 20
14.87818339658662
 30
0.0
 10
192.0607640531348
 20
14.87828184412767
 30
0.0
 10
192.2862717580626
 20
14.87800678190789
 30
0.0
 10
192.4932934632805
 20
14.87888186270735
 30
0.0
 10
192.6673888915288
 20
14.87630522678446
 30
0.0
 10
192.8114492071986
 20
14.88288290449213
 30
0.0
 10
192.8869691915293
 20
14.87016243405604
 30
0.0
 10
192.9545776037029
 20
14.88726400191686
 30
0.0
 10
192.9430840140676
 20
14.8367478580294
 30
0.0
 10
192.9505104581733
 20
14.79253252226501
 30
0.0
 10
192.9428838927986
 20
14.7486796650361
 30
0.0
 10
192.9546489459425
 20
14.69878374479327
 30
0.0
 10
192.8930788491983
 20
14.71393227712512
 30
0.0
 10
192.8256791738672
 20
14.70310665350673
 30
0.0
 10
192.7013004056221
 20
14.70852031626236
 30
0.0
 10
192.555442823657
 20
14.70649205390785
 30
0.0
 10
192.3893576440085
 20
14.70715777578387
 30
0.0
 10
192.2188412621724
 20
14.70689643521242
 30
0.0
 10
192.0519790855388
 20
14.70721553391094
 30
0.0
 10
191.9087346827105
 20
14.70635302590763
 30
0.0
 10
191.7773313869834
 20
14.70863300482987
 30
0.0
 10
191.7239859134656
 20
14.70407704374203
 30
0.0
 10
191.6485188456912
 20
14.70999914992876
 30
0.0
 10
191.6769075779233
 20
14.70094169343353
 30
0.0
 10
191.7033652409543
 20
14.69725912268929
 30
0.0
 10
191.6633522907701
 20
14.66654271968275
 30
0.0
 10
191.5713663691868
 20
14.67667591174634
 30
0.0
 10
191.543939620707
 20
14.43032502247783
 30
0.0
 10
191.4478793967234
 20
14.27499558764376
 30
0.0
 10
191.1917277964474
 20
13.94525417931569
 30
0.0
 10
191.7627537732762
 20
14.08430022210451
 30
0.0
 10
192.0173656320516
 20
14.08291779973363
 30
0.0
 10
192.6279647048617
 20
13.99790569242085
 30
0.0
 10
192.3340698578084
 20
14.29685417558204
 30
0.0
 10
192.0133304286516
 20
14.4433085690178
 30
0.0
 10
192.1313543360434
 20
14.50025540818287
 30
0.0
 10
192.1724716466262
 20
14.52420099873349
 30
0.0
 10
192.2156812394411
 20
14.5459975881123
 30
0.0
 10
192.3174574094451
 20
14.60928721253903
 30
0.0
 10
192.4328867625247
 20
14.35147151408781
 30
0.0
 10
192.6329591642277
 20
14.21616041113682
 30
0.0
 10
192.7269077387228
 20
14.03792795138882
 30
0.0
 10
192.9558829746392
 20
13.87997821027048
 30
0.0
 10
192.8596031846708
 20
13.829159725763
 30
0.0
 10
192.8167959763779
 20
13.79881292523055
 30
0.0
 10
192.7718243528779
 20
13.77466130281459
 30
0.0
 10
192.7121720925214
 20
13.72552146747569
 30
0.0
 10
192.6789731061324
 20
13.85997475673609
 30
0.0
 10
192.5582013350796
 20
14.01594265286581
 30
0.0
 10
192.1970976005978
 20
13.88569928059556
 30
0.0
 10
191.8385061955541
 20
13.90224694409483
 30
0.0
 10
191.457092045008
 20
13.89331229351867
 30
0.0
 10
191.1703455282891
 20
13.82882671672402
 30
0.0
 10
190.8592055599713
 20
13.94230668192835
 30
0.0
 10
190.8268737818788
 20
13.83122259927765
 30
0.0
 10
190.7896178253318
 20
13.81196313850012
 30
0.0
 10
190.7865737632754
 20
13.85874784087296
 30
0.0
 10
190.7679892860607
 20
13.89806853919136
 30
0.0
 10
190.7512436616778
 20
13.95765983478232
 30
0.0
 10
190.7383730915754
 20
14.00201969871284
 30
0.0
 10
190.7042327806427
 20
14.09106331120199
 30
0.0
 10
190.9482714457754
 20
14.0218104294377
 30
0.0
 10
191.1441394486671
 20
14.00030369057744
 30
0.0
 10
191.2395426381277
 20
14.28226484478463
 30
0.0
 10
191.2945135769597
 20
14.44363045421123
 30
0.0
 10
191.5159619357156
 20
14.71391177589738
 30
0.0
 10
191.3849239381216
 20
14.70548446853735
 30
0.0
 10
191.3110026555854
 20
14.7077900849697
 30
0.0
 10
191.1977459876244
 20
14.70671378321657
 30
0.0
 10
191.0694251807484
 20
14.7070763907651
 30
0.0
 10
190.9404252030415
 20
14.70697724466086
 30
0.0
 10
190.828784094629
 20
14.70699932712572
 30
0.0
 10
190.7514663970026
 20
14.7069957918967
 30
0.0
 10
190.713287653201
 20
14.70699595845081
 30
0.0
 10
190.7027885008196
 20
14.70699600701772
 30
0.0
 11
190.7027885008196
 21
14.70699600701772
 31
0.0
 11
190.7027885008196
 21
14.73374924051797
 31
0.0
 11
190.7027885008196
 21
14.79260635421853
 31
0.0
 11
190.7027885008196
 21
14.85146346791909
 31
0.0
 11
190.7027885008196
 21
14.87821670141935
 31
0.0
 11
190.7355094280989
 21
14.87821670141935
 31
0.0
 11
190.8271280244809
 21
14.87821670141935
 31
0.0
 11
190.9678280117818
 21
14.87821670141935
 31
0.0
 11
191.1477931118179
 21
14.87821670141935
 31
0.0
 11
191.3572070464054
 21
14.87821670141935
 31
0.0
 11
191.5862535373604
 21
14.87821670141935
 31
0.0
 11
191.8251163064992
 21
14.87821670141935
 31
0.0
 11
192.0639790756381
 21
14.87821670141935
 31
0.0
 11
192.2930255665931
 21
14.87821670141935
 31
0.0
 11
192.5024395011806
 21
14.87821670141935
 31
0.0
 11
192.6824046012167
 21
14.87821670141935
 31
0.0
 11
192.8231045885176
 21
14.87821670141935
 31
0.0
 11
192.9147231848996
 21
14.87821670141935
 31
0.0
 11
192.9474441121789
 21
14.87821670141935
 31
0.0
 11
192.9474441121789
 21
14.85146346791909
 31
0.0
 11
192.9474441121789
 21
14.79260635421853
 31
0.0
 11
192.9474441121789
 21
14.73374924051797
 31
0.0
 11
192.9474441121789
 21
14.70699600701772
 31
0.0
 11
192.9174728954758
 21
14.70699600701772
 31
0.0
 11
192.8352937529027
 21
14.70699600701772
 31
0.0
 11
192.7125084457639
 21
14.70699600701772
 31
0.0
 11
192.5607187353642
 21
14.70699600701772
 31
0.0
 11
192.3915263830077
 21
14.70699600701772
 31
0.0
 11
192.2165331499991
 21
14.70699600701772
 31
0.0
 11
192.0473407976426
 21
14.70699600701772
 31
0.0
 11
191.8955510872428
 21
14.70699600701772
 31
0.0
 11
191.7727657801042
 21
14.70699600701772
 31
0.0
 11
191.690586637531
 21
14.70699600701772
 31
0.0
 11
191.6606154208279
 21
14.70699600701772
 31
0.0
 11
191.6766359412526
 21
14.70165583340794
 31
0.0
 11
191.6926564616772
 21
14.69631565979815
 31
0.0
 11
191.6706155681421
 21
14.67558114591443
 31
0.0
 11
191.6284861855363
 21
14.6668587153611
 31
0.0
 11
191.5365235541378
 21
14.46909247312657
 31
0.0
 11
191.4279078521764
 21
14.25467511978509
 31
0.0
 11
191.3127500824807
 21
14.0462255905162
 31
0.0
 11
191.685736667502
 21
14.05582441253029
 31
0.0
 11
192.083070003615
 21
14.06781232404995
 31
0.0
 11
192.4899342191145
 21
14.08102711828532
 31
0.0
 11
192.2983119496978
 21
14.28966761302481
 31
0.0
 11
192.0966752013698
 21
14.48229420151832
 31
0.0
 11
192.1204947794749
 21
14.49525327269565
 31
0.0
 11
192.1728978513061
 21
14.52376322928576
 31
0.0
 11
192.2253009231374
 21
14.55227318587588
 31
0.0
 11
192.2491205012425
 21
14.5652322570532
 31
0.0
 11
192.4387101558627
 21
14.39079508370268
 31
0.0
 11
192.6200310940435
 21
14.20305846374091
 31
0.0
 11
192.7777729231147
 21
14.01782380992436
 31
0.0
 11
192.8966252504058
 21
13.85089253500949
 31
0.0
 11
192.8715408217923
 21
13.83501202286069
 31
0.0
 11
192.8163550788425
 21
13.80007489613332
 31
0.0
 11
192.7611693358928
 21
13.76513776940596
 31
0.0
 11
192.7360849072793
 21
13.74925725725716
 31
0.0
 11
192.6775518151612
 21
13.83887824681809
 31
0.0
 11
192.6050015078457
 21
13.93650288221032
 31
0.0
 11
192.2125412924095
 21
13.91636286943759
 31
0.0
 11
191.824947406956
 21
13.89803302999773
 31
0.0
 11
191.4567378976213
 21
13.88202178722395
 31
0.0
 11
191.1224308105412
 21
13.86883756444947
 31
0.0
 11
190.8365441918518
 21
13.8589887850075
 31
0.0
 11
190.8211862321741
 21
13.83220523466695
 31
0.0
 11
190.7937434290546
 21
13.82143559057245
 31
0.0
 11
190.7867927192319
 21
13.84370299445577
 31
0.0
 11
190.7702179496548
 21
13.89680218833139
 31
0.0
 11
190.7504351601596
 21
13.96017864553777
 31
0.0
 11
190.7338603905825
 21
14.01327783941338
 31
0.0
 11
190.7269096807598
 21
14.0355452432967
 31
0.0
 11
190.9091199859153
 21
14.03751638912953
 31
0.0
 11
191.1174975848588
 21
14.04356211829472
 31
0.0
 11
191.2303203127216
 21
14.25483550301554
 31
0.0
 11
191.3407936722035
 21
14.48509813155879
 31
0.0
 11
191.4358254265627
 21
14.70699600701772
 31
0.0
 11
191.4043277461597
 21
14.70699600701772
 31
0.0
 11
191.3212884069153
 21
14.70699600701772
 31
0.0
 11
191.2038879617768
 21
14.70699600701772
 31
0.0
 11
191.0693069636912
 21
14.70699600701772
 31
0.0
 11
190.9347259656055
 21
14.70699600701772
 31
0.0
 11
190.817325520467
 21
14.70699600701772
 31
0.0
 11
190.7342861812226
 21
14.70699600701772
 31
0.0
 11
190.7027885008196
 21
14.70699600701772
 31
0.0
  0
SPLINE
  5
AC
102
{ACAD_REACTORS
330
C9
102
}
330
48
100
AcDbEntity
  8
_U_30EC_U_30A4_U_30E4_U_30FC_1
  6
Continuous
 62
     2
100
AcDbSpline
210
0.0
220
0.0
230
1.0
 70
    11
 71
     3
 72
   131
 73
   127
 74
   125
 42
0.000000001
 43
0.0000000001
 44
0.00000001
 40
0.0
 40
0.0
 40
0.0
 40
0.0
 40
0.0195577029826184
 40
0.0426490537461471
 40
0.2863607575856658
 40
0.5344948436189367
 40
0.7842238845573265
 40
0.873731578946745
 40
0.9803832810312947
 40
1.09284227451704
 40
1.199761146656799
 40
1.289788768186504
 40
1.351573580786198
 40
1.370727117561426
 40
1.416400936017835
 40
1.470914848355974
 40
1.516588666791763
 40
1.535742203552842
 40
1.63421659229319
 40
1.760283341175024
 40
1.897966686682084
 40
2.031216387368907
 40
2.049689751137901
 40
2.101115601646837
 40
2.179502577739955
 40
2.278859318314069
 40
2.393194462258727
 40
2.51651664838384
 40
2.642834515405969
 40
2.766156701983471
 40
2.880491846754586
 40
2.979848588358628
 40
3.058235565443805
 40
3.10966141666896
 40
3.128134780704135
 40
3.146783742386452
 40
3.191254343315313
 40
3.244332157315972
 40
3.288802758225875
 40
3.307451719895118
 40
3.327717853844732
 40
3.38374775358009
 40
3.468388665924481
 40
3.57448783769879
 40
3.694892515728894
 40
3.822449946852032
 40
3.950007377920421
 40
4.070412055800514
 40
4.176511227368069
 40
4.261152139501515
 40
4.317182039076709
 40
4.337448172964628
 40
4.620011002696243
 40
4.885096638397508
 40
4.945373043518329
 40
5.014107710488642
 40
5.07048172765204
 40
5.319246955636564
 40
5.584812164506035
 40
5.859000912056888
 40
6.13374693754207
 40
6.401732212968873
 40
6.420736683995464
 40
6.472845717451114
 40
6.550702743894042
 40
6.64695119387425
 40
6.754234497930574
 40
6.865196086587352
 40
6.972479390357811
 40
7.068727839771973
 40
7.146584865450982
 40
7.198693898189211
 40
7.217698368905352
 40
7.234950401630829
 40
7.276089864269871
 40
7.325191803515978
 40
7.366331266090362
 40
7.383583298769712
 40
7.402779163492089
 40
7.45338644325452
 40
7.524934666445522
 40
7.606953361405862
 40
7.688972056429013
 40
7.760520279784264
 40
7.811127559734506
 40
7.830323424546127
 40
7.847844055299757
 40
7.894799345666798
 40
7.962779392744486
 40
8.043374293560532
 40
8.128174145149439
 40
8.208769044817243
 40
8.276749090376944
 40
8.323704379669502
 40
8.341225010056236
 40
8.358497614800385
 40
8.40167912668659
 40
8.457815092185648
 40
8.513951057728052
 40
8.557132569708008
 40
8.574405174505051
 40
8.602340668616412
 40
8.643455660539955
 40
8.663225271966622
 40
8.71534515656427
 40
8.789031889628605
 40
8.873502045520334
 40
8.957972194323958
 40
9.031658925567848
 40
9.08377881123454
 40
9.103548423003001
 40
9.119550083123539
 40
9.16081752237984
 40
9.217244429110206
 40
9.278724491644692
 40
9.335151398295476
 40
9.376418837357772
 40
9.39242049730056
 40
9.401196302734778
 40
9.417494229384253
 40
9.426270027749526
 40
9.440875075477559
 40
9.475702496998737
 40
9.5172707098659
 40
9.552098131994066
 40
9.566703169884274
 40
9.566703169884274
 40
9.566703169884274
 40
9.566703169884274
 10
194.6170254148479
 20
15.67015871511028
 30
0.0
 10
194.6134345093371
 20
15.6645369070216
 30
0.0
 10
194.6056039123625
 20
15.65227754419112
 30
0.0
 10
194.5129968974547
 20
15.61601916040977
 30
0.0
 10
194.4887622233247
 20
15.40148444212713
 30
0.0
 10
194.3858709845938
 20
15.22197284509708
 30
0.0
 10
194.1220492364305
 20
15.03615573798145
 30
0.0
 10
194.2845471569179
 20
14.9595933656608
 30
0.0
 10
194.3607225760838
 20
14.89856693195442
 30
0.0
 10
194.4492171072758
 20
14.83515804544759
 30
0.0
 10
194.5389930233111
 20
14.77525634219561
 30
0.0
 10
194.5883817636046
 20
14.72102154849208
 30
0.0
 10
194.6745708157381
 20
14.69286240541834
 30
0.0
 10
194.641126067423
 20
14.65713309652812
 30
0.0
 10
194.621467116631
 20
14.62550387991906
 30
0.0
 10
194.5919888217882
 20
14.5847587279607
 30
0.0
 10
194.568898944603
 20
14.55504663489644
 30
0.0
 10
194.5380205968357
 20
14.50211422668495
 30
0.0
 10
194.472919336574
 20
14.62740334938903
 30
0.0
 10
194.3796000122416
 20
14.68213900233934
 30
0.0
 10
194.2950636285138
 20
14.73916423939344
 30
0.0
 10
194.1722498125743
 20
14.89675287427523
 30
0.0
 10
194.1764450847301
 20
14.82035806766836
 30
0.0
 10
194.1751478652677
 20
14.77361280161296
 30
0.0
 10
194.1758126448076
 20
14.695847858126
 30
0.0
 10
194.1755549986957
 20
14.59902068324423
 30
0.0
 10
194.1756431239921
 20
14.48650279078809
 30
0.0
 10
194.1756077302282
 20
14.365240859457
 30
0.0
 10
194.1756511758278
 20
14.24086897858961
 30
0.0
 10
194.1755199942406
 20
14.11967683631337
 30
0.0
 10
194.1759477562046
 20
14.00691148919743
 30
0.0
 10
194.174667820231
 20
13.91082913768744
 30
0.0
 10
194.1779759851044
 20
13.831138264687
 30
0.0
 10
194.1715197740086
 20
13.78815175788784
 30
0.0
 10
194.1806208705556
 20
13.74955432372043
 30
0.0
 10
194.1447910339935
 20
13.7581088772407
 30
0.0
 10
194.1115223815252
 20
13.75342519985446
 30
0.0
 10
194.060456257604
 20
13.75351298759784
 30
0.0
 10
194.0269723972813
 20
13.75794430283821
 30
0.0
 10
193.9907585408754
 20
13.74960793842509
 30
0.0
 10
194.0009782568665
 20
13.79145277179284
 30
0.0
 10
193.9936487887773
 20
13.83778560820173
 30
0.0
 10
193.9973633136103
 20
13.92374831106015
 30
0.0
 10
193.9959480554896
 20
14.02605142704849
 30
0.0
 10
193.9964105554638
 20
14.14453223931512
 30
0.0
 10
193.996277368623
 20
14.26957683153356
 30
0.0
 10
193.9963015910045
 20
14.3947582810705
 30
0.0
 10
193.9963354925551
 20
14.51286645379058
 30
0.0
 10
193.9962060293132
 20
14.61628748709516
 30
0.0
 10
193.9965507549081
 20
14.69932036153667
 30
0.0
 10
193.995869827869
 20
14.75143368521243
 30
0.0
 10
193.9994586600623
 20
14.87912907821362
 30
0.0
 10
193.7826171386436
 20
14.58048716819619
 30
0.0
 10
193.6021354921951
 20
14.35263981511516
 30
0.0
 10
193.5490322295611
 20
14.49373443289814
 30
0.0
 10
193.5200429133149
 20
14.54325767560944
 30
0.0
 10
193.419664806282
 20
14.64641779790107
 30
0.0
 10
193.7405127723262
 20
14.7269503502378
 30
0.0
 10
193.8689897005429
 20
14.91066283036435
 30
0.0
 10
194.0906454325359
 20
15.11931995771763
 30
0.0
 10
194.1770224894068
 20
15.29339211228345
 30
0.0
 10
194.4549394229074
 20
15.56967051342512
 30
0.0
 10
194.3346247839284
 20
15.56534559551115
 30
0.0
 10
194.2863197351348
 20
15.56614856202553
 30
0.0
 10
194.2102377454905
 20
15.56574582146585
 30
0.0
 10
194.116701000975
 20
15.56590275611611
 30
0.0
 10
194.0117594788557
 20
15.56582502576224
 30
0.0
 10
193.9033887738717
 20
15.56595464378556
 30
0.0
 10
193.7981454235897
 20
15.56554393490692
 30
0.0
 10
193.7056237819412
 20
15.56682073671592
 30
0.0
 10
193.6268130800707
 20
15.5634076653485
 30
0.0
 10
193.5839674565379
 20
15.57023350036321
 30
0.0
 10
193.5449499586516
 20
15.56065064201124
 30
0.0
 10
193.5526365271863
 20
15.59420779565543
 30
0.0
 10
193.5485464404312
 20
15.62523550322234
 30
0.0
 10
193.5485531368814
 20
15.672365292709
 30
0.0
 10
193.5526239724911
 20
15.70340941646779
 30
0.0
 10
193.5449495574582
 20
15.73701861635901
 30
0.0
 10
193.5834819405495
 20
15.72748410420872
 30
0.0
 10
193.624122801448
 20
15.73397435498071
 30
0.0
 10
193.6951471850463
 20
15.73100150650254
 30
0.0
 10
193.7729318149633
 20
15.73174761399158
 30
0.0
 10
193.8507292246474
 20
15.73247814044525
 30
0.0
 10
193.9217232089907
 20
15.7295423551416
 30
0.0
 10
193.962427979182
 20
15.73595468772952
 30
0.0
 10
194.000985348991
 20
15.72650524176004
 30
0.0
 10
193.9927342754927
 20
15.76264692158784
 30
0.0
 10
193.9982346669358
 20
15.80129837613227
 30
0.0
 10
193.9955754206163
 20
15.86913528561839
 30
0.0
 10
193.9965815471533
 20
15.9459164153874
 30
0.0
 10
193.9960178018319
 20
16.02849393582757
 30
0.0
 10
193.9970714526592
 20
16.10517329229878
 30
0.0
 10
193.994267586313
 20
16.173319907767
 30
0.0
 10
194.0000702721304
 20
16.21132399809346
 30
0.0
 10
193.9915654551158
 20
16.24758448077646
 30
0.0
 10
194.0255610233125
 20
16.23755723771853
 30
0.0
 10
194.05945756831
 20
16.24073266813706
 30
0.0
 10
194.1126669060346
 20
16.2350896564061
 30
0.0
 10
194.1660768574483
 20
16.23434774436425
 30
0.0
 10
194.199591464949
 20
16.2281922348298
 30
0.0
 10
194.2388086183039
 20
16.23346029773593
 30
0.0
 10
194.2120263698492
 20
16.1925338079349
 30
0.0
 10
194.1708111001723
 20
16.20371204538111
 30
0.0
 10
194.1782641540874
 20
16.15867056192124
 30
0.0
 10
194.1742227952184
 20
16.11412278028144
 30
0.0
 10
194.176171404964
 20
16.04223572621703
 30
0.0
 10
194.1752364849758
 20
15.96168630588771
 30
0.0
 10
194.176510719003
 20
15.88173995404994
 30
0.0
 10
194.1732043793863
 20
15.80841837083183
 30
0.0
 10
194.1802106179961
 20
15.76688643002568
 30
0.0
 10
194.1701440380126
 20
15.72752418568113
 30
0.0
 10
194.2029814803921
 20
15.73468063430981
 30
0.0
 10
194.236457729648
 20
15.73027243137945
 30
0.0
 10
194.2915053476019
 20
15.73217943347897
 30
0.0
 10
194.3489502595314
 20
15.73185366407288
 30
0.0
 10
194.4023026248309
 20
15.73106308733081
 30
0.0
 10
194.4398540896638
 20
15.73313959118074
 30
0.0
 10
194.4623172523237
 20
15.73022338167109
 30
0.0
 10
194.4751678073731
 20
15.73572552644056
 30
0.0
 10
194.4858255685888
 20
15.7380111819779
 30
0.0
 10
194.4986635650143
 20
15.74494972588052
 30
0.0
 10
194.5145991033071
 20
15.72853046313672
 30
0.0
 10
194.5410623920891
 20
15.71709122319449
 30
0.0
 10
194.5726805253757
 20
15.6964468783519
 30
0.0
 10
194.5987255892151
 20
15.68116869628295
 30
0.0
 10
194.6128517723973
 20
15.67266976323184
 30
0.0
 10
194.6170254148479
 20
15.67015871511028
 30
0.0
 11
194.6170254148479
 21
15.67015871511028
 31
0.0
 11
194.6049990002243
 21
15.65473571164188
 31
0.0
 11
194.5848961795565
 21
15.64337406233918
 31
0.0
 11
194.4778986355813
 21
15.42440620231159
 31
0.0
 11
194.3477039934324
 21
15.21317201512161
 31
0.0
 11
194.1996540366071
 21
15.01206059027479
 31
0.0
 11
194.2734958253735
 21
14.96147384935379
 31
0.0
 11
194.36056643118
 21
14.89988411653739
 31
0.0
 11
194.4518003750404
 21
14.83413160594426
 31
0.0
 11
194.5381321779687
 21
14.77105653169304
 31
0.0
 11
194.6104963609787
 21
14.71749910790242
 31
0.0
 11
194.6598274450843
 21
14.68029954869104
 31
0.0
 11
194.6486940702213
 21
14.66471410869494
 31
0.0
 11
194.6221452532403
 21
14.62754882870424
 31
0.0
 11
194.5904579555533
 21
14.58319026871533
 31
0.0
 11
194.5639091385723
 21
14.54602498872463
 31
0.0
 11
194.5527757637093
 21
14.53043954872853
 31
0.0
 11
194.4807013362947
 21
14.59754008690618
 31
0.0
 11
194.385285698538
 21
14.6799335417467
 31
0.0
 11
194.279326415217
 21
14.76785017366916
 31
0.0
 11
194.175621051109
 21
14.85152024309267
 31
0.0
 11
194.175621051109
 21
14.83304687900863
 31
0.0
 11
194.175621051109
 21
14.78162102763955
 31
0.0
 11
194.175621051109
 21
14.70323405030999
 31
0.0
 11
194.175621051109
 21
14.60387730834449
 31
0.0
 11
194.175621051109
 21
14.4895421630676
 31
0.0
 11
194.175621051109
 21
14.36621997580389
 31
0.0
 11
194.175621051109
 21
14.2399021078779
 31
0.0
 11
194.175621051109
 21
14.11657992061419
 31
0.0
 11
194.175621051109
 21
14.0022447753373
 31
0.0
 11
194.175621051109
 21
13.9028880333718
 31
0.0
 11
194.175621051109
 21
13.82450105604223
 31
0.0
 11
194.175621051109
 21
13.77307520467316
 31
0.0
 11
194.175621051109
 21
13.75460184058912
 31
0.0
 11
194.1569720893626
 21
13.75460184058912
 31
0.0
 11
194.1125014882749
 21
13.75460184058912
 31
0.0
 11
194.0594236740736
 21
13.75460184058912
 31
0.0
 11
194.0149530729859
 21
13.75460184058912
 31
0.0
 11
193.9963041112395
 21
13.75460184058912
 31
0.0
 11
193.9963041112395
 21
13.77486797460219
 31
0.0
 11
193.9963041112395
 21
13.83089787452066
 31
0.0
 11
193.9963041112395
 21
13.91553878716347
 31
0.0
 11
193.9963041112395
 21
14.02163795934953
 31
0.0
 11
193.9963041112395
 21
14.14204263789775
 31
0.0
 11
193.9963041112395
 21
14.26960006962705
 31
0.0
 11
193.9963041112395
 21
14.39715750135636
 31
0.0
 11
193.9963041112395
 21
14.51756217990458
 31
0.0
 11
193.9963041112395
 21
14.62366135209064
 31
0.0
 11
193.9963041112395
 21
14.70830226473344
 31
0.0
 11
193.9963041112395
 21
14.76433216465193
 31
0.0
 11
193.9963041112395
 21
14.78459829866499
 31
0.0
 11
193.7883272849481
 21
14.59331998274056
 31
0.0
 11
193.5763486358425
 21
14.43414885430811
 31
0.0
 11
193.5495629014482
 21
14.48814671952095
 31
0.0
 11
193.5138765415024
 21
14.54689140572027
 31
0.0
 11
193.4799697494124
 21
14.59192871537977
 31
0.0
 11
193.6830287742319
 21
14.73563387201055
 31
0.0
 11
193.881853195826
 21
14.91168423529989
 31
0.0
 11
194.0677041444178
 21
15.11327514524951
 31
0.0
 11
194.2318427502303
 21
15.3336019418611
 31
0.0
 11
194.3655301434864
 21
15.56585996513636
 31
0.0
 11
194.3465256724482
 21
15.56585996513636
 31
0.0
 11
194.2944166389562
 21
15.56585996513636
 31
0.0
 11
194.2165596124447
 21
15.56585996513636
 31
0.0
 11
194.1203111623478
 21
15.56585996513636
 31
0.0
 11
194.0130278580997
 21
15.56585996513636
 31
0.0
 11
193.9020662691345
 21
15.56585996513636
 31
0.0
 11
193.7947829648864
 21
15.56585996513636
 31
0.0
 11
193.6985345147895
 21
15.56585996513636
 31
0.0
 11
193.620677488278
 21
15.56585996513636
 31
0.0
 11
193.568568454786
 21
15.56585996513636
 31
0.0
 11
193.5495639837478
 21
15.56585996513636
 31
0.0
 11
193.5495639837478
 21
15.58311199790982
 31
0.0
 11
193.5495639837478
 21
15.62425146067732
 31
0.0
 11
193.5495639837478
 21
15.67335340010949
 31
0.0
 11
193.5495639837478
 21
15.71449286287699
 31
0.0
 11
193.5495639837478
 21
15.73174489565045
 31
0.0
 11
193.5687598486009
 21
15.73174489565045
 31
0.0
 11
193.6193671286684
 21
15.73174489565045
 31
0.0
 11
193.690915352212
 21
15.73174489565045
 31
0.0
 11
193.7729340474937
 21
15.73174489565045
 31
0.0
 11
193.8549527427753
 21
15.73174489565045
 31
0.0
 11
193.9265009663189
 21
15.73174489565045
 31
0.0
 11
193.9771082463864
 21
15.73174489565045
 31
0.0
 11
193.9963041112395
 21
15.73174489565045
 31
0.0
 11
193.9963041112395
 21
15.74926552655218
 31
0.0
 11
193.9963041112395
 21
15.79622081736882
 31
0.0
 11
193.9963041112395
 21
15.86420086526753
 31
0.0
 11
193.9963041112395
 21
15.94479576741549
 31
0.0
 11
193.9963041112395
 21
16.02959562097986
 31
0.0
 11
193.9963041112395
 21
16.11019052312782
 31
0.0
 11
193.9963041112395
 21
16.17817057102653
 31
0.0
 11
193.9963041112395
 21
16.22512586184317
 31
0.0
 11
193.9963041112395
 21
16.2426464927449
 31
0.0
 11
194.0135484112111
 21
16.24165806167519
 31
0.0
 11
194.0566591611401
 21
16.23918698400091
 31
0.0
 11
194.1127031360477
 21
16.23597458302435
 31
0.0
 11
194.1687471109553
 21
16.2327621820478
 31
0.0
 11
194.2118578608843
 21
16.23029110437352
 31
0.0
 11
194.2291021608559
 21
16.22930267330381
 31
0.0
 11
194.2143774674851
 21
16.2055629337264
 31
0.0
 11
194.175621051109
 21
16.19183767331312
 31
0.0
 11
194.175621051109
 21
16.17206806177293
 31
0.0
 11
194.175621051109
 21
16.11994817680333
 31
0.0
 11
194.175621051109
 21
16.04626144288079
 31
0.0
 11
194.175621051109
 21
15.96179128448179
 31
0.0
 11
194.175621051109
 21
15.87732112608278
 31
0.0
 11
194.175621051109
 21
15.80363439216024
 31
0.0
 11
194.175621051109
 21
15.75151450719064
 31
0.0
 11
194.175621051109
 21
15.73174489565045
 31
0.0
 11
194.1916227112935
 21
15.73174489565045
 31
0.0
 11
194.232890150717
 21
15.73174489565045
 31
0.0
 11
194.2893170576837
 21
15.73174489565045
 31
0.0
 11
194.3507971204981
 21
15.73174489565045
 31
0.0
 11
194.4072240274648
 21
15.73174489565045
 31
0.0
 11
194.4484914668882
 21
15.73174489565045
 31
0.0
 11
194.4644931270728
 21
15.73174489565045
 31
0.0
 11
194.4728206422924
 21
15.73451387455921
 31
0.0
 11
194.4882860277004
 21
15.73965626396118
 31
0.0
 11
194.49661354292
 21
15.74242524286994
 31
0.0
 11
194.5091363776005
 21
15.73490952398294
 31
0.0
 11
194.5389985218386
 21
15.71698742509854
 31
0.0
 11
194.5746404359293
 21
15.69559653288168
 31
0.0
 11
194.6045025801674
 21
15.67767443399729
 31
0.0
 11
194.6170254148479
 21
15.67015871511028
 31
0.0
  0
SPLINE
  5
AD
102
{ACAD_REACTORS
330
CA
102
}
330
48
100
AcDbEntity
  8
_U_30EC_U_30A4_U_30E4_U_30FC_1
  6
Continuous
 62
     2
100
AcDbSpline
210
0.0
220
0.0
230
1.0
 70
    11
 71
     3
 72
   124
 73
   120
 74
   118
 42
0.000000001
 43
0.0000000001
 44
0.00000001
 40
0.0
 40
0.0
 40
0.0
 40
0.0
 40
0.0278187229624226
 40
0.1011590162383985
 40
0.2048470170589954
 40
0.3237088716558677
 40
0.4425707262521431
 40
0.5462587270698694
 40
0.6195990203311229
 40
0.6474177522577808
 40
0.6750060736114372
 40
0.7357003855241906
 40
0.7963946998053639
 40
0.8239830245570932
 40
0.8540933811102025
 40
0.9373396629408706
 40
1.063094687343151
 40
1.22073126863799
 40
1.399622220914664
 40
1.589140358637649
 40
1.778658496423815
 40
1.957549448940425
 40
2.115186030873075
 40
2.240941056914379
 40
2.324187341760449
 40
2.354297700109298
 40
2.381886024671805
 40
2.442580338710393
 40
2.503274652750417
 40
2.530862977314524
 40
2.560983949278477
 40
2.640393784452852
 40
2.752662861759075
 40
2.881361560118063
 40
3.010060258455167
 40
3.122329335705342
 40
3.201739170817928
 40
3.231860142753317
 40
3.264298024030373
 40
3.352343701778245
 40
3.482095226868769
 40
3.639650650173031
 40
3.811108022565485
 40
3.982565394927994
 40
4.140120818152575
 40
4.269872343141286
 40
4.357918020802349
 40
4.390355902043978
 40
4.423256253992547
 40
4.508104530073097
 40
4.624121560636865
 40
4.750528176031621
 40
4.866545206602097
 40
4.951393482692082
 40
4.984293834645483
 40
5.011450833242399
 40
5.071196230152187
 40
5.130941627057262
 40
5.158098625648928
 40
5.190998977601619
 40
5.275847253689444
 40
5.391864284256935
 40
5.51827089964848
 40
5.63428793020952
 40
5.719136206288193
 40
5.752036558236109
 40
5.782130946283135
 40
5.862783906229308
 40
5.979550131775176
 40
6.117984316640581
 40
6.263641154588128
 40
6.402075339414332
 40
6.518841564908128
 40
6.59949452481571
 40
6.629588912848948
 40
6.654403028226525
 40
6.713575149488263
 40
6.78419993932958
 40
6.843372060493626
 40
6.868186175802871
 40
6.89624624320196
 40
6.939586233758276
 40
6.967846564564904
 40
7.043584251089839
 40
7.153234334451699
 40
7.283231855734445
 40
7.420011856035477
 40
7.550009376579827
 40
7.659659458835226
 40
7.735397144417218
 40
7.76365747485139
 40
7.796409728011047
 40
7.880876065096321
 40
7.996370852465707
 40
8.122208446418602
 40
8.237703224799196
 40
8.322169562010918
 40
8.354921815205904
 40
8.382078813307684
 40
8.441824209206992
 40
8.50156960524014
 40
8.52872660348572
 40
8.561478856695741
 40
8.645945193877791
 40
8.761439980865331
 40
8.887277580764474
 40
9.002772362000995
 40
9.087238696661187
 40
9.11999094923567
 40
9.152428830613369
 40
9.240474508638584
 40
9.370226034149535
 40
9.527781457984421
 40
9.69923883098141
 40
9.870696203978602
 40
10.02825162781402
 40
10.15800315332564
 40
10.24604883135119
 40
10.27848670378522
 40
10.27848670378522
 40
10.27848670378522
 40
10.27848670378522
 10
195.3821827564384
 20
14.01410517385757
 30
0.0
 10
195.3914554737524
 20
14.01410498511274
 30
0.0
 10
195.4251744536861
 20
14.01410430876714
 30
0.0
 10
195.4934706812466
 20
14.01411807243305
 30
0.0
 10
195.592014171158
 20
14.01403224219544
 30
0.0
 10
195.7062066464812
 20
14.01441755612251
 30
0.0
 10
195.8185894417071
 20
14.01300835897545
 30
0.0
 10
195.9214376600119
 20
14.01719117422243
 30
0.0
 10
195.9806839874848
 20
14.00823089251983
 30
0.0
 10
196.0371265937033
 20
14.0216443452606
 30
0.0
 10
196.0246255586955
 20
13.97087198613361
 30
0.0
 10
196.0329549635703
 20
13.92589320939067
 30
0.0
 10
196.024817084112
 20
13.88056752990488
 30
0.0
 10
196.0370529214457
 20
13.82931932408466
 30
0.0
 10
195.9747773490333
 20
13.84447955365276
 30
0.0
 10
195.9060513026868
 20
13.83359750710742
 30
0.0
 10
195.7782756749592
 20
13.83911304747972
 30
0.0
 10
195.6262984511643
 20
13.83700851253698
 30
0.0
 10
195.4502695972523
 20
13.83771002588473
 30
0.0
 10
195.2644431934287
 20
13.83745237531291
 30
0.0
 10
195.0786167437175
 20
13.83771005144602
 30
0.0
 10
194.9025880142168
 20
13.83700841847731
 30
0.0
 10
194.7506104154195
 20
13.83911332229989
 30
0.0
 10
194.6228357664554
 20
13.8335968076764
 30
0.0
 10
194.554107783658
 20
13.84448077125942
 30
0.0
 10
194.4918349042883
 20
13.82931786684209
 30
0.0
 10
194.5040616290017
 20
13.88057510805171
 30
0.0
 10
194.4960004462597
 20
13.92582473272425
 30
0.0
 10
194.5040675809892
 20
13.97106357955323
 30
0.0
 10
194.4918238487083
 20
14.02234176909958
 30
0.0
 10
194.5525017120698
 20
14.00749577363135
 30
0.0
 10
194.6162810745737
 20
14.01756448170735
 30
0.0
 10
194.7277314353503
 20
14.01294644212
 30
0.0
 10
194.8497533443823
 20
14.01413328905468
 30
0.0
 10
194.9719538137824
 20
14.01515863900635
 30
0.0
 10
195.0829794287393
 20
14.01092475623402
 30
0.0
 10
195.1476517413959
 20
14.02018584521739
 30
0.0
 10
195.2091162810502
 20
14.00604423049682
 30
0.0
 10
195.1930065601338
 20
14.07235527884516
 30
0.0
 10
195.2042980327359
 20
14.14447790121977
 30
0.0
 10
195.1987400822561
 20
14.27513760888285
 30
0.0
 10
195.2008035061691
 20
14.42607323708242
 30
0.0
 10
195.2000167127295
 20
14.59335873107886
 30
0.0
 10
195.2007845215628
 20
14.76061110332304
 30
0.0
 10
195.1988038785629
 20
14.91163289269914
 30
0.0
 10
195.2041306156622
 20
15.04206069552996
 30
0.0
 10
195.1933101388425
 20
15.11465442605899
 30
0.0
 10
195.2090326429876
 20
15.18150469436799
 30
0.0
 10
195.143270813249
 20
15.16580512490825
 30
0.0
 10
195.0756367830764
 20
15.17609243083996
 30
0.0
 10
194.961588529381
 20
15.17113786847122
 30
0.0
 10
194.8451242674903
 20
15.17414128030476
 30
0.0
 10
194.7306554121477
 20
15.16880303143389
 30
0.0
 10
194.6640324657812
 20
15.18001268074826
 30
0.0
 10
194.5990769715186
 20
15.16349132665012
 30
0.0
 10
194.6107989758707
 20
15.2147372047706
 30
0.0
 10
194.6032830189121
 20
15.25950333784091
 30
0.0
 10
194.6107989878836
 20
15.30426944897963
 30
0.0
 10
194.5990769505346
 20
15.35551536129742
 30
0.0
 10
194.66403263392
 20
15.33899381766816
 30
0.0
 10
194.7306533339821
 20
15.35020571373945
 30
0.0
 10
194.8451352858064
 20
15.34485436710665
 30
0.0
 10
194.9615454436963
 20
15.34791188771118
 30
0.0
 10
195.0757660174642
 20
15.34278499010709
 30
0.0
 10
195.1430150439227
 20
15.353457333556
 30
0.0
 10
195.2083325941439
 20
15.33742082669077
 30
0.0
 10
195.1941391448553
 20
15.39949685750054
 30
0.0
 10
195.2036059462997
 20
15.46586761628764
 30
0.0
 10
195.1990269004085
 20
15.58239972741967
 30
0.0
 10
195.2007696555949
 20
15.71426685022377
 30
0.0
 10
195.1997551495392
 20
15.85615960150274
 30
0.0
 10
195.2017191344373
 20
15.98769050702581
 30
0.0
 10
195.1964668553851
 20
16.10524577283002
 30
0.0
 10
195.2073408763475
 20
16.16947789001585
 30
0.0
 10
195.1919536641854
 20
16.23108802545048
 30
0.0
 10
195.2407591537801
 20
16.21702407382111
 30
0.0
 10
195.2853995564726
 20
16.21954742075315
 30
0.0
 10
195.3538643946742
 20
16.21512797401711
 30
0.0
 10
195.3959106169102
 20
16.20613025544036
 30
0.0
 10
195.4487544758775
 20
16.21411714866512
 30
0.0
 10
195.4207035002014
 20
16.17113917611677
 30
0.0
 10
195.3749142248595
 20
16.18259552043833
 30
0.0
 10
195.3869539073266
 20
16.12173520005137
 30
0.0
 10
195.3796086070642
 20
16.05769299468773
 30
0.0
 10
195.3831195826162
 20
15.94909368863912
 30
0.0
 10
195.3819806760174
 20
15.82494319144753
 30
0.0
 10
195.3819174780264
 20
15.69189719829879
 30
0.0
 10
195.3832872966868
 20
15.56797381249556
 30
0.0
 10
195.3791638801315
 20
15.45868337849339
 30
0.0
 10
195.3877763103564
 20
15.39608580094171
 30
0.0
 10
195.3746757454403
 20
15.33740133296367
 30
0.0
 10
195.4393884328199
 20
15.35362113810903
 30
0.0
 10
195.5060405953157
 20
15.34270260383312
 30
0.0
 10
195.6198779541103
 20
15.34793740173757
 30
0.0
 10
195.7357259122097
 20
15.34485547516914
 30
0.0
 10
195.8496924263281
 20
15.35018259812513
 30
0.0
 10
195.9160341018099
 20
15.33904208166544
 30
0.0
 10
195.9807188525481
 20
15.35546979593178
 30
0.0
 10
195.9689820772723
 20
15.30425925210052
 30
0.0
 10
195.9765168063042
 20
15.25950334121002
 30
0.0
 10
195.9689820992258
 20
15.21474739010028
 30
0.0
 10
195.9807188140738
 20
15.16353690871042
 30
0.0
 10
195.9160344075253
 20
15.1799642779422
 30
0.0
 10
195.8496886430826
 20
15.16882784447271
 30
0.0
 10
195.7357459487013
 20
15.17413115893121
 30
0.0
 10
195.6197995623055
 20
15.17114764593545
 30
0.0
 10
195.5062756882124
 20
15.17606892268394
 30
0.0
 10
195.4389231318805
 20
15.16585087513521
 30
0.0
 10
195.3734285122496
 20
15.18145996138817
 30
0.0
 10
195.3891713619218
 20
15.11463851827412
 30
0.0
 10
195.3783275998215
 20
15.04207057815879
 30
0.0
 10
195.3836581629793
 20
14.91162247614417
 30
0.0
 10
195.3817136151856
 20
14.76064558185226
 30
0.0
 10
195.3823133683214
 20
14.59322243934158
 30
0.0
 10
195.3821506559606
 20
14.42656176118372
 30
0.0
 10
195.3821895488136
 20
14.27360142921636
 30
0.0
 10
195.38218164131
 20
14.14849178985705
 30
0.0
 10
195.3821828382745
 20
14.0650789099142
 30
0.0
 10
195.3821827716209
 20
14.02491778281976
 30
0.0
 10
195.3821827564384
 20
14.01410517385757
 30
0.0
 11
195.3821827564384
 21
14.01410517385757
 31
0.0
 11
195.4100014883675
 21
14.01410517385757
 31
0.0
 11
195.4833417816353
 21
14.01410517385757
 31
0.0
 11
195.5870297824623
 21
14.01410517385757
 31
0.0
 11
195.7058916370687
 21
14.01410517385757
 31
0.0
 11
195.8247534916752
 21
14.01410517385757
 31
0.0
 11
195.928441492502
 21
14.01410517385757
 31
0.0
 11
196.0017817857699
 21
14.01410517385757
 31
0.0
 11
196.029600517699
 21
14.01410517385757
 31
0.0
 11
196.029600517699
 21
13.9865168492117
 31
0.0
 11
196.029600517699
 21
13.92582253499077
 31
0.0
 11
196.029600517699
 21
13.86512822076984
 31
0.0
 11
196.029600517699
 21
13.83753989612397
 31
0.0
 11
195.9994901593494
 21
13.83753989612397
 31
0.0
 11
195.9162438745004
 21
13.83753989612397
 31
0.0
 11
195.7904888484521
 21
13.83753989612397
 31
0.0
 11
195.6328522665041
 21
13.83753989612397
 31
0.0
 11
195.4539613139564
 21
13.83753989612397
 31
0.0
 11
195.2644431761089
 21
13.83753989612397
 31
0.0
 11
195.0749250382613
 21
13.83753989612397
 31
0.0
 11
194.8960340857136
 21
13.83753989612397
 31
0.0
 11
194.7383975037656
 21
13.83753989612397
 31
0.0
 11
194.6126424777172
 21
13.83753989612397
 31
0.0
 11
194.5293961928683
 21
13.83753989612397
 31
0.0
 11
194.4992858345187
 21
13.83753989612397
 31
0.0
 11
194.4992858345187
 21
13.86512822076984
 31
0.0
 11
194.4992858345187
 21
13.92582253499077
 31
0.0
 11
194.4992858345187
 21
13.9865168492117
 31
0.0
 11
194.4992858345187
 21
14.01410517385757
 31
0.0
 11
194.5294068064947
 21
14.01410517385757
 31
0.0
 11
194.608816641704
 21
14.01410517385757
 31
0.0
 11
194.721085719069
 21
14.01410517385757
 31
0.0
 11
194.8497844175118
 21
14.01410517385757
 31
0.0
 11
194.9784831159546
 21
14.01410517385757
 31
0.0
 11
195.0907521933196
 21
14.01410517385757
 31
0.0
 11
195.1701620285289
 21
14.01410517385757
 31
0.0
 11
195.2002830005049
 21
14.01410517385757
 31
0.0
 11
195.2002830005049
 21
14.04654305523835
 31
0.0
 11
195.2002830005049
 21
14.1345887332719
 31
0.0
 11
195.2002830005049
 21
14.26434025879503
 31
0.0
 11
195.2002830005049
 21
14.42189568264454
 31
0.0
 11
195.2002830005049
 21
14.59335305565724
 31
0.0
 11
195.2002830005049
 21
14.76481042866994
 31
0.0
 11
195.2002830005049
 21
14.92236585251945
 31
0.0
 11
195.2002830005049
 21
15.05211737804258
 31
0.0
 11
195.2002830005049
 21
15.14016305607613
 31
0.0
 11
195.2002830005049
 21
15.17260093745691
 31
0.0
 11
195.1673826485529
 21
15.17260093745691
 31
0.0
 11
195.0825343724663
 21
15.17260093745691
 31
0.0
 11
194.9665173418989
 21
15.17260093745691
 31
0.0
 11
194.8401107265045
 21
15.17260093745691
 31
0.0
 11
194.724093695937
 21
15.17260093745691
 31
0.0
 11
194.6392454198503
 21
15.17260093745691
 31
0.0
 11
194.6063450678984
 21
15.17260093745691
 31
0.0
 11
194.6063450678984
 21
15.19975793614803
 31
0.0
 11
194.6063450678984
 21
15.25950333326851
 31
0.0
 11
194.6063450678984
 21
15.31924873038899
 31
0.0
 11
194.6063450678984
 21
15.34640572908011
 31
0.0
 11
194.6392454198504
 21
15.34640572908011
 31
0.0
 11
194.724093695937
 21
15.34640572908011
 31
0.0
 11
194.8401107265045
 21
15.34640572908011
 31
0.0
 11
194.9665173418989
 21
15.34640572908011
 31
0.0
 11
195.0825343724663
 21
15.34640572908011
 31
0.0
 11
195.1673826485529
 21
15.34640572908011
 31
0.0
 11
195.2002830005049
 21
15.34640572908011
 31
0.0
 11
195.2002830005049
 21
15.37650011731371
 31
0.0
 11
195.2002830005049
 21
15.45715307777975
 31
0.0
 11
195.2002830005049
 21
15.5739193041261
 31
0.0
 11
195.2002830005049
 21
15.71235349000064
 31
0.0
 11
195.2002830005049
 21
15.85801032905125
 31
0.0
 11
195.2002830005049
 21
15.99644451492579
 31
0.0
 11
195.2002830005049
 21
16.11321074127215
 31
0.0
 11
195.2002830005049
 21
16.19386370173818
 31
0.0
 11
195.2002830005049
 21
16.22395808997178
 31
0.0
 11
195.2250405288619
 21
16.22228324219443
 31
0.0
 11
195.284077711867
 21
16.21828937441766
 31
0.0
 11
195.3545414464215
 21
16.21352249997442
 31
0.0
 11
195.4135786294265
 21
16.20952863219765
 31
0.0
 11
195.4383361577835
 21
16.2078537844203
 31
0.0
 11
195.423306722403
 21
16.1841581420651
 31
0.0
 11
195.3821827564384
 21
16.17047697887404
 31
0.0
 11
195.3821827564384
 21
16.14221664794832
 31
0.0
 11
195.3821827564384
 21
16.0664789610674
 31
0.0
 11
195.3821827564384
 21
15.95682887707561
 31
0.0
 11
195.3821827564384
 21
15.82683135481731
 31
0.0
 11
195.3821827564384
 21
15.69005135313684
 31
0.0
 11
195.3821827564384
 21
15.56005383087854
 31
0.0
 11
195.3821827564384
 21
15.45040374688675
 31
0.0
 11
195.3821827564384
 21
15.37466606000583
 31
0.0
 11
195.3821827564384
 21
15.34640572908011
 31
0.0
 11
195.4149350096116
 21
15.34640572908011
 31
0.0
 11
195.4994013467423
 21
15.34640572908011
 31
0.0
 11
195.6148961342477
 21
15.34640572908011
 31
0.0
 11
195.7407337385446
 21
15.34640572908011
 31
0.0
 11
195.8562285260499
 21
15.34640572908011
 31
0.0
 11
195.9406948631807
 21
15.34640572908011
 31
0.0
 11
195.9734471163539
 21
15.34640572908011
 31
0.0
 11
195.9734471163539
 21
15.31924873038899
 31
0.0
 11
195.9734471163539
 21
15.25950333326851
 31
0.0
 11
195.9734471163539
 21
15.19975793614804
 31
0.0
 11
195.9734471163539
 21
15.17260093745691
 31
0.0
 11
195.9406948631807
 21
15.17260093745691
 31
0.0
 11
195.85622852605
 21
15.17260093745691
 31
0.0
 11
195.7407337385446
 21
15.17260093745691
 31
0.0
 11
195.6148961342477
 21
15.17260093745691
 31
0.0
 11
195.4994013467423
 21
15.17260093745691
 31
0.0
 11
195.4149350096116
 21
15.17260093745691
 31
0.0
 11
195.3821827564384
 21
15.17260093745691
 31
0.0
 11
195.3821827564384
 21
15.14016305607613
 31
0.0
 11
195.3821827564384
 21
15.05211737804258
 31
0.0
 11
195.3821827564384
 21
14.92236585251945
 31
0.0
 11
195.3821827564384
 21
14.76481042866994
 31
0.0
 11
195.3821827564384
 21
14.59335305565724
 31
0.0
 11
195.3821827564384
 21
14.42189568264454
 31
0.0
 11
195.3821827564384
 21
14.26434025879503
 31
0.0
 11
195.3821827564384
 21
14.1345887332719
 31
0.0
 11
195.3821827564384
 21
14.04654305523835
 31
0.0
 11
195.3821827564384
 21
14.01410517385757
 31
0.0
  0
SPLINE
  5
AE
102
{ACAD_REACTORS
330
CB
102
}
330
48
100
AcDbEntity
  8
_U_30EC_U_30A4_U_30E4_U_30FC_1
  6
Continuous
 62
     2
100
AcDbSpline
210
0.0
220
0.0
230
1.0
 70
     8
 71
     3
 72
    62
 73
    58
 74
    56
 42
0.000000001
 43
0.0000000001
 44
0.00000001
 40
0.0
 40
0.0
 40
0.0
 40
0.0
 40
0.0598250028308485
 40
0.2024846486897331
 40
0.3727558389221031
 40
0.515415484793607
 40
0.5752404975785339
 40
0.9332326775487232
 40
1.290451762839493
 40
1.602077253145936
 40
1.699931634112232
 40
1.799359756425168
 40
2.270120149657206
 40
2.804661928461659
 40
2.882342287383368
 40
3.076543185719219
 40
3.329004354835678
 40
3.581465524568504
 40
3.775666424543784
 40
3.853346784558404
 40
3.89912067959515
 40
3.984129341792148
 40
4.029903236817496
 40
4.105797496059653
 40
4.295533144152612
 40
4.542189486611854
 40
4.7888458288758
 40
4.978581476410186
 40
5.054475735244429
 40
5.621734664339447
 40
6.130867242037397
 40
6.225249780948695
 40
6.318913039727393
 40
6.663579954559011
 40
7.047498900224859
 40
7.435230791575791
 40
7.498943906668203
 40
7.65087518121014
 40
7.832212509001622
 40
7.984143783697008
 40
8.047856898903134
 40
8.091554632732644
 40
8.172707566964306
 40
8.21640530076803
 40
8.289021782160887
 40
8.462184160757232
 40
8.668861838005341
 40
8.842024215263876
 40
8.914640695475072
 40
8.989881580861278
 40
9.15541152882718
 40
9.320941477743961
 40
9.39618235248721
 40
9.454709011143757
 40
9.583467660170692
 40
9.712226309012971
 40
9.770752957989425
 40
9.770752957989425
 40
9.770752957989425
 40
9.770752957989425
 10
187.1521871691833
 20
14.9398028819595
 30
0.0
 10
187.1322348171623
 20
14.93980875568671
 30
0.0
 10
187.0647037716466
 20
14.93982863806157
 30
0.0
 10
186.9410612161788
 20
14.93949362520326
 30
0.0
 10
186.7863180150056
 20
14.94107673750512
 30
0.0
 10
186.669734948248
 20
14.93686078860495
 30
0.0
 10
186.455094263424
 20
14.95215205331626
 30
0.0
 10
186.8518948407229
 20
14.59198721286191
 30
0.0
 10
186.8945656069268
 20
14.37510503397166
 30
0.0
 10
187.3189162146613
 20
14.19325062511443
 30
0.0
 10
187.1439821496074
 20
14.08985196568073
 30
0.0
 10
187.0194523925084
 20
13.87831523212725
 30
0.0
 10
186.7666277235943
 20
14.34806081001561
 30
0.0
 10
186.4797602893627
 20
14.99511516984521
 30
0.0
 10
186.4906335926659
 20
14.68782672154693
 30
0.0
 10
186.488289277796
 20
14.52288616971778
 30
0.0
 10
186.4861096126411
 20
14.28879670711693
 30
0.0
 10
186.4980774396346
 20
14.04498072421783
 30
0.0
 10
186.468798474063
 20
13.89855796860985
 30
0.0
 10
186.511452262547
 20
13.75113490174538
 30
0.0
 10
186.4239814005639
 20
13.7668579730622
 30
0.0
 10
186.3768527606744
 20
13.76694303543455
 30
0.0
 10
186.2898973207713
 20
13.75109425482909
 30
0.0
 10
186.3313474021722
 20
13.89527771422762
 30
0.0
 10
186.3029875004285
 20
14.03855052698456
 30
0.0
 10
186.3145973775299
 20
14.27674947365264
 30
0.0
 10
186.3124175648272
 20
14.50517235240346
 30
0.0
 10
186.3103111127993
 20
14.66705729375994
 30
0.0
 10
186.3208035438325
 20
14.98153709333752
 30
0.0
 10
186.0128963252893
 20
14.29229470872435
 30
0.0
 10
185.7055258267457
 20
13.81476750243064
 30
0.0
 10
185.5851367066274
 20
14.03741112637424
 30
0.0
 10
185.4074607910722
 20
14.1501103495557
 30
0.0
 10
185.8853326362894
 20
14.3254814346546
 30
0.0
 10
185.9353959057208
 20
14.56091929252031
 30
0.0
 10
186.3583799621717
 20
14.95322989344607
 30
0.0
 10
186.127675427354
 20
14.93655307029066
 30
0.0
 10
186.0049685859341
 20
14.94269518948771
 30
0.0
 10
185.8325483095663
 20
14.93312822699574
 30
0.0
 10
185.721322469445
 20
14.95448818489665
 30
0.0
 10
185.6025779627448
 20
14.9213626535742
 30
0.0
 10
185.6183169706686
 20
15.00203900606884
 30
0.0
 10
185.6178550933763
 20
15.04645414290854
 30
0.0
 10
185.6027881889932
 20
15.12967081778533
 30
0.0
 10
185.7372380935444
 20
15.09062651983884
 30
0.0
 10
185.8619755545747
 20
15.11739729328423
 30
0.0
 10
186.0628755237279
 20
15.10063949044053
 30
0.0
 10
186.1921540949353
 20
15.12204225913005
 30
0.0
 10
186.3328419928294
 20
15.08868778853421
 30
0.0
 10
186.2980927452615
 20
15.22651875785069
 30
0.0
 10
186.3222185666713
 20
15.34963257349481
 30
0.0
 10
186.2967086182393
 20
15.47024055670336
 30
0.0
 10
186.3333251146684
 20
15.60539865141495
 30
0.0
 10
186.2211417027769
 20
15.58094545781891
 30
0.0
 10
186.1280356457136
 20
15.59307749842022
 30
0.0
 10
186.0191547579819
 20
15.58957630069994
 30
0.0
 10
185.9569697640964
 20
15.58981755951603
 30
0.0
 10
185.9375369557246
 20
15.58989295124144
 30
0.0
 11
187.1521871691833
 21
14.9398028819595
 31
0.0
 11
187.0923621563982
 21
14.9398028819595
 31
0.0
 11
186.949702510526
 21
14.9398028819595
 31
0.0
 11
186.7794313202913
 21
14.9398028819595
 31
0.0
 11
186.6367716744191
 21
14.9398028819595
 31
0.0
 11
186.576946661634
 21
14.9398028819595
 31
0.0
 11
186.7679960754842
 21
14.63705127966891
 31
0.0
 11
186.994127278563
 21
14.36051890576684
 31
0.0
 11
187.2244526173372
 21
14.15061253493457
 31
0.0
 11
187.1521596330704
 21
14.08466403668716
 31
0.0
 11
187.0879364402643
 21
14.0087605905256
 31
0.0
 11
186.7732818215558
 21
14.35891458349363
 31
0.0
 11
186.4886640249976
 21
14.811382951436
 31
0.0
 11
186.4886640249976
 21
14.73370259137312
 31
0.0
 11
186.4886640249976
 21
14.53950169121592
 31
0.0
 11
186.4886640249976
 21
14.28704052101156
 31
0.0
 11
186.4886640249976
 21
14.0345793508072
 31
0.0
 11
186.4886640249976
 21
13.84037845065
 31
0.0
 11
186.4886640249976
 21
13.76269809058712
 31
0.0
 11
186.4428901295605
 21
13.76269809058712
 31
0.0
 11
186.3578814666058
 21
13.76269809058712
 31
0.0
 11
186.3121075711687
 21
13.76269809058712
 31
0.0
 11
186.3121075711687
 21
13.8385923498274
 31
0.0
 11
186.3121075711687
 21
14.02832799792811
 31
0.0
 11
186.3121075711687
 21
14.27498434045904
 31
0.0
 11
186.3121075711687
 21
14.52164068298996
 31
0.0
 11
186.3121075711687
 21
14.71137633109067
 31
0.0
 11
186.3121075711687
 21
14.78727059033095
 31
0.0
 11
185.9987626399266
 21
14.31440946197693
 31
0.0
 11
185.6352328662149
 21
13.95795177109382
 31
0.0
 11
185.5773927461627
 21
14.03253450545022
 31
0.0
 11
185.5094852305341
 21
14.09704322939243
 31
0.0
 11
185.7750721898319
 21
14.3167221979589
 31
0.0
 11
186.0233764972061
 21
14.60953395971697
 31
0.0
 11
186.226498280526
 21
14.9398028819595
 31
0.0
 11
186.1627851652721
 21
14.9398028819595
 31
0.0
 11
186.0108538904359
 21
14.9398028819595
 31
0.0
 11
185.8295165624056
 21
14.9398028819595
 31
0.0
 11
185.6775852875694
 21
14.9398028819595
 31
0.0
 11
185.6138721723155
 21
14.9398028819595
 31
0.0
 11
185.6138721723155
 21
14.98350061600208
 31
0.0
 11
185.6138721723155
 21
15.0646535506526
 31
0.0
 11
185.6138721723155
 21
15.10835128469518
 31
0.0
 11
185.6864886537962
 21
15.10835128469518
 31
0.0
 11
185.8596510327118
 21
15.10835128469518
 31
0.0
 11
186.0663287107724
 21
15.10835128469518
 31
0.0
 11
186.239491089688
 21
15.10835128469518
 31
0.0
 11
186.3121075711687
 21
15.10835128469518
 31
0.0
 11
186.3121075711687
 21
15.18359217009304
 31
0.0
 11
186.3121075711687
 21
15.34912211796831
 31
0.0
 11
186.3121075711687
 21
15.51465206584359
 31
0.0
 11
186.3121075711687
 21
15.58989295124144
 31
0.0
 11
186.2535809125055
 21
15.58989295124144
 31
0.0
 11
186.1248222634467
 21
15.58989295124144
 31
0.0
 11
185.9960636143877
 21
15.58989295124144
 31
0.0
 11
185.9375369557246
 21
15.58989295124144
 31
0.0
  0
SPLINE
  5
AF
102
{ACAD_REACTORS
330
CB
102
}
330
48
100
AcDbEntity
  8
_U_30EC_U_30A4_U_30E4_U_30FC_1
  6
Continuous
 62
     2
100
AcDbSpline
210
0.0
220
0.0
230
1.0
 70
     8
 71
     3
 72
    70
 73
    66
 74
    64
 42
0.000000001
 43
0.0000000001
 44
0.00000001
 40
0.0
 40
0.0
 40
0.0
 40
0.0
 40
0.0241731073021472
 40
0.0846058988987013
 40
0.1631685280353284
 40
0.2417311571789756
 40
0.3021639488292751
 40
0.3263370654895541
 40
0.3533118254248881
 40
0.4228783438922111
 40
0.5179999095313402
 40
0.6216398239466102
 40
0.7167613891499706
 40
0.7863279069649863
 40
0.8133026791761836
 40
0.8372943998771674
 40
0.8945054261372869
 40
0.9627895541962639
 40
1.020000580349074
 40
1.043992300975172
 40
1.071934345522887
 40
1.113121768772927
 40
1.145225199332251
 40
1.225483775412786
 40
1.329819923771495
 40
1.434156071994385
 40
1.514414647795806
 40
1.546518078208414
 40
1.578974764260187
 40
1.662678849314182
 40
1.777131373668431
 40
1.901833377474851
 40
2.016285900500669
 40
2.099989982528036
 40
2.132446666570395
 40
2.158782354486117
 40
2.216720867907907
 40
2.274659381334331
 40
2.300995069256265
 40
2.333451754066237
 40
2.417155836543946
 40
2.531608358985385
 40
2.656310362283909
 40
2.770762886389041
 40
2.854466971340235
 40
2.886923657364041
 40
2.913597976833475
 40
2.982389642875277
 40
3.07645171694714
 40
3.178937260458752
 40
3.272999334740154
 40
3.341791001059373
 40
3.368465320663686
 40
3.396976080738907
 40
3.472140811846143
 40
3.578408190308833
 40
3.700226892456269
 40
3.822045594634486
 40
3.928312973256593
 40
4.003477705314991
 40
4.031988456867056
 40
4.058324144797856
 40
4.116262658237021
 40
4.174201171400824
 40
4.200536849608758
 40
4.200536849608758
 40
4.200536849608758
 40
4.200536849608758
 10
185.9857704961609
 20
15.75844135397705
 30
0.0
 10
185.9938259544679
 20
15.75844359811686
 30
0.0
 10
186.0220200663241
 20
15.75845146032798
 30
0.0
 10
186.0765534803672
 20
15.75830754828372
 30
0.0
 10
186.1482891808604
 20
15.75909120499898
 30
0.0
 10
186.2236240137062
 20
15.75627570463811
 30
0.0
 10
186.2713052366438
 20
15.76298403400957
 30
0.0
 10
186.3195071245616
 20
15.75197563692433
 30
0.0
 10
186.3062571799873
 20
15.80546402997033
 30
0.0
 10
186.3151093964539
 20
15.86049583543092
 30
0.0
 10
186.3108698036285
 20
15.95419908726109
 30
0.0
 10
186.313348348128
 20
16.04959482218532
 30
0.0
 10
186.309093870606
 20
16.14356821983387
 30
0.0
 10
186.3179818665846
 20
16.19795062438012
 30
0.0
 10
186.3046977409945
 20
16.25233997691461
 30
0.0
 10
186.3514119277109
 20
16.23842216335358
 30
0.0
 10
186.3943254545736
 20
16.24103877374043
 30
0.0
 10
186.4605443456685
 20
16.23648422450755
 30
0.0
 10
186.5013342271798
 20
16.22778162134161
 30
0.0
 10
186.5525145690818
 20
16.23531799890195
 30
0.0
 10
186.5253720487201
 20
16.19349970223284
 30
0.0
 10
186.4803096055707
 20
16.20284992072597
 30
0.0
 10
186.4942065045051
 20
16.13841207371837
 30
0.0
 10
186.4858414431653
 20
16.07378219627399
 30
0.0
 10
186.4903632178398
 20
15.97529141193888
 30
0.0
 10
186.4854741311167
 20
15.8759593284257
 30
0.0
 10
186.4950258992082
 20
15.81293115552969
 30
0.0
 10
186.47997614552
 20
15.74964011499788
 30
0.0
 10
186.5449159457208
 20
15.76515072944269
 30
0.0
 10
186.6116246399497
 20
15.75499387697812
 30
0.0
 10
186.7241435470828
 20
15.75988800099367
 30
0.0
 10
186.8390235448954
 20
15.75691204732784
 30
0.0
 10
186.9519871999747
 20
15.76221664184991
 30
0.0
 10
187.0176267597679
 20
15.7510730647209
 30
0.0
 10
187.0816276691054
 20
15.76744532319857
 30
0.0
 10
187.070314288919
 20
15.71761689905275
 30
0.0
 10
187.0775339871511
 20
15.67416715212123
 30
0.0
 10
187.070314261127
 20
15.63071745587445
 30
0.0
 10
187.0816277175995
 20
15.58088895196876
 30
0.0
 10
187.0176263598972
 20
15.59726166091362
 30
0.0
 10
186.951992124046
 20
15.58611271661587
 30
0.0
 10
186.8389974317332
 20
15.59144857206855
 30
0.0
 10
186.7242456548643
 20
15.58834345663821
 30
0.0
 10
186.6113183686861
 20
15.59364894682589
 30
0.0
 10
186.5455220903584
 20
15.58257300019593
 30
0.0
 10
186.4816097975358
 20
15.59887597847618
 30
0.0
 10
186.4936015165125
 20
15.54423524395741
 30
0.0
 10
186.4862104613006
 20
15.48854295047843
 30
0.0
 10
186.4892684841982
 20
15.39649689140569
 30
0.0
 10
186.4893422785683
 20
15.30179109873102
 30
0.0
 10
186.4860313578359
 20
15.20952782902266
 30
0.0
 10
186.4939505989903
 20
15.1543576873614
 30
0.0
 10
186.4815076611617
 20
15.10058169100137
 30
0.0
 10
186.5389116551632
 20
15.11453768862782
 30
0.0
 10
186.5994708140382
 20
15.10511457884227
 30
0.0
 10
186.7048680855081
 20
15.10942885928705
 30
0.0
 10
186.8204294070622
 20
15.10835504612032
 30
0.0
 10
186.9359688877797
 20
15.10725965900996
 30
0.0
 10
187.0414181130841
 20
15.11162525770633
 30
0.0
 10
187.1018680471804
 20
15.10209426030672
 30
0.0
 10
187.159283773911
 20
15.1161728960638
 30
0.0
 10
187.1477773876709
 20
15.06707153265684
 30
0.0
 10
187.153756678175
 20
15.02564658018649
 30
0.0
 10
187.1520311050801
 20
14.97651677966696
 30
0.0
 10
187.1521500122971
 20
14.94854428447608
 30
0.0
 10
187.1521871691833
 20
14.9398028819595
 30
0.0
 11
185.9857704961609
 21
15.75844135397705
 31
0.0
 11
186.0099436128282
 21
15.75844135397705
 31
0.0
 11
186.0703764044962
 21
15.75844135397705
 31
0.0
 11
186.1489390336648
 21
15.75844135397705
 31
0.0
 11
186.2275016628334
 21
15.75844135397705
 31
0.0
 11
186.2879344545015
 21
15.75844135397705
 31
0.0
 11
186.3121075711687
 21
15.75844135397705
 31
0.0
 11
186.3121075711687
 21
15.78541612620063
 31
0.0
 11
186.3121075711687
 21
15.85498264404039
 31
0.0
 11
186.3121075711687
 21
15.95010420924985
 31
0.0
 11
186.3121075711687
 21
16.05374412358256
 31
0.0
 11
186.3121075711687
 21
16.14886568879202
 31
0.0
 11
186.3121075711687
 21
16.21843220663178
 31
0.0
 11
186.3121075711687
 21
16.24540697885536
 31
0.0
 11
186.3360407604892
 21
16.243732131078
 31
0.0
 11
186.3931122119458
 21
16.23973826330121
 31
0.0
 11
186.461229750781
 21
16.23497138885795
 31
0.0
 11
186.5183012022376
 21
16.23097752108117
 31
0.0
 11
186.5422343915581
 21
16.22930267330381
 31
0.0
 11
186.527497273123
 21
16.2055629337264
 31
0.0
 11
186.4886640249976
 21
16.19183767331312
 31
0.0
 11
186.4886640249976
 21
16.15973424225119
 31
0.0
 11
186.4886640249976
 21
16.07947566459636
 31
0.0
 11
186.4886640249976
 21
15.97513951364509
 31
0.0
 11
186.4886640249976
 21
15.87080336269381
 31
0.0
 11
186.4886640249976
 21
15.79054478503898
 31
0.0
 11
186.4886640249976
 21
15.75844135397705
 31
0.0
 11
186.5211207110824
 21
15.75844135397705
 31
0.0
 11
186.6048247962486
 21
15.75844135397705
 31
0.0
 11
186.7192773208635
 21
15.75844135397705
 31
0.0
 11
186.8439793252946
 21
15.75844135397705
 31
0.0
 11
186.9584318499095
 21
15.75844135397705
 31
0.0
 11
187.0421359350757
 21
15.75844135397705
 31
0.0
 11
187.0745926211605
 21
15.75844135397705
 31
0.0
 11
187.0745926211605
 21
15.73210566604961
 31
0.0
 11
187.0745926211605
 21
15.67416715260924
 31
0.0
 11
187.0745926211605
 21
15.61622863916888
 31
0.0
 11
187.0745926211605
 21
15.58989295124144
 31
0.0
 11
187.0421359350757
 21
15.58989295124144
 31
0.0
 11
186.9584318499095
 21
15.58989295124144
 31
0.0
 11
186.8439793252946
 21
15.58989295124144
 31
0.0
 11
186.7192773208635
 21
15.58989295124144
 31
0.0
 11
186.6048247962486
 21
15.58989295124144
 31
0.0
 11
186.5211207110824
 21
15.58989295124144
 31
0.0
 11
186.4886640249976
 21
15.58989295124144
 31
0.0
 11
186.4886640249976
 21
15.56321863152022
 31
0.0
 11
186.4886640249976
 21
15.49442696487075
 31
0.0
 11
186.4886640249976
 21
15.40036489006434
 31
0.0
 11
186.4886640249976
 21
15.29787934587228
 31
0.0
 11
186.4886640249976
 21
15.20381727106587
 31
0.0
 11
186.4886640249976
 21
15.1350256044164
 31
0.0
 11
186.4886640249976
 21
15.10835128469518
 31
0.0
 11
186.5171747850993
 21
15.10835128469518
 31
0.0
 11
186.5923395162766
 21
15.10835128469518
 31
0.0
 11
186.6986068948376
 21
15.10835128469518
 31
0.0
 11
186.8204255970904
 21
15.10835128469518
 31
0.0
 11
186.9422442993433
 21
15.10835128469518
 31
0.0
 11
187.0485116779043
 21
15.10835128469518
 31
0.0
 11
187.1236764090816
 21
15.10835128469518
 31
0.0
 11
187.1521871691833
 21
15.10835128469518
 31
0.0
 11
187.1521871691833
 21
15.08201559676773
 31
0.0
 11
187.1521871691833
 21
15.02407708332734
 31
0.0
 11
187.1521871691833
 21
14.96613856988695
 31
0.0
 11
187.1521871691833
 21
14.9398028819595
 31
0.0
  0
SPLINE
  5
B0
102
{ACAD_REACTORS
330
CB
102
}
330
48
100
AcDbEntity
  8
_U_30EC_U_30A4_U_30E4_U_30FC_1
  6
Continuous
 62
     2
100
AcDbSpline
210
0.0
220
0.0
230
1.0
 70
     8
 71
     3
 72
    24
 73
    20
 74
    18
 42
0.000000001
 43
0.0000000001
 44
0.00000001
 40
0.0
 40
0.0
 40
0.0
 40
0.0
 40
0.2211075008753741
 40
0.4273218586245485
 40
0.5080174679239264
 40
0.5914835907869643
 40
0.8143265690191956
 40
1.054651302686496
 40
1.295452694023093
 40
1.518109231328752
 40
1.540864321905339
 40
1.5951264606226
 40
1.659890947895914
 40
1.714153085187216
 40
1.736908174961517
 40
1.764951100735165
 40
1.801562291220725
 40
1.953914424543416
 40
2.126104167379511
 40
2.126104167379511
 40
2.126104167379511
 40
2.126104167379511
 10
185.9375369556889
 20
15.58989295113017
 30
0.0
 10
185.9112579081812
 20
15.53097628234374
 30
0.0
 10
185.8604698894426
 20
15.41711139679254
 30
0.0
 10
185.8131784839112
 20
15.14441958233116
 30
0.0
 10
185.7043482802617
 20
15.24445482575453
 30
0.0
 10
185.5514800279639
 20
15.27118593367335
 30
0.0
 10
185.7686155181199
 20
15.48518135017632
 30
0.0
 10
185.7838483674381
 20
15.70332117782488
 30
0.0
 10
185.8906889492001
 20
15.88451579066424
 30
0.0
 10
185.8305380947077
 20
16.16913226311402
 30
0.0
 10
185.9334317395403
 20
16.14114089222451
 30
0.0
 10
185.977993346815
 20
16.13243251602299
 30
0.0
 10
186.0380842395397
 20
16.12139654183356
 30
0.0
 10
186.0756619587439
 20
16.10767523055559
 30
0.0
 10
186.1252466928606
 20
16.10756076160223
 30
0.0
 10
186.0930158919326
 20
16.07306592398623
 30
0.0
 10
186.0171802221882
 20
16.08404104537966
 30
0.0
 10
186.0429447159694
 20
15.89858969582449
 30
0.0
 10
186.0055896763849
 20
15.80702313549588
 30
0.0
 10
185.9857704961609
 20
15.75844135397705
 30
0.0
 11
185.9375369556889
 21
15.58989295113017
 31
0.0
 11
185.8616471328552
 21
15.3822170831856
 31
0.0
 11
185.7717402238433
 21
15.19663392356192
 31
0.0
 11
185.701149392311
 21
15.23573272563551
 31
0.0
 11
185.6245525192652
 21
15.2688916318772
 31
0.0
 11
185.7214026947456
 21
15.46958801203538
 31
0.0
 11
185.7994641467471
 21
15.69688163177024
 31
0.0
 11
185.8589716929721
 21
15.93021436608691
 31
0.0
 11
185.9001601511227
 21
16.14902808999054
 31
0.0
 11
185.9224183822215
 21
16.14429889221395
 31
0.0
 11
185.975495702534
 21
16.13302157443899
 31
0.0
 11
186.0388460525845
 21
16.11956154999792
 31
0.0
 11
186.091923372897
 21
16.10828423222296
 31
0.0
 11
186.1141816039958
 21
16.10355503444637
 31
0.0
 11
186.0964097157461
 21
16.0818625084101
 31
0.0
 11
186.0606122998072
 21
16.07418628445368
 31
0.0
 11
186.028195330148
 21
15.92532288171314
 31
0.0
 11
185.9857704961609
 21
15.75844135397705
 31
0.0
  0
LWPOLYLINE
  5
B1
102
{ACAD_REACTORS
330
CC
102
}
330
48
100
AcDbEntity
  8
_U_30EC_U_30A4_U_30E4_U_30FC_1
  6
Continuous
 62
     2
100
AcDbPolyline
 90
        5
 70
     1
 43
0.0
 10
191.1602971697032
 20
15.39722336795626
 10
192.4578138032672
 20
15.39722336795626
 10
192.4578138032672
 20
15.22875434022058
 10
191.1602971697032
 20
15.22875434022058
 10
191.1602971697032
 20
15.39722336795626
  0
MTEXT
  5
B3
330
48
100
AcDbEntity
  8
1
 62
   250
100
AcDbMText
 10
25.0
 20
5.0
 30
0.0
 40
3.5
 41
0.0
 71
     4
 72
     1
  1
備考欄の文字列 原点位置=4
  7
CONVERTER_11
 73
     1
 44
0.54545454545455
  0
MTEXT
  5
B4
330
48
100
AcDbEntity
  8
1
 62
     2
100
AcDbMText
 10
89.50000000000001
 20
24.00000000000002
 30
0.0
 40
3.5
 41
0.0
 71
     5
 72
     1
  1
尺度
  7
CONVERTER_11
 73
     1
 44
0.54545454545455
  0
MTEXT
  5
B5
330
48
100
AcDbEntity
  8
1
 62
     2
100
AcDbMText
 10
135.5
 20
25.00000000000002
 30
0.0
 40
3.0
 41
0.0
 71
     5
 72
     1
  1
製図
  7
CONVERTER_11
 73
     1
 44
0.59090909090909
  0
MTEXT
  5
B6
330
48
100
AcDbEntity
  8
1
 62
     2
100
AcDbMText
 10
152.5
 20
25.00000000000002
 30
0.0
 40
3.0
 41
0.0
 71
     5
 72
     1
  1
設計
  7
CONVERTER_11
 73
     1
 44
0.59090909090909
  0
MTEXT
  5
B7
330
48
100
AcDbEntity
  8
1
 62
     2
100
AcDbMText
 10
118.5
 20
25.00000000000002
 30
0.0
 40
3.0
 41
0.0
 71
     5
 72
     1
  1
検図
  7
CONVERTER_11
 73
     1
 44
0.59090909090909
  0
MTEXT
  5
B8
330
48
100
AcDbEntity
  8
1
 62
     2
100
AcDbMText
 10
175.0
 20
23.50000000000002
 30
0.0
 40
3.5
 41
0.0
 71
     5
 72
     1
  1
第三角法
  7
CONVERTER_11
 73
     1
 44
0.54545454545455
  0
MTEXT
  5
B9
330
48
100
AcDbEntity
  8
1
 62
     2
100
AcDbMText
 10
101.5
 20
25.00000000000002
 30
0.0
 40
3.0
 41
0.0
 71
     5
 72
     1
  1
承認
  7
CONVERTER_11
 73
     1
 44
0.59090909090909
  0
MTEXT
  5
BA
330
48
100
AcDbEntity
  8
1
 62
     2
100
AcDbMText
 10
29.0
 20
14.25
 30
0.0
 40
3.5
 41
0.0
 71
     5
 72
     1
  1
品番
  7
CONVERTER_11
 73
     1
 44
0.72727272727273
  0
MTEXT
  5
BB
330
48
100
AcDbEntity
  8
1
 62
     2
100
AcDbMText
 10
29.0
 20
22.75
 30
0.0
 40
3.5
 41
0.0
 71
     5
 72
     1
  1
品名
  7
CONVERTER_11
 73
     1
 44
0.72727272727273
  0
MTEXT
  5
BC
330
48
100
AcDbEntity
  8
1
 62
     2
100
AcDbMText
 10
29.0
 20
33.99999999999999
 30
0.0
 40
3.5
 41
0.0
 71
     5
 72
     1
  1
備考
  7
CONVERTER_11
 73
     1
 44
0.45454545454545
  0
MTEXT
  5
BD
330
48
100
AcDbEntity
  8
1
 62
     2
100
AcDbMText
 10
32.50000000000001
 20
282.0000000000003
 30
0.0
 40
5.0
 41
0.0
 71
     5
 72
     1
  1
図番
  7
CONVERTER_11
 73
     1
 44
0.45454545454545
  0
HATCH
  5
BE
330
48
100
AcDbEntity
  8
1
  6
Continuous
 62
     2
100
AcDbHatch
 10
0.0
 20
0.0
 30
0.0
210
0.0
220
0.0
230
1.0
  2
CUSTOM0
 70
     0
 71
     1
 91
        1
 92
        1
 93
        1
 72
     4
 94
        3
 73
     0
 74
     0
 95
       99
 96
       95
 40
0.0
 40
0.0
 40
0.0
 40
0.0
 40
0.0796417172272862
 40
0.162176854235597
 40
0.2486489160957605
 40
0.3404969668524577
 40
0.4381912511165141
 40
0.5434463660244879
 40
0.6518115192847199
 40
0.7530190937887586
 40
0.8492196919725128
 40
0.9419290312998807
 40
1.03424966357005
 40
1.129078600620205
 40
1.22669702757325
 40
1.327220425421713
 40
1.470572134938027
 40
1.595489863371227
 40
1.719934125348412
 40
1.850576620127431
 40
1.98905962998732
 40
2.134139054226939
 40
2.280698007207225
 40
2.424529739039492
 40
2.565929576985812
 40
2.708239260773545
 40
2.861717887443652
 40
3.045168540347358
 40
3.183798301138599
 40
3.314813961455433
 40
3.442083470447283
 40
3.56991270837294
 40
3.702177512509341
 40
3.842307559659506
 40
3.99287222324591
 40
4.156750662218299
 40
4.31098186110752
 40
4.445859909322566
 40
4.572393936131585
 40
4.70165671978196
 40
4.768279086008421
 40
4.835960697898378
 40
4.912788918729308
 40
5.00628520848151
 40
5.026909478751587
 40
5.047533749021151
 40
5.101808031471224
 40
5.162325165538503
 40
5.226919745995823
 40
5.294231806596696
 40
5.364544852554821
 40
5.438319055467818
 40
5.517877651324234
 40
5.607647714861546
 40
5.700449642544393
 40
5.788251142364124
 40
5.872714706039754
 40
5.955167292575271
 40
6.037192395190358
 40
6.120669181469093
 40
6.206848616686332
 40
6.296680855416743
 40
6.442558392872574
 40
6.568190371608263
 40
6.692904567360386
 40
6.824220446557187
 40
6.963121850329372
 40
7.107843738851134
 40
7.253431663907245
 40
7.395187468036668
 40
7.533140753237724
 40
7.670550457175268
 40
7.816236511769272
 40
7.98769165735923
 40
8.142277421969256
 40
8.293662615415007
 40
8.442962460879302
 40
8.591598316185348
 40
8.743678992361824
 40
8.903725323699133
 40
9.076307008890534
 40
9.265578604680533
 40
9.459203795360764
 40
9.617619810273577
 40
9.753609671361936
 40
9.874873300004108
 40
9.954520184977811
 40
10.02416413719248
 40
10.09769764405449
 40
10.18909955924976
 40
10.20974586420137
 40
10.23039218263383
 40
10.30057101881268
 40
10.37632012987548
 40
10.37632012987548
 40
10.37632012987548
 40
10.37632012987548
 10
170.1465954835851
 20
14.13795663215994
 10
170.1632217851219
 20
14.11720608845313
 10
170.1970784206578
 20
14.07495111711905
 10
170.2599822541035
 20
14.02029811392069
 10
170.3332500940394
 20
13.97299025121052
 10
170.4175969238636
 20
13.93527231437933
 10
170.513224061546
 20
13.91040619731953
 10
170.6171853775346
 20
13.90309559345936
 10
170.7224020220405
 20
13.91142322794056
 10
170.8206626371333
 20
13.94149179651523
 10
170.9058986427548
 20
13.98848822971882
 10
170.9779220206104
 20
14.04952991250851
 10
171.0350917709096
 20
14.12412969578586
 10
171.0767868747439
 20
14.21002464660174
 10
171.1026952846292
 20
14.30485850432211
 10
171.1118037332653
 20
14.41854979038367
 10
171.0986864796487
 20
14.54332587770779
 10
171.0325330334414
 20
14.66014719171892
 10
170.9369370919569
 20
14.74512539577374
 10
170.8249681022369
 20
14.81416684459162
 10
170.6993659583269
 20
14.87204142045891
 10
170.5656691620856
 20
14.92373723284342
 10
170.431312281883
 20
14.97899092397181
 10
170.3051983986877
 20
15.04939770641648
 10
170.1926579987535
 20
15.13785540731252
 10
170.0969963064458
 20
15.24981067868469
 10
170.0334157151826
 20
15.39949910101384
 10
170.0200706505016
 20
15.55932794385141
 10
170.0320510987449
 20
15.71048405306846
 10
170.071229892884
 20
15.83809244591539
 10
170.135498775091
 20
15.95080874030844
 10
170.223820499974
 20
16.04648609268686
 10
170.3338091207628
 20
16.12354214985754
 10
170.4632284401264
 20
16.18151396936277
 10
170.6111838967793
 20
16.21739177588822
 10
170.7682069455487
 20
16.22746719050564
 10
170.917494046643
 20
16.2186363776259
 10
171.059625361417
 20
16.19074899340351
 10
171.1595922609625
 20
16.13413314701139
 10
171.3125074736184
 20
16.08674602105508
 10
171.2455131717169
 20
16.00197553001182
 10
171.2296479120269
 20
15.93438901873486
 10
171.1978750531297
 20
15.8692609279319
 10
171.215020220957
 20
15.76723453256954
 10
171.1666427208232
 20
15.77493211681902
 10
171.1315789440766
 20
15.76806771724808
 10
171.1296697985718
 20
15.83263831158196
 10
171.0985692931988
 20
15.87825639621395
 10
171.0664551628455
 20
15.93561036628455
 10
171.0208038475168
 20
15.98540462692558
 10
170.9658508218387
 20
16.02994813718993
 10
170.9010841173008
 20
16.06763988836554
 10
170.8232377310596
 20
16.0928337579135
 10
170.7355160553352
 20
16.09931230998111
 10
170.6452903277806
 20
16.09235709285607
 10
170.5594594694064
 20
16.06909190460921
 10
170.4828343638596
 20
16.03131644107545
 10
170.4165265636201
 20
15.98051641089573
 10
170.3622560536964
 20
15.9173114340721
 10
170.3224925345459
 20
15.84276455710367
 10
170.2976775510588
 20
15.75917313997763
 10
170.2892124262869
 20
15.65192948382285
 10
170.3019697987103
 20
15.52965457267559
 10
170.3681548409273
 20
15.4114972429121
 10
170.4640977399833
 20
15.32606325709528
 10
170.5757914963182
 20
15.25583362306724
 10
170.7010863668703
 20
15.19659162305303
 10
170.8349823941447
 20
15.14616708086131
 10
170.968993033315
 20
15.09322516984382
 10
171.0950885316915
 20
15.02750170625176
 10
171.2076216638417
 20
14.94480352537318
 10
171.3031370284233
 20
14.83996006310077
 10
171.3672706486963
 20
14.69937117251569
 10
171.3811103725279
 20
14.54065409451592
 10
171.367395471223
 20
14.38153155217877
 10
171.3244739153986
 20
14.23483828819206
 10
171.2545906329065
 20
14.10119796587144
 10
171.157459221383
 20
13.98532387699291
 10
171.0347806023657
 20
13.8908998177009
 10
170.8874408413168
 20
13.82179270651978
 10
170.7177132497125
 20
13.77953210858855
 10
170.5317404979597
 20
13.76781736230406
 10
170.3528955926183
 20
13.77809486683437
 10
170.1881733753743
 20
13.81966573769153
 10
170.0834410841056
 20
13.88797642883941
 10
169.9350960790365
 20
13.93675219032106
 10
169.9980378194729
 20
14.02976591290841
 10
170.0072274430059
 20
14.10296536248281
 10
170.0303711301232
 20
14.16936294501344
 10
170.0034588335318
 20
14.26974809527582
 10
170.0521338956338
 20
14.26234033517378
 10
170.0916530580698
 20
14.26894063620895
 10
170.0996204944701
 20
14.19078703218931
 10
170.1305436967922
 20
14.15600927375856
 10
170.1465954835851
 20
14.13795663215994
 97
        1
330
A0
 75
     1
 76
     2
 52
45.0
 41
0.1
 77
     0
 78
     1
 53
45.0
 43
0.0
 44
0.0
 45
-0.282842712474619
 46
0.0
 79
     0
 98
        1
 10
0.0
 20
0.0
  0
HATCH
  5
BF
330
48
100
AcDbEntity
  8
1
  6
Continuous
 62
     2
100
AcDbHatch
 10
0.0
 20
0.0
 30
0.0
210
0.0
220
0.0
230
1.0
  2
CUSTOM1
 70
     0
 71
     1
 91
        2
 92
        1
 93
        1
 72
     4
 94
        3
 73
     0
 74
     0
 95
       57
 96
       53
 40
0.0
 40
0.0
 40
0.0
 40
0.0
 40
0.0471632082810098
 40
0.0914861054633018
 40
0.1357762519703253
 40
0.1826527001611548
 40
0.2295203288573457
 40
0.2737751972221626
 40
0.3181310461543937
 40
0.3652607198398549
 40
0.4571007286314814
 40
0.5671851029165688
 40
0.6894623283868775
 40
0.8181758272546046
 40
0.9510087229274391
 40
1.085852229674096
 40
1.218126164475332
 40
1.343545131142392
 40
1.454537202956893
 40
1.567187607530903
 40
1.680710966642521
 40
1.794226869736885
 40
1.900009184247685
 40
2.004085860447964
 40
2.108162674451852
 40
2.214000150155311
 40
2.496038577352179
 40
2.762350745479318
 40
2.997275353279423
 40
3.18511008213778
 40
3.246407890064008
 40
3.312607550212739
 40
3.378877742711641
 40
3.440140399651497
 40
4.10050169600653
 40
4.754913085563581
 40
5.41133169342399
 40
6.077890432568768
 40
6.110575292671047
 40
6.143260152775827
 40
6.367989363395219
 40
6.610525374951648
 40
6.863389136467385
 40
7.119380025547652
 40
7.376036605091155
 40
7.631164770966346
 40
7.87672242545648
 40
8.104953735856014
 40
8.312916685924355
 40
8.497730294941402
 40
8.651018984313925
 40
8.764738853624696
 40
8.764738853624696
 40
8.764738853624696
 40
8.764738853624696
 10
174.7922649500514
 20
13.81626739612926
 10
174.7766616726932
 20
13.81826231079078
 10
174.7463947960302
 20
13.82213201360299
 10
174.7010994202252
 20
13.82341984967269
 10
174.6559553129349
 20
13.82308683554051
 10
174.6099017123399
 20
13.82314658674225
 10
174.5640496172097
 20
13.82325813650002
 10
174.5183711648164
 20
13.8227783345659
 10
174.4750811541608
 20
13.82461109618723
 10
174.4039947951515
 20
13.80049556814656
 10
174.4057477261441
 20
13.92184693977252
 10
174.358619637057
 20
14.00726239751233
 10
174.3191478251761
 20
14.12486929345133
 10
174.2706635532646
 20
14.24232752540443
 10
174.2201017402522
 20
14.36405935761507
 10
174.1718634610477
 20
14.49075967862464
 10
174.1135232947595
 20
14.59933687784953
 10
174.0980892667262
 20
14.75620657134413
 10
173.9566586330636
 20
14.72373446548322
 10
173.8508397414903
 20
14.7351288868218
 10
173.7358569725222
 20
14.73392591514615
 10
173.6253142252141
 20
14.73506945347408
 10
173.5176583522783
 20
14.73418350037526
 10
173.4121322529242
 20
14.73416602390518
 10
173.3109192682013
 20
14.72714032472416
 10
173.1266804827754
 20
14.75135859859864
 10
173.1157393685411
 20
14.44741691121887
 10
173.008769163475
 20
14.22353177253398
 10
172.9098148604348
 20
14.03895314292495
 10
172.9225090524007
 20
13.79530204804204
 10
172.8050091716397
 20
13.82508046753198
 10
172.7422055868309
 20
13.82258089509604
 10
172.67858720934
 20
13.82344075102806
 10
172.3946014194075
 20
13.78098039941939
 10
173.0251638499381
 20
14.50081952444788
 10
173.108764528907
 20
15.01276539435728
 10
173.492925278934
 20
15.53353743550044
 10
173.4777208288563
 20
16.23519626253213
 10
173.7239265722697
 20
16.22345633081256
 10
173.8256346157561
 20
16.23225004452773
 10
173.8249752035818
 20
15.98059650730344
 10
173.9428317155829
 20
15.79818020733961
 10
174.0315515260485
 20
15.55563740662865
 10
174.1322292485259
 20
15.32340030530127
 10
174.2311142712243
 20
15.08674644566914
 10
174.3299676990669
 20
14.85461739170094
 10
174.4256166390925
 20
14.63122222788788
 10
174.5159904573271
 20
14.42272549049317
 10
174.5989944568189
 20
14.23308448529318
 10
174.6726088582801
 20
14.06663106068104
 10
174.7342815895545
 20
13.92917699626094
 10
174.7749458885604
 20
13.84999239430033
 10
174.7922649500514
 20
13.81626739612926
 97
        1
330
A1
 92
       16
 93
        1
 72
     4
 94
        3
 73
     0
 74
     0
 95
       25
 96
       21
 40
0.0
 40
0.0
 40
0.0
 40
0.0
 40
0.0911479969064822
 40
0.1858117896204668
 40
0.2804128399734493
 40
0.3715889190714513
 40
0.467908049421871
 40
0.5642683809229233
 40
0.6605683222645279
 40
0.7569653015811114
 40
0.8561348172523597
 40
1.092615965104386
 40
1.374867658141977
 40
1.611348812011713
 40
1.710518328425359
 40
1.809403163726676
 40
2.045205463294179
 40
2.326646917622234
 40
2.562449217190693
 40
2.661334043834012
 40
2.661334043834012
 40
2.661334043834012
 40
2.661334043834012
 10
173.2683700567199
 20
14.88614538197293
 10
173.2987525917923
 20
14.88598079714555
 10
173.3606895889112
 20
14.88564528689922
 10
173.454135696033
 20
14.88269055452
 10
173.5475095236357
 20
14.8797775287715
 10
173.6417760753476
 20
14.87894201643416
 10
173.7354964790967
 20
14.87996644658047
 10
173.8352040303204
 20
14.87916977470971
 10
173.9188949546313
 20
14.8892141023522
 10
174.0637996315046
 20
14.86234617674164
 10
173.9396132444801
 20
15.03665530280049
 10
173.8965867286283
 20
15.19651711006092
 10
173.780892214221
 20
15.45518458550216
 10
173.7017565431257
 20
15.59231052861857
 10
173.6431576621816
 20
15.80937033134077
 10
173.5864803939438
 20
15.59266134213428
 10
173.5052809900478
 20
15.45327012438237
 10
173.4063701281488
 20
15.20406969370195
 10
173.3253625094259
 20
15.01925830226074
 10
173.2813683325838
 20
14.91650446856117
 10
173.2683700567199
 20
14.88614538197293
 97
        1
330
A2
 75
     1
 76
     2
 52
45.0
 41
0.1
 77
     0
 78
     1
 53
45.0
 43
0.0
 44
0.0
 45
-0.282842712474619
 46
0.0
 79
     0
 98
        1
 10
0.0
 20
0.0
  0
HATCH
  5
C0
330
48
100
AcDbEntity
  8
1
  6
Continuous
 62
     2
100
AcDbHatch
 10
0.0
 20
0.0
 30
0.0
210
0.0
220
0.0
230
1.0
  2
CUSTOM2
 70
     0
 71
     1
 91
        1
 92
        1
 93
        1
 72
     4
 94
        3
 73
     0
 74
     0
 95
       95
 96
       91
 40
0.0
 40
0.0
 40
0.0
 40
0.0
 40
0.6550406656911508
 40
1.308087289031932
 40
1.420803739835798
 40
1.566130759770792
 40
1.757067341888463
 40
2.006513545026464
 40
2.087328263121557
 40
2.185328872295633
 40
2.294612454748369
 40
2.408936380534819
 40
2.526802767798565
 40
2.646360524615613
 40
2.762535723971582
 40
2.870057342870154
 40
2.966883448431648
 40
3.050803243518303
 40
3.115818222436611
 40
3.156030057150257
 40
3.213914225080161
 40
3.276689026450561
 40
3.342960320981339
 40
3.404230667150589
 40
3.453822809493419
 40
3.532499827188465
 40
3.634775188507211
 40
3.75490933300821
 40
3.889736761660706
 40
4.035769602175269
 40
4.187256681197661
 40
4.338733685676001
 40
4.488478734676166
 40
4.634708317831629
 40
4.771493189921316
 40
4.892686571561255
 40
5.199775528944494
 40
5.460353566929681
 40
5.667603142345556
 40
5.814722905404532
 40
5.828990806219858
 40
5.855488336304527
 40
5.869756237118859
 40
6.189796507762805
 40
6.531890469872992
 40
6.883053637016981
 40
7.230512024911457
 40
7.566966656764561
 40
7.88520355970739
 40
8.172887439719211
 40
8.418011594062806
 40
8.443926721190728
 40
8.510760470613215
 40
8.602145393795725
 40
8.701714041647167
 40
8.793098965075396
 40
8.859932715057969
 40
8.885847842603619
 40
9.242301256612837
 40
9.58927545501679
 40
9.9218085431642
 40
10.23479624298471
 40
10.29968150889182
 40
10.3532349388777
 40
10.40154625355158
 40
10.46482922477831
 40
10.55973900668412
 40
10.69239545985624
 40
10.84920353475678
 40
11.01626328594786
 40
11.1867202436745
 40
11.35372582577217
 40
11.50257442292433
 40
11.61866495023298
 40
11.71329869152882
 40
11.82511050573914
 40
11.94464880845723
 40
12.06929242642513
 40
12.19707290435183
 40
12.32562632860536
 40
12.45034565331286
 40
12.56646595170334
 40
12.67099007414642
 40
12.76077625936789
 40
12.82703233506701
 40
12.87429132786
 40
12.89831990323339
 40
12.92234847860028
 40
13.53984767410327
 40
14.18294284359373
 40
14.18294284359373
 40
14.18294284359373
 40
14.18294284359373
 10
177.3067935648021
 20
14.70898038201725
 10
177.1752019758551
 20
14.82265058603232
 10
176.9124193802728
 20
15.04964496316158
 10
176.399739344102
 20
15.89214462956287
 10
176.4106654595363
 20
15.5342337757702
 10
176.404122652799
 20
15.39267392272133
 10
176.4028026631773
 20
15.19421305299281
 10
176.4018117602538
 20
15.02150296045983
 10
176.4024101751974
 20
14.8786537325758
 10
176.4038994301882
 20
14.78265005413357
 10
176.4055683588473
 20
14.67545503263141
 10
176.4071934954617
 20
14.56164211517582
 10
176.4092429501685
 20
14.44441572604589
 10
176.4123165501927
 20
14.3265641123297
 10
176.4156339697043
 20
14.21228087320621
 10
176.4193605340279
 20
14.10521401867277
 10
176.4217338161424
 20
14.01007408766922
 10
176.4278718888357
 20
13.92558557205695
 10
176.4239784495948
 20
13.86923087298142
 10
176.4455230443077
 20
13.79825022472354
 10
176.3680940058618
 20
13.82902677604484
 10
176.3116353240191
 20
13.82011242517614
 10
176.2540495896807
 20
13.82896218398276
 10
176.1690163478472
 20
13.79738225225943
 10
176.2009714146384
 20
13.88095155992189
 10
176.1990705282539
 20
13.94882608968308
 10
176.21079600473
 20
14.05233256764418
 10
176.2164241053001
 20
14.17002125616694
 10
176.223790217894
 20
14.30388609164423
 10
176.2320759701611
 20
14.44764152872632
 10
176.2398851897426
 20
14.59714022843445
 10
176.2457571222658
 20
14.74792549402078
 10
176.2503667817969
 20
14.89699943878438
 10
176.2542632117542
 20
15.04122913163022
 10
176.2570715126564
 20
15.17583905213017
 10
176.2576698755022
 20
15.36469614347355
 10
176.261602386715
 20
15.58975494313154
 10
176.2442175378498
 20
15.86367091125707
 10
176.2850417342582
 20
16.02787112098597
 10
176.1995153256002
 20
16.22749661465096
 10
176.2660558907689
 20
16.22385458403978
 10
176.2838724273231
 20
16.22413447160854
 10
176.4056801797503
 20
16.22632927398611
 10
176.5080770335462
 20
15.94675118721511
 10
176.7580021509356
 20
15.74563008536002
 10
176.987003533111
 20
15.47792614987917
 10
177.2245151213109
 20
15.22646413862376
 10
177.4486090740772
 20
14.98969974061359
 10
177.6750716283009
 20
14.73218692583078
 10
177.8325687886514
 20
14.6164933505692
 10
178.0472129612676
 20
14.27997152538792
 10
178.0422645974619
 20
14.40464754091603
 10
178.0433931602548
 20
14.46327691935737
 10
178.0428877841517
 20
14.55043662371977
 10
178.0430475158114
 20
14.64416143182872
 10
178.043005489132
 20
14.73018971297035
 10
178.0430202040374
 20
14.79153891945496
 10
178.0429706255983
 20
14.94135231520991
 10
178.0458811522811
 20
15.17989612510105
 10
178.0259521041162
 20
15.54486509868702
 10
178.0750433936246
 20
15.80799631993411
 10
177.917795150918
 20
16.21928904947755
 10
178.0762112872421
 20
16.16398282551747
 10
178.1311680478629
 20
16.16199686500175
 10
178.1827887766739
 20
16.16264778248251
 10
178.2713198965366
 20
16.20369527738247
 10
178.2204898303169
 20
16.05696326622987
 10
178.2313389930283
 20
15.95019971954433
 10
178.2166036994847
 20
15.79085705414112
 10
178.2099976446204
 20
15.62853061652874
 10
178.2014961399914
 20
15.45992521892396
 10
178.19432272022
 20
15.2981481470354
 10
178.1889063215389
 20
15.15422331457933
 10
178.1871713967649
 20
15.03437493466925
 10
178.1875440672319
 20
14.92686101590514
 10
178.1873656126264
 20
14.81820024645586
 10
178.187701086314
 20
14.69953570165531
 10
178.1890040622184
 20
14.57555163512741
 10
178.1908887351574
 20
14.44858294171105
 10
178.1925004454851
 20
14.32153861551032
 10
178.194140313743
 20
14.19854884492178
 10
178.1962570745751
 20
14.08300931383759
 10
178.1963848422364
 20
13.98090903955836
 10
178.2006514396554
 20
13.89009848838156
 10
178.1908440085289
 20
13.83213621208786
 10
178.2118474771689
 20
13.76517130132029
 10
178.1725639739897
 20
13.77291153966688
 10
177.9595307117747
 20
13.75755254145192
 10
177.7636297943186
 20
14.3140305809447
 10
177.4611197631544
 20
14.5755603534851
 10
177.3067935648021
 20
14.70898038201725
 97
        1
330
A3
 75
     1
 76
     2
 52
45.0
 41
0.1
 77
     0
 78
     1
 53
45.0
 43
0.0
 44
0.0
 45
-0.282842712474619
 46
0.0
 79
     0
 98
        1
 10
0.0
 20
0.0
  0
HATCH
  5
C1
330
48
100
AcDbEntity
  8
1
  6
Continuous
 62
     2
100
AcDbHatch
 10
0.0
 20
0.0
 30
0.0
210
0.0
220
0.0
230
1.0
  2
CUSTOM3
 70
     0
 71
     1
 91
        1
 92
        1
 93
        1
 72
     4
 94
        3
 73
     0
 74
     0
 95
      110
 96
      106
 40
0.0
 40
0.0
 40
0.0
 40
0.0
 40
0.2203406257277661
 40
0.4407808782838111
 40
0.595249449461509
 40
0.7488431659393096
 40
0.9023581831309365
 40
1.056801968670407
 40
1.210736449099964
 40
1.363041386539785
 40
1.515315729683128
 40
1.669377239148079
 40
1.721611652756573
 40
1.77319950294296
 40
1.824933793210006
 40
1.877110426487982
 40
1.982682281206745
 40
2.078781667087554
 40
2.172809640822275
 40
2.271937807378929
 40
2.378349933379323
 40
2.494131557736512
 40
2.626681683943616
 40
2.783145050796072
 40
2.890701232940925
 40
2.99313031245482
 40
3.099869730691806
 40
3.220237816691302
 40
3.352695482737591
 40
3.481732806389842
 40
3.593499473690373
 40
3.674323013331887
 40
3.817951711952837
 40
3.946167120793834
 40
4.061405053453548
 40
4.16648079600316
 40
4.262478775059198
 40
4.350736673551155
 40
4.43307199125404
 40
4.511216293814642
 40
4.564262454117964
 40
4.618474415571575
 40
4.670128488754179
 40
4.722296879126368
 40
4.819540945314237
 40
4.931194984128092
 40
5.049996040257734
 40
5.16864375541528
 40
5.283970811762492
 40
5.392260784910317
 40
5.486512254876364
 40
5.559178233949791
 40
5.591425852853458
 40
5.626215969637835
 40
5.667155838674381
 40
5.717449290214188
 40
5.738402360944803
 40
5.784499116553772
 40
5.830595872164746
 40
5.851548942897604
 40
5.873019280661718
 40
5.92421777840826
 40
5.985325662817639
 40
6.036524160567656
 40
6.057994498334184
 40
6.236847789607434
 40
6.38140992894561
 40
6.493190424178635
 40
6.574067534230439
 40
6.691018086205533
 40
6.814881554220451
 40
6.944307823240403
 40
7.071266716066027
 40
7.193488604461872
 40
7.309042773128185
 40
7.414007203170754
 40
7.505140441886481
 40
7.531150360599639
 40
7.559221645322225
 40
7.58720221892088
 40
7.612569159499095
 40
7.662550809480969
 40
7.702878875764111
 40
7.857328205230926
 40
8.010799568088572
 40
8.165256399657522
 40
8.322232698713862
 40
8.479564855016548
 40
8.635216230290752
 40
8.79088255092567
 40
8.948305154947235
 40
9.168271839032936
 40
9.387358980987196
 40
9.608047961033447
 40
9.83291423479265
 40
9.858338694962985
 40
9.925366817229992
 40
10.02013071422758
 40
10.12876249858996
 40
10.23739428295247
 40
10.33215817995189
 40
10.39918630222392
 40
10.42461076239781
 40
10.64992019336941
 40
10.87188524531186
 40
10.87188524531186
 40
10.87188524531186
 40
10.87188524531186
 10
179.9057788376618
 20
15.73923260398191
 10
179.9092864933542
 20
15.80616462073805
 10
179.9163033987664
 20
15.9400589191586
 10
179.8198027599072
 20
16.22548554971471
 10
180.0510134726109
 20
16.16284386190285
 10
180.1919290057156
 20
16.17001554055991
 10
180.3490417757588
 20
16.16235883078244
 10
180.5025913427288
 20
16.1625275228304
 10
180.6545104935081
 20
16.16182040535432
 10
180.8142214813231
 20
16.17210158351639
 10
180.9408972601118
 20
16.15496511080752
 10
181.137082112208
 20
16.22727260107146
 10
181.1034395279078
 20
16.12640699080117
 10
181.1052011317184
 20
16.07619253947671
 10
181.1027342073458
 20
16.02712335586466
 10
181.1347076966011
 20
15.94063490846999
 10
181.0010399903256
 20
15.98997438608336
 10
180.9172208688056
 20
15.98430634314168
 10
180.8173861139324
 20
15.99465516706298
 10
180.7186576720146
 20
16.00086450411087
 10
180.612153277111
 20
16.00697763816778
 10
180.491051169806
 20
16.01588883484587
 10
180.3703381502453
 20
16.00521605912383
 10
180.1812553843436
 20
16.06468503080368
 10
180.2129028505312
 20
15.9055832007754
 10
180.1995563316833
 20
15.80839128339904
 10
180.197495842645
 20
15.69634065110103
 10
180.195818804467
 20
15.5769968562935
 10
180.1973336794233
 20
15.4503259215511
 10
180.195658247867
 20
15.32301588016117
 10
180.2058844271657
 20
15.22451566404463
 10
180.1779006596583
 20
15.0838870262563
 10
180.3508029999306
 20
15.13989551134094
 10
180.4645020202771
 20
15.12719951478498
 10
180.5840151672239
 20
15.13448377051255
 10
180.6888491425072
 20
15.13878017056755
 10
180.7843084898612
 20
15.14330568258977
 10
180.8763823507031
 20
15.15149201146201
 10
180.947655178244
 20
15.14643850638112
 10
181.0544931705684
 20
15.18536425031673
 10
181.0226603598036
 20
15.10517122005879
 10
181.026616450393
 20
15.05562936846034
 10
181.0234502392013
 20
15.0055747803982
 10
181.0550791490585
 20
14.92128847612023
 10
180.9210133677691
 20
14.97425365495158
 10
180.82923227932
 20
14.96540080890441
 10
180.7079729189603
 20
14.97570049965154
 10
180.5914113119771
 20
14.97748911767502
 10
180.4783375745879
 20
14.97787017109695
 10
180.3679246308471
 20
14.9841544947218
 10
180.2898124067841
 20
14.97189133255364
 10
180.1913625833643
 20
15.00453887616127
 10
180.2012355173561
 20
14.94769748054206
 10
180.1973923244403
 20
14.91392130557984
 10
180.1966789884268
 20
14.87119604709412
 10
180.1963369642975
 20
14.83401607262153
 10
180.1963834255345
 20
14.79487237370771
 10
180.1963649429927
 20
14.75716849497686
 10
180.1963703431806
 20
14.71944955232402
 10
180.1963697214201
 20
14.6899432474515
 10
180.1963698151545
 20
14.65873577699301
 10
180.1963704287921
 20
14.61414424908085
 10
180.1963671499336
 20
14.5596395650885
 10
180.1963759623481
 20
14.51505540201448
 10
180.1963359653417
 20
14.4311780858574
 10
180.1976024270255
 20
14.31737520677678
 10
180.1950274117842
 20
14.16830395933709
 10
180.2065009381719
 20
14.06597203813906
 10
180.1823506222263
 20
13.93338903885835
 10
180.3332993946476
 20
13.97895732272022
 10
180.4428436671556
 20
13.96427012162351
 10
180.573397047392
 20
13.96920435125063
 10
180.6990312209514
 20
13.97257705323363
 10
180.8188730625601
 20
13.97711497498772
 10
180.9391362611427
 20
13.99048536182006
 10
181.0222761663516
 20
13.98068712782597
 10
181.1456080421075
 20
14.04126214623319
 10
181.1244269203956
 20
13.9853246013402
 10
181.1235950270117
 20
13.95939249372346
 10
181.1218963707558
 20
13.93197256190939
 10
181.1217974888829
 20
13.89738195206385
 10
181.1203659301329
 20
13.86050408220767
 10
181.153280419219
 20
13.76846841021806
 10
180.9551306988107
 20
13.84132015974832
 10
180.8300548294891
 20
13.81825726508606
 10
180.6673071295156
 20
13.82454021985787
 10
180.5129366450001
 20
13.82260943909927
 10
180.3566670436943
 20
13.82393762599269
 10
180.1970544465282
 20
13.82059872487863
 10
180.0540326342236
 20
13.83265795728241
 10
179.8197144881628
 20
13.76952001976916
 10
179.9173810751197
 20
14.05620527466317
 10
179.9006868780059
 20
14.2498830814266
 10
179.9146296709684
 20
14.47848242880295
 10
179.9142987846633
 20
14.63384593955048
 10
179.9143078119263
 20
14.73966336444126
 10
179.9143055876316
 20
14.80205784124214
 10
179.9143065551888
 20
14.89220425248327
 10
179.9143065473261
 20
14.99621167157438
 10
179.9143053861102
 20
15.10022131375296
 10
179.9143090971502
 20
15.19036243688768
 10
179.9143011051051
 20
15.25276803097215
 10
179.9143334275018
 20
15.35868835961119
 10
179.9131440788319
 20
15.5162671654474
 10
179.9082216489256
 20
15.66528219822066
 10
179.9057788376618
 20
15.73923260398191
 97
        1
330
A4
 75
     1
 76
     2
 52
45.0
 41
0.1
 77
     0
 78
     1
 53
45.0
 43
0.0
 44
0.0
 45
-0.282842712474619
 46
0.0
 79
     0
 98
        1
 10
0.0
 20
0.0
  0
HATCH
  5
C2
330
48
100
AcDbEntity
  8
1
  6
Continuous
 62
     2
100
AcDbHatch
 10
0.0
 20
0.0
 30
0.0
210
0.0
220
0.0
230
1.0
  2
CUSTOM4
 70
     0
 71
     1
 91
        1
 92
        1
 93
        1
 72
     4
 94
        3
 73
     0
 74
     0
 95
       47
 96
       43
 40
0.0
 40
0.0
 40
0.0
 40
0.0
 40
0.220791280995719
 40
0.445940418630315
 40
0.490238719045937
 40
0.5327473892722328
 40
0.5742260451225656
 40
0.6155432630560949
 40
0.6568164066316435
 40
0.6982511618781646
 40
0.7407663929317596
 40
0.7851366743175381
 40
1.010288833836348
 40
1.231080507002198
 40
1.451765243652425
 40
1.676638205891712
 40
1.720461045359681
 40
1.830018144043547
 40
1.972442372353177
 40
2.114866600677547
 40
2.224423699395172
 40
2.268246538883413
 40
2.49362880120724
 40
2.715602830286635
 40
2.934211330706392
 40
3.1495023698554
 40
3.231387784851047
 40
3.318231873854082
 40
3.40514319819807
 40
3.486970301720507
 40
3.702258172493965
 40
3.920866283534198
 40
4.142839325931984
 40
4.368221903865441
 40
4.412044743359921
 40
4.521601842095937
 40
4.664026070452417
 40
4.806450298809125
 40
4.916007397546817
 40
4.959830237043141
 40
5.184703515847175
 40
5.405387250767549
 40
5.405387250767549
 40
5.405387250767549
 40
5.405387250767549
 10
182.6507427258645
 20
15.73406440953872
 10
182.6568139420003
 20
15.7975848250121
 10
182.6690762107244
 20
15.92587938689628
 10
182.5604706879411
 20
16.20166220174077
 10
182.6761985896604
 20
16.17188133432054
 10
182.7171842509015
 20
16.16765556262821
 10
182.7591205797519
 20
16.16310446389607
 10
182.800419662571
 20
16.16201982929484
 10
182.8417032115556
 20
16.16310338195227
 10
182.8836148270647
 20
16.16766112711343
 10
182.924598354902
 20
16.1718743020973
 10
183.0404922843488
 20
16.20177611317534
 10
182.9295652727457
 20
15.92339806609889
 10
182.9574856365267
 20
15.74283140824953
 10
182.9404267346969
 20
15.50961042346471
 10
182.9414637282103
 20
15.34906622543146
 10
182.9414099399404
 20
15.22284817558722
 10
182.9414277372481
 20
15.12428963336242
 10
182.941418858108
 20
14.99280702442962
 10
182.9414263928033
 20
14.86132844968649
 10
182.9414129405129
 20
14.76276222694091
 10
182.9414531717491
 20
14.63639735624151
 10
182.9406746403817
 20
14.4748206882287
 10
182.9565958319267
 20
14.24361821892914
 10
182.9333468885407
 20
14.05874351972003
 10
183.0360183444366
 20
13.78935602770052
 10
182.8820238362836
 20
13.82660112685818
 10
182.8004129802832
 20
13.82137994680535
 10
182.7188192292583
 20
13.82660620378351
 10
182.5648513666842
 20
13.78937069885384
 10
182.6674183421918
 20
14.0587512986288
 10
182.6442045316087
 20
14.24361585325415
 10
182.660044465514
 20
14.47482218565639
 10
182.6593296313426
 20
14.63639712308503
 10
182.6593664569907
 20
14.76276231210521
 10
182.659354900027
 20
14.86132756635981
 10
182.6593575019214
 20
14.9928112741722
 10
182.6593648531779
 20
15.124275480312
 10
182.6593442541351
 20
15.22287786275325
 10
182.6594082192028
 20
15.34896149354427
 10
182.658173394759
 20
15.51210091383771
 10
182.6532040396745
 20
15.6605418377755
 10
182.6507427258645
 20
15.73406440953872
 97
        1
330
A5
 75
     1
 76
     2
 52
45.0
 41
0.1
 77
     0
 78
     1
 53
45.0
 43
0.0
 44
0.0
 45
-0.282842712474619
 46
0.0
 79
     0
 98
        1
 10
0.0
 20
0.0
  0
HATCH
  5
C3
330
48
100
AcDbEntity
  8
1
  6
Continuous
 62
     2
100
AcDbHatch
 10
0.0
 20
0.0
 30
0.0
210
0.0
220
0.0
230
1.0
  2
CUSTOM5
 70
     0
 71
     1
 91
        1
 92
        1
 93
        1
 72
     4
 94
        3
 73
     0
 74
     0
 95
      118
 96
      114
 40
0.0
 40
0.0
 40
0.0
 40
0.0
 40
0.105470816297341
 40
0.246609827005191
 40
0.3965912874591427
 40
0.5285525069754169
 40
0.6156245055642758
 40
0.6431434105798071
 40
0.7036850037986944
 40
0.764226598450551
 40
0.7917455052355982
 40
0.9287404319990646
 40
1.106572819088147
 40
1.287544879681147
 40
1.317578308030664
 40
1.399928030857303
 40
1.522968204800077
 40
1.675072986590698
 40
1.844616533180775
 40
2.01997300163884
 40
2.189516548880152
 40
2.341621331585491
 40
2.464661506320627
 40
2.547011229647191
 40
2.577044658168155
 40
2.603797890893225
 40
2.662655002908912
 40
2.721512114949724
 40
2.748265347702904
 40
2.77421530734498
 40
2.84595931340731
 40
2.954338556588509
 40
3.090194227585687
 40
3.24436751710065
 40
3.40769961584441
 40
3.57103171453956
 40
3.725205003920236
 40
3.861060674729736
 40
3.969439917716429
 40
4.041183923629101
 40
4.067133883213095
 40
4.311886746012281
 40
4.547897258335647
 40
4.764747083044075
 40
4.952749679951848
 40
5.045772974195986
 40
5.137862019645103
 40
5.330543169793155
 40
5.55344826524415
 40
5.795083855888305
 40
6.043293412177369
 40
6.285761695541312
 40
6.313902908752796
 40
6.384255941793386
 40
6.475714884766946
 40
6.56717382775898
 40
6.637526860839758
 40
6.665668074074093
 40
6.692018920328065
 40
6.749990782071135
 40
6.807962643790503
 40
6.834313490017978
 40
6.856393084245257
 40
6.91333519564988
 40
6.991194817302516
 40
7.076026942283777
 40
7.153886563725239
 40
7.210828674844793
 40
7.232908268931128
 40
7.258199334923649
 40
7.324875781592299
 40
7.419142481924956
 40
7.527204308841895
 40
7.635266135230474
 40
7.729532834168459
 40
7.796209279292782
 40
7.821500344594728
 40
7.844652988850799
 40
7.899863140541577
 40
7.965759128053744
 40
8.020969279771029
 40
8.044121924046495
 40
8.069356610160579
 40
8.109134395441352
 40
8.132238100191064
 40
8.19314786778643
 40
8.279261678876601
 40
8.377977512673816
 40
8.476693347146599
 40
8.562807160411653
 40
8.62371693082644
 40
8.646820636853391
 40
8.671988793774204
 40
8.734909185828116
 40
8.81670569518883
 40
8.8985022048154
 40
8.961422597377862
 40
8.986590754550974
 40
9.012941600733129
 40
9.070913462380213
 40
9.12888532408171
 40
9.15523617032503
 40
9.180404327929072
 40
9.243324721948145
 40
9.325121234211938
 40
9.406917746637593
 40
9.469838141978048
 40
9.495006288270822
 40
9.517811184378964
 40
9.572192090486961
 40
9.63709833328119
 40
9.691479239515385
 40
9.714284125643424
 40
9.714284125643424
 40
9.714284125643424
 40
9.714284125643424
 10
185.2874469028653
 20
15.2688916318772
 10
185.3090990569037
 20
15.24111869242812
 10
185.3597257109474
 20
15.17618054561237
 10
185.4349383202591
 20
15.06891060312897
 10
185.5248482274347
 20
14.95377438266628
 10
185.5709169676672
 20
14.85357045748317
 10
185.6655825294656
 20
14.78434006814944
 10
185.6204439320413
 20
14.73771639678273
 10
185.5947047785791
 20
14.69660308866039
 10
185.5645196708012
 20
14.66065971727939
 10
185.5193684730562
 20
14.58579782596095
 10
185.4710504458563
 20
14.80782524253607
 10
185.3968539713073
 20
14.84510677337707
 10
185.2836047324606
 20
15.11610202130601
 10
185.288513357817
 20
15.00095328446229
 10
185.2868486556306
 20
14.92836675781627
 10
185.2876830076714
 20
14.80625588483986
 10
185.2873609540264
 20
14.6591380081046
 10
185.2875076912456
 20
14.49307063956557
 10
185.2872950092722
 20
14.32187554608602
 10
185.2879497252034
 20
14.15552828635498
 10
185.2859192461139
 20
14.00935173055693
 10
185.291346039993
 20
13.8847104747461
 10
185.2804930868708
 20
13.81718656540626
 10
185.2956739155555
 20
13.75549061417022
 10
185.2457895108133
 20
13.76727503897002
 10
185.2017150342522
 20
13.75943822779969
 10
185.15823716302
 20
13.76760441372703
 10
185.1092346786489
 20
13.75538056738468
 10
185.1218731234824
 20
13.80960667249313
 10
185.113018296845
 20
13.86936918907557
 10
185.1175058770314
 20
13.97922029044371
 10
185.1157960135991
 20
14.11029975405679
 10
185.1163550915986
 20
14.26198011444328
 10
185.1161928768694
 20
14.42211074929953
 10
185.1162269924675
 20
14.58236865674566
 10
185.1162514960127
 20
14.73370247520439
 10
185.1161453543224
 20
14.86582156338601
 10
185.1164299141932
 20
14.97294802533193
 10
185.1158675547567
 20
15.03808619579473
 10
185.118076508369
 20
15.16618957858676
 10
185.0319435998601
 20
14.79097610391574
 10
184.95551408185
 20
14.63918193123396
 10
184.8660040767834
 20
14.47766206446307
 10
184.7640413217327
 20
14.20471848820172
 10
184.7187976491039
 20
14.36717346596512
 10
184.610235594167
 20
14.45605432058117
 10
184.7995791751753
 20
14.6054979496141
 10
184.8565340545699
 20
14.79749136974925
 10
184.9717520993353
 20
15.02899622906758
 10
184.9940151630132
 20
15.21797259759063
 10
185.1771905152139
 20
15.49454089325931
 10
185.0538033597552
 20
15.48698978832094
 10
184.9925684166834
 20
15.48856772366118
 10
184.9081999617064
 20
15.48882592573672
 10
184.8204235085967
 20
15.48544845751206
 10
184.7656768696123
 20
15.49394814982019
 10
184.7104703026026
 20
15.48048561049789
 10
184.7222823035537
 20
15.52931442126764
 10
184.7142496151795
 20
15.57269004896708
 10
184.7228186104678
 20
15.61509438309573
 10
184.7102943409158
 20
15.66267796552118
 10
184.7555101538736
 20
15.65267212995109
 10
184.8014815562724
 20
15.65894105174061
 10
184.8777222047711
 20
15.65593561405872
 10
184.9561296131994
 20
15.65770448278541
 10
185.0323992648933
 20
15.6546479398166
 10
185.0783009459474
 20
15.66103971376177
 10
185.12317339654
 20
15.65093822978896
 10
185.1105552275634
 20
15.70157201581899
 10
185.1191936582707
 20
15.75501261882069
 10
185.1152361595443
 20
15.84863255131681
 10
185.1162325068335
 20
15.95112606688924
 10
185.1171927413073
 20
16.05353270248163
 10
185.1133211458005
 20
16.14735929609321
 10
185.1217789814364
 20
16.20036542840353
 10
185.1093075932835
 20
16.25211435651188
 10
185.1542106389849
 20
16.23850747226757
 10
185.1955083836772
 20
16.24100480320585
 10
185.259534428105
 20
16.23648060574488
 10
185.2986111148786
 20
16.22781003043308
 10
185.3476543498742
 20
16.23515102070687
 10
185.3225080030591
 20
16.19602896051759
 10
185.2815901333723
 20
16.20563842455807
 10
185.2910109616604
 20
16.15540148169778
 10
185.2855647318746
 20
16.1038594563949
 10
185.2881699601804
 20
16.0195970758452
 10
185.2870102202153
 20
15.92559135583408
 10
185.2883591064231
 20
15.83196865395526
 10
185.2849970101508
 20
15.74679517552223
 10
185.2920959917769
 20
15.69716856072044
 10
185.2812569154545
 20
15.64993694969989
 10
185.3304010225245
 20
15.66201674936851
 10
185.3794877630147
 20
15.65447393363011
 10
185.4573714280641
 20
15.65686070361432
 10
185.5350365172897
 20
15.65899381905415
 10
185.5845393931354
 20
15.65193391922455
 10
185.6344594750639
 20
15.66360151936214
 10
185.622319851688
 20
15.61540235371393
 10
185.6305838229143
 20
15.57249219801236
 10
185.6223198650783
 20
15.52958201851384
 10
185.6344594549855
 20
15.48138288754865
 10
185.5845395158746
 20
15.4930503447151
 10
185.5350350651203
 20
15.48599202435046
 10
185.4573784382972
 20
15.48811665228603
 10
185.379464386576
 20
15.4905338936576
 10
185.3304500352716
 20
15.48291848194485
 10
185.2813246108943
 20
15.49507952557592
 10
185.2915559988571
 20
15.45073013424158
 10
185.2856677678054
 20
15.40925436202912
 10
185.2878788305568
 20
15.34915394315303
 10
185.2874109346147
 20
15.3022578276289
 10
185.2874386992913
 20
15.27650146418197
 10
185.2874469028653
 20
15.2688916318772
 97
        1
330
A6
 75
     1
 76
     2
 52
45.0
 41
0.1
 77
     0
 78
     1
 53
45.0
 43
0.0
 44
0.0
 45
-0.282842712474619
 46
0.0
 79
     0
 98
        1
 10
0.0
 20
0.0
  0
HATCH
  5
C4
330
48
100
AcDbEntity
  8
1
  6
Continuous
 62
     2
100
AcDbHatch
 10
0.0
 20
0.0
 30
0.0
210
0.0
220
0.0
230
1.0
  2
CUSTOM6
 70
     0
 71
     1
 91
        1
 92
        1
 93
        1
 72
     4
 94
        3
 73
     0
 74
     0
 95
       91
 96
       87
 40
0.0
 40
0.0
 40
0.0
 40
0.0
 40
0.0345987051695434
 40
0.1258134969461369
 40
0.2547723404888987
 40
0.4026032099154409
 40
0.5504340793417273
 40
0.6793929228836932
 40
0.7706077146571888
 40
0.8052064287781777
 40
1.124852390615365
 40
1.427402236308958
 40
1.706356627453599
 40
1.955541417875282
 40
2.169485938566426
 40
2.344350786664883
 40
2.480568411562031
 40
2.590440557429054
 40
2.649189927151256
 40
2.749320643306461
 40
2.912632739880157
 40
3.147745656000353
 40
3.244827496385291
 40
3.338490056946831
 40
3.583815413207258
 40
3.761423943238618
 40
3.886956104362782
 40
3.985855451886942
 40
4.091766255337826
 40
4.250186473811992
 40
4.422734315084615
 40
4.628285684838709
 40
4.872093227758551
 40
5.152549652145662
 40
5.464967135837642
 40
5.803201477852563
 40
6.160362988814038
 40
6.193449448276093
 40
6.284170385501747
 40
6.419718138764617
 40
6.587285046385867
 40
6.774063446723781
 40
6.967245678113764
 40
7.15402407881775
 40
7.321590987026136
 40
7.457138740890494
 40
7.547859678556231
 40
7.580946138182791
 40
7.608533084714843
 40
7.669224367077822
 40
7.729915649430044
 40
7.757502595950095
 40
7.790278062553549
 40
7.880146277431047
 40
8.01441996318051
 40
8.180411842398039
 40
8.365434637679508
 40
8.556801071622838
 40
8.741823866830922
 40
8.90781574591646
 40
9.042089431507643
 40
9.131957646249768
 40
9.164733112797345
 40
9.415425063140272
 40
9.667986180958735
 40
9.694169807462902
 40
9.756607686047861
 40
9.831130315322667
 40
9.893568193900132
 40
9.919751820398949
 40
9.95096796469078
 40
9.996421631210891
 40
10.22087981037478
 40
10.44341866197565
 40
10.47847970788878
 40
10.57091337438778
 40
10.70159545461259
 40
10.85140174170387
 40
11.00120802880509
 40
11.13189010907415
 40
11.2243237758304
 40
11.25938480938989
 40
11.28697175596177
 40
11.34766303835952
 40
11.40835432042102
 40
11.43594125892137
 40
11.43594125892137
 40
11.43594125892137
 40
11.43594125892137
 10
190.081811433329
 20
15.55242795125077
 10
190.0702785844941
 20
15.55242790287915
 10
190.0283409445
 20
15.55242773704164
 10
189.9434129719026
 20
15.55243125800908
 10
189.8207688553129
 20
15.55240926435879
 10
189.6791206916993
 20
15.55250801177053
 10
189.537975369849
 20
15.55214686232421
 10
189.4141351317904
 20
15.55321883609088
 10
189.3317217825381
 20
15.55092249091268
 10
189.1727791229692
 20
15.5604856937342
 10
189.3503402353376
 20
15.1978539431137
 10
189.3379739205452
 20
14.95243127723114
 10
189.4064519473864
 20
14.66862501324835
 10
189.469302432097
 20
14.43250999939035
 10
189.5452253431729
 20
14.23326740396129
 10
189.6303189577015
 20
14.07745347451374
 10
189.7244607592936
 20
13.97657857781392
 10
189.8282648207727
 20
13.92465852638966
 10
189.9125872030774
 20
13.97606484379614
 10
189.9351322179452
 20
14.09144544037518
 10
189.9745730975371
 20
14.21885149702382
 10
189.9202919734942
 20
14.53622328086754
 10
190.0451218072473
 20
14.38982180140909
 10
190.2019291513602
 20
14.35795300331166
 10
190.0947720007056
 20
14.12421357767628
 10
190.0808711209867
 20
13.95972776583656
 10
190.0234709467226
 20
13.83130869122484
 10
189.9335020145008
 20
13.76018802352826
 10
189.8095274657877
 20
13.74432324142254
 10
189.663427319686
 20
13.77993797554172
 10
189.5243894320284
 20
13.90000570500279
 10
189.4102003962144
 20
14.0743568255032
 10
189.3146141301487
 20
14.2994660311124
 10
189.2318652572626
 20
14.56388246006442
 10
189.1807179256411
 20
14.88187933098543
 10
189.0770189207338
 20
15.15543728488912
 10
189.2042841208519
 20
15.56005818612866
 10
189.0357890623019
 20
15.55112367849678
 10
188.9511995787077
 20
15.55315961418363
 10
188.8189876387627
 20
15.55213937388406
 10
188.6560505094104
 20
15.55253230318429
 10
188.4733759170532
 20
15.55235696313368
 10
188.2847057373383
 20
15.55260105307468
 10
188.1014469020189
 20
15.55185657906236
 10
187.9404746832718
 20
15.55416360522425
 10
187.8029808335276
 20
15.54799804883662
 10
187.728959037231
 20
15.56032838458211
 10
187.6613215186856
 20
15.54329323723556
 10
187.6732373719269
 20
15.59524438447528
 10
187.6655677285694
 20
15.64071424966529
 10
187.6732592225115
 20
15.68614453703705
 10
187.6613141797762
 20
15.7380239598457
 10
187.7283588305866
 20
15.72119143490264
 10
187.8017375665677
 20
15.73335409092671
 10
187.9379128305272
 20
15.72727231074958
 10
188.0973811801512
 20
15.72954834315058
 10
188.2789173085837
 20
15.72881233998962
 10
188.465803486218
 20
15.72905954196134
 10
188.6468012316836
 20
15.72886400799254
 10
188.8080802578879
 20
15.72932234714839
 10
188.9393882124887
 20
15.72812673751206
 10
189.0225051322597
 20
15.73051347319742
 10
189.1556236547815
 20
15.72230605725464
 10
189.0645893502659
 20
15.97752868952655
 10
188.9789633074419
 20
16.24164358328246
 10
189.0990589003455
 20
16.22904442969165
 10
189.1514264948544
 20
16.22694235763075
 10
189.2214497569715
 20
16.22535399889657
 10
189.2671922337817
 20
16.21602567538113
 10
189.3220812646933
 20
16.22545966915426
 10
189.2963574785681
 20
16.17733028655173
 10
189.1825397571453
 20
16.18266829744167
 10
189.3159346621136
 20
15.95449174576776
 10
189.194365873547
 20
15.72156856595923
 10
189.3223188769413
 20
15.73087258884438
 10
189.4049048406461
 20
15.7280100175468
 10
189.5307214850824
 20
15.72923437412302
 10
189.6741469838059
 20
15.72932431888964
 10
189.8157420951728
 20
15.72746163183853
 10
189.9459127249968
 20
15.73333075937162
 10
190.0193452286191
 20
15.72070340823204
 10
190.0891112922097
 20
15.73877563110413
 10
190.0775772605396
 20
15.68612850546326
 10
190.0833184346683
 20
15.64221317686547
 10
190.0816615770912
 20
15.59089982676549
 10
190.081775756167
 20
15.56158792021634
 10
190.081811433329
 20
15.55242795125077
 97
        1
330
A7
 75
     1
 76
     2
 52
45.0
 41
0.1
 77
     0
 78
     1
 53
45.0
 43
0.0
 44
0.0
 45
-0.282842712474619
 46
0.0
 79
     0
 98
        1
 10
0.0
 20
0.0
  0
HATCH
  5
C5
330
48
100
AcDbEntity
  8
1
  6
Continuous
 62
     2
100
AcDbHatch
 10
0.0
 20
0.0
 30
0.0
210
0.0
220
0.0
230
1.0
  2
CUSTOM7
 70
     0
 71
     1
 91
        1
 92
        1
 93
        1
 72
     4
 94
        3
 73
     0
 74
     0
 95
       75
 96
       71
 40
0.0
 40
0.0
 40
0.0
 40
0.0
 40
0.0342546099129691
 40
0.1245622414432346
 40
0.2522385480897518
 40
0.398599192294068
 40
0.5449598364980821
 40
0.6726361431438816
 40
0.762943774673696
 40
0.7971983935297973
 40
1.101723623449603
 40
1.40859124403658
 40
1.433332471690284
 40
1.487763172450079
 40
1.542193873081904
 40
1.566935100592452
 40
1.923523931821765
 40
2.271755704953565
 40
2.590579755100807
 40
2.858943305581064
 40
2.889120339309089
 40
2.918305855191038
 40
2.941366645531159
 40
2.99635776097305
 40
3.061992318140593
 40
3.116983433626787
 40
3.140044223997464
 40
3.411273122936386
 40
3.732441619741051
 40
3.761068217532749
 40
3.837787499630315
 40
3.948858699125952
 40
4.08054104910433
 40
4.219093782625716
 40
4.350776132722268
 40
4.461847332405602
 40
4.538566614678336
 40
4.567193212544584
 40
4.594907573998842
 40
4.666381453557381
 40
4.764111044010992
 40
4.870592538125795
 40
4.968322128642246
 40
5.039796008286931
 40
5.06751036978439
 40
5.094263603185603
 40
5.153120716668235
 40
5.211977830150678
 40
5.238731063551683
 40
5.272290535138922
 40
5.363380529444782
 40
5.49761841578146
 40
5.660621563453702
 40
5.838007341749403
 40
6.015393119910755
 40
6.17839626703838
 40
6.312634151842332
 40
6.403724143059321
 40
6.437283612672417
 40
6.464036846261033
 40
6.522893960004646
 40
6.581751071483906
 40
6.608504301590852
 40
6.637253941280999
 40
6.711397748902851
 40
6.812778057283435
 40
6.923237199249154
 40
7.024617507623827
 40
7.098761315207451
 40
7.127510946007401
 40
7.127510946007401
 40
7.127510946007401
 40
7.127510946007401
 10
188.4418622390565
 20
14.95849128473265
 10
188.4418622819707
 20
14.9470731340872
 10
188.441862448113
 20
14.9055525784263
 10
188.4418593081787
 20
14.82146922003772
 10
188.4418788279801
 20
14.70004497322329
 10
188.4417912187738
 20
14.55980494047449
 10
188.4421116235231
 20
14.42006556794577
 10
188.4411605909741
 20
14.29745038894929
 10
188.4431978595968
 20
14.21587074438044
 10
188.4349433178746
 20
14.062712670777
 10
188.7430797940901
 20
14.22560236054721
 10
189.0350645173737
 20
14.39482938688002
 10
189.0408354448707
 20
14.25973235781911
 10
189.0455471719891
 20
14.21617221160444
 10
189.0482535411917
 20
14.17211249350545
 10
189.0672545672961
 20
14.02272590363135
 10
188.6583942247301
 20
14.08681172241261
 10
188.3793710348833
 20
13.97296341411017
 10
188.1018081587166
 20
13.87364095811142
 10
187.8099837184401
 20
13.91630687596357
 10
187.7869144678658
 20
13.81321679744542
 10
187.7537474383332
 20
13.78691091244469
 10
187.7480653962739
 20
13.83455309036304
 10
187.7284214559044
 20
13.87180336115069
 10
187.7095089485624
 20
13.93007387847564
 10
187.6942849867707
 20
13.97385201007804
 10
187.6477246372936
 20
14.0875942104631
 10
187.989089731245
 20
14.05576301120048
 10
188.2679649367386
 20
14.02161435106478
 10
188.2617753034907
 20
14.16913976479652
 10
188.2630935452773
 20
14.24013150908832
 10
188.2624831689948
 20
14.34719767958662
 10
188.2625871570725
 20
14.47398529785998
 10
188.2629987964055
 20
14.60849243496051
 10
188.2613907841969
 20
14.73395549951185
 10
188.2659902567924
 20
14.84505246719118
 10
188.256418650221
 20
14.90761886800689
 10
188.2704001783691
 20
14.96595388295002
 10
188.2147384386704
 20
14.95289710582239
 10
188.1575655197821
 20
14.96136307749499
 10
188.0616048925648
 20
14.95729976080637
 10
187.963376752282
 20
14.95970889852476
 10
187.8672582457561
 20
14.95551600613388
 10
187.8104648525811
 20
14.96429346441164
 10
187.7550356873384
 20
14.95094936850121
 10
187.7670679427917
 20
15.00036910959257
 10
187.7592003173938
 20
15.04393988030396
 10
187.7666295563828
 20
15.08830469118525
 10
187.7551930564144
 20
15.13902297763991
 10
187.8232102370132
 20
15.12162460757743
 10
187.8968496879747
 20
15.13417450237189
 10
188.0325064058211
 20
15.12799677011097
 10
188.1884909024525
 20
15.13029203093084
 10
188.3615926358143
 20
15.1294096826253
 10
188.5346942964181
 20
15.13029207142408
 10
188.6906789811216
 20
15.1279966295555
 10
188.8263351889797
 20
15.13417486262432
 10
188.8999756705652
 20
15.12162394218335
 10
188.9679914174724
 20
15.13902373012142
 10
188.9565590885922
 20
15.08830130414555
 10
188.9639539458297
 20
15.04397060811109
 10
188.956203991227
 20
15.00028307550197
 10
188.9681203741877
 20
14.95063590098477
 10
188.9108170223616
 20
14.96461411338426
 10
188.8520145789773
 20
14.95539755673255
 10
188.75252936332
 20
14.95952268164931
 10
188.6494280098349
 20
14.95822760025888
 10
188.5537846354574
 20
14.95854077077641
 10
188.4857467971617
 20
14.95848776697147
 10
188.4514462213444
 20
14.95849051871657
 10
188.4418622390565
 20
14.95849128473265
 97
        1
330
A8
 75
     1
 76
     2
 52
45.0
 41
0.1
 77
     0
 78
     1
 53
45.0
 43
0.0
 44
0.0
 45
-0.282842712474619
 46
0.0
 79
     0
 98
        1
 10
0.0
 20
0.0
  0
HATCH
  5
C6
330
48
100
AcDbEntity
  8
1
  6
Continuous
 62
     2
100
AcDbHatch
 10
0.0
 20
0.0
 30
0.0
210
0.0
220
0.0
230
1.0
  2
CUSTOM8
 70
     0
 71
     1
 91
        1
 92
        1
 93
        1
 72
     4
 94
        3
 73
     0
 74
     0
 95
       15
 96
       11
 40
0.0
 40
0.0
 40
0.0
 40
0.0
 40
0.2785535985096574
 40
0.5215624748198874
 40
0.6076917376040509
 40
0.6938210001741243
 40
0.9405019146455056
 40
1.22169140348914
 40
1.300471877081057
 40
1.379252341684822
 40
1.379252341684822
 40
1.379252341684822
 40
1.379252341684822
 10
189.5681493630999
 20
16.22930267330381
 10
189.6296017794178
 20
16.17691646592715
 10
189.7446649974113
 20
16.07882876798222
 10
190.0397348497243
 20
15.92889785897221
 10
189.9025147631857
 20
15.84343227515014
 10
189.8041227843778
 20
15.71085785201554
 10
189.713003359065
 20
16.0161698578142
 10
189.3636839480654
 20
16.07967869465374
 10
189.5119258376571
 20
16.17896509880878
 10
189.5494081874236
 20
16.21252348402382
 10
189.5681493630999
 20
16.22930267330381
 97
        1
330
A9
 75
     1
 76
     2
 52
45.0
 41
0.1
 77
     0
 78
     1
 53
45.0
 43
0.0
 44
0.0
 45
-0.282842712474619
 46
0.0
 79
     0
 98
        1
 10
0.0
 20
0.0
  0
HATCH
  5
C7
330
48
100
AcDbEntity
  8
1
  6
Continuous
 62
     2
100
AcDbHatch
 10
0.0
 20
0.0
 30
0.0
210
0.0
220
0.0
230
1.0
  2
CUSTOM9
 70
     0
 71
     1
 91
        1
 92
        1
 93
        1
 72
     4
 94
        3
 73
     0
 74
     0
 95
       35
 96
       31
 40
0.0
 40
0.0
 40
0.0
 40
0.0
 40
0.033523103662059
 40
0.0713218571712022
 40
0.4278866681487
 40
0.8116865841964033
 40
1.198190238000064
 40
1.561379546812697
 40
1.659983174622037
 40
1.75931557380719
 40
2.132719617231075
 40
2.525233363588828
 40
2.910815397779696
 40
3.265244364303282
 40
3.592606723582021
 40
3.964386154603947
 40
4.359942131737768
 40
4.758154118639227
 40
4.84384653869988
 40
4.936650065543204
 40
5.256616602537282
 40
5.581707404416016
 40
5.899719158308111
 40
6.198363494280716
 40
6.466301046615746
 40
6.493895311537068
 40
6.559697020196861
 40
6.638234543442436
 40
6.704036252154189
 40
6.731630508422994
 40
6.731630508422994
 40
6.731630508422994
 40
6.731630508422994
 10
191.9736010568669
 20
16.23463843719134
 10
191.9676006097788
 20
16.22480690542323
 10
191.9548344099157
 20
16.20388988579798
 10
191.7949362006552
 20
16.17127126532687
 10
192.2322025842337
 20
15.88206680336703
 10
192.4345394828262
 20
15.68041138358438
 10
192.6819564267974
 20
15.43749387603276
 10
193.1831513624605
 20
15.36047662757777
 10
193.0125562198971
 20
15.21876939174654
 10
192.93832994632
 20
15.01710366209109
 10
192.6131432248188
 20
15.36956287174725
 10
192.3277741670664
 20
15.53175212559562
 10
192.0337604077658
 20
15.73687130053049
 10
191.8084452691134
 20
16.21827488595455
 10
191.5993085055522
 20
15.75343046609224
 10
191.3207873674834
 20
15.54350952252911
 10
191.0371383177209
 20
15.37424456359983
 10
190.7078639527833
 20
15.00142360907946
 10
190.6277012318224
 20
15.19708014458999
 10
190.4759724909744
 20
15.32491104190598
 10
190.9083395826794
 20
15.40454031765935
 10
191.0962565329766
 20
15.60026634915473
 10
191.3468477420502
 20
15.81632996916755
 10
191.5714350470162
 20
15.98190992300059
 10
191.6259775409711
 20
16.26133964636826
 10
191.7494661029011
 20
16.24737950408079
 10
191.806027334452
 20
16.24521268867647
 10
191.8761870984944
 20
16.2404685988136
 10
191.9333414022105
 20
16.23709429350541
 10
191.9644190320839
 20
16.23519854711119
 10
191.9736010568669
 20
16.23463843719134
 97
        1
330
AA
 75
     1
 76
     2
 52
45.0
 41
0.1
 77
     0
 78
     1
 53
45.0
 43
0.0
 44
0.0
 45
-0.282842712474619
 46
0.0
 79
     0
 98
        1
 10
0.0
 20
0.0
  0
HATCH
  5
C8
330
48
100
AcDbEntity
  8
1
  6
Continuous
 62
     2
100
AcDbHatch
 10
0.0
 20
0.0
 30
0.0
210
0.0
220
0.0
230
1.0
  2
CUSTOM10
 70
     0
 71
     1
 91
        1
 92
        1
 93
        1
 72
     4
 94
        3
 73
     0
 74
     0
 95
       91
 96
       87
 40
0.0
 40
0.0
 40
0.0
 40
0.0
 40
0.0267532254356701
 40
0.0856103386464102
 40
0.1444674521996621
 40
0.1712206856618514
 40
0.2039416005642536
 40
0.2955601971652484
 40
0.4362601844616918
 40
0.616225284450725
 40
0.8256392189704698
 40
1.054685709844411
 40
1.293548478893531
 40
1.532411247938303
 40
1.761457738799568
 40
1.970871673298537
 40
2.150836773256732
 40
2.291536760495593
 40
2.3831553568367
 40
2.41587628410132
 40
2.442629517487965
 40
2.501486630949095
 40
2.560343744424242
 40
2.587096977826515
 40
2.617068194440942
 40
2.699247336756083
 40
2.822032643466396
 40
2.973822353257925
 40
3.143014704823368
 40
3.318007936879947
 40
3.48720028818678
 40
3.63898999754826
 40
3.761775303794759
 40
3.843954445753094
 40
3.87392566222979
 40
3.890812773500552
 40
3.907699884771757
 40
3.937960767857404
 40
3.980983618142464
 40
4.199085915228586
 40
4.439444339237389
 40
4.677588241261047
 40
5.050698317837933
 40
5.448212454763318
 40
5.855291218044844
 40
6.138575438885514
 40
6.417434507584355
 40
6.444551104394038
 40
6.504207617363337
 40
6.563864130314662
 40
6.590980727104255
 40
6.848609460381638
 40
7.109611990668596
 40
7.352910904446261
 40
7.557830220705632
 40
7.58751892591355
 40
7.652834077375967
 40
7.718149228845903
 40
7.747837934062205
 40
7.854880190301156
 40
7.976511257403697
 40
8.369487896592497
 40
8.75751495922379
 40
9.126072419331253
 40
9.460639380392315
 40
9.746695593036057
 40
9.777569943118802
 40
9.807050320931955
 40
9.830377336129088
 40
9.886003295436163
 40
9.95239556943008
 40
10.00802152870643
 40
10.03134854388236
 40
10.21356951009606
 40
10.42203479292889
 40
10.66154556731081
 40
10.91693789564322
 40
11.15832906556583
 40
11.1898267459664
 40
11.27286608520425
 40
11.39026653033367
 40
11.52484752840903
 40
11.65942852648465
 40
11.77682897161501
 40
11.859868310857
 40
11.89136598230445
 40
11.89136598230445
 40
11.89136598230445
 40
11.89136598230445
 10
190.7027885008196
 20
14.70699600701772
 10
190.7028237765288
 20
14.71587847311985
 10
190.7029366710796
 20
14.74430237047346
 10
190.7012984568489
 20
14.79409639169803
 10
190.7069750292911
 20
14.83657564478154
 10
190.6956928731706
 20
14.88730154856847
 10
190.7632296979031
 20
14.87012900740109
 10
190.83880292107
 20
14.88290227165996
 10
190.9828357056
 20
14.87629729457382
 10
191.1569419185427
 20
14.87888462206466
 10
191.3639599611003
 20
14.87800591955553
 10
191.5894688172378
 20
14.87828207920027
 10
191.8251162293406
 20
14.87818339658662
 10
192.0607640531348
 20
14.87828184412767
 10
192.2862717580626
 20
14.87800678190789
 10
192.4932934632805
 20
14.87888186270735
 10
192.6673888915288
 20
14.87630522678446
 10
192.8114492071986
 20
14.88288290449213
 10
192.8869691915293
 20
14.87016243405604
 10
192.9545776037029
 20
14.88726400191686
 10
192.9430840140676
 20
14.8367478580294
 10
192.9505104581733
 20
14.79253252226501
 10
192.9428838927986
 20
14.7486796650361
 10
192.9546489459425
 20
14.69878374479327
 10
192.8930788491983
 20
14.71393227712512
 10
192.8256791738672
 20
14.70310665350673
 10
192.7013004056221
 20
14.70852031626236
 10
192.555442823657
 20
14.70649205390785
 10
192.3893576440085
 20
14.70715777578387
 10
192.2188412621724
 20
14.70689643521242
 10
192.0519790855388
 20
14.70721553391094
 10
191.9087346827105
 20
14.70635302590763
 10
191.7773313869834
 20
14.70863300482987
 10
191.7239859134656
 20
14.70407704374203
 10
191.6485188456912
 20
14.70999914992876
 10
191.6769075779233
 20
14.70094169343353
 10
191.7033652409543
 20
14.69725912268929
 10
191.6633522907701
 20
14.66654271968275
 10
191.5713663691868
 20
14.67667591174634
 10
191.543939620707
 20
14.43032502247783
 10
191.4478793967234
 20
14.27499558764376
 10
191.1917277964474
 20
13.94525417931569
 10
191.7627537732762
 20
14.08430022210451
 10
192.0173656320516
 20
14.08291779973363
 10
192.6279647048617
 20
13.99790569242085
 10
192.3340698578084
 20
14.29685417558204
 10
192.0133304286516
 20
14.4433085690178
 10
192.1313543360434
 20
14.50025540818287
 10
192.1724716466262
 20
14.52420099873349
 10
192.2156812394411
 20
14.5459975881123
 10
192.3174574094451
 20
14.60928721253903
 10
192.4328867625247
 20
14.35147151408781
 10
192.6329591642277
 20
14.21616041113682
 10
192.7269077387228
 20
14.03792795138882
 10
192.9558829746392
 20
13.87997821027048
 10
192.8596031846708
 20
13.829159725763
 10
192.8167959763779
 20
13.79881292523055
 10
192.7718243528779
 20
13.77466130281459
 10
192.7121720925214
 20
13.72552146747569
 10
192.6789731061324
 20
13.85997475673609
 10
192.5582013350796
 20
14.01594265286581
 10
192.1970976005978
 20
13.88569928059556
 10
191.8385061955541
 20
13.90224694409483
 10
191.457092045008
 20
13.89331229351867
 10
191.1703455282891
 20
13.82882671672402
 10
190.8592055599713
 20
13.94230668192835
 10
190.8268737818788
 20
13.83122259927765
 10
190.7896178253318
 20
13.81196313850012
 10
190.7865737632754
 20
13.85874784087296
 10
190.7679892860607
 20
13.89806853919136
 10
190.7512436616778
 20
13.95765983478232
 10
190.7383730915754
 20
14.00201969871284
 10
190.7042327806427
 20
14.09106331120199
 10
190.9482714457754
 20
14.0218104294377
 10
191.1441394486671
 20
14.00030369057744
 10
191.2395426381277
 20
14.28226484478463
 10
191.2945135769597
 20
14.44363045421123
 10
191.5159619357156
 20
14.71391177589738
 10
191.3849239381216
 20
14.70548446853735
 10
191.3110026555854
 20
14.7077900849697
 10
191.1977459876244
 20
14.70671378321657
 10
191.0694251807484
 20
14.7070763907651
 10
190.9404252030415
 20
14.70697724466086
 10
190.828784094629
 20
14.70699932712572
 10
190.7514663970026
 20
14.7069957918967
 10
190.713287653201
 20
14.70699595845081
 10
190.7027885008196
 20
14.70699600701772
 97
        1
330
AB
 75
     1
 76
     2
 52
45.0
 41
0.1
 77
     0
 78
     1
 53
45.0
 43
0.0
 44
0.0
 45
-0.282842712474619
 46
0.0
 79
     0
 98
        1
 10
0.0
 20
0.0
  0
HATCH
  5
C9
330
48
100
AcDbEntity
  8
1
  6
Continuous
 62
     2
100
AcDbHatch
 10
0.0
 20
0.0
 30
0.0
210
0.0
220
0.0
230
1.0
  2
CUSTOM11
 70
     0
 71
     1
 91
        1
 92
        1
 93
        1
 72
     4
 94
        3
 73
     0
 74
     0
 95
      131
 96
      127
 40
0.0
 40
0.0
 40
0.0
 40
0.0
 40
0.0195577029826184
 40
0.0426490537461471
 40
0.2863607575856658
 40
0.5344948436189367
 40
0.7842238845573265
 40
0.873731578946745
 40
0.9803832810312947
 40
1.09284227451704
 40
1.199761146656799
 40
1.289788768186504
 40
1.351573580786198
 40
1.370727117561426
 40
1.416400936017835
 40
1.470914848355974
 40
1.516588666791763
 40
1.535742203552842
 40
1.63421659229319
 40
1.760283341175024
 40
1.897966686682084
 40
2.031216387368907
 40
2.049689751137901
 40
2.101115601646837
 40
2.179502577739955
 40
2.278859318314069
 40
2.393194462258727
 40
2.51651664838384
 40
2.642834515405969
 40
2.766156701983471
 40
2.880491846754586
 40
2.979848588358628
 40
3.058235565443805
 40
3.10966141666896
 40
3.128134780704135
 40
3.146783742386452
 40
3.191254343315313
 40
3.244332157315972
 40
3.288802758225875
 40
3.307451719895118
 40
3.327717853844732
 40
3.38374775358009
 40
3.468388665924481
 40
3.57448783769879
 40
3.694892515728894
 40
3.822449946852032
 40
3.950007377920421
 40
4.070412055800514
 40
4.176511227368069
 40
4.261152139501515
 40
4.317182039076709
 40
4.337448172964628
 40
4.620011002696243
 40
4.885096638397508
 40
4.945373043518329
 40
5.014107710488642
 40
5.07048172765204
 40
5.319246955636564
 40
5.584812164506035
 40
5.859000912056888
 40
6.13374693754207
 40
6.401732212968873
 40
6.420736683995464
 40
6.472845717451114
 40
6.550702743894042
 40
6.64695119387425
 40
6.754234497930574
 40
6.865196086587352
 40
6.972479390357811
 40
7.068727839771973
 40
7.146584865450982
 40
7.198693898189211
 40
7.217698368905352
 40
7.234950401630829
 40
7.276089864269871
 40
7.325191803515978
 40
7.366331266090362
 40
7.383583298769712
 40
7.402779163492089
 40
7.45338644325452
 40
7.524934666445522
 40
7.606953361405862
 40
7.688972056429013
 40
7.760520279784264
 40
7.811127559734506
 40
7.830323424546127
 40
7.847844055299757
 40
7.894799345666798
 40
7.962779392744486
 40
8.043374293560532
 40
8.128174145149439
 40
8.208769044817243
 40
8.276749090376944
 40
8.323704379669502
 40
8.341225010056236
 40
8.358497614800385
 40
8.40167912668659
 40
8.457815092185648
 40
8.513951057728052
 40
8.557132569708008
 40
8.574405174505051
 40
8.602340668616412
 40
8.643455660539955
 40
8.663225271966622
 40
8.71534515656427
 40
8.789031889628605
 40
8.873502045520334
 40
8.957972194323958
 40
9.031658925567848
 40
9.08377881123454
 40
9.103548423003001
 40
9.119550083123539
 40
9.16081752237984
 40
9.217244429110206
 40
9.278724491644692
 40
9.335151398295476
 40
9.376418837357772
 40
9.39242049730056
 40
9.401196302734778
 40
9.417494229384253
 40
9.426270027749526
 40
9.440875075477559
 40
9.475702496998737
 40
9.5172707098659
 40
9.552098131994066
 40
9.566703169884274
 40
9.566703169884274
 40
9.566703169884274
 40
9.566703169884274
 10
194.6170254148479
 20
15.67015871511028
 10
194.6134345093371
 20
15.6645369070216
 10
194.6056039123625
 20
15.65227754419112
 10
194.5129968974547
 20
15.61601916040977
 10
194.4887622233247
 20
15.40148444212713
 10
194.3858709845938
 20
15.22197284509708
 10
194.1220492364305
 20
15.03615573798145
 10
194.2845471569179
 20
14.9595933656608
 10
194.3607225760838
 20
14.89856693195442
 10
194.4492171072758
 20
14.83515804544759
 10
194.5389930233111
 20
14.77525634219561
 10
194.5883817636046
 20
14.72102154849208
 10
194.6745708157381
 20
14.69286240541834
 10
194.641126067423
 20
14.65713309652812
 10
194.621467116631
 20
14.62550387991906
 10
194.5919888217882
 20
14.5847587279607
 10
194.568898944603
 20
14.55504663489644
 10
194.5380205968357
 20
14.50211422668495
 10
194.472919336574
 20
14.62740334938903
 10
194.3796000122416
 20
14.68213900233934
 10
194.2950636285138
 20
14.73916423939344
 10
194.1722498125743
 20
14.89675287427523
 10
194.1764450847301
 20
14.82035806766836
 10
194.1751478652677
 20
14.77361280161296
 10
194.1758126448076
 20
14.695847858126
 10
194.1755549986957
 20
14.59902068324423
 10
194.1756431239921
 20
14.48650279078809
 10
194.1756077302282
 20
14.365240859457
 10
194.1756511758278
 20
14.24086897858961
 10
194.1755199942406
 20
14.11967683631337
 10
194.1759477562046
 20
14.00691148919743
 10
194.174667820231
 20
13.91082913768744
 10
194.1779759851044
 20
13.831138264687
 10
194.1715197740086
 20
13.78815175788784
 10
194.1806208705556
 20
13.74955432372043
 10
194.1447910339935
 20
13.7581088772407
 10
194.1115223815252
 20
13.75342519985446
 10
194.060456257604
 20
13.75351298759784
 10
194.0269723972813
 20
13.75794430283821
 10
193.9907585408754
 20
13.74960793842509
 10
194.0009782568665
 20
13.79145277179284
 10
193.9936487887773
 20
13.83778560820173
 10
193.9973633136103
 20
13.92374831106015
 10
193.9959480554896
 20
14.02605142704849
 10
193.9964105554638
 20
14.14453223931512
 10
193.996277368623
 20
14.26957683153356
 10
193.9963015910045
 20
14.3947582810705
 10
193.9963354925551
 20
14.51286645379058
 10
193.9962060293132
 20
14.61628748709516
 10
193.9965507549081
 20
14.69932036153667
 10
193.995869827869
 20
14.75143368521243
 10
193.9994586600623
 20
14.87912907821362
 10
193.7826171386436
 20
14.58048716819619
 10
193.6021354921951
 20
14.35263981511516
 10
193.5490322295611
 20
14.49373443289814
 10
193.5200429133149
 20
14.54325767560944
 10
193.419664806282
 20
14.64641779790107
 10
193.7405127723262
 20
14.7269503502378
 10
193.8689897005429
 20
14.91066283036435
 10
194.0906454325359
 20
15.11931995771763
 10
194.1770224894068
 20
15.29339211228345
 10
194.4549394229074
 20
15.56967051342512
 10
194.3346247839284
 20
15.56534559551115
 10
194.2863197351348
 20
15.56614856202553
 10
194.2102377454905
 20
15.56574582146585
 10
194.116701000975
 20
15.56590275611611
 10
194.0117594788557
 20
15.56582502576224
 10
193.9033887738717
 20
15.56595464378556
 10
193.7981454235897
 20
15.56554393490692
 10
193.7056237819412
 20
15.56682073671592
 10
193.6268130800707
 20
15.5634076653485
 10
193.5839674565379
 20
15.57023350036321
 10
193.5449499586516
 20
15.56065064201124
 10
193.5526365271863
 20
15.59420779565543
 10
193.5485464404312
 20
15.62523550322234
 10
193.5485531368814
 20
15.672365292709
 10
193.5526239724911
 20
15.70340941646779
 10
193.5449495574582
 20
15.73701861635901
 10
193.5834819405495
 20
15.72748410420872
 10
193.624122801448
 20
15.73397435498071
 10
193.6951471850463
 20
15.73100150650254
 10
193.7729318149633
 20
15.73174761399158
 10
193.8507292246474
 20
15.73247814044525
 10
193.9217232089907
 20
15.7295423551416
 10
193.962427979182
 20
15.73595468772952
 10
194.000985348991
 20
15.72650524176004
 10
193.9927342754927
 20
15.76264692158784
 10
193.9982346669358
 20
15.80129837613227
 10
193.9955754206163
 20
15.86913528561839
 10
193.9965815471533
 20
15.9459164153874
 10
193.9960178018319
 20
16.02849393582757
 10
193.9970714526592
 20
16.10517329229878
 10
193.994267586313
 20
16.173319907767
 10
194.0000702721304
 20
16.21132399809346
 10
193.9915654551158
 20
16.24758448077646
 10
194.0255610233125
 20
16.23755723771853
 10
194.05945756831
 20
16.24073266813706
 10
194.1126669060346
 20
16.2350896564061
 10
194.1660768574483
 20
16.23434774436425
 10
194.199591464949
 20
16.2281922348298
 10
194.2388086183039
 20
16.23346029773593
 10
194.2120263698492
 20
16.1925338079349
 10
194.1708111001723
 20
16.20371204538111
 10
194.1782641540874
 20
16.15867056192124
 10
194.1742227952184
 20
16.11412278028144
 10
194.176171404964
 20
16.04223572621703
 10
194.1752364849758
 20
15.96168630588771
 10
194.176510719003
 20
15.88173995404994
 10
194.1732043793863
 20
15.80841837083183
 10
194.1802106179961
 20
15.76688643002568
 10
194.1701440380126
 20
15.72752418568113
 10
194.2029814803921
 20
15.73468063430981
 10
194.236457729648
 20
15.73027243137945
 10
194.2915053476019
 20
15.73217943347897
 10
194.3489502595314
 20
15.73185366407288
 10
194.4023026248309
 20
15.73106308733081
 10
194.4398540896638
 20
15.73313959118074
 10
194.4623172523237
 20
15.73022338167109
 10
194.4751678073731
 20
15.73572552644056
 10
194.4858255685888
 20
15.7380111819779
 10
194.4986635650143
 20
15.74494972588052
 10
194.5145991033071
 20
15.72853046313672
 10
194.5410623920891
 20
15.71709122319449
 10
194.5726805253757
 20
15.6964468783519
 10
194.5987255892151
 20
15.68116869628295
 10
194.6128517723973
 20
15.67266976323184
 10
194.6170254148479
 20
15.67015871511028
 97
        1
330
AC
 75
     1
 76
     2
 52
45.0
 41
0.1
 77
     0
 78
     1
 53
45.0
 43
0.0
 44
0.0
 45
-0.282842712474619
 46
0.0
 79
     0
 98
        1
 10
0.0
 20
0.0
  0
HATCH
  5
CA
330
48
100
AcDbEntity
  8
1
  6
Continuous
 62
     2
100
AcDbHatch
 10
0.0
 20
0.0
 30
0.0
210
0.0
220
0.0
230
1.0
  2
CUSTOM12
 70
     0
 71
     1
 91
        1
 92
        1
 93
        1
 72
     4
 94
        3
 73
     0
 74
     0
 95
      124
 96
      120
 40
0.0
 40
0.0
 40
0.0
 40
0.0
 40
0.0278187229624226
 40
0.1011590162383985
 40
0.2048470170589954
 40
0.3237088716558677
 40
0.4425707262521431
 40
0.5462587270698694
 40
0.6195990203311229
 40
0.6474177522577808
 40
0.6750060736114372
 40
0.7357003855241906
 40
0.7963946998053639
 40
0.8239830245570932
 40
0.8540933811102025
 40
0.9373396629408706
 40
1.063094687343151
 40
1.22073126863799
 40
1.399622220914664
 40
1.589140358637649
 40
1.778658496423815
 40
1.957549448940425
 40
2.115186030873075
 40
2.240941056914379
 40
2.324187341760449
 40
2.354297700109298
 40
2.381886024671805
 40
2.442580338710393
 40
2.503274652750417
 40
2.530862977314524
 40
2.560983949278477
 40
2.640393784452852
 40
2.752662861759075
 40
2.881361560118063
 40
3.010060258455167
 40
3.122329335705342
 40
3.201739170817928
 40
3.231860142753317
 40
3.264298024030373
 40
3.352343701778245
 40
3.482095226868769
 40
3.639650650173031
 40
3.811108022565485
 40
3.982565394927994
 40
4.140120818152575
 40
4.269872343141286
 40
4.357918020802349
 40
4.390355902043978
 40
4.423256253992547
 40
4.508104530073097
 40
4.624121560636865
 40
4.750528176031621
 40
4.866545206602097
 40
4.951393482692082
 40
4.984293834645483
 40
5.011450833242399
 40
5.071196230152187
 40
5.130941627057262
 40
5.158098625648928
 40
5.190998977601619
 40
5.275847253689444
 40
5.391864284256935
 40
5.51827089964848
 40
5.63428793020952
 40
5.719136206288193
 40
5.752036558236109
 40
5.782130946283135
 40
5.862783906229308
 40
5.979550131775176
 40
6.117984316640581
 40
6.263641154588128
 40
6.402075339414332
 40
6.518841564908128
 40
6.59949452481571
 40
6.629588912848948
 40
6.654403028226525
 40
6.713575149488263
 40
6.78419993932958
 40
6.843372060493626
 40
6.868186175802871
 40
6.89624624320196
 40
6.939586233758276
 40
6.967846564564904
 40
7.043584251089839
 40
7.153234334451699
 40
7.283231855734445
 40
7.420011856035477
 40
7.550009376579827
 40
7.659659458835226
 40
7.735397144417218
 40
7.76365747485139
 40
7.796409728011047
 40
7.880876065096321
 40
7.996370852465707
 40
8.122208446418602
 40
8.237703224799196
 40
8.322169562010918
 40
8.354921815205904
 40
8.382078813307684
 40
8.441824209206992
 40
8.50156960524014
 40
8.52872660348572
 40
8.561478856695741
 40
8.645945193877791
 40
8.761439980865331
 40
8.887277580764474
 40
9.002772362000995
 40
9.087238696661187
 40
9.11999094923567
 40
9.152428830613369
 40
9.240474508638584
 40
9.370226034149535
 40
9.527781457984421
 40
9.69923883098141
 40
9.870696203978602
 40
10.02825162781402
 40
10.15800315332564
 40
10.24604883135119
 40
10.27848670378522
 40
10.27848670378522
 40
10.27848670378522
 40
10.27848670378522
 10
195.3821827564384
 20
14.01410517385757
 10
195.3914554737524
 20
14.01410498511274
 10
195.4251744536861
 20
14.01410430876714
 10
195.4934706812466
 20
14.01411807243305
 10
195.592014171158
 20
14.01403224219544
 10
195.7062066464812
 20
14.01441755612251
 10
195.8185894417071
 20
14.01300835897545
 10
195.9214376600119
 20
14.01719117422243
 10
195.9806839874848
 20
14.00823089251983
 10
196.0371265937033
 20
14.0216443452606
 10
196.0246255586955
 20
13.97087198613361
 10
196.0329549635703
 20
13.92589320939067
 10
196.024817084112
 20
13.88056752990488
 10
196.0370529214457
 20
13.82931932408466
 10
195.9747773490333
 20
13.84447955365276
 10
195.9060513026868
 20
13.83359750710742
 10
195.7782756749592
 20
13.83911304747972
 10
195.6262984511643
 20
13.83700851253698
 10
195.4502695972523
 20
13.83771002588473
 10
195.2644431934287
 20
13.83745237531291
 10
195.0786167437175
 20
13.83771005144602
 10
194.9025880142168
 20
13.83700841847731
 10
194.7506104154195
 20
13.83911332229989
 10
194.6228357664554
 20
13.8335968076764
 10
194.554107783658
 20
13.84448077125942
 10
194.4918349042883
 20
13.82931786684209
 10
194.5040616290017
 20
13.88057510805171
 10
194.4960004462597
 20
13.92582473272425
 10
194.5040675809892
 20
13.97106357955323
 10
194.4918238487083
 20
14.02234176909958
 10
194.5525017120698
 20
14.00749577363135
 10
194.6162810745737
 20
14.01756448170735
 10
194.7277314353503
 20
14.01294644212
 10
194.8497533443823
 20
14.01413328905468
 10
194.9719538137824
 20
14.01515863900635
 10
195.0829794287393
 20
14.01092475623402
 10
195.1476517413959
 20
14.02018584521739
 10
195.2091162810502
 20
14.00604423049682
 10
195.1930065601338
 20
14.07235527884516
 10
195.2042980327359
 20
14.14447790121977
 10
195.1987400822561
 20
14.27513760888285
 10
195.2008035061691
 20
14.42607323708242
 10
195.2000167127295
 20
14.59335873107886
 10
195.2007845215628
 20
14.76061110332304
 10
195.1988038785629
 20
14.91163289269914
 10
195.2041306156622
 20
15.04206069552996
 10
195.1933101388425
 20
15.11465442605899
 10
195.2090326429876
 20
15.18150469436799
 10
195.143270813249
 20
15.16580512490825
 10
195.0756367830764
 20
15.17609243083996
 10
194.961588529381
 20
15.17113786847122
 10
194.8451242674903
 20
15.17414128030476
 10
194.7306554121477
 20
15.16880303143389
 10
194.6640324657812
 20
15.18001268074826
 10
194.5990769715186
 20
15.16349132665012
 10
194.6107989758707
 20
15.2147372047706
 10
194.6032830189121
 20
15.25950333784091
 10
194.6107989878836
 20
15.30426944897963
 10
194.5990769505346
 20
15.35551536129742
 10
194.66403263392
 20
15.33899381766816
 10
194.7306533339821
 20
15.35020571373945
 10
194.8451352858064
 20
15.34485436710665
 10
194.9615454436963
 20
15.34791188771118
 10
195.0757660174642
 20
15.34278499010709
 10
195.1430150439227
 20
15.353457333556
 10
195.2083325941439
 20
15.33742082669077
 10
195.1941391448553
 20
15.39949685750054
 10
195.2036059462997
 20
15.46586761628764
 10
195.1990269004085
 20
15.58239972741967
 10
195.2007696555949
 20
15.71426685022377
 10
195.1997551495392
 20
15.85615960150274
 10
195.2017191344373
 20
15.98769050702581
 10
195.1964668553851
 20
16.10524577283002
 10
195.2073408763475
 20
16.16947789001585
 10
195.1919536641854
 20
16.23108802545048
 10
195.2407591537801
 20
16.21702407382111
 10
195.2853995564726
 20
16.21954742075315
 10
195.3538643946742
 20
16.21512797401711
 10
195.3959106169102
 20
16.20613025544036
 10
195.4487544758775
 20
16.21411714866512
 10
195.4207035002014
 20
16.17113917611677
 10
195.3749142248595
 20
16.18259552043833
 10
195.3869539073266
 20
16.12173520005137
 10
195.3796086070642
 20
16.05769299468773
 10
195.3831195826162
 20
15.94909368863912
 10
195.3819806760174
 20
15.82494319144753
 10
195.3819174780264
 20
15.69189719829879
 10
195.3832872966868
 20
15.56797381249556
 10
195.3791638801315
 20
15.45868337849339
 10
195.3877763103564
 20
15.39608580094171
 10
195.3746757454403
 20
15.33740133296367
 10
195.4393884328199
 20
15.35362113810903
 10
195.5060405953157
 20
15.34270260383312
 10
195.6198779541103
 20
15.34793740173757
 10
195.7357259122097
 20
15.34485547516914
 10
195.8496924263281
 20
15.35018259812513
 10
195.9160341018099
 20
15.33904208166544
 10
195.9807188525481
 20
15.35546979593178
 10
195.9689820772723
 20
15.30425925210052
 10
195.9765168063042
 20
15.25950334121002
 10
195.9689820992258
 20
15.21474739010028
 10
195.9807188140738
 20
15.16353690871042
 10
195.9160344075253
 20
15.1799642779422
 10
195.8496886430826
 20
15.16882784447271
 10
195.7357459487013
 20
15.17413115893121
 10
195.6197995623055
 20
15.17114764593545
 10
195.5062756882124
 20
15.17606892268394
 10
195.4389231318805
 20
15.16585087513521
 10
195.3734285122496
 20
15.18145996138817
 10
195.3891713619218
 20
15.11463851827412
 10
195.3783275998215
 20
15.04207057815879
 10
195.3836581629793
 20
14.91162247614417
 10
195.3817136151856
 20
14.76064558185226
 10
195.3823133683214
 20
14.59322243934158
 10
195.3821506559606
 20
14.42656176118372
 10
195.3821895488136
 20
14.27360142921636
 10
195.38218164131
 20
14.14849178985705
 10
195.3821828382745
 20
14.0650789099142
 10
195.3821827716209
 20
14.02491778281976
 10
195.3821827564384
 20
14.01410517385757
 97
        1
330
AD
 75
     1
 76
     2
 52
45.0
 41
0.1
 77
     0
 78
     1
 53
45.0
 43
0.0
 44
0.0
 45
-0.282842712474619
 46
0.0
 79
     0
 98
        1
 10
0.0
 20
0.0
  0
HATCH
  5
CB
330
48
100
AcDbEntity
  8
1
  6
Continuous
 62
     2
100
AcDbHatch
 10
0.0
 20
0.0
 30
0.0
210
0.0
220
0.0
230
1.0
  2
CUSTOM13
 70
     0
 71
     1
 91
        1
 92
        1
 93
        3
 72
     4
 94
        3
 73
     0
 74
     0
 95
       24
 96
       20
 40
0.0
 40
0.0
 40
0.0
 40
0.0
 40
0.2211075008753741
 40
0.4273218586245485
 40
0.5080174679239264
 40
0.5914835907869643
 40
0.8143265690191956
 40
1.054651302686496
 40
1.295452694023093
 40
1.518109231328752
 40
1.540864321905339
 40
1.5951264606226
 40
1.659890947895914
 40
1.714153085187216
 40
1.736908174961517
 40
1.764951100735165
 40
1.801562291220725
 40
1.953914424543416
 40
2.126104167379511
 40
2.126104167379511
 40
2.126104167379511
 40
2.126104167379511
 10
185.9375369556889
 20
15.58989295113017
 10
185.9112579081812
 20
15.53097628234374
 10
185.8604698894426
 20
15.41711139679254
 10
185.8131784839112
 20
15.14441958233116
 10
185.7043482802617
 20
15.24445482575453
 10
185.5514800279639
 20
15.27118593367335
 10
185.7686155181199
 20
15.48518135017632
 10
185.7838483674381
 20
15.70332117782488
 10
185.8906889492001
 20
15.88451579066424
 10
185.8305380947077
 20
16.16913226311402
 10
185.9334317395403
 20
16.14114089222451
 10
185.977993346815
 20
16.13243251602299
 10
186.0380842395397
 20
16.12139654183356
 10
186.0756619587439
 20
16.10767523055559
 10
186.1252466928606
 20
16.10756076160223
 10
186.0930158919326
 20
16.07306592398623
 10
186.0171802221882
 20
16.08404104537966
 10
186.0429447159694
 20
15.89858969582449
 10
186.0055896763849
 20
15.80702313549588
 10
185.9857704961609
 20
15.75844135397705
 72
     4
 94
        3
 73
     0
 74
     0
 95
       70
 96
       66
 40
0.0
 40
0.0
 40
0.0
 40
0.0
 40
0.0241731073021472
 40
0.0846058988987013
 40
0.1631685280353284
 40
0.2417311571789756
 40
0.3021639488292751
 40
0.3263370654895541
 40
0.3533118254248881
 40
0.4228783438922111
 40
0.5179999095313402
 40
0.6216398239466102
 40
0.7167613891499706
 40
0.7863279069649863
 40
0.8133026791761836
 40
0.8372943998771674
 40
0.8945054261372869
 40
0.9627895541962639
 40
1.020000580349074
 40
1.043992300975172
 40
1.071934345522887
 40
1.113121768772927
 40
1.145225199332251
 40
1.225483775412786
 40
1.329819923771495
 40
1.434156071994385
 40
1.514414647795806
 40
1.546518078208414
 40
1.578974764260187
 40
1.662678849314182
 40
1.777131373668431
 40
1.901833377474851
 40
2.016285900500669
 40
2.099989982528036
 40
2.132446666570395
 40
2.158782354486117
 40
2.216720867907907
 40
2.274659381334331
 40
2.300995069256265
 40
2.333451754066237
 40
2.417155836543946
 40
2.531608358985385
 40
2.656310362283909
 40
2.770762886389041
 40
2.854466971340235
 40
2.886923657364041
 40
2.913597976833475
 40
2.982389642875277
 40
3.07645171694714
 40
3.178937260458752
 40
3.272999334740154
 40
3.341791001059373
 40
3.368465320663686
 40
3.396976080738907
 40
3.472140811846143
 40
3.578408190308833
 40
3.700226892456269
 40
3.822045594634486
 40
3.928312973256593
 40
4.003477705314991
 40
4.031988456867056
 40
4.058324144797856
 40
4.116262658237021
 40
4.174201171400824
 40
4.200536849608758
 40
4.200536849608758
 40
4.200536849608758
 40
4.200536849608758
 10
185.9857704961609
 20
15.75844135397705
 10
185.9938259544679
 20
15.75844359811686
 10
186.0220200663241
 20
15.75845146032798
 10
186.0765534803672
 20
15.75830754828372
 10
186.1482891808604
 20
15.75909120499898
 10
186.2236240137062
 20
15.75627570463811
 10
186.2713052366438
 20
15.76298403400957
 10
186.3195071245616
 20
15.75197563692433
 10
186.3062571799873
 20
15.80546402997033
 10
186.3151093964539
 20
15.86049583543092
 10
186.3108698036285
 20
15.95419908726109
 10
186.313348348128
 20
16.04959482218532
 10
186.309093870606
 20
16.14356821983387
 10
186.3179818665846
 20
16.19795062438012
 10
186.3046977409945
 20
16.25233997691461
 10
186.3514119277109
 20
16.23842216335358
 10
186.3943254545736
 20
16.24103877374043
 10
186.4605443456685
 20
16.23648422450755
 10
186.5013342271798
 20
16.22778162134161
 10
186.5525145690818
 20
16.23531799890195
 10
186.5253720487201
 20
16.19349970223284
 10
186.4803096055707
 20
16.20284992072597
 10
186.4942065045051
 20
16.13841207371837
 10
186.4858414431653
 20
16.07378219627399
 10
186.4903632178398
 20
15.97529141193888
 10
186.4854741311167
 20
15.8759593284257
 10
186.4950258992082
 20
15.81293115552969
 10
186.47997614552
 20
15.74964011499788
 10
186.5449159457208
 20
15.76515072944269
 10
186.6116246399497
 20
15.75499387697812
 10
186.7241435470828
 20
15.75988800099367
 10
186.8390235448954
 20
15.75691204732784
 10
186.9519871999747
 20
15.76221664184991
 10
187.0176267597679
 20
15.7510730647209
 10
187.0816276691054
 20
15.76744532319857
 10
187.070314288919
 20
15.71761689905275
 10
187.0775339871511
 20
15.67416715212123
 10
187.070314261127
 20
15.63071745587445
 10
187.0816277175995
 20
15.58088895196876
 10
187.0176263598972
 20
15.59726166091362
 10
186.951992124046
 20
15.58611271661587
 10
186.8389974317332
 20
15.59144857206855
 10
186.7242456548643
 20
15.58834345663821
 10
186.6113183686861
 20
15.59364894682589
 10
186.5455220903584
 20
15.58257300019593
 10
186.4816097975358
 20
15.59887597847618
 10
186.4936015165125
 20
15.54423524395741
 10
186.4862104613006
 20
15.48854295047843
 10
186.4892684841982
 20
15.39649689140569
 10
186.4893422785683
 20
15.30179109873102
 10
186.4860313578359
 20
15.20952782902266
 10
186.4939505989903
 20
15.1543576873614
 10
186.4815076611617
 20
15.10058169100137
 10
186.5389116551632
 20
15.11453768862782
 10
186.5994708140382
 20
15.10511457884227
 10
186.7048680855081
 20
15.10942885928705
 10
186.8204294070622
 20
15.10835504612032
 10
186.9359688877797
 20
15.10725965900996
 10
187.0414181130841
 20
15.11162525770633
 10
187.1018680471804
 20
15.10209426030672
 10
187.159283773911
 20
15.1161728960638
 10
187.1477773876709
 20
15.06707153265684
 10
187.153756678175
 20
15.02564658018649
 10
187.1520311050801
 20
14.97651677966696
 10
187.1521500122971
 20
14.94854428447608
 10
187.1521871691833
 20
14.9398028819595
 72
     4
 94
        3
 73
     0
 74
     0
 95
       62
 96
       58
 40
0.0
 40
0.0
 40
0.0
 40
0.0
 40
0.0598250028308485
 40
0.2024846486897331
 40
0.3727558389221031
 40
0.515415484793607
 40
0.5752404975785339
 40
0.9332326775487232
 40
1.290451762839493
 40
1.602077253145936
 40
1.699931634112232
 40
1.799359756425168
 40
2.270120149657206
 40
2.804661928461659
 40
2.882342287383368
 40
3.076543185719219
 40
3.329004354835678
 40
3.581465524568504
 40
3.775666424543784
 40
3.853346784558404
 40
3.89912067959515
 40
3.984129341792148
 40
4.029903236817496
 40
4.105797496059653
 40
4.295533144152612
 40
4.542189486611854
 40
4.7888458288758
 40
4.978581476410186
 40
5.054475735244429
 40
5.621734664339447
 40
6.130867242037397
 40
6.225249780948695
 40
6.318913039727393
 40
6.663579954559011
 40
7.047498900224859
 40
7.435230791575791
 40
7.498943906668203
 40
7.65087518121014
 40
7.832212509001622
 40
7.984143783697008
 40
8.047856898903134
 40
8.091554632732644
 40
8.172707566964306
 40
8.21640530076803
 40
8.289021782160887
 40
8.462184160757232
 40
8.668861838005341
 40
8.842024215263876
 40
8.914640695475072
 40
8.989881580861278
 40
9.15541152882718
 40
9.320941477743961
 40
9.39618235248721
 40
9.454709011143757
 40
9.583467660170692
 40
9.712226309012971
 40
9.770752957989425
 40
9.770752957989425
 40
9.770752957989425
 40
9.770752957989425
 10
187.1521871691833
 20
14.9398028819595
 10
187.1322348171623
 20
14.93980875568671
 10
187.0647037716466
 20
14.93982863806157
 10
186.9410612161788
 20
14.93949362520326
 10
186.7863180150056
 20
14.94107673750512
 10
186.669734948248
 20
14.93686078860495
 10
186.455094263424
 20
14.95215205331626
 10
186.8518948407229
 20
14.59198721286191
 10
186.8945656069268
 20
14.37510503397166
 10
187.3189162146613
 20
14.19325062511443
 10
187.1439821496074
 20
14.08985196568073
 10
187.0194523925084
 20
13.87831523212725
 10
186.7666277235943
 20
14.34806081001561
 10
186.4797602893627
 20
14.99511516984521
 10
186.4906335926659
 20
14.68782672154693
 10
186.488289277796
 20
14.52288616971778
 10
186.4861096126411
 20
14.28879670711693
 10
186.4980774396346
 20
14.04498072421783
 10
186.468798474063
 20
13.89855796860985
 10
186.511452262547
 20
13.75113490174538
 10
186.4239814005639
 20
13.7668579730622
 10
186.3768527606744
 20
13.76694303543455
 10
186.2898973207713
 20
13.75109425482909
 10
186.3313474021722
 20
13.89527771422762
 10
186.3029875004285
 20
14.03855052698456
 10
186.3145973775299
 20
14.27674947365264
 10
186.3124175648272
 20
14.50517235240346
 10
186.3103111127993
 20
14.66705729375994
 10
186.3208035438325
 20
14.98153709333752
 10
186.0128963252893
 20
14.29229470872435
 10
185.7055258267457
 20
13.81476750243064
 10
185.5851367066274
 20
14.03741112637424
 10
185.4074607910722
 20
14.1501103495557
 10
185.8853326362894
 20
14.3254814346546
 10
185.9353959057208
 20
14.56091929252031
 10
186.3583799621717
 20
14.95322989344607
 10
186.127675427354
 20
14.93655307029066
 10
186.0049685859341
 20
14.94269518948771
 10
185.8325483095663
 20
14.93312822699574
 10
185.721322469445
 20
14.95448818489665
 10
185.6025779627448
 20
14.9213626535742
 10
185.6183169706686
 20
15.00203900606884
 10
185.6178550933763
 20
15.04645414290854
 10
185.6027881889932
 20
15.12967081778533
 10
185.7372380935444
 20
15.09062651983884
 10
185.8619755545747
 20
15.11739729328423
 10
186.0628755237279
 20
15.10063949044053
 10
186.1921540949353
 20
15.12204225913005
 10
186.3328419928294
 20
15.08868778853421
 10
186.2980927452615
 20
15.22651875785069
 10
186.3222185666713
 20
15.34963257349481
 10
186.2967086182393
 20
15.47024055670336
 10
186.3333251146684
 20
15.60539865141495
 10
186.2211417027769
 20
15.58094545781891
 10
186.1280356457136
 20
15.59307749842022
 10
186.0191547579819
 20
15.58957630069994
 10
185.9569697640964
 20
15.58981755951603
 10
185.9375369557246
 20
15.58989295124144
 97
        3
330
AF
330
B0
330
AE
 75
     1
 76
     2
 52
45.0
 41
0.1
 77
     0
 78
     1
 53
45.0
 43
0.0
 44
0.0
 45
-0.282842712474619
 46
0.0
 79
     0
 98
        1
 10
0.0
 20
0.0
  0
HATCH
  5
CC
330
48
100
AcDbEntity
  8
1
  6
Continuous
 62
     2
100
AcDbHatch
 10
0.0
 20
0.0
 30
0.0
210
0.0
220
0.0
230
1.0
  2
CUSTOM14
 70
     0
 71
     1
 91
        1
 92
        1
 93
        4
 72
     1
 10
192.4578138032672
 20
15.22875434022058
 11
191.1602971697032
 21
15.22875434022058
 72
     1
 10
191.1602971697032
 20
15.22875434022058
 11
191.1602971697032
 21
15.39722336795626
 72
     1
 10
191.1602971697032
 20
15.39722336795626
 11
192.4578138032672
 21
15.39722336795626
 72
     1
 10
192.4578138032672
 20
15.39722336795626
 11
192.4578138032672
 21
15.22875434022058
 97
        1
330
B1
 75
     1
 76
     2
 52
45.0
 41
0.1
 77
     0
 78
     1
 53
45.0
 43
0.0
 44
0.0
 45
-0.282842712474619
 46
0.0
 79
     0
 98
        1
 10
0.0
 20
0.0
  0
ENDBLK
  5
4A
330
48
100
AcDbEntity
  8
0
100
AcDbBlockEnd
  0
BLOCK
  5
4D
330
4B
100
AcDbEntity
  8
0
100
AcDbBlockBegin
  2
開示A4枠
 70
     0
 10
0.0
 20
0.0
 30
0.0
  3
開示A4枠
  1

  0
INSERT
  5
4C
330
4B
100
AcDbEntity
  8
1
100
AcDbBlockReference
  2
開示A4
 10
0.0
 20
0.0
 30
0.0
  0
ENDBLK
  5
4E
330
4B
100
AcDbEntity
  8
0
100
AcDbBlockEnd
  0
BLOCK
  5
EF
330
E8
100
AcDbEntity
  8
0
100
AcDbBlockBegin
  2
*D3
 70
     1
 10
0.0
 20
0.0
 30
0.0
  3
*D3
  1

  0
LINE
  5
E9
330
E8
100
AcDbEntity
  8
0
  6
Continuous
 62
     2
100
AcDbLine
 10
152.6357911385023
 20
92.0702186326119
 30
0.0
 11
152.6357911385023
 21
129.0702186326119
 31
0.0
  0
LINE
  5
EA
330
E8
100
AcDbEntity
  8
0
  6
Continuous
 62
     2
100
AcDbLine
 10
136.6357911385023
 20
129.0702186326119
 30
0.0
 11
153.6357911385023
 21
129.0702186326119
 31
0.0
  0
LINE
  5
EB
330
E8
100
AcDbEntity
  8
0
  6
Continuous
 62
     2
100
AcDbLine
 10
143.6357911385023
 20
92.0702186326119
 30
0.0
 11
153.6357911385023
 21
92.0702186326119
 31
0.0
  0
SOLID
  5
EC
330
E8
100
AcDbEntity
  8
0
 62
     2
100
AcDbTrace
 10
152.1750073969464
 20
95.5702186326119
 30
0.0
 11
153.0965748800582
 21
95.5702186326119
 31
0.0
 12
152.6357911385023
 22
92.0702186326119
 32
0.0
 13
152.6357911385023
 23
92.0702186326119
 33
0.0
  0
SOLID
  5
ED
330
E8
100
AcDbEntity
  8
0
 62
     2
100
AcDbTrace
 10
153.0965748800582
 20
125.5702186326119
 30
0.0
 11
152.1750073969464
 21
125.5702186326119
 31
0.0
 12
152.6357911385023
 22
129.0702186326119
 32
0.0
 13
152.6357911385023
 23
129.0702186326119
 33
0.0
  0
MTEXT
  5
EE
330
E8
100
AcDbEntity
  8
0
 62
     7
100
AcDbMText
 10
151.6357911385023
 20
107.5709292035401
 30
0.0
 40
3.5
 41
0.0
 71
     7
 72
     1
  1
37
  7
CONVERTER_12
 11
0.0
 21
1.0
 31
0.0
 73
     1
 44
0.60024009603842
  0
ENDBLK
  5
F0
330
E8
100
AcDbEntity
  8
0
100
AcDbBlockEnd
  0
BLOCK
  5
FA
330
F3
100
AcDbEntity
  8
0
100
AcDbBlockBegin
  2
*D4
 70
     1
 10
0.0
 20
0.0
 30
0.0
  3
*D4
  1

  0
LINE
  5
F4
330
F3
100
AcDbEntity
  8
0
  6
Continuous
 62
     2
100
AcDbLine
 10
75.63579113850233
 20
83.0702186326119
 30
0.0
 11
143.6357911385024
 21
83.0702186326119
 31
0.0
  0
LINE
  5
F5
330
F3
100
AcDbEntity
  8
0
  6
Continuous
 62
     2
100
AcDbLine
 10
143.6357911385024
 20
92.07021863261188
 30
0.0
 11
143.6357911385024
 21
82.0702186326119
 31
0.0
  0
LINE
  5
F6
330
F3
100
AcDbEntity
  8
0
  6
Continuous
 62
     2
100
AcDbLine
 10
75.63579113850233
 20
92.07021863261188
 30
0.0
 11
75.63579113850233
 21
82.0702186326119
 31
0.0
  0
SOLID
  5
F7
330
F3
100
AcDbEntity
  8
0
 62
     2
100
AcDbTrace
 10
79.13579113850233
 20
83.53100237416778
 30
0.0
 11
79.13579113850233
 21
82.60943489105601
 31
0.0
 12
75.63579113850233
 22
83.0702186326119
 32
0.0
 13
75.63579113850233
 23
83.0702186326119
 33
0.0
  0
SOLID
  5
F8
330
F3
100
AcDbEntity
  8
0
 62
     2
100
AcDbTrace
 10
140.1357911385024
 20
82.60943489105601
 30
0.0
 11
140.1357911385024
 21
83.53100237416778
 31
0.0
 12
143.6357911385024
 22
83.0702186326119
 32
0.0
 13
143.6357911385024
 23
83.0702186326119
 33
0.0
  0
MTEXT
  5
F9
330
F3
100
AcDbEntity
  8
0
 62
     7
100
AcDbMText
 10
108.3765822742153
 20
84.07021167553557
 30
0.0
 40
3.5
 41
0.0
 71
     7
 72
     1
  1
\C7;{\Fgdt;n}\C7;68
  7
CONVERTER_12
 11
0.9999999999970619
 21
2.424068405545306E-6
 31
0.0
 73
     1
 44
0.60024009603842
  0
ENDBLK
  5
FB
330
F3
100
AcDbEntity
  8
0
100
AcDbBlockEnd
  0
BLOCK
  5
103
330
FE
100
AcDbEntity
  8
0
100
AcDbBlockBegin
  2
*D5
 70
     1
 10
0.0
 20
0.0
 30
0.0
  3
*D5
  1

  0
LINE
  5
FF
330
FE
100
AcDbEntity
  8
1
  6
Continuous
 62
     2
100
AcDbLine
 10
95.93554625947324
 20
187.7039309773693
 30
0.0
 11
127.08308247148
 21
205.3680025100444
 31
0.0
  0
SOLID
  5
100
330
FE
100
AcDbEntity
  8
1
 62
     2
100
AcDbTrace
 10
121.586479992793
 20
202.7805493072642
 30
0.0
 11
122.0410931802632
 21
201.9789175490939
 31
0.0
 12
118.7692877245216
 22
200.6531684339661
 32
0.0
 13
118.7692877245216
 23
200.6531684339661
 33
0.0
  0
SOLID
  5
101
330
FE
100
AcDbEntity
  8
1
 62
     2
100
AcDbTrace
 10
97.68510228421155
 20
188.1663975953907
 30
0.0
 11
97.23048909674135
 21
188.9680293535609
 31
0.0
 12
100.5022945524829
 22
190.2937784686887
 32
0.0
 13
100.5022945524829
 23
190.2937784686887
 33
0.0
  0
MTEXT
  5
102
330
FE
100
AcDbEntity
  8
1
 62
     7
100
AcDbMText
 10
120.620702042506
 20
202.4313681202993
 30
0.0
 40
3.5
 41
0.0
 71
     7
 72
     1
  1
\C7;{\Fgdt;n}\C7;21
  7
CONVERTER_12
 11
0.8698568177161297
 21
0.4933042840608301
 31
0.0
 73
     1
 44
0.60024009603842
  0
ENDBLK
  5
104
330
FE
100
AcDbEntity
  8
0
100
AcDbBlockEnd
  0
ENDSEC
  0
SECTION
  2
ENTITIES
  0
INSERT
  5
4F
330
1F
100
AcDbEntity
  8
0
100
AcDbBlockReference
  2
開示A4枠
 10
0.0
 20
0.0
 30
0.0
  0
LINE
  5
CD
330
1F
100
AcDbEntity
  8
0
  6
Continuous
 62
     7
100
AcDbLine
 10
97.76245006084191
 20
129.0702186326119
 30
0.0
 11
121.1357911385022
 21
129.0702186326119
 31
0.0
  0
LINE
  5
CE
330
1F
100
AcDbEntity
  8
1
  6
Continuous
 62
     7
100
AcDbLine
 10
82.63579113850226
 20
129.0702186326119
 30
0.0
 11
97.76245006084191
 21
129.0702186326119
 31
0.0
  0
LINE
  5
CF
330
1F
100
AcDbEntity
  8
1
  6
Continuous
 62
     7
100
AcDbLine
 10
143.6357911385023
 20
92.0702186326119
 30
0.0
 11
143.1357911385023
 21
92.0702186326119
 31
0.0
  0
LINE
  5
D0
330
1F
100
AcDbEntity
  8
1
  6
Continuous
 62
     7
100
AcDbLine
 10
143.1357911385023
 20
92.0702186326119
 30
0.0
 11
75.63579113850226
 21
92.0702186326119
 31
0.0
  0
LINE
  5
D1
330
1F
100
AcDbEntity
  8
1
  6
Continuous
 62
     7
100
AcDbLine
 10
75.63579113850226
 20
92.0702186326119
 30
0.0
 11
75.63579113850226
 21
122.0702186326119
 31
0.0
  0
LINE
  5
D2
330
1F
100
AcDbEntity
  8
1
  6
Continuous
 62
     7
100
AcDbLine
 10
121.1357911385022
 20
129.0702186326119
 30
0.0
 11
136.6357911385023
 21
129.0702186326119
 31
0.0
  0
LINE
  5
D3
330
1F
100
AcDbEntity
  8
1
  6
Continuous
 62
     7
100
AcDbLine
 10
143.6357911385023
 20
122.0702186326119
 30
0.0
 11
143.6357911385023
 21
92.0702186326119
 31
0.0
  0
LINE
  5
D4
330
1F
100
AcDbEntity
  8
1
  6
DASH_CENTER
 62
     2
100
AcDbLine
 10
109.6357911385023
 20
89.0702186326119
 30
0.0
 11
109.6357911385023
 21
132.0702186326119
 31
0.0
  0
LINE
  5
D5
330
1F
100
AcDbEntity
  8
1
  6
DASH_CENTER
 62
     2
100
AcDbLine
 10
74.13579113850226
 20
195.4734734513274
 30
0.0
 11
145.1357911385023
 21
195.4734734513274
 31
0.0
  0
LINE
  5
D6
330
1F
100
AcDbEntity
  8
1
  6
DASH_CENTER
 62
     2
100
AcDbLine
 10
109.6357911385023
 20
159.9734734513274
 30
0.0
 11
109.6357911385023
 21
230.9734734513274
 31
0.0
  0
CIRCLE
  5
D7
330
1F
100
AcDbEntity
  8
1
  6
Continuous
 62
     7
100
AcDbCircle
 10
109.6357911385023
 20
195.4734734513274
 30
0.0
 40
32.5
  0
CIRCLE
  5
D8
330
1F
100
AcDbEntity
  8
1
  6
Continuous
 62
     7
100
AcDbCircle
 10
109.6357911385023
 20
195.4734734513274
 30
0.0
 40
10.5
  0
ARC
  5
D9
330
1F
100
AcDbEntity
  8
1
  6
Continuous
 62
     7
100
AcDbCircle
 10
82.63579113850226
 20
122.0702186326119
 30
0.0
 40
7.0
100
AcDbArc
 50
90.0
 51
180.0
  0
ARC
  5
DA
330
1F
100
AcDbEntity
  8
1
  6
Continuous
 62
     7
100
AcDbCircle
 10
136.6357911385023
 20
122.0702186326119
 30
0.0
 40
7.0
100
AcDbArc
 50
0.0
 51
90.0
  0
MTEXT
  5
DC
330
1F
100
AcDbEntity
  8
1
 62
     7
100
AcDbMText
 10
157.5
 20
12.5
 30
0.0
 40
2.5
 41
0.0
 71
     5
 72
     1
  1
3
  7
CONVERTER_12
 73
     1
 44
0.7202881152461
  0
MTEXT
  5
DD
330
1F
100
AcDbEntity
  8
1
 62
     7
100
AcDbMText
 10
151.75
 20
12.5
 30
0.0
 40
2.5
 41
0.0
 71
     5
 72
     1
  1
04
  7
CONVERTER_12
 73
     1
 44
0.7202881152461
  0
MTEXT
  5
DE
330
1F
100
AcDbEntity
  8
1
 62
     7
100
AcDbMText
 10
140.5
 20
12.5
 30
0.0
 40
2.5
 41
0.0
 71
     5
 72
     1
  1
3
  7
CONVERTER_12
 73
     1
 44
0.7202881152461
  0
MTEXT
  5
DF
330
1F
100
AcDbEntity
  8
1
 62
     7
100
AcDbMText
 10
134.75
 20
12.5
 30
0.0
 40
2.5
 41
0.0
 71
     5
 72
     1
  1
04
  7
CONVERTER_12
 73
     1
 44
0.7202881152461
  0
MTEXT
  5
E0
330
1F
100
AcDbEntity
  8
1
 62
     7
100
AcDbMText
 10
123.5
 20
12.5
 30
0.0
 40
2.5
 41
0.0
 71
     5
 72
     1
  1
3
  7
CONVERTER_12
 73
     1
 44
0.7202881152461
  0
MTEXT
  5
E1
330
1F
100
AcDbEntity
  8
1
 62
     7
100
AcDbMText
 10
117.75
 20
12.5
 30
0.0
 40
2.5
 41
0.0
 71
     5
 72
     1
  1
04
  7
CONVERTER_12
 73
     1
 44
0.7202881152461
  0
MTEXT
  5
E2
330
1F
100
AcDbEntity
  8
1
 62
     7
100
AcDbMText
 10
100.75
 20
12.5
 30
0.0
 40
2.5
 41
0.0
 71
     5
 72
     1
  1
04
  7
CONVERTER_12
 73
     1
 44
0.7202881152461
  0
MTEXT
  5
E3
330
1F
100
AcDbEntity
  8
1
 62
     7
100
AcDbMText
 10
106.5
 20
12.5
 30
0.0
 40
2.5
 41
0.0
 71
     5
 72
     1
  1
3
  7
CONVERTER_12
 73
     1
 44
0.7202881152461
  0
MTEXT
  5
E4
330
1F
100
AcDbEntity
  8
1
 62
     7
100
AcDbMText
 10
93.75000000000001
 20
17.0
 30
0.0
 40
3.5
 41
0.0
 71
     5
 72
     1
  1
1
  7
CONVERTER_12
 73
     1
 44
0.7202881152461
  0
MTEXT
  5
E5
330
1F
100
AcDbEntity
  8
1
 62
     7
100
AcDbMText
 10
57.00000000000001
 20
14.25
 30
0.0
 40
3.5
 41
0.0
 71
     5
 72
     1
  1
R530
  7
CONVERTER_12
 73
     1
 44
0.7202881152461
  0
MTEXT
  5
E6
330
1F
100
AcDbEntity
  8
1
 62
     7
100
AcDbMText
 10
57.00000000000001
 20
22.75000000000002
 30
0.0
 40
3.5
 41
0.0
 71
     5
 72
     1
  1
PCワン座
  7
CONVERTER_11
 73
     1
 44
0.54545454545455
  0
MTEXT
  5
E7
330
1F
100
AcDbEntity
  8
1
 62
     7
100
AcDbMText
 10
85.25000000000001
 20
17.0
 30
0.0
 40
3.5
 41
0.0
 71
     5
 72
     1
  1
1
  7
CONVERTER_12
 73
     1
 44
0.7202881152461
  0
DIMENSION
  5
F2
330
1F
100
AcDbEntity
  8
0
100
AcDbDimension
  2
*D3
 10
152.6357911385023
 20
92.0702186326119
 30
0.0
 11
149.8857911385023
 21
110.1959292035401
 31
0.0
 70
    32
  1
<>
 71
     5
 42
-1.0
 53
90.0
  3
ME10_DIM_10
100
AcDbAlignedDimension
 13
136.6357911385023
 23
129.0702186326119
 33
0.0
 14
143.6357911385023
 24
92.0702186326119
 34
0.0
 50
90.0
100
AcDbRotatedDimension
  0
DIMENSION
  5
FD
330
1F
100
AcDbEntity
  8
0
100
AcDbDimension
  2
*D4
 10
75.63579113850233
 20
83.0702186326119
 30
0.0
 11
111.7715822742069
 21
85.8202186326119
 31
0.0
 70
    33
  1
<>
 71
     5
 42
-1.0
 53
0.00013888888889
  3
ME10_DIM_11
100
AcDbAlignedDimension
 13
143.6357911385023
 23
92.0702186326119
 33
0.0
 14
75.63579113850226
 24
92.0702186326119
 34
0.0
  0
INSERT
  5
105
330
1F
100
AcDbEntity
  8
1
100
AcDbBlockReference
  2
*D5
 10
0.0
 20
0.0
 30
0.0
  0
ENDSEC
  0
SECTION
  2
OBJECTS
  0
DICTIONARY
  5
C
330
0
100
AcDbDictionary
281
     1
  3
ACAD_GROUP
350
D
  3
ACAD_LAYOUT
350
1A
  3
ACAD_MATERIAL
350
3B
  3
ACAD_MLEADERSTYLE
350
108
  3
ACAD_MLINESTYLE
350
17
  3
ACAD_PLOTSETTINGS
350
19
  3
ACAD_PLOTSTYLENAME
350
E
  3
ACAD_VISUALSTYLE
350
2A
  3
AcDbVariableDictionary
350
106
  0
DICTIONARY
  5
D
102
{ACAD_REACTORS
330
C
102
}
330
C
100
AcDbDictionary
281
     1
  0
DICTIONARY
  5
1A
102
{ACAD_REACTORS
330
C
102
}
330
C
100
AcDbDictionary
281
     1
  3
Layout1
350
1E
  3
Layout2
350
26
  3
Model
350
22
  0
DICTIONARY
  5
3B
102
{ACAD_REACTORS
330
C
102
}
330
C
100
AcDbDictionary
281
     1
  3
ByBlock
350
3D
  3
ByLayer
350
3C
  3
Global
350
3E
  0
DICTIONARY
  5
108
102
{ACAD_REACTORS
330
C
102
}
330
C
100
AcDbDictionary
281
     1
  0
DICTIONARY
  5
17
102
{ACAD_REACTORS
330
C
102
}
330
C
100
AcDbDictionary
281
     1
  3
Standard
350
18
  0
DICTIONARY
  5
19
102
{ACAD_REACTORS
330
C
102
}
330
C
100
AcDbDictionary
281
     1
  0
ACDBDICTIONARYWDFLT
  5
E
102
{ACAD_REACTORS
330
C
102
}
330
C
100
AcDbDictionary
281
     1
  3
Normal
350
F
100
AcDbDictionaryWithDefault
340
F
  0
DICTIONARY
  5
2A
102
{ACAD_REACTORS
330
C
102
}
330
C
100
AcDbDictionary
281
     1
  3
2dWireframe
350
2F
  3
3D Hidden
350
31
  3
3dWireframe
350
30
  3
Basic
350
32
  3
Brighten
350
36
  3
ColorChange
350
3A
  3
Conceptual
350
34
  3
Dim
350
35
  3
Facepattern
350
39
  3
Flat
350
2B
  3
FlatWithEdges
350
2C
  3
Gouraud
350
2D
  3
GouraudWithEdges
350
2E
  3
Linepattern
350
38
  3
Realistic
350
33
  3
Thicken
350
37
  0
DICTIONARY
  5
106
102
{ACAD_REACTORS
330
C
102
}
330
C
100
AcDbDictionary
281
     1
  3
DIMASSOC
350
109
  3
HIDETEXT
350
10A
  0
LAYOUT
  5
1E
102
{ACAD_REACTORS
330
1A
102
}
330
1A
100
AcDbPlotSettings
  1

  2
none_device
  4

  6

 40
0.0
 41
0.0
 42
0.0
 43
0.0
 44
0.0
 45
0.0
 46
0.0
 47
0.0
 48
0.0
 49
0.0
140
0.0
141
0.0
142
1.0
143
1.0
 70
   688
 72
     0
 73
     0
 74
     5
  7

 75
    16
147
1.0
148
0.0
149
0.0
100
AcDbLayout
  1
Layout1
 70
     1
 71
     1
 10
0.0
 20
0.0
 11
12.0
 21
9.0
 12
0.0
 22
0.0
 32
0.0
 14
1.00000000000000E+20
 24
1.00000000000000E+20
 34
1.00000000000000E+20
 15
-1.00000000000000E+20
 25
-1.00000000000000E+20
 35
-1.00000000000000E+20
146
0.0
 13
0.0
 23
0.0
 33
0.0
 16
1.0
 26
0.0
 36
0.0
 17
0.0
 27
1.0
 37
0.0
 76
     0
330
1B
  0
LAYOUT
  5
26
102
{ACAD_REACTORS
330
1A
102
}
330
1A
100
AcDbPlotSettings
  1

  2
none_device
  4

  6

 40
0.0
 41
0.0
 42
0.0
 43
0.0
 44
0.0
 45
0.0
 46
0.0
 47
0.0
 48
0.0
 49
0.0
140
0.0
141
0.0
142
1.0
143
1.0
 70
   688
 72
     0
 73
     0
 74
     5
  7

 75
    16
147
1.0
148
0.0
149
0.0
100
AcDbLayout
  1
Layout2
 70
     1
 71
     2
 10
0.0
 20
0.0
 11
0.0
 21
0.0
 12
0.0
 22
0.0
 32
0.0
 14
0.0
 24
0.0
 34
0.0
 15
0.0
 25
0.0
 35
0.0
146
0.0
 13
0.0
 23
0.0
 33
0.0
 16
1.0
 26
0.0
 36
0.0
 17
0.0
 27
1.0
 37
0.0
 76
     0
330
23
  0
LAYOUT
  5
22
102
{ACAD_REACTORS
330
1A
102
}
330
1A
100
AcDbPlotSettings
  1

  2
none_device
  4

  6

 40
0.0
 41
0.0
 42
0.0
 43
0.0
 44
0.0
 45
0.0
 46
0.0
 47
0.0
 48
0.0
 49
0.0
140
0.0
141
0.0
142
1.0
143
1.0
 70
  1712
 72
     0
 73
     0
 74
     0
  7

 75
     0
147
1.0
148
0.0
149
0.0
100
AcDbLayout
  1
Model
 70
     1
 71
     0
 10
0.0
 20
0.0
 11
12.0
 21
9.0
 12
0.0
 22
0.0
 32
0.0
 14
0.0
 24
0.0
 34
0.0
 15
210.0
 25
297.0
 35
0.0
146
0.0
 13
0.0
 23
0.0
 33
0.0
 16
1.0
 26
0.0
 36
0.0
 17
0.0
 27
1.0
 37
0.0
 76
     0
330
1F
331
29
  0
MATERIAL
  5
3D
102
{ACAD_REACTORS
330
3B
102
}
102
{ACAD_XDICTIONARY
360
12D
102
}
330
3B
100
AcDbMaterial
  1
ByBlock
  0
MATERIAL
  5
3C
102
{ACAD_REACTORS
330
3B
102
}
102
{ACAD_XDICTIONARY
360
12B
102
}
330
3B
100
AcDbMaterial
  1
ByLayer
  0
MATERIAL
  5
3E
102
{ACAD_REACTORS
330
3B
102
}
102
{ACAD_XDICTIONARY
360
12F
102
}
330
3B
100
AcDbMaterial
  1
Global
  0
MLINESTYLE
  5
18
102
{ACAD_REACTORS
330
17
102
}
330
17
100
AcDbMlineStyle
  2
Standard
 70
     0
  3

 62
   256
 51
90.0
 52
90.0
 71
     2
 49
0.5
 62
   256
  6
BYLAYER
 49
-0.5
 62
   256
  6
BYLAYER
  0
ACDBPLACEHOLDER
  5
F
102
{ACAD_REACTORS
330
E
102
}
330
E
  0
VISUALSTYLE
  5
2F
102
{ACAD_REACTORS
330
2A
102
}
102
{ACAD_XDICTIONARY
360
113
102
}
330
2A
100
AcDbVisualStyle
  2
2dWireframe
 70
     4
 71
     0
 72
     2
 73
     0
 90
        0
 40
-0.6
 41
-30.0
 62
     5
 63
     7
 74
     1
 91
        4
 64
     7
 65
   257
 75
     1
175
     1
 42
1.0
 92
        0
 66
   257
 43
1.0
 76
     1
 77
     6
 78
     2
 67
     7
 79
     5
170
     0
171
     0
290
     0
174
     0
 93
        1
 44
0.0
173
     0
291
     0
 45
0.0
1001
ACAD
1000
AcDbSavedByObjectVersion
1070
     0
  0
VISUALSTYLE
  5
31
102
{ACAD_REACTORS
330
2A
102
}
102
{ACAD_XDICTIONARY
360
117
102
}
330
2A
100
AcDbVisualStyle
  2
3D Hidden
 70
     6
 71
     1
 72
     2
 73
     2
 90
        0
 40
-0.6
 41
-30.0
 62
     5
 63
     7
 74
     2
 91
        2
 64
     7
 65
   257
 75
     2
175
     1
 42
40.0
 92
        0
 66
   257
 43
1.0
 76
     1
 77
     6
 78
     2
 67
     7
 79
     3
170
     0
171
     0
290
     0
174
     0
 93
        1
 44
0.0
173
     0
291
     0
 45
0.0
1001
ACAD
1000
AcDbSavedByObjectVersion
1070
     0
  0
VISUALSTYLE
  5
30
102
{ACAD_REACTORS
330
2A
102
}
102
{ACAD_XDICTIONARY
360
115
102
}
330
2A
100
AcDbVisualStyle
  2
3dWireframe
 70
     5
 71
     0
 72
     2
 73
     0
 90
        0
 40
-0.6
 41
-30.0
 62
     5
 63
     7
 74
     1
 91
        4
 64
     7
 65
   257
 75
     1
175
     1
 42
1.0
 92
        0
 66
   257
 43
1.0
 76
     1
 77
     6
 78
     2
 67
     7
 79
     5
170
     0
171
     0
290
     0
174
     0
 93
        1
 44
0.0
173
     0
291
     0
 45
0.0
1001
ACAD
1000
AcDbSavedByObjectVersion
1070
     0
  0
VISUALSTYLE
  5
32
102
{ACAD_REACTORS
330
2A
102
}
102
{ACAD_XDICTIONARY
360
119
102
}
330
2A
100
AcDbVisualStyle
  2
Basic
 70
     7
 71
     1
 72
     0
 73
     1
 90
        0
 40
-0.6
 41
-30.0
 62
     5
 63
     7
 74
     0
 91
        4
 64
     7
 65
   257
 75
     1
175
     1
 42
1.0
 92
        8
 66
     7
 43
1.0
 76
     1
 77
     6
 78
     2
 67
     7
 79
     5
170
     0
171
     0
290
     0
174
     0
 93
        1
 44
0.0
173
     0
291
     1
 45
0.0
1001
ACAD
1000
AcDbSavedByObjectVersion
1070
     0
  0
VISUALSTYLE
  5
36
102
{ACAD_REACTORS
330
2A
102
}
102
{ACAD_XDICTIONARY
360
121
102
}
330
2A
100
AcDbVisualStyle
  2
Brighten
 70
    12
 71
     2
 72
     2
 73
     0
 90
        0
 40
-0.6
 41
-30.0
 62
     5
 63
     7
 74
     1
 91
        4
 64
     7
 65
   257
 75
     1
175
     1
 42
1.0
 92
        8
 66
     7
 43
1.0
 76
     1
 77
     6
 78
     2
 67
     7
 79
     5
170
     0
171
     0
290
     0
174
     0
 93
        1
 44
50.0
173
     0
291
     1
 45
0.0
1001
ACAD
1000
AcDbSavedByObjectVersion
1070
     0
  0
VISUALSTYLE
  5
3A
102
{ACAD_REACTORS
330
2A
102
}
102
{ACAD_XDICTIONARY
360
129
102
}
330
2A
100
AcDbVisualStyle
  2
ColorChange
 70
    16
 71
     2
 72
     2
 73
     3
 90
        0
 40
-0.6
 41
-30.0
 62
     5
 63
     8
 74
     1
 91
        4
 64
     7
 65
   257
 75
     1
175
     1
 42
1.0
 92
        8
 66
     8
 43
1.0
 76
     1
 77
     6
 78
     2
 67
     7
 79
     5
170
     0
171
     0
290
     0
174
     0
 93
        1
 44
0.0
173
     0
291
     1
 45
0.0
1001
ACAD
1000
AcDbSavedByObjectVersion
1070
     0
  0
VISUALSTYLE
  5
34
102
{ACAD_REACTORS
330
2A
102
}
102
{ACAD_XDICTIONARY
360
11D
102
}
330
2A
100
AcDbVisualStyle
  2
Conceptual
 70
     9
 71
     3
 72
     2
 73
     0
 90
        0
 40
-0.6
 41
-30.0
 62
     5
 63
     7
 74
     2
 91
        2
 64
     7
 65
   257
 75
     1
175
     1
 42
40.0
 92
        8
 66
     7
 43
1.0
 76
     1
 77
     6
 78
     2
 67
     7
 79
     3
170
     0
171
     0
290
     0
174
     0
 93
        1
 44
0.0
173
     0
291
     0
 45
0.0
1001
ACAD
1000
AcDbSavedByObjectVersion
1070
     0
  0
VISUALSTYLE
  5
35
102
{ACAD_REACTORS
330
2A
102
}
102
{ACAD_XDICTIONARY
360
11F
102
}
330
2A
100
AcDbVisualStyle
  2
Dim
 70
    11
 71
     2
 72
     2
 73
     0
 90
        0
 40
-0.6
 41
-30.0
 62
     5
 63
     7
 74
     1
 91
        4
 64
     7
 65
   257
 75
     1
175
     1
 42
1.0
 92
        8
 66
     7
 43
1.0
 76
     1
 77
     6
 78
     2
 67
     7
 79
     5
170
     0
171
     0
290
     0
174
     0
 93
        1
 44
-50.0
173
     0
291
     1
 45
0.0
1001
ACAD
1000
AcDbSavedByObjectVersion
1070
     0
  0
VISUALSTYLE
  5
39
102
{ACAD_REACTORS
330
2A
102
}
102
{ACAD_XDICTIONARY
360
127
102
}
330
2A
100
AcDbVisualStyle
  2
Facepattern
 70
    15
 71
     2
 72
     2
 73
     0
 90
        0
 40
-0.6
 41
-30.0
 62
     5
 63
     7
 74
     1
 91
        4
 64
     7
 65
   257
 75
     1
175
     1
 42
1.0
 92
        8
 66
     7
 43
1.0
 76
     1
 77
     6
 78
     2
 67
     7
 79
     5
170
     0
171
     0
290
     0
174
     0
 93
        1
 44
0.0
173
     0
291
     1
 45
0.0
1001
ACAD
1000
AcDbSavedByObjectVersion
1070
     0
  0
VISUALSTYLE
  5
2B
102
{ACAD_REACTORS
330
2A
102
}
102
{ACAD_XDICTIONARY
360
10B
102
}
330
2A
100
AcDbVisualStyle
  2
Flat
 70
     0
 71
     2
 72
     1
 73
     1
 90
        2
 40
-0.6
 41
30.0
 62
     5
 63
     7
 74
     0
 91
        4
 64
     7
 65
   257
 75
     1
175
     1
 42
1.0
 92
        8
 66
     7
 43
1.0
 76
     1
 77
     6
 78
     2
 67
     7
 79
     5
170
     0
171
     0
290
     0
174
     0
 93
       13
 44
0.0
173
     0
291
     1
 45
0.0
1001
ACAD
1000
AcDbSavedByObjectVersion
1070
     0
  0
VISUALSTYLE
  5
2C
102
{ACAD_REACTORS
330
2A
102
}
102
{ACAD_XDICTIONARY
360
10D
102
}
330
2A
100
AcDbVisualStyle
  2
FlatWithEdges
 70
     1
 71
     2
 72
     1
 73
     1
 90
        2
 40
-0.6
 41
30.0
 62
     5
 63
     7
 74
     1
 91
        4
 64
     7
 65
   257
 75
     1
175
     1
 42
1.0
 92
        0
 66
   257
 43
1.0
 76
     1
 77
     6
 78
     2
 67
     7
 79
     5
170
     0
171
     0
290
     0
174
     0
 93
       13
 44
0.0
173
     0
291
     1
 45
0.0
1001
ACAD
1000
AcDbSavedByObjectVersion
1070
     0
  0
VISUALSTYLE
  5
2D
102
{ACAD_REACTORS
330
2A
102
}
102
{ACAD_XDICTIONARY
360
10F
102
}
330
2A
100
AcDbVisualStyle
  2
Gouraud
 70
     2
 71
     2
 72
     2
 73
     1
 90
        2
 40
-0.6
 41
30.0
 62
     5
 63
     7
 74
     0
 91
        4
 64
     7
 65
   257
 75
     1
175
     1
 42
1.0
 92
        0
 66
     7
 43
1.0
 76
     1
 77
     6
 78
     2
 67
     7
 79
     5
170
     0
171
     0
290
     0
174
     0
 93
       13
 44
0.0
173
     0
291
     1
 45
0.0
1001
ACAD
1000
AcDbSavedByObjectVersion
1070
     0
  0
VISUALSTYLE
  5
2E
102
{ACAD_REACTORS
330
2A
102
}
102
{ACAD_XDICTIONARY
360
111
102
}
330
2A
100
AcDbVisualStyle
  2
GouraudWithEdges
 70
     3
 71
     2
 72
     2
 73
     1
 90
        2
 40
-0.6
 41
30.0
 62
     5
 63
     7
 74
     1
 91
        4
 64
     7
 65
   257
 75
     1
175
     1
 42
1.0
 92
        0
 66
   257
 43
1.0
 76
     1
 77
     6
 78
     2
 67
     7
 79
     5
170
     0
171
     0
290
     0
174
     0
 93
       13
 44
0.0
173
     0
291
     1
 45
0.0
1001
ACAD
1000
AcDbSavedByObjectVersion
1070
     0
  0
VISUALSTYLE
  5
38
102
{ACAD_REACTORS
330
2A
102
}
102
{ACAD_XDICTIONARY
360
125
102
}
330
2A
100
AcDbVisualStyle
  2
Linepattern
 70
    14
 71
     2
 72
     2
 73
     0
 90
        0
 40
-0.6
 41
-30.0
 62
     5
 63
     7
 74
     1
 91
        4
 64
     7
 65
   257
 75
     7
175
     7
 42
1.0
 92
        8
 66
     7
 43
1.0
 76
     1
 77
     6
 78
     2
 67
     7
 79
     5
170
     0
171
     0
290
     0
174
     0
 93
        1
 44
0.0
173
     0
291
     1
 45
0.0
1001
ACAD
1000
AcDbSavedByObjectVersion
1070
     0
  0
VISUALSTYLE
  5
33
102
{ACAD_REACTORS
330
2A
102
}
102
{ACAD_XDICTIONARY
360
11B
102
}
330
2A
100
AcDbVisualStyle
  2
Realistic
 70
     8
 71
     2
 72
     2
 73
     0
 90
        0
 40
-0.6
 41
-30.0
 62
     5
 63
     7
 74
     1
 91
        0
 64
     7
 65
   257
 75
     1
175
     1
 42
1.0
 92
        8
 66
     8
 43
1.0
 76
     1
 77
     6
 78
     2
 67
     7
 79
     5
170
     0
171
     0
290
     0
174
     0
 93
       13
 44
0.0
173
     0
291
     0
 45
0.0
1001
ACAD
1000
AcDbSavedByObjectVersion
1070
     0
  0
VISUALSTYLE
  5
37
102
{ACAD_REACTORS
330
2A
102
}
102
{ACAD_XDICTIONARY
360
123
102
}
330
2A
100
AcDbVisualStyle
  2
Thicken
 70
    13
 71
     2
 72
     2
 73
     0
 90
        0
 40
-0.6
 41
-30.0
 62
     5
 63
     7
 74
     1
 91
        4
 64
     7
 65
   257
 75
     1
175
     1
 42
1.0
 92
       12
 66
     7
 43
1.0
 76
     1
 77
     6
 78
     2
 67
     7
 79
     5
170
     0
171
     0
290
     0
174
     0
 93
        1
 44
0.0
173
     0
291
     1
 45
0.0
1001
ACAD
1000
AcDbSavedByObjectVersion
1070
     0
  0
DICTIONARYVAR
  5
109
102
{ACAD_REACTORS
330
106
102
}
330
106
100
DictionaryVariables
280
     0
  1
2
  0
DICTIONARYVAR
  5
10A
102
{ACAD_REACTORS
330
106
102
}
330
106
100
DictionaryVariables
280
     0
  1
1
  0
DICTIONARY
  5
12D
330
3D
100
AcDbDictionary
280
     1
281
     1
  3
ACAD_XREC_ROUNDTRIP
360
12E
  0
DICTIONARY
  5
12B
330
3C
100
AcDbDictionary
280
     1
281
     1
  3
ACAD_XREC_ROUNDTRIP
360
12C
  0
DICTIONARY
  5
12F
330
3E
100
AcDbDictionary
280
     1
281
     1
  3
ACAD_XREC_ROUNDTRIP
360
130
  0
DICTIONARY
  5
113
330
2F
100
AcDbDictionary
280
     1
281
     1
  3
ACAD_XREC_ROUNDTRIP
360
114
  0
DICTIONARY
  5
117
330
31
100
AcDbDictionary
280
     1
281
     1
  3
ACAD_XREC_ROUNDTRIP
360
118
  0
DICTIONARY
  5
115
330
30
100
AcDbDictionary
280
     1
281
     1
  3
ACAD_XREC_ROUNDTRIP
360
116
  0
DICTIONARY
  5
119
330
32
100
AcDbDictionary
280
     1
281
     1
  3
ACAD_XREC_ROUNDTRIP
360
11A
  0
DICTIONARY
  5
121
330
36
100
AcDbDictionary
280
     1
281
     1
  3
ACAD_XREC_ROUNDTRIP
360
122
  0
DICTIONARY
  5
129
330
3A
100
AcDbDictionary
280
     1
281
     1
  3
ACAD_XREC_ROUNDTRIP
360
12A
  0
DICTIONARY
  5
11D
330
34
100
AcDbDictionary
280
     1
281
     1
  3
ACAD_XREC_ROUNDTRIP
360
11E
  0
DICTIONARY
  5
11F
330
35
100
AcDbDictionary
280
     1
281
     1
  3
ACAD_XREC_ROUNDTRIP
360
120
  0
DICTIONARY
  5
127
330
39
100
AcDbDictionary
280
     1
281
     1
  3
ACAD_XREC_ROUNDTRIP
360
128
  0
DICTIONARY
  5
10B
330
2B
100
AcDbDictionary
280
     1
281
     1
  3
ACAD_XREC_ROUNDTRIP
360
10C
  0
DICTIONARY
  5
10D
330
2C
100
AcDbDictionary
280
     1
281
     1
  3
ACAD_XREC_ROUNDTRIP
360
10E
  0
DICTIONARY
  5
10F
330
2D
100
AcDbDictionary
280
     1
281
     1
  3
ACAD_XREC_ROUNDTRIP
360
110
  0
DICTIONARY
  5
111
330
2E
100
AcDbDictionary
280
     1
281
     1
  3
ACAD_XREC_ROUNDTRIP
360
112
  0
DICTIONARY
  5
125
330
38
100
AcDbDictionary
280
     1
281
     1
  3
ACAD_XREC_ROUNDTRIP
360
126
  0
DICTIONARY
  5
11B
330
33
100
AcDbDictionary
280
     1
281
     1
  3
ACAD_XREC_ROUNDTRIP
360
11C
  0
DICTIONARY
  5
123
330
37
100
AcDbDictionary
280
     1
281
     1
  3
ACAD_XREC_ROUNDTRIP
360
124
  0
XRECORD
  5
12E
102
{ACAD_REACTORS
330
12D
102
}
330
12D
100
AcDbXrecord
280
     1
102
MATERIAL
148
0.0
149
0.0
149
0.0
 93
        0
 94
      127
282
     0
 72
     1
 77
     1
171
     1
175
     1
179
     1
273
     0
  0
XRECORD
  5
12C
102
{ACAD_REACTORS
330
12B
102
}
330
12B
100
AcDbXrecord
280
     1
102
MATERIAL
148
0.0
149
0.0
149
0.0
 93
        0
 94
      127
282
     0
 72
     1
 77
     1
171
     1
175
     1
179
     1
273
     0
  0
XRECORD
  5
130
102
{ACAD_REACTORS
330
12F
102
}
330
12F
100
AcDbXrecord
280
     1
102
MATERIAL
148
0.0
149
0.0
149
0.0
 93
        0
 94
      127
282
     0
 72
     1
 77
     1
171
     1
175
     1
179
     1
273
     0
  0
XRECORD
  5
114
102
{ACAD_REACTORS
330
113
102
}
330
113
100
AcDbXrecord
280
     1
102
RTVSPropertyOp0
 70
     1
102
RTVSPropertyOp1
 70
     1
102
RTVSPropertyOp2
 70
     1
102
RTVSPropertyOp3
 70
     1
102
RTVSPropertyOp4
 70
     1
102
RTVSPropertyOp5
 70
     1
102
RTVSPropertyOp6
 70
     1
102
RTVSPropertyOp7
 70
     1
102
RTVSPropertyOp8
 70
     1
102
RTVSPropertyOp9
 70
     1
102
RTVSPropertyOp10
 70
     1
102
RTVSPropertyOp11
 70
     1
102
RTVSPropertyOp12
 70
     1
102
RTVSPropertyOp13
 70
     1
102
RTVSPropertyOp14
 70
     1
102
RTVSPropertyOp15
 70
     1
102
RTVSPropertyOp16
 70
     1
102
RTVSPropertyOp17
 70
     1
102
RTVSPropertyOp18
 70
     1
102
RTVSPropertyOp19
 70
     1
102
RTVSPropertyOp20
 70
     1
102
RTVSPropertyOp21
 70
     1
102
RTVSPropertyOp22
 70
     1
102
RTVSPropertyOp23
 70
     1
102
RTVSPropertyOp24
 70
     1
102
RTVSPropertyOp25
 70
     1
102
RTVSPropertyOp26
 70
     1
102
RTVSPropertyOp27
 70
     1
102
RTVSPropertyOp28
 70
     1
102
RTVSPropertyOp29
 70
     1
102
RTVSPropertyOp30
 70
     1
102
RTVSPropertyOp31
 70
     1
102
RTVSPropertyOp32
 70
     1
  0
XRECORD
  5
118
102
{ACAD_REACTORS
330
117
102
}
330
117
100
AcDbXrecord
280
     1
102
RTVSPropertyOp0
 70
     1
102
RTVSPropertyOp1
 70
     1
102
RTVSPropertyOp2
 70
     1
102
RTVSPropertyOp3
 70
     1
102
RTVSPropertyOp4
 70
     1
102
RTVSPropertyOp5
 70
     1
102
RTVSPropertyOp6
 70
     1
102
RTVSPropertyOp7
 70
     1
102
RTVSPropertyOp8
 70
     1
102
RTVSPropertyOp9
 70
     1
102
RTVSPropertyOp10
 70
     1
102
RTVSPropertyOp11
 70
     1
102
RTVSPropertyOp12
 70
     1
102
RTVSPropertyOp13
 70
     1
102
RTVSPropertyOp14
 70
     1
102
RTVSPropertyOp15
 70
     1
102
RTVSPropertyOp16
 70
     1
102
RTVSPropertyOp17
 70
     1
102
RTVSPropertyOp18
 70
     1
102
RTVSPropertyOp19
 70
     1
102
RTVSPropertyOp20
 70
     1
102
RTVSPropertyOp21
 70
     1
102
RTVSPropertyOp22
 70
     1
102
RTVSPropertyOp23
 70
     1
102
RTVSPropertyOp24
 70
     1
102
RTVSPropertyOp25
 70
     1
102
RTVSPropertyOp26
 70
     1
102
RTVSPropertyOp27
 70
     1
102
RTVSPropertyOp28
 70
     1
102
RTVSPropertyOp29
 70
     1
102
RTVSPropertyOp30
 70
     1
102
RTVSPropertyOp31
 70
     1
102
RTVSPropertyOp32
 70
     1
  0
XRECORD
  5
116
102
{ACAD_REACTORS
330
115
102
}
330
115
100
AcDbXrecord
280
     1
102
RTVSPropertyOp0
 70
     1
102
RTVSPropertyOp1
 70
     1
102
RTVSPropertyOp2
 70
     1
102
RTVSPropertyOp3
 70
     1
102
RTVSPropertyOp4
 70
     1
102
RTVSPropertyOp5
 70
     1
102
RTVSPropertyOp6
 70
     1
102
RTVSPropertyOp7
 70
     1
102
RTVSPropertyOp8
 70
     1
102
RTVSPropertyOp9
 70
     1
102
RTVSPropertyOp10
 70
     1
102
RTVSPropertyOp11
 70
     1
102
RTVSPropertyOp12
 70
     1
102
RTVSPropertyOp13
 70
     1
102
RTVSPropertyOp14
 70
     1
102
RTVSPropertyOp15
 70
     1
102
RTVSPropertyOp16
 70
     1
102
RTVSPropertyOp17
 70
     1
102
RTVSPropertyOp18
 70
     1
102
RTVSPropertyOp19
 70
     1
102
RTVSPropertyOp20
 70
     1
102
RTVSPropertyOp21
 70
     1
102
RTVSPropertyOp22
 70
     1
102
RTVSPropertyOp23
 70
     1
102
RTVSPropertyOp24
 70
     1
102
RTVSPropertyOp25
 70
     1
102
RTVSPropertyOp26
 70
     1
102
RTVSPropertyOp27
 70
     1
102
RTVSPropertyOp28
 70
     1
102
RTVSPropertyOp29
 70
     1
102
RTVSPropertyOp30
 70
     1
102
RTVSPropertyOp31
 70
     1
102
RTVSPropertyOp32
 70
     1
  0
XRECORD
  5
11A
102
{ACAD_REACTORS
330
119
102
}
330
119
100
AcDbXrecord
280
     1
102
RTVSPropertyOp0
 70
     1
102
RTVSPropertyOp1
 70
     1
102
RTVSPropertyOp2
 70
     1
102
RTVSPropertyOp3
 70
     1
102
RTVSPropertyOp4
 70
     1
102
RTVSPropertyOp5
 70
     1
102
RTVSPropertyOp6
 70
     1
102
RTVSPropertyOp7
 70
     1
102
RTVSPropertyOp8
 70
     1
102
RTVSPropertyOp9
 70
     1
102
RTVSPropertyOp10
 70
     1
102
RTVSPropertyOp11
 70
     1
102
RTVSPropertyOp12
 70
     1
102
RTVSPropertyOp13
 70
     1
102
RTVSPropertyOp14
 70
     1
102
RTVSPropertyOp15
 70
     1
102
RTVSPropertyOp16
 70
     1
102
RTVSPropertyOp17
 70
     1
102
RTVSPropertyOp18
 70
     1
102
RTVSPropertyOp19
 70
     1
102
RTVSPropertyOp20
 70
     1
102
RTVSPropertyOp21
 70
     1
102
RTVSPropertyOp22
 70
     1
102
RTVSPropertyOp23
 70
     1
102
RTVSPropertyOp24
 70
     1
102
RTVSPropertyOp25
 70
     1
102
RTVSPropertyOp26
 70
     1
102
RTVSPropertyOp27
 70
     1
102
RTVSPropertyOp28
 70
     1
102
RTVSPropertyOp29
 70
     1
102
RTVSPropertyOp30
 70
     1
102
RTVSPropertyOp31
 70
     1
102
RTVSPropertyOp32
 70
     1
  0
XRECORD
  5
122
102
{ACAD_REACTORS
330
121
102
}
330
121
100
AcDbXrecord
280
     1
102
RTVSPropertyOp0
 70
     1
102
RTVSPropertyOp1
 70
     1
102
RTVSPropertyOp2
 70
     1
102
RTVSPropertyOp3
 70
     1
102
RTVSPropertyOp4
 70
     1
102
RTVSPropertyOp5
 70
     1
102
RTVSPropertyOp6
 70
     1
102
RTVSPropertyOp7
 70
     1
102
RTVSPropertyOp8
 70
     1
102
RTVSPropertyOp9
 70
     1
102
RTVSPropertyOp10
 70
     1
102
RTVSPropertyOp11
 70
     1
102
RTVSPropertyOp12
 70
     1
102
RTVSPropertyOp13
 70
     1
102
RTVSPropertyOp14
 70
     1
102
RTVSPropertyOp15
 70
     1
102
RTVSPropertyOp16
 70
     1
102
RTVSPropertyOp17
 70
     1
102
RTVSPropertyOp18
 70
     1
102
RTVSPropertyOp19
 70
     1
102
RTVSPropertyOp20
 70
     1
102
RTVSPropertyOp21
 70
     1
102
RTVSPropertyOp22
 70
     1
102
RTVSPropertyOp23
 70
     1
102
RTVSPropertyOp24
 70
     1
102
RTVSPropertyOp25
 70
     1
102
RTVSPropertyOp26
 70
     1
102
RTVSPropertyOp27
 70
     1
102
RTVSPropertyOp28
 70
     1
102
RTVSPropertyOp29
 70
     1
102
RTVSPropertyOp30
 70
     1
102
RTVSPropertyOp31
 70
     1
102
RTVSPropertyOp32
 70
     1
  0
XRECORD
  5
12A
102
{ACAD_REACTORS
330
129
102
}
330
129
100
AcDbXrecord
280
     1
102
RTVSPropertyOp0
 70
     1
102
RTVSPropertyOp1
 70
     1
102
RTVSPropertyOp2
 70
     1
102
RTVSPropertyOp3
 70
     1
102
RTVSPropertyOp4
 70
     1
102
RTVSPropertyOp5
 70
     1
102
RTVSPropertyOp6
 70
     1
102
RTVSPropertyOp7
 70
     1
102
RTVSPropertyOp8
 70
     1
102
RTVSPropertyOp9
 70
     1
102
RTVSPropertyOp10
 70
     1
102
RTVSPropertyOp11
 70
     1
102
RTVSPropertyOp12
 70
     1
102
RTVSPropertyOp13
 70
     1
102
RTVSPropertyOp14
 70
     1
102
RTVSPropertyOp15
 70
     1
102
RTVSPropertyOp16
 70
     1
102
RTVSPropertyOp17
 70
     1
102
RTVSPropertyOp18
 70
     1
102
RTVSPropertyOp19
 70
     1
102
RTVSPropertyOp20
 70
     1
102
RTVSPropertyOp21
 70
     1
102
RTVSPropertyOp22
 70
     1
102
RTVSPropertyOp23
 70
     1
102
RTVSPropertyOp24
 70
     1
102
RTVSPropertyOp25
 70
     1
102
RTVSPropertyOp26
 70
     1
102
RTVSPropertyOp27
 70
     1
102
RTVSPropertyOp28
 70
     1
102
RTVSPropertyOp29
 70
     1
102
RTVSPropertyOp30
 70
     1
102
RTVSPropertyOp31
 70
     1
102
RTVSPropertyOp32
 70
     1
  0
XRECORD
  5
11E
102
{ACAD_REACTORS
330
11D
102
}
330
11D
100
AcDbXrecord
280
     1
102
RTVSPropertyOp0
 70
     1
102
RTVSPropertyOp1
 70
     1
102
RTVSPropertyOp2
 70
     1
102
RTVSPropertyOp3
 70
     1
102
RTVSPropertyOp4
 70
     1
102
RTVSPropertyOp5
 70
     1
102
RTVSPropertyOp6
 70
     1
102
RTVSPropertyOp7
 70
     1
102
RTVSPropertyOp8
 70
     1
102
RTVSPropertyOp9
 70
     1
102
RTVSPropertyOp10
 70
     1
102
RTVSPropertyOp11
 70
     1
102
RTVSPropertyOp12
 70
     1
102
RTVSPropertyOp13
 70
     1
102
RTVSPropertyOp14
 70
     1
102
RTVSPropertyOp15
 70
     1
102
RTVSPropertyOp16
 70
     1
102
RTVSPropertyOp17
 70
     1
102
RTVSPropertyOp18
 70
     1
102
RTVSPropertyOp19
 70
     1
102
RTVSPropertyOp20
 70
     1
102
RTVSPropertyOp21
 70
     1
102
RTVSPropertyOp22
 70
     1
102
RTVSPropertyOp23
 70
     1
102
RTVSPropertyOp24
 70
     1
102
RTVSPropertyOp25
 70
     1
102
RTVSPropertyOp26
 70
     1
102
RTVSPropertyOp27
 70
     1
102
RTVSPropertyOp28
 70
     1
102
RTVSPropertyOp29
 70
     1
102
RTVSPropertyOp30
 70
     1
102
RTVSPropertyOp31
 70
     1
102
RTVSPropertyOp32
 70
     1
  0
XRECORD
  5
120
102
{ACAD_REACTORS
330
11F
102
}
330
11F
100
AcDbXrecord
280
     1
102
RTVSPropertyOp0
 70
     1
102
RTVSPropertyOp1
 70
     1
102
RTVSPropertyOp2
 70
     1
102
RTVSPropertyOp3
 70
     1
102
RTVSPropertyOp4
 70
     1
102
RTVSPropertyOp5
 70
     1
102
RTVSPropertyOp6
 70
     1
102
RTVSPropertyOp7
 70
     1
102
RTVSPropertyOp8
 70
     1
102
RTVSPropertyOp9
 70
     1
102
RTVSPropertyOp10
 70
     1
102
RTVSPropertyOp11
 70
     1
102
RTVSPropertyOp12
 70
     1
102
RTVSPropertyOp13
 70
     1
102
RTVSPropertyOp14
 70
     1
102
RTVSPropertyOp15
 70
     1
102
RTVSPropertyOp16
 70
     1
102
RTVSPropertyOp17
 70
     1
102
RTVSPropertyOp18
 70
     1
102
RTVSPropertyOp19
 70
     1
102
RTVSPropertyOp20
 70
     1
102
RTVSPropertyOp21
 70
     1
102
RTVSPropertyOp22
 70
     1
102
RTVSPropertyOp23
 70
     1
102
RTVSPropertyOp24
 70
     1
102
RTVSPropertyOp25
 70
     1
102
RTVSPropertyOp26
 70
     1
102
RTVSPropertyOp27
 70
     1
102
RTVSPropertyOp28
 70
     1
102
RTVSPropertyOp29
 70
     1
102
RTVSPropertyOp30
 70
     1
102
RTVSPropertyOp31
 70
     1
102
RTVSPropertyOp32
 70
     1
  0
XRECORD
  5
128
102
{ACAD_REACTORS
330
127
102
}
330
127
100
AcDbXrecord
280
     1
102
RTVSPropertyOp0
 70
     1
102
RTVSPropertyOp1
 70
     1
102
RTVSPropertyOp2
 70
     1
102
RTVSPropertyOp3
 70
     1
102
RTVSPropertyOp4
 70
     1
102
RTVSPropertyOp5
 70
     1
102
RTVSPropertyOp6
 70
     1
102
RTVSPropertyOp7
 70
     1
102
RTVSPropertyOp8
 70
     1
102
RTVSPropertyOp9
 70
     1
102
RTVSPropertyOp10
 70
     1
102
RTVSPropertyOp11
 70
     1
102
RTVSPropertyOp12
 70
     1
102
RTVSPropertyOp13
 70
     1
102
RTVSPropertyOp14
 70
     1
102
RTVSPropertyOp15
 70
     1
102
RTVSPropertyOp16
 70
     1
102
RTVSPropertyOp17
 70
     1
102
RTVSPropertyOp18
 70
     1
102
RTVSPropertyOp19
 70
     1
102
RTVSPropertyOp20
 70
     1
102
RTVSPropertyOp21
 70
     1
102
RTVSPropertyOp22
 70
     1
102
RTVSPropertyOp23
 70
     1
102
RTVSPropertyOp24
 70
     1
102
RTVSPropertyOp25
 70
     1
102
RTVSPropertyOp26
 70
     1
102
RTVSPropertyOp27
 70
     1
102
RTVSPropertyOp28
 70
     1
102
RTVSPropertyOp29
 70
     1
102
RTVSPropertyOp30
 70
     1
102
RTVSPropertyOp31
 70
     1
102
RTVSPropertyOp32
 70
     1
  0
XRECORD
  5
10C
102
{ACAD_REACTORS
330
10B
102
}
330
10B
100
AcDbXrecord
280
     1
102
RTVSPropertyOp0
 70
     1
102
RTVSPropertyOp1
 70
     1
102
RTVSPropertyOp2
 70
     1
102
RTVSPropertyOp3
 70
     1
102
RTVSPropertyOp4
 70
     1
102
RTVSPropertyOp5
 70
     1
102
RTVSPropertyOp6
 70
     1
102
RTVSPropertyOp7
 70
     1
102
RTVSPropertyOp8
 70
     1
102
RTVSPropertyOp9
 70
     1
102
RTVSPropertyOp10
 70
     1
102
RTVSPropertyOp11
 70
     1
102
RTVSPropertyOp12
 70
     1
102
RTVSPropertyOp13
 70
     1
102
RTVSPropertyOp14
 70
     1
102
RTVSPropertyOp15
 70
     1
102
RTVSPropertyOp16
 70
     1
102
RTVSPropertyOp17
 70
     1
102
RTVSPropertyOp18
 70
     1
102
RTVSPropertyOp19
 70
     1
102
RTVSPropertyOp20
 70
     1
102
RTVSPropertyOp21
 70
     1
102
RTVSPropertyOp22
 70
     1
102
RTVSPropertyOp23
 70
     1
102
RTVSPropertyOp24
 70
     1
102
RTVSPropertyOp25
 70
     1
102
RTVSPropertyOp26
 70
     1
102
RTVSPropertyOp27
 70
     1
102
RTVSPropertyOp28
 70
     1
102
RTVSPropertyOp29
 70
     1
102
RTVSPropertyOp30
 70
     1
102
RTVSPropertyOp31
 70
     1
102
RTVSPropertyOp32
 70
     1
  0
XRECORD
  5
10E
102
{ACAD_REACTORS
330
10D
102
}
330
10D
100
AcDbXrecord
280
     1
102
RTVSPropertyOp0
 70
     1
102
RTVSPropertyOp1
 70
     1
102
RTVSPropertyOp2
 70
     1
102
RTVSPropertyOp3
 70
     1
102
RTVSPropertyOp4
 70
     1
102
RTVSPropertyOp5
 70
     1
102
RTVSPropertyOp6
 70
     1
102
RTVSPropertyOp7
 70
     1
102
RTVSPropertyOp8
 70
     1
102
RTVSPropertyOp9
 70
     1
102
RTVSPropertyOp10
 70
     1
102
RTVSPropertyOp11
 70
     1
102
RTVSPropertyOp12
 70
     1
102
RTVSPropertyOp13
 70
     1
102
RTVSPropertyOp14
 70
     1
102
RTVSPropertyOp15
 70
     1
102
RTVSPropertyOp16
 70
     1
102
RTVSPropertyOp17
 70
     1
102
RTVSPropertyOp18
 70
     1
102
RTVSPropertyOp19
 70
     1
102
RTVSPropertyOp20
 70
     1
102
RTVSPropertyOp21
 70
     1
102
RTVSPropertyOp22
 70
     1
102
RTVSPropertyOp23
 70
     1
102
RTVSPropertyOp24
 70
     1
102
RTVSPropertyOp25
 70
     1
102
RTVSPropertyOp26
 70
     1
102
RTVSPropertyOp27
 70
     1
102
RTVSPropertyOp28
 70
     1
102
RTVSPropertyOp29
 70
     1
102
RTVSPropertyOp30
 70
     1
102
RTVSPropertyOp31
 70
     1
102
RTVSPropertyOp32
 70
     1
  0
XRECORD
  5
110
102
{ACAD_REACTORS
330
10F
102
}
330
10F
100
AcDbXrecord
280
     1
102
RTVSPropertyOp0
 70
     1
102
RTVSPropertyOp1
 70
     1
102
RTVSPropertyOp2
 70
     1
102
RTVSPropertyOp3
 70
     1
102
RTVSPropertyOp4
 70
     1
102
RTVSPropertyOp5
 70
     1
102
RTVSPropertyOp6
 70
     1
102
RTVSPropertyOp7
 70
     1
102
RTVSPropertyOp8
 70
     1
102
RTVSPropertyOp9
 70
     1
102
RTVSPropertyOp10
 70
     1
102
RTVSPropertyOp11
 70
     1
102
RTVSPropertyOp12
 70
     1
102
RTVSPropertyOp13
 70
     1
102
RTVSPropertyOp14
 70
     1
102
RTVSPropertyOp15
 70
     1
102
RTVSPropertyOp16
 70
     1
102
RTVSPropertyOp17
 70
     1
102
RTVSPropertyOp18
 70
     1
102
RTVSPropertyOp19
 70
     1
102
RTVSPropertyOp20
 70
     1
102
RTVSPropertyOp21
 70
     1
102
RTVSPropertyOp22
 70
     1
102
RTVSPropertyOp23
 70
     1
102
RTVSPropertyOp24
 70
     1
102
RTVSPropertyOp25
 70
     1
102
RTVSPropertyOp26
 70
     1
102
RTVSPropertyOp27
 70
     1
102
RTVSPropertyOp28
 70
     1
102
RTVSPropertyOp29
 70
     1
102
RTVSPropertyOp30
 70
     1
102
RTVSPropertyOp31
 70
     1
102
RTVSPropertyOp32
 70
     1
  0
XRECORD
  5
112
102
{ACAD_REACTORS
330
111
102
}
330
111
100
AcDbXrecord
280
     1
102
RTVSPropertyOp0
 70
     1
102
RTVSPropertyOp1
 70
     1
102
RTVSPropertyOp2
 70
     1
102
RTVSPropertyOp3
 70
     1
102
RTVSPropertyOp4
 70
     1
102
RTVSPropertyOp5
 70
     1
102
RTVSPropertyOp6
 70
     1
102
RTVSPropertyOp7
 70
     1
102
RTVSPropertyOp8
 70
     1
102
RTVSPropertyOp9
 70
     1
102
RTVSPropertyOp10
 70
     1
102
RTVSPropertyOp11
 70
     1
102
RTVSPropertyOp12
 70
     1
102
RTVSPropertyOp13
 70
     1
102
RTVSPropertyOp14
 70
     1
102
RTVSPropertyOp15
 70
     1
102
RTVSPropertyOp16
 70
     1
102
RTVSPropertyOp17
 70
     1
102
RTVSPropertyOp18
 70
     1
102
RTVSPropertyOp19
 70
     1
102
RTVSPropertyOp20
 70
     1
102
RTVSPropertyOp21
 70
     1
102
RTVSPropertyOp22
 70
     1
102
RTVSPropertyOp23
 70
     1
102
RTVSPropertyOp24
 70
     1
102
RTVSPropertyOp25
 70
     1
102
RTVSPropertyOp26
 70
     1
102
RTVSPropertyOp27
 70
     1
102
RTVSPropertyOp28
 70
     1
102
RTVSPropertyOp29
 70
     1
102
RTVSPropertyOp30
 70
     1
102
RTVSPropertyOp31
 70
     1
102
RTVSPropertyOp32
 70
     1
  0
XRECORD
  5
126
102
{ACAD_REACTORS
330
125
102
}
330
125
100
AcDbXrecord
280
     1
102
RTVSPropertyOp0
 70
     1
102
RTVSPropertyOp1
 70
     1
102
RTVSPropertyOp2
 70
     1
102
RTVSPropertyOp3
 70
     1
102
RTVSPropertyOp4
 70
     1
102
RTVSPropertyOp5
 70
     1
102
RTVSPropertyOp6
 70
     1
102
RTVSPropertyOp7
 70
     1
102
RTVSPropertyOp8
 70
     1
102
RTVSPropertyOp9
 70
     1
102
RTVSPropertyOp10
 70
     1
102
RTVSPropertyOp11
 70
     1
102
RTVSPropertyOp12
 70
     1
102
RTVSPropertyOp13
 70
     1
102
RTVSPropertyOp14
 70
     1
102
RTVSPropertyOp15
 70
     1
102
RTVSPropertyOp16
 70
     1
102
RTVSPropertyOp17
 70
     1
102
RTVSPropertyOp18
 70
     1
102
RTVSPropertyOp19
 70
     1
102
RTVSPropertyOp20
 70
     1
102
RTVSPropertyOp21
 70
     1
102
RTVSPropertyOp22
 70
     1
102
RTVSPropertyOp23
 70
     1
102
RTVSPropertyOp24
 70
     1
102
RTVSPropertyOp25
 70
     1
102
RTVSPropertyOp26
 70
     1
102
RTVSPropertyOp27
 70
     1
102
RTVSPropertyOp28
 70
     1
102
RTVSPropertyOp29
 70
     1
102
RTVSPropertyOp30
 70
     1
102
RTVSPropertyOp31
 70
     1
102
RTVSPropertyOp32
 70
     1
  0
XRECORD
  5
11C
102
{ACAD_REACTORS
330
11B
102
}
330
11B
100
AcDbXrecord
280
     1
102
RTVSPropertyOp0
 70
     1
102
RTVSPropertyOp1
 70
     1
102
RTVSPropertyOp2
 70
     1
102
RTVSPropertyOp3
 70
     1
102
RTVSPropertyOp4
 70
     1
102
RTVSPropertyOp5
 70
     1
102
RTVSPropertyOp6
 70
     1
102
RTVSPropertyOp7
 70
     1
102
RTVSPropertyOp8
 70
     1
102
RTVSPropertyOp9
 70
     1
102
RTVSPropertyOp10
 70
     1
102
RTVSPropertyOp11
 70
     1
102
RTVSPropertyOp12
 70
     1
102
RTVSPropertyOp13
 70
     1
102
RTVSPropertyOp14
 70
     1
102
RTVSPropertyOp15
 70
     1
102
RTVSPropertyOp16
 70
     1
102
RTVSPropertyOp17
 70
     1
102
RTVSPropertyOp18
 70
     1
102
RTVSPropertyOp19
 70
     1
102
RTVSPropertyOp20
 70
     1
102
RTVSPropertyOp21
 70
     1
102
RTVSPropertyOp22
 70
     1
102
RTVSPropertyOp23
 70
     1
102
RTVSPropertyOp24
 70
     1
102
RTVSPropertyOp25
 70
     1
102
RTVSPropertyOp26
 70
     1
102
RTVSPropertyOp27
 70
     1
102
RTVSPropertyOp28
 70
     1
102
RTVSPropertyOp29
 70
     1
102
RTVSPropertyOp30
 70
     1
102
RTVSPropertyOp31
 70
     1
102
RTVSPropertyOp32
 70
     1
  0
XRECORD
  5
124
102
{ACAD_REACTORS
330
123
102
}
330
123
100
AcDbXrecord
280
     1
102
RTVSPropertyOp0
 70
     1
102
RTVSPropertyOp1
 70
     1
102
RTVSPropertyOp2
 70
     1
102
RTVSPropertyOp3
 70
     1
102
RTVSPropertyOp4
 70
     1
102
RTVSPropertyOp5
 70
     1
102
RTVSPropertyOp6
 70
     1
102
RTVSPropertyOp7
 70
     1
102
RTVSPropertyOp8
 70
     1
102
RTVSPropertyOp9
 70
     1
102
RTVSPropertyOp10
 70
     1
102
RTVSPropertyOp11
 70
     1
102
RTVSPropertyOp12
 70
     1
102
RTVSPropertyOp13
 70
     1
102
RTVSPropertyOp14
 70
     1
102
RTVSPropertyOp15
 70
     1
102
RTVSPropertyOp16
 70
     1
102
RTVSPropertyOp17
 70
     1
102
RTVSPropertyOp18
 70
     1
102
RTVSPropertyOp19
 70
     1
102
RTVSPropertyOp20
 70
     1
102
RTVSPropertyOp21
 70
     1
102
RTVSPropertyOp22
 70
     1
102
RTVSPropertyOp23
 70
     1
102
RTVSPropertyOp24
 70
     1
102
RTVSPropertyOp25
 70
     1
102
RTVSPropertyOp26
 70
     1
102
RTVSPropertyOp27
 70
     1
102
RTVSPropertyOp28
 70
     1
102
RTVSPropertyOp29
 70
     1
102
RTVSPropertyOp30
 70
     1
102
RTVSPropertyOp31
 70
     1
102
RTVSPropertyOp32
 70
     1
  0
ENDSEC
  0
EOF
