  0
SECTION
  2
HEADER
  9
$ACADVER
  1
AC1015
  9
$ACADMAINTVER
 70
     6
  9
$DWGCODEPAGE
  3
ANSI_932
  9
$INSBASE
 10
0.0
 20
0.0
 30
0.0
  9
$EXTMIN
 10
0.0
 20
0.0
 30
0.0
  9
$EXTMAX
 10
210.0
 20
297.0
 30
0.0
  9
$LIMMIN
 10
0.0
 20
0.0
  9
$LIMMAX
 10
12.0
 20
9.0
  9
$ORTHOMODE
 70
     0
  9
$REGENMODE
 70
     1
  9
$FILLMODE
 70
     1
  9
$QTEXTMODE
 70
     0
  9
$MIRRTEXT
 70
     1
  9
$LTSCALE
 40
1.0
  9
$ATTMODE
 70
     1
  9
$TEXTSIZE
 40
0.2
  9
$TRACEWID
 40
0.05
  9
$TEXTSTYLE
  7
Standard
  9
$CLAYER
  8
0
  9
$CELTYPE
  6
ByLayer
  9
$CECOLOR
 62
   256
  9
$CELTSCALE
 40
1.0
  9
$DISPSILH
 70
     0
  9
$DIMSCALE
 40
1.0
  9
$DIMASZ
 40
0.18
  9
$DIMEXO
 40
0.0625
  9
$DIMDLI
 40
0.38
  9
$DIMRND
 40
0.0
  9
$DIMDLE
 40
0.0
  9
$DIMEXE
 40
0.18
  9
$DIMTP
 40
0.0
  9
$DIMTM
 40
0.0
  9
$DIMTXT
 40
0.18
  9
$DIMCEN
 40
0.09
  9
$DIMTSZ
 40
0.0
  9
$DIMTOL
 70
     0
  9
$DIMLIM
 70
     0
  9
$DIMTIH
 70
     1
  9
$DIMTOH
 70
     1
  9
$DIMSE1
 70
     0
  9
$DIMSE2
 70
     0
  9
$DIMTAD
 70
     0
  9
$DIMZIN
 70
     0
  9
$DIMBLK
  1

  9
$DIMASO
 70
     1
  9
$DIMSHO
 70
     1
  9
$DIMPOST
  1

  9
$DIMAPOST
  1

  9
$DIMALT
 70
     0
  9
$DIMALTD
 70
     2
  9
$DIMALTF
 40
25.4
  9
$DIMLFAC
 40
1.0
  9
$DIMTOFL
 70
     0
  9
$DIMTVP
 40
0.0
  9
$DIMTIX
 70
     0
  9
$DIMSOXD
 70
     0
  9
$DIMSAH
 70
     0
  9
$DIMBLK1
  1

  9
$DIMBLK2
  1

  9
$DIMSTYLE
  2
Standard
  9
$DIMCLRD
 70
     0
  9
$DIMCLRE
 70
     0
  9
$DIMCLRT
 70
     0
  9
$DIMTFAC
 40
1.0
  9
$DIMGAP
 40
0.09
  9
$DIMJUST
 70
     0
  9
$DIMSD1
 70
     0
  9
$DIMSD2
 70
     0
  9
$DIMTOLJ
 70
     1
  9
$DIMTZIN
 70
     0
  9
$DIMALTZ
 70
     0
  9
$DIMALTTZ
 70
     0
  9
$DIMUPT
 70
     0
  9
$DIMDEC
 70
     4
  9
$DIMTDEC
 70
     4
  9
$DIMALTU
 70
     2
  9
$DIMALTTD
 70
     2
  9
$DIMTXSTY
  7
Standard
  9
$DIMAUNIT
 70
     0
  9
$DIMADEC
 70
     0
  9
$DIMALTRND
 40
0.0
  9
$DIMAZIN
 70
     0
  9
$DIMDSEP
 70
    46
  9
$DIMATFIT
 70
     3
  9
$DIMFRAC
 70
     0
  9
$DIMLDRBLK
  1

  9
$DIMLUNIT
 70
     2
  9
$DIMLWD
 70
    -2
  9
$DIMLWE
 70
    -2
  9
$DIMTMOVE
 70
     0
  9
$LUNITS
 70
     2
  9
$LUPREC
 70
     4
  9
$SKETCHINC
 40
0.1
  9
$FILLETRAD
 40
0.5
  9
$AUNITS
 70
     0
  9
$AUPREC
 70
     0
  9
$MENU
  1
.
  9
$ELEVATION
 40
0.0
  9
$PELEVATION
 40
0.0
  9
$THICKNESS
 40
0.0
  9
$LIMCHECK
 70
     0
  9
$CHAMFERA
 40
0.5
  9
$CHAMFERB
 40
0.5
  9
$CHAMFERC
 40
1.0
  9
$CHAMFERD
 40
0.0
  9
$SKPOLY
 70
     0
  9
$TDCREATE
 40
2457206.478787141
  9
$TDUCREATE
 40
2457206.103787141
  9
$TDUPDATE
 40
2457206.47878787
  9
$TDUUPDATE
 40
2457206.10378787
  9
$TDINDWG
 40
0.0000000116
  9
$TDUSRTIMER
 40
0.0000000116
  9
$USRTIMER
 70
     1
  9
$ANGBASE
 50
0.0
  9
$ANGDIR
 70
     0
  9
$PDMODE
 70
     0
  9
$PDSIZE
 40
0.0
  9
$PLINEWID
 40
0.0
  9
$SPLFRAME
 70
     0
  9
$SPLINETYPE
 70
     6
  9
$SPLINESEGS
 70
     8
  9
$HANDSEED
  5
33F
  9
$SURFTAB1
 70
     6
  9
$SURFTAB2
 70
     6
  9
$SURFTYPE
 70
     6
  9
$SURFU
 70
     6
  9
$SURFV
 70
     6
  9
$UCSBASE
  2

  9
$UCSNAME
  2

  9
$UCSORG
 10
0.0
 20
0.0
 30
0.0
  9
$UCSXDIR
 10
1.0
 20
0.0
 30
0.0
  9
$UCSYDIR
 10
0.0
 20
1.0
 30
0.0
  9
$UCSORTHOREF
  2

  9
$UCSORTHOVIEW
 70
     0
  9
$UCSORGTOP
 10
0.0
 20
0.0
 30
0.0
  9
$UCSORGBOTTOM
 10
0.0
 20
0.0
 30
0.0
  9
$UCSORGLEFT
 10
0.0
 20
0.0
 30
0.0
  9
$UCSORGRIGHT
 10
0.0
 20
0.0
 30
0.0
  9
$UCSORGFRONT
 10
0.0
 20
0.0
 30
0.0
  9
$UCSORGBACK
 10
0.0
 20
0.0
 30
0.0
  9
$PUCSBASE
  2

  9
$PUCSNAME
  2

  9
$PUCSORG
 10
0.0
 20
0.0
 30
0.0
  9
$PUCSXDIR
 10
1.0
 20
0.0
 30
0.0
  9
$PUCSYDIR
 10
0.0
 20
1.0
 30
0.0
  9
$PUCSORTHOREF
  2

  9
$PUCSORTHOVIEW
 70
     0
  9
$PUCSORGTOP
 10
0.0
 20
0.0
 30
0.0
  9
$PUCSORGBOTTOM
 10
0.0
 20
0.0
 30
0.0
  9
$PUCSORGLEFT
 10
0.0
 20
0.0
 30
0.0
  9
$PUCSORGRIGHT
 10
0.0
 20
0.0
 30
0.0
  9
$PUCSORGFRONT
 10
0.0
 20
0.0
 30
0.0
  9
$PUCSORGBACK
 10
0.0
 20
0.0
 30
0.0
  9
$USERI1
 70
     0
  9
$USERI2
 70
     0
  9
$USERI3
 70
     0
  9
$USERI4
 70
     0
  9
$USERI5
 70
     0
  9
$USERR1
 40
18.1
  9
$USERR2
 40
0.0
  9
$USERR3
 40
0.0
  9
$USERR4
 40
0.0
  9
$USERR5
 40
0.0
  9
$WORLDVIEW
 70
     1
  9
$SHADEDGE
 70
     3
  9
$SHADEDIF
 70
    70
  9
$TILEMODE
 70
     1
  9
$MAXACTVP
 70
    64
  9
$PINSBASE
 10
0.0
 20
0.0
 30
0.0
  9
$PLIMCHECK
 70
     0
  9
$PEXTMIN
 10
1.00000000000000E+20
 20
1.00000000000000E+20
 30
1.00000000000000E+20
  9
$PEXTMAX
 10
-1.00000000000000E+20
 20
-1.00000000000000E+20
 30
-1.00000000000000E+20
  9
$PLIMMIN
 10
0.0
 20
0.0
  9
$PLIMMAX
 10
12.0
 20
9.0
  9
$UNITMODE
 70
     0
  9
$VISRETAIN
 70
     1
  9
$PLINEGEN
 70
     0
  9
$PSLTSCALE
 70
     1
  9
$TREEDEPTH
 70
  3020
  9
$CMLSTYLE
  2
Standard
  9
$CMLJUST
 70
     0
  9
$CMLSCALE
 40
1.0
  9
$PROXYGRAPHICS
 70
     1
  9
$MEASUREMENT
 70
     1
  9
$CELWEIGHT
370
    -1
  9
$ENDCAPS
280
     0
  9
$JOINSTYLE
280
     0
  9
$LWDISPLAY
290
     0
  9
$INSUNITS
 70
     4
  9
$HYPERLINKBASE
  1

  9
$STYLESHEET
  1

  9
$XEDIT
290
     1
  9
$CEPSNTYPE
380
     0
  9
$PSTYLEMODE
290
     1
  9
$FINGERPRINTGUID
  2
{F7EC7272-2471-49E5-9B09-3E2862B38108}
  9
$VERSIONGUID
  2
{FAEB1C32-E019-11D5-929B-00C0DF256EC4}
  9
$EXTNAMES
290
     1
  9
$PSVPSCALE
 40
0.0
  9
$OLESTARTUP
290
     0
  0
ENDSEC
  0
SECTION
  2
CLASSES
  0
CLASS
  1
ACDBDICTIONARYWDFLT
  2
AcDbDictionaryWithDefault
  3
ObjectDBX Classes
 90
        0
280
     0
281
     0
  0
CLASS
  1
VISUALSTYLE
  2
AcDbVisualStyle
  3
ObjectDBX Classes
 90
     4095
280
     0
281
     0
  0
CLASS
  1
MATERIAL
  2
AcDbMaterial
  3
ObjectDBX Classes
 90
     1153
280
     0
281
     0
  0
CLASS
  1
DICTIONARYVAR
  2
AcDbDictionaryVar
  3
ObjectDBX Classes
 90
        0
280
     0
281
     0
  0
CLASS
  1
ACDBPLACEHOLDER
  2
AcDbPlaceHolder
  3
ObjectDBX Classes
 90
        0
280
     0
281
     0
  0
CLASS
  1
LAYOUT
  2
AcDbLayout
  3
ObjectDBX Classes
 90
        0
280
     0
281
     0
  0
ENDSEC
  0
SECTION
  2
TABLES
  0
TABLE
  2
VPORT
  5
8
330
0
100
AcDbSymbolTable
 70
     1
  0
VPORT
  5
29
330
8
100
AcDbSymbolTableRecord
100
AcDbViewportTableRecord
  2
*Active
 70
     0
 10
0.0
 20
0.0
 11
1.0
 21
1.0
 12
105.0
 22
148.5
 13
0.0
 23
0.0
 14
0.5
 24
0.5
 15
0.5
 25
0.5
 16
0.0
 26
0.0
 36
1.0
 17
0.0
 27
0.0
 37
0.0
 40
326.7
 41
1.60267857142857
 42
50.0
 43
0.0
 44
0.0
 50
0.0
 51
0.0
 71
     0
 72
   100
 73
     1
 74
     3
 75
     0
 76
     0
 77
     0
 78
     0
281
     0
 65
     1
110
0.0
120
0.0
130
0.0
111
1.0
121
0.0
131
0.0
112
0.0
122
1.0
132
0.0
 79
     0
146
0.0
  0
ENDTAB
  0
TABLE
  2
LTYPE
  5
5
330
0
100
AcDbSymbolTable
 70
     8
  0
LTYPE
  5
14
330
5
100
AcDbSymbolTableRecord
100
AcDbLinetypeTableRecord
  2
ByBlock
 70
     0
  3

 72
    65
 73
     0
 40
0.0
  0
LTYPE
  5
15
330
5
100
AcDbSymbolTableRecord
100
AcDbLinetypeTableRecord
  2
ByLayer
 70
     0
  3

 72
    65
 73
     0
 40
0.0
  0
LTYPE
  5
16
330
5
100
AcDbSymbolTableRecord
100
AcDbLinetypeTableRecord
  2
Continuous
 70
     0
  3
Solid line
 72
    65
 73
     0
 40
0.0
  0
LTYPE
  5
3F
330
5
100
AcDbSymbolTableRecord
100
AcDbLinetypeTableRecord
  2
DASHED
 70
     0
  3
Dashed
 72
    65
 73
     2
 40
15.0
 49
7.0
 74
     0
 49
-8.0
 74
     0
  0
LTYPE
  5
40
330
5
100
AcDbSymbolTableRecord
100
AcDbLinetypeTableRecord
  2
DOTTED
 70
     0
  3
Dotted
 72
    65
 73
     2
 40
1.0
 49
0.0
 74
     0
 49
-1.0
 74
     0
  0
LTYPE
  5
41
330
5
100
AcDbSymbolTableRecord
100
AcDbLinetypeTableRecord
  2
DOT_CENTER
 70
     0
  3
Dot_Center
 72
    65
 73
     4
 40
14.0
 49
12.0
 74
     0
 49
-1.0
 74
     0
 49
0.0
 74
     0
 49
-1.0
 74
     0
  0
LTYPE
  5
42
330
5
100
AcDbSymbolTableRecord
100
AcDbLinetypeTableRecord
  2
LONG_DASHED
 70
     0
  3
Long_Dashed
 72
    65
 73
     2
 40
15.0
 49
10.0
 74
     0
 49
-5.0
 74
     0
  0
LTYPE
  5
43
330
5
100
AcDbSymbolTableRecord
100
AcDbLinetypeTableRecord
  2
DASH_CENTER
 70
     0
  3
Dash_Center
 72
    65
 73
     4
 40
14.0
 49
11.0
 74
     0
 49
-1.0
 74
     0
 49
1.0
 74
     0
 49
-1.0
 74
     0
  0
LTYPE
  5
44
330
5
100
AcDbSymbolTableRecord
100
AcDbLinetypeTableRecord
  2
PHANTOM
 70
     0
  3
Phantom
 72
    65
 73
     6
 40
13.0
 49
10.0
 74
     0
 49
-1.0
 74
     0
 49
0.0
 74
     0
 49
-1.0
 74
     0
 49
0.0
 74
     0
 49
-1.0
 74
     0
  0
LTYPE
  5
45
330
5
100
AcDbSymbolTableRecord
100
AcDbLinetypeTableRecord
  2
CENTER_DASH_DASH
 70
     0
  3
Center_Dash_Dash
 72
    65
 73
     6
 40
14.0
 49
9.0
 74
     0
 49
-1.0
 74
     0
 49
1.0
 74
     0
 49
-1.0
 74
     0
 49
1.0
 74
     0
 49
-1.0
 74
     0
  0
ENDTAB
  0
TABLE
  2
LAYER
  5
2
330
0
100
AcDbSymbolTable
 70
     2
  0
LAYER
  5
10
330
2
100
AcDbSymbolTableRecord
100
AcDbLayerTableRecord
  2
0
 70
     0
 62
     7
  6
Continuous
370
    -3
390
F
  0
LAYER
  5
46
330
2
100
AcDbSymbolTableRecord
100
AcDbLayerTableRecord
  2
1
 70
     0
 62
     7
  6
Continuous
370
    -3
390
F
  0
ENDTAB
  0
TABLE
  2
STYLE
  5
3
330
0
100
AcDbSymbolTable
 70
     3
  0
STYLE
  5
11
330
3
100
AcDbSymbolTableRecord
100
AcDbTextStyleTableRecord
  2
Standard
 70
     0
 40
0.0
 41
1.0
 50
0.0
 71
     0
 42
0.2
  3
txt
  4

  0
STYLE
  5
C6
330
3
100
AcDbSymbolTableRecord
100
AcDbTextStyleTableRecord
  2
CONVERTER_11
 70
     0
 40
0.0
 41
0.89
 50
0.0
 71
     0
 42
0.2
  3
MS Mincho.ttf
  4

1001
ACAD
1000
MS Mincho
1071
    32785
  0
STYLE
  5
293
330
3
100
AcDbSymbolTableRecord
100
AcDbTextStyleTableRecord
  2
CONVERTER_12
 70
     0
 40
0.0
 41
0.9
 50
0.0
 71
     0
 42
0.2
  3
txt.shx
  4

  0
ENDTAB
  0
TABLE
  2
VIEW
  5
6
330
0
100
AcDbSymbolTable
 70
     0
  0
ENDTAB
  0
TABLE
  2
UCS
  5
7
330
0
100
AcDbSymbolTable
 70
     0
  0
ENDTAB
  0
TABLE
  2
APPID
  5
9
330
0
100
AcDbSymbolTable
 70
     1
  0
APPID
  5
12
330
9
100
AcDbSymbolTableRecord
100
AcDbRegAppTableRecord
  2
ACAD
 70
     0
  0
ENDTAB
  0
TABLE
  2
DIMSTYLE
  5
A
330
0
100
AcDbSymbolTable
 70
    10
100
AcDbDimStyleTable
  0
DIMSTYLE
105
27
330
A
100
AcDbSymbolTableRecord
100
AcDbDimStyleTableRecord
  2
Standard
 70
     0
178
     0
340
11
  0
DIMSTYLE
105
2B8
102
{ACAD_REACTORS
330
2B9
102
}
330
A
100
AcDbSymbolTableRecord
100
AcDbDimStyleTableRecord
  2
ME10_DIM_10
 70
     0
 41
3.5
 42
0.0
 44
1.0
 73
     0
 74
     0
 77
     1
 78
     8
140
3.5
147
1.0
172
     1
173
     1
174
     1
175
     1
176
     2
177
     2
271
     2
178
     7
271
     2
340
293
  0
DIMSTYLE
105
2C3
102
{ACAD_REACTORS
330
2C4
102
}
330
A
100
AcDbSymbolTableRecord
100
AcDbDimStyleTableRecord
  2
ME10_DIM_11
 70
     0
  3
最大<>
 41
3.5
 42
0.0
 44
1.0
 73
     0
 74
     0
 77
     1
 78
     8
140
3.5
147
1.0
172
     1
173
     1
174
     1
175
     1
176
     2
177
     2
271
     2
178
     7
271
     2
340
C6
  0
DIMSTYLE
105
2CE
102
{ACAD_REACTORS
330
2CF
102
}
330
A
100
AcDbSymbolTableRecord
100
AcDbDimStyleTableRecord
  2
ME10_DIM_12
 70
     0
 41
3.5
 42
0.0
 44
1.0
 73
     0
 74
     0
 77
     1
 78
     8
140
3.5
147
1.0
172
     1
173
     1
174
     1
175
     1
176
     2
177
     2
271
     2
178
     7
271
     2
340
293
  0
DIMSTYLE
105
2D9
102
{ACAD_REACTORS
330
2DA
102
}
330
A
100
AcDbSymbolTableRecord
100
AcDbDimStyleTableRecord
  2
ME10_DIM_13
 70
     0
 41
3.5
 42
0.0
 44
1.0
 73
     0
 74
     0
 77
     1
 78
     8
140
3.5
147
1.0
172
     1
173
     1
174
     1
175
     1
176
     2
177
     2
271
     2
178
     7
271
     2
340
293
  0
DIMSTYLE
105
2E6
102
{ACAD_REACTORS
330
2E7
102
}
330
A
100
AcDbSymbolTableRecord
100
AcDbDimStyleTableRecord
  2
ME10_DIM_14
 70
     0
 41
3.5
 42
0.0
 44
1.0
 73
     0
 74
     0
 77
     1
 78
     8
140
3.5
147
1.0
172
     1
173
     1
174
     1
175
     1
176
     2
177
     2
271
     2
178
     7
271
     2
340
293
  0
DIMSTYLE
105
2F1
102
{ACAD_REACTORS
330
2F2
102
}
330
A
100
AcDbSymbolTableRecord
100
AcDbDimStyleTableRecord
  2
ME10_DIM_15
 70
     0
 41
3.5
 42
0.0
 44
1.0
 73
     0
 74
     0
 77
     1
 78
     8
140
3.5
147
1.0
172
     1
173
     1
174
     1
175
     1
176
     2
177
     2
271
     2
178
     7
271
     2
340
293
  0
DIMSTYLE
105
2FC
102
{ACAD_REACTORS
330
2FD
102
}
330
A
100
AcDbSymbolTableRecord
100
AcDbDimStyleTableRecord
  2
ME10_DIM_16
 70
     0
 41
3.5
 42
0.0
 44
1.0
 73
     0
 74
     0
 77
     1
 78
     8
140
3.5
147
1.0
172
     1
173
     1
174
     1
175
     1
176
     2
177
     2
271
     2
178
     7
271
     2
340
293
  0
DIMSTYLE
105
307
102
{ACAD_REACTORS
330
308
102
}
330
A
100
AcDbSymbolTableRecord
100
AcDbDimStyleTableRecord
  2
ME10_DIM_17
 70
     0
 41
3.5
 42
0.0
 44
1.0
 73
     0
 74
     0
 77
     1
 78
     8
140
3.5
147
1.0
172
     1
173
     1
174
     1
175
     1
176
     2
177
     2
271
     2
178
     7
271
     2
340
293
  0
DIMSTYLE
105
312
102
{ACAD_REACTORS
330
313
102
}
330
A
100
AcDbSymbolTableRecord
100
AcDbDimStyleTableRecord
  2
ME10_DIM_18
 70
     0
 41
3.5
 42
0.0
 44
1.0
 73
     0
 74
     0
 77
     1
 78
     8
140
3.5
147
1.0
172
     1
173
     1
174
     1
175
     1
176
     2
177
     2
271
     2
178
     7
271
     2
340
293
  0
ENDTAB
  0
TABLE
  2
BLOCK_RECORD
  5
1
330
0
100
AcDbSymbolTable
 70
    23
  0
BLOCK_RECORD
  5
1F
330
1
100
AcDbSymbolTableRecord
100
AcDbBlockTableRecord
  2
*Model_Space
340
22
  0
BLOCK_RECORD
  5
1B
330
1
100
AcDbSymbolTableRecord
100
AcDbBlockTableRecord
  2
*Paper_Space
340
1E
  0
BLOCK_RECORD
  5
23
330
1
100
AcDbSymbolTableRecord
100
AcDbBlockTableRecord
  2
*Paper_Space0
340
26
  0
BLOCK_RECORD
  5
47
330
1
100
AcDbSymbolTableRecord
100
AcDbBlockTableRecord
  2
開示A4
340
0
102
{BLKREFS
331
6E
102
}
  0
BLOCK_RECORD
  5
4A
330
1
100
AcDbSymbolTableRecord
100
AcDbBlockTableRecord
  2
74-43-C5
340
0
102
{BLKREFS
331
6F
102
}
  0
BLOCK_RECORD
  5
4D
330
1
100
AcDbSymbolTableRecord
100
AcDbBlockTableRecord
  2
55-5__1
340
0
102
{BLKREFS
331
70
102
}
  0
BLOCK_RECORD
  5
50
330
1
100
AcDbSymbolTableRecord
100
AcDbBlockTableRecord
  2
55-5__2
340
0
102
{BLKREFS
331
71
102
}
  0
BLOCK_RECORD
  5
53
330
1
100
AcDbSymbolTableRecord
100
AcDbBlockTableRecord
  2
32-230-C2__3
340
0
102
{BLKREFS
331
72
102
}
  0
BLOCK_RECORD
  5
56
330
1
100
AcDbSymbolTableRecord
100
AcDbBlockTableRecord
  2
32-230-C2__4
340
0
102
{BLKREFS
331
73
102
}
  0
BLOCK_RECORD
  5
59
330
1
100
AcDbSymbolTableRecord
100
AcDbBlockTableRecord
  2
72-182__5
340
0
102
{BLKREFS
331
74
102
}
  0
BLOCK_RECORD
  5
5C
330
1
100
AcDbSymbolTableRecord
100
AcDbBlockTableRecord
  2
72-182__6
340
0
102
{BLKREFS
331
75
102
}
  0
BLOCK_RECORD
  5
5F
330
1
100
AcDbSymbolTableRecord
100
AcDbBlockTableRecord
  2
72-182__7
340
0
102
{BLKREFS
331
76
102
}
  0
BLOCK_RECORD
  5
62
330
1
100
AcDbSymbolTableRecord
100
AcDbBlockTableRecord
  2
55-5__8
340
0
102
{BLKREFS
331
77
102
}
  0
BLOCK_RECORD
  5
65
330
1
100
AcDbSymbolTableRecord
100
AcDbBlockTableRecord
  2
32-25_
340
0
102
{BLKREFS
331
78
102
}
  0
BLOCK_RECORD
  5
68
330
1
100
AcDbSymbolTableRecord
100
AcDbBlockTableRecord
  2
72-182___9
340
0
102
{BLKREFS
331
79
102
}
  0
BLOCK_RECORD
  5
6B
330
1
100
AcDbSymbolTableRecord
100
AcDbBlockTableRecord
  2
72-182___10
340
0
102
{BLKREFS
331
7A
102
}
  0
BLOCK_RECORD
  5
2AF
330
1
100
AcDbSymbolTableRecord
100
AcDbBlockTableRecord
  2
*D14
340
0
  0
BLOCK_RECORD
  5
2BA
330
1
100
AcDbSymbolTableRecord
100
AcDbBlockTableRecord
  2
*D15
340
0
  0
BLOCK_RECORD
  5
2C5
330
1
100
AcDbSymbolTableRecord
100
AcDbBlockTableRecord
  2
*D16
340
0
  0
BLOCK_RECORD
  5
2D0
330
1
100
AcDbSymbolTableRecord
100
AcDbBlockTableRecord
  2
*D17
340
0
  0
BLOCK_RECORD
  5
2DB
330
1
100
AcDbSymbolTableRecord
100
AcDbBlockTableRecord
  2
*D18
340
0
  0
BLOCK_RECORD
  5
2E8
330
1
100
AcDbSymbolTableRecord
100
AcDbBlockTableRecord
  2
*D19
340
0
  0
BLOCK_RECORD
  5
2F3
330
1
100
AcDbSymbolTableRecord
100
AcDbBlockTableRecord
  2
*D20
340
0
  0
BLOCK_RECORD
  5
2FE
330
1
100
AcDbSymbolTableRecord
100
AcDbBlockTableRecord
  2
*D21
340
0
  0
BLOCK_RECORD
  5
309
330
1
100
AcDbSymbolTableRecord
100
AcDbBlockTableRecord
  2
*D22
340
0
  0
ENDTAB
  0
ENDSEC
  0
SECTION
  2
BLOCKS
  0
BLOCK
  5
20
330
1F
100
AcDbEntity
  8
0
100
AcDbBlockBegin
  2
*Model_Space
 70
     0
 10
0.0
 20
0.0
 30
0.0
  3
*Model_Space
  1

  0
ENDBLK
  5
21
330
1F
100
AcDbEntity
  8
0
100
AcDbBlockEnd
  0
BLOCK
  5
1C
330
1B
100
AcDbEntity
 67
     1
  8
0
100
AcDbBlockBegin
  2
*Paper_Space
 70
     0
 10
0.0
 20
0.0
 30
0.0
  3
*Paper_Space
  1

  0
ENDBLK
  5
1D
330
1B
100
AcDbEntity
 67
     1
  8
0
100
AcDbBlockEnd
  0
BLOCK
  5
24
330
23
100
AcDbEntity
  8
0
100
AcDbBlockBegin
  2
*Paper_Space0
 70
     0
 10
0.0
 20
0.0
 30
0.0
  3
*Paper_Space0
  1

  0
ENDBLK
  5
25
330
23
100
AcDbEntity
  8
0
100
AcDbBlockEnd
  0
BLOCK
  5
48
330
47
100
AcDbEntity
  8
0
100
AcDbBlockBegin
  2
開示A4
 70
     0
 10
210.0
 20
0.0
 30
0.0
  3
開示A4
  1

  0
POINT
  5
7B
330
47
100
AcDbEntity
  8
1
 62
     4
100
AcDbPoint
 10
93.75
 20
17.0
 30
0.0
  0
POINT
  5
7C
330
47
100
AcDbEntity
  8
1
 62
     4
100
AcDbPoint
 10
85.25
 20
17.0
 30
0.0
  0
POINT
  5
7D
330
47
100
AcDbEntity
  8
1
 62
     4
100
AcDbPoint
 10
106.5
 20
19.0
 30
0.0
  0
POINT
  5
7E
330
47
100
AcDbEntity
  8
1
 62
     4
100
AcDbPoint
 10
106.5
 20
12.5
 30
0.0
  0
POINT
  5
7F
330
47
100
AcDbEntity
  8
1
 62
     4
100
AcDbPoint
 10
112.25
 20
12.5
 30
0.0
  0
POINT
  5
80
330
47
100
AcDbEntity
  8
1
 62
     4
100
AcDbPoint
 10
100.75
 20
12.5
 30
0.0
  0
POINT
  5
81
330
47
100
AcDbEntity
  8
1
 62
     4
100
AcDbPoint
 10
123.5
 20
19.0
 30
0.0
  0
POINT
  5
82
330
47
100
AcDbEntity
  8
1
 62
     4
100
AcDbPoint
 10
123.5
 20
12.5
 30
0.0
  0
POINT
  5
83
330
47
100
AcDbEntity
  8
1
 62
     4
100
AcDbPoint
 10
129.25
 20
12.5
 30
0.0
  0
POINT
  5
84
330
47
100
AcDbEntity
  8
1
 62
     4
100
AcDbPoint
 10
117.75
 20
12.5
 30
0.0
  0
POINT
  5
85
330
47
100
AcDbEntity
  8
1
 62
     4
100
AcDbPoint
 10
140.5
 20
19.0
 30
0.0
  0
POINT
  5
86
330
47
100
AcDbEntity
  8
1
 62
     4
100
AcDbPoint
 10
140.5
 20
12.5
 30
0.0
  0
POINT
  5
87
330
47
100
AcDbEntity
  8
1
 62
     4
100
AcDbPoint
 10
146.25
 20
12.5
 30
0.0
  0
POINT
  5
88
330
47
100
AcDbEntity
  8
1
 62
     4
100
AcDbPoint
 10
134.75
 20
12.5
 30
0.0
  0
POINT
  5
89
330
47
100
AcDbEntity
  8
1
 62
     4
100
AcDbPoint
 10
151.75
 20
12.5
 30
0.0
  0
POINT
  5
8A
330
47
100
AcDbEntity
  8
1
 62
     4
100
AcDbPoint
 10
163.25
 20
12.5
 30
0.0
  0
POINT
  5
8B
330
47
100
AcDbEntity
  8
1
 62
     4
100
AcDbPoint
 10
157.5
 20
12.5
 30
0.0
  0
POINT
  5
8C
330
47
100
AcDbEntity
  8
1
 62
     4
100
AcDbPoint
 10
57.0
 20
14.25
 30
0.0
  0
POINT
  5
8D
330
47
100
AcDbEntity
  8
1
 62
     4
100
AcDbPoint
 10
57.0
 20
22.75
 30
0.0
  0
POINT
  5
8E
330
47
100
AcDbEntity
  8
1
 62
     4
100
AcDbPoint
 10
47.5
 20
282.0000000000003
 30
0.0
  0
POINT
  5
8F
330
47
100
AcDbEntity
  8
1
 62
     4
100
AcDbPoint
 10
157.5
 20
19.0
 30
0.0
  0
POINT
  5
90
330
47
100
AcDbEntity
  8
1
 62
     4
100
AcDbPoint
 10
57.0
 20
16.25
 30
0.0
  0
POINT
  5
91
330
47
100
AcDbEntity
  8
1
 62
     4
100
AcDbPoint
 10
57.0
 20
24.75
 30
0.0
  0
POINT
  5
92
330
47
100
AcDbEntity
  8
1
 62
     4
100
AcDbPoint
 10
57.0
 20
20.75
 30
0.0
  0
POINT
  5
93
330
47
100
AcDbEntity
  8
1
 62
     4
100
AcDbPoint
 10
57.0
 20
12.25
 30
0.0
  0
POINT
  5
94
330
47
100
AcDbEntity
  8
1
 62
     4
100
AcDbPoint
 10
34.0
 20
34.0
 30
0.0
  0
LINE
  5
95
330
47
100
AcDbEntity
  8
1
  6
Continuous
 62
     7
100
AcDbLine
 10
105.0
 20
10.0
 30
0.0
 11
200.0
 21
10.0
 31
0.0
  0
LINE
  5
96
330
47
100
AcDbEntity
  8
1
  6
Continuous
 62
     2
100
AcDbLine
 10
105.0
 20
10.0
 30
0.0
 11
105.0
 21
5.0
 31
0.0
  0
LINE
  5
97
330
47
100
AcDbEntity
  8
1
  6
Continuous
 62
     7
100
AcDbLine
 10
200.0
 20
148.5
 30
0.0
 11
200.0
 21
287.0000000000003
 31
0.0
  0
LINE
  5
98
330
47
100
AcDbEntity
  8
1
  6
Continuous
 62
     2
100
AcDbLine
 10
200.0
 20
148.5
 30
0.0
 11
205.0
 21
148.5
 31
0.0
  0
LINE
  5
99
330
47
100
AcDbEntity
  8
1
  6
Continuous
 62
     7
100
AcDbLine
 10
25.0
 20
148.5
 30
0.0
 11
25.0
 21
287.0000000000003
 31
0.0
  0
LINE
  5
9A
330
47
100
AcDbEntity
  8
1
  6
Continuous
 62
     2
100
AcDbLine
 10
25.0
 20
148.5
 30
0.0
 11
20.0
 21
148.5
 31
0.0
  0
LINE
  5
9B
330
47
100
AcDbEntity
  8
1
  6
Continuous
 62
     7
100
AcDbLine
 10
105.0
 20
287.0000000000003
 30
0.0
 11
25.0
 21
287.0000000000003
 31
0.0
  0
LINE
  5
9C
330
47
100
AcDbEntity
  8
1
  6
Continuous
 62
     2
100
AcDbLine
 10
105.0
 20
287.0000000000003
 30
0.0
 11
105.0
 21
292.0000000000003
 31
0.0
  0
LINE
  5
9D
330
47
100
AcDbEntity
  8
1
  6
Continuous
 62
     2
100
AcDbLine
 10
166.0
 20
20.0
 30
0.0
 11
200.0
 21
20.0
 31
0.0
  0
LINE
  5
9E
330
47
100
AcDbEntity
  8
1
  6
Continuous
 62
     2
100
AcDbLine
 10
98.0
 20
27.0
 30
0.0
 11
98.0
 21
10.0
 31
0.0
  0
LINE
  5
9F
330
47
100
AcDbEntity
  8
1
  6
Continuous
 62
     2
100
AcDbLine
 10
115.0
 20
27.0
 30
0.0
 11
115.0
 21
10.0
 31
0.0
  0
LINE
  5
A0
330
47
100
AcDbEntity
  8
1
  6
Continuous
 62
     2
100
AcDbLine
 10
149.0
 20
27.0
 30
0.0
 11
149.0
 21
10.0
 31
0.0
  0
LINE
  5
A1
330
47
100
AcDbEntity
  8
1
  6
Continuous
 62
     2
100
AcDbLine
 10
132.0
 20
27.0
 30
0.0
 11
132.0
 21
10.0
 31
0.0
  0
LINE
  5
A2
330
47
100
AcDbEntity
  8
1
  6
Continuous
 62
     2
100
AcDbLine
 10
166.0
 20
27.0
 30
0.0
 11
166.0
 21
10.0
 31
0.0
  0
LINE
  5
A3
330
47
100
AcDbEntity
  8
1
  6
Continuous
 62
     2
100
AcDbLine
 10
55.0
 20
277.0000000000003
 30
0.0
 11
25.0
 21
277.0000000000003
 31
0.0
  0
LINE
  5
A4
330
47
100
AcDbEntity
  8
1
  6
Continuous
 62
     7
100
AcDbLine
 10
25.0
 20
10.0
 30
0.0
 11
25.0
 21
148.5
 31
0.0
  0
LINE
  5
A5
330
47
100
AcDbEntity
  8
1
  6
Continuous
 62
     2
100
AcDbLine
 10
40.0
 20
287.0000000000003
 30
0.0
 11
40.0
 21
277.0000000000003
 31
0.0
  0
LINE
  5
A6
330
47
100
AcDbEntity
  8
1
  6
Continuous
 62
     2
100
AcDbLine
 10
55.0
 20
287.0000000000003
 30
0.0
 11
55.0
 21
277.0000000000003
 31
0.0
  0
LINE
  5
A7
330
47
100
AcDbEntity
  8
1
  6
Continuous
 62
     2
100
AcDbLine
 10
33.0
 20
41.0
 30
0.0
 11
33.0
 21
27.0
 31
0.0
  0
LINE
  5
A8
330
47
100
AcDbEntity
  8
1
  6
Continuous
 62
     7
100
AcDbLine
 10
200.0
 20
27.0
 30
0.0
 11
25.0
 21
27.0
 31
0.0
  0
LINE
  5
A9
330
47
100
AcDbEntity
  8
1
  6
Continuous
 62
     7
100
AcDbLine
 10
25.0
 20
41.0
 30
0.0
 11
200.0
 21
41.0
 31
0.0
  0
LINE
  5
AA
330
47
100
AcDbEntity
  8
1
  6
PHANTOM
 62
     4
100
AcDbLine
 10
0.0
 20
0.0
 30
0.0
 11
210.0
 21
0.0
 31
0.0
  0
LINE
  5
AB
330
47
100
AcDbEntity
  8
1
  6
PHANTOM
 62
     4
100
AcDbLine
 10
210.0
 20
0.0
 30
0.0
 11
210.0
 21
297.0
 31
0.0
  0
LINE
  5
AC
330
47
100
AcDbEntity
  8
1
  6
PHANTOM
 62
     4
100
AcDbLine
 10
210.0
 20
297.0
 30
0.0
 11
0.0
 21
297.0
 31
0.0
  0
LINE
  5
AD
330
47
100
AcDbEntity
  8
1
  6
PHANTOM
 62
     4
100
AcDbLine
 10
0.0
 20
297.0
 30
0.0
 11
0.0
 21
0.0
 31
0.0
  0
LINE
  5
AE
330
47
100
AcDbEntity
  8
1
  6
Continuous
 62
     7
100
AcDbLine
 10
25.0
 20
10.0
 30
0.0
 11
105.0
 21
10.0
 31
0.0
  0
LINE
  5
AF
330
47
100
AcDbEntity
  8
1
  6
Continuous
 62
     7
100
AcDbLine
 10
200.0
 20
10.0
 30
0.0
 11
200.0
 21
148.5
 31
0.0
  0
LINE
  5
B0
330
47
100
AcDbEntity
  8
1
  6
Continuous
 62
     7
100
AcDbLine
 10
200.0
 20
287.0000000000003
 30
0.0
 11
105.0
 21
287.0000000000003
 31
0.0
  0
LINE
  5
B1
330
47
100
AcDbEntity
  8
1
  6
Continuous
 62
     2
100
AcDbLine
 10
25.0
 20
18.5
 30
0.0
 11
81.0
 21
18.5
 31
0.0
  0
LINE
  5
B2
330
47
100
AcDbEntity
  8
1
  6
Continuous
 62
     2
100
AcDbLine
 10
33.0
 20
27.0
 30
0.0
 11
33.0
 21
10.0
 31
0.0
  0
LINE
  5
B3
330
47
100
AcDbEntity
  8
1
  6
Continuous
 62
     7
100
AcDbLine
 10
191.0
 20
24.69999999999999
 30
0.0
 11
191.0
 21
22.30000000000001
 31
0.0
  0
LINE
  5
B4
330
47
100
AcDbEntity
  8
1
  6
Continuous
 62
     7
100
AcDbLine
 10
191.0
 20
24.69999999999999
 30
0.0
 11
196.0
 21
25.5
 31
0.0
  0
LINE
  5
B5
330
47
100
AcDbEntity
  8
1
  6
Continuous
 62
     7
100
AcDbLine
 10
196.0
 20
25.5
 30
0.0
 11
196.0
 21
21.5
 31
0.0
  0
LINE
  5
B6
330
47
100
AcDbEntity
  8
1
  6
Continuous
 62
     7
100
AcDbLine
 10
196.0
 20
21.5
 30
0.0
 11
191.0
 21
22.30000000000001
 31
0.0
  0
LINE
  5
B7
330
47
100
AcDbEntity
  8
1
  6
DOT_CENTER
 62
     2
100
AcDbLine
 10
184.0
 20
23.5
 30
0.0
 11
197.0
 21
23.5
 31
0.0
  0
LINE
  5
B8
330
47
100
AcDbEntity
  8
1
  6
DOT_CENTER
 62
     2
100
AcDbLine
 10
187.0
 20
26.5
 30
0.0
 11
187.0
 21
20.5
 31
0.0
  0
LINE
  5
B9
330
47
100
AcDbEntity
  8
1
  6
Continuous
 62
     2
100
AcDbLine
 10
81.0
 20
27.0
 30
0.0
 11
81.0
 21
10.0
 31
0.0
  0
CIRCLE
  5
BA
330
47
100
AcDbEntity
  8
1
  6
Continuous
 62
     7
100
AcDbCircle
 10
103.5
 20
12.5
 30
0.0
 40
0.2999999999999972
  0
CIRCLE
  5
BB
330
47
100
AcDbEntity
  8
1
  6
Continuous
 62
     7
100
AcDbCircle
 10
109.5
 20
12.5
 30
0.0
 40
0.2999999999999972
  0
CIRCLE
  5
BC
330
47
100
AcDbEntity
  8
1
  6
Continuous
 62
     7
100
AcDbCircle
 10
120.5
 20
12.5
 30
0.0
 40
0.2999999999999972
  0
CIRCLE
  5
BD
330
47
100
AcDbEntity
  8
1
  6
Continuous
 62
     7
100
AcDbCircle
 10
126.5
 20
12.5
 30
0.0
 40
0.2999999999999972
  0
CIRCLE
  5
BE
330
47
100
AcDbEntity
  8
1
  6
Continuous
 62
     7
100
AcDbCircle
 10
137.5
 20
12.5
 30
0.0
 40
0.3000000000000114
  0
CIRCLE
  5
BF
330
47
100
AcDbEntity
  8
1
  6
Continuous
 62
     7
100
AcDbCircle
 10
143.5
 20
12.5
 30
0.0
 40
0.3000000000000114
  0
CIRCLE
  5
C0
330
47
100
AcDbEntity
  8
1
  6
Continuous
 62
     7
100
AcDbCircle
 10
160.5
 20
12.5
 30
0.0
 40
0.3000000000000114
  0
CIRCLE
  5
C1
330
47
100
AcDbEntity
  8
1
  6
Continuous
 62
     7
100
AcDbCircle
 10
154.5
 20
12.5
 30
0.0
 40
0.3000000000000114
  0
CIRCLE
  5
C2
330
47
100
AcDbEntity
  8
1
  6
Continuous
 62
     7
100
AcDbCircle
 10
187.0
 20
23.5
 30
0.0
 40
1.200000000000102
  0
CIRCLE
  5
C3
330
47
100
AcDbEntity
  8
1
  6
Continuous
 62
     7
100
AcDbCircle
 10
187.0
 20
23.5
 30
0.0
 40
2.0
  0
CIRCLE
  5
C4
330
47
100
AcDbEntity
  8
1
  6
DOT_CENTER
 62
     7
100
AcDbCircle
 10
89.5
 20
16.0
 30
0.0
 40
0.0999999999999091
  0
CIRCLE
  5
C5
330
47
100
AcDbEntity
  8
1
  6
DOT_CENTER
 62
     7
100
AcDbCircle
 10
89.5
 20
18.0
 30
0.0
 40
0.0999999999999091
  0
MTEXT
  5
C7
330
47
100
AcDbEntity
  8
1
 62
     7
100
AcDbMText
 10
188.5
 20
15.0
 30
0.0
 40
3.0
 41
0.0
 71
     5
 72
     1
  1
三栄水栓製作所
  7
CONVERTER_11
 73
     1
 44
1.0
  0
MTEXT
  5
C8
330
47
100
AcDbEntity
  8
1
 62
     7
100
AcDbMText
 10
171.5
 20
15.0
 30
0.0
 40
2.5
 41
0.0
 71
     5
 72
     1
  1
株式会社
  7
CONVERTER_11
 73
     1
 44
1.0
  0
MTEXT
  5
C9
330
47
100
AcDbEntity
  8
1
 62
     2
100
AcDbMText
 10
32.5
 20
282.0000000000003
 30
0.0
 40
5.0
 41
0.0
 71
     5
 72
     1
  1
図番
  7
CONVERTER_11
 73
     1
 44
0.45454545454545
  0
MTEXT
  5
CA
330
47
100
AcDbEntity
  8
1
 62
     2
100
AcDbMText
 10
29.0
 20
34.0
 30
0.0
 40
3.5
 41
0.0
 71
     5
 72
     1
  1
備考
  7
CONVERTER_11
 73
     1
 44
0.45454545454545
  0
MTEXT
  5
CB
330
47
100
AcDbEntity
  8
1
 62
     2
100
AcDbMText
 10
29.0
 20
22.75
 30
0.0
 40
3.5
 41
0.0
 71
     5
 72
     1
  1
品名
  7
CONVERTER_11
 73
     1
 44
0.72727272727273
  0
MTEXT
  5
CC
330
47
100
AcDbEntity
  8
1
 62
     2
100
AcDbMText
 10
29.0
 20
14.25
 30
0.0
 40
3.5
 41
0.0
 71
     5
 72
     1
  1
品番
  7
CONVERTER_11
 73
     1
 44
0.72727272727273
  0
MTEXT
  5
CD
330
47
100
AcDbEntity
  8
1
 62
     2
100
AcDbMText
 10
101.5
 20
25.0
 30
0.0
 40
3.0
 41
0.0
 71
     5
 72
     1
  1
承認
  7
CONVERTER_11
 73
     1
 44
0.59090909090909
  0
MTEXT
  5
CE
330
47
100
AcDbEntity
  8
1
 62
     2
100
AcDbMText
 10
175.0
 20
23.5
 30
0.0
 40
3.5
 41
0.0
 71
     5
 72
     1
  1
第三角法
  7
CONVERTER_11
 73
     1
 44
0.54545454545455
  0
MTEXT
  5
CF
330
47
100
AcDbEntity
  8
1
 62
     2
100
AcDbMText
 10
118.5
 20
25.0
 30
0.0
 40
3.0
 41
0.0
 71
     5
 72
     1
  1
検図
  7
CONVERTER_11
 73
     1
 44
0.59090909090909
  0
MTEXT
  5
D0
330
47
100
AcDbEntity
  8
1
 62
     2
100
AcDbMText
 10
152.5
 20
25.0
 30
0.0
 40
3.0
 41
0.0
 71
     5
 72
     1
  1
設計
  7
CONVERTER_11
 73
     1
 44
0.59090909090909
  0
MTEXT
  5
D1
330
47
100
AcDbEntity
  8
1
 62
     2
100
AcDbMText
 10
135.5
 20
25.0
 30
0.0
 40
3.0
 41
0.0
 71
     5
 72
     1
  1
製図
  7
CONVERTER_11
 73
     1
 44
0.59090909090909
  0
MTEXT
  5
D2
330
47
100
AcDbEntity
  8
1
 62
     2
100
AcDbMText
 10
89.5
 20
24.0
 30
0.0
 40
3.5
 41
0.0
 71
     5
 72
     1
  1
尺度
  7
CONVERTER_11
 73
     1
 44
0.54545454545455
  0
MTEXT
  5
D3
330
47
100
AcDbEntity
  8
1
 62
   250
100
AcDbMText
 10
25.0
 20
5.0
 30
0.0
 40
3.5
 41
0.0
 71
     4
 72
     1
  1
備考欄の文字列 原点位置=4
  7
CONVERTER_11
 73
     1
 44
0.54545454545455
  0
ENDBLK
  5
49
330
47
100
AcDbEntity
  8
0
100
AcDbBlockEnd
  0
BLOCK
  5
4B
330
4A
100
AcDbEntity
  8
0
100
AcDbBlockBegin
  2
74-43-C5
 70
     0
 10
-210.0
 20
-336.0000000000002
 30
0.0
  3
74-43-C5
  1

  0
LINE
  5
D4
330
4A
100
AcDbEntity
  8
1
  6
PHANTOM
 62
     4
100
AcDbLine
 10
152.0
 20
61.84999999999988
 30
0.0
 11
152.0
 21
65.84999999999988
 31
0.0
  0
LINE
  5
D5
330
4A
100
AcDbEntity
  8
1
  6
Continuous
 62
     7
100
AcDbLine
 10
137.0
 20
62.84999999999988
 30
0.0
 11
167.0
 21
62.84999999999988
 31
0.0
  0
LINE
  5
D6
330
4A
100
AcDbEntity
  8
1
  6
Continuous
 62
     7
100
AcDbLine
 10
167.0
 20
64.84999999999988
 30
0.0
 11
137.0
 21
64.84999999999988
 31
0.0
  0
LINE
  5
D7
330
4A
100
AcDbEntity
  8
1
  6
Continuous
 62
     7
100
AcDbLine
 10
57.75
 20
62.84999999999988
 30
0.0
 11
53.25
 21
62.84999999999988
 31
0.0
  0
LINE
  5
D8
330
4A
100
AcDbEntity
  8
1
  6
Continuous
 62
     7
100
AcDbLine
 10
53.25
 20
62.84999999999988
 30
0.0
 11
47.5
 21
62.84999999999988
 31
0.0
  0
LINE
  5
D9
330
4A
100
AcDbEntity
  8
1
  6
Continuous
 62
     7
100
AcDbLine
 10
53.25
 20
64.84999999999988
 30
0.0
 11
57.75
 21
64.84999999999988
 31
0.0
  0
LINE
  5
DA
330
4A
100
AcDbEntity
  8
1
  6
Continuous
 62
     7
100
AcDbLine
 10
57.75
 20
64.84999999999988
 30
0.0
 11
106.25
 21
64.84999999999988
 31
0.0
  0
LINE
  5
DB
330
4A
100
AcDbEntity
  8
1
  6
Continuous
 62
     7
100
AcDbLine
 10
110.75
 20
62.84999999999988
 30
0.0
 11
106.25
 21
62.84999999999988
 31
0.0
  0
LINE
  5
DC
330
4A
100
AcDbEntity
  8
1
  6
Continuous
 62
     7
100
AcDbLine
 10
106.25
 20
62.84999999999988
 30
0.0
 11
57.75
 21
62.84999999999988
 31
0.0
  0
LINE
  5
DD
330
4A
100
AcDbEntity
  8
1
  6
Continuous
 62
     7
100
AcDbLine
 10
106.25
 20
64.84999999999988
 30
0.0
 11
110.75
 21
64.84999999999988
 31
0.0
  0
LINE
  5
DE
330
4A
100
AcDbEntity
  8
1
  6
Continuous
 62
     7
100
AcDbLine
 10
110.75
 20
64.84999999999988
 30
0.0
 11
116.5
 21
64.84999999999988
 31
0.0
  0
LINE
  5
DF
330
4A
100
AcDbEntity
  8
1
  6
Continuous
 62
     7
100
AcDbLine
 10
63.0
 20
238.9999999999997
 30
0.0
 11
50.0
 21
238.9999999999997
 31
0.0
  0
LINE
  5
E0
330
4A
100
AcDbEntity
  8
1
  6
Continuous
 62
     7
100
AcDbLine
 10
101.0
 20
241.4999999999997
 30
0.0
 11
63.0
 21
241.4999999999997
 31
0.0
  0
LINE
  5
E1
330
4A
100
AcDbEntity
  8
1
  6
PHANTOM
 62
     4
100
AcDbLine
 10
82.0
 20
245.9999999999997
 30
0.0
 11
82.0
 21
206.4999999999997
 31
0.0
  0
LINE
  5
E2
330
4A
100
AcDbEntity
  8
1
  6
PHANTOM
 62
     4
100
AcDbLine
 10
44.5
 20
223.9999999999997
 30
0.0
 11
119.5
 21
223.9999999999997
 31
0.0
  0
LINE
  5
E3
330
4A
100
AcDbEntity
  8
1
  6
PHANTOM
 62
     4
100
AcDbLine
 10
55.5
 20
219.4999999999997
 30
0.0
 11
55.5
 21
228.4999999999997
 31
0.0
  0
LINE
  5
E4
330
4A
100
AcDbEntity
  8
1
  6
PHANTOM
 62
     4
100
AcDbLine
 10
108.4999999999991
 20
219.4999999999997
 30
0.0
 11
108.4999999999991
 21
228.4999999999997
 31
0.0
  0
LINE
  5
E5
330
4A
100
AcDbEntity
  8
1
  6
Continuous
 62
     7
100
AcDbLine
 10
47.5
 20
236.4999999999997
 30
0.0
 11
47.5
 21
211.4999999999997
 31
0.0
  0
LINE
  5
E6
330
4A
100
AcDbEntity
  8
1
  6
Continuous
 62
     7
100
AcDbLine
 10
50.0
 20
208.9999999999997
 30
0.0
 11
101.0
 21
208.9999999999997
 31
0.0
  0
LINE
  5
E7
330
4A
100
AcDbEntity
  8
1
  6
Continuous
 62
     7
100
AcDbLine
 10
114.0
 20
238.9999999999997
 30
0.0
 11
101.0
 21
238.9999999999997
 31
0.0
  0
LINE
  5
E8
330
4A
100
AcDbEntity
  8
1
  6
Continuous
 62
     7
100
AcDbLine
 10
116.5
 20
211.4999999999997
 30
0.0
 11
116.5
 21
236.4999999999997
 31
0.0
  0
LINE
  5
E9
330
4A
100
AcDbEntity
  8
1
  6
Continuous
 62
     7
100
AcDbLine
 10
101.0
 20
208.9999999999997
 30
0.0
 11
114.0
 21
208.9999999999997
 31
0.0
  0
LINE
  5
EA
330
4A
100
AcDbEntity
  8
1
  6
Continuous
 62
     7
100
AcDbLine
 10
101.0
 20
243.4999999999997
 30
0.0
 11
101.0
 21
238.9999999999997
 31
0.0
  0
LINE
  5
EB
330
4A
100
AcDbEntity
  8
1
  6
Continuous
 62
     7
100
AcDbLine
 10
101.0
 20
243.4999999999997
 30
0.0
 11
63.0
 21
243.4999999999997
 31
0.0
  0
LINE
  5
EC
330
4A
100
AcDbEntity
  8
1
  6
Continuous
 62
     7
100
AcDbLine
 10
63.0
 20
238.9999999999997
 30
0.0
 11
63.0
 21
243.4999999999997
 31
0.0
  0
LINE
  5
ED
330
4A
100
AcDbEntity
  8
1
  6
PHANTOM
 62
     4
100
AcDbLine
 10
82.0
 20
163.85
 30
0.0
 11
82.0
 21
59.84999999999991
 31
0.0
  0
LINE
  5
EE
330
4A
100
AcDbEntity
  8
1
  6
PHANTOM
 62
     4
100
AcDbLine
 10
55.5
 20
61.84999999999988
 30
0.0
 11
55.5
 21
65.84999999999988
 31
0.0
  0
LINE
  5
EF
330
4A
100
AcDbEntity
  8
1
  6
PHANTOM
 62
     4
100
AcDbLine
 10
108.5
 20
61.84999999999988
 30
0.0
 11
108.5
 21
65.84999999999988
 31
0.0
  0
LINE
  5
F0
330
4A
100
AcDbEntity
  8
1
  6
Continuous
 62
     7
100
AcDbLine
 10
101.0
 20
145.85
 30
0.0
 11
101.0
 21
64.84999999999988
 31
0.0
  0
LINE
  5
F1
330
4A
100
AcDbEntity
  8
1
  6
Continuous
 62
     7
100
AcDbLine
 10
47.5
 20
64.84999999999988
 30
0.0
 11
53.25
 21
64.84999999999988
 31
0.0
  0
LINE
  5
F2
330
4A
100
AcDbEntity
  8
1
  6
Continuous
 62
     7
100
AcDbLine
 10
116.5
 20
62.84999999999988
 30
0.0
 11
110.75
 21
62.84999999999988
 31
0.0
  0
LINE
  5
F3
330
4A
100
AcDbEntity
  8
1
  6
Continuous
 62
     7
100
AcDbLine
 10
116.5
 20
64.84999999999988
 30
0.0
 11
116.5
 21
62.84999999999988
 31
0.0
  0
LINE
  5
F4
330
4A
100
AcDbEntity
  8
1
  6
Continuous
 62
     7
100
AcDbLine
 10
63.0
 20
64.84999999999988
 30
0.0
 11
63.0
 21
145.85
 31
0.0
  0
LINE
  5
F5
330
4A
100
AcDbEntity
  8
1
  6
Continuous
 62
     7
100
AcDbLine
 10
47.5
 20
62.84999999999988
 30
0.0
 11
47.5
 21
64.84999999999988
 31
0.0
  0
LINE
  5
F6
330
4A
100
AcDbEntity
  8
1
  6
Continuous
 62
     7
100
AcDbLine
 10
169.5
 20
160.85
 30
0.0
 11
169.5
 21
67.34999999999988
 31
0.0
  0
LINE
  5
F7
330
4A
100
AcDbEntity
  8
1
  6
Continuous
 62
     7
100
AcDbLine
 10
171.5
 20
67.34999999999988
 30
0.0
 11
171.5
 21
160.85
 31
0.0
  0
LINE
  5
F8
330
4A
100
AcDbEntity
  8
1
  6
Continuous
 62
     7
100
AcDbLine
 10
169.5
 20
160.85
 30
0.0
 11
171.5
 21
160.85
 31
0.0
  0
LINE
  5
F9
330
4A
100
AcDbEntity
  8
1
  6
Continuous
 62
     7
100
AcDbLine
 10
137.0
 20
64.84999999999988
 30
0.0
 11
137.0
 21
62.84999999999988
 31
0.0
  0
LINE
  5
FA
330
4A
100
AcDbEntity
  8
1
  6
Continuous
 62
     7
100
AcDbLine
 10
78.0
 20
160.85
 30
0.0
 11
86.0
 21
160.85
 31
0.0
  0
LINE
  5
FB
330
4A
100
AcDbEntity
  8
1
  6
Continuous
 62
     7
100
AcDbLine
 10
71.25
 20
145.6
 30
0.0
 11
71.25
 21
143.7006328944925
 31
0.0
  0
LINE
  5
FC
330
4A
100
AcDbEntity
  8
1
  6
Continuous
 62
     7
100
AcDbLine
 10
92.75
 20
143.7006328944925
 30
0.0
 11
92.75
 21
145.6
 31
0.0
  0
ARC
  5
FD
330
4A
100
AcDbEntity
  8
1
  6
Continuous
 62
     7
100
AcDbCircle
 10
78.0
 20
145.85
 30
0.0
 40
15.0
100
AcDbArc
 50
90.0
 51
180.0
  0
ARC
  5
FE
330
4A
100
AcDbEntity
  8
1
  6
Continuous
 62
     7
100
AcDbCircle
 10
86.0
 20
145.85
 30
0.0
 40
15.0
100
AcDbArc
 50
0.0
 51
90.0
  0
ARC
  5
FF
330
4A
100
AcDbEntity
  8
1
  6
Continuous
 62
     7
100
AcDbCircle
 10
82.0
 20
145.6
 30
0.0
 40
10.75
100
AcDbArc
 50
90.0
 51
180.0
  0
ARC
  5
100
330
4A
100
AcDbEntity
  8
1
  6
Continuous
 62
     7
100
AcDbCircle
 10
82.0
 20
122.1
 30
0.0
 40
10.75
100
AcDbArc
 50
270.0
 51
347.4989232865786
  0
ARC
  5
101
330
4A
100
AcDbEntity
  8
1
  6
Continuous
 62
     7
100
AcDbCircle
 10
82.0
 20
145.6
 30
0.0
 40
10.75
100
AcDbArc
 50
0.0
 51
90.0
  0
ARC
  5
102
330
4A
100
AcDbEntity
  8
1
  6
Continuous
 62
     7
100
AcDbCircle
 10
82.0
 20
122.1
 30
0.0
 40
10.75000000000002
100
AcDbArc
 50
192.5010767134214
 51
270.0
  0
ARC
  5
103
330
4A
100
AcDbEntity
  8
1
  6
Continuous
 62
     7
100
AcDbCircle
 10
167.0
 20
67.34999999999988
 30
0.0
 40
2.5
100
AcDbArc
 50
270.0
 51
0.0
  0
ARC
  5
104
330
4A
100
AcDbEntity
  8
1
  6
Continuous
 62
     7
100
AcDbCircle
 10
50.0
 20
211.4999999999997
 30
0.0
 40
2.5
100
AcDbArc
 50
180.0
 51
270.0
  0
ARC
  5
105
330
4A
100
AcDbEntity
  8
1
  6
Continuous
 62
     7
100
AcDbCircle
 10
50.0
 20
236.4999999999997
 30
0.0
 40
2.5
100
AcDbArc
 50
90.0
 51
180.0
  0
ARC
  5
106
330
4A
100
AcDbEntity
  8
1
  6
Continuous
 62
     7
100
AcDbCircle
 10
114.0
 20
236.4999999999997
 30
0.0
 40
2.5
100
AcDbArc
 50
0.0
 51
90.0
  0
ARC
  5
107
330
4A
100
AcDbEntity
  8
1
  6
Continuous
 62
     7
100
AcDbCircle
 10
114.0
 20
211.4999999999997
 30
0.0
 40
2.5
100
AcDbArc
 50
270.0
 51
0.0
  0
ARC
  5
108
330
4A
100
AcDbEntity
  8
1
  6
Continuous
 62
     7
100
AcDbCircle
 10
167.0
 20
67.34999999999988
 30
0.0
 40
4.5
100
AcDbArc
 50
270.0
 51
0.0
  0
ENDBLK
  5
4C
330
4A
100
AcDbEntity
  8
0
100
AcDbBlockEnd
  0
BLOCK
  5
4E
330
4D
100
AcDbEntity
  8
0
100
AcDbBlockBegin
  2
55-5__1
 70
     0
 10
316.0
 20
154.1499999999995
 30
0.0
  3
55-5__1
  1

  0
LINE
  5
109
330
4D
100
AcDbEntity
  8
1
  6
PHANTOM
 62
     4
100
AcDbLine
 10
82.0
 20
239.9999999999997
 30
0.0
 11
82.0
 21
241.9999999999997
 31
0.0
  0
LINE
  5
10A
330
4D
100
AcDbEntity
  8
1
  6
Continuous
 62
     7
100
AcDbLine
 10
66.0
 20
240.4999999999997
 30
0.0
 11
66.0
 21
241.4999999999997
 31
0.0
  0
LINE
  5
10B
330
4D
100
AcDbEntity
  8
1
  6
Continuous
 62
     7
100
AcDbLine
 10
66.0
 20
241.4999999999997
 30
0.0
 11
82.0
 21
241.4999999999997
 31
0.0
  0
LINE
  5
10C
330
4D
100
AcDbEntity
  8
1
  6
Continuous
 62
     7
100
AcDbLine
 10
82.0
 20
240.4999999999997
 30
0.0
 11
66.0
 21
240.4999999999997
 31
0.0
  0
LINE
  5
10D
330
4D
100
AcDbEntity
  8
1
  6
Continuous
 62
     7
100
AcDbLine
 10
98.0
 20
241.4999999999997
 30
0.0
 11
98.0
 21
240.4999999999997
 31
0.0
  0
LINE
  5
10E
330
4D
100
AcDbEntity
  8
1
  6
Continuous
 62
     7
100
AcDbLine
 10
82.0
 20
241.4999999999997
 30
0.0
 11
98.0
 21
241.4999999999997
 31
0.0
  0
LINE
  5
10F
330
4D
100
AcDbEntity
  8
1
  6
Continuous
 62
     7
100
AcDbLine
 10
98.0
 20
240.4999999999997
 30
0.0
 11
82.0
 21
240.4999999999997
 31
0.0
  0
ENDBLK
  5
4F
330
4D
100
AcDbEntity
  8
0
100
AcDbBlockEnd
  0
BLOCK
  5
51
330
50
100
AcDbEntity
  8
0
100
AcDbBlockBegin
  2
55-5__2
 70
     0
 10
321.5
 20
260.35
 30
0.0
  3
55-5__2
  1

  0
LINE
  5
110
330
50
100
AcDbEntity
  8
1
  6
PHANTOM
 62
     4
100
AcDbLine
 10
168.0
 20
131.85
 30
0.0
 11
170.0
 21
131.85
 31
0.0
  0
LINE
  5
111
330
50
100
AcDbEntity
  8
1
  6
Continuous
 62
     7
100
AcDbLine
 10
168.5
 20
147.85
 30
0.0
 11
169.5
 21
147.85
 31
0.0
  0
LINE
  5
112
330
50
100
AcDbEntity
  8
1
  6
Continuous
 62
     7
100
AcDbLine
 10
169.5
 20
115.85
 30
0.0
 11
168.5
 21
115.85
 31
0.0
  0
LINE
  5
113
330
50
100
AcDbEntity
  8
1
  6
Continuous
 62
     7
100
AcDbLine
 10
169.5
 20
147.85
 30
0.0
 11
169.5
 21
115.85
 31
0.0
  0
LINE
  5
114
330
50
100
AcDbEntity
  8
1
  6
Continuous
 62
     7
100
AcDbLine
 10
168.5
 20
115.85
 30
0.0
 11
168.5
 21
147.85
 31
0.0
  0
ENDBLK
  5
52
330
50
100
AcDbEntity
  8
0
100
AcDbBlockEnd
  0
BLOCK
  5
54
330
53
100
AcDbEntity
  8
0
100
AcDbBlockBegin
  2
32-230-C2__3
 70
     0
 10
290.0904415604
 20
84.5192453679961
 30
0.0
  3
32-230-C2__3
  1

  0
LINE
  5
115
330
53
100
AcDbEntity
  8
1
  6
Continuous
 62
     7
100
AcDbLine
 10
163.5
 20
119.85
 30
0.0
 11
163.5
 21
131.85
 31
0.0
  0
LINE
  5
116
330
53
100
AcDbEntity
  8
1
  6
Continuous
 62
     7
100
AcDbLine
 10
164.0779430959777
 20
124.9153858579319
 30
0.0
 11
168.5
 21
124.9153858579319
 31
0.0
  0
LINE
  5
117
330
53
100
AcDbEntity
  8
1
  6
PHANTOM
 62
     4
100
AcDbLine
 10
163.5
 20
131.85
 30
0.0
 11
160.5
 21
131.85
 31
0.0
  0
LINE
  5
118
330
53
100
AcDbEntity
  8
1
  6
Continuous
 62
     7
100
AcDbLine
 10
164.0779430959777
 20
124.9153858579319
 30
0.0
 11
164.0779430959777
 21
124.9346185933096
 31
0.0
  0
LINE
  5
119
330
53
100
AcDbEntity
  8
1
  6
Continuous
 62
     7
100
AcDbLine
 10
164.5680954280754
 20
118.0000044512415
 30
0.0
 11
163.5
 21
119.85
 31
0.0
  0
LINE
  5
11A
330
53
100
AcDbEntity
  8
1
  6
PHANTOM
 62
     4
100
AcDbLine
 10
163.5
 20
131.85
 30
0.0
 11
164.662
 21
131.85
 31
0.0
  0
LINE
  5
11B
330
53
100
AcDbEntity
  8
1
  6
Continuous
 62
     7
100
AcDbLine
 10
168.5
 20
118.0000044512415
 30
0.0
 11
164.5680954280754
 21
118.0000044512415
 31
0.0
  0
LINE
  5
11C
330
53
100
AcDbEntity
  8
1
  6
PHANTOM
 62
     4
100
AcDbLine
 10
164.662
 20
131.85
 30
0.0
 11
167.338
 21
131.85
 31
0.0
  0
LINE
  5
11D
330
53
100
AcDbEntity
  8
1
  6
PHANTOM
 62
     4
100
AcDbLine
 10
167.338
 20
131.85
 30
0.0
 11
171.5
 21
131.85
 31
0.0
  0
LINE
  5
11E
330
53
100
AcDbEntity
  8
1
  6
Continuous
 62
     7
100
AcDbLine
 10
168.5
 20
118.0000044512415
 30
0.0
 11
168.5
 21
145.6999955487585
 31
0.0
  0
LINE
  5
11F
330
53
100
AcDbEntity
  8
1
  6
Continuous
 62
     7
100
AcDbLine
 10
163.5
 20
143.85
 30
0.0
 11
164.5680954280761
 21
145.6999955487583
 31
0.0
  0
LINE
  5
120
330
53
100
AcDbEntity
  8
1
  6
Continuous
 62
     7
100
AcDbLine
 10
164.0779430959777
 20
138.7653814066904
 30
0.0
 11
164.0779430959777
 21
138.784614142068
 31
0.0
  0
LINE
  5
121
330
53
100
AcDbEntity
  8
1
  6
Continuous
 62
     7
100
AcDbLine
 10
163.5
 20
131.85
 30
0.0
 11
163.5
 21
143.85
 31
0.0
  0
LINE
  5
122
330
53
100
AcDbEntity
  8
1
  6
Continuous
 62
     7
100
AcDbLine
 10
168.5
 20
138.784614142068
 30
0.0
 11
164.0779430959777
 21
138.784614142068
 31
0.0
  0
LINE
  5
123
330
53
100
AcDbEntity
  8
1
  6
Continuous
 62
     7
100
AcDbLine
 10
164.5680954280761
 20
145.6999955487583
 30
0.0
 11
168.5
 21
145.6999955487585
 31
0.0
  0
ARC
  5
124
330
53
100
AcDbEntity
  8
1
  6
Continuous
 62
     7
100
AcDbCircle
 10
205.161989352702
 20
131.85
 30
0.0
 40
41.66198935270199
100
AcDbArc
 50
180.0
 51
189.5546218109555
  0
ARC
  5
125
330
53
100
AcDbEntity
  8
1
  6
Continuous
 62
     7
100
AcDbCircle
 10
171.2112703301605
 20
121.9459245271349
 30
0.0
 40
7.726710685992614
100
AcDbArc
 50
157.3990156293965
 51
210.7095096765613
  0
ARC
  5
126
330
53
100
AcDbEntity
  8
1
  6
Continuous
 62
     7
100
AcDbCircle
 10
171.2112703301605
 20
141.7540754728651
 30
0.0
 40
7.726710685991855
100
AcDbArc
 50
149.2904903234375
 51
202.6009843706044
  0
ARC
  5
127
330
53
100
AcDbEntity
  8
1
  6
Continuous
 62
     7
100
AcDbCircle
 10
205.161989352702
 20
131.85
 30
0.0
 40
41.66198935270207
100
AcDbArc
 50
170.4453781890445
 51
180.0
  0
ENDBLK
  5
55
330
53
100
AcDbEntity
  8
0
100
AcDbBlockEnd
  0
BLOCK
  5
57
330
56
100
AcDbEntity
  8
0
100
AcDbBlockBegin
  2
32-230-C2__4
 70
     0
 10
284.5904415604
 20
84.5192453679961
 30
0.0
  3
32-230-C2__4
  1

  0
LINE
  5
128
330
56
100
AcDbEntity
  8
1
  6
Continuous
 62
     7
100
AcDbLine
 10
94.0
 20
124.9217967697243
 30
0.0
 11
94.0
 21
138.7782032302755
 31
0.0
  0
LINE
  5
129
330
56
100
AcDbEntity
  8
1
  6
Continuous
 62
     7
100
AcDbLine
 10
94.0
 20
124.9217967697243
 30
0.0
 11
82.0
 21
117.993593539449
 31
0.0
  0
LINE
  5
12A
330
56
100
AcDbEntity
  8
1
  6
Continuous
 62
     7
100
AcDbLine
 10
94.0
 20
138.7782032302755
 30
0.0
 11
82.0
 21
145.7064064605508
 31
0.0
  0
LINE
  5
12B
330
56
100
AcDbEntity
  8
1
  6
Continuous
 62
     7
100
AcDbLine
 10
70.0
 20
124.9217967697243
 30
0.0
 11
70.0
 21
138.7653814066905
 31
0.0
  0
LINE
  5
12C
330
56
100
AcDbEntity
  8
1
  6
Continuous
 62
     7
100
AcDbLine
 10
70.0
 20
124.9217967697243
 30
0.0
 11
82.0
 21
117.993593539449
 31
0.0
  0
LINE
  5
12D
330
56
100
AcDbEntity
  8
1
  6
PHANTOM
 62
     4
100
AcDbLine
 10
82.0
 20
114.993593539449
 30
0.0
 11
82.0
 21
148.9263525179855
 31
0.0
  0
LINE
  5
12E
330
56
100
AcDbEntity
  8
1
  6
Continuous
 62
     7
100
AcDbLine
 10
82.0
 20
145.7064064605508
 30
0.0
 11
70.01110402494811
 21
138.784614142068
 31
0.0
  0
LINE
  5
12F
330
56
100
AcDbEntity
  8
1
  6
PHANTOM
 62
     4
100
AcDbLine
 10
67.07189208633099
 20
131.85
 30
0.0
 11
97.0157913669068
 21
131.85
 31
0.0
  0
ARC
  5
130
330
56
100
AcDbEntity
  8
1
  6
Continuous
 62
     7
100
AcDbCircle
 10
82.0
 20
131.85
 30
0.0
 40
13.84999999999945
100
AcDbArc
 50
149.9540639831572
 51
150.0459360168415
  0
CIRCLE
  5
131
330
56
100
AcDbEntity
  8
1
  6
Continuous
 62
     2
100
AcDbCircle
 10
82.0
 20
131.85
 30
0.0
 40
10.3499999999998
  0
CIRCLE
  5
132
330
56
100
AcDbEntity
  8
1
  6
Continuous
 62
     7
100
AcDbCircle
 10
82.0
 20
131.85
 30
0.0
 40
9.187999999999903
  0
CIRCLE
  5
133
330
56
100
AcDbEntity
  8
1
  6
Continuous
 62
     7
100
AcDbCircle
 10
82.0
 20
131.85
 30
0.0
 40
11.2006430383949
  0
ENDBLK
  5
58
330
56
100
AcDbEntity
  8
0
100
AcDbBlockEnd
  0
BLOCK
  5
5A
330
59
100
AcDbEntity
  8
0
100
AcDbBlockBegin
  2
72-182__5
 70
     0
 10
55.5
 20
64.84999999999988
 30
0.0
  3
72-182__5
  1

  0
LINE
  5
134
330
59
100
AcDbEntity
  8
1
  6
Continuous
 62
     7
100
AcDbLine
 10
54.48641485404602
 20
46.60558097058947
 30
0.0
 11
56.94999999999982
 21
47.56754264805414
 31
0.0
  0
LINE
  5
135
330
59
100
AcDbEntity
  8
1
  6
Continuous
 62
     7
100
AcDbLine
 10
54.05000000000018
 20
46.29999999999996
 30
0.0
 11
54.48641485404602
 21
46.60558097058947
 31
0.0
  0
LINE
  5
136
330
59
100
AcDbEntity
  8
1
  6
Continuous
 62
     7
100
AcDbLine
 10
56.69485880899902
 20
46.91955616505675
 30
0.0
 11
54.77500000000009
 21
46.10573683548725
 31
0.0
  0
LINE
  5
137
330
59
100
AcDbEntity
  8
1
  6
Continuous
 62
     7
100
AcDbLine
 10
54.05000000000018
 20
46.29999999999996
 30
0.0
 11
57.40349789987391
 21
47.25000000000006
 31
0.0
  0
LINE
  5
138
330
59
100
AcDbEntity
  8
1
  6
Continuous
 62
     7
100
AcDbLine
 10
54.05000000000018
 20
46.29999999999996
 30
0.0
 11
54.77500000000009
 21
46.10573683548725
 31
0.0
  0
LINE
  5
139
330
59
100
AcDbEntity
  8
1
  6
Continuous
 62
     7
100
AcDbLine
 10
57.40349789987391
 20
47.25000000000006
 30
0.0
 11
56.69485880899902
 21
46.91955616505675
 31
0.0
  0
LINE
  5
13A
330
59
100
AcDbEntity
  8
1
  6
Continuous
 62
     7
100
AcDbLine
 10
56.94999999999982
 20
47.56754264805414
 30
0.0
 11
57.40349789987391
 21
47.25000000000006
 31
0.0
  0
LINE
  5
13B
330
59
100
AcDbEntity
  8
1
  6
Continuous
 62
     7
100
AcDbLine
 10
54.05000000000018
 20
47.88245735194556
 30
0.0
 11
54.05000000000018
 21
47.36147367097487
 31
0.0
  0
LINE
  5
13C
330
59
100
AcDbEntity
  8
1
  6
Continuous
 62
     7
100
AcDbLine
 10
54.05000000000018
 20
49.78245735194565
 30
0.0
 11
54.05000000000018
 21
48.51754264805416
 31
0.0
  0
LINE
  5
13D
330
59
100
AcDbEntity
  8
1
  6
Continuous
 62
     7
100
AcDbLine
 10
54.05000000000018
 20
51.68245735194569
 30
0.0
 11
54.05000000000018
 21
50.41754264805425
 31
0.0
  0
LINE
  5
13E
330
59
100
AcDbEntity
  8
1
  6
Continuous
 62
     7
100
AcDbLine
 10
54.05000000000018
 20
53.58245735194581
 30
0.0
 11
54.05000000000018
 21
52.31754264805431
 31
0.0
  0
LINE
  5
13F
330
59
100
AcDbEntity
  8
1
  6
Continuous
 62
     7
100
AcDbLine
 10
54.05000000000018
 20
55.48245735194558
 30
0.0
 11
54.05000000000018
 21
54.21754264805421
 31
0.0
  0
LINE
  5
140
330
59
100
AcDbEntity
  8
1
  6
Continuous
 62
     7
100
AcDbLine
 10
54.05000000000018
 20
57.38245735194562
 30
0.0
 11
54.05000000000018
 21
56.11754264805421
 31
0.0
  0
LINE
  5
141
330
59
100
AcDbEntity
  8
1
  6
Continuous
 62
     7
100
AcDbLine
 10
54.05000000000018
 20
59.2824573519456
 30
0.0
 11
54.05000000000018
 21
58.01754264805419
 31
0.0
  0
LINE
  5
142
330
59
100
AcDbEntity
  8
1
  6
Continuous
 62
     7
100
AcDbLine
 10
54.05000000000018
 20
61.18245735194569
 30
0.0
 11
54.05000000000018
 21
59.91754264805419
 31
0.0
  0
LINE
  5
143
330
59
100
AcDbEntity
  8
1
  6
Continuous
 62
     7
100
AcDbLine
 10
56.94999999999982
 20
48.83245735194555
 30
0.0
 11
56.94999999999982
 21
47.56754264805414
 31
0.0
  0
LINE
  5
144
330
59
100
AcDbEntity
  8
1
  6
Continuous
 62
     7
100
AcDbLine
 10
56.94999999999982
 20
50.73245735194547
 30
0.0
 11
56.94999999999982
 21
49.46754264805418
 31
0.0
  0
LINE
  5
145
330
59
100
AcDbEntity
  8
1
  6
Continuous
 62
     7
100
AcDbLine
 10
56.94999999999982
 20
52.63245735194562
 30
0.0
 11
56.94999999999982
 21
51.36754264805421
 31
0.0
  0
LINE
  5
146
330
59
100
AcDbEntity
  8
1
  6
Continuous
 62
     7
100
AcDbLine
 10
56.94999999999982
 20
54.5324573519456
 30
0.0
 11
56.94999999999982
 21
53.26754264805419
 31
0.0
  0
LINE
  5
147
330
59
100
AcDbEntity
  8
1
  6
Continuous
 62
     7
100
AcDbLine
 10
56.94999999999982
 20
56.43245735194552
 30
0.0
 11
56.94999999999982
 21
55.16754264805419
 31
0.0
  0
LINE
  5
148
330
59
100
AcDbEntity
  8
1
  6
Continuous
 62
     7
100
AcDbLine
 10
56.94999999999982
 20
58.33245735194549
 30
0.0
 11
56.94999999999982
 21
57.06754264805409
 31
0.0
  0
LINE
  5
149
330
59
100
AcDbEntity
  8
1
  6
Continuous
 62
     7
100
AcDbLine
 10
56.94999999999982
 20
60.23245735194541
 30
0.0
 11
56.94999999999982
 21
58.96754264805421
 31
0.0
  0
LINE
  5
14A
330
59
100
AcDbEntity
  8
1
  6
Continuous
 62
     7
100
AcDbLine
 10
56.94999999999982
 20
62.13245735194559
 30
0.0
 11
56.94999999999982
 21
60.86754264805418
 31
0.0
  0
LINE
  5
14B
330
59
100
AcDbEntity
  8
1
  6
Continuous
 62
     7
100
AcDbLine
 10
53.5
 20
48.19999999999988
 30
0.0
 11
54.05000000000018
 21
48.51754264805416
 31
0.0
  0
LINE
  5
14C
330
59
100
AcDbEntity
  8
1
  6
Continuous
 62
     7
100
AcDbLine
 10
53.5
 20
50.09999999999997
 30
0.0
 11
54.05000000000018
 21
50.41754264805425
 31
0.0
  0
LINE
  5
14D
330
59
100
AcDbEntity
  8
1
  6
Continuous
 62
     7
100
AcDbLine
 10
53.5
 20
52.0
 30
0.0
 11
54.05000000000018
 21
52.31754264805431
 31
0.0
  0
LINE
  5
14E
330
59
100
AcDbEntity
  8
1
  6
Continuous
 62
     7
100
AcDbLine
 10
53.5
 20
53.89999999999992
 30
0.0
 11
54.05000000000018
 21
54.21754264805421
 31
0.0
  0
LINE
  5
14F
330
59
100
AcDbEntity
  8
1
  6
Continuous
 62
     7
100
AcDbLine
 10
53.5
 20
55.7999999999999
 30
0.0
 11
54.05000000000018
 21
56.11754264805421
 31
0.0
  0
LINE
  5
150
330
59
100
AcDbEntity
  8
1
  6
Continuous
 62
     7
100
AcDbLine
 10
53.5
 20
57.6999999999999
 30
0.0
 11
54.05000000000018
 21
58.01754264805419
 31
0.0
  0
LINE
  5
151
330
59
100
AcDbEntity
  8
1
  6
Continuous
 62
     7
100
AcDbLine
 10
53.5
 20
59.59999999999991
 30
0.0
 11
54.05000000000018
 21
59.91754264805419
 31
0.0
  0
LINE
  5
152
330
59
100
AcDbEntity
  8
1
  6
Continuous
 62
     7
100
AcDbLine
 10
53.5
 20
61.5
 30
0.0
 11
54.05000000000018
 21
61.81754264805429
 31
0.0
  0
LINE
  5
153
330
59
100
AcDbEntity
  8
1
  6
Continuous
 62
     7
100
AcDbLine
 10
53.5
 20
48.19999999999988
 30
0.0
 11
54.05000000000018
 21
47.88245735194556
 31
0.0
  0
LINE
  5
154
330
59
100
AcDbEntity
  8
1
  6
Continuous
 62
     7
100
AcDbLine
 10
53.5
 20
50.09999999999997
 30
0.0
 11
54.05000000000018
 21
49.78245735194565
 31
0.0
  0
LINE
  5
155
330
59
100
AcDbEntity
  8
1
  6
Continuous
 62
     7
100
AcDbLine
 10
53.5
 20
52.0
 30
0.0
 11
54.05000000000018
 21
51.68245735194569
 31
0.0
  0
LINE
  5
156
330
59
100
AcDbEntity
  8
1
  6
Continuous
 62
     7
100
AcDbLine
 10
53.5
 20
53.89999999999992
 30
0.0
 11
54.05000000000018
 21
53.58245735194581
 31
0.0
  0
LINE
  5
157
330
59
100
AcDbEntity
  8
1
  6
Continuous
 62
     7
100
AcDbLine
 10
53.5
 20
55.7999999999999
 30
0.0
 11
54.05000000000018
 21
55.48245735194558
 31
0.0
  0
LINE
  5
158
330
59
100
AcDbEntity
  8
1
  6
Continuous
 62
     7
100
AcDbLine
 10
53.5
 20
57.6999999999999
 30
0.0
 11
54.05000000000018
 21
57.38245735194562
 31
0.0
  0
LINE
  5
159
330
59
100
AcDbEntity
  8
1
  6
Continuous
 62
     7
100
AcDbLine
 10
53.5
 20
59.59999999999991
 30
0.0
 11
54.05000000000018
 21
59.2824573519456
 31
0.0
  0
LINE
  5
15A
330
59
100
AcDbEntity
  8
1
  6
Continuous
 62
     7
100
AcDbLine
 10
53.5
 20
61.5
 30
0.0
 11
54.05000000000018
 21
61.18245735194569
 31
0.0
  0
LINE
  5
15B
330
59
100
AcDbEntity
  8
1
  6
Continuous
 62
     7
100
AcDbLine
 10
54.05000000000018
 20
48.51754264805416
 30
0.0
 11
56.94999999999982
 21
49.46754264805418
 31
0.0
  0
LINE
  5
15C
330
59
100
AcDbEntity
  8
1
  6
Continuous
 62
     7
100
AcDbLine
 10
54.05000000000018
 20
50.41754264805425
 30
0.0
 11
56.94999999999982
 21
51.36754264805421
 31
0.0
  0
LINE
  5
15D
330
59
100
AcDbEntity
  8
1
  6
Continuous
 62
     7
100
AcDbLine
 10
54.05000000000018
 20
52.31754264805431
 30
0.0
 11
56.94999999999982
 21
53.26754264805419
 31
0.0
  0
LINE
  5
15E
330
59
100
AcDbEntity
  8
1
  6
Continuous
 62
     7
100
AcDbLine
 10
54.05000000000018
 20
54.21754264805421
 30
0.0
 11
56.94999999999982
 21
55.16754264805419
 31
0.0
  0
LINE
  5
15F
330
59
100
AcDbEntity
  8
1
  6
Continuous
 62
     7
100
AcDbLine
 10
54.05000000000018
 20
56.11754264805421
 30
0.0
 11
56.94999999999982
 21
57.06754264805409
 31
0.0
  0
LINE
  5
160
330
59
100
AcDbEntity
  8
1
  6
Continuous
 62
     7
100
AcDbLine
 10
54.05000000000018
 20
58.01754264805419
 30
0.0
 11
56.94999999999982
 21
58.96754264805421
 31
0.0
  0
LINE
  5
161
330
59
100
AcDbEntity
  8
1
  6
Continuous
 62
     7
100
AcDbLine
 10
54.05000000000018
 20
59.91754264805419
 30
0.0
 11
56.94999999999982
 21
60.86754264805418
 31
0.0
  0
LINE
  5
162
330
59
100
AcDbEntity
  8
1
  6
Continuous
 62
     7
100
AcDbLine
 10
54.05000000000018
 20
61.81754264805429
 30
0.0
 11
56.94999999999982
 21
62.76754264805419
 31
0.0
  0
LINE
  5
163
330
59
100
AcDbEntity
  8
1
  6
Continuous
 62
     7
100
AcDbLine
 10
56.94999999999982
 20
48.83245735194555
 30
0.0
 11
54.05000000000018
 21
47.88245735194556
 31
0.0
  0
LINE
  5
164
330
59
100
AcDbEntity
  8
1
  6
Continuous
 62
     7
100
AcDbLine
 10
56.94999999999982
 20
50.73245735194547
 30
0.0
 11
54.05000000000018
 21
49.78245735194565
 31
0.0
  0
LINE
  5
165
330
59
100
AcDbEntity
  8
1
  6
Continuous
 62
     7
100
AcDbLine
 10
56.94999999999982
 20
52.63245735194562
 30
0.0
 11
54.05000000000018
 21
51.68245735194569
 31
0.0
  0
LINE
  5
166
330
59
100
AcDbEntity
  8
1
  6
Continuous
 62
     7
100
AcDbLine
 10
56.94999999999982
 20
54.5324573519456
 30
0.0
 11
54.05000000000018
 21
53.58245735194581
 31
0.0
  0
LINE
  5
167
330
59
100
AcDbEntity
  8
1
  6
Continuous
 62
     7
100
AcDbLine
 10
56.94999999999982
 20
56.43245735194552
 30
0.0
 11
54.05000000000018
 21
55.48245735194558
 31
0.0
  0
LINE
  5
168
330
59
100
AcDbEntity
  8
1
  6
Continuous
 62
     7
100
AcDbLine
 10
56.94999999999982
 20
58.33245735194549
 30
0.0
 11
54.05000000000018
 21
57.38245735194562
 31
0.0
  0
LINE
  5
169
330
59
100
AcDbEntity
  8
1
  6
Continuous
 62
     7
100
AcDbLine
 10
56.94999999999982
 20
60.23245735194541
 30
0.0
 11
54.05000000000018
 21
59.2824573519456
 31
0.0
  0
LINE
  5
16A
330
59
100
AcDbEntity
  8
1
  6
Continuous
 62
     7
100
AcDbLine
 10
56.94999999999982
 20
62.13245735194559
 30
0.0
 11
54.05000000000018
 21
61.18245735194569
 31
0.0
  0
LINE
  5
16B
330
59
100
AcDbEntity
  8
1
  6
Continuous
 62
     7
100
AcDbLine
 10
53.5
 20
48.19999999999988
 30
0.0
 11
57.5
 21
49.14999999999986
 31
0.0
  0
LINE
  5
16C
330
59
100
AcDbEntity
  8
1
  6
Continuous
 62
     7
100
AcDbLine
 10
53.5
 20
50.09999999999997
 30
0.0
 11
57.5
 21
51.0499999999999
 31
0.0
  0
LINE
  5
16D
330
59
100
AcDbEntity
  8
1
  6
Continuous
 62
     7
100
AcDbLine
 10
53.5
 20
52.0
 30
0.0
 11
57.5
 21
52.9499999999999
 31
0.0
  0
LINE
  5
16E
330
59
100
AcDbEntity
  8
1
  6
Continuous
 62
     7
100
AcDbLine
 10
53.5
 20
53.89999999999992
 30
0.0
 11
57.5
 21
54.84999999999991
 31
0.0
  0
LINE
  5
16F
330
59
100
AcDbEntity
  8
1
  6
Continuous
 62
     7
100
AcDbLine
 10
53.5
 20
55.7999999999999
 30
0.0
 11
57.5
 21
56.75
 31
0.0
  0
LINE
  5
170
330
59
100
AcDbEntity
  8
1
  6
Continuous
 62
     7
100
AcDbLine
 10
53.5
 20
57.6999999999999
 30
0.0
 11
57.5
 21
58.64999999999992
 31
0.0
  0
LINE
  5
171
330
59
100
AcDbEntity
  8
1
  6
Continuous
 62
     7
100
AcDbLine
 10
53.5
 20
59.59999999999991
 30
0.0
 11
57.5
 21
60.5499999999999
 31
0.0
  0
LINE
  5
172
330
59
100
AcDbEntity
  8
1
  6
Continuous
 62
     7
100
AcDbLine
 10
53.5
 20
61.5
 30
0.0
 11
57.5
 21
62.4499999999999
 31
0.0
  0
LINE
  5
173
330
59
100
AcDbEntity
  8
1
  6
Continuous
 62
     7
100
AcDbLine
 10
56.94999999999982
 20
48.83245735194555
 30
0.0
 11
57.5
 21
49.14999999999986
 31
0.0
  0
LINE
  5
174
330
59
100
AcDbEntity
  8
1
  6
Continuous
 62
     7
100
AcDbLine
 10
56.94999999999982
 20
50.73245735194547
 30
0.0
 11
57.5
 21
51.0499999999999
 31
0.0
  0
LINE
  5
175
330
59
100
AcDbEntity
  8
1
  6
Continuous
 62
     7
100
AcDbLine
 10
56.94999999999982
 20
52.63245735194562
 30
0.0
 11
57.5
 21
52.9499999999999
 31
0.0
  0
LINE
  5
176
330
59
100
AcDbEntity
  8
1
  6
Continuous
 62
     7
100
AcDbLine
 10
56.94999999999982
 20
54.5324573519456
 30
0.0
 11
57.5
 21
54.84999999999991
 31
0.0
  0
LINE
  5
177
330
59
100
AcDbEntity
  8
1
  6
Continuous
 62
     7
100
AcDbLine
 10
56.94999999999982
 20
56.43245735194552
 30
0.0
 11
57.5
 21
56.75
 31
0.0
  0
LINE
  5
178
330
59
100
AcDbEntity
  8
1
  6
Continuous
 62
     7
100
AcDbLine
 10
56.94999999999982
 20
58.33245735194549
 30
0.0
 11
57.5
 21
58.64999999999992
 31
0.0
  0
LINE
  5
179
330
59
100
AcDbEntity
  8
1
  6
Continuous
 62
     7
100
AcDbLine
 10
56.94999999999982
 20
60.23245735194541
 30
0.0
 11
57.5
 21
60.5499999999999
 31
0.0
  0
LINE
  5
17A
330
59
100
AcDbEntity
  8
1
  6
Continuous
 62
     7
100
AcDbLine
 10
56.94999999999982
 20
62.13245735194559
 30
0.0
 11
57.5
 21
62.4499999999999
 31
0.0
  0
LINE
  5
17B
330
59
100
AcDbEntity
  8
1
  6
Continuous
 62
     7
100
AcDbLine
 10
57.5
 20
49.14999999999986
 30
0.0
 11
56.94999999999982
 21
49.46754264805418
 31
0.0
  0
LINE
  5
17C
330
59
100
AcDbEntity
  8
1
  6
Continuous
 62
     7
100
AcDbLine
 10
57.5
 20
51.0499999999999
 30
0.0
 11
56.94999999999982
 21
51.36754264805421
 31
0.0
  0
LINE
  5
17D
330
59
100
AcDbEntity
  8
1
  6
Continuous
 62
     7
100
AcDbLine
 10
57.5
 20
52.9499999999999
 30
0.0
 11
56.94999999999982
 21
53.26754264805419
 31
0.0
  0
LINE
  5
17E
330
59
100
AcDbEntity
  8
1
  6
Continuous
 62
     7
100
AcDbLine
 10
57.5
 20
54.84999999999991
 30
0.0
 11
56.94999999999982
 21
55.16754264805419
 31
0.0
  0
LINE
  5
17F
330
59
100
AcDbEntity
  8
1
  6
Continuous
 62
     7
100
AcDbLine
 10
57.5
 20
56.75
 30
0.0
 11
56.94999999999982
 21
57.06754264805409
 31
0.0
  0
LINE
  5
180
330
59
100
AcDbEntity
  8
1
  6
Continuous
 62
     7
100
AcDbLine
 10
57.5
 20
58.64999999999992
 30
0.0
 11
56.94999999999982
 21
58.96754264805421
 31
0.0
  0
LINE
  5
181
330
59
100
AcDbEntity
  8
1
  6
Continuous
 62
     7
100
AcDbLine
 10
57.5
 20
60.5499999999999
 30
0.0
 11
56.94999999999982
 21
60.86754264805418
 31
0.0
  0
LINE
  5
182
330
59
100
AcDbEntity
  8
1
  6
Continuous
 62
     7
100
AcDbLine
 10
57.5
 20
62.4499999999999
 30
0.0
 11
56.94999999999982
 21
62.76754264805419
 31
0.0
  0
LINE
  5
183
330
59
100
AcDbEntity
  8
1
  6
Continuous
 62
     7
100
AcDbLine
 10
50.80000000000018
 20
65.1384444190546
 30
0.0
 11
60.19999999999982
 21
65.1384444190546
 31
0.0
  0
LINE
  5
184
330
59
100
AcDbEntity
  8
1
  6
Continuous
 62
     7
100
AcDbLine
 10
50.80000000000018
 20
64.84999999999988
 30
0.0
 11
50.80000000000018
 21
65.1384444190546
 31
0.0
  0
LINE
  5
185
330
59
100
AcDbEntity
  8
1
  6
Continuous
 62
     7
100
AcDbLine
 10
60.19999999999982
 20
65.1384444190499
 30
0.0
 11
60.19999999999982
 21
64.84999999999988
 31
0.0
  0
LINE
  5
186
330
59
100
AcDbEntity
  8
1
  6
Continuous
 62
     7
100
AcDbLine
 10
54.77500000000009
 20
46.10573683548725
 30
0.0
 11
55.5
 21
44.84999999999997
 31
0.0
  0
LINE
  5
187
330
59
100
AcDbEntity
  8
1
  6
Continuous
 62
     7
100
AcDbLine
 10
55.5
 20
44.84999999999997
 30
0.0
 11
56.69485880899902
 21
46.91955616505675
 31
0.0
  0
LINE
  5
188
330
59
100
AcDbEntity
  8
1
  6
Continuous
 62
     7
100
AcDbLine
 10
54.05000000000018
 20
47.36147367097487
 30
0.0
 11
54.48641485404602
 21
46.60558097058947
 31
0.0
  0
LINE
  5
189
330
59
100
AcDbEntity
  8
1
  6
PHANTOM
 62
     4
100
AcDbLine
 10
55.5
 20
70.34999999999988
 30
0.0
 11
55.5
 21
41.84999999999997
 31
0.0
  0
LINE
  5
18A
330
59
100
AcDbEntity
  8
1
  6
Continuous
 62
     7
100
AcDbLine
 10
60.19999999999982
 20
64.84999999999988
 30
0.0
 11
50.80000000000018
 21
64.84999999999988
 31
0.0
  0
LINE
  5
18B
330
59
100
AcDbEntity
  8
1
  6
Continuous
 62
     7
100
AcDbLine
 10
54.05000000000018
 20
62.84999999999988
 30
0.0
 11
54.05000000000018
 21
61.81754264805429
 31
0.0
  0
LINE
  5
18C
330
59
100
AcDbEntity
  8
1
  6
Continuous
 62
     7
100
AcDbLine
 10
56.94999999999982
 20
62.84999999999988
 30
0.0
 11
56.94999999999982
 21
62.76754264805419
 31
0.0
  0
ARC
  5
18D
330
59
100
AcDbEntity
  8
1
  6
Continuous
 62
     7
100
AcDbCircle
 10
55.5
 20
61.25000000001009
 30
0.0
 40
6.099999999996735
100
AcDbArc
 50
39.60192708107368
 51
140.3980729188924
  0
ENDBLK
  5
5B
330
59
100
AcDbEntity
  8
0
100
AcDbBlockEnd
  0
BLOCK
  5
5D
330
5C
100
AcDbEntity
  8
0
100
AcDbBlockBegin
  2
72-182__6
 70
     0
 10
108.5
 20
64.84999999999988
 30
0.0
  3
72-182__6
  1

  0
LINE
  5
18E
330
5C
100
AcDbEntity
  8
1
  6
Continuous
 62
     7
100
AcDbLine
 10
113.1999999999998
 20
64.84999999999988
 30
0.0
 11
103.8000000000002
 21
64.84999999999988
 31
0.0
  0
LINE
  5
18F
330
5C
100
AcDbEntity
  8
1
  6
PHANTOM
 62
     4
100
AcDbLine
 10
108.5
 20
70.34999999999988
 30
0.0
 11
108.5
 21
41.84999999999997
 31
0.0
  0
LINE
  5
190
330
5C
100
AcDbEntity
  8
1
  6
Continuous
 62
     7
100
AcDbLine
 10
107.0500000000002
 20
47.36147367097487
 30
0.0
 11
107.486414854046
 21
46.60558097058947
 31
0.0
  0
LINE
  5
191
330
5C
100
AcDbEntity
  8
1
  6
Continuous
 62
     7
100
AcDbLine
 10
108.5
 20
44.84999999999997
 30
0.0
 11
109.694858808999
 21
46.91955616505675
 31
0.0
  0
LINE
  5
192
330
5C
100
AcDbEntity
  8
1
  6
Continuous
 62
     7
100
AcDbLine
 10
107.7750000000001
 20
46.10573683548725
 30
0.0
 11
108.5
 21
44.84999999999997
 31
0.0
  0
LINE
  5
193
330
5C
100
AcDbEntity
  8
1
  6
Continuous
 62
     7
100
AcDbLine
 10
113.1999999999998
 20
65.1384444190499
 30
0.0
 11
113.1999999999998
 21
64.84999999999988
 31
0.0
  0
LINE
  5
194
330
5C
100
AcDbEntity
  8
1
  6
Continuous
 62
     7
100
AcDbLine
 10
103.8000000000002
 20
64.84999999999988
 30
0.0
 11
103.8000000000002
 21
65.1384444190546
 31
0.0
  0
LINE
  5
195
330
5C
100
AcDbEntity
  8
1
  6
Continuous
 62
     7
100
AcDbLine
 10
103.8000000000002
 20
65.1384444190546
 30
0.0
 11
113.1999999999998
 21
65.1384444190546
 31
0.0
  0
LINE
  5
196
330
5C
100
AcDbEntity
  8
1
  6
Continuous
 62
     7
100
AcDbLine
 10
110.5
 20
62.4499999999999
 30
0.0
 11
109.9499999999998
 21
62.76754264805419
 31
0.0
  0
LINE
  5
197
330
5C
100
AcDbEntity
  8
1
  6
Continuous
 62
     7
100
AcDbLine
 10
110.5
 20
60.5499999999999
 30
0.0
 11
109.9499999999998
 21
60.86754264805418
 31
0.0
  0
LINE
  5
198
330
5C
100
AcDbEntity
  8
1
  6
Continuous
 62
     7
100
AcDbLine
 10
110.5
 20
58.64999999999992
 30
0.0
 11
109.9499999999998
 21
58.96754264805421
 31
0.0
  0
LINE
  5
199
330
5C
100
AcDbEntity
  8
1
  6
Continuous
 62
     7
100
AcDbLine
 10
110.5
 20
56.75
 30
0.0
 11
109.9499999999998
 21
57.06754264805409
 31
0.0
  0
LINE
  5
19A
330
5C
100
AcDbEntity
  8
1
  6
Continuous
 62
     7
100
AcDbLine
 10
110.5
 20
54.84999999999991
 30
0.0
 11
109.9499999999998
 21
55.16754264805419
 31
0.0
  0
LINE
  5
19B
330
5C
100
AcDbEntity
  8
1
  6
Continuous
 62
     7
100
AcDbLine
 10
110.5
 20
52.9499999999999
 30
0.0
 11
109.9499999999998
 21
53.26754264805419
 31
0.0
  0
LINE
  5
19C
330
5C
100
AcDbEntity
  8
1
  6
Continuous
 62
     7
100
AcDbLine
 10
110.5
 20
51.0499999999999
 30
0.0
 11
109.9499999999998
 21
51.36754264805421
 31
0.0
  0
LINE
  5
19D
330
5C
100
AcDbEntity
  8
1
  6
Continuous
 62
     7
100
AcDbLine
 10
110.5
 20
49.14999999999986
 30
0.0
 11
109.9499999999998
 21
49.46754264805418
 31
0.0
  0
LINE
  5
19E
330
5C
100
AcDbEntity
  8
1
  6
Continuous
 62
     7
100
AcDbLine
 10
109.9499999999998
 20
62.13245735194559
 30
0.0
 11
110.5
 21
62.4499999999999
 31
0.0
  0
LINE
  5
19F
330
5C
100
AcDbEntity
  8
1
  6
Continuous
 62
     7
100
AcDbLine
 10
109.9499999999998
 20
60.23245735194541
 30
0.0
 11
110.5
 21
60.5499999999999
 31
0.0
  0
LINE
  5
1A0
330
5C
100
AcDbEntity
  8
1
  6
Continuous
 62
     7
100
AcDbLine
 10
109.9499999999998
 20
58.33245735194549
 30
0.0
 11
110.5
 21
58.64999999999992
 31
0.0
  0
LINE
  5
1A1
330
5C
100
AcDbEntity
  8
1
  6
Continuous
 62
     7
100
AcDbLine
 10
109.9499999999998
 20
56.43245735194552
 30
0.0
 11
110.5
 21
56.75
 31
0.0
  0
LINE
  5
1A2
330
5C
100
AcDbEntity
  8
1
  6
Continuous
 62
     7
100
AcDbLine
 10
109.9499999999998
 20
54.5324573519456
 30
0.0
 11
110.5
 21
54.84999999999991
 31
0.0
  0
LINE
  5
1A3
330
5C
100
AcDbEntity
  8
1
  6
Continuous
 62
     7
100
AcDbLine
 10
109.9499999999998
 20
52.63245735194562
 30
0.0
 11
110.5
 21
52.9499999999999
 31
0.0
  0
LINE
  5
1A4
330
5C
100
AcDbEntity
  8
1
  6
Continuous
 62
     7
100
AcDbLine
 10
109.9499999999998
 20
50.73245735194547
 30
0.0
 11
110.5
 21
51.0499999999999
 31
0.0
  0
LINE
  5
1A5
330
5C
100
AcDbEntity
  8
1
  6
Continuous
 62
     7
100
AcDbLine
 10
109.9499999999998
 20
48.83245735194555
 30
0.0
 11
110.5
 21
49.14999999999986
 31
0.0
  0
LINE
  5
1A6
330
5C
100
AcDbEntity
  8
1
  6
Continuous
 62
     7
100
AcDbLine
 10
106.5
 20
61.5
 30
0.0
 11
110.5
 21
62.4499999999999
 31
0.0
  0
LINE
  5
1A7
330
5C
100
AcDbEntity
  8
1
  6
Continuous
 62
     7
100
AcDbLine
 10
106.5
 20
59.59999999999991
 30
0.0
 11
110.5
 21
60.5499999999999
 31
0.0
  0
LINE
  5
1A8
330
5C
100
AcDbEntity
  8
1
  6
Continuous
 62
     7
100
AcDbLine
 10
106.5
 20
57.6999999999999
 30
0.0
 11
110.5
 21
58.64999999999992
 31
0.0
  0
LINE
  5
1A9
330
5C
100
AcDbEntity
  8
1
  6
Continuous
 62
     7
100
AcDbLine
 10
106.5
 20
55.7999999999999
 30
0.0
 11
110.5
 21
56.75
 31
0.0
  0
LINE
  5
1AA
330
5C
100
AcDbEntity
  8
1
  6
Continuous
 62
     7
100
AcDbLine
 10
106.5
 20
53.89999999999992
 30
0.0
 11
110.5
 21
54.84999999999991
 31
0.0
  0
LINE
  5
1AB
330
5C
100
AcDbEntity
  8
1
  6
Continuous
 62
     7
100
AcDbLine
 10
106.5
 20
52.0
 30
0.0
 11
110.5
 21
52.9499999999999
 31
0.0
  0
LINE
  5
1AC
330
5C
100
AcDbEntity
  8
1
  6
Continuous
 62
     7
100
AcDbLine
 10
106.5
 20
50.09999999999997
 30
0.0
 11
110.5
 21
51.0499999999999
 31
0.0
  0
LINE
  5
1AD
330
5C
100
AcDbEntity
  8
1
  6
Continuous
 62
     7
100
AcDbLine
 10
106.5
 20
48.19999999999988
 30
0.0
 11
110.5
 21
49.14999999999986
 31
0.0
  0
LINE
  5
1AE
330
5C
100
AcDbEntity
  8
1
  6
Continuous
 62
     7
100
AcDbLine
 10
109.9499999999998
 20
62.13245735194559
 30
0.0
 11
107.0500000000002
 21
61.18245735194569
 31
0.0
  0
LINE
  5
1AF
330
5C
100
AcDbEntity
  8
1
  6
Continuous
 62
     7
100
AcDbLine
 10
109.9499999999998
 20
60.23245735194541
 30
0.0
 11
107.0500000000002
 21
59.2824573519456
 31
0.0
  0
LINE
  5
1B0
330
5C
100
AcDbEntity
  8
1
  6
Continuous
 62
     7
100
AcDbLine
 10
109.9499999999998
 20
58.33245735194549
 30
0.0
 11
107.0500000000002
 21
57.38245735194562
 31
0.0
  0
LINE
  5
1B1
330
5C
100
AcDbEntity
  8
1
  6
Continuous
 62
     7
100
AcDbLine
 10
109.9499999999998
 20
56.43245735194552
 30
0.0
 11
107.0500000000002
 21
55.48245735194558
 31
0.0
  0
LINE
  5
1B2
330
5C
100
AcDbEntity
  8
1
  6
Continuous
 62
     7
100
AcDbLine
 10
109.9499999999998
 20
54.5324573519456
 30
0.0
 11
107.0500000000002
 21
53.58245735194581
 31
0.0
  0
LINE
  5
1B3
330
5C
100
AcDbEntity
  8
1
  6
Continuous
 62
     7
100
AcDbLine
 10
109.9499999999998
 20
52.63245735194562
 30
0.0
 11
107.0500000000002
 21
51.68245735194569
 31
0.0
  0
LINE
  5
1B4
330
5C
100
AcDbEntity
  8
1
  6
Continuous
 62
     7
100
AcDbLine
 10
109.9499999999998
 20
50.73245735194547
 30
0.0
 11
107.0500000000002
 21
49.78245735194565
 31
0.0
  0
LINE
  5
1B5
330
5C
100
AcDbEntity
  8
1
  6
Continuous
 62
     7
100
AcDbLine
 10
109.9499999999998
 20
48.83245735194555
 30
0.0
 11
107.0500000000002
 21
47.88245735194556
 31
0.0
  0
LINE
  5
1B6
330
5C
100
AcDbEntity
  8
1
  6
Continuous
 62
     7
100
AcDbLine
 10
107.0500000000002
 20
61.81754264805429
 30
0.0
 11
109.9499999999998
 21
62.76754264805419
 31
0.0
  0
LINE
  5
1B7
330
5C
100
AcDbEntity
  8
1
  6
Continuous
 62
     7
100
AcDbLine
 10
107.0500000000002
 20
59.91754264805419
 30
0.0
 11
109.9499999999998
 21
60.86754264805418
 31
0.0
  0
LINE
  5
1B8
330
5C
100
AcDbEntity
  8
1
  6
Continuous
 62
     7
100
AcDbLine
 10
107.0500000000002
 20
58.01754264805419
 30
0.0
 11
109.9499999999998
 21
58.96754264805421
 31
0.0
  0
LINE
  5
1B9
330
5C
100
AcDbEntity
  8
1
  6
Continuous
 62
     7
100
AcDbLine
 10
107.0500000000002
 20
56.11754264805421
 30
0.0
 11
109.9499999999998
 21
57.06754264805409
 31
0.0
  0
LINE
  5
1BA
330
5C
100
AcDbEntity
  8
1
  6
Continuous
 62
     7
100
AcDbLine
 10
107.0500000000002
 20
54.21754264805421
 30
0.0
 11
109.9499999999998
 21
55.16754264805419
 31
0.0
  0
LINE
  5
1BB
330
5C
100
AcDbEntity
  8
1
  6
Continuous
 62
     7
100
AcDbLine
 10
107.0500000000002
 20
52.31754264805431
 30
0.0
 11
109.9499999999998
 21
53.26754264805419
 31
0.0
  0
LINE
  5
1BC
330
5C
100
AcDbEntity
  8
1
  6
Continuous
 62
     7
100
AcDbLine
 10
107.0500000000002
 20
50.41754264805425
 30
0.0
 11
109.9499999999998
 21
51.36754264805421
 31
0.0
  0
LINE
  5
1BD
330
5C
100
AcDbEntity
  8
1
  6
Continuous
 62
     7
100
AcDbLine
 10
107.0500000000002
 20
48.51754264805416
 30
0.0
 11
109.9499999999998
 21
49.46754264805418
 31
0.0
  0
LINE
  5
1BE
330
5C
100
AcDbEntity
  8
1
  6
Continuous
 62
     7
100
AcDbLine
 10
106.5
 20
61.5
 30
0.0
 11
107.0500000000002
 21
61.18245735194569
 31
0.0
  0
LINE
  5
1BF
330
5C
100
AcDbEntity
  8
1
  6
Continuous
 62
     7
100
AcDbLine
 10
106.5
 20
59.59999999999991
 30
0.0
 11
107.0500000000002
 21
59.2824573519456
 31
0.0
  0
LINE
  5
1C0
330
5C
100
AcDbEntity
  8
1
  6
Continuous
 62
     7
100
AcDbLine
 10
106.5
 20
57.6999999999999
 30
0.0
 11
107.0500000000002
 21
57.38245735194562
 31
0.0
  0
LINE
  5
1C1
330
5C
100
AcDbEntity
  8
1
  6
Continuous
 62
     7
100
AcDbLine
 10
106.5
 20
55.7999999999999
 30
0.0
 11
107.0500000000002
 21
55.48245735194558
 31
0.0
  0
LINE
  5
1C2
330
5C
100
AcDbEntity
  8
1
  6
Continuous
 62
     7
100
AcDbLine
 10
106.5
 20
53.89999999999992
 30
0.0
 11
107.0500000000002
 21
53.58245735194581
 31
0.0
  0
LINE
  5
1C3
330
5C
100
AcDbEntity
  8
1
  6
Continuous
 62
     7
100
AcDbLine
 10
106.5
 20
52.0
 30
0.0
 11
107.0500000000002
 21
51.68245735194569
 31
0.0
  0
LINE
  5
1C4
330
5C
100
AcDbEntity
  8
1
  6
Continuous
 62
     7
100
AcDbLine
 10
106.5
 20
50.09999999999997
 30
0.0
 11
107.0500000000002
 21
49.78245735194565
 31
0.0
  0
LINE
  5
1C5
330
5C
100
AcDbEntity
  8
1
  6
Continuous
 62
     7
100
AcDbLine
 10
106.5
 20
48.19999999999988
 30
0.0
 11
107.0500000000002
 21
47.88245735194556
 31
0.0
  0
LINE
  5
1C6
330
5C
100
AcDbEntity
  8
1
  6
Continuous
 62
     7
100
AcDbLine
 10
106.5
 20
61.5
 30
0.0
 11
107.0500000000002
 21
61.81754264805429
 31
0.0
  0
LINE
  5
1C7
330
5C
100
AcDbEntity
  8
1
  6
Continuous
 62
     7
100
AcDbLine
 10
106.5
 20
59.59999999999991
 30
0.0
 11
107.0500000000002
 21
59.91754264805419
 31
0.0
  0
LINE
  5
1C8
330
5C
100
AcDbEntity
  8
1
  6
Continuous
 62
     7
100
AcDbLine
 10
106.5
 20
57.6999999999999
 30
0.0
 11
107.0500000000002
 21
58.01754264805419
 31
0.0
  0
LINE
  5
1C9
330
5C
100
AcDbEntity
  8
1
  6
Continuous
 62
     7
100
AcDbLine
 10
106.5
 20
55.7999999999999
 30
0.0
 11
107.0500000000002
 21
56.11754264805421
 31
0.0
  0
LINE
  5
1CA
330
5C
100
AcDbEntity
  8
1
  6
Continuous
 62
     7
100
AcDbLine
 10
106.5
 20
53.89999999999992
 30
0.0
 11
107.0500000000002
 21
54.21754264805421
 31
0.0
  0
LINE
  5
1CB
330
5C
100
AcDbEntity
  8
1
  6
Continuous
 62
     7
100
AcDbLine
 10
106.5
 20
52.0
 30
0.0
 11
107.0500000000002
 21
52.31754264805431
 31
0.0
  0
LINE
  5
1CC
330
5C
100
AcDbEntity
  8
1
  6
Continuous
 62
     7
100
AcDbLine
 10
106.5
 20
50.09999999999997
 30
0.0
 11
107.0500000000002
 21
50.41754264805425
 31
0.0
  0
LINE
  5
1CD
330
5C
100
AcDbEntity
  8
1
  6
Continuous
 62
     7
100
AcDbLine
 10
106.5
 20
48.19999999999988
 30
0.0
 11
107.0500000000002
 21
48.51754264805416
 31
0.0
  0
LINE
  5
1CE
330
5C
100
AcDbEntity
  8
1
  6
Continuous
 62
     7
100
AcDbLine
 10
109.9499999999998
 20
62.13245735194559
 30
0.0
 11
109.9499999999998
 21
60.86754264805418
 31
0.0
  0
LINE
  5
1CF
330
5C
100
AcDbEntity
  8
1
  6
Continuous
 62
     7
100
AcDbLine
 10
109.9499999999998
 20
60.23245735194541
 30
0.0
 11
109.9499999999998
 21
58.96754264805421
 31
0.0
  0
LINE
  5
1D0
330
5C
100
AcDbEntity
  8
1
  6
Continuous
 62
     7
100
AcDbLine
 10
109.9499999999998
 20
58.33245735194549
 30
0.0
 11
109.9499999999998
 21
57.06754264805409
 31
0.0
  0
LINE
  5
1D1
330
5C
100
AcDbEntity
  8
1
  6
Continuous
 62
     7
100
AcDbLine
 10
109.9499999999998
 20
56.43245735194552
 30
0.0
 11
109.9499999999998
 21
55.16754264805419
 31
0.0
  0
LINE
  5
1D2
330
5C
100
AcDbEntity
  8
1
  6
Continuous
 62
     7
100
AcDbLine
 10
109.9499999999998
 20
54.5324573519456
 30
0.0
 11
109.9499999999998
 21
53.26754264805419
 31
0.0
  0
LINE
  5
1D3
330
5C
100
AcDbEntity
  8
1
  6
Continuous
 62
     7
100
AcDbLine
 10
109.9499999999998
 20
52.63245735194562
 30
0.0
 11
109.9499999999998
 21
51.36754264805421
 31
0.0
  0
LINE
  5
1D4
330
5C
100
AcDbEntity
  8
1
  6
Continuous
 62
     7
100
AcDbLine
 10
109.9499999999998
 20
50.73245735194547
 30
0.0
 11
109.9499999999998
 21
49.46754264805418
 31
0.0
  0
LINE
  5
1D5
330
5C
100
AcDbEntity
  8
1
  6
Continuous
 62
     7
100
AcDbLine
 10
109.9499999999998
 20
48.83245735194555
 30
0.0
 11
109.9499999999998
 21
47.56754264805414
 31
0.0
  0
LINE
  5
1D6
330
5C
100
AcDbEntity
  8
1
  6
Continuous
 62
     7
100
AcDbLine
 10
107.0500000000002
 20
61.18245735194569
 30
0.0
 11
107.0500000000002
 21
59.91754264805419
 31
0.0
  0
LINE
  5
1D7
330
5C
100
AcDbEntity
  8
1
  6
Continuous
 62
     7
100
AcDbLine
 10
107.0500000000002
 20
59.2824573519456
 30
0.0
 11
107.0500000000002
 21
58.01754264805419
 31
0.0
  0
LINE
  5
1D8
330
5C
100
AcDbEntity
  8
1
  6
Continuous
 62
     7
100
AcDbLine
 10
107.0500000000002
 20
57.38245735194562
 30
0.0
 11
107.0500000000002
 21
56.11754264805421
 31
0.0
  0
LINE
  5
1D9
330
5C
100
AcDbEntity
  8
1
  6
Continuous
 62
     7
100
AcDbLine
 10
107.0500000000002
 20
55.48245735194558
 30
0.0
 11
107.0500000000002
 21
54.21754264805421
 31
0.0
  0
LINE
  5
1DA
330
5C
100
AcDbEntity
  8
1
  6
Continuous
 62
     7
100
AcDbLine
 10
107.0500000000002
 20
53.58245735194581
 30
0.0
 11
107.0500000000002
 21
52.31754264805431
 31
0.0
  0
LINE
  5
1DB
330
5C
100
AcDbEntity
  8
1
  6
Continuous
 62
     7
100
AcDbLine
 10
107.0500000000002
 20
51.68245735194569
 30
0.0
 11
107.0500000000002
 21
50.41754264805425
 31
0.0
  0
LINE
  5
1DC
330
5C
100
AcDbEntity
  8
1
  6
Continuous
 62
     7
100
AcDbLine
 10
107.0500000000002
 20
49.78245735194565
 30
0.0
 11
107.0500000000002
 21
48.51754264805416
 31
0.0
  0
LINE
  5
1DD
330
5C
100
AcDbEntity
  8
1
  6
Continuous
 62
     7
100
AcDbLine
 10
107.0500000000002
 20
47.88245735194556
 30
0.0
 11
107.0500000000002
 21
47.36147367097487
 31
0.0
  0
LINE
  5
1DE
330
5C
100
AcDbEntity
  8
1
  6
Continuous
 62
     7
100
AcDbLine
 10
109.9499999999998
 20
47.56754264805414
 30
0.0
 11
110.4034978998739
 21
47.25000000000006
 31
0.0
  0
LINE
  5
1DF
330
5C
100
AcDbEntity
  8
1
  6
Continuous
 62
     7
100
AcDbLine
 10
110.4034978998739
 20
47.25000000000006
 30
0.0
 11
109.694858808999
 21
46.91955616505675
 31
0.0
  0
LINE
  5
1E0
330
5C
100
AcDbEntity
  8
1
  6
Continuous
 62
     7
100
AcDbLine
 10
107.0500000000002
 20
46.29999999999996
 30
0.0
 11
107.7750000000001
 21
46.10573683548725
 31
0.0
  0
LINE
  5
1E1
330
5C
100
AcDbEntity
  8
1
  6
Continuous
 62
     7
100
AcDbLine
 10
107.0500000000002
 20
46.29999999999996
 30
0.0
 11
110.4034978998739
 21
47.25000000000006
 31
0.0
  0
LINE
  5
1E2
330
5C
100
AcDbEntity
  8
1
  6
Continuous
 62
     7
100
AcDbLine
 10
109.694858808999
 20
46.91955616505675
 30
0.0
 11
107.7750000000001
 21
46.10573683548725
 31
0.0
  0
LINE
  5
1E3
330
5C
100
AcDbEntity
  8
1
  6
Continuous
 62
     7
100
AcDbLine
 10
107.0500000000002
 20
46.29999999999996
 30
0.0
 11
107.486414854046
 21
46.60558097058947
 31
0.0
  0
LINE
  5
1E4
330
5C
100
AcDbEntity
  8
1
  6
Continuous
 62
     7
100
AcDbLine
 10
107.486414854046
 20
46.60558097058947
 30
0.0
 11
109.9499999999998
 21
47.56754264805414
 31
0.0
  0
LINE
  5
1E5
330
5C
100
AcDbEntity
  8
1
  6
Continuous
 62
     7
100
AcDbLine
 10
109.9499999999998
 20
62.84999999999988
 30
0.0
 11
109.9499999999998
 21
62.76754264805419
 31
0.0
  0
LINE
  5
1E6
330
5C
100
AcDbEntity
  8
1
  6
Continuous
 62
     7
100
AcDbLine
 10
107.0500000000002
 20
62.84999999999988
 30
0.0
 11
107.0500000000002
 21
61.81754264805429
 31
0.0
  0
ARC
  5
1E7
330
5C
100
AcDbEntity
  8
1
  6
Continuous
 62
     7
100
AcDbCircle
 10
108.5
 20
61.25000000001009
 30
0.0
 40
6.099999999996724
100
AcDbArc
 50
39.60192708107377
 51
140.3980729188923
  0
ENDBLK
  5
5E
330
5C
100
AcDbEntity
  8
0
100
AcDbBlockEnd
  0
BLOCK
  5
60
330
5F
100
AcDbEntity
  8
0
100
AcDbBlockBegin
  2
72-182__7
 70
     0
 10
152.0
 20
64.84999999999988
 30
0.0
  3
72-182__7
  1

  0
LINE
  5
1E8
330
5F
100
AcDbEntity
  8
1
  6
Continuous
 62
     7
100
AcDbLine
 10
150.986414854046
 20
46.60558097058947
 30
0.0
 11
153.4499999999998
 21
47.56754264805414
 31
0.0
  0
LINE
  5
1E9
330
5F
100
AcDbEntity
  8
1
  6
Continuous
 62
     7
100
AcDbLine
 10
150.5500000000002
 20
46.29999999999996
 30
0.0
 11
150.986414854046
 21
46.60558097058947
 31
0.0
  0
LINE
  5
1EA
330
5F
100
AcDbEntity
  8
1
  6
Continuous
 62
     7
100
AcDbLine
 10
153.194858808999
 20
46.91955616505675
 30
0.0
 11
151.2750000000001
 21
46.10573683548725
 31
0.0
  0
LINE
  5
1EB
330
5F
100
AcDbEntity
  8
1
  6
Continuous
 62
     7
100
AcDbLine
 10
150.5500000000002
 20
46.29999999999996
 30
0.0
 11
153.9034978998739
 21
47.25000000000006
 31
0.0
  0
LINE
  5
1EC
330
5F
100
AcDbEntity
  8
1
  6
Continuous
 62
     7
100
AcDbLine
 10
150.5500000000002
 20
46.29999999999996
 30
0.0
 11
151.2750000000001
 21
46.10573683548725
 31
0.0
  0
LINE
  5
1ED
330
5F
100
AcDbEntity
  8
1
  6
Continuous
 62
     7
100
AcDbLine
 10
153.9034978998739
 20
47.25000000000006
 30
0.0
 11
153.194858808999
 21
46.91955616505675
 31
0.0
  0
LINE
  5
1EE
330
5F
100
AcDbEntity
  8
1
  6
Continuous
 62
     7
100
AcDbLine
 10
153.4499999999998
 20
47.56754264805414
 30
0.0
 11
153.9034978998739
 21
47.25000000000006
 31
0.0
  0
LINE
  5
1EF
330
5F
100
AcDbEntity
  8
1
  6
Continuous
 62
     7
100
AcDbLine
 10
150.5500000000002
 20
47.88245735194556
 30
0.0
 11
150.5500000000002
 21
47.36147367097487
 31
0.0
  0
LINE
  5
1F0
330
5F
100
AcDbEntity
  8
1
  6
Continuous
 62
     7
100
AcDbLine
 10
150.5500000000002
 20
49.78245735194565
 30
0.0
 11
150.5500000000002
 21
48.51754264805416
 31
0.0
  0
LINE
  5
1F1
330
5F
100
AcDbEntity
  8
1
  6
Continuous
 62
     7
100
AcDbLine
 10
150.5500000000002
 20
51.68245735194569
 30
0.0
 11
150.5500000000002
 21
50.41754264805425
 31
0.0
  0
LINE
  5
1F2
330
5F
100
AcDbEntity
  8
1
  6
Continuous
 62
     7
100
AcDbLine
 10
150.5500000000002
 20
53.58245735194581
 30
0.0
 11
150.5500000000002
 21
52.31754264805431
 31
0.0
  0
LINE
  5
1F3
330
5F
100
AcDbEntity
  8
1
  6
Continuous
 62
     7
100
AcDbLine
 10
150.5500000000002
 20
55.48245735194558
 30
0.0
 11
150.5500000000002
 21
54.21754264805421
 31
0.0
  0
LINE
  5
1F4
330
5F
100
AcDbEntity
  8
1
  6
Continuous
 62
     7
100
AcDbLine
 10
150.5500000000002
 20
57.38245735194562
 30
0.0
 11
150.5500000000002
 21
56.11754264805421
 31
0.0
  0
LINE
  5
1F5
330
5F
100
AcDbEntity
  8
1
  6
Continuous
 62
     7
100
AcDbLine
 10
150.5500000000002
 20
59.2824573519456
 30
0.0
 11
150.5500000000002
 21
58.01754264805419
 31
0.0
  0
LINE
  5
1F6
330
5F
100
AcDbEntity
  8
1
  6
Continuous
 62
     7
100
AcDbLine
 10
150.5500000000002
 20
61.18245735194569
 30
0.0
 11
150.5500000000002
 21
59.91754264805419
 31
0.0
  0
LINE
  5
1F7
330
5F
100
AcDbEntity
  8
1
  6
Continuous
 62
     7
100
AcDbLine
 10
153.4499999999998
 20
48.83245735194555
 30
0.0
 11
153.4499999999998
 21
47.56754264805414
 31
0.0
  0
LINE
  5
1F8
330
5F
100
AcDbEntity
  8
1
  6
Continuous
 62
     7
100
AcDbLine
 10
153.4499999999998
 20
50.73245735194547
 30
0.0
 11
153.4499999999998
 21
49.46754264805418
 31
0.0
  0
LINE
  5
1F9
330
5F
100
AcDbEntity
  8
1
  6
Continuous
 62
     7
100
AcDbLine
 10
153.4499999999998
 20
52.63245735194562
 30
0.0
 11
153.4499999999998
 21
51.36754264805421
 31
0.0
  0
LINE
  5
1FA
330
5F
100
AcDbEntity
  8
1
  6
Continuous
 62
     7
100
AcDbLine
 10
153.4499999999998
 20
54.5324573519456
 30
0.0
 11
153.4499999999998
 21
53.26754264805419
 31
0.0
  0
LINE
  5
1FB
330
5F
100
AcDbEntity
  8
1
  6
Continuous
 62
     7
100
AcDbLine
 10
153.4499999999998
 20
56.43245735194552
 30
0.0
 11
153.4499999999998
 21
55.16754264805419
 31
0.0
  0
LINE
  5
1FC
330
5F
100
AcDbEntity
  8
1
  6
Continuous
 62
     7
100
AcDbLine
 10
153.4499999999998
 20
58.33245735194549
 30
0.0
 11
153.4499999999998
 21
57.06754264805409
 31
0.0
  0
LINE
  5
1FD
330
5F
100
AcDbEntity
  8
1
  6
Continuous
 62
     7
100
AcDbLine
 10
153.4499999999998
 20
60.23245735194541
 30
0.0
 11
153.4499999999998
 21
58.96754264805421
 31
0.0
  0
LINE
  5
1FE
330
5F
100
AcDbEntity
  8
1
  6
Continuous
 62
     7
100
AcDbLine
 10
153.4499999999998
 20
62.13245735194559
 30
0.0
 11
153.4499999999998
 21
60.86754264805418
 31
0.0
  0
LINE
  5
1FF
330
5F
100
AcDbEntity
  8
1
  6
Continuous
 62
     7
100
AcDbLine
 10
150.0
 20
48.19999999999988
 30
0.0
 11
150.5500000000002
 21
48.51754264805416
 31
0.0
  0
LINE
  5
200
330
5F
100
AcDbEntity
  8
1
  6
Continuous
 62
     7
100
AcDbLine
 10
150.0
 20
50.09999999999997
 30
0.0
 11
150.5500000000002
 21
50.41754264805425
 31
0.0
  0
LINE
  5
201
330
5F
100
AcDbEntity
  8
1
  6
Continuous
 62
     7
100
AcDbLine
 10
150.0
 20
52.0
 30
0.0
 11
150.5500000000002
 21
52.31754264805431
 31
0.0
  0
LINE
  5
202
330
5F
100
AcDbEntity
  8
1
  6
Continuous
 62
     7
100
AcDbLine
 10
150.0
 20
53.89999999999992
 30
0.0
 11
150.5500000000002
 21
54.21754264805421
 31
0.0
  0
LINE
  5
203
330
5F
100
AcDbEntity
  8
1
  6
Continuous
 62
     7
100
AcDbLine
 10
150.0
 20
55.7999999999999
 30
0.0
 11
150.5500000000002
 21
56.11754264805421
 31
0.0
  0
LINE
  5
204
330
5F
100
AcDbEntity
  8
1
  6
Continuous
 62
     7
100
AcDbLine
 10
150.0
 20
57.6999999999999
 30
0.0
 11
150.5500000000002
 21
58.01754264805419
 31
0.0
  0
LINE
  5
205
330
5F
100
AcDbEntity
  8
1
  6
Continuous
 62
     7
100
AcDbLine
 10
150.0
 20
59.59999999999991
 30
0.0
 11
150.5500000000002
 21
59.91754264805419
 31
0.0
  0
LINE
  5
206
330
5F
100
AcDbEntity
  8
1
  6
Continuous
 62
     7
100
AcDbLine
 10
150.0
 20
61.5
 30
0.0
 11
150.5500000000002
 21
61.81754264805429
 31
0.0
  0
LINE
  5
207
330
5F
100
AcDbEntity
  8
1
  6
Continuous
 62
     7
100
AcDbLine
 10
150.0
 20
48.19999999999988
 30
0.0
 11
150.5500000000002
 21
47.88245735194556
 31
0.0
  0
LINE
  5
208
330
5F
100
AcDbEntity
  8
1
  6
Continuous
 62
     7
100
AcDbLine
 10
150.0
 20
50.09999999999997
 30
0.0
 11
150.5500000000002
 21
49.78245735194565
 31
0.0
  0
LINE
  5
209
330
5F
100
AcDbEntity
  8
1
  6
Continuous
 62
     7
100
AcDbLine
 10
150.0
 20
52.0
 30
0.0
 11
150.5500000000002
 21
51.68245735194569
 31
0.0
  0
LINE
  5
20A
330
5F
100
AcDbEntity
  8
1
  6
Continuous
 62
     7
100
AcDbLine
 10
150.0
 20
53.89999999999992
 30
0.0
 11
150.5500000000002
 21
53.58245735194581
 31
0.0
  0
LINE
  5
20B
330
5F
100
AcDbEntity
  8
1
  6
Continuous
 62
     7
100
AcDbLine
 10
150.0
 20
55.7999999999999
 30
0.0
 11
150.5500000000002
 21
55.48245735194558
 31
0.0
  0
LINE
  5
20C
330
5F
100
AcDbEntity
  8
1
  6
Continuous
 62
     7
100
AcDbLine
 10
150.0
 20
57.6999999999999
 30
0.0
 11
150.5500000000002
 21
57.38245735194562
 31
0.0
  0
LINE
  5
20D
330
5F
100
AcDbEntity
  8
1
  6
Continuous
 62
     7
100
AcDbLine
 10
150.0
 20
59.59999999999991
 30
0.0
 11
150.5500000000002
 21
59.2824573519456
 31
0.0
  0
LINE
  5
20E
330
5F
100
AcDbEntity
  8
1
  6
Continuous
 62
     7
100
AcDbLine
 10
150.0
 20
61.5
 30
0.0
 11
150.5500000000002
 21
61.18245735194569
 31
0.0
  0
LINE
  5
20F
330
5F
100
AcDbEntity
  8
1
  6
Continuous
 62
     7
100
AcDbLine
 10
150.5500000000002
 20
48.51754264805416
 30
0.0
 11
153.4499999999998
 21
49.46754264805418
 31
0.0
  0
LINE
  5
210
330
5F
100
AcDbEntity
  8
1
  6
Continuous
 62
     7
100
AcDbLine
 10
150.5500000000002
 20
50.41754264805425
 30
0.0
 11
153.4499999999998
 21
51.36754264805421
 31
0.0
  0
LINE
  5
211
330
5F
100
AcDbEntity
  8
1
  6
Continuous
 62
     7
100
AcDbLine
 10
150.5500000000002
 20
52.31754264805431
 30
0.0
 11
153.4499999999998
 21
53.26754264805419
 31
0.0
  0
LINE
  5
212
330
5F
100
AcDbEntity
  8
1
  6
Continuous
 62
     7
100
AcDbLine
 10
150.5500000000002
 20
54.21754264805421
 30
0.0
 11
153.4499999999998
 21
55.16754264805419
 31
0.0
  0
LINE
  5
213
330
5F
100
AcDbEntity
  8
1
  6
Continuous
 62
     7
100
AcDbLine
 10
150.5500000000002
 20
56.11754264805421
 30
0.0
 11
153.4499999999998
 21
57.06754264805409
 31
0.0
  0
LINE
  5
214
330
5F
100
AcDbEntity
  8
1
  6
Continuous
 62
     7
100
AcDbLine
 10
150.5500000000002
 20
58.01754264805419
 30
0.0
 11
153.4499999999998
 21
58.96754264805421
 31
0.0
  0
LINE
  5
215
330
5F
100
AcDbEntity
  8
1
  6
Continuous
 62
     7
100
AcDbLine
 10
150.5500000000002
 20
59.91754264805419
 30
0.0
 11
153.4499999999998
 21
60.86754264805418
 31
0.0
  0
LINE
  5
216
330
5F
100
AcDbEntity
  8
1
  6
Continuous
 62
     7
100
AcDbLine
 10
150.5500000000002
 20
61.81754264805429
 30
0.0
 11
153.4499999999998
 21
62.76754264805419
 31
0.0
  0
LINE
  5
217
330
5F
100
AcDbEntity
  8
1
  6
Continuous
 62
     7
100
AcDbLine
 10
153.4499999999998
 20
48.83245735194555
 30
0.0
 11
150.5500000000002
 21
47.88245735194556
 31
0.0
  0
LINE
  5
218
330
5F
100
AcDbEntity
  8
1
  6
Continuous
 62
     7
100
AcDbLine
 10
153.4499999999998
 20
50.73245735194547
 30
0.0
 11
150.5500000000002
 21
49.78245735194565
 31
0.0
  0
LINE
  5
219
330
5F
100
AcDbEntity
  8
1
  6
Continuous
 62
     7
100
AcDbLine
 10
153.4499999999998
 20
52.63245735194562
 30
0.0
 11
150.5500000000002
 21
51.68245735194569
 31
0.0
  0
LINE
  5
21A
330
5F
100
AcDbEntity
  8
1
  6
Continuous
 62
     7
100
AcDbLine
 10
153.4499999999998
 20
54.5324573519456
 30
0.0
 11
150.5500000000002
 21
53.58245735194581
 31
0.0
  0
LINE
  5
21B
330
5F
100
AcDbEntity
  8
1
  6
Continuous
 62
     7
100
AcDbLine
 10
153.4499999999998
 20
56.43245735194552
 30
0.0
 11
150.5500000000002
 21
55.48245735194558
 31
0.0
  0
LINE
  5
21C
330
5F
100
AcDbEntity
  8
1
  6
Continuous
 62
     7
100
AcDbLine
 10
153.4499999999998
 20
58.33245735194549
 30
0.0
 11
150.5500000000002
 21
57.38245735194562
 31
0.0
  0
LINE
  5
21D
330
5F
100
AcDbEntity
  8
1
  6
Continuous
 62
     7
100
AcDbLine
 10
153.4499999999998
 20
60.23245735194541
 30
0.0
 11
150.5500000000002
 21
59.2824573519456
 31
0.0
  0
LINE
  5
21E
330
5F
100
AcDbEntity
  8
1
  6
Continuous
 62
     7
100
AcDbLine
 10
153.4499999999998
 20
62.13245735194559
 30
0.0
 11
150.5500000000002
 21
61.18245735194569
 31
0.0
  0
LINE
  5
21F
330
5F
100
AcDbEntity
  8
1
  6
Continuous
 62
     7
100
AcDbLine
 10
150.0
 20
48.19999999999988
 30
0.0
 11
154.0
 21
49.14999999999986
 31
0.0
  0
LINE
  5
220
330
5F
100
AcDbEntity
  8
1
  6
Continuous
 62
     7
100
AcDbLine
 10
150.0
 20
50.09999999999997
 30
0.0
 11
154.0
 21
51.0499999999999
 31
0.0
  0
LINE
  5
221
330
5F
100
AcDbEntity
  8
1
  6
Continuous
 62
     7
100
AcDbLine
 10
150.0
 20
52.0
 30
0.0
 11
154.0
 21
52.9499999999999
 31
0.0
  0
LINE
  5
222
330
5F
100
AcDbEntity
  8
1
  6
Continuous
 62
     7
100
AcDbLine
 10
150.0
 20
53.89999999999992
 30
0.0
 11
154.0
 21
54.84999999999991
 31
0.0
  0
LINE
  5
223
330
5F
100
AcDbEntity
  8
1
  6
Continuous
 62
     7
100
AcDbLine
 10
150.0
 20
55.7999999999999
 30
0.0
 11
154.0
 21
56.75
 31
0.0
  0
LINE
  5
224
330
5F
100
AcDbEntity
  8
1
  6
Continuous
 62
     7
100
AcDbLine
 10
150.0
 20
57.6999999999999
 30
0.0
 11
154.0
 21
58.64999999999992
 31
0.0
  0
LINE
  5
225
330
5F
100
AcDbEntity
  8
1
  6
Continuous
 62
     7
100
AcDbLine
 10
150.0
 20
59.59999999999991
 30
0.0
 11
154.0
 21
60.5499999999999
 31
0.0
  0
LINE
  5
226
330
5F
100
AcDbEntity
  8
1
  6
Continuous
 62
     7
100
AcDbLine
 10
150.0
 20
61.5
 30
0.0
 11
154.0
 21
62.4499999999999
 31
0.0
  0
LINE
  5
227
330
5F
100
AcDbEntity
  8
1
  6
Continuous
 62
     7
100
AcDbLine
 10
153.4499999999998
 20
48.83245735194555
 30
0.0
 11
154.0
 21
49.14999999999986
 31
0.0
  0
LINE
  5
228
330
5F
100
AcDbEntity
  8
1
  6
Continuous
 62
     7
100
AcDbLine
 10
153.4499999999998
 20
50.73245735194547
 30
0.0
 11
154.0
 21
51.0499999999999
 31
0.0
  0
LINE
  5
229
330
5F
100
AcDbEntity
  8
1
  6
Continuous
 62
     7
100
AcDbLine
 10
153.4499999999998
 20
52.63245735194562
 30
0.0
 11
154.0
 21
52.9499999999999
 31
0.0
  0
LINE
  5
22A
330
5F
100
AcDbEntity
  8
1
  6
Continuous
 62
     7
100
AcDbLine
 10
153.4499999999998
 20
54.5324573519456
 30
0.0
 11
154.0
 21
54.84999999999991
 31
0.0
  0
LINE
  5
22B
330
5F
100
AcDbEntity
  8
1
  6
Continuous
 62
     7
100
AcDbLine
 10
153.4499999999998
 20
56.43245735194552
 30
0.0
 11
154.0
 21
56.75
 31
0.0
  0
LINE
  5
22C
330
5F
100
AcDbEntity
  8
1
  6
Continuous
 62
     7
100
AcDbLine
 10
153.4499999999998
 20
58.33245735194549
 30
0.0
 11
154.0
 21
58.64999999999992
 31
0.0
  0
LINE
  5
22D
330
5F
100
AcDbEntity
  8
1
  6
Continuous
 62
     7
100
AcDbLine
 10
153.4499999999998
 20
60.23245735194541
 30
0.0
 11
154.0
 21
60.5499999999999
 31
0.0
  0
LINE
  5
22E
330
5F
100
AcDbEntity
  8
1
  6
Continuous
 62
     7
100
AcDbLine
 10
153.4499999999998
 20
62.13245735194559
 30
0.0
 11
154.0
 21
62.4499999999999
 31
0.0
  0
LINE
  5
22F
330
5F
100
AcDbEntity
  8
1
  6
Continuous
 62
     7
100
AcDbLine
 10
154.0
 20
49.14999999999986
 30
0.0
 11
153.4499999999998
 21
49.46754264805418
 31
0.0
  0
LINE
  5
230
330
5F
100
AcDbEntity
  8
1
  6
Continuous
 62
     7
100
AcDbLine
 10
154.0
 20
51.0499999999999
 30
0.0
 11
153.4499999999998
 21
51.36754264805421
 31
0.0
  0
LINE
  5
231
330
5F
100
AcDbEntity
  8
1
  6
Continuous
 62
     7
100
AcDbLine
 10
154.0
 20
52.9499999999999
 30
0.0
 11
153.4499999999998
 21
53.26754264805419
 31
0.0
  0
LINE
  5
232
330
5F
100
AcDbEntity
  8
1
  6
Continuous
 62
     7
100
AcDbLine
 10
154.0
 20
54.84999999999991
 30
0.0
 11
153.4499999999998
 21
55.16754264805419
 31
0.0
  0
LINE
  5
233
330
5F
100
AcDbEntity
  8
1
  6
Continuous
 62
     7
100
AcDbLine
 10
154.0
 20
56.75
 30
0.0
 11
153.4499999999998
 21
57.06754264805409
 31
0.0
  0
LINE
  5
234
330
5F
100
AcDbEntity
  8
1
  6
Continuous
 62
     7
100
AcDbLine
 10
154.0
 20
58.64999999999992
 30
0.0
 11
153.4499999999998
 21
58.96754264805421
 31
0.0
  0
LINE
  5
235
330
5F
100
AcDbEntity
  8
1
  6
Continuous
 62
     7
100
AcDbLine
 10
154.0
 20
60.5499999999999
 30
0.0
 11
153.4499999999998
 21
60.86754264805418
 31
0.0
  0
LINE
  5
236
330
5F
100
AcDbEntity
  8
1
  6
Continuous
 62
     7
100
AcDbLine
 10
154.0
 20
62.4499999999999
 30
0.0
 11
153.4499999999998
 21
62.76754264805419
 31
0.0
  0
LINE
  5
237
330
5F
100
AcDbEntity
  8
1
  6
Continuous
 62
     7
100
AcDbLine
 10
147.3000000000002
 20
65.1384444190546
 30
0.0
 11
156.6999999999998
 21
65.1384444190546
 31
0.0
  0
LINE
  5
238
330
5F
100
AcDbEntity
  8
1
  6
Continuous
 62
     7
100
AcDbLine
 10
147.3000000000002
 20
64.84999999999988
 30
0.0
 11
147.3000000000002
 21
65.1384444190546
 31
0.0
  0
LINE
  5
239
330
5F
100
AcDbEntity
  8
1
  6
Continuous
 62
     7
100
AcDbLine
 10
156.6999999999998
 20
65.1384444190499
 30
0.0
 11
156.6999999999998
 21
64.84999999999988
 31
0.0
  0
LINE
  5
23A
330
5F
100
AcDbEntity
  8
1
  6
Continuous
 62
     7
100
AcDbLine
 10
151.2750000000001
 20
46.10573683548725
 30
0.0
 11
152.0
 21
44.84999999999997
 31
0.0
  0
LINE
  5
23B
330
5F
100
AcDbEntity
  8
1
  6
Continuous
 62
     7
100
AcDbLine
 10
152.0
 20
44.84999999999997
 30
0.0
 11
153.194858808999
 21
46.91955616505675
 31
0.0
  0
LINE
  5
23C
330
5F
100
AcDbEntity
  8
1
  6
Continuous
 62
     7
100
AcDbLine
 10
150.5500000000002
 20
47.36147367097487
 30
0.0
 11
150.986414854046
 21
46.60558097058947
 31
0.0
  0
LINE
  5
23D
330
5F
100
AcDbEntity
  8
1
  6
PHANTOM
 62
     4
100
AcDbLine
 10
152.0
 20
70.34999999999988
 30
0.0
 11
152.0
 21
41.84999999999997
 31
0.0
  0
LINE
  5
23E
330
5F
100
AcDbEntity
  8
1
  6
Continuous
 62
     7
100
AcDbLine
 10
156.6999999999998
 20
64.84999999999988
 30
0.0
 11
147.3000000000002
 21
64.84999999999988
 31
0.0
  0
LINE
  5
23F
330
5F
100
AcDbEntity
  8
1
  6
Continuous
 62
     7
100
AcDbLine
 10
153.4499999999998
 20
62.84999999999988
 30
0.0
 11
153.4499999999998
 21
62.76754264805419
 31
0.0
  0
LINE
  5
240
330
5F
100
AcDbEntity
  8
1
  6
Continuous
 62
     7
100
AcDbLine
 10
150.5500000000002
 20
62.84999999999988
 30
0.0
 11
150.5500000000002
 21
61.81754264805429
 31
0.0
  0
ARC
  5
241
330
5F
100
AcDbEntity
  8
1
  6
Continuous
 62
     7
100
AcDbCircle
 10
152.0
 20
61.25000000001009
 30
0.0
 40
6.099999999996713
100
AcDbArc
 50
39.60192708107385
 51
140.3980729188922
  0
ENDBLK
  5
61
330
5F
100
AcDbEntity
  8
0
100
AcDbBlockEnd
  0
BLOCK
  5
63
330
62
100
AcDbEntity
  8
0
100
AcDbBlockBegin
  2
55-5__8
 70
     0
 10
316.0
 20
260.35
 30
0.0
  3
55-5__8
  1

  0
CIRCLE
  5
242
330
62
100
AcDbEntity
  8
1
  6
Continuous
 62
     7
100
AcDbCircle
 10
82.0
 20
131.85
 30
0.0
 40
16.00000000000091
  0
ENDBLK
  5
64
330
62
100
AcDbEntity
  8
0
100
AcDbBlockEnd
  0
BLOCK
  5
66
330
65
100
AcDbEntity
  8
0
100
AcDbBlockBegin
  2
32-25_
 70
     0
 10
63.6830566949111
 20
219.1200487203062
 30
0.0
  3
32-25_
  1

  0
LINE
  5
243
330
65
100
AcDbEntity
  8
1
  6
Continuous
 62
     7
100
AcDbLine
 10
94.0
 20
240.4999999999997
 30
0.0
 11
82.0
 21
240.4999999999999
 31
0.0
  0
LINE
  5
244
330
65
100
AcDbEntity
  8
1
  6
Continuous
 62
     7
100
AcDbLine
 10
94.0
 20
235.4999999999997
 30
0.0
 11
82.0
 21
235.4999999999999
 31
0.0
  0
LINE
  5
245
330
65
100
AcDbEntity
  8
1
  6
Continuous
 62
     7
100
AcDbLine
 10
94.0
 20
235.4999999999997
 30
0.0
 11
94.0
 21
240.4999999999997
 31
0.0
  0
LINE
  5
246
330
65
100
AcDbEntity
  8
1
  6
Continuous
 62
     7
100
AcDbLine
 10
82.0
 20
236.5680954280752
 30
0.0
 11
82.0
 21
240.4999999999999
 31
0.0
  0
LINE
  5
247
330
65
100
AcDbEntity
  8
1
  6
Continuous
 62
     7
100
AcDbLine
 10
70.0
 20
240.4999999999997
 30
0.0
 11
70.0
 21
235.4999999999997
 31
0.0
  0
LINE
  5
248
330
65
100
AcDbEntity
  8
1
  6
Continuous
 62
     7
100
AcDbLine
 10
82.0
 20
235.4999999999999
 30
0.0
 11
70.0
 21
235.4999999999997
 31
0.0
  0
LINE
  5
249
330
65
100
AcDbEntity
  8
1
  6
Continuous
 62
     7
100
AcDbLine
 10
82.0
 20
240.4999999999999
 30
0.0
 11
70.0
 21
240.4999999999997
 31
0.0
  0
ARC
  5
24A
330
65
100
AcDbEntity
  8
1
  6
Continuous
 62
     7
100
AcDbCircle
 10
88.0
 20
252.8864708906166
 30
0.0
 40
17.38647111223188
100
AcDbArc
 50
249.8123496683697
 51
290.1876503316303
  0
ARC
  5
24B
330
65
100
AcDbEntity
  8
1
  6
Continuous
 62
     7
100
AcDbCircle
 10
76.0
 20
252.8864708906166
 30
0.0
 40
17.38647111223188
100
AcDbArc
 50
249.8123496683697
 51
290.1876503316303
  0
ENDBLK
  5
67
330
65
100
AcDbEntity
  8
0
100
AcDbBlockEnd
  0
BLOCK
  5
69
330
68
100
AcDbEntity
  8
0
100
AcDbBlockBegin
  2
72-182___9
 70
     0
 10
108.4999999999991
 20
223.9999999999997
 30
0.0
  3
72-182___9
  1

  0
LINE
  5
24C
330
68
100
AcDbEntity
  8
0
  6
Continuous
 62
     7
100
AcDbLine
 10
110.6499999999992
 20
223.4999999999997
 30
0.0
 11
110.6499999999992
 21
224.4999999999997
 31
0.0
  0
LINE
  5
24D
330
68
100
AcDbEntity
  8
0
  6
Continuous
 62
     7
100
AcDbLine
 10
109.4999999999991
 20
223.4999999999997
 30
0.0
 11
110.6499999999992
 21
223.4999999999997
 31
0.0
  0
LINE
  5
24E
330
68
100
AcDbEntity
  8
0
  6
Continuous
 62
     7
100
AcDbLine
 10
108.9999999999991
 20
221.8499999999996
 30
0.0
 11
108.9999999999991
 21
222.9999999999997
 31
0.0
  0
LINE
  5
24F
330
68
100
AcDbEntity
  8
0
  6
Continuous
 62
     7
100
AcDbLine
 10
107.9999999999991
 20
221.8499999999996
 30
0.0
 11
108.9999999999991
 21
221.8499999999996
 31
0.0
  0
LINE
  5
250
330
68
100
AcDbEntity
  8
0
  6
Continuous
 62
     7
100
AcDbLine
 10
107.9999999999991
 20
222.9999999999997
 30
0.0
 11
107.9999999999991
 21
221.8499999999996
 31
0.0
  0
LINE
  5
251
330
68
100
AcDbEntity
  8
0
  6
Continuous
 62
     7
100
AcDbLine
 10
106.349999999999
 20
223.4999999999997
 30
0.0
 11
107.4999999999991
 21
223.4999999999997
 31
0.0
  0
LINE
  5
252
330
68
100
AcDbEntity
  8
0
  6
Continuous
 62
     7
100
AcDbLine
 10
106.349999999999
 20
224.4999999999997
 30
0.0
 11
106.349999999999
 21
223.4999999999997
 31
0.0
  0
LINE
  5
253
330
68
100
AcDbEntity
  8
0
  6
Continuous
 62
     7
100
AcDbLine
 10
107.4999999999991
 20
224.4999999999997
 30
0.0
 11
106.349999999999
 21
224.4999999999997
 31
0.0
  0
LINE
  5
254
330
68
100
AcDbEntity
  8
0
  6
Continuous
 62
     7
100
AcDbLine
 10
107.9999999999991
 20
226.1499999999997
 30
0.0
 11
107.9999999999991
 21
224.9999999999997
 31
0.0
  0
LINE
  5
255
330
68
100
AcDbEntity
  8
0
  6
Continuous
 62
     7
100
AcDbLine
 10
108.9999999999991
 20
226.1499999999997
 30
0.0
 11
107.9999999999991
 21
226.1499999999997
 31
0.0
  0
LINE
  5
256
330
68
100
AcDbEntity
  8
0
  6
Continuous
 62
     7
100
AcDbLine
 10
108.9999999999991
 20
224.9999999999997
 30
0.0
 11
108.9999999999991
 21
226.1499999999997
 31
0.0
  0
LINE
  5
257
330
68
100
AcDbEntity
  8
0
  6
Continuous
 62
     7
100
AcDbLine
 10
110.6499999999992
 20
224.4999999999997
 30
0.0
 11
109.4999999999991
 21
224.4999999999997
 31
0.0
  0
CIRCLE
  5
258
330
68
100
AcDbEntity
  8
1
  6
Continuous
 62
     7
100
AcDbCircle
 10
108.4999999999991
 20
223.9999999999997
 30
0.0
 40
4.700000000000699
  0
ARC
  5
259
330
68
100
AcDbEntity
  8
1
  6
Continuous
 62
     7
100
AcDbCircle
 10
107.4999999999991
 20
224.9999999999997
 30
0.0
 40
0.5
100
AcDbArc
 50
270.0
 51
0.0
  0
ARC
  5
25A
330
68
100
AcDbEntity
  8
1
  6
Continuous
 62
     7
100
AcDbCircle
 10
107.4999999999991
 20
222.9999999999997
 30
0.0
 40
0.5
100
AcDbArc
 50
0.0
 51
90.0
  0
ARC
  5
25B
330
68
100
AcDbEntity
  8
1
  6
Continuous
 62
     7
100
AcDbCircle
 10
109.4999999999991
 20
222.9999999999997
 30
0.0
 40
0.5
100
AcDbArc
 50
90.0
 51
180.0
  0
ARC
  5
25C
330
68
100
AcDbEntity
  8
1
  6
Continuous
 62
     7
100
AcDbCircle
 10
109.4999999999991
 20
224.9999999999997
 30
0.0
 40
0.5
100
AcDbArc
 50
180.0
 51
270.0
  0
ENDBLK
  5
6A
330
68
100
AcDbEntity
  8
0
100
AcDbBlockEnd
  0
BLOCK
  5
6C
330
6B
100
AcDbEntity
  8
0
100
AcDbBlockBegin
  2
72-182___10
 70
     0
 10
55.5
 20
223.9999999999997
 30
0.0
  3
72-182___10
  1

  0
LINE
  5
25D
330
6B
100
AcDbEntity
  8
0
  6
Continuous
 62
     7
100
AcDbLine
 10
57.65000000000009
 20
224.4999999999997
 30
0.0
 11
56.5
 21
224.4999999999997
 31
0.0
  0
LINE
  5
25E
330
6B
100
AcDbEntity
  8
0
  6
Continuous
 62
     7
100
AcDbLine
 10
56.0
 20
224.9999999999997
 30
0.0
 11
56.0
 21
226.1499999999997
 31
0.0
  0
LINE
  5
25F
330
6B
100
AcDbEntity
  8
0
  6
Continuous
 62
     7
100
AcDbLine
 10
56.0
 20
226.1499999999997
 30
0.0
 11
55.0
 21
226.1499999999997
 31
0.0
  0
LINE
  5
260
330
6B
100
AcDbEntity
  8
0
  6
Continuous
 62
     7
100
AcDbLine
 10
55.0
 20
226.1499999999997
 30
0.0
 11
55.0
 21
224.9999999999997
 31
0.0
  0
LINE
  5
261
330
6B
100
AcDbEntity
  8
0
  6
Continuous
 62
     7
100
AcDbLine
 10
54.5
 20
224.4999999999997
 30
0.0
 11
53.34999999999991
 21
224.4999999999997
 31
0.0
  0
LINE
  5
262
330
6B
100
AcDbEntity
  8
0
  6
Continuous
 62
     7
100
AcDbLine
 10
53.34999999999991
 20
224.4999999999997
 30
0.0
 11
53.34999999999991
 21
223.4999999999997
 31
0.0
  0
LINE
  5
263
330
6B
100
AcDbEntity
  8
0
  6
Continuous
 62
     7
100
AcDbLine
 10
53.34999999999991
 20
223.4999999999997
 30
0.0
 11
54.5
 21
223.4999999999997
 31
0.0
  0
LINE
  5
264
330
6B
100
AcDbEntity
  8
0
  6
Continuous
 62
     7
100
AcDbLine
 10
55.0
 20
222.9999999999997
 30
0.0
 11
55.0
 21
221.8499999999996
 31
0.0
  0
LINE
  5
265
330
6B
100
AcDbEntity
  8
0
  6
Continuous
 62
     7
100
AcDbLine
 10
55.0
 20
221.8499999999996
 30
0.0
 11
56.0
 21
221.8499999999996
 31
0.0
  0
LINE
  5
266
330
6B
100
AcDbEntity
  8
0
  6
Continuous
 62
     7
100
AcDbLine
 10
56.0
 20
221.8499999999996
 30
0.0
 11
56.0
 21
222.9999999999997
 31
0.0
  0
LINE
  5
267
330
6B
100
AcDbEntity
  8
0
  6
Continuous
 62
     7
100
AcDbLine
 10
56.5
 20
223.4999999999997
 30
0.0
 11
57.65000000000009
 21
223.4999999999997
 31
0.0
  0
LINE
  5
268
330
6B
100
AcDbEntity
  8
0
  6
Continuous
 62
     7
100
AcDbLine
 10
57.65000000000009
 20
223.4999999999997
 30
0.0
 11
57.65000000000009
 21
224.4999999999997
 31
0.0
  0
CIRCLE
  5
269
330
6B
100
AcDbEntity
  8
1
  6
Continuous
 62
     7
100
AcDbCircle
 10
55.5
 20
223.9999999999997
 30
0.0
 40
4.699999999999818
  0
ARC
  5
26A
330
6B
100
AcDbEntity
  8
1
  6
Continuous
 62
     7
100
AcDbCircle
 10
56.5
 20
224.9999999999997
 30
0.0
 40
0.5
100
AcDbArc
 50
180.0
 51
270.0
  0
ARC
  5
26B
330
6B
100
AcDbEntity
  8
1
  6
Continuous
 62
     7
100
AcDbCircle
 10
56.5
 20
222.9999999999997
 30
0.0
 40
0.5
100
AcDbArc
 50
90.0
 51
180.0
  0
ARC
  5
26C
330
6B
100
AcDbEntity
  8
1
  6
Continuous
 62
     7
100
AcDbCircle
 10
54.5
 20
222.9999999999997
 30
0.0
 40
0.5
100
AcDbArc
 50
0.0
 51
90.0
  0
ARC
  5
26D
330
6B
100
AcDbEntity
  8
1
  6
Continuous
 62
     7
100
AcDbCircle
 10
54.5
 20
224.9999999999997
 30
0.0
 40
0.5
100
AcDbArc
 50
270.0
 51
0.0
  0
ENDBLK
  5
6D
330
6B
100
AcDbEntity
  8
0
100
AcDbBlockEnd
  0
BLOCK
  5
2B6
330
2AF
100
AcDbEntity
  8
0
100
AcDbBlockBegin
  2
*D14
 70
     1
 10
0.0
 20
0.0
 30
0.0
  3
*D14
  1

  0
LINE
  5
2B0
330
2AF
100
AcDbEntity
  8
1
  6
Continuous
 62
     2
100
AcDbLine
 10
55.5
 20
253.4999999999997
 30
0.0
 11
108.4999999999991
 21
253.4999999999997
 31
0.0
  0
LINE
  5
2B1
330
2AF
100
AcDbEntity
  8
1
  6
Continuous
 62
     2
100
AcDbLine
 10
108.4999999999991
 20
231.6999999999998
 30
0.0
 11
108.4999999999991
 21
254.4999999999997
 31
0.0
  0
LINE
  5
2B2
330
2AF
100
AcDbEntity
  8
1
  6
Continuous
 62
     2
100
AcDbLine
 10
55.5
 20
231.6999999999998
 30
0.0
 11
55.5
 21
254.4999999999997
 31
0.0
  0
SOLID
  5
2B3
330
2AF
100
AcDbEntity
  8
1
 62
     2
100
AcDbTrace
 10
59.0
 20
253.9607837415556
 30
0.0
 11
59.0
 21
253.0392162584438
 31
0.0
 12
55.5
 22
253.4999999999997
 32
0.0
 13
55.5
 23
253.4999999999997
 33
0.0
  0
SOLID
  5
2B4
330
2AF
100
AcDbEntity
  8
1
 62
     2
100
AcDbTrace
 10
104.9999999999991
 20
253.0392162584438
 30
0.0
 11
104.9999999999991
 21
253.9607837415556
 31
0.0
 12
108.4999999999991
 22
253.4999999999997
 32
0.0
 13
108.4999999999991
 23
253.4999999999997
 33
0.0
  0
MTEXT
  5
2B5
330
2AF
100
AcDbEntity
  8
1
 62
     7
100
AcDbMText
 10
79.375
 20
254.4999999999997
 30
0.0
 40
3.5
 41
0.0
 71
     7
 72
     1
  1
53
  7
CONVERTER_12
 11
0.9999999999970619
 21
2.424068405545306E-6
 31
0.0
 73
     1
 44
0.60024009603842
  0
ENDBLK
  5
2B7
330
2AF
100
AcDbEntity
  8
0
100
AcDbBlockEnd
  0
BLOCK
  5
2C1
330
2BA
100
AcDbEntity
  8
0
100
AcDbBlockBegin
  2
*D15
 70
     1
 10
0.0
 20
0.0
 30
0.0
  3
*D15
  1

  0
LINE
  5
2BB
330
2BA
100
AcDbEntity
  8
1
  6
Continuous
 62
     2
100
AcDbLine
 10
126.5
 20
62.84999999999984
 30
0.0
 11
126.5
 21
131.85
 31
0.0
  0
LINE
  5
2BC
330
2BA
100
AcDbEntity
  8
1
  6
Continuous
 62
     2
100
AcDbLine
 10
97.0157913669068
 20
131.85
 30
0.0
 11
127.5
 21
131.85
 31
0.0
  0
LINE
  5
2BD
330
2BA
100
AcDbEntity
  8
1
  6
Continuous
 62
     2
100
AcDbLine
 10
116.5
 20
62.84999999999984
 30
0.0
 11
127.5
 21
62.84999999999984
 31
0.0
  0
SOLID
  5
2BE
330
2BA
100
AcDbEntity
  8
1
 62
     2
100
AcDbTrace
 10
126.0392162584441
 20
66.34999999999984
 30
0.0
 11
126.9607837415559
 21
66.34999999999984
 31
0.0
 12
126.5
 22
62.84999999999984
 32
0.0
 13
126.5
 23
62.84999999999984
 33
0.0
  0
SOLID
  5
2BF
330
2BA
100
AcDbEntity
  8
1
 62
     2
100
AcDbTrace
 10
126.9607837415559
 20
128.35
 30
0.0
 11
126.0392162584441
 21
128.35
 31
0.0
 12
126.5
 22
131.85
 32
0.0
 13
126.5
 23
131.85
 33
0.0
  0
MTEXT
  5
2C0
330
2BA
100
AcDbEntity
  8
1
 62
     7
100
AcDbMText
 10
125.5
 20
86.4693749999999
 30
0.0
 40
3.5
 41
0.0
 71
     7
 72
     1
  1
\C7;最大\C7;83最小59
  7
CONVERTER_11
 11
0.0
 21
1.0
 31
0.0
 73
     1
 44
0.45454545454545
  0
ENDBLK
  5
2C2
330
2BA
100
AcDbEntity
  8
0
100
AcDbBlockEnd
  0
BLOCK
  5
2CC
330
2C5
100
AcDbEntity
  8
0
100
AcDbBlockBegin
  2
*D16
 70
     1
 10
0.0
 20
0.0
 30
0.0
  3
*D16
  1

  0
LINE
  5
2C6
330
2C5
100
AcDbEntity
  8
1
  6
Continuous
 62
     2
100
AcDbLine
 10
70.0
 20
103.35
 30
0.0
 11
94.0
 21
103.35
 31
0.0
  0
LINE
  5
2C7
330
2C5
100
AcDbEntity
  8
1
  6
Continuous
 62
     2
100
AcDbLine
 10
70.0
 20
124.9217967697243
 30
0.0
 11
70.0
 21
102.35
 31
0.0
  0
LINE
  5
2C8
330
2C5
100
AcDbEntity
  8
1
  6
Continuous
 62
     2
100
AcDbLine
 10
94.0
 20
124.9217967697243
 30
0.0
 11
94.0
 21
102.35
 31
0.0
  0
SOLID
  5
2C9
330
2C5
100
AcDbEntity
  8
1
 62
     2
100
AcDbTrace
 10
73.5
 20
103.8107837415559
 30
0.0
 11
73.5
 21
102.8892162584441
 31
0.0
 12
70.0
 22
103.35
 32
0.0
 13
70.0
 23
103.35
 33
0.0
  0
SOLID
  5
2CA
330
2C5
100
AcDbEntity
  8
1
 62
     2
100
AcDbTrace
 10
90.5
 20
102.8892162584441
 30
0.0
 11
90.5
 21
103.8107837415559
 31
0.0
 12
94.0
 22
103.35
 32
0.0
 13
94.0
 23
103.35
 33
0.0
  0
MTEXT
  5
2CB
330
2C5
100
AcDbEntity
  8
1
 62
     7
100
AcDbMText
 10
75.4646091256687
 20
104.35
 30
0.0
 40
3.5
 41
0.0
 71
     7
 72
     1
  1
24
  7
CONVERTER_12
 11
0.9999999999970619
 21
2.424068405545306E-6
 31
0.0
 73
     1
 44
0.60024009603842
  0
ENDBLK
  5
2CD
330
2C5
100
AcDbEntity
  8
0
100
AcDbBlockEnd
  0
BLOCK
  5
2D7
330
2D0
100
AcDbEntity
  8
0
100
AcDbBlockBegin
  2
*D17
 70
     1
 10
0.0
 20
0.0
 30
0.0
  3
*D17
  1

  0
LINE
  5
2D1
330
2D0
100
AcDbEntity
  8
1
  6
Continuous
 62
     2
100
AcDbLine
 10
47.50000000000001
 20
198.9999999999997
 30
0.0
 11
116.5
 21
198.9999999999997
 31
0.0
  0
LINE
  5
2D2
330
2D0
100
AcDbEntity
  8
1
  6
Continuous
 62
     2
100
AcDbLine
 10
47.50000000000001
 20
211.4999999999997
 30
0.0
 11
47.50000000000001
 21
197.9999999999997
 31
0.0
  0
LINE
  5
2D3
330
2D0
100
AcDbEntity
  8
1
  6
Continuous
 62
     2
100
AcDbLine
 10
116.5
 20
211.4999999999997
 30
0.0
 11
116.5
 21
197.9999999999997
 31
0.0
  0
SOLID
  5
2D4
330
2D0
100
AcDbEntity
  8
1
 62
     2
100
AcDbTrace
 10
51.00000000000001
 20
199.4607837415556
 30
0.0
 11
51.00000000000001
 21
198.5392162584438
 31
0.0
 12
47.50000000000001
 22
198.9999999999997
 32
0.0
 13
47.50000000000001
 23
198.9999999999997
 33
0.0
  0
SOLID
  5
2D5
330
2D0
100
AcDbEntity
  8
1
 62
     2
100
AcDbTrace
 10
113.0
 20
198.5392162584438
 30
0.0
 11
113.0
 21
199.4607837415556
 31
0.0
 12
116.5
 22
198.9999999999997
 32
0.0
 13
116.5
 23
198.9999999999997
 33
0.0
  0
MTEXT
  5
2D6
330
2D0
100
AcDbEntity
  8
1
 62
     7
100
AcDbMText
 10
79.23384622047001
 20
199.9999999999997
 30
0.0
 40
3.5
 41
0.0
 71
     7
 72
     1
  1
69
  7
CONVERTER_12
 11
0.9999999999970619
 21
2.424068405545306E-6
 31
0.0
 73
     1
 44
0.60024009603842
  0
ENDBLK
  5
2D8
330
2D0
100
AcDbEntity
  8
0
100
AcDbBlockEnd
  0
BLOCK
  5
2E4
330
2DB
100
AcDbEntity
  8
0
100
AcDbBlockBegin
  2
*D18
 70
     1
 10
0.0
 20
0.0
 30
0.0
  3
*D18
  1

  0
LINE
  5
2DC
330
2DB
100
AcDbEntity
  8
1
  6
Continuous
 62
     2
100
AcDbLine
 10
140.856955948081
 20
64.84999999999988
 30
0.0
 11
140.856955948081
 21
73.653870335918
 31
0.0
  0
LINE
  5
2DD
330
2DB
100
AcDbEntity
  8
1
  6
Continuous
 62
     2
100
AcDbLine
 10
140.856955948081
 20
62.84999999999988
 30
0.0
 11
140.856955948081
 21
64.84999999999988
 31
0.0
  0
LINE
  5
2DE
330
2DB
100
AcDbEntity
  8
1
  6
Continuous
 62
     2
100
AcDbLine
 10
140.856955948081
 20
55.84999999999988
 30
0.0
 11
140.856955948081
 21
62.84999999999988
 31
0.0
  0
LINE
  5
2DF
330
2DB
100
AcDbEntity
  8
1
  6
Continuous
 62
     2
100
AcDbLine
 10
137.0
 20
62.84999999999988
 30
0.0
 11
141.856955948081
 21
62.84999999999988
 31
0.0
  0
LINE
  5
2E0
330
2DB
100
AcDbEntity
  8
1
  6
Continuous
 62
     2
100
AcDbLine
 10
137.0
 20
64.84999999999988
 30
0.0
 11
141.856955948081
 21
64.84999999999988
 31
0.0
  0
SOLID
  5
2E1
330
2DB
100
AcDbEntity
  8
1
 62
     2
100
AcDbTrace
 10
141.3177396896369
 20
59.34999999999988
 30
0.0
 11
140.3961722065251
 21
59.34999999999988
 31
0.0
 12
140.856955948081
 22
62.84999999999988
 32
0.0
 13
140.856955948081
 23
62.84999999999988
 33
0.0
  0
SOLID
  5
2E2
330
2DB
100
AcDbEntity
  8
1
 62
     2
100
AcDbTrace
 10
140.3961722065251
 20
68.34999999999988
 30
0.0
 11
141.3177396896369
 21
68.34999999999988
 31
0.0
 12
140.856955948081
 22
64.84999999999988
 32
0.0
 13
140.856955948081
 23
64.84999999999988
 33
0.0
  0
MTEXT
  5
2E3
330
2DB
100
AcDbEntity
  8
1
 62
     7
100
AcDbMText
 10
139.856955948081
 20
71.553870335918
 30
0.0
 40
3.5
 41
0.0
 71
     7
 72
     1
  1
2
  7
CONVERTER_12
 11
0.0
 21
1.0
 31
0.0
 73
     1
 44
0.60024009603842
  0
ENDBLK
  5
2E5
330
2DB
100
AcDbEntity
  8
0
100
AcDbBlockEnd
  0
BLOCK
  5
2EF
330
2E8
100
AcDbEntity
  8
0
100
AcDbBlockBegin
  2
*D19
 70
     1
 10
0.0
 20
0.0
 30
0.0
  3
*D19
  1

  0
LINE
  5
2E9
330
2E8
100
AcDbEntity
  8
1
  6
Continuous
 62
     2
100
AcDbLine
 10
71.25
 20
170.85
 30
0.0
 11
92.75
 21
170.85
 31
0.0
  0
LINE
  5
2EA
330
2E8
100
AcDbEntity
  8
1
  6
Continuous
 62
     2
100
AcDbLine
 10
71.25
 20
145.6
 30
0.0
 11
71.25
 21
171.85
 31
0.0
  0
LINE
  5
2EB
330
2E8
100
AcDbEntity
  8
1
  6
Continuous
 62
     2
100
AcDbLine
 10
92.75
 20
145.6
 30
0.0
 11
92.75
 21
171.85
 31
0.0
  0
SOLID
  5
2EC
330
2E8
100
AcDbEntity
  8
1
 62
     2
100
AcDbTrace
 10
74.75
 20
171.3107837415559
 30
0.0
 11
74.75
 21
170.3892162584441
 31
0.0
 12
71.25
 22
170.85
 32
0.0
 13
71.25
 23
170.85
 33
0.0
  0
SOLID
  5
2ED
330
2E8
100
AcDbEntity
  8
1
 62
     2
100
AcDbTrace
 10
89.25
 20
170.3892162584441
 30
0.0
 11
89.25
 21
171.3107837415559
 31
0.0
 12
92.75
 22
170.85
 32
0.0
 13
92.75
 23
170.85
 33
0.0
  0
MTEXT
  5
2EE
330
2E8
100
AcDbEntity
  8
1
 62
     7
100
AcDbMText
 10
77.62073077601102
 20
172.2
 30
0.0
 40
3.5
 41
0.0
 71
     7
 72
     1
  1
21,5
  7
CONVERTER_12
 11
0.9999999999970619
 21
2.424068405545306E-6
 31
0.0
 73
     1
 44
0.60024009603842
  0
ENDBLK
  5
2F0
330
2E8
100
AcDbEntity
  8
0
100
AcDbBlockEnd
  0
BLOCK
  5
2FA
330
2F3
100
AcDbEntity
  8
0
100
AcDbBlockBegin
  2
*D20
 70
     1
 10
0.0
 20
0.0
 30
0.0
  3
*D20
  1

  0
LINE
  5
2F4
330
2F3
100
AcDbEntity
  8
1
  6
Continuous
 62
     2
100
AcDbLine
 10
126.5000000000001
 20
243.4999999999997
 30
0.0
 11
126.5000000000001
 21
208.9999999999997
 31
0.0
  0
LINE
  5
2F5
330
2F3
100
AcDbEntity
  8
1
  6
Continuous
 62
     2
100
AcDbLine
 10
114.0000000000001
 20
208.9999999999997
 30
0.0
 11
127.5000000000001
 21
208.9999999999997
 31
0.0
  0
LINE
  5
2F6
330
2F3
100
AcDbEntity
  8
1
  6
Continuous
 62
     2
100
AcDbLine
 10
101.0000000000001
 20
243.4999999999997
 30
0.0
 11
127.5000000000001
 21
243.4999999999997
 31
0.0
  0
SOLID
  5
2F7
330
2F3
100
AcDbEntity
  8
1
 62
     2
100
AcDbTrace
 10
126.960783741556
 20
239.9999999999997
 30
0.0
 11
126.0392162584442
 21
239.9999999999997
 31
0.0
 12
126.5000000000001
 22
243.4999999999997
 32
0.0
 13
126.5000000000001
 23
243.4999999999997
 33
0.0
  0
SOLID
  5
2F8
330
2F3
100
AcDbEntity
  8
1
 62
     2
100
AcDbTrace
 10
126.0392162584442
 20
212.4999999999997
 30
0.0
 11
126.960783741556
 21
212.4999999999997
 31
0.0
 12
126.5000000000001
 22
208.9999999999997
 32
0.0
 13
126.5000000000001
 23
208.9999999999997
 33
0.0
  0
MTEXT
  5
2F9
330
2F3
100
AcDbEntity
  8
1
 62
     7
100
AcDbMText
 10
125.5000000000001
 20
222.963653615041
 30
0.0
 40
3.5
 41
0.0
 71
     7
 72
     1
  1
35
  7
CONVERTER_12
 11
0.0
 21
1.0
 31
0.0
 73
     1
 44
0.60024009603842
  0
ENDBLK
  5
2FB
330
2F3
100
AcDbEntity
  8
0
100
AcDbBlockEnd
  0
BLOCK
  5
305
330
2FE
100
AcDbEntity
  8
0
100
AcDbBlockBegin
  2
*D21
 70
     1
 10
0.0
 20
0.0
 30
0.0
  3
*D21
  1

  0
LINE
  5
2FF
330
2FE
100
AcDbEntity
  8
1
  6
Continuous
 62
     2
100
AcDbLine
 10
181.5
 20
160.85
 30
0.0
 11
181.5
 21
62.84999999999989
 31
0.0
  0
LINE
  5
300
330
2FE
100
AcDbEntity
  8
1
  6
Continuous
 62
     2
100
AcDbLine
 10
167.0
 20
62.84999999999989
 30
0.0
 11
182.5
 21
62.84999999999989
 31
0.0
  0
LINE
  5
301
330
2FE
100
AcDbEntity
  8
1
  6
Continuous
 62
     2
100
AcDbLine
 10
171.5
 20
160.85
 30
0.0
 11
182.5
 21
160.85
 31
0.0
  0
SOLID
  5
302
330
2FE
100
AcDbEntity
  8
1
 62
     2
100
AcDbTrace
 10
181.9607837415559
 20
157.35
 30
0.0
 11
181.0392162584441
 21
157.35
 31
0.0
 12
181.5
 22
160.85
 32
0.0
 13
181.5
 23
160.85
 33
0.0
  0
SOLID
  5
303
330
2FE
100
AcDbEntity
  8
1
 62
     2
100
AcDbTrace
 10
181.0392162584441
 20
66.3499999999999
 30
0.0
 11
181.9607837415559
 21
66.3499999999999
 31
0.0
 12
181.5
 22
62.84999999999989
 32
0.0
 13
181.5
 23
62.84999999999989
 33
0.0
  0
MTEXT
  5
304
330
2FE
100
AcDbEntity
  8
1
 62
     7
100
AcDbMText
 10
180.5
 20
109.2249999999999
 30
0.0
 40
3.5
 41
0.0
 71
     7
 72
     1
  1
98
  7
CONVERTER_12
 11
0.0
 21
1.0
 31
0.0
 73
     1
 44
0.60024009603842
  0
ENDBLK
  5
306
330
2FE
100
AcDbEntity
  8
0
100
AcDbBlockEnd
  0
BLOCK
  5
310
330
309
100
AcDbEntity
  8
0
100
AcDbBlockBegin
  2
*D22
 70
     1
 10
0.0
 20
0.0
 30
0.0
  3
*D22
  1

  0
LINE
  5
30A
330
309
100
AcDbEntity
  8
1
  6
Continuous
 62
     2
100
AcDbLine
 10
63.0
 20
178.85
 30
0.0
 11
101.0
 21
178.85
 31
0.0
  0
LINE
  5
30B
330
309
100
AcDbEntity
  8
1
  6
Continuous
 62
     2
100
AcDbLine
 10
63.0
 20
145.85
 30
0.0
 11
63.0
 21
179.85
 31
0.0
  0
LINE
  5
30C
330
309
100
AcDbEntity
  8
1
  6
Continuous
 62
     2
100
AcDbLine
 10
101.0
 20
145.85
 30
0.0
 11
101.0
 21
179.85
 31
0.0
  0
SOLID
  5
30D
330
309
100
AcDbEntity
  8
1
 62
     2
100
AcDbTrace
 10
66.5
 20
179.3107837415559
 30
0.0
 11
66.5
 21
178.3892162584441
 31
0.0
 12
63.0
 22
178.85
 32
0.0
 13
63.0
 23
178.85
 33
0.0
  0
SOLID
  5
30E
330
309
100
AcDbEntity
  8
1
 62
     2
100
AcDbTrace
 10
97.5
 20
178.3892162584441
 30
0.0
 11
97.5
 21
179.3107837415559
 31
0.0
 12
101.0
 22
178.85
 32
0.0
 13
101.0
 23
178.85
 33
0.0
  0
MTEXT
  5
30F
330
309
100
AcDbEntity
  8
1
 62
     7
100
AcDbMText
 10
79.28323077601101
 20
179.85
 30
0.0
 40
3.5
 41
0.0
 71
     7
 72
     1
  1
38
  7
CONVERTER_12
 11
0.9999999999970619
 21
2.424068405545306E-6
 31
0.0
 73
     1
 44
0.60024009603842
  0
ENDBLK
  5
311
330
309
100
AcDbEntity
  8
0
100
AcDbBlockEnd
  0
ENDSEC
  0
SECTION
  2
ENTITIES
  0
INSERT
  5
6E
330
1F
100
AcDbEntity
  8
1
100
AcDbBlockReference
  2
開示A4
 10
210.0
 20
0.0
 30
0.0
  0
INSERT
  5
6F
330
1F
100
AcDbEntity
  8
1
100
AcDbBlockReference
  2
74-43-C5
 10
-210.0
 20
-336.0000000000002
 30
0.0
  0
INSERT
  5
70
330
1F
100
AcDbEntity
  8
1
100
AcDbBlockReference
  2
55-5__1
 10
316.0
 20
154.1499999999995
 30
0.0
  0
INSERT
  5
71
330
1F
100
AcDbEntity
  8
1
100
AcDbBlockReference
  2
55-5__2
 10
321.5
 20
260.35
 30
0.0
  0
INSERT
  5
72
330
1F
100
AcDbEntity
  8
1
100
AcDbBlockReference
  2
32-230-C2__3
 10
290.0904415604
 20
84.5192453679961
 30
0.0
  0
INSERT
  5
73
330
1F
100
AcDbEntity
  8
1
100
AcDbBlockReference
  2
32-230-C2__4
 10
284.5904415604
 20
84.5192453679961
 30
0.0
  0
INSERT
  5
74
330
1F
100
AcDbEntity
  8
0
100
AcDbBlockReference
  2
72-182__5
 10
55.5
 20
64.84999999999988
 30
0.0
  0
INSERT
  5
75
330
1F
100
AcDbEntity
  8
0
100
AcDbBlockReference
  2
72-182__6
 10
108.5
 20
64.84999999999988
 30
0.0
  0
INSERT
  5
76
330
1F
100
AcDbEntity
  8
0
100
AcDbBlockReference
  2
72-182__7
 10
152.0
 20
64.84999999999988
 30
0.0
  0
INSERT
  5
77
330
1F
100
AcDbEntity
  8
1
100
AcDbBlockReference
  2
55-5__8
 10
316.0
 20
260.35
 30
0.0
  0
INSERT
  5
78
330
1F
100
AcDbEntity
  8
0
100
AcDbBlockReference
  2
32-25_
 10
63.6830566949111
 20
219.1200487203062
 30
0.0
  0
INSERT
  5
79
330
1F
100
AcDbEntity
  8
0
100
AcDbBlockReference
  2
72-182___9
 10
108.4999999999991
 20
223.9999999999997
 30
0.0
  0
INSERT
  5
7A
330
1F
100
AcDbEntity
  8
0
100
AcDbBlockReference
  2
72-182___10
 10
55.5
 20
223.9999999999997
 30
0.0
  0
LINE
  5
26E
330
1F
100
AcDbEntity
  8
1
  6
Continuous
 62
     2
100
AcDbLine
 10
189.9999999999999
 20
169.5000000000002
 30
0.0
 11
140.0
 21
169.5000000000002
 31
0.0
  0
LINE
  5
26F
330
1F
100
AcDbEntity
  8
1
  6
Continuous
 62
     2
100
AcDbLine
 10
189.9999999999999
 20
175.5000000000002
 30
0.0
 11
140.0
 21
175.5000000000002
 31
0.0
  0
LINE
  5
270
330
1F
100
AcDbEntity
  8
1
  6
Continuous
 62
     2
100
AcDbLine
 10
189.9999999999999
 20
181.5000000000002
 30
0.0
 11
140.0
 21
181.5000000000002
 31
0.0
  0
LINE
  5
271
330
1F
100
AcDbEntity
  8
1
  6
Continuous
 62
     2
100
AcDbLine
 10
189.9999999999999
 20
187.5000000000002
 30
0.0
 11
140.0
 21
187.5000000000002
 31
0.0
  0
LINE
  5
272
330
1F
100
AcDbEntity
  8
1
  6
DASH_CENTER
 62
     2
100
AcDbLine
 10
67.0
 20
131.85
 30
0.0
 11
97.0
 21
131.85
 31
0.0
  0
LINE
  5
273
330
1F
100
AcDbEntity
  8
1
  6
Continuous
 62
     7
100
AcDbLine
 10
189.9999999999999
 20
163.5000000000002
 30
0.0
 11
140.0
 21
163.5000000000002
 31
0.0
  0
LINE
  5
274
330
1F
100
AcDbEntity
  8
1
  6
Continuous
 62
     2
100
AcDbLine
 10
189.9999999999999
 20
193.5000000000002
 30
0.0
 11
140.0
 21
193.5000000000002
 31
0.0
  0
LINE
  5
275
330
1F
100
AcDbEntity
  8
1
  6
DASH_CENTER
 62
     2
100
AcDbLine
 10
82.0
 20
164.35
 30
0.0
 11
82.0
 21
59.84999999999991
 31
0.0
  0
LINE
  5
276
330
1F
100
AcDbEntity
  8
1
  6
DASH_CENTER
 62
     2
100
AcDbLine
 10
44.5
 20
223.9999999999997
 30
0.0
 11
119.5
 21
223.9999999999997
 31
0.0
  0
LINE
  5
277
330
1F
100
AcDbEntity
  8
1
  6
DASH_CENTER
 62
     2
100
AcDbLine
 10
82.0
 20
245.9999999999997
 30
0.0
 11
82.0
 21
206.4999999999997
 31
0.0
  0
LINE
  5
278
330
1F
100
AcDbEntity
  8
1
  6
DASH_CENTER
 62
     2
100
AcDbLine
 10
108.4999999999991
 20
216.2999999999994
 30
0.0
 11
108.4999999999991
 21
231.6999999999998
 31
0.0
  0
LINE
  5
279
330
1F
100
AcDbEntity
  8
1
  6
DASH_CENTER
 62
     2
100
AcDbLine
 10
55.5
 20
216.2999999999994
 30
0.0
 11
55.5
 21
231.6999999999998
 31
0.0
  0
LINE
  5
27A
330
1F
100
AcDbEntity
  8
1
  6
DASH_CENTER
 62
     2
100
AcDbLine
 10
108.5
 20
70.35000000000989
 30
0.0
 11
108.5
 21
41.84999999999997
 31
0.0
  0
LINE
  5
27B
330
1F
100
AcDbEntity
  8
1
  6
DASH_CENTER
 62
     2
100
AcDbLine
 10
55.5
 20
70.35000000000989
 30
0.0
 11
55.5
 21
41.84999999999997
 31
0.0
  0
LINE
  5
27C
330
1F
100
AcDbEntity
  8
1
  6
DASH_CENTER
 62
     2
100
AcDbLine
 10
152.0
 20
70.35000000000989
 30
0.0
 11
152.0
 21
41.84999999999997
 31
0.0
  0
LINE
  5
27D
330
1F
100
AcDbEntity
  8
1
  6
DASH_CENTER
 62
     2
100
AcDbLine
 10
160.5
 20
131.85
 30
0.0
 11
172.5
 21
131.85
 31
0.0
  0
LINE
  5
27E
330
1F
100
AcDbEntity
  8
1
  6
Continuous
 62
     2
100
AcDbLine
 10
140.0
 20
217.5000000000002
 30
0.0
 11
189.9999999999999
 21
217.5000000000002
 31
0.0
  0
LINE
  5
27F
330
1F
100
AcDbEntity
  8
1
  6
Continuous
 62
     2
100
AcDbLine
 10
140.0
 20
211.5000000000002
 30
0.0
 11
189.9999999999999
 21
211.5000000000002
 31
0.0
  0
LINE
  5
280
330
1F
100
AcDbEntity
  8
1
  6
Continuous
 62
     2
100
AcDbLine
 10
189.9999999999999
 20
199.5000000000002
 30
0.0
 11
140.0
 21
199.5000000000002
 31
0.0
  0
LINE
  5
281
330
1F
100
AcDbEntity
  8
1
  6
Continuous
 62
     2
100
AcDbLine
 10
140.0
 20
205.5000000000002
 30
0.0
 11
189.9999999999999
 21
205.5000000000002
 31
0.0
  0
LINE
  5
282
330
1F
100
AcDbEntity
  8
1
  6
Continuous
 62
     2
100
AcDbLine
 10
140.0
 20
229.5000000000002
 30
0.0
 11
189.9999999999999
 21
229.5000000000002
 31
0.0
  0
LINE
  5
283
330
1F
100
AcDbEntity
  8
1
  6
Continuous
 62
     2
100
AcDbLine
 10
189.9999999999999
 20
223.5000000000002
 30
0.0
 11
140.0
 21
223.5000000000002
 31
0.0
  0
LINE
  5
284
330
1F
100
AcDbEntity
  8
1
  6
Continuous
 62
     2
100
AcDbLine
 10
140.0
 20
235.5000000000002
 30
0.0
 11
189.9999999999999
 21
235.5000000000002
 31
0.0
  0
LINE
  5
285
330
1F
100
AcDbEntity
  8
1
  6
Continuous
 62
     2
100
AcDbLine
 10
140.0
 20
241.5000000000002
 30
0.0
 11
189.9999999999999
 21
241.5000000000002
 31
0.0
  0
LINE
  5
286
330
1F
100
AcDbEntity
  8
1
  6
Continuous
 62
     7
100
AcDbLine
 10
140.0
 20
285.5000000000003
 30
0.0
 11
140.0
 21
163.5000000000002
 31
0.0
  0
LINE
  5
287
330
1F
100
AcDbEntity
  8
1
  6
Continuous
 62
     7
100
AcDbLine
 10
190.0
 20
285.5000000000003
 30
0.0
 11
189.9999999999999
 21
163.5000000000002
 31
0.0
  0
LINE
  5
288
330
1F
100
AcDbEntity
  8
1
  6
Continuous
 62
     2
100
AcDbLine
 10
140.0
 20
271.5000000000002
 30
0.0
 11
189.9999999999999
 21
271.5000000000002
 31
0.0
  0
LINE
  5
289
330
1F
100
AcDbEntity
  8
1
  6
Continuous
 62
     2
100
AcDbLine
 10
140.0
 20
265.5000000000002
 30
0.0
 11
189.9999999999999
 21
265.5000000000002
 31
0.0
  0
LINE
  5
28A
330
1F
100
AcDbEntity
  8
1
  6
Continuous
 62
     7
100
AcDbLine
 10
140.0
 20
285.5000000000003
 30
0.0
 11
190.0
 21
285.5000000000003
 31
0.0
  0
LINE
  5
28B
330
1F
100
AcDbEntity
  8
1
  6
Continuous
 62
     2
100
AcDbLine
 10
189.9999999999999
 20
253.5000000000002
 30
0.0
 11
140.0
 21
253.5000000000002
 31
0.0
  0
LINE
  5
28C
330
1F
100
AcDbEntity
  8
1
  6
Continuous
 62
     7
100
AcDbLine
 10
140.0
 20
277.5000000000002
 30
0.0
 11
189.9999999999999
 21
277.5000000000002
 31
0.0
  0
LINE
  5
28D
330
1F
100
AcDbEntity
  8
1
  6
Continuous
 62
     2
100
AcDbLine
 10
189.9999999999999
 20
247.5000000000002
 30
0.0
 11
140.0
 21
247.5000000000002
 31
0.0
  0
LINE
  5
28E
330
1F
100
AcDbEntity
  8
1
  6
Continuous
 62
     2
100
AcDbLine
 10
140.0
 20
259.5000000000002
 30
0.0
 11
189.9999999999999
 21
259.5000000000002
 31
0.0
  0
SOLID
  5
28F
330
1F
100
AcDbEntity
  8
1
 62
     2
100
AcDbTrace
 10
161.3509495741618
 20
144.7561455805878
 30
0.0
 11
162.1490504258383
 21
145.2169293221437
 31
0.0
 12
163.5
 22
141.9554485381202
 32
0.0
 13
163.5
 23
141.9554485381202
 33
0.0
  0
LEADER
  5
290
330
1F
100
AcDbEntity
  8
1
  6
Continuous
 62
     2
100
AcDbLeader
  3
Standard
 71
     0
 76
     3
 10
163.5
 20
141.9554485381202
 30
0.0
 10
155.4779769732144
 20
155.8500000000003
 30
0.0
 10
142.4779769732144
 20
155.8500000000003
 30
0.0
  0
SOLID
  5
291
330
1F
100
AcDbEntity
  8
1
 62
     2
100
AcDbTrace
 10
112.6490504258382
 20
56.14930295753231
 30
0.0
 11
111.8509495741618
 21
55.68851921597642
 31
0.0
 12
110.5
 22
58.9499999999999
 32
0.0
 13
110.5
 23
58.9499999999999
 33
0.0
  0
LEADER
  5
292
330
1F
100
AcDbEntity
  8
1
  6
Continuous
 62
     2
100
AcDbLeader
  3
Standard
 71
     0
 76
     3
 10
110.5
 20
58.9499999999999
 30
0.0
 10
119.795339333953
 20
42.84999999999988
 30
0.0
 10
136.795339333953
 20
42.84999999999988
 30
0.0
  0
MTEXT
  5
294
330
1F
100
AcDbEntity
  8
1
 62
     7
100
AcDbMText
 10
142.0
 20
238.5000000000002
 30
0.0
 40
3.5
 41
0.0
 71
     4
 72
     1
  1
B3112-R-13
  7
CONVERTER_12
 73
     1
 44
0.7202881152461
  0
MTEXT
  5
295
330
1F
100
AcDbEntity
  8
1
 62
     7
100
AcDbMText
 10
142.0
 20
244.5000000000002
 30
0.0
 40
3.5
 41
0.0
 71
     4
 72
     1
  1
B3111-R-13
  7
CONVERTER_12
 73
     1
 44
0.7202881152461
  0
MTEXT
  5
296
330
1F
100
AcDbEntity
  8
1
 62
     7
100
AcDbMText
 10
142.0
 20
250.5000000000002
 30
0.0
 40
3.5
 41
0.0
 71
     4
 72
     1
  1
B3111-L-13
  7
CONVERTER_12
 73
     1
 44
0.7202881152461
  0
MTEXT
  5
297
330
1F
100
AcDbEntity
  8
1
 62
     7
100
AcDbMText
 10
142.0
 20
268.5000000000002
 30
0.0
 40
3.5
 41
0.0
 71
     4
 72
     1
  1
V2113-13
  7
CONVERTER_12
 73
     1
 44
0.7202881152461
  0
MTEXT
  5
298
330
1F
100
AcDbEntity
  8
1
 62
     7
100
AcDbMText
 10
142.0
 20
166.5000000000002
 30
0.0
 40
3.5
 41
0.0
 71
     4
 72
     1
  1
EY506HE-2T-13
  7
CONVERTER_12
 73
     1
 44
0.7202881152461
  0
MTEXT
  5
299
330
1F
100
AcDbEntity
  8
1
 62
     7
100
AcDbMText
 10
142.0
 20
172.5000000000002
 30
0.0
 40
3.5
 41
0.0
 71
     4
 72
     1
  1
EY506HE-13
  7
CONVERTER_12
 73
     1
 44
0.7202881152461
  0
MTEXT
  5
29A
330
1F
100
AcDbEntity
  8
1
 62
     7
100
AcDbMText
 10
148.9779769732144
 20
158.8500000000003
 30
0.0
 40
3.5
 41
0.0
 71
     5
 72
     1
  1
G1/2
  7
CONVERTER_12
 73
     1
 44
0.7202881152461
  0
MTEXT
  5
29B
330
1F
100
AcDbEntity
  8
1
 62
     7
100
AcDbMText
 10
93.75
 20
17.0
 30
0.0
 40
3.5
 41
0.0
 71
     5
 72
     1
  1
1
  7
CONVERTER_12
 73
     1
 44
0.7202881152461
  0
MTEXT
  5
29C
330
1F
100
AcDbEntity
  8
1
 62
     7
100
AcDbMText
 10
85.25
 20
17.0
 30
0.0
 40
3.5
 41
0.0
 71
     5
 72
     1
  1
1
  7
CONVERTER_12
 73
     1
 44
0.7202881152461
  0
MTEXT
  5
29D
330
1F
100
AcDbEntity
  8
0
 62
     7
100
AcDbMText
 10
57.0
 20
14.25
 30
0.0
 40
3.5
 41
0.0
 71
     5
 72
     1
  1
R641T-L
  7
CONVERTER_12
 73
     1
 44
0.90036014405762
  0
MTEXT
  5
29E
330
1F
100
AcDbEntity
  8
0
 62
     7
100
AcDbMText
 10
57.0
 20
22.75
 30
0.0
 40
3.5
 41
0.0
 71
     5
 72
     1
  1
止水栓ブラケット
  7
CONVERTER_11
 73
     1
 44
0.68181818181818
  0
MTEXT
  5
29F
330
1F
100
AcDbEntity
  8
1
 62
     7
100
AcDbMText
 10
142.0
 20
190.5000000000002
 30
0.0
 40
3.5
 41
0.0
 71
     4
 72
     1
  1
B4111-R-13
  7
CONVERTER_12
 73
     1
 44
0.7202881152461
  0
MTEXT
  5
2A0
330
1F
100
AcDbEntity
  8
1
 62
     7
100
AcDbMText
 10
142.0
 20
196.5000000000002
 30
0.0
 40
3.5
 41
0.0
 71
     4
 72
     1
  1
B4111-L-13
  7
CONVERTER_12
 73
     1
 44
0.7202881152461
  0
MTEXT
  5
2A1
330
1F
100
AcDbEntity
  8
1
 62
     7
100
AcDbMText
 10
142.0
 20
184.5000000000002
 30
0.0
 40
3.5
 41
0.0
 71
     4
 72
     1
  1
B4111D-L-13
  7
CONVERTER_12
 73
     1
 44
0.7202881152461
  0
MTEXT
  5
2A2
330
1F
100
AcDbEntity
  8
1
 62
     7
100
AcDbMText
 10
142.0
 20
178.5000000000002
 30
0.0
 40
3.5
 41
0.0
 71
     4
 72
     1
  1
B4111D-R-13
  7
CONVERTER_12
 73
     1
 44
0.7202881152461
  0
MTEXT
  5
2A3
330
1F
100
AcDbEntity
  8
1
 62
     7
100
AcDbMText
 10
142.0
 20
202.5000000000002
 30
0.0
 40
3.5
 41
0.0
 71
     4
 72
     1
  1
B4121D-R-13
  7
CONVERTER_12
 73
     1
 44
0.7202881152461
  0
MTEXT
  5
2A4
330
1F
100
AcDbEntity
  8
1
 62
     7
100
AcDbMText
 10
142.0
 20
208.5000000000002
 30
0.0
 40
3.5
 41
0.0
 71
     4
 72
     1
  1
B4121D-L-13
  7
CONVERTER_12
 73
     1
 44
0.7202881152461
  0
MTEXT
  5
2A5
330
1F
100
AcDbEntity
  8
1
 62
     7
100
AcDbMText
 10
142.0
 20
220.5000000000002
 30
0.0
 40
3.5
 41
0.0
 71
     4
 72
     1
  1
B4121-L-13
  7
CONVERTER_12
 73
     1
 44
0.7202881152461
  0
MTEXT
  5
2A6
330
1F
100
AcDbEntity
  8
1
 62
     7
100
AcDbMText
 10
142.0
 20
214.5000000000002
 30
0.0
 40
3.5
 41
0.0
 71
     4
 72
     1
  1
B4121-R-13
  7
CONVERTER_12
 73
     1
 44
0.7202881152461
  0
MTEXT
  5
2A7
330
1F
100
AcDbEntity
  8
1
 62
     7
100
AcDbMText
 10
142.0
 20
256.5000000000002
 30
0.0
 40
3.5
 41
0.0
 71
     4
 72
     1
  1
V2220RAD-X3-13
  7
CONVERTER_12
 73
     1
 44
0.7202881152461
  0
MTEXT
  5
2A8
330
1F
100
AcDbEntity
  8
1
 62
     7
100
AcDbMText
 10
142.0
 20
262.5000000000002
 30
0.0
 40
3.5
 41
0.0
 71
     4
 72
     1
  1
V2220LAD-X3-13
  7
CONVERTER_12
 73
     1
 44
0.7202881152461
  0
MTEXT
  5
2A9
330
1F
100
AcDbEntity
  8
1
 62
     7
100
AcDbMText
 10
142.0
 20
274.5000000000002
 30
0.0
 40
3.5
 41
0.0
 71
     4
 72
     1
  1
V211-13
  7
CONVERTER_12
 73
     1
 44
0.7202881152461
  0
MTEXT
  5
2AA
330
1F
100
AcDbEntity
  8
1
 62
     7
100
AcDbMText
 10
165.0
 20
281.5000000000002
 30
0.0
 40
3.5
 41
0.0
 71
     5
 72
     1
  1
取付可能製品
  7
CONVERTER_11
 73
     1
 44
0.54545454545455
  0
MTEXT
  5
2AB
330
1F
100
AcDbEntity
  8
1
 62
     7
100
AcDbMText
 10
142.0
 20
232.5000000000002
 30
0.0
 40
3.5
 41
0.0
 71
     4
 72
     1
  1
B4110-13
  7
CONVERTER_12
 73
     1
 44
0.7202881152461
  0
MTEXT
  5
2AC
330
1F
100
AcDbEntity
  8
1
 62
     7
100
AcDbMText
 10
142.0
 20
226.5000000000002
 30
0.0
 40
3.5
 41
0.0
 71
     4
 72
     1
  1
B4110D-13
  7
CONVERTER_12
 73
     1
 44
0.7202881152461
  0
MTEXT
  5
2AD
330
1F
100
AcDbEntity
  8
1
 62
     7
100
AcDbMText
 10
128.295339333953
 20
45.84999999999988
 30
0.0
 40
3.5
 41
0.0
 71
     5
 72
     1
  1
{\Fgdt;n}4X20
  7
CONVERTER_12
 73
     1
 44
0.7202881152461
  0
MTEXT
  5
2AE
330
1F
100
AcDbEntity
  8
1
 62
     7
100
AcDbMText
 10
128.295339333953
 20
50.84999999999988
 30
0.0
 40
3.5
 41
0.0
 71
     5
 72
     1
  1
ねじサイズ
  7
CONVERTER_11
 73
     1
 44
0.54545454545455
  0
DIMENSION
  5
2B9
330
1F
100
AcDbEntity
  8
1
100
AcDbDimension
  2
*D14
 10
55.5
 20
253.4999999999997
 30
0.0
 11
82.0
 21
256.2499999999997
 31
0.0
 70
    32
  1
<>
 71
     5
 42
-1.0
 53
0.00013888888889
  3
ME10_DIM_10
100
AcDbAlignedDimension
 13
108.4999999999991
 23
231.6999999999998
 33
0.0
 14
55.5
 24
231.6999999999998
 34
0.0
100
AcDbRotatedDimension
  0
DIMENSION
  5
2C4
330
1F
100
AcDbEntity
  8
1
100
AcDbDimension
  2
*D15
 10
126.5
 20
62.84999999999984
 30
0.0
 11
123.75
 21
97.3499999999999
 31
0.0
 70
    32
  1
最大83最小59
 71
     5
 42
-1.0
 53
90.0
  3
ME10_DIM_11
100
AcDbAlignedDimension
 13
97.0157913669068
 23
131.85
 33
0.0
 14
116.5
 24
62.84999999999988
 34
0.0
 50
90.0
100
AcDbRotatedDimension
  0
DIMENSION
  5
2CF
330
1F
100
AcDbEntity
  8
1
100
AcDbDimension
  2
*D16
 10
70.0
 20
103.35
 30
0.0
 11
78.0896091256687
 21
106.1
 31
0.0
 70
    32
  1
<>
 71
     5
 42
-1.0
 53
0.00013888888889
  3
ME10_DIM_12
100
AcDbAlignedDimension
 13
94.0
 23
124.9217967697243
 33
0.0
 14
70.0
 24
124.9217967697243
 34
0.0
100
AcDbRotatedDimension
  0
DIMENSION
  5
2DA
330
1F
100
AcDbEntity
  8
1
100
AcDbDimension
  2
*D17
 10
47.50000000000001
 20
198.9999999999997
 30
0.0
 11
81.85884622047001
 21
201.7499999999997
 31
0.0
 70
    32
  1
<>
 71
     5
 42
-1.0
 53
0.00013888888889
  3
ME10_DIM_13
100
AcDbAlignedDimension
 13
116.5
 23
211.4999999999997
 33
0.0
 14
47.5
 24
211.4999999999997
 34
0.0
100
AcDbRotatedDimension
  0
DIMENSION
  5
2E7
330
1F
100
AcDbEntity
  8
1
100
AcDbDimension
  2
*D18
 10
140.856955948081
 20
62.84999999999988
 30
0.0
 11
138.106955948081
 21
72.603870335918
 31
0.0
 70
    32
  1
<>
 71
     5
 42
-1.0
 53
90.0
  3
ME10_DIM_14
100
AcDbAlignedDimension
 13
137.0
 23
64.84999999999988
 33
0.0
 14
137.0
 24
62.84999999999988
 34
0.0
 50
90.0
100
AcDbRotatedDimension
  0
DIMENSION
  5
2F2
330
1F
100
AcDbEntity
  8
1
100
AcDbDimension
  2
*D19
 10
71.25
 20
170.85
 30
0.0
 11
81.90823077601101
 21
173.775
 31
0.0
 70
    32
  1
<>
 71
     5
 42
-1.0
 53
0.00013888888889
  3
ME10_DIM_15
100
AcDbAlignedDimension
 13
92.75
 23
145.6
 33
0.0
 14
71.25
 24
145.6
 34
0.0
100
AcDbRotatedDimension
  0
DIMENSION
  5
2FD
330
1F
100
AcDbEntity
  8
1
100
AcDbDimension
  2
*D20
 10
126.5000000000001
 20
243.4999999999997
 30
0.0
 11
123.7500000000001
 21
225.588653615041
 31
0.0
 70
    32
  1
35
 71
     5
 42
-1.0
 53
90.0
  3
ME10_DIM_16
100
AcDbAlignedDimension
 13
114.0
 23
208.9999999999997
 33
0.0
 14
101.0
 24
243.4999999999997
 34
0.0
 50
90.0
100
AcDbRotatedDimension
  0
DIMENSION
  5
308
330
1F
100
AcDbEntity
  8
1
100
AcDbDimension
  2
*D21
 10
181.5
 20
160.85
 30
0.0
 11
178.75
 21
111.8499999999999
 31
0.0
 70
    32
  1
<>
 71
     5
 42
-1.0
 53
90.0
  3
ME10_DIM_17
100
AcDbAlignedDimension
 13
167.0
 23
62.84999999999988
 33
0.0
 14
171.5
 24
160.85
 34
0.0
 50
90.0
100
AcDbRotatedDimension
  0
DIMENSION
  5
313
330
1F
100
AcDbEntity
  8
1
100
AcDbDimension
  2
*D22
 10
63.0
 20
178.85
 30
0.0
 11
81.90823077601101
 21
181.6
 31
0.0
 70
    32
  1
<>
 71
     5
 42
-1.0
 53
0.00013888888889
  3
ME10_DIM_18
100
AcDbAlignedDimension
 13
101.0
 23
145.85
 33
0.0
 14
63.0
 24
145.85
 34
0.0
100
AcDbRotatedDimension
  0
ENDSEC
  0
SECTION
  2
OBJECTS
  0
DICTIONARY
  5
C
330
0
100
AcDbDictionary
281
     1
  3
ACAD_GROUP
350
D
  3
ACAD_LAYOUT
350
1A
  3
ACAD_MATERIAL
350
3B
  3
ACAD_MLEADERSTYLE
350
316
  3
ACAD_MLINESTYLE
350
17
  3
ACAD_PLOTSETTINGS
350
19
  3
ACAD_PLOTSTYLENAME
350
E
  3
ACAD_VISUALSTYLE
350
2A
  3
AcDbVariableDictionary
350
314
  0
DICTIONARY
  5
D
102
{ACAD_REACTORS
330
C
102
}
330
C
100
AcDbDictionary
281
     1
  0
DICTIONARY
  5
1A
102
{ACAD_REACTORS
330
C
102
}
330
C
100
AcDbDictionary
281
     1
  3
Layout1
350
1E
  3
Layout2
350
26
  3
Model
350
22
  0
DICTIONARY
  5
3B
102
{ACAD_REACTORS
330
C
102
}
330
C
100
AcDbDictionary
281
     1
  3
ByBlock
350
3D
  3
ByLayer
350
3C
  3
Global
350
3E
  0
DICTIONARY
  5
316
102
{ACAD_REACTORS
330
C
102
}
330
C
100
AcDbDictionary
281
     1
  0
DICTIONARY
  5
17
102
{ACAD_REACTORS
330
C
102
}
330
C
100
AcDbDictionary
281
     1
  3
Standard
350
18
  0
DICTIONARY
  5
19
102
{ACAD_REACTORS
330
C
102
}
330
C
100
AcDbDictionary
281
     1
  0
ACDBDICTIONARYWDFLT
  5
E
102
{ACAD_REACTORS
330
C
102
}
330
C
100
AcDbDictionary
281
     1
  3
Normal
350
F
100
AcDbDictionaryWithDefault
340
F
  0
DICTIONARY
  5
2A
102
{ACAD_REACTORS
330
C
102
}
330
C
100
AcDbDictionary
281
     1
  3
2dWireframe
350
2F
  3
3D Hidden
350
31
  3
3dWireframe
350
30
  3
Basic
350
32
  3
Brighten
350
36
  3
ColorChange
350
3A
  3
Conceptual
350
34
  3
Dim
350
35
  3
Facepattern
350
39
  3
Flat
350
2B
  3
FlatWithEdges
350
2C
  3
Gouraud
350
2D
  3
GouraudWithEdges
350
2E
  3
Linepattern
350
38
  3
Realistic
350
33
  3
Thicken
350
37
  0
DICTIONARY
  5
314
102
{ACAD_REACTORS
330
C
102
}
330
C
100
AcDbDictionary
281
     1
  3
DIMASSOC
350
317
  3
HIDETEXT
350
318
  0
LAYOUT
  5
1E
102
{ACAD_REACTORS
330
1A
102
}
330
1A
100
AcDbPlotSettings
  1

  2
none_device
  4

  6

 40
0.0
 41
0.0
 42
0.0
 43
0.0
 44
0.0
 45
0.0
 46
0.0
 47
0.0
 48
0.0
 49
0.0
140
0.0
141
0.0
142
1.0
143
1.0
 70
   688
 72
     0
 73
     0
 74
     5
  7

 75
    16
147
1.0
148
0.0
149
0.0
100
AcDbLayout
  1
Layout1
 70
     1
 71
     1
 10
0.0
 20
0.0
 11
12.0
 21
9.0
 12
0.0
 22
0.0
 32
0.0
 14
1.00000000000000E+20
 24
1.00000000000000E+20
 34
1.00000000000000E+20
 15
-1.00000000000000E+20
 25
-1.00000000000000E+20
 35
-1.00000000000000E+20
146
0.0
 13
0.0
 23
0.0
 33
0.0
 16
1.0
 26
0.0
 36
0.0
 17
0.0
 27
1.0
 37
0.0
 76
     0
330
1B
  0
LAYOUT
  5
26
102
{ACAD_REACTORS
330
1A
102
}
330
1A
100
AcDbPlotSettings
  1

  2
none_device
  4

  6

 40
0.0
 41
0.0
 42
0.0
 43
0.0
 44
0.0
 45
0.0
 46
0.0
 47
0.0
 48
0.0
 49
0.0
140
0.0
141
0.0
142
1.0
143
1.0
 70
   688
 72
     0
 73
     0
 74
     5
  7

 75
    16
147
1.0
148
0.0
149
0.0
100
AcDbLayout
  1
Layout2
 70
     1
 71
     2
 10
0.0
 20
0.0
 11
0.0
 21
0.0
 12
0.0
 22
0.0
 32
0.0
 14
0.0
 24
0.0
 34
0.0
 15
0.0
 25
0.0
 35
0.0
146
0.0
 13
0.0
 23
0.0
 33
0.0
 16
1.0
 26
0.0
 36
0.0
 17
0.0
 27
1.0
 37
0.0
 76
     0
330
23
  0
LAYOUT
  5
22
102
{ACAD_REACTORS
330
1A
102
}
330
1A
100
AcDbPlotSettings
  1

  2
none_device
  4

  6

 40
0.0
 41
0.0
 42
0.0
 43
0.0
 44
0.0
 45
0.0
 46
0.0
 47
0.0
 48
0.0
 49
0.0
140
0.0
141
0.0
142
1.0
143
1.0
 70
  1712
 72
     0
 73
     0
 74
     0
  7

 75
     0
147
1.0
148
0.0
149
0.0
100
AcDbLayout
  1
Model
 70
     1
 71
     0
 10
0.0
 20
0.0
 11
12.0
 21
9.0
 12
0.0
 22
0.0
 32
0.0
 14
0.0
 24
0.0
 34
0.0
 15
210.0
 25
297.0
 35
0.0
146
0.0
 13
0.0
 23
0.0
 33
0.0
 16
1.0
 26
0.0
 36
0.0
 17
0.0
 27
1.0
 37
0.0
 76
     0
330
1F
331
29
  0
MATERIAL
  5
3D
102
{ACAD_REACTORS
330
3B
102
}
102
{ACAD_XDICTIONARY
360
33B
102
}
330
3B
100
AcDbMaterial
  1
ByBlock
  0
MATERIAL
  5
3C
102
{ACAD_REACTORS
330
3B
102
}
102
{ACAD_XDICTIONARY
360
339
102
}
330
3B
100
AcDbMaterial
  1
ByLayer
  0
MATERIAL
  5
3E
102
{ACAD_REACTORS
330
3B
102
}
102
{ACAD_XDICTIONARY
360
33D
102
}
330
3B
100
AcDbMaterial
  1
Global
  0
MLINESTYLE
  5
18
102
{ACAD_REACTORS
330
17
102
}
330
17
100
AcDbMlineStyle
  2
Standard
 70
     0
  3

 62
   256
 51
90.0
 52
90.0
 71
     2
 49
0.5
 62
   256
  6
BYLAYER
 49
-0.5
 62
   256
  6
BYLAYER
  0
ACDBPLACEHOLDER
  5
F
102
{ACAD_REACTORS
330
E
102
}
330
E
  0
VISUALSTYLE
  5
2F
102
{ACAD_REACTORS
330
2A
102
}
102
{ACAD_XDICTIONARY
360
321
102
}
330
2A
100
AcDbVisualStyle
  2
2dWireframe
 70
     4
 71
     0
 72
     2
 73
     0
 90
        0
 40
-0.6
 41
-30.0
 62
     5
 63
     7
 74
     1
 91
        4
 64
     7
 65
   257
 75
     1
175
     1
 42
1.0
 92
        0
 66
   257
 43
1.0
 76
     1
 77
     6
 78
     2
 67
     7
 79
     5
170
     0
171
     0
290
     0
174
     0
 93
        1
 44
0.0
173
     0
291
     0
 45
0.0
1001
ACAD
1000
AcDbSavedByObjectVersion
1070
     0
  0
VISUALSTYLE
  5
31
102
{ACAD_REACTORS
330
2A
102
}
102
{ACAD_XDICTIONARY
360
325
102
}
330
2A
100
AcDbVisualStyle
  2
3D Hidden
 70
     6
 71
     1
 72
     2
 73
     2
 90
        0
 40
-0.6
 41
-30.0
 62
     5
 63
     7
 74
     2
 91
        2
 64
     7
 65
   257
 75
     2
175
     1
 42
40.0
 92
        0
 66
   257
 43
1.0
 76
     1
 77
     6
 78
     2
 67
     7
 79
     3
170
     0
171
     0
290
     0
174
     0
 93
        1
 44
0.0
173
     0
291
     0
 45
0.0
1001
ACAD
1000
AcDbSavedByObjectVersion
1070
     0
  0
VISUALSTYLE
  5
30
102
{ACAD_REACTORS
330
2A
102
}
102
{ACAD_XDICTIONARY
360
323
102
}
330
2A
100
AcDbVisualStyle
  2
3dWireframe
 70
     5
 71
     0
 72
     2
 73
     0
 90
        0
 40
-0.6
 41
-30.0
 62
     5
 63
     7
 74
     1
 91
        4
 64
     7
 65
   257
 75
     1
175
     1
 42
1.0
 92
        0
 66
   257
 43
1.0
 76
     1
 77
     6
 78
     2
 67
     7
 79
     5
170
     0
171
     0
290
     0
174
     0
 93
        1
 44
0.0
173
     0
291
     0
 45
0.0
1001
ACAD
1000
AcDbSavedByObjectVersion
1070
     0
  0
VISUALSTYLE
  5
32
102
{ACAD_REACTORS
330
2A
102
}
102
{ACAD_XDICTIONARY
360
327
102
}
330
2A
100
AcDbVisualStyle
  2
Basic
 70
     7
 71
     1
 72
     0
 73
     1
 90
        0
 40
-0.6
 41
-30.0
 62
     5
 63
     7
 74
     0
 91
        4
 64
     7
 65
   257
 75
     1
175
     1
 42
1.0
 92
        8
 66
     7
 43
1.0
 76
     1
 77
     6
 78
     2
 67
     7
 79
     5
170
     0
171
     0
290
     0
174
     0
 93
        1
 44
0.0
173
     0
291
     1
 45
0.0
1001
ACAD
1000
AcDbSavedByObjectVersion
1070
     0
  0
VISUALSTYLE
  5
36
102
{ACAD_REACTORS
330
2A
102
}
102
{ACAD_XDICTIONARY
360
32F
102
}
330
2A
100
AcDbVisualStyle
  2
Brighten
 70
    12
 71
     2
 72
     2
 73
     0
 90
        0
 40
-0.6
 41
-30.0
 62
     5
 63
     7
 74
     1
 91
        4
 64
     7
 65
   257
 75
     1
175
     1
 42
1.0
 92
        8
 66
     7
 43
1.0
 76
     1
 77
     6
 78
     2
 67
     7
 79
     5
170
     0
171
     0
290
     0
174
     0
 93
        1
 44
50.0
173
     0
291
     1
 45
0.0
1001
ACAD
1000
AcDbSavedByObjectVersion
1070
     0
  0
VISUALSTYLE
  5
3A
102
{ACAD_REACTORS
330
2A
102
}
102
{ACAD_XDICTIONARY
360
337
102
}
330
2A
100
AcDbVisualStyle
  2
ColorChange
 70
    16
 71
     2
 72
     2
 73
     3
 90
        0
 40
-0.6
 41
-30.0
 62
     5
 63
     8
 74
     1
 91
        4
 64
     7
 65
   257
 75
     1
175
     1
 42
1.0
 92
        8
 66
     8
 43
1.0
 76
     1
 77
     6
 78
     2
 67
     7
 79
     5
170
     0
171
     0
290
     0
174
     0
 93
        1
 44
0.0
173
     0
291
     1
 45
0.0
1001
ACAD
1000
AcDbSavedByObjectVersion
1070
     0
  0
VISUALSTYLE
  5
34
102
{ACAD_REACTORS
330
2A
102
}
102
{ACAD_XDICTIONARY
360
32B
102
}
330
2A
100
AcDbVisualStyle
  2
Conceptual
 70
     9
 71
     3
 72
     2
 73
     0
 90
        0
 40
-0.6
 41
-30.0
 62
     5
 63
     7
 74
     2
 91
        2
 64
     7
 65
   257
 75
     1
175
     1
 42
40.0
 92
        8
 66
     7
 43
1.0
 76
     1
 77
     6
 78
     2
 67
     7
 79
     3
170
     0
171
     0
290
     0
174
     0
 93
        1
 44
0.0
173
     0
291
     0
 45
0.0
1001
ACAD
1000
AcDbSavedByObjectVersion
1070
     0
  0
VISUALSTYLE
  5
35
102
{ACAD_REACTORS
330
2A
102
}
102
{ACAD_XDICTIONARY
360
32D
102
}
330
2A
100
AcDbVisualStyle
  2
Dim
 70
    11
 71
     2
 72
     2
 73
     0
 90
        0
 40
-0.6
 41
-30.0
 62
     5
 63
     7
 74
     1
 91
        4
 64
     7
 65
   257
 75
     1
175
     1
 42
1.0
 92
        8
 66
     7
 43
1.0
 76
     1
 77
     6
 78
     2
 67
     7
 79
     5
170
     0
171
     0
290
     0
174
     0
 93
        1
 44
-50.0
173
     0
291
     1
 45
0.0
1001
ACAD
1000
AcDbSavedByObjectVersion
1070
     0
  0
VISUALSTYLE
  5
39
102
{ACAD_REACTORS
330
2A
102
}
102
{ACAD_XDICTIONARY
360
335
102
}
330
2A
100
AcDbVisualStyle
  2
Facepattern
 70
    15
 71
     2
 72
     2
 73
     0
 90
        0
 40
-0.6
 41
-30.0
 62
     5
 63
     7
 74
     1
 91
        4
 64
     7
 65
   257
 75
     1
175
     1
 42
1.0
 92
        8
 66
     7
 43
1.0
 76
     1
 77
     6
 78
     2
 67
     7
 79
     5
170
     0
171
     0
290
     0
174
     0
 93
        1
 44
0.0
173
     0
291
     1
 45
0.0
1001
ACAD
1000
AcDbSavedByObjectVersion
1070
     0
  0
VISUALSTYLE
  5
2B
102
{ACAD_REACTORS
330
2A
102
}
102
{ACAD_XDICTIONARY
360
319
102
}
330
2A
100
AcDbVisualStyle
  2
Flat
 70
     0
 71
     2
 72
     1
 73
     1
 90
        2
 40
-0.6
 41
30.0
 62
     5
 63
     7
 74
     0
 91
        4
 64
     7
 65
   257
 75
     1
175
     1
 42
1.0
 92
        8
 66
     7
 43
1.0
 76
     1
 77
     6
 78
     2
 67
     7
 79
     5
170
     0
171
     0
290
     0
174
     0
 93
       13
 44
0.0
173
     0
291
     1
 45
0.0
1001
ACAD
1000
AcDbSavedByObjectVersion
1070
     0
  0
VISUALSTYLE
  5
2C
102
{ACAD_REACTORS
330
2A
102
}
102
{ACAD_XDICTIONARY
360
31B
102
}
330
2A
100
AcDbVisualStyle
  2
FlatWithEdges
 70
     1
 71
     2
 72
     1
 73
     1
 90
        2
 40
-0.6
 41
30.0
 62
     5
 63
     7
 74
     1
 91
        4
 64
     7
 65
   257
 75
     1
175
     1
 42
1.0
 92
        0
 66
   257
 43
1.0
 76
     1
 77
     6
 78
     2
 67
     7
 79
     5
170
     0
171
     0
290
     0
174
     0
 93
       13
 44
0.0
173
     0
291
     1
 45
0.0
1001
ACAD
1000
AcDbSavedByObjectVersion
1070
     0
  0
VISUALSTYLE
  5
2D
102
{ACAD_REACTORS
330
2A
102
}
102
{ACAD_XDICTIONARY
360
31D
102
}
330
2A
100
AcDbVisualStyle
  2
Gouraud
 70
     2
 71
     2
 72
     2
 73
     1
 90
        2
 40
-0.6
 41
30.0
 62
     5
 63
     7
 74
     0
 91
        4
 64
     7
 65
   257
 75
     1
175
     1
 42
1.0
 92
        0
 66
     7
 43
1.0
 76
     1
 77
     6
 78
     2
 67
     7
 79
     5
170
     0
171
     0
290
     0
174
     0
 93
       13
 44
0.0
173
     0
291
     1
 45
0.0
1001
ACAD
1000
AcDbSavedByObjectVersion
1070
     0
  0
VISUALSTYLE
  5
2E
102
{ACAD_REACTORS
330
2A
102
}
102
{ACAD_XDICTIONARY
360
31F
102
}
330
2A
100
AcDbVisualStyle
  2
GouraudWithEdges
 70
     3
 71
     2
 72
     2
 73
     1
 90
        2
 40
-0.6
 41
30.0
 62
     5
 63
     7
 74
     1
 91
        4
 64
     7
 65
   257
 75
     1
175
     1
 42
1.0
 92
        0
 66
   257
 43
1.0
 76
     1
 77
     6
 78
     2
 67
     7
 79
     5
170
     0
171
     0
290
     0
174
     0
 93
       13
 44
0.0
173
     0
291
     1
 45
0.0
1001
ACAD
1000
AcDbSavedByObjectVersion
1070
     0
  0
VISUALSTYLE
  5
38
102
{ACAD_REACTORS
330
2A
102
}
102
{ACAD_XDICTIONARY
360
333
102
}
330
2A
100
AcDbVisualStyle
  2
Linepattern
 70
    14
 71
     2
 72
     2
 73
     0
 90
        0
 40
-0.6
 41
-30.0
 62
     5
 63
     7
 74
     1
 91
        4
 64
     7
 65
   257
 75
     7
175
     7
 42
1.0
 92
        8
 66
     7
 43
1.0
 76
     1
 77
     6
 78
     2
 67
     7
 79
     5
170
     0
171
     0
290
     0
174
     0
 93
        1
 44
0.0
173
     0
291
     1
 45
0.0
1001
ACAD
1000
AcDbSavedByObjectVersion
1070
     0
  0
VISUALSTYLE
  5
33
102
{ACAD_REACTORS
330
2A
102
}
102
{ACAD_XDICTIONARY
360
329
102
}
330
2A
100
AcDbVisualStyle
  2
Realistic
 70
     8
 71
     2
 72
     2
 73
     0
 90
        0
 40
-0.6
 41
-30.0
 62
     5
 63
     7
 74
     1
 91
        0
 64
     7
 65
   257
 75
     1
175
     1
 42
1.0
 92
        8
 66
     8
 43
1.0
 76
     1
 77
     6
 78
     2
 67
     7
 79
     5
170
     0
171
     0
290
     0
174
     0
 93
       13
 44
0.0
173
     0
291
     0
 45
0.0
1001
ACAD
1000
AcDbSavedByObjectVersion
1070
     0
  0
VISUALSTYLE
  5
37
102
{ACAD_REACTORS
330
2A
102
}
102
{ACAD_XDICTIONARY
360
331
102
}
330
2A
100
AcDbVisualStyle
  2
Thicken
 70
    13
 71
     2
 72
     2
 73
     0
 90
        0
 40
-0.6
 41
-30.0
 62
     5
 63
     7
 74
     1
 91
        4
 64
     7
 65
   257
 75
     1
175
     1
 42
1.0
 92
       12
 66
     7
 43
1.0
 76
     1
 77
     6
 78
     2
 67
     7
 79
     5
170
     0
171
     0
290
     0
174
     0
 93
        1
 44
0.0
173
     0
291
     1
 45
0.0
1001
ACAD
1000
AcDbSavedByObjectVersion
1070
     0
  0
DICTIONARYVAR
  5
317
102
{ACAD_REACTORS
330
314
102
}
330
314
100
DictionaryVariables
280
     0
  1
2
  0
DICTIONARYVAR
  5
318
102
{ACAD_REACTORS
330
314
102
}
330
314
100
DictionaryVariables
280
     0
  1
1
  0
DICTIONARY
  5
33B
330
3D
100
AcDbDictionary
280
     1
281
     1
  3
ACAD_XREC_ROUNDTRIP
360
33C
  0
DICTIONARY
  5
339
330
3C
100
AcDbDictionary
280
     1
281
     1
  3
ACAD_XREC_ROUNDTRIP
360
33A
  0
DICTIONARY
  5
33D
330
3E
100
AcDbDictionary
280
     1
281
     1
  3
ACAD_XREC_ROUNDTRIP
360
33E
  0
DICTIONARY
  5
321
330
2F
100
AcDbDictionary
280
     1
281
     1
  3
ACAD_XREC_ROUNDTRIP
360
322
  0
DICTIONARY
  5
325
330
31
100
AcDbDictionary
280
     1
281
     1
  3
ACAD_XREC_ROUNDTRIP
360
326
  0
DICTIONARY
  5
323
330
30
100
AcDbDictionary
280
     1
281
     1
  3
ACAD_XREC_ROUNDTRIP
360
324
  0
DICTIONARY
  5
327
330
32
100
AcDbDictionary
280
     1
281
     1
  3
ACAD_XREC_ROUNDTRIP
360
328
  0
DICTIONARY
  5
32F
330
36
100
AcDbDictionary
280
     1
281
     1
  3
ACAD_XREC_ROUNDTRIP
360
330
  0
DICTIONARY
  5
337
330
3A
100
AcDbDictionary
280
     1
281
     1
  3
ACAD_XREC_ROUNDTRIP
360
338
  0
DICTIONARY
  5
32B
330
34
100
AcDbDictionary
280
     1
281
     1
  3
ACAD_XREC_ROUNDTRIP
360
32C
  0
DICTIONARY
  5
32D
330
35
100
AcDbDictionary
280
     1
281
     1
  3
ACAD_XREC_ROUNDTRIP
360
32E
  0
DICTIONARY
  5
335
330
39
100
AcDbDictionary
280
     1
281
     1
  3
ACAD_XREC_ROUNDTRIP
360
336
  0
DICTIONARY
  5
319
330
2B
100
AcDbDictionary
280
     1
281
     1
  3
ACAD_XREC_ROUNDTRIP
360
31A
  0
DICTIONARY
  5
31B
330
2C
100
AcDbDictionary
280
     1
281
     1
  3
ACAD_XREC_ROUNDTRIP
360
31C
  0
DICTIONARY
  5
31D
330
2D
100
AcDbDictionary
280
     1
281
     1
  3
ACAD_XREC_ROUNDTRIP
360
31E
  0
DICTIONARY
  5
31F
330
2E
100
AcDbDictionary
280
     1
281
     1
  3
ACAD_XREC_ROUNDTRIP
360
320
  0
DICTIONARY
  5
333
330
38
100
AcDbDictionary
280
     1
281
     1
  3
ACAD_XREC_ROUNDTRIP
360
334
  0
DICTIONARY
  5
329
330
33
100
AcDbDictionary
280
     1
281
     1
  3
ACAD_XREC_ROUNDTRIP
360
32A
  0
DICTIONARY
  5
331
330
37
100
AcDbDictionary
280
     1
281
     1
  3
ACAD_XREC_ROUNDTRIP
360
332
  0
XRECORD
  5
33C
102
{ACAD_REACTORS
330
33B
102
}
330
33B
100
AcDbXrecord
280
     1
102
MATERIAL
148
0.0
149
0.0
149
0.0
 93
        0
 94
      127
282
     0
 72
     1
 77
     1
171
     1
175
     1
179
     1
273
     0
  0
XRECORD
  5
33A
102
{ACAD_REACTORS
330
339
102
}
330
339
100
AcDbXrecord
280
     1
102
MATERIAL
148
0.0
149
0.0
149
0.0
 93
        0
 94
      127
282
     0
 72
     1
 77
     1
171
     1
175
     1
179
     1
273
     0
  0
XRECORD
  5
33E
102
{ACAD_REACTORS
330
33D
102
}
330
33D
100
AcDbXrecord
280
     1
102
MATERIAL
148
0.0
149
0.0
149
0.0
 93
        0
 94
      127
282
     0
 72
     1
 77
     1
171
     1
175
     1
179
     1
273
     0
  0
XRECORD
  5
322
102
{ACAD_REACTORS
330
321
102
}
330
321
100
AcDbXrecord
280
     1
102
RTVSPropertyOp0
 70
     1
102
RTVSPropertyOp1
 70
     1
102
RTVSPropertyOp2
 70
     1
102
RTVSPropertyOp3
 70
     1
102
RTVSPropertyOp4
 70
     1
102
RTVSPropertyOp5
 70
     1
102
RTVSPropertyOp6
 70
     1
102
RTVSPropertyOp7
 70
     1
102
RTVSPropertyOp8
 70
     1
102
RTVSPropertyOp9
 70
     1
102
RTVSPropertyOp10
 70
     1
102
RTVSPropertyOp11
 70
     1
102
RTVSPropertyOp12
 70
     1
102
RTVSPropertyOp13
 70
     1
102
RTVSPropertyOp14
 70
     1
102
RTVSPropertyOp15
 70
     1
102
RTVSPropertyOp16
 70
     1
102
RTVSPropertyOp17
 70
     1
102
RTVSPropertyOp18
 70
     1
102
RTVSPropertyOp19
 70
     1
102
RTVSPropertyOp20
 70
     1
102
RTVSPropertyOp21
 70
     1
102
RTVSPropertyOp22
 70
     1
102
RTVSPropertyOp23
 70
     1
102
RTVSPropertyOp24
 70
     1
102
RTVSPropertyOp25
 70
     1
102
RTVSPropertyOp26
 70
     1
102
RTVSPropertyOp27
 70
     1
102
RTVSPropertyOp28
 70
     1
102
RTVSPropertyOp29
 70
     1
102
RTVSPropertyOp30
 70
     1
102
RTVSPropertyOp31
 70
     1
102
RTVSPropertyOp32
 70
     1
  0
XRECORD
  5
326
102
{ACAD_REACTORS
330
325
102
}
330
325
100
AcDbXrecord
280
     1
102
RTVSPropertyOp0
 70
     1
102
RTVSPropertyOp1
 70
     1
102
RTVSPropertyOp2
 70
     1
102
RTVSPropertyOp3
 70
     1
102
RTVSPropertyOp4
 70
     1
102
RTVSPropertyOp5
 70
     1
102
RTVSPropertyOp6
 70
     1
102
RTVSPropertyOp7
 70
     1
102
RTVSPropertyOp8
 70
     1
102
RTVSPropertyOp9
 70
     1
102
RTVSPropertyOp10
 70
     1
102
RTVSPropertyOp11
 70
     1
102
RTVSPropertyOp12
 70
     1
102
RTVSPropertyOp13
 70
     1
102
RTVSPropertyOp14
 70
     1
102
RTVSPropertyOp15
 70
     1
102
RTVSPropertyOp16
 70
     1
102
RTVSPropertyOp17
 70
     1
102
RTVSPropertyOp18
 70
     1
102
RTVSPropertyOp19
 70
     1
102
RTVSPropertyOp20
 70
     1
102
RTVSPropertyOp21
 70
     1
102
RTVSPropertyOp22
 70
     1
102
RTVSPropertyOp23
 70
     1
102
RTVSPropertyOp24
 70
     1
102
RTVSPropertyOp25
 70
     1
102
RTVSPropertyOp26
 70
     1
102
RTVSPropertyOp27
 70
     1
102
RTVSPropertyOp28
 70
     1
102
RTVSPropertyOp29
 70
     1
102
RTVSPropertyOp30
 70
     1
102
RTVSPropertyOp31
 70
     1
102
RTVSPropertyOp32
 70
     1
  0
XRECORD
  5
324
102
{ACAD_REACTORS
330
323
102
}
330
323
100
AcDbXrecord
280
     1
102
RTVSPropertyOp0
 70
     1
102
RTVSPropertyOp1
 70
     1
102
RTVSPropertyOp2
 70
     1
102
RTVSPropertyOp3
 70
     1
102
RTVSPropertyOp4
 70
     1
102
RTVSPropertyOp5
 70
     1
102
RTVSPropertyOp6
 70
     1
102
RTVSPropertyOp7
 70
     1
102
RTVSPropertyOp8
 70
     1
102
RTVSPropertyOp9
 70
     1
102
RTVSPropertyOp10
 70
     1
102
RTVSPropertyOp11
 70
     1
102
RTVSPropertyOp12
 70
     1
102
RTVSPropertyOp13
 70
     1
102
RTVSPropertyOp14
 70
     1
102
RTVSPropertyOp15
 70
     1
102
RTVSPropertyOp16
 70
     1
102
RTVSPropertyOp17
 70
     1
102
RTVSPropertyOp18
 70
     1
102
RTVSPropertyOp19
 70
     1
102
RTVSPropertyOp20
 70
     1
102
RTVSPropertyOp21
 70
     1
102
RTVSPropertyOp22
 70
     1
102
RTVSPropertyOp23
 70
     1
102
RTVSPropertyOp24
 70
     1
102
RTVSPropertyOp25
 70
     1
102
RTVSPropertyOp26
 70
     1
102
RTVSPropertyOp27
 70
     1
102
RTVSPropertyOp28
 70
     1
102
RTVSPropertyOp29
 70
     1
102
RTVSPropertyOp30
 70
     1
102
RTVSPropertyOp31
 70
     1
102
RTVSPropertyOp32
 70
     1
  0
XRECORD
  5
328
102
{ACAD_REACTORS
330
327
102
}
330
327
100
AcDbXrecord
280
     1
102
RTVSPropertyOp0
 70
     1
102
RTVSPropertyOp1
 70
     1
102
RTVSPropertyOp2
 70
     1
102
RTVSPropertyOp3
 70
     1
102
RTVSPropertyOp4
 70
     1
102
RTVSPropertyOp5
 70
     1
102
RTVSPropertyOp6
 70
     1
102
RTVSPropertyOp7
 70
     1
102
RTVSPropertyOp8
 70
     1
102
RTVSPropertyOp9
 70
     1
102
RTVSPropertyOp10
 70
     1
102
RTVSPropertyOp11
 70
     1
102
RTVSPropertyOp12
 70
     1
102
RTVSPropertyOp13
 70
     1
102
RTVSPropertyOp14
 70
     1
102
RTVSPropertyOp15
 70
     1
102
RTVSPropertyOp16
 70
     1
102
RTVSPropertyOp17
 70
     1
102
RTVSPropertyOp18
 70
     1
102
RTVSPropertyOp19
 70
     1
102
RTVSPropertyOp20
 70
     1
102
RTVSPropertyOp21
 70
     1
102
RTVSPropertyOp22
 70
     1
102
RTVSPropertyOp23
 70
     1
102
RTVSPropertyOp24
 70
     1
102
RTVSPropertyOp25
 70
     1
102
RTVSPropertyOp26
 70
     1
102
RTVSPropertyOp27
 70
     1
102
RTVSPropertyOp28
 70
     1
102
RTVSPropertyOp29
 70
     1
102
RTVSPropertyOp30
 70
     1
102
RTVSPropertyOp31
 70
     1
102
RTVSPropertyOp32
 70
     1
  0
XRECORD
  5
330
102
{ACAD_REACTORS
330
32F
102
}
330
32F
100
AcDbXrecord
280
     1
102
RTVSPropertyOp0
 70
     1
102
RTVSPropertyOp1
 70
     1
102
RTVSPropertyOp2
 70
     1
102
RTVSPropertyOp3
 70
     1
102
RTVSPropertyOp4
 70
     1
102
RTVSPropertyOp5
 70
     1
102
RTVSPropertyOp6
 70
     1
102
RTVSPropertyOp7
 70
     1
102
RTVSPropertyOp8
 70
     1
102
RTVSPropertyOp9
 70
     1
102
RTVSPropertyOp10
 70
     1
102
RTVSPropertyOp11
 70
     1
102
RTVSPropertyOp12
 70
     1
102
RTVSPropertyOp13
 70
     1
102
RTVSPropertyOp14
 70
     1
102
RTVSPropertyOp15
 70
     1
102
RTVSPropertyOp16
 70
     1
102
RTVSPropertyOp17
 70
     1
102
RTVSPropertyOp18
 70
     1
102
RTVSPropertyOp19
 70
     1
102
RTVSPropertyOp20
 70
     1
102
RTVSPropertyOp21
 70
     1
102
RTVSPropertyOp22
 70
     1
102
RTVSPropertyOp23
 70
     1
102
RTVSPropertyOp24
 70
     1
102
RTVSPropertyOp25
 70
     1
102
RTVSPropertyOp26
 70
     1
102
RTVSPropertyOp27
 70
     1
102
RTVSPropertyOp28
 70
     1
102
RTVSPropertyOp29
 70
     1
102
RTVSPropertyOp30
 70
     1
102
RTVSPropertyOp31
 70
     1
102
RTVSPropertyOp32
 70
     1
  0
XRECORD
  5
338
102
{ACAD_REACTORS
330
337
102
}
330
337
100
AcDbXrecord
280
     1
102
RTVSPropertyOp0
 70
     1
102
RTVSPropertyOp1
 70
     1
102
RTVSPropertyOp2
 70
     1
102
RTVSPropertyOp3
 70
     1
102
RTVSPropertyOp4
 70
     1
102
RTVSPropertyOp5
 70
     1
102
RTVSPropertyOp6
 70
     1
102
RTVSPropertyOp7
 70
     1
102
RTVSPropertyOp8
 70
     1
102
RTVSPropertyOp9
 70
     1
102
RTVSPropertyOp10
 70
     1
102
RTVSPropertyOp11
 70
     1
102
RTVSPropertyOp12
 70
     1
102
RTVSPropertyOp13
 70
     1
102
RTVSPropertyOp14
 70
     1
102
RTVSPropertyOp15
 70
     1
102
RTVSPropertyOp16
 70
     1
102
RTVSPropertyOp17
 70
     1
102
RTVSPropertyOp18
 70
     1
102
RTVSPropertyOp19
 70
     1
102
RTVSPropertyOp20
 70
     1
102
RTVSPropertyOp21
 70
     1
102
RTVSPropertyOp22
 70
     1
102
RTVSPropertyOp23
 70
     1
102
RTVSPropertyOp24
 70
     1
102
RTVSPropertyOp25
 70
     1
102
RTVSPropertyOp26
 70
     1
102
RTVSPropertyOp27
 70
     1
102
RTVSPropertyOp28
 70
     1
102
RTVSPropertyOp29
 70
     1
102
RTVSPropertyOp30
 70
     1
102
RTVSPropertyOp31
 70
     1
102
RTVSPropertyOp32
 70
     1
  0
XRECORD
  5
32C
102
{ACAD_REACTORS
330
32B
102
}
330
32B
100
AcDbXrecord
280
     1
102
RTVSPropertyOp0
 70
     1
102
RTVSPropertyOp1
 70
     1
102
RTVSPropertyOp2
 70
     1
102
RTVSPropertyOp3
 70
     1
102
RTVSPropertyOp4
 70
     1
102
RTVSPropertyOp5
 70
     1
102
RTVSPropertyOp6
 70
     1
102
RTVSPropertyOp7
 70
     1
102
RTVSPropertyOp8
 70
     1
102
RTVSPropertyOp9
 70
     1
102
RTVSPropertyOp10
 70
     1
102
RTVSPropertyOp11
 70
     1
102
RTVSPropertyOp12
 70
     1
102
RTVSPropertyOp13
 70
     1
102
RTVSPropertyOp14
 70
     1
102
RTVSPropertyOp15
 70
     1
102
RTVSPropertyOp16
 70
     1
102
RTVSPropertyOp17
 70
     1
102
RTVSPropertyOp18
 70
     1
102
RTVSPropertyOp19
 70
     1
102
RTVSPropertyOp20
 70
     1
102
RTVSPropertyOp21
 70
     1
102
RTVSPropertyOp22
 70
     1
102
RTVSPropertyOp23
 70
     1
102
RTVSPropertyOp24
 70
     1
102
RTVSPropertyOp25
 70
     1
102
RTVSPropertyOp26
 70
     1
102
RTVSPropertyOp27
 70
     1
102
RTVSPropertyOp28
 70
     1
102
RTVSPropertyOp29
 70
     1
102
RTVSPropertyOp30
 70
     1
102
RTVSPropertyOp31
 70
     1
102
RTVSPropertyOp32
 70
     1
  0
XRECORD
  5
32E
102
{ACAD_REACTORS
330
32D
102
}
330
32D
100
AcDbXrecord
280
     1
102
RTVSPropertyOp0
 70
     1
102
RTVSPropertyOp1
 70
     1
102
RTVSPropertyOp2
 70
     1
102
RTVSPropertyOp3
 70
     1
102
RTVSPropertyOp4
 70
     1
102
RTVSPropertyOp5
 70
     1
102
RTVSPropertyOp6
 70
     1
102
RTVSPropertyOp7
 70
     1
102
RTVSPropertyOp8
 70
     1
102
RTVSPropertyOp9
 70
     1
102
RTVSPropertyOp10
 70
     1
102
RTVSPropertyOp11
 70
     1
102
RTVSPropertyOp12
 70
     1
102
RTVSPropertyOp13
 70
     1
102
RTVSPropertyOp14
 70
     1
102
RTVSPropertyOp15
 70
     1
102
RTVSPropertyOp16
 70
     1
102
RTVSPropertyOp17
 70
     1
102
RTVSPropertyOp18
 70
     1
102
RTVSPropertyOp19
 70
     1
102
RTVSPropertyOp20
 70
     1
102
RTVSPropertyOp21
 70
     1
102
RTVSPropertyOp22
 70
     1
102
RTVSPropertyOp23
 70
     1
102
RTVSPropertyOp24
 70
     1
102
RTVSPropertyOp25
 70
     1
102
RTVSPropertyOp26
 70
     1
102
RTVSPropertyOp27
 70
     1
102
RTVSPropertyOp28
 70
     1
102
RTVSPropertyOp29
 70
     1
102
RTVSPropertyOp30
 70
     1
102
RTVSPropertyOp31
 70
     1
102
RTVSPropertyOp32
 70
     1
  0
XRECORD
  5
336
102
{ACAD_REACTORS
330
335
102
}
330
335
100
AcDbXrecord
280
     1
102
RTVSPropertyOp0
 70
     1
102
RTVSPropertyOp1
 70
     1
102
RTVSPropertyOp2
 70
     1
102
RTVSPropertyOp3
 70
     1
102
RTVSPropertyOp4
 70
     1
102
RTVSPropertyOp5
 70
     1
102
RTVSPropertyOp6
 70
     1
102
RTVSPropertyOp7
 70
     1
102
RTVSPropertyOp8
 70
     1
102
RTVSPropertyOp9
 70
     1
102
RTVSPropertyOp10
 70
     1
102
RTVSPropertyOp11
 70
     1
102
RTVSPropertyOp12
 70
     1
102
RTVSPropertyOp13
 70
     1
102
RTVSPropertyOp14
 70
     1
102
RTVSPropertyOp15
 70
     1
102
RTVSPropertyOp16
 70
     1
102
RTVSPropertyOp17
 70
     1
102
RTVSPropertyOp18
 70
     1
102
RTVSPropertyOp19
 70
     1
102
RTVSPropertyOp20
 70
     1
102
RTVSPropertyOp21
 70
     1
102
RTVSPropertyOp22
 70
     1
102
RTVSPropertyOp23
 70
     1
102
RTVSPropertyOp24
 70
     1
102
RTVSPropertyOp25
 70
     1
102
RTVSPropertyOp26
 70
     1
102
RTVSPropertyOp27
 70
     1
102
RTVSPropertyOp28
 70
     1
102
RTVSPropertyOp29
 70
     1
102
RTVSPropertyOp30
 70
     1
102
RTVSPropertyOp31
 70
     1
102
RTVSPropertyOp32
 70
     1
  0
XRECORD
  5
31A
102
{ACAD_REACTORS
330
319
102
}
330
319
100
AcDbXrecord
280
     1
102
RTVSPropertyOp0
 70
     1
102
RTVSPropertyOp1
 70
     1
102
RTVSPropertyOp2
 70
     1
102
RTVSPropertyOp3
 70
     1
102
RTVSPropertyOp4
 70
     1
102
RTVSPropertyOp5
 70
     1
102
RTVSPropertyOp6
 70
     1
102
RTVSPropertyOp7
 70
     1
102
RTVSPropertyOp8
 70
     1
102
RTVSPropertyOp9
 70
     1
102
RTVSPropertyOp10
 70
     1
102
RTVSPropertyOp11
 70
     1
102
RTVSPropertyOp12
 70
     1
102
RTVSPropertyOp13
 70
     1
102
RTVSPropertyOp14
 70
     1
102
RTVSPropertyOp15
 70
     1
102
RTVSPropertyOp16
 70
     1
102
RTVSPropertyOp17
 70
     1
102
RTVSPropertyOp18
 70
     1
102
RTVSPropertyOp19
 70
     1
102
RTVSPropertyOp20
 70
     1
102
RTVSPropertyOp21
 70
     1
102
RTVSPropertyOp22
 70
     1
102
RTVSPropertyOp23
 70
     1
102
RTVSPropertyOp24
 70
     1
102
RTVSPropertyOp25
 70
     1
102
RTVSPropertyOp26
 70
     1
102
RTVSPropertyOp27
 70
     1
102
RTVSPropertyOp28
 70
     1
102
RTVSPropertyOp29
 70
     1
102
RTVSPropertyOp30
 70
     1
102
RTVSPropertyOp31
 70
     1
102
RTVSPropertyOp32
 70
     1
  0
XRECORD
  5
31C
102
{ACAD_REACTORS
330
31B
102
}
330
31B
100
AcDbXrecord
280
     1
102
RTVSPropertyOp0
 70
     1
102
RTVSPropertyOp1
 70
     1
102
RTVSPropertyOp2
 70
     1
102
RTVSPropertyOp3
 70
     1
102
RTVSPropertyOp4
 70
     1
102
RTVSPropertyOp5
 70
     1
102
RTVSPropertyOp6
 70
     1
102
RTVSPropertyOp7
 70
     1
102
RTVSPropertyOp8
 70
     1
102
RTVSPropertyOp9
 70
     1
102
RTVSPropertyOp10
 70
     1
102
RTVSPropertyOp11
 70
     1
102
RTVSPropertyOp12
 70
     1
102
RTVSPropertyOp13
 70
     1
102
RTVSPropertyOp14
 70
     1
102
RTVSPropertyOp15
 70
     1
102
RTVSPropertyOp16
 70
     1
102
RTVSPropertyOp17
 70
     1
102
RTVSPropertyOp18
 70
     1
102
RTVSPropertyOp19
 70
     1
102
RTVSPropertyOp20
 70
     1
102
RTVSPropertyOp21
 70
     1
102
RTVSPropertyOp22
 70
     1
102
RTVSPropertyOp23
 70
     1
102
RTVSPropertyOp24
 70
     1
102
RTVSPropertyOp25
 70
     1
102
RTVSPropertyOp26
 70
     1
102
RTVSPropertyOp27
 70
     1
102
RTVSPropertyOp28
 70
     1
102
RTVSPropertyOp29
 70
     1
102
RTVSPropertyOp30
 70
     1
102
RTVSPropertyOp31
 70
     1
102
RTVSPropertyOp32
 70
     1
  0
XRECORD
  5
31E
102
{ACAD_REACTORS
330
31D
102
}
330
31D
100
AcDbXrecord
280
     1
102
RTVSPropertyOp0
 70
     1
102
RTVSPropertyOp1
 70
     1
102
RTVSPropertyOp2
 70
     1
102
RTVSPropertyOp3
 70
     1
102
RTVSPropertyOp4
 70
     1
102
RTVSPropertyOp5
 70
     1
102
RTVSPropertyOp6
 70
     1
102
RTVSPropertyOp7
 70
     1
102
RTVSPropertyOp8
 70
     1
102
RTVSPropertyOp9
 70
     1
102
RTVSPropertyOp10
 70
     1
102
RTVSPropertyOp11
 70
     1
102
RTVSPropertyOp12
 70
     1
102
RTVSPropertyOp13
 70
     1
102
RTVSPropertyOp14
 70
     1
102
RTVSPropertyOp15
 70
     1
102
RTVSPropertyOp16
 70
     1
102
RTVSPropertyOp17
 70
     1
102
RTVSPropertyOp18
 70
     1
102
RTVSPropertyOp19
 70
     1
102
RTVSPropertyOp20
 70
     1
102
RTVSPropertyOp21
 70
     1
102
RTVSPropertyOp22
 70
     1
102
RTVSPropertyOp23
 70
     1
102
RTVSPropertyOp24
 70
     1
102
RTVSPropertyOp25
 70
     1
102
RTVSPropertyOp26
 70
     1
102
RTVSPropertyOp27
 70
     1
102
RTVSPropertyOp28
 70
     1
102
RTVSPropertyOp29
 70
     1
102
RTVSPropertyOp30
 70
     1
102
RTVSPropertyOp31
 70
     1
102
RTVSPropertyOp32
 70
     1
  0
XRECORD
  5
320
102
{ACAD_REACTORS
330
31F
102
}
330
31F
100
AcDbXrecord
280
     1
102
RTVSPropertyOp0
 70
     1
102
RTVSPropertyOp1
 70
     1
102
RTVSPropertyOp2
 70
     1
102
RTVSPropertyOp3
 70
     1
102
RTVSPropertyOp4
 70
     1
102
RTVSPropertyOp5
 70
     1
102
RTVSPropertyOp6
 70
     1
102
RTVSPropertyOp7
 70
     1
102
RTVSPropertyOp8
 70
     1
102
RTVSPropertyOp9
 70
     1
102
RTVSPropertyOp10
 70
     1
102
RTVSPropertyOp11
 70
     1
102
RTVSPropertyOp12
 70
     1
102
RTVSPropertyOp13
 70
     1
102
RTVSPropertyOp14
 70
     1
102
RTVSPropertyOp15
 70
     1
102
RTVSPropertyOp16
 70
     1
102
RTVSPropertyOp17
 70
     1
102
RTVSPropertyOp18
 70
     1
102
RTVSPropertyOp19
 70
     1
102
RTVSPropertyOp20
 70
     1
102
RTVSPropertyOp21
 70
     1
102
RTVSPropertyOp22
 70
     1
102
RTVSPropertyOp23
 70
     1
102
RTVSPropertyOp24
 70
     1
102
RTVSPropertyOp25
 70
     1
102
RTVSPropertyOp26
 70
     1
102
RTVSPropertyOp27
 70
     1
102
RTVSPropertyOp28
 70
     1
102
RTVSPropertyOp29
 70
     1
102
RTVSPropertyOp30
 70
     1
102
RTVSPropertyOp31
 70
     1
102
RTVSPropertyOp32
 70
     1
  0
XRECORD
  5
334
102
{ACAD_REACTORS
330
333
102
}
330
333
100
AcDbXrecord
280
     1
102
RTVSPropertyOp0
 70
     1
102
RTVSPropertyOp1
 70
     1
102
RTVSPropertyOp2
 70
     1
102
RTVSPropertyOp3
 70
     1
102
RTVSPropertyOp4
 70
     1
102
RTVSPropertyOp5
 70
     1
102
RTVSPropertyOp6
 70
     1
102
RTVSPropertyOp7
 70
     1
102
RTVSPropertyOp8
 70
     1
102
RTVSPropertyOp9
 70
     1
102
RTVSPropertyOp10
 70
     1
102
RTVSPropertyOp11
 70
     1
102
RTVSPropertyOp12
 70
     1
102
RTVSPropertyOp13
 70
     1
102
RTVSPropertyOp14
 70
     1
102
RTVSPropertyOp15
 70
     1
102
RTVSPropertyOp16
 70
     1
102
RTVSPropertyOp17
 70
     1
102
RTVSPropertyOp18
 70
     1
102
RTVSPropertyOp19
 70
     1
102
RTVSPropertyOp20
 70
     1
102
RTVSPropertyOp21
 70
     1
102
RTVSPropertyOp22
 70
     1
102
RTVSPropertyOp23
 70
     1
102
RTVSPropertyOp24
 70
     1
102
RTVSPropertyOp25
 70
     1
102
RTVSPropertyOp26
 70
     1
102
RTVSPropertyOp27
 70
     1
102
RTVSPropertyOp28
 70
     1
102
RTVSPropertyOp29
 70
     1
102
RTVSPropertyOp30
 70
     1
102
RTVSPropertyOp31
 70
     1
102
RTVSPropertyOp32
 70
     1
  0
XRECORD
  5
32A
102
{ACAD_REACTORS
330
329
102
}
330
329
100
AcDbXrecord
280
     1
102
RTVSPropertyOp0
 70
     1
102
RTVSPropertyOp1
 70
     1
102
RTVSPropertyOp2
 70
     1
102
RTVSPropertyOp3
 70
     1
102
RTVSPropertyOp4
 70
     1
102
RTVSPropertyOp5
 70
     1
102
RTVSPropertyOp6
 70
     1
102
RTVSPropertyOp7
 70
     1
102
RTVSPropertyOp8
 70
     1
102
RTVSPropertyOp9
 70
     1
102
RTVSPropertyOp10
 70
     1
102
RTVSPropertyOp11
 70
     1
102
RTVSPropertyOp12
 70
     1
102
RTVSPropertyOp13
 70
     1
102
RTVSPropertyOp14
 70
     1
102
RTVSPropertyOp15
 70
     1
102
RTVSPropertyOp16
 70
     1
102
RTVSPropertyOp17
 70
     1
102
RTVSPropertyOp18
 70
     1
102
RTVSPropertyOp19
 70
     1
102
RTVSPropertyOp20
 70
     1
102
RTVSPropertyOp21
 70
     1
102
RTVSPropertyOp22
 70
     1
102
RTVSPropertyOp23
 70
     1
102
RTVSPropertyOp24
 70
     1
102
RTVSPropertyOp25
 70
     1
102
RTVSPropertyOp26
 70
     1
102
RTVSPropertyOp27
 70
     1
102
RTVSPropertyOp28
 70
     1
102
RTVSPropertyOp29
 70
     1
102
RTVSPropertyOp30
 70
     1
102
RTVSPropertyOp31
 70
     1
102
RTVSPropertyOp32
 70
     1
  0
XRECORD
  5
332
102
{ACAD_REACTORS
330
331
102
}
330
331
100
AcDbXrecord
280
     1
102
RTVSPropertyOp0
 70
     1
102
RTVSPropertyOp1
 70
     1
102
RTVSPropertyOp2
 70
     1
102
RTVSPropertyOp3
 70
     1
102
RTVSPropertyOp4
 70
     1
102
RTVSPropertyOp5
 70
     1
102
RTVSPropertyOp6
 70
     1
102
RTVSPropertyOp7
 70
     1
102
RTVSPropertyOp8
 70
     1
102
RTVSPropertyOp9
 70
     1
102
RTVSPropertyOp10
 70
     1
102
RTVSPropertyOp11
 70
     1
102
RTVSPropertyOp12
 70
     1
102
RTVSPropertyOp13
 70
     1
102
RTVSPropertyOp14
 70
     1
102
RTVSPropertyOp15
 70
     1
102
RTVSPropertyOp16
 70
     1
102
RTVSPropertyOp17
 70
     1
102
RTVSPropertyOp18
 70
     1
102
RTVSPropertyOp19
 70
     1
102
RTVSPropertyOp20
 70
     1
102
RTVSPropertyOp21
 70
     1
102
RTVSPropertyOp22
 70
     1
102
RTVSPropertyOp23
 70
     1
102
RTVSPropertyOp24
 70
     1
102
RTVSPropertyOp25
 70
     1
102
RTVSPropertyOp26
 70
     1
102
RTVSPropertyOp27
 70
     1
102
RTVSPropertyOp28
 70
     1
102
RTVSPropertyOp29
 70
     1
102
RTVSPropertyOp30
 70
     1
102
RTVSPropertyOp31
 70
     1
102
RTVSPropertyOp32
 70
     1
  0
ENDSEC
  0
EOF
