  0
SECTION
  2
HEADER
  9
$ACADVER
  1
AC1015
  9
$ACADMAINTVER
 70
     6
  9
$DWGCODEPAGE
  3
ANSI_932
  9
$INSBASE
 10
0.0
 20
0.0
 30
0.0
  9
$EXTMIN
 10
0.0
 20
0.0
 30
0.0
  9
$EXTMAX
 10
210.0
 20
297.0
 30
0.0
  9
$LIMMIN
 10
0.0
 20
0.0
  9
$LIMMAX
 10
12.0
 20
9.0
  9
$ORTHOMODE
 70
     0
  9
$REGENMODE
 70
     1
  9
$FILLMODE
 70
     1
  9
$QTEXTMODE
 70
     0
  9
$MIRRTEXT
 70
     1
  9
$LTSCALE
 40
1.0
  9
$ATTMODE
 70
     1
  9
$TEXTSIZE
 40
0.2
  9
$TRACEWID
 40
0.05
  9
$TEXTSTYLE
  7
Standard
  9
$CLAYER
  8
0
  9
$CELTYPE
  6
ByLayer
  9
$CECOLOR
 62
   256
  9
$CELTSCALE
 40
1.0
  9
$DISPSILH
 70
     0
  9
$DIMSCALE
 40
1.0
  9
$DIMASZ
 40
0.18
  9
$DIMEXO
 40
0.0625
  9
$DIMDLI
 40
0.38
  9
$DIMRND
 40
0.0
  9
$DIMDLE
 40
0.0
  9
$DIMEXE
 40
0.18
  9
$DIMTP
 40
0.0
  9
$DIMTM
 40
0.0
  9
$DIMTXT
 40
0.18
  9
$DIMCEN
 40
0.09
  9
$DIMTSZ
 40
0.0
  9
$DIMTOL
 70
     0
  9
$DIMLIM
 70
     0
  9
$DIMTIH
 70
     1
  9
$DIMTOH
 70
     1
  9
$DIMSE1
 70
     0
  9
$DIMSE2
 70
     0
  9
$DIMTAD
 70
     0
  9
$DIMZIN
 70
     0
  9
$DIMBLK
  1

  9
$DIMASO
 70
     1
  9
$DIMSHO
 70
     1
  9
$DIMPOST
  1

  9
$DIMAPOST
  1

  9
$DIMALT
 70
     0
  9
$DIMALTD
 70
     2
  9
$DIMALTF
 40
25.4
  9
$DIMLFAC
 40
1.0
  9
$DIMTOFL
 70
     0
  9
$DIMTVP
 40
0.0
  9
$DIMTIX
 70
     0
  9
$DIMSOXD
 70
     0
  9
$DIMSAH
 70
     0
  9
$DIMBLK1
  1

  9
$DIMBLK2
  1

  9
$DIMSTYLE
  2
Standard
  9
$DIMCLRD
 70
     0
  9
$DIMCLRE
 70
     0
  9
$DIMCLRT
 70
     0
  9
$DIMTFAC
 40
1.0
  9
$DIMGAP
 40
0.09
  9
$DIMJUST
 70
     0
  9
$DIMSD1
 70
     0
  9
$DIMSD2
 70
     0
  9
$DIMTOLJ
 70
     1
  9
$DIMTZIN
 70
     0
  9
$DIMALTZ
 70
     0
  9
$DIMALTTZ
 70
     0
  9
$DIMUPT
 70
     0
  9
$DIMDEC
 70
     4
  9
$DIMTDEC
 70
     4
  9
$DIMALTU
 70
     2
  9
$DIMALTTD
 70
     2
  9
$DIMTXSTY
  7
Standard
  9
$DIMAUNIT
 70
     0
  9
$DIMADEC
 70
     0
  9
$DIMALTRND
 40
0.0
  9
$DIMAZIN
 70
     0
  9
$DIMDSEP
 70
    46
  9
$DIMATFIT
 70
     3
  9
$DIMFRAC
 70
     0
  9
$DIMLDRBLK
  1

  9
$DIMLUNIT
 70
     2
  9
$DIMLWD
 70
    -2
  9
$DIMLWE
 70
    -2
  9
$DIMTMOVE
 70
     0
  9
$LUNITS
 70
     2
  9
$LUPREC
 70
     4
  9
$SKETCHINC
 40
0.1
  9
$FILLETRAD
 40
0.5
  9
$AUNITS
 70
     0
  9
$AUPREC
 70
     0
  9
$MENU
  1
.
  9
$ELEVATION
 40
0.0
  9
$PELEVATION
 40
0.0
  9
$THICKNESS
 40
0.0
  9
$LIMCHECK
 70
     0
  9
$CHAMFERA
 40
0.5
  9
$CHAMFERB
 40
0.5
  9
$CHAMFERC
 40
1.0
  9
$CHAMFERD
 40
0.0
  9
$SKPOLY
 70
     0
  9
$TDCREATE
 40
2459829.636829005
  9
$TDUCREATE
 40
2459829.261829005
  9
$TDUPDATE
 40
2459829.636830451
  9
$TDUUPDATE
 40
2459829.261830451
  9
$TDINDWG
 40
0.0000000116
  9
$TDUSRTIMER
 40
0.0000000116
  9
$USRTIMER
 70
     1
  9
$ANGBASE
 50
0.0
  9
$ANGDIR
 70
     0
  9
$PDMODE
 70
     0
  9
$PDSIZE
 40
0.0
  9
$PLINEWID
 40
0.0
  9
$SPLFRAME
 70
     0
  9
$SPLINETYPE
 70
     6
  9
$SPLINESEGS
 70
     8
  9
$HANDSEED
  5
1D1
  9
$SURFTAB1
 70
     6
  9
$SURFTAB2
 70
     6
  9
$SURFTYPE
 70
     6
  9
$SURFU
 70
     6
  9
$SURFV
 70
     6
  9
$UCSBASE
  2

  9
$UCSNAME
  2

  9
$UCSORG
 10
0.0
 20
0.0
 30
0.0
  9
$UCSXDIR
 10
1.0
 20
0.0
 30
0.0
  9
$UCSYDIR
 10
0.0
 20
1.0
 30
0.0
  9
$UCSORTHOREF
  2

  9
$UCSORTHOVIEW
 70
     0
  9
$UCSORGTOP
 10
0.0
 20
0.0
 30
0.0
  9
$UCSORGBOTTOM
 10
0.0
 20
0.0
 30
0.0
  9
$UCSORGLEFT
 10
0.0
 20
0.0
 30
0.0
  9
$UCSORGRIGHT
 10
0.0
 20
0.0
 30
0.0
  9
$UCSORGFRONT
 10
0.0
 20
0.0
 30
0.0
  9
$UCSORGBACK
 10
0.0
 20
0.0
 30
0.0
  9
$PUCSBASE
  2

  9
$PUCSNAME
  2

  9
$PUCSORG
 10
0.0
 20
0.0
 30
0.0
  9
$PUCSXDIR
 10
1.0
 20
0.0
 30
0.0
  9
$PUCSYDIR
 10
0.0
 20
1.0
 30
0.0
  9
$PUCSORTHOREF
  2

  9
$PUCSORTHOVIEW
 70
     0
  9
$PUCSORGTOP
 10
0.0
 20
0.0
 30
0.0
  9
$PUCSORGBOTTOM
 10
0.0
 20
0.0
 30
0.0
  9
$PUCSORGLEFT
 10
0.0
 20
0.0
 30
0.0
  9
$PUCSORGRIGHT
 10
0.0
 20
0.0
 30
0.0
  9
$PUCSORGFRONT
 10
0.0
 20
0.0
 30
0.0
  9
$PUCSORGBACK
 10
0.0
 20
0.0
 30
0.0
  9
$USERI1
 70
     0
  9
$USERI2
 70
     0
  9
$USERI3
 70
     0
  9
$USERI4
 70
     0
  9
$USERI5
 70
     0
  9
$USERR1
 40
18.1
  9
$USERR2
 40
0.0
  9
$USERR3
 40
0.0
  9
$USERR4
 40
0.0
  9
$USERR5
 40
0.0
  9
$WORLDVIEW
 70
     1
  9
$SHADEDGE
 70
     3
  9
$SHADEDIF
 70
    70
  9
$TILEMODE
 70
     1
  9
$MAXACTVP
 70
    64
  9
$PINSBASE
 10
0.0
 20
0.0
 30
0.0
  9
$PLIMCHECK
 70
     0
  9
$PEXTMIN
 10
1.00000000000000E+20
 20
1.00000000000000E+20
 30
1.00000000000000E+20
  9
$PEXTMAX
 10
-1.00000000000000E+20
 20
-1.00000000000000E+20
 30
-1.00000000000000E+20
  9
$PLIMMIN
 10
0.0
 20
0.0
  9
$PLIMMAX
 10
12.0
 20
9.0
  9
$UNITMODE
 70
     0
  9
$VISRETAIN
 70
     1
  9
$PLINEGEN
 70
     0
  9
$PSLTSCALE
 70
     1
  9
$TREEDEPTH
 70
  3020
  9
$CMLSTYLE
  2
Standard
  9
$CMLJUST
 70
     0
  9
$CMLSCALE
 40
1.0
  9
$PROXYGRAPHICS
 70
     1
  9
$MEASUREMENT
 70
     1
  9
$CELWEIGHT
370
    -1
  9
$ENDCAPS
280
     0
  9
$JOINSTYLE
280
     0
  9
$LWDISPLAY
290
     0
  9
$INSUNITS
 70
     4
  9
$HYPERLINKBASE
  1

  9
$STYLESHEET
  1

  9
$XEDIT
290
     1
  9
$CEPSNTYPE
380
     0
  9
$PSTYLEMODE
290
     1
  9
$FINGERPRINTGUID
  2
{DB959FBD-BBCC-4E67-8C2E-29A4249D5837}
  9
$VERSIONGUID
  2
{FAEB1C32-E019-11D5-929B-00C0DF256EC4}
  9
$EXTNAMES
290
     1
  9
$PSVPSCALE
 40
0.0
  9
$OLESTARTUP
290
     0
  0
ENDSEC
  0
SECTION
  2
CLASSES
  0
CLASS
  1
ACDBDICTIONARYWDFLT
  2
AcDbDictionaryWithDefault
  3
ObjectDBX Classes
 90
        0
280
     0
281
     0
  0
CLASS
  1
VISUALSTYLE
  2
AcDbVisualStyle
  3
ObjectDBX Classes
 90
     4095
280
     0
281
     0
  0
CLASS
  1
MATERIAL
  2
AcDbMaterial
  3
ObjectDBX Classes
 90
     1153
280
     0
281
     0
  0
CLASS
  1
DICTIONARYVAR
  2
AcDbDictionaryVar
  3
ObjectDBX Classes
 90
        0
280
     0
281
     0
  0
CLASS
  1
ACDBPLACEHOLDER
  2
AcDbPlaceHolder
  3
ObjectDBX Classes
 90
        0
280
     0
281
     0
  0
CLASS
  1
LAYOUT
  2
AcDbLayout
  3
ObjectDBX Classes
 90
        0
280
     0
281
     0
  0
ENDSEC
  0
SECTION
  2
TABLES
  0
TABLE
  2
VPORT
  5
8
330
0
100
AcDbSymbolTable
 70
     1
  0
VPORT
  5
29
330
8
100
AcDbSymbolTableRecord
100
AcDbViewportTableRecord
  2
*Active
 70
     0
 10
0.0
 20
0.0
 11
1.0
 21
1.0
 12
105.0
 22
148.5
 13
0.0
 23
0.0
 14
0.5
 24
0.5
 15
0.5
 25
0.5
 16
0.0
 26
0.0
 36
1.0
 17
0.0
 27
0.0
 37
0.0
 40
326.7
 41
1.60267857142857
 42
50.0
 43
0.0
 44
0.0
 50
0.0
 51
0.0
 71
     0
 72
   100
 73
     1
 74
     3
 75
     0
 76
     0
 77
     0
 78
     0
281
     0
 65
     1
110
0.0
120
0.0
130
0.0
111
1.0
121
0.0
131
0.0
112
0.0
122
1.0
132
0.0
 79
     0
146
0.0
  0
ENDTAB
  0
TABLE
  2
LTYPE
  5
5
330
0
100
AcDbSymbolTable
 70
     8
  0
LTYPE
  5
14
330
5
100
AcDbSymbolTableRecord
100
AcDbLinetypeTableRecord
  2
ByBlock
 70
     0
  3

 72
    65
 73
     0
 40
0.0
  0
LTYPE
  5
15
330
5
100
AcDbSymbolTableRecord
100
AcDbLinetypeTableRecord
  2
ByLayer
 70
     0
  3

 72
    65
 73
     0
 40
0.0
  0
LTYPE
  5
16
330
5
100
AcDbSymbolTableRecord
100
AcDbLinetypeTableRecord
  2
Continuous
 70
     0
  3
Solid line
 72
    65
 73
     0
 40
0.0
  0
LTYPE
  5
3F
330
5
100
AcDbSymbolTableRecord
100
AcDbLinetypeTableRecord
  2
DASHED
 70
     0
  3
Dashed
 72
    65
 73
     2
 40
15.0
 49
7.0
 74
     0
 49
-8.0
 74
     0
  0
LTYPE
  5
40
330
5
100
AcDbSymbolTableRecord
100
AcDbLinetypeTableRecord
  2
DOTTED
 70
     0
  3
Dotted
 72
    65
 73
     2
 40
1.0
 49
0.0
 74
     0
 49
-1.0
 74
     0
  0
LTYPE
  5
41
330
5
100
AcDbSymbolTableRecord
100
AcDbLinetypeTableRecord
  2
DOT_CENTER
 70
     0
  3
Dot_Center
 72
    65
 73
     4
 40
14.0
 49
12.0
 74
     0
 49
-1.0
 74
     0
 49
0.0
 74
     0
 49
-1.0
 74
     0
  0
LTYPE
  5
42
330
5
100
AcDbSymbolTableRecord
100
AcDbLinetypeTableRecord
  2
LONG_DASHED
 70
     0
  3
Long_Dashed
 72
    65
 73
     2
 40
15.0
 49
10.0
 74
     0
 49
-5.0
 74
     0
  0
LTYPE
  5
43
330
5
100
AcDbSymbolTableRecord
100
AcDbLinetypeTableRecord
  2
DASH_CENTER
 70
     0
  3
Dash_Center
 72
    65
 73
     4
 40
14.0
 49
11.0
 74
     0
 49
-1.0
 74
     0
 49
1.0
 74
     0
 49
-1.0
 74
     0
  0
LTYPE
  5
44
330
5
100
AcDbSymbolTableRecord
100
AcDbLinetypeTableRecord
  2
PHANTOM
 70
     0
  3
Phantom
 72
    65
 73
     6
 40
13.0
 49
10.0
 74
     0
 49
-1.0
 74
     0
 49
0.0
 74
     0
 49
-1.0
 74
     0
 49
0.0
 74
     0
 49
-1.0
 74
     0
  0
LTYPE
  5
45
330
5
100
AcDbSymbolTableRecord
100
AcDbLinetypeTableRecord
  2
CENTER_DASH_DASH
 70
     0
  3
Center_Dash_Dash
 72
    65
 73
     6
 40
14.0
 49
9.0
 74
     0
 49
-1.0
 74
     0
 49
1.0
 74
     0
 49
-1.0
 74
     0
 49
1.0
 74
     0
 49
-1.0
 74
     0
  0
ENDTAB
  0
TABLE
  2
LAYER
  5
2
330
0
100
AcDbSymbolTable
 70
     6
  0
LAYER
  5
10
330
2
100
AcDbSymbolTableRecord
100
AcDbLayerTableRecord
  2
0
 70
     0
 62
     7
  6
Continuous
370
    -3
390
F
  0
LAYER
  5
46
330
2
100
AcDbSymbolTableRecord
100
AcDbLayerTableRecord
  2
1
 70
     0
 62
     7
  6
Continuous
370
    -3
390
F
  0
LAYER
  5
47
330
2
100
AcDbSymbolTableRecord
100
AcDbLayerTableRecord
  2
LAYER002
 70
     0
 62
     7
  6
Continuous
370
    -3
390
F
  0
LAYER
  5
48
330
2
100
AcDbSymbolTableRecord
100
AcDbLayerTableRecord
  2
LAYER003
 70
     0
 62
     7
  6
Continuous
370
    -3
390
F
  0
LAYER
  5
49
330
2
100
AcDbSymbolTableRecord
100
AcDbLayerTableRecord
  2
LAYER006
 70
     0
 62
     7
  6
Continuous
370
    -3
390
F
  0
LAYER
  5
4A
330
2
100
AcDbSymbolTableRecord
100
AcDbLayerTableRecord
  2
_U_30EC_U_30A4_U_30E4_U_30FC_1
 70
     0
 62
     7
  6
Continuous
370
    -3
390
F
  0
ENDTAB
  0
TABLE
  2
STYLE
  5
3
330
0
100
AcDbSymbolTable
 70
     3
  0
STYLE
  5
11
330
3
100
AcDbSymbolTableRecord
100
AcDbTextStyleTableRecord
  2
Standard
 70
     0
 40
0.0
 41
1.0
 50
0.0
 71
     0
 42
0.2
  3
txt
  4

  0
STYLE
  5
B5
330
3
100
AcDbSymbolTableRecord
100
AcDbTextStyleTableRecord
  2
CONVERTER_11
 70
     0
 40
0.0
 41
0.89
 50
0.0
 71
     0
 42
0.2
  3
MS Mincho.ttf
  4

1001
ACAD
1000
MS Mincho
1071
    32785
  0
STYLE
  5
13E
330
3
100
AcDbSymbolTableRecord
100
AcDbTextStyleTableRecord
  2
CONVERTER_12
 70
     0
 40
0.0
 41
0.9
 50
0.0
 71
     0
 42
0.2
  3
txt.shx
  4

  0
ENDTAB
  0
TABLE
  2
VIEW
  5
6
330
0
100
AcDbSymbolTable
 70
     0
  0
ENDTAB
  0
TABLE
  2
UCS
  5
7
330
0
100
AcDbSymbolTable
 70
     0
  0
ENDTAB
  0
TABLE
  2
APPID
  5
9
330
0
100
AcDbSymbolTable
 70
     1
  0
APPID
  5
12
330
9
100
AcDbSymbolTableRecord
100
AcDbRegAppTableRecord
  2
ACAD
 70
     0
  0
ENDTAB
  0
TABLE
  2
DIMSTYLE
  5
A
330
0
100
AcDbSymbolTable
 70
     9
100
AcDbDimStyleTable
  0
DIMSTYLE
105
27
330
A
100
AcDbSymbolTableRecord
100
AcDbDimStyleTableRecord
  2
Standard
 70
     0
178
     0
340
11
  0
DIMSTYLE
105
155
102
{ACAD_REACTORS
330
156
102
}
330
A
100
AcDbSymbolTableRecord
100
AcDbDimStyleTableRecord
  2
ME10_DIM_10
 70
     0
 41
3.5
 42
0.0
 44
1.0
 73
     0
 74
     0
 77
     1
 78
     8
140
3.5
147
1.0
172
     1
173
     1
174
     1
175
     1
176
     2
177
     2
271
     2
178
     7
271
     2
340
13E
  0
DIMSTYLE
105
160
102
{ACAD_REACTORS
330
161
102
}
330
A
100
AcDbSymbolTableRecord
100
AcDbDimStyleTableRecord
  2
ME10_DIM_11
 70
     0
 41
3.5
 42
0.0
 44
1.0
 73
     0
 74
     0
 77
     1
 78
     8
140
3.5
147
1.0
172
     1
173
     1
174
     1
175
     1
176
     2
177
     2
271
     2
178
     7
271
     2
340
13E
  0
DIMSTYLE
105
16B
102
{ACAD_REACTORS
330
16C
102
}
330
A
100
AcDbSymbolTableRecord
100
AcDbDimStyleTableRecord
  2
ME10_DIM_12
 70
     0
 41
3.5
 42
0.0
 44
1.0
 73
     0
 74
     0
 77
     1
 78
     8
140
3.5
147
1.0
172
     1
173
     1
174
     1
175
     1
176
     2
177
     2
271
     2
178
     7
271
     2
340
13E
  0
DIMSTYLE
105
176
102
{ACAD_REACTORS
330
177
102
}
330
A
100
AcDbSymbolTableRecord
100
AcDbDimStyleTableRecord
  2
ME10_DIM_13
 70
     0
 41
3.5
 42
0.0
 44
1.0
 73
     0
 74
     0
 77
     1
 78
     8
140
3.5
147
1.0
172
     1
173
     1
174
     1
175
     1
176
     2
177
     2
271
     2
178
     7
271
     2
340
13E
  0
DIMSTYLE
105
181
102
{ACAD_REACTORS
330
182
102
}
330
A
100
AcDbSymbolTableRecord
100
AcDbDimStyleTableRecord
  2
ME10_DIM_14
 70
     0
 41
3.5
 42
0.0
 44
1.0
 73
     0
 74
     0
 77
     1
 78
     8
140
3.5
147
1.0
172
     1
173
     1
174
     1
175
     1
176
     2
177
     2
271
     2
178
     7
271
     2
340
13E
  0
DIMSTYLE
105
18C
102
{ACAD_REACTORS
330
18D
102
}
330
A
100
AcDbSymbolTableRecord
100
AcDbDimStyleTableRecord
  2
ME10_DIM_15
 70
     0
 41
3.5
 42
0.0
 44
1.0
 73
     0
 74
     0
 77
     1
 78
     8
140
3.5
147
1.0
172
     1
173
     1
174
     1
175
     1
176
     2
177
     2
271
     2
178
     7
271
     2
340
13E
  0
DIMSTYLE
105
197
102
{ACAD_REACTORS
330
198
102
}
330
A
100
AcDbSymbolTableRecord
100
AcDbDimStyleTableRecord
  2
ME10_DIM_16
 70
     0
 41
3.5
 42
0.0
 44
1.0
 73
     0
 74
     0
 77
     1
 78
     8
140
3.5
147
1.0
172
     1
173
     1
174
     1
175
     1
176
     2
177
     2
271
     2
178
     7
271
     2
340
13E
  0
DIMSTYLE
105
1A4
102
{ACAD_REACTORS
330
1A5
102
}
330
A
100
AcDbSymbolTableRecord
100
AcDbDimStyleTableRecord
  2
ME10_DIM_17
 70
     0
 41
3.5
 42
0.0
 44
1.0
 73
     0
 74
     0
 77
     1
 78
     8
140
3.5
147
1.0
172
     1
173
     1
174
     1
175
     1
176
     2
177
     2
271
     2
178
     7
271
     2
340
13E
  0
ENDTAB
  0
TABLE
  2
BLOCK_RECORD
  5
1
330
0
100
AcDbSymbolTable
 70
    11
  0
BLOCK_RECORD
  5
1F
330
1
100
AcDbSymbolTableRecord
100
AcDbBlockTableRecord
  2
*Model_Space
340
22
  0
BLOCK_RECORD
  5
1B
330
1
100
AcDbSymbolTableRecord
100
AcDbBlockTableRecord
  2
*Paper_Space
340
1E
  0
BLOCK_RECORD
  5
23
330
1
100
AcDbSymbolTableRecord
100
AcDbBlockTableRecord
  2
*Paper_Space0
340
26
  0
BLOCK_RECORD
  5
4B
330
1
100
AcDbSymbolTableRecord
100
AcDbBlockTableRecord
  2
開示A4
340
0
102
{BLKREFS
331
4F
102
}
  0
BLOCK_RECORD
  5
4E
330
1
100
AcDbSymbolTableRecord
100
AcDbBlockTableRecord
  2
開示A4枠
340
0
102
{BLKREFS
331
52
102
}
  0
BLOCK_RECORD
  5
14C
330
1
100
AcDbSymbolTableRecord
100
AcDbBlockTableRecord
  2
*D3
340
0
  0
BLOCK_RECORD
  5
157
330
1
100
AcDbSymbolTableRecord
100
AcDbBlockTableRecord
  2
*D4
340
0
  0
BLOCK_RECORD
  5
162
330
1
100
AcDbSymbolTableRecord
100
AcDbBlockTableRecord
  2
*D5
340
0
  0
BLOCK_RECORD
  5
16D
330
1
100
AcDbSymbolTableRecord
100
AcDbBlockTableRecord
  2
*D6
340
0
  0
BLOCK_RECORD
  5
178
330
1
100
AcDbSymbolTableRecord
100
AcDbBlockTableRecord
  2
*D7
340
0
  0
BLOCK_RECORD
  5
183
330
1
100
AcDbSymbolTableRecord
100
AcDbBlockTableRecord
  2
*D8
340
0
  0
BLOCK_RECORD
  5
18E
330
1
100
AcDbSymbolTableRecord
100
AcDbBlockTableRecord
  2
*D9
340
0
  0
BLOCK_RECORD
  5
199
330
1
100
AcDbSymbolTableRecord
100
AcDbBlockTableRecord
  2
*D10
340
0
  0
ENDTAB
  0
ENDSEC
  0
SECTION
  2
BLOCKS
  0
BLOCK
  5
20
330
1F
100
AcDbEntity
  8
0
100
AcDbBlockBegin
  2
*Model_Space
 70
     0
 10
0.0
 20
0.0
 30
0.0
  3
*Model_Space
  1

  0
ENDBLK
  5
21
330
1F
100
AcDbEntity
  8
0
100
AcDbBlockEnd
  0
BLOCK
  5
1C
330
1B
100
AcDbEntity
 67
     1
  8
0
100
AcDbBlockBegin
  2
*Paper_Space
 70
     0
 10
0.0
 20
0.0
 30
0.0
  3
*Paper_Space
  1

  0
ENDBLK
  5
1D
330
1B
100
AcDbEntity
 67
     1
  8
0
100
AcDbBlockEnd
  0
BLOCK
  5
24
330
23
100
AcDbEntity
  8
0
100
AcDbBlockBegin
  2
*Paper_Space0
 70
     0
 10
0.0
 20
0.0
 30
0.0
  3
*Paper_Space0
  1

  0
ENDBLK
  5
25
330
23
100
AcDbEntity
  8
0
100
AcDbBlockEnd
  0
BLOCK
  5
4C
330
4B
100
AcDbEntity
  8
0
100
AcDbBlockBegin
  2
開示A4
 70
     0
 10
0.0
 20
0.0
 30
0.0
  3
開示A4
  1

  0
POINT
  5
53
330
4B
100
AcDbEntity
  8
1
 62
     4
100
AcDbPoint
 10
34.0
 20
34.0
 30
0.0
  0
POINT
  5
54
330
4B
100
AcDbEntity
  8
1
 62
     4
100
AcDbPoint
 10
57.0
 20
12.25
 30
0.0
  0
POINT
  5
55
330
4B
100
AcDbEntity
  8
1
 62
     4
100
AcDbPoint
 10
57.0
 20
20.75000000000001
 30
0.0
  0
POINT
  5
56
330
4B
100
AcDbEntity
  8
1
 62
     4
100
AcDbPoint
 10
57.0
 20
24.75000000000001
 30
0.0
  0
POINT
  5
57
330
4B
100
AcDbEntity
  8
1
 62
     4
100
AcDbPoint
 10
57.0
 20
16.25
 30
0.0
  0
POINT
  5
58
330
4B
100
AcDbEntity
  8
1
 62
     4
100
AcDbPoint
 10
157.5
 20
19.00000000000001
 30
0.0
  0
POINT
  5
59
330
4B
100
AcDbEntity
  8
1
 62
     4
100
AcDbPoint
 10
47.5
 20
282.0000000000003
 30
0.0
  0
POINT
  5
5A
330
4B
100
AcDbEntity
  8
1
 62
     4
100
AcDbPoint
 10
57.0
 20
22.75000000000001
 30
0.0
  0
POINT
  5
5B
330
4B
100
AcDbEntity
  8
1
 62
     4
100
AcDbPoint
 10
57.0
 20
14.25
 30
0.0
  0
POINT
  5
5C
330
4B
100
AcDbEntity
  8
1
 62
     4
100
AcDbPoint
 10
157.5
 20
12.5
 30
0.0
  0
POINT
  5
5D
330
4B
100
AcDbEntity
  8
1
 62
     4
100
AcDbPoint
 10
163.25
 20
12.5
 30
0.0
  0
POINT
  5
5E
330
4B
100
AcDbEntity
  8
1
 62
     4
100
AcDbPoint
 10
151.75
 20
12.5
 30
0.0
  0
POINT
  5
5F
330
4B
100
AcDbEntity
  8
1
 62
     4
100
AcDbPoint
 10
134.75
 20
12.5
 30
0.0
  0
POINT
  5
60
330
4B
100
AcDbEntity
  8
1
 62
     4
100
AcDbPoint
 10
146.25
 20
12.5
 30
0.0
  0
POINT
  5
61
330
4B
100
AcDbEntity
  8
1
 62
     4
100
AcDbPoint
 10
140.5
 20
12.5
 30
0.0
  0
POINT
  5
62
330
4B
100
AcDbEntity
  8
1
 62
     4
100
AcDbPoint
 10
140.5
 20
19.00000000000001
 30
0.0
  0
POINT
  5
63
330
4B
100
AcDbEntity
  8
1
 62
     4
100
AcDbPoint
 10
117.75
 20
12.5
 30
0.0
  0
POINT
  5
64
330
4B
100
AcDbEntity
  8
1
 62
     4
100
AcDbPoint
 10
129.25
 20
12.5
 30
0.0
  0
POINT
  5
65
330
4B
100
AcDbEntity
  8
1
 62
     4
100
AcDbPoint
 10
123.5
 20
12.5
 30
0.0
  0
POINT
  5
66
330
4B
100
AcDbEntity
  8
1
 62
     4
100
AcDbPoint
 10
123.5
 20
19.00000000000001
 30
0.0
  0
POINT
  5
67
330
4B
100
AcDbEntity
  8
1
 62
     4
100
AcDbPoint
 10
100.75
 20
12.5
 30
0.0
  0
POINT
  5
68
330
4B
100
AcDbEntity
  8
1
 62
     4
100
AcDbPoint
 10
112.25
 20
12.5
 30
0.0
  0
POINT
  5
69
330
4B
100
AcDbEntity
  8
1
 62
     4
100
AcDbPoint
 10
106.5
 20
12.5
 30
0.0
  0
POINT
  5
6A
330
4B
100
AcDbEntity
  8
1
 62
     4
100
AcDbPoint
 10
106.5
 20
19.00000000000001
 30
0.0
  0
POINT
  5
6B
330
4B
100
AcDbEntity
  8
1
 62
     4
100
AcDbPoint
 10
85.25000000000001
 20
17.0
 30
0.0
  0
POINT
  5
6C
330
4B
100
AcDbEntity
  8
1
 62
     4
100
AcDbPoint
 10
93.75000000000001
 20
17.0
 30
0.0
  0
POINT
  5
6D
330
4B
100
AcDbEntity
  8
1
 62
     4
100
AcDbPoint
 10
183.0
 20
15.00000000000001
 30
0.0
  0
LINE
  5
6E
330
4B
100
AcDbEntity
  8
1
  6
Continuous
 62
     2
100
AcDbLine
 10
81.00000000000001
 20
27.00000000000001
 30
0.0
 11
81.00000000000001
 21
10.0
 31
0.0
  0
LINE
  5
6F
330
4B
100
AcDbEntity
  8
1
  6
DOT_CENTER
 62
     2
100
AcDbLine
 10
187.0
 20
26.50000000000001
 30
0.0
 11
187.0
 21
20.50000000000001
 31
0.0
  0
LINE
  5
70
330
4B
100
AcDbEntity
  8
1
  6
DOT_CENTER
 62
     2
100
AcDbLine
 10
184.0
 20
23.50000000000001
 30
0.0
 11
197.0
 21
23.50000000000001
 31
0.0
  0
LINE
  5
71
330
4B
100
AcDbEntity
  8
1
  6
Continuous
 62
     7
100
AcDbLine
 10
196.0
 20
21.50000000000001
 30
0.0
 11
191.0
 21
22.30000000000001
 31
0.0
  0
LINE
  5
72
330
4B
100
AcDbEntity
  8
1
  6
Continuous
 62
     7
100
AcDbLine
 10
196.0
 20
25.50000000000001
 30
0.0
 11
196.0
 21
21.50000000000001
 31
0.0
  0
LINE
  5
73
330
4B
100
AcDbEntity
  8
1
  6
Continuous
 62
     7
100
AcDbLine
 10
191.0
 20
24.70000000000001
 30
0.0
 11
196.0
 21
25.50000000000001
 31
0.0
  0
LINE
  5
74
330
4B
100
AcDbEntity
  8
1
  6
Continuous
 62
     7
100
AcDbLine
 10
191.0
 20
24.70000000000001
 30
0.0
 11
191.0
 21
22.30000000000001
 31
0.0
  0
LINE
  5
75
330
4B
100
AcDbEntity
  8
1
  6
Continuous
 62
     2
100
AcDbLine
 10
33.0
 20
27.0
 30
0.0
 11
33.0
 21
10.0
 31
0.0
  0
LINE
  5
76
330
4B
100
AcDbEntity
  8
1
  6
Continuous
 62
     2
100
AcDbLine
 10
25.0
 20
18.50000000000001
 30
0.0
 11
81.00000000000001
 21
18.50000000000001
 31
0.0
  0
LINE
  5
77
330
4B
100
AcDbEntity
  8
1
  6
Continuous
 62
     7
100
AcDbLine
 10
200.0
 20
287.0000000000003
 30
0.0
 11
105.0
 21
287.0000000000003
 31
0.0
  0
LINE
  5
78
330
4B
100
AcDbEntity
  8
1
  6
Continuous
 62
     7
100
AcDbLine
 10
200.0
 20
10.0
 30
0.0
 11
200.0
 21
148.5
 31
0.0
  0
LINE
  5
79
330
4B
100
AcDbEntity
  8
1
  6
Continuous
 62
     7
100
AcDbLine
 10
25.0
 20
10.0
 30
0.0
 11
105.0
 21
10.0
 31
0.0
  0
LINE
  5
7A
330
4B
100
AcDbEntity
  8
1
  6
PHANTOM
 62
     4
100
AcDbLine
 10
0.0
 20
297.0
 30
0.0
 11
0.0
 21
0.0
 31
0.0
  0
LINE
  5
7B
330
4B
100
AcDbEntity
  8
1
  6
PHANTOM
 62
     4
100
AcDbLine
 10
210.0
 20
297.0
 30
0.0
 11
0.0
 21
297.0
 31
0.0
  0
LINE
  5
7C
330
4B
100
AcDbEntity
  8
1
  6
PHANTOM
 62
     4
100
AcDbLine
 10
210.0
 20
0.0
 30
0.0
 11
210.0
 21
297.0
 31
0.0
  0
LINE
  5
7D
330
4B
100
AcDbEntity
  8
1
  6
PHANTOM
 62
     4
100
AcDbLine
 10
0.0
 20
0.0
 30
0.0
 11
210.0
 21
0.0
 31
0.0
  0
LINE
  5
7E
330
4B
100
AcDbEntity
  8
1
  6
Continuous
 62
     7
100
AcDbLine
 10
25.0
 20
41.0
 30
0.0
 11
200.0
 21
41.0
 31
0.0
  0
LINE
  5
7F
330
4B
100
AcDbEntity
  8
1
  6
Continuous
 62
     7
100
AcDbLine
 10
200.0
 20
27.00000000000001
 30
0.0
 11
25.0
 21
27.00000000000001
 31
0.0
  0
LINE
  5
80
330
4B
100
AcDbEntity
  8
1
  6
Continuous
 62
     2
100
AcDbLine
 10
33.0
 20
41.0
 30
0.0
 11
33.0
 21
27.0
 31
0.0
  0
LINE
  5
81
330
4B
100
AcDbEntity
  8
1
  6
Continuous
 62
     2
100
AcDbLine
 10
55.0
 20
287.0000000000003
 30
0.0
 11
55.0
 21
277.0000000000003
 31
0.0
  0
LINE
  5
82
330
4B
100
AcDbEntity
  8
1
  6
Continuous
 62
     2
100
AcDbLine
 10
40.0
 20
287.0000000000003
 30
0.0
 11
40.0
 21
277.0000000000003
 31
0.0
  0
LINE
  5
83
330
4B
100
AcDbEntity
  8
1
  6
Continuous
 62
     7
100
AcDbLine
 10
25.0
 20
10.0
 30
0.0
 11
25.0
 21
148.5
 31
0.0
  0
LINE
  5
84
330
4B
100
AcDbEntity
  8
1
  6
Continuous
 62
     2
100
AcDbLine
 10
55.0
 20
277.0000000000003
 30
0.0
 11
25.0
 21
277.0000000000003
 31
0.0
  0
LINE
  5
85
330
4B
100
AcDbEntity
  8
1
  6
Continuous
 62
     2
100
AcDbLine
 10
166.0
 20
27.00000000000001
 30
0.0
 11
166.0
 21
10.0
 31
0.0
  0
LINE
  5
86
330
4B
100
AcDbEntity
  8
1
  6
Continuous
 62
     2
100
AcDbLine
 10
132.0
 20
27.00000000000001
 30
0.0
 11
132.0
 21
9.99999999999999
 31
0.0
  0
LINE
  5
87
330
4B
100
AcDbEntity
  8
1
  6
Continuous
 62
     2
100
AcDbLine
 10
149.0
 20
27.00000000000001
 30
0.0
 11
149.0
 21
10.0
 31
0.0
  0
LINE
  5
88
330
4B
100
AcDbEntity
  8
1
  6
Continuous
 62
     2
100
AcDbLine
 10
115.0
 20
27.00000000000001
 30
0.0
 11
115.0
 21
9.99999999999999
 31
0.0
  0
LINE
  5
89
330
4B
100
AcDbEntity
  8
1
  6
Continuous
 62
     2
100
AcDbLine
 10
98.00000000000003
 20
27.00000000000001
 30
0.0
 11
98.00000000000003
 21
9.99999999999999
 31
0.0
  0
LINE
  5
8A
330
4B
100
AcDbEntity
  8
1
  6
Continuous
 62
     2
100
AcDbLine
 10
166.0
 20
20.00000000000001
 30
0.0
 11
200.0
 21
20.00000000000001
 31
0.0
  0
LINE
  5
8B
330
4B
100
AcDbEntity
  8
1
  6
Continuous
 62
     2
100
AcDbLine
 10
105.0
 20
287.0000000000003
 30
0.0
 11
105.0
 21
292.0000000000003
 31
0.0
  0
LINE
  5
8C
330
4B
100
AcDbEntity
  8
1
  6
Continuous
 62
     7
100
AcDbLine
 10
105.0
 20
287.0000000000003
 30
0.0
 11
25.0
 21
287.0000000000003
 31
0.0
  0
LINE
  5
8D
330
4B
100
AcDbEntity
  8
1
  6
Continuous
 62
     2
100
AcDbLine
 10
25.0
 20
148.5
 30
0.0
 11
20.0
 21
148.5
 31
0.0
  0
LINE
  5
8E
330
4B
100
AcDbEntity
  8
1
  6
Continuous
 62
     7
100
AcDbLine
 10
25.0
 20
148.5
 30
0.0
 11
25.0
 21
287.0000000000003
 31
0.0
  0
LINE
  5
8F
330
4B
100
AcDbEntity
  8
1
  6
Continuous
 62
     2
100
AcDbLine
 10
200.0
 20
148.5
 30
0.0
 11
205.0
 21
148.5
 31
0.0
  0
LINE
  5
90
330
4B
100
AcDbEntity
  8
1
  6
Continuous
 62
     7
100
AcDbLine
 10
200.0
 20
148.5
 30
0.0
 11
200.0
 21
287.0000000000003
 31
0.0
  0
LINE
  5
91
330
4B
100
AcDbEntity
  8
1
  6
Continuous
 62
     2
100
AcDbLine
 10
105.0
 20
10.0
 30
0.0
 11
105.0
 21
5.0
 31
0.0
  0
LINE
  5
92
330
4B
100
AcDbEntity
  8
1
  6
Continuous
 62
     7
100
AcDbLine
 10
105.0
 20
10.0
 30
0.0
 11
200.0
 21
10.0
 31
0.0
  0
CIRCLE
  5
97
330
4B
100
AcDbEntity
  8
1
  6
DOT_CENTER
 62
     7
100
AcDbCircle
 10
89.50000000000001
 20
18.0
 30
0.0
 40
0.0999999999999943
  0
CIRCLE
  5
98
330
4B
100
AcDbEntity
  8
1
  6
DOT_CENTER
 62
     7
100
AcDbCircle
 10
89.50000000000001
 20
16.0
 30
0.0
 40
0.0999999999999943
  0
CIRCLE
  5
99
330
4B
100
AcDbEntity
  8
1
  6
Continuous
 62
     7
100
AcDbCircle
 10
187.0
 20
23.50000000000001
 30
0.0
 40
2.0
  0
CIRCLE
  5
9A
330
4B
100
AcDbEntity
  8
1
  6
Continuous
 62
     7
100
AcDbCircle
 10
187.0
 20
23.50000000000001
 30
0.0
 40
1.200000000000102
  0
CIRCLE
  5
9B
330
4B
100
AcDbEntity
  8
1
  6
Continuous
 62
     7
100
AcDbCircle
 10
154.5
 20
12.5
 30
0.0
 40
0.3000000000000114
  0
CIRCLE
  5
9C
330
4B
100
AcDbEntity
  8
1
  6
Continuous
 62
     7
100
AcDbCircle
 10
160.5
 20
12.5
 30
0.0
 40
0.3000000000000114
  0
CIRCLE
  5
9D
330
4B
100
AcDbEntity
  8
1
  6
Continuous
 62
     7
100
AcDbCircle
 10
143.5
 20
12.5
 30
0.0
 40
0.3000000000000114
  0
CIRCLE
  5
9E
330
4B
100
AcDbEntity
  8
1
  6
Continuous
 62
     7
100
AcDbCircle
 10
137.5
 20
12.5
 30
0.0
 40
0.3000000000000114
  0
CIRCLE
  5
9F
330
4B
100
AcDbEntity
  8
1
  6
Continuous
 62
     7
100
AcDbCircle
 10
126.5
 20
12.5
 30
0.0
 40
0.2999999999999972
  0
CIRCLE
  5
A0
330
4B
100
AcDbEntity
  8
1
  6
Continuous
 62
     7
100
AcDbCircle
 10
120.5
 20
12.5
 30
0.0
 40
0.2999999999999972
  0
CIRCLE
  5
A1
330
4B
100
AcDbEntity
  8
1
  6
Continuous
 62
     7
100
AcDbCircle
 10
109.5
 20
12.5
 30
0.0
 40
0.2999999999999972
  0
CIRCLE
  5
A2
330
4B
100
AcDbEntity
  8
1
  6
Continuous
 62
     7
100
AcDbCircle
 10
103.5
 20
12.5
 30
0.0
 40
0.2999999999999972
  0
SPLINE
  5
A3
102
{ACAD_REACTORS
330
C1
102
}
330
4B
100
AcDbEntity
  8
_U_30EC_U_30A4_U_30E4_U_30FC_1
  6
Continuous
 62
     2
100
AcDbSpline
210
0.0
220
0.0
230
1.0
 70
    11
 71
     3
 72
    99
 73
    95
 74
    93
 42
0.000000001
 43
0.0000000001
 44
0.00000001
 40
0.0
 40
0.0
 40
0.0
 40
0.0
 40
0.0796417172273087
 40
0.1621768542355946
 40
0.24864891609576
 40
0.3404969668524558
 40
0.4381912511165131
 40
0.5434463660244866
 40
0.6518115192847179
 40
0.7530190937887562
 40
0.8492196919725584
 40
0.9419290312998911
 40
1.0342496635701
 40
1.129078600620234
 40
1.226697027573289
 40
1.327220425421741
 40
1.470572134938055
 40
1.595489863371255
 40
1.719934125348398
 40
1.850576620127466
 40
1.989059629987299
 40
2.134139054226865
 40
2.280698007207204
 40
2.424529739039524
 40
2.565929576985846
 40
2.708239260773577
 40
2.861717887443665
 40
3.045168540347374
 40
3.183798301138613
 40
3.31481396145547
 40
3.442083470447324
 40
3.569912708372978
 40
3.702177512509309
 40
3.842307559659451
 40
3.992872223245882
 40
4.156750662218356
 40
4.310981861107465
 40
4.445859909322511
 40
4.572393936131534
 40
4.701656719781903
 40
4.76827908600837
 40
4.835960697898339
 40
4.912788918729257
 40
5.006285208481428
 40
5.026909478751532
 40
5.047533749021097
 40
5.101808031471181
 40
5.162325165538474
 40
5.226919745995755
 40
5.29423180659661
 40
5.364544852554777
 40
5.438319055467824
 40
5.517877651324187
 40
5.607647714861555
 40
5.700449642544374
 40
5.788251142364049
 40
5.872714706039756
 40
5.955167292575266
 40
6.037192395190362
 40
6.120669181469095
 40
6.206848616686337
 40
6.296680855416756
 40
6.442558392872593
 40
6.568190371608306
 40
6.692904567360363
 40
6.824220446557168
 40
6.96312185032935
 40
7.107843738851111
 40
7.253431663907223
 40
7.395187468036645
 40
7.533140753237703
 40
7.670550457175244
 40
7.816236511769252
 40
7.987691657359206
 40
8.142277421969238
 40
8.293662615414982
 40
8.442962460879256
 40
8.59159831618535
 40
8.743678992361772
 40
8.903725323699135
 40
9.076307008890536
 40
9.265578604680533
 40
9.459203795360736
 40
9.617619810273576
 40
9.753609671361913
 40
9.87487330000411
 40
9.954520184977822
 40
10.02416413719251
 40
10.0976976440545
 40
10.18909955924978
 40
10.20974586420134
 40
10.23039218263374
 40
10.30057101881259
 40
10.3763201298754
 40
10.3763201298754
 40
10.3763201298754
 40
10.3763201298754
 10
170.1465954835851
 20
14.13795663215994
 30
0.0
 10
170.1632217851219
 20
14.11720608845313
 30
0.0
 10
170.1970784206578
 20
14.07495111711906
 30
0.0
 10
170.2599822541036
 20
14.02029811392069
 30
0.0
 10
170.3332500940393
 20
13.97299025121051
 30
0.0
 10
170.4175969238636
 20
13.93527231437933
 30
0.0
 10
170.5132240615461
 20
13.91040619731953
 30
0.0
 10
170.6171853775346
 20
13.90309559345937
 30
0.0
 10
170.7224020220405
 20
13.91142322794054
 30
0.0
 10
170.8206626371334
 20
13.94149179651525
 30
0.0
 10
170.9058986427548
 20
13.98848822971877
 30
0.0
 10
170.9779220206104
 20
14.04952991250856
 30
0.0
 10
171.0350917709096
 20
14.12412969578582
 30
0.0
 10
171.0767868747439
 20
14.21002464660177
 30
0.0
 10
171.1026952846293
 20
14.30485850432209
 30
0.0
 10
171.1118037332652
 20
14.41854979038368
 30
0.0
 10
171.0986864796486
 20
14.54332587770778
 30
0.0
 10
171.0325330334414
 20
14.66014719171891
 30
0.0
 10
170.9369370919568
 20
14.74512539577376
 30
0.0
 10
170.8249681022369
 20
14.81416684459159
 30
0.0
 10
170.699365958327
 20
14.8720414204589
 30
0.0
 10
170.5656691620858
 20
14.92373723284343
 30
0.0
 10
170.4313122818831
 20
14.9789909239718
 30
0.0
 10
170.3051983986877
 20
15.04939770641645
 30
0.0
 10
170.1926579987536
 20
15.13785540731254
 30
0.0
 10
170.0969963064458
 20
15.24981067868468
 30
0.0
 10
170.0334157151827
 20
15.39949910101386
 30
0.0
 10
170.0200706505016
 20
15.55932794385141
 30
0.0
 10
170.0320510987449
 20
15.71048405306846
 30
0.0
 10
170.0712298928842
 20
15.83809244591538
 30
0.0
 10
170.1354987750911
 20
15.95080874030845
 30
0.0
 10
170.2238204999741
 20
16.04648609268683
 30
0.0
 10
170.3338091207627
 20
16.12354214985755
 30
0.0
 10
170.4632284401265
 20
16.18151396936279
 30
0.0
 10
170.6111838967793
 20
16.21739177588822
 30
0.0
 10
170.7682069455487
 20
16.22746719050566
 30
0.0
 10
170.917494046643
 20
16.21863637762589
 30
0.0
 10
171.059625361417
 20
16.19074899340352
 30
0.0
 10
171.1595922609625
 20
16.13413314701138
 30
0.0
 10
171.3125074736184
 20
16.08674602105508
 30
0.0
 10
171.2455131717169
 20
16.00197553001182
 30
0.0
 10
171.2296479120269
 20
15.93438901873485
 30
0.0
 10
171.1978750531297
 20
15.8692609279319
 30
0.0
 10
171.2150202209571
 20
15.76723453256953
 30
0.0
 10
171.1666427208233
 20
15.77493211681902
 30
0.0
 10
171.1315789440766
 20
15.76806771724809
 30
0.0
 10
171.1296697985717
 20
15.83263831158194
 30
0.0
 10
171.0985692931989
 20
15.87825639621392
 30
0.0
 10
171.0664551628456
 20
15.93561036628456
 30
0.0
 10
171.0208038475169
 20
15.9854046269256
 30
0.0
 10
170.9658508218388
 20
16.02994813718993
 30
0.0
 10
170.9010841173008
 20
16.06763988836551
 30
0.0
 10
170.8232377310597
 20
16.09283375791352
 30
0.0
 10
170.7355160553352
 20
16.09931230998111
 30
0.0
 10
170.6452903277807
 20
16.09235709285607
 30
0.0
 10
170.5594594694065
 20
16.06909190460918
 30
0.0
 10
170.4828343638596
 20
16.03131644107548
 30
0.0
 10
170.41652656362
 20
15.98051641089574
 30
0.0
 10
170.3622560536964
 20
15.91731143407211
 30
0.0
 10
170.3224925345458
 20
15.84276455710367
 30
0.0
 10
170.2976775510588
 20
15.75917313997763
 30
0.0
 10
170.289212426287
 20
15.65192948382284
 30
0.0
 10
170.3019697987103
 20
15.52965457267556
 30
0.0
 10
170.3681548409274
 20
15.41149724291213
 30
0.0
 10
170.4640977399832
 20
15.32606325709525
 30
0.0
 10
170.5757914963183
 20
15.25583362306723
 30
0.0
 10
170.7010863668702
 20
15.19659162305303
 30
0.0
 10
170.8349823941447
 20
15.14616708086131
 30
0.0
 10
170.968993033315
 20
15.09322516984381
 30
0.0
 10
171.0950885316915
 20
15.02750170625176
 30
0.0
 10
171.2076216638417
 20
14.94480352537317
 30
0.0
 10
171.3031370284234
 20
14.83996006310078
 30
0.0
 10
171.3672706486963
 20
14.69937117251568
 30
0.0
 10
171.3811103725278
 20
14.54065409451591
 30
0.0
 10
171.3673954712229
 20
14.38153155217876
 30
0.0
 10
171.3244739153986
 20
14.23483828819208
 30
0.0
 10
171.2545906329066
 20
14.1011979658714
 30
0.0
 10
171.1574592213829
 20
13.98532387699294
 30
0.0
 10
171.0347806023657
 20
13.89089981770086
 30
0.0
 10
170.8874408413168
 20
13.82179270651978
 30
0.0
 10
170.7177132497125
 20
13.77953210858853
 30
0.0
 10
170.5317404979597
 20
13.76781736230407
 30
0.0
 10
170.3528955926184
 20
13.77809486683437
 30
0.0
 10
170.1881733753743
 20
13.8196657376915
 30
0.0
 10
170.0834410841057
 20
13.88797642883943
 30
0.0
 10
169.9350960790365
 20
13.93675219032106
 30
0.0
 10
169.9980378194729
 20
14.02976591290841
 30
0.0
 10
170.0072274430061
 20
14.1029653624828
 30
0.0
 10
170.0303711301233
 20
14.16936294501345
 30
0.0
 10
170.0034588335317
 20
14.26974809527579
 30
0.0
 10
170.0521338956339
 20
14.26234033517379
 30
0.0
 10
170.0916530580697
 20
14.26894063620893
 30
0.0
 10
170.0996204944702
 20
14.19078703218931
 30
0.0
 10
170.1305436967923
 20
14.15600927375856
 30
0.0
 10
170.1465954835851
 20
14.13795663215994
 30
0.0
 11
170.1465954835851
 21
14.13795663215994
 31
0.0
 11
170.1982038075865
 21
14.07729869814735
 31
0.0
 11
170.2601105501335
 21
14.0227129516332
 31
0.0
 11
170.3327764009802
 21
13.97583980928383
 31
0.0
 11
170.4166468655843
 21
13.93839906276537
 31
0.0
 11
170.511221073241
 21
13.91390636311877
 31
0.0
 11
170.6161603327165
 21
13.90575829888472
 31
0.0
 11
170.7240739497552
 21
13.91564048638222
 31
0.0
 11
170.8208419941617
 21
13.94528704887481
 31
0.0
 11
170.9050776083319
 21
13.99175118948818
 31
0.0
 11
170.9756144207687
 21
14.0519141321815
 31
0.0
 11
171.031944210998
 21
14.1250581946632
 31
0.0
 11
171.0736690016003
 21
14.21021434047523
 31
0.0
 11
171.0994680808033
 21
14.30436190989613
 31
0.0
 11
171.1080824729446
 21
14.4045155209822
 31
0.0
 11
171.0878517703357
 21
14.54643250879397
 31
0.0
 11
171.0272522666731
 21
14.65566684036387
 31
0.0
 11
170.9364971286286
 21
14.74081306430095
 31
0.0
 11
170.826010188474
 21
14.81052746532517
 31
0.0
 11
170.7008523531255
 21
14.86979854169922
 31
0.0
 11
170.5662951950999
 21
14.9240425347412
 31
0.0
 11
170.4316884277007
 21
14.98201274306003
 31
0.0
 11
170.3065802017258
 21
15.05297399304232
 31
0.0
 11
170.196027609828
 21
15.14113315968694
 31
0.0
 11
170.1053381235265
 21
15.25080295132617
 31
0.0
 11
170.0447055469485
 21
15.39179720476315
 31
0.0
 11
170.0245079172554
 21
15.57413260402314
 31
0.0
 11
170.0374030471348
 21
15.71216131926641
 31
0.0
 11
170.0761016659392
 21
15.83733128451289
 31
0.0
 11
170.1393141731508
 21
15.94779262129084
 31
0.0
 11
170.2257499954546
 21
16.04196885390621
 31
0.0
 11
170.3336492808963
 21
16.11846540770651
 31
0.0
 11
170.4613526283328
 21
16.17615670109488
 31
0.0
 11
170.6075393259923
 21
16.21220066809974
 31
0.0
 11
170.7709768565451
 21
16.22421385386063
 31
0.0
 11
170.9248918431289
 21
16.21434269066864
 31
0.0
 11
171.0564887242607
 21
16.18477329831497
 31
0.0
 11
171.172563634494
 21
16.13439993895251
 31
0.0
 11
171.2800792741122
 21
16.06264163167877
 31
0.0
 11
171.2516994050445
 21
16.00236624106886
 31
0.0
 11
171.2284855254283
 21
15.93879017337646
 31
0.0
 11
171.2078381040801
 21
15.86478841992269
 31
0.0
 11
171.1871840681488
 21
15.77360197897328
 31
0.0
 11
171.1665597978416
 21
15.77360197897328
 31
0.0
 11
171.1459355275344
 21
15.77360197897328
 31
0.0
 11
171.1256706495791
 21
15.82395108486346
 31
0.0
 11
171.0994658759421
 21
15.87850045116928
 31
0.0
 11
171.0650468924452
 21
15.93316116296115
 31
0.0
 11
171.0203554612938
 21
15.98349593725411
 31
0.0
 11
170.9657333359511
 21
16.02777175321528
 31
0.0
 11
170.9016722004327
 21
16.06436142334501
 31
0.0
 11
170.8259682961141
 21
16.08882545979727
 31
0.0
 11
170.7365722046449
 21
16.09701100667022
 31
0.0
 11
170.6440937174208
 21
16.08926973931101
 31
0.0
 11
170.5594072091646
 21
16.06609003445566
 31
0.0
 11
170.483702448884
 21
16.02863495634008
 31
0.0
 11
170.4183754766516
 21
15.97832774281103
 31
0.0
 11
170.3650487887664
 21
15.9160029337988
 31
0.0
 11
170.3254809233901
 21
15.84249947895607
 31
0.0
 11
170.3009523754711
 21
15.75988443557391
 31
0.0
 11
170.2927954104108
 21
15.67042329844352
 31
0.0
 11
170.3130095765618
 21
15.52595308146572
 31
0.0
 11
170.3736256166821
 21
15.41591177072936
 31
0.0
 11
170.4643479320758
 21
15.33033670130631
 31
0.0
 11
170.5748676948814
 21
15.25941954854624
 31
0.0
 11
170.7000089937719
 21
15.19914305550579
 31
0.0
 11
170.8345826882553
 21
15.14590447913021
 31
0.0
 11
170.9691729191968
 21
15.09039489581073
 31
0.0
 11
171.0942976816297
 21
15.0237728124941
 31
0.0
 11
171.204800907977
 21
14.94118863716749
 31
0.0
 11
171.2955397598289
 21
14.83800003476272
 31
0.0
 11
171.3561557999489
 21
14.70552315979584
 31
0.0
 11
171.3763699660998
 21
14.53526378483839
 31
0.0
 11
171.3621839747998
 21
14.38133030397412
 31
0.0
 11
171.3196087009194
 21
14.23605531269097
 31
0.0
 11
171.2499752884266
 21
14.10398854189068
 31
0.0
 11
171.1544992078713
 21
13.99007218775246
 31
0.0
 11
171.0341060772624
 21
13.89715272597017
 31
0.0
 11
170.8896160201847
 21
13.82832357668179
 31
0.0
 11
170.7223519532714
 21
13.78581275203966
 31
0.0
 11
170.5336103348227
 21
13.77165864614041
 31
0.0
 11
170.3405031726388
 21
13.78581275203966
 31
0.0
 11
170.1878975900911
 21
13.82832357668179
 31
0.0
 11
170.0661897942203
 21
13.88899033013889
 31
0.0
 11
169.9660261826363
 21
13.95734322942737
 31
0.0
 11
169.9922320587039
 21
14.03255545163076
 31
0.0
 11
170.0090121537619
 21
14.10014767383612
 31
0.0
 11
170.0206196447853
 21
14.17275926235961
 31
0.0
 11
170.031360625414
 21
14.26352788212859
 31
0.0
 11
170.0520069443316
 21
14.26352788212859
 31
0.0
 11
170.0726532632492
 21
14.26352788212859
 31
0.0
 11
170.1048916391629
 21
14.20119204881083
 31
0.0
 11
170.1465954835851
 21
14.13795663215994
 31
0.0
  0
SPLINE
  5
A4
102
{ACAD_REACTORS
330
C2
102
}
330
4B
100
AcDbEntity
  8
_U_30EC_U_30A4_U_30E4_U_30FC_1
  6
Continuous
 62
     2
100
AcDbSpline
210
0.0
220
0.0
230
1.0
 70
    11
 71
     3
 72
    57
 73
    53
 74
    51
 42
0.000000001
 43
0.0000000001
 44
0.00000001
 40
0.0
 40
0.0
 40
0.0
 40
0.0
 40
0.0471632082809511
 40
0.0914861054632996
 40
0.1357762519702663
 40
0.1826527001611526
 40
0.2295203288573151
 40
0.2737751972220468
 40
0.3181310461543627
 40
0.3652607198398499
 40
0.4571007286314454
 40
0.5671851029165385
 40
0.6894623283868536
 40
0.8181758272545928
 40
0.951008722927429
 40
1.085852229674062
 40
1.218126164475304
 40
1.343545131142379
 40
1.454537202956824
 40
1.56718760753089
 40
1.68071096664248
 40
1.794226869736787
 40
1.900009184247644
 40
2.004085860447867
 40
2.108162674451811
 40
2.214000150155298
 40
2.496038577352145
 40
2.762350745479304
 40
2.997275353279413
 40
3.185110082137724
 40
3.246407890064063
 40
3.312607550212794
 40
3.378877742711696
 40
3.440140399651437
 40
4.100501696006424
 40
4.754913085563501
 40
5.411331693423891
 40
6.077890432568709
 40
6.110575292670988
 40
6.143260152775768
 40
6.36798936339512
 40
6.610525374951556
 40
6.863389136467315
 40
7.119380025547569
 40
7.376036605091096
 40
7.631164770966262
 40
7.876722425456421
 40
8.104953735855966
 40
8.312916685924282
 40
8.497730294941318
 40
8.651018984313863
 40
8.764738853624594
 40
8.764738853624594
 40
8.764738853624594
 40
8.764738853624594
 10
174.7922649500514
 20
13.81626739612927
 30
0.0
 10
174.7766616726931
 20
13.81826231079077
 30
0.0
 10
174.7463947960302
 20
13.82213201360299
 30
0.0
 10
174.7010994202253
 20
13.82341984967267
 30
0.0
 10
174.6559553129349
 20
13.8230868355405
 30
0.0
 10
174.60990171234
 20
13.82314658674223
 30
0.0
 10
174.5640496172097
 20
13.8232581365
 30
0.0
 10
174.5183711648165
 20
13.82277833456589
 30
0.0
 10
174.4750811541608
 20
13.82461109618722
 30
0.0
 10
174.4039947951514
 20
13.80049556814658
 30
0.0
 10
174.4057477261442
 20
13.92184693977253
 30
0.0
 10
174.3586196370569
 20
14.0072623975123
 30
0.0
 10
174.3191478251762
 20
14.12486929345134
 30
0.0
 10
174.2706635532646
 20
14.24232752540442
 30
0.0
 10
174.2201017402522
 20
14.36405935761506
 30
0.0
 10
174.1718634610478
 20
14.49075967862467
 30
0.0
 10
174.1135232947596
 20
14.59933687784954
 30
0.0
 10
174.0980892667262
 20
14.7562065713441
 30
0.0
 10
173.9566586330636
 20
14.72373446548323
 30
0.0
 10
173.8508397414904
 20
14.73512888682178
 30
0.0
 10
173.7358569725222
 20
14.73392591514616
 30
0.0
 10
173.6253142252142
 20
14.73506945347409
 30
0.0
 10
173.5176583522783
 20
14.73418350037527
 30
0.0
 10
173.4121322529243
 20
14.73416602390517
 30
0.0
 10
173.3109192682013
 20
14.72714032472416
 30
0.0
 10
173.1266804827754
 20
14.75135859859865
 30
0.0
 10
173.1157393685412
 20
14.44741691121884
 30
0.0
 10
173.008769163475
 20
14.223531772534
 30
0.0
 10
172.9098148604347
 20
14.03895314292495
 30
0.0
 10
172.9225090524008
 20
13.79530204804204
 30
0.0
 10
172.8050091716397
 20
13.82508046753196
 30
0.0
 10
172.742205586831
 20
13.82258089509602
 30
0.0
 10
172.67858720934
 20
13.82344075102805
 30
0.0
 10
172.3946014194076
 20
13.78098039941946
 30
0.0
 10
173.0251638499381
 20
14.50081952444793
 30
0.0
 10
173.1087645289072
 20
15.01276539435726
 30
0.0
 10
173.4929252789339
 20
15.53353743550045
 30
0.0
 10
173.4777208288567
 20
16.23519626253218
 30
0.0
 10
173.7239265722698
 20
16.22345633081257
 30
0.0
 10
173.8256346157563
 20
16.23225004452775
 30
0.0
 10
173.8249752035817
 20
15.9805965073034
 30
0.0
 10
173.9428317155829
 20
15.79818020733961
 30
0.0
 10
174.0315515260486
 20
15.55563740662868
 30
0.0
 10
174.1322292485258
 20
15.32340030530123
 30
0.0
 10
174.2311142712244
 20
15.08674644566917
 30
0.0
 10
174.3299676990669
 20
14.8546173917009
 30
0.0
 10
174.4256166390927
 20
14.63122222788789
 30
0.0
 10
174.5159904573273
 20
14.4227254904932
 30
0.0
 10
174.5989944568189
 20
14.23308448529316
 30
0.0
 10
174.67260885828
 20
14.066631060681
 30
0.0
 10
174.7342815895546
 20
13.92917699626096
 30
0.0
 10
174.7749458885604
 20
13.84999239430033
 30
0.0
 10
174.7922649500514
 20
13.81626739612927
 30
0.0
 11
174.7922649500514
 21
13.81626739612927
 31
0.0
 11
174.7453878317448
 21
13.82145433189185
 31
0.0
 11
174.7010975896125
 21
13.82315538223861
 31
0.0
 11
174.656807443173
 21
13.82315538223861
 31
0.0
 11
174.6099309947159
 21
13.82315538223861
 31
0.0
 11
174.5630633657034
 21
13.82315538223861
 31
0.0
 11
174.5188084970409
 21
13.82315538223861
 31
0.0
 11
174.4744852776854
 21
13.82145433189185
 31
0.0
 11
174.4276419021444
 21
13.81626739612927
 31
0.0
 11
174.3992532136326
 21
13.90360966173244
 31
0.0
 11
174.3622721815898
 21
14.00729656274818
 31
0.0
 11
174.3188386236701
 21
14.12159987001127
 31
0.0
 11
174.2711055866937
 21
14.24113531268969
 31
0.0
 11
174.2208160133237
 21
14.36408057307565
 31
0.0
 11
174.1696467003933
 21
14.48883822929447
 31
0.0
 11
174.1197531801327
 21
14.61134141502772
 31
0.0
 11
174.0733119111842
 21
14.72784517367917
 31
0.0
 11
173.9623611907589
 21
14.73087465284506
 31
0.0
 11
173.8497309225089
 21
14.73300454867789
 31
0.0
 11
173.7362152069449
 21
14.7343219531914
 31
0.0
 11
173.6227000476801
 21
14.73473315978853
 31
0.0
 11
173.5169185312816
 21
14.7343219531914
 31
0.0
 11
173.4128501919226
 21
14.73300454867789
 31
0.0
 11
173.3087951724045
 21
14.73087465284506
 31
0.0
 11
173.2030010615597
 21
14.72784517367917
 31
0.0
 11
173.0980914750139
 21
14.4660443751335
 31
0.0
 11
173.0034868690331
 21
14.2171023265846
 31
0.0
 11
172.9252231210299
 21
13.99559756969557
 31
0.0
 11
172.8693431224556
 21
13.81626739612927
 31
0.0
 11
172.8082651639442
 21
13.82145433189185
 31
0.0
 11
172.742087361813
 21
13.82315538223861
 31
0.0
 11
172.6758390041282
 21
13.82145433189185
 31
0.0
 11
172.6147963233939
 21
13.81626739612927
 31
0.0
 11
172.889968495193
 21
14.41656508695142
 31
0.0
 11
173.1582945734171
 21
15.01343642360775
 31
0.0
 11
173.4240277350405
 21
15.61366245644381
 31
0.0
 11
173.6914740737034
 21
16.22421385386063
 31
0.0
 11
173.7241589339807
 21
16.22421385386063
 31
0.0
 11
173.756843794258
 21
16.22421385386063
 31
0.0
 11
173.8428300681057
 21
16.01658539037084
 31
0.0
 11
173.935728581361
 21
15.79254614563517
 31
0.0
 11
174.0328714521464
 21
15.55908663180469
 31
0.0
 11
174.1317936458031
 21
15.32298128464145
 31
0.0
 11
174.2315341249927
 21
15.08649780379784
 31
0.0
 11
174.3313071129353
 21
14.8516878125371
 31
0.0
 11
174.4280608257449
 21
14.6259949219685
 31
0.0
 11
174.5188084970409
 21
14.4165805209792
 31
0.0
 11
174.6022150834546
 21
14.2260761113046
 31
0.0
 11
174.6770293263378
 21
14.05708232662466
 31
0.0
 11
174.7410729186604
 21
13.91781337700667
 31
0.0
 11
174.7922649500514
 21
13.81626739612927
 31
0.0
  0
SPLINE
  5
A5
102
{ACAD_REACTORS
330
C2
102
}
330
4B
100
AcDbEntity
  8
_U_30EC_U_30A4_U_30E4_U_30FC_1
  6
Continuous
 62
     2
100
AcDbSpline
210
0.0
220
0.0
230
1.0
 70
    11
 71
     3
 72
    25
 73
    21
 74
    19
 42
0.000000001
 43
0.0000000001
 44
0.00000001
 40
0.0
 40
0.0
 40
0.0
 40
0.0
 40
0.091147996906539
 40
0.1858117896204666
 40
0.2804128399734491
 40
0.371588919071451
 40
0.4679080494218708
 40
0.5642683809229232
 40
0.6605683222645274
 40
0.7569653015811107
 40
0.8561348172523591
 40
1.092615965104389
 40
1.374867658141983
 40
1.61134881201172
 40
1.710518328425368
 40
1.809403163726687
 40
2.045205463294189
 40
2.326646917622249
 40
2.562449217190711
 40
2.66133404383403
 40
2.66133404383403
 40
2.66133404383403
 40
2.66133404383403
 10
173.2683700567199
 20
14.88614538197292
 30
0.0
 10
173.2987525917923
 20
14.88598079714554
 30
0.0
 10
173.3606895889112
 20
14.88564528689921
 30
0.0
 10
173.454135696033
 20
14.88269055452
 30
0.0
 10
173.5475095236357
 20
14.8797775287715
 30
0.0
 10
173.6417760753476
 20
14.87894201643416
 30
0.0
 10
173.7354964790966
 20
14.87996644658047
 30
0.0
 10
173.8352040303205
 20
14.87916977470973
 30
0.0
 10
173.9188949546313
 20
14.88921410235219
 30
0.0
 10
174.0637996315046
 20
14.86234617674164
 30
0.0
 10
173.9396132444802
 20
15.03665530280049
 30
0.0
 10
173.8965867286283
 20
15.19651711006091
 30
0.0
 10
173.780892214221
 20
15.45518458550216
 30
0.0
 10
173.7017565431257
 20
15.59231052861857
 30
0.0
 10
173.6431576621816
 20
15.80937033134077
 30
0.0
 10
173.5864803939438
 20
15.59266134213428
 30
0.0
 10
173.5052809900478
 20
15.45327012438236
 30
0.0
 10
173.4063701281487
 20
15.20406969370194
 30
0.0
 10
173.325362509426
 20
15.01925830226074
 30
0.0
 10
173.2813683325838
 20
14.91650446856116
 30
0.0
 10
173.2683700567199
 20
14.88614538197292
 30
0.0
 11
173.2683700567199
 21
14.88614538197292
 31
0.0
 11
173.3595137737821
 21
14.88526123266759
 31
0.0
 11
173.4541428297581
 21
14.88269697919599
 31
0.0
 11
173.5487082179706
 21
14.88009965280777
 31
0.0
 11
173.6398803250196
 21
14.8792485764191
 31
0.0
 11
173.7361985777706
 21
14.87965978301621
 31
0.0
 11
173.8325499034376
 21
14.88097718752972
 31
0.0
 11
173.9288262638286
 21
14.88310818579312
 31
0.0
 11
174.0251753846344
 21
14.88614538197292
 31
0.0
 11
173.9854633323142
 21
14.9770164219502
 31
0.0
 11
173.8907653613969
 21
15.19370890189602
 31
0.0
 11
173.7777387509471
 21
15.45234186183135
 31
0.0
 11
173.6830407800297
 21
15.66903434177717
 31
0.0
 11
173.6433287277095
 21
15.75990538175445
 31
0.0
 11
173.6043330259266
 21
15.66903434177717
 31
0.0
 11
173.5113432755212
 21
15.45234186183135
 31
0.0
 11
173.4003555089082
 21
15.19370890189602
 31
0.0
 11
173.3073657585028
 21
14.9770164219502
 31
0.0
 11
173.2683700567199
 21
14.88614538197292
 31
0.0
  0
SPLINE
  5
A6
102
{ACAD_REACTORS
330
C3
102
}
330
4B
100
AcDbEntity
  8
_U_30EC_U_30A4_U_30E4_U_30FC_1
  6
Continuous
 62
     2
100
AcDbSpline
210
0.0
220
0.0
230
1.0
 70
    11
 71
     3
 72
    95
 73
    91
 74
    89
 42
0.000000001
 43
0.0000000001
 44
0.00000001
 40
0.0
 40
0.0
 40
0.0
 40
0.0
 40
0.655040665691125
 40
1.308087289031888
 40
1.420803739835762
 40
1.566130759770761
 40
1.757067341888426
 40
2.006513545026422
 40
2.087328263121508
 40
2.185328872295582
 40
2.294612454748325
 40
2.408936380534776
 40
2.526802767798524
 40
2.646360524615573
 40
2.762535723971542
 40
2.87005734287013
 40
2.96688344843161
 40
3.050803243518259
 40
3.115818222436575
 40
3.156030057150205
 40
3.213914225080079
 40
3.276689026450422
 40
3.342960320981284
 40
3.404230667150533
 40
3.45382280949335
 40
3.532499827188409
 40
3.634775188507144
 40
3.754909333008154
 40
3.889736761660645
 40
4.035769602175205
 40
4.187256681197589
 40
4.33873368567594
 40
4.4884787346761
 40
4.63470831783156
 40
4.771493189921252
 40
4.892686571561182
 40
5.19977552894443
 40
5.460353566929618
 40
5.667603142345493
 40
5.814722905404482
 40
5.828990806219808
 40
5.855488336304477
 40
5.869756237118809
 40
6.189796507762805
 40
6.531890469872951
 40
6.883053637016983
 40
7.230512024911416
 40
7.56696665676454
 40
7.885203559707358
 40
8.172887439719172
 40
8.418011594062765
 40
8.443926721190687
 40
8.510760470613175
 40
8.602145393795684
 40
8.701714041647126
 40
8.793098965075355
 40
8.859932715057928
 40
8.885847842603578
 40
9.242301256612794
 40
9.589275455016738
 40
9.921808543164156
 40
10.23479624298465
 40
10.29968150889171
 40
10.35323493887753
 40
10.40154625355141
 40
10.46482922477814
 40
10.55973900668394
 40
10.69239545985608
 40
10.84920353475661
 40
11.01626328594767
 40
11.18672024367432
 40
11.353725825772
 40
11.50257442292416
 40
11.6186649502328
 40
11.71329869152864
 40
11.82511050573896
 40
11.94464880845705
 40
12.06929242642497
 40
12.19707290435166
 40
12.32562632860517
 40
12.45034565331269
 40
12.56646595170317
 40
12.67099007414624
 40
12.76077625936771
 40
12.82703233506683
 40
12.87429132785982
 40
12.89831990323321
 40
12.9223484786001
 40
13.53984767410307
 40
14.18294284359354
 40
14.18294284359354
 40
14.18294284359354
 40
14.18294284359354
 10
177.3067935648021
 20
14.70898038201723
 30
0.0
 10
177.175201975855
 20
14.82265058603231
 30
0.0
 10
176.9124193802729
 20
15.04964496316158
 30
0.0
 10
176.3997393441022
 20
15.89214462956287
 30
0.0
 10
176.4106654595363
 20
15.53423377577019
 30
0.0
 10
176.4041226527991
 20
15.39267392272133
 30
0.0
 10
176.4028026631773
 20
15.19421305299281
 30
0.0
 10
176.4018117602538
 20
15.02150296045982
 30
0.0
 10
176.4024101751975
 20
14.8786537325758
 30
0.0
 10
176.4038994301882
 20
14.78265005413359
 30
0.0
 10
176.4055683588473
 20
14.67545503263141
 30
0.0
 10
176.4071934954618
 20
14.56164211517582
 30
0.0
 10
176.4092429501686
 20
14.44441572604588
 30
0.0
 10
176.4123165501928
 20
14.3265641123297
 30
0.0
 10
176.4156339697043
 20
14.2122808732062
 30
0.0
 10
176.4193605340279
 20
14.10521401867276
 30
0.0
 10
176.4217338161424
 20
14.01007408766921
 30
0.0
 10
176.4278718888357
 20
13.92558557205694
 30
0.0
 10
176.4239784495948
 20
13.86923087298142
 30
0.0
 10
176.4455230443077
 20
13.79825022472356
 30
0.0
 10
176.3680940058618
 20
13.82902677604482
 30
0.0
 10
176.3116353240192
 20
13.82011242517612
 30
0.0
 10
176.2540495896807
 20
13.82896218398276
 30
0.0
 10
176.1690163478472
 20
13.79738225225945
 30
0.0
 10
176.2009714146383
 20
13.88095155992189
 30
0.0
 10
176.1990705282541
 20
13.94882608968309
 30
0.0
 10
176.2107960047299
 20
14.05233256764418
 30
0.0
 10
176.2164241053001
 20
14.17002125616695
 30
0.0
 10
176.2237902178941
 20
14.30388609164424
 30
0.0
 10
176.2320759701611
 20
14.44764152872632
 30
0.0
 10
176.2398851897426
 20
14.59714022843445
 30
0.0
 10
176.2457571222658
 20
14.74792549402077
 30
0.0
 10
176.2503667817968
 20
14.89699943878438
 30
0.0
 10
176.2542632117544
 20
15.04122913163021
 30
0.0
 10
176.2570715126563
 20
15.17583905213016
 30
0.0
 10
176.2576698755022
 20
15.36469614347354
 30
0.0
 10
176.261602386715
 20
15.58975494313153
 30
0.0
 10
176.2442175378499
 20
15.86367091125707
 30
0.0
 10
176.2850417342583
 20
16.02787112098598
 30
0.0
 10
176.1995153256003
 20
16.22749661465097
 30
0.0
 10
176.2660558907689
 20
16.2238545840398
 30
0.0
 10
176.2838724273231
 20
16.22413447160855
 30
0.0
 10
176.4056801797501
 20
16.22632927398615
 30
0.0
 10
176.5080770335464
 20
15.94675118721515
 30
0.0
 10
176.7580021509355
 20
15.74563008535998
 30
0.0
 10
176.9870035331111
 20
15.47792614987921
 30
0.0
 10
177.2245151213108
 20
15.22646413862372
 30
0.0
 10
177.4486090740772
 20
14.98969974061361
 30
0.0
 10
177.6750716283009
 20
14.73218692583076
 30
0.0
 10
177.8325687886514
 20
14.61649335056921
 30
0.0
 10
178.0472129612675
 20
14.27997152538791
 30
0.0
 10
178.0422645974619
 20
14.40464754091603
 30
0.0
 10
178.0433931602548
 20
14.46327691935737
 30
0.0
 10
178.0428877841517
 20
14.55043662371977
 30
0.0
 10
178.0430475158113
 20
14.64416143182872
 30
0.0
 10
178.043005489132
 20
14.73018971297035
 30
0.0
 10
178.0430202040374
 20
14.79153891945496
 30
0.0
 10
178.0429706255984
 20
14.94135231520992
 30
0.0
 10
178.0458811522811
 20
15.17989612510104
 30
0.0
 10
178.0259521041162
 20
15.54486509868701
 30
0.0
 10
178.0750433936248
 20
15.8079963199341
 30
0.0
 10
177.9177951509181
 20
16.21928904947752
 30
0.0
 10
178.0762112872422
 20
16.16398282551748
 30
0.0
 10
178.1311680478629
 20
16.16199686500175
 30
0.0
 10
178.1827887766739
 20
16.1626477824825
 30
0.0
 10
178.2713198965366
 20
16.20369527738245
 30
0.0
 10
178.2204898303168
 20
16.05696326622986
 30
0.0
 10
178.2313389930283
 20
15.95019971954433
 30
0.0
 10
178.2166036994848
 20
15.79085705414112
 30
0.0
 10
178.2099976446206
 20
15.62853061652874
 30
0.0
 10
178.2014961399915
 20
15.45992521892396
 30
0.0
 10
178.19432272022
 20
15.2981481470354
 30
0.0
 10
178.1889063215389
 20
15.15422331457932
 30
0.0
 10
178.1871713967649
 20
15.03437493466925
 30
0.0
 10
178.1875440672319
 20
14.92686101590514
 30
0.0
 10
178.1873656126264
 20
14.81820024645586
 30
0.0
 10
178.187701086314
 20
14.6995357016553
 30
0.0
 10
178.1890040622186
 20
14.5755516351274
 30
0.0
 10
178.1908887351575
 20
14.44858294171104
 30
0.0
 10
178.192500445485
 20
14.32153861551031
 30
0.0
 10
178.194140313743
 20
14.19854884492177
 30
0.0
 10
178.1962570745753
 20
14.08300931383759
 30
0.0
 10
178.1963848422363
 20
13.98090903955836
 30
0.0
 10
178.2006514396554
 20
13.89009848838156
 30
0.0
 10
178.190844008529
 20
13.83213621208786
 30
0.0
 10
178.2118474771689
 20
13.76517130132029
 30
0.0
 10
178.1725639739896
 20
13.77291153966687
 30
0.0
 10
177.9595307117745
 20
13.75755254145192
 30
0.0
 10
177.7636297943187
 20
14.31403058094472
 30
0.0
 10
177.4611197631544
 20
14.5755603534851
 30
0.0
 10
177.3067935648021
 20
14.70898038201723
 30
0.0
 11
177.3067935648021
 21
14.70898038201723
 31
0.0
 11
176.8595529338511
 21
15.18757635411977
 31
0.0
 11
176.4124049070644
 21
15.6635264928897
 31
0.0
 11
176.4089664262494
 21
15.55086249986232
 31
0.0
 11
176.40556101835
 21
15.4055753818431
 31
0.0
 11
176.4029636920274
 21
15.21465645827968
 31
0.0
 11
176.4021126156603
 21
14.96521170139757
 31
0.0
 11
176.402523923029
 21
14.8843980295428
 31
0.0
 11
176.4038420329817
 21
14.78640628477562
 31
0.0
 11
176.4055192267718
 21
14.6771355729974
 31
0.0
 11
176.4072367127518
 21
14.56282454872039
 31
0.0
 11
176.4094007838773
 21
14.44497802965266
 31
0.0
 11
176.4124049070644
 21
14.32545802100199
 31
0.0
 11
176.4158359733138
 21
14.20933349846156
 31
0.0
 11
176.4192928929998
 21
14.10186746550228
 31
0.0
 11
176.4227085253088
 21
14.00510162351264
 31
0.0
 11
176.4261896983793
 21
13.92125406276972
 31
0.0
 11
176.4296006184313
 21
13.85632862007759
 31
0.0
 11
176.4330776843148
 21
13.81626739612927
 31
0.0
 11
176.3754263821572
 21
13.82145433189185
 31
0.0
 11
176.312674631831
 21
13.82315538223861
 31
0.0
 11
176.2464251717157
 21
13.82145433189185
 31
0.0
 11
176.1853747739675
 21
13.81626739612927
 31
0.0
 11
176.1926772737813
 21
13.8653189412559
 31
0.0
 11
176.2008793569055
 21
13.94356725720855
 31
0.0
 11
176.2090098822349
 21
14.04551893253029
 31
0.0
 11
176.2163406441398
 21
14.16542920159753
 31
0.0
 11
176.2236358280422
 21
14.3000591234389
 31
0.0
 11
176.2318444255596
 21
14.44586107652745
 31
0.0
 11
176.2395504149466
 21
14.59715203135073
 31
0.0
 11
176.2455763002094
 21
14.74850913200734
 31
0.0
 11
176.2503046247416
 21
14.89817951391435
 31
0.0
 11
176.2541928972121
 21
15.04435739582221
 31
0.0
 11
176.2567527408965
 21
15.18111831592696
 31
0.0
 11
176.2576324804574
 21
15.30230850686889
 31
0.0
 11
176.257192610677
 21
15.60939715262544
 31
0.0
 11
176.2559126888347
 21
15.86997204839365
 31
0.0
 11
176.2528658717893
 21
16.07719922716125
 31
0.0
 11
176.2473049112764
 21
16.22421385386063
 31
0.0
 11
176.261572812147
 21
16.22421385386063
 31
0.0
 11
176.2880703423353
 21
16.22421385386063
 31
0.0
 11
176.3023382432059
 21
16.22421385386063
 31
0.0
 11
176.5194743650277
 21
15.98910179662772
 31
0.0
 11
176.7512744123079
 21
15.73751281231562
 31
0.0
 11
176.989481601884
 21
15.4794955554357
 31
0.0
 11
177.2260074557521
 21
15.22497079855489
 31
0.0
 11
177.4555698717706
 21
14.97899759549138
 31
0.0
 11
177.6731797360103
 21
14.74678934034106
 31
0.0
 11
177.8713724913707
 21
14.538266805671
 31
0.0
 11
178.0430143099087
 21
14.36326697932589
 31
0.0
 11
178.0430143099087
 21
14.38918210687043
 31
0.0
 11
178.0430143099087
 21
14.45601585685371
 31
0.0
 11
178.0430143099087
 21
14.54740078030025
 31
0.0
 11
178.0430143099087
 21
14.64696942823453
 31
0.0
 11
178.0430143099087
 21
14.73835435168106
 31
0.0
 11
178.0430143099087
 21
14.80518810166435
 31
0.0
 11
178.0430143099087
 21
14.83110322920889
 31
0.0
 11
178.0417233637609
 21
15.18755430550867
 31
0.0
 11
178.0378461155958
 21
15.53450684014414
 31
0.0
 11
178.0296197790002
 21
15.86693815950552
 31
0.0
 11
178.0154535467229
 21
16.17960510387179
 31
0.0
 11
178.0790351249619
 21
16.16666367158334
 31
0.0
 11
178.1324170159611
 21
16.16238072887607
 31
0.0
 11
178.1805381084833
 21
16.16666367158334
 31
0.0
 11
178.2424836798197
 21
16.17960510387179
 31
0.0
 11
178.2351216487575
 21
16.084981284451
 31
0.0
 11
178.2269790968818
 21
15.95257496503963
 31
0.0
 11
178.2183705364005
 21
15.79600336785655
 31
0.0
 11
178.2097547223216
 21
15.62916593734271
 31
0.0
 11
178.2016187850289
 21
15.45890325509361
 31
0.0
 11
178.1942501393836
 21
15.29206031242699
 31
0.0
 11
178.1891406931522
 21
15.14329943572809
 31
0.0
 11
178.1874503478905
 21
15.02722121527101
 31
0.0
 11
178.1874503478905
 21
14.93258747397518
 31
0.0
 11
178.1874503478905
 21
14.82077565976707
 31
0.0
 11
178.1878461204497
 21
14.70123801222748
 31
0.0
 11
178.1890819450709
 21
14.57660052093918
 31
0.0
 11
178.1908392193318
 21
14.44883212687391
 31
0.0
 11
178.1925303477608
 21
14.32028982655879
 31
0.0
 11
178.1942876220215
 21
14.19558288214554
 31
0.0
 11
178.1959787504506
 21
14.07947489606348
 31
0.0
 11
178.1972884379172
 21
13.97495896727017
 31
0.0
 11
178.1976985420735
 21
13.88517371555652
 31
0.0
 11
178.1976985420735
 21
13.81891763918416
 31
0.0
 11
178.1976985420735
 21
13.77165864614041
 31
0.0
 11
178.1736699662976
 21
13.77165864614041
 31
0.0
 11
178.1496413905217
 21
13.77165864614041
 31
0.0
 11
177.7410729200423
 21
14.2346673526219
 31
0.0
 11
177.3067935648021
 21
14.70898038201723
 31
0.0
  0
SPLINE
  5
A7
102
{ACAD_REACTORS
330
C4
102
}
330
4B
100
AcDbEntity
  8
_U_30EC_U_30A4_U_30E4_U_30FC_1
  6
Continuous
 62
     2
100
AcDbSpline
210
0.0
220
0.0
230
1.0
 70
    11
 71
     3
 72
   110
 73
   106
 74
   104
 42
0.000000001
 43
0.0000000001
 44
0.00000001
 40
0.0
 40
0.0
 40
0.0
 40
0.0
 40
0.2203406257277696
 40
0.4407808782838128
 40
0.5952494494615392
 40
0.748843165939311
 40
0.902358183130938
 40
1.056801968670408
 40
1.210736449100022
 40
1.363041386539787
 40
1.515315729683158
 40
1.669377239148166
 40
1.721611652756662
 40
1.773199502943047
 40
1.824933793210101
 40
1.877110426488087
 40
1.982682281206879
 40
2.078781667087631
 40
2.172809640822408
 40
2.271937807379119
 40
2.378349933379455
 40
2.494131557736587
 40
2.626681683943778
 40
2.783145050796262
 40
2.890701232941112
 40
2.993130312455024
 40
3.099869730692002
 40
3.2202378166915
 40
3.352695482737777
 40
3.481732806390041
 40
3.59349947369056
 40
3.674323013332066
 40
3.817951711952931
 40
3.946167120794042
 40
4.061405053453642
 40
4.166480796003254
 40
4.262478775059292
 40
4.350736673551248
 40
4.433071991254191
 40
4.51121629381485
 40
4.564262454118194
 40
4.618474415571811
 40
4.670128488754414
 40
4.722296879126629
 40
4.819540945314555
 40
4.931194984128355
 40
5.049996040258026
 40
5.168643755415542
 40
5.28397081176281
 40
5.392260784910692
 40
5.48651225487671
 40
5.559178233950081
 40
5.591425852853751
 40
5.62621596963813
 40
5.66715583867467
 40
5.717449290214486
 40
5.738402360945099
 40
5.784499116554067
 40
5.830595872165035
 40
5.851548942897893
 40
5.873019280662008
 40
5.92421777840855
 40
5.985325662817929
 40
6.036524160567946
 40
6.057994498334474
 40
6.236847789607723
 40
6.381409928945909
 40
6.493190424178933
 40
6.574067534230737
 40
6.691018086205831
 40
6.814881554220749
 40
6.944307823240758
 40
7.071266716066326
 40
7.193488604462227
 40
7.309042773128483
 40
7.414007203171081
 40
7.50514044188678
 40
7.531150360599927
 40
7.559221645322519
 40
7.587202218921178
 40
7.612569159499389
 40
7.662550809481266
 40
7.702878875764397
 40
7.857328205231211
 40
8.010799568088856
 40
8.165256399657807
 40
8.322232698714146
 40
8.479564855016804
 40
8.63521623029095
 40
8.790882550925954
 40
8.94830515494752
 40
9.16827183903321
 40
9.387358980987486
 40
9.608047961033723
 40
9.832914234792916
 40
9.858338694963253
 40
9.92536681723026
 40
10.02013071422784
 40
10.12876249859023
 40
10.23739428295273
 40
10.33215817995215
 40
10.39918630222418
 40
10.42461076239807
 40
10.64992019336968
 40
10.87188524531213
 40
10.87188524531213
 40
10.87188524531213
 40
10.87188524531213
 10
179.9057788376619
 20
15.7392326039819
 30
0.0
 10
179.9092864933542
 20
15.80616462073803
 30
0.0
 10
179.9163033987663
 20
15.94005891915859
 30
0.0
 10
179.8198027599073
 20
16.22548554971471
 30
0.0
 10
180.0510134726109
 20
16.16284386190283
 30
0.0
 10
180.1919290057156
 20
16.17001554055991
 30
0.0
 10
180.3490417757588
 20
16.16235883078244
 30
0.0
 10
180.5025913427288
 20
16.1625275228304
 30
0.0
 10
180.6545104935081
 20
16.16182040535431
 30
0.0
 10
180.8142214813232
 20
16.1721015835164
 30
0.0
 10
180.9408972601118
 20
16.1549651108075
 30
0.0
 10
181.1370821122081
 20
16.22727260107146
 30
0.0
 10
181.1034395279079
 20
16.12640699080118
 30
0.0
 10
181.1052011317184
 20
16.0761925394767
 30
0.0
 10
181.1027342073458
 20
16.02712335586465
 30
0.0
 10
181.1347076966013
 20
15.94063490846998
 30
0.0
 10
181.0010399903256
 20
15.98997438608335
 30
0.0
 10
180.9172208688057
 20
15.98430634314168
 30
0.0
 10
180.8173861139325
 20
15.99465516706298
 30
0.0
 10
180.7186576720146
 20
16.00086450411086
 30
0.0
 10
180.612153277111
 20
16.00697763816778
 30
0.0
 10
180.4910511698061
 20
16.01588883484585
 30
0.0
 10
180.3703381502453
 20
16.00521605912382
 30
0.0
 10
180.1812553843437
 20
16.06468503080369
 30
0.0
 10
180.2129028505312
 20
15.90558320077539
 30
0.0
 10
180.1995563316835
 20
15.80839128339903
 30
0.0
 10
180.1974958426451
 20
15.69634065110102
 30
0.0
 10
180.195818804467
 20
15.5769968562935
 30
0.0
 10
180.1973336794233
 20
15.45032592155109
 30
0.0
 10
180.1956582478671
 20
15.32301588016117
 30
0.0
 10
180.2058844271658
 20
15.22451566404464
 30
0.0
 10
180.1779006596583
 20
15.08388702625633
 30
0.0
 10
180.3508029999306
 20
15.13989551134097
 30
0.0
 10
180.4645020202772
 20
15.12719951478498
 30
0.0
 10
180.584015167224
 20
15.13448377051255
 30
0.0
 10
180.6888491425072
 20
15.13878017056755
 30
0.0
 10
180.7843084898612
 20
15.14330568258977
 30
0.0
 10
180.8763823507032
 20
15.151492011462
 30
0.0
 10
180.9476551782439
 20
15.14643850638111
 30
0.0
 10
181.0544931705687
 20
15.18536425031676
 30
0.0
 10
181.0226603598036
 20
15.10517122005881
 30
0.0
 10
181.026616450393
 20
15.05562936846033
 30
0.0
 10
181.0234502392012
 20
15.00557478039818
 30
0.0
 10
181.0550791490587
 20
14.92128847612022
 30
0.0
 10
180.9210133677691
 20
14.97425365495155
 30
0.0
 10
180.8292322793202
 20
14.96540080890442
 30
0.0
 10
180.7079729189603
 20
14.97570049965154
 30
0.0
 10
180.5914113119773
 20
14.97748911767503
 30
0.0
 10
180.4783375745879
 20
14.97787017109693
 30
0.0
 10
180.3679246308472
 20
14.98415449472181
 30
0.0
 10
180.2898124067841
 20
14.97189133255364
 30
0.0
 10
180.1913625833645
 20
15.00453887616125
 30
0.0
 10
180.2012355173561
 20
14.94769748054206
 30
0.0
 10
180.1973923244405
 20
14.91392130557984
 30
0.0
 10
180.1966789884267
 20
14.8711960470941
 30
0.0
 10
180.1963369642976
 20
14.83401607262153
 30
0.0
 10
180.1963834255345
 20
14.7948723737077
 30
0.0
 10
180.1963649429926
 20
14.75716849497685
 30
0.0
 10
180.1963703431807
 20
14.71944955232403
 30
0.0
 10
180.1963697214201
 20
14.6899432474515
 30
0.0
 10
180.1963698151545
 20
14.65873577699301
 30
0.0
 10
180.1963704287921
 20
14.61414424908085
 30
0.0
 10
180.1963671499336
 20
14.5596395650885
 30
0.0
 10
180.1963759623481
 20
14.51505540201448
 30
0.0
 10
180.1963359653417
 20
14.4311780858574
 30
0.0
 10
180.1976024270255
 20
14.31737520677678
 30
0.0
 10
180.1950274117843
 20
14.16830395933708
 30
0.0
 10
180.206500938172
 20
14.06597203813905
 30
0.0
 10
180.1823506222263
 20
13.93338903885834
 30
0.0
 10
180.3332993946476
 20
13.97895732272021
 30
0.0
 10
180.4428436671556
 20
13.96427012162349
 30
0.0
 10
180.573397047392
 20
13.96920435125062
 30
0.0
 10
180.6990312209514
 20
13.97257705323363
 30
0.0
 10
180.8188730625602
 20
13.97711497498772
 30
0.0
 10
180.9391362611427
 20
13.99048536182005
 30
0.0
 10
181.0222761663516
 20
13.98068712782595
 30
0.0
 10
181.1456080421075
 20
14.0412621462332
 30
0.0
 10
181.1244269203957
 20
13.9853246013402
 30
0.0
 10
181.1235950270117
 20
13.95939249372347
 30
0.0
 10
181.1218963707558
 20
13.93197256190938
 30
0.0
 10
181.1217974888829
 20
13.89738195206385
 30
0.0
 10
181.120365930133
 20
13.86050408220767
 30
0.0
 10
181.1532804192189
 20
13.76846841021806
 30
0.0
 10
180.9551306988107
 20
13.84132015974831
 30
0.0
 10
180.8300548294891
 20
13.81825726508605
 30
0.0
 10
180.6673071295156
 20
13.82454021985784
 30
0.0
 10
180.5129366450001
 20
13.82260943909925
 30
0.0
 10
180.3566670436944
 20
13.82393762599267
 30
0.0
 10
180.1970544465282
 20
13.82059872487861
 30
0.0
 10
180.0540326342237
 20
13.83265795728241
 30
0.0
 10
179.8197144881628
 20
13.76952001976918
 30
0.0
 10
179.9173810751197
 20
14.05620527466318
 30
0.0
 10
179.900686878006
 20
14.2498830814266
 30
0.0
 10
179.9146296709684
 20
14.47848242880295
 30
0.0
 10
179.9142987846632
 20
14.63384593955046
 30
0.0
 10
179.9143078119264
 20
14.73966336444125
 30
0.0
 10
179.9143055876316
 20
14.80205784124213
 30
0.0
 10
179.9143065551888
 20
14.89220425248325
 30
0.0
 10
179.9143065473262
 20
14.99621167157437
 30
0.0
 10
179.9143053861102
 20
15.10022131375295
 30
0.0
 10
179.9143090971502
 20
15.19036243688766
 30
0.0
 10
179.9143011051052
 20
15.25276803097214
 30
0.0
 10
179.9143334275017
 20
15.35868835961118
 30
0.0
 10
179.913144078832
 20
15.51626716544739
 30
0.0
 10
179.9082216489256
 20
15.66528219822065
 30
0.0
 10
179.9057788376619
 20
15.7392326039819
 30
0.0
 11
179.9057788376619
 21
15.7392326039819
 31
0.0
 11
179.8966918223741
 21
15.95938578101017
 31
0.0
 11
179.8868249573133
 21
16.17960510387179
 31
0.0
 11
180.04115751414
 21
16.17312391463728
 31
0.0
 11
180.1946500189046
 21
16.16754892331925
 31
0.0
 11
180.3481160653367
 21
16.16367167505631
 31
0.0
 11
180.5025544554939
 21
16.16238072887607
 31
0.0
 11
180.6564835227474
 21
16.16367167505631
 31
0.0
 11
180.80873910046
 21
16.16754892331925
 31
0.0
 11
180.9609113551074
 21
16.17312391463728
 31
0.0
 11
181.1148364762484
 21
16.17960510387179
 31
0.0
 11
181.1070811703124
 21
16.12794961777358
 31
0.0
 11
181.1044991623591
 21
16.07642642334204
 31
0.0
 11
181.1070811703124
 21
16.02475660564659
 31
0.0
 11
181.1148364762484
 21
15.97315954836784
 31
0.0
 11
181.0094874054411
 21
15.98001446156057
 31
0.0
 11
180.9136375700061
 21
15.98693552058657
 31
0.0
 11
180.8198593171904
 21
15.99378381919598
 31
0.0
 11
180.7209679915881
 21
16.0006321178054
 31
0.0
 11
180.6147532199924
 21
16.00710999974824
 31
0.0
 11
180.4991060528039
 21
16.01268829835794
 31
0.0
 11
180.3666126447258
 21
16.01656554662088
 31
0.0
 11
180.2101546018423
 21
16.01785649280112
 31
0.0
 11
180.2062663293722
 21
15.91037061609187
 31
0.0
 11
180.2015380048401
 21
15.80805072896463
 31
0.0
 11
180.197660756675
 21
15.70138175329686
 31
0.0
 11
180.1963698105272
 21
15.58102059013249
 31
0.0
 11
180.1967799146836
 21
15.44856355891565
 31
0.0
 11
180.1980896021503
 21
15.31953288186454
 31
0.0
 11
180.199407457705
 21
15.20777398432309
 31
0.0
 11
180.1998191153661
 21
15.12695149302385
 31
0.0
 11
180.3434452935874
 21
15.1278025694125
 31
0.0
 11
180.4716343930759
 21
15.13039989580077
 31
0.0
 11
180.5868078221796
 21
15.13425509545253
 31
0.0
 11
180.691775631222
 21
15.13901649302076
 31
0.0
 11
180.7876346289421
 21
15.14418027774175
 31
0.0
 11
180.8757413374193
 21
15.14934406246267
 31
0.0
 11
180.9578881438497
 21
15.15491243919739
 31
0.0
 11
181.0357692335572
 21
15.16132086801525
 31
0.0
 11
181.0280180445186
 21
15.10884407115337
 31
0.0
 11
181.0254328449317
 21
15.05469378470858
 31
0.0
 11
181.0280180445186
 21
15.00310444444367
 31
0.0
 11
181.0357692335572
 21
14.95151510417882
 31
0.0
 11
180.9389813454015
 21
14.96092324653757
 31
0.0
 11
180.8275950722016
 21
14.96865128473012
 31
0.0
 11
180.7089261429373
 21
14.97425273438146
 31
0.0
 11
180.5903167449214
 21
14.97726788195011
 31
0.0
 11
180.4750025117522
 21
14.97898767361638
 31
0.0
 11
180.36672619507
 21
14.98070746528257
 31
0.0
 11
180.2724839317709
 21
14.98202486979616
 31
0.0
 11
180.1998191153661
 21
14.98243607639329
 31
0.0
 11
180.199407457705
 21
14.9501910850819
 31
0.0
 11
180.1980896021503
 21
14.91542593752117
 31
0.0
 11
180.1967799146836
 21
14.87450702260085
 31
0.0
 11
180.1963698105272
 21
14.82421524309951
 31
0.0
 11
180.1963698105272
 21
14.80326217235821
 31
0.0
 11
180.1963698105272
 21
14.75716541672736
 31
0.0
 11
180.1963698105272
 21
14.71106866109651
 31
0.0
 11
180.1963698105272
 21
14.69011559035521
 31
0.0
 11
180.1963698105272
 21
14.6686452525828
 31
0.0
 11
180.1963698105272
 21
14.61744675481784
 31
0.0
 11
180.1963698105272
 21
14.55633887038868
 31
0.0
 11
180.1963698105272
 21
14.50514037262371
 31
0.0
 11
180.1963698105272
 21
14.4836700348513
 31
0.0
 11
180.1967799146836
 21
14.30481721371548
 31
0.0
 11
180.1980896021503
 21
14.16026100715441
 31
0.0
 11
180.2002868589709
 21
14.04850210961289
 31
0.0
 11
180.2032586986985
 21
13.96767961831365
 31
0.0
 11
180.3202092517447
 21
13.96767961831365
 31
0.0
 11
180.4440727208746
 21
13.96767961831365
 31
0.0
 11
180.5734925526423
 21
13.9689705644939
 31
0.0
 11
180.7003922282244
 21
13.97284781275683
 31
0.0
 11
180.8224658067974
 21
13.97886708358865
 31
0.0
 11
180.9377587499464
 21
13.98663260442002
 31
0.0
 11
181.0421754573519
 21
13.99734161483402
 31
0.0
 11
181.1320599255448
 21
14.01237656274692
 31
0.0
 11
181.1264254031191
 21
13.98698427976715
 31
0.0
 11
181.1234433285423
 21
13.95907184053802
 31
0.0
 11
181.12213398812
 21
13.93112191867002
 31
0.0
 11
181.1217235369195
 21
13.90575829888472
 31
0.0
 11
181.1243087365064
 21
13.85584355063326
 31
0.0
 11
181.1320599255448
 21
13.81626739612927
 31
0.0
 11
180.9776977178344
 21
13.82145433189185
 31
0.0
 11
180.8242357818765
 21
13.82315538223861
 31
0.0
 11
180.6697789496483
 21
13.82315538223861
 31
0.0
 11
180.5128026496768
 21
13.82315538223861
 31
0.0
 11
180.3554704921536
 21
13.82315538223861
 31
0.0
 11
180.1998191153661
 21
13.82315538223861
 31
0.0
 11
180.0441620874241
 21
13.82145433189185
 31
0.0
 11
179.8868249573133
 21
13.81626739612927
 31
0.0
 11
179.896691822374
 21
14.0360126738521
 31
0.0
 11
179.9057788376619
 21
14.25491128490851
 31
0.0
 11
179.91217215184
 21
14.47550763902002
 31
0.0
 11
179.9143063455009
 21
14.70036378479714
 31
0.0
 11
179.9143063455009
 21
14.72578824496874
 31
0.0
 11
179.9143063455009
 21
14.79281636723931
 31
0.0
 11
179.9143063455009
 21
14.88758026424252
 31
0.0
 11
179.9143063455009
 21
14.99621204861207
 31
0.0
 11
179.9143063455009
 21
15.10484383298161
 31
0.0
 11
179.9143063455009
 21
15.19960772998483
 31
0.0
 11
179.9143063455009
 21
15.26663585225539
 31
0.0
 11
179.9143063455009
 21
15.29206031242699
 31
0.0
 11
179.9121721518401
 21
15.51735963528735
 31
0.0
 11
179.9057788376619
 21
15.7392326039819
 31
0.0
  0
SPLINE
  5
A8
102
{ACAD_REACTORS
330
C5
102
}
330
4B
100
AcDbEntity
  8
_U_30EC_U_30A4_U_30E4_U_30FC_1
  6
Continuous
 62
     2
100
AcDbSpline
210
0.0
220
0.0
230
1.0
 70
    11
 71
     3
 72
    47
 73
    43
 74
    41
 42
0.000000001
 43
0.0000000001
 44
0.00000001
 40
0.0
 40
0.0
 40
0.0
 40
0.0
 40
0.2207912809957248
 40
0.4459404186303181
 40
0.4902387190459682
 40
0.5327473892722344
 40
0.5742260451226522
 40
0.6155432630561815
 40
0.6568164066317017
 40
0.6982511618781662
 40
0.7407663929317879
 40
0.7851366743176508
 40
1.010288833836458
 40
1.231080507002314
 40
1.451765243652532
 40
1.676638205891819
 40
1.72046104535979
 40
1.830018144043657
 40
1.97244237235329
 40
2.114866600677662
 40
2.224423699395289
 40
2.26824653888353
 40
2.493628801207356
 40
2.715602830286751
 40
2.934211330706505
 40
3.149502369855503
 40
3.231387784851205
 40
3.318231873854212
 40
3.405143198198228
 40
3.486970301720721
 40
3.702258172494168
 40
3.920866283534399
 40
4.142839325932181
 40
4.368221903865638
 40
4.412044743360122
 40
4.521601842096137
 40
4.664026070452618
 40
4.806450298809329
 40
4.916007397547025
 40
4.959830237043349
 40
5.184703515847382
 40
5.405387250767745
 40
5.405387250767745
 40
5.405387250767745
 40
5.405387250767745
 10
182.6507427258646
 20
15.73406440953871
 30
0.0
 10
182.6568139420004
 20
15.79758482501209
 30
0.0
 10
182.6690762107243
 20
15.92587938689627
 30
0.0
 10
182.5604706879412
 20
16.20166220174078
 30
0.0
 10
182.6761985896603
 20
16.17188133432053
 30
0.0
 10
182.7171842509016
 20
16.1676555626282
 30
0.0
 10
182.7591205797519
 20
16.16310446389607
 30
0.0
 10
182.8004196625712
 20
16.16201982929485
 30
0.0
 10
182.8417032115556
 20
16.16310338195226
 30
0.0
 10
182.8836148270648
 20
16.16766112711345
 30
0.0
 10
182.924598354902
 20
16.17187430209728
 30
0.0
 10
183.040492284349
 20
16.20177611317535
 30
0.0
 10
182.9295652727456
 20
15.9233980660989
 30
0.0
 10
182.9574856365267
 20
15.74283140824952
 30
0.0
 10
182.9404267346969
 20
15.50961042346471
 30
0.0
 10
182.9414637282103
 20
15.34906622543147
 30
0.0
 10
182.9414099399404
 20
15.22284817558721
 30
0.0
 10
182.9414277372481
 20
15.12428963336241
 30
0.0
 10
182.941418858108
 20
14.99280702442962
 30
0.0
 10
182.9414263928034
 20
14.86132844968649
 30
0.0
 10
182.9414129405128
 20
14.76276222694089
 30
0.0
 10
182.9414531717492
 20
14.63639735624152
 30
0.0
 10
182.9406746403816
 20
14.47482068822869
 30
0.0
 10
182.9565958319267
 20
14.24361821892915
 30
0.0
 10
182.9333468885407
 20
14.05874351972
 30
0.0
 10
183.0360183444367
 20
13.78935602770054
 30
0.0
 10
182.8820238362837
 20
13.82660112685816
 30
0.0
 10
182.8004129802832
 20
13.82137994680533
 30
0.0
 10
182.7188192292583
 20
13.8266062037835
 30
0.0
 10
182.5648513666843
 20
13.78937069885385
 30
0.0
 10
182.6674183421918
 20
14.05875129862879
 30
0.0
 10
182.6442045316089
 20
14.24361585325414
 30
0.0
 10
182.660044465514
 20
14.47482218565638
 30
0.0
 10
182.6593296313426
 20
14.63639712308503
 30
0.0
 10
182.6593664569907
 20
14.7627623121052
 30
0.0
 10
182.659354900027
 20
14.86132756635981
 30
0.0
 10
182.6593575019213
 20
14.99281127417219
 30
0.0
 10
182.6593648531779
 20
15.124275480312
 30
0.0
 10
182.6593442541351
 20
15.22287786275325
 30
0.0
 10
182.6594082192028
 20
15.34896149354427
 30
0.0
 10
182.658173394759
 20
15.51210091383771
 30
0.0
 10
182.6532040396746
 20
15.66054183777549
 30
0.0
 10
182.6507427258646
 20
15.73406440953871
 30
0.0
 11
182.6507427258646
 21
15.73406440953871
 31
0.0
 11
182.641732820038
 21
15.95467178795577
 31
0.0
 11
182.6318769706146
 21
16.17960510387179
 31
0.0
 11
182.6756985840801
 21
16.17312391463728
 31
0.0
 11
182.7178400934215
 21
16.16754892331925
 31
0.0
 11
182.7591371409791
 21
16.16367167505631
 31
0.0
 11
182.8004341885366
 21
16.16238072887607
 31
0.0
 11
182.8416871388731
 21
16.16367167505631
 31
0.0
 11
182.8829400892098
 21
16.16754892331925
 31
0.0
 11
182.9250882131344
 21
16.17312391463728
 31
0.0
 11
182.9689825870146
 21
16.17960510387179
 31
0.0
 11
182.9590577693891
 21
15.95467178795577
 31
0.0
 11
182.950038420831
 21
15.73406440953871
 31
0.0
 11
182.9435638463435
 21
15.51347467001054
 31
0.0
 11
182.9414218238286
 21
15.28861190965007
 31
0.0
 11
182.9414218238286
 21
15.24478907015486
 31
0.0
 11
182.9414218238286
 21
15.13523197141682
 31
0.0
 11
182.9414218238286
 21
14.99280774305737
 31
0.0
 11
182.9414218238286
 21
14.85038351469791
 31
0.0
 11
182.9414218238286
 21
14.74082641595987
 31
0.0
 11
182.9414218238286
 21
14.69700357646466
 31
0.0
 11
182.9435638463435
 21
14.47163149318766
 31
0.0
 11
182.950038420831
 21
14.2497519099098
 31
0.0
 11
182.9590577693891
 21
14.03132954885329
 31
0.0
 11
182.9689825870146
 21
13.81626739612927
 31
0.0
 11
182.8872616168771
 21
13.82145433189185
 31
0.0
 11
182.8004341885366
 21
13.82315538223861
 31
0.0
 11
182.713539511934
 21
13.82145433189185
 31
0.0
 11
182.6318769706146
 21
13.81626739612927
 31
0.0
 11
182.641732820038
 21
14.03132954885329
 31
0.0
 11
182.6507427258646
 21
14.2497519099098
 31
0.0
 11
182.6571833838798
 21
14.47163149318765
 31
0.0
 11
182.6593583588023
 21
14.69700357646466
 31
0.0
 11
182.6593583588023
 21
14.74082641595988
 31
0.0
 11
182.6593583588023
 21
14.85038351469792
 31
0.0
 11
182.6593583588023
 21
14.99280774305736
 31
0.0
 11
182.6593583588023
 21
15.13523197141681
 31
0.0
 11
182.6593583588023
 21
15.24478907015486
 31
0.0
 11
182.6593583588023
 21
15.28861190965007
 31
0.0
 11
182.6571833838798
 21
15.51347467001054
 31
0.0
 11
182.6507427258646
 21
15.73406440953871
 31
0.0
  0
SPLINE
  5
A9
102
{ACAD_REACTORS
330
C6
102
}
330
4B
100
AcDbEntity
  8
_U_30EC_U_30A4_U_30E4_U_30FC_1
  6
Continuous
 62
     2
100
AcDbSpline
210
0.0
220
0.0
230
1.0
 70
    11
 71
     3
 72
   118
 73
   114
 74
   112
 42
0.000000001
 43
0.0000000001
 44
0.00000001
 40
0.0
 40
0.0
 40
0.0
 40
0.0
 40
0.1054708162973134
 40
0.246609827005151
 40
0.3965912874590848
 40
0.5285525069753589
 40
0.6156245055642163
 40
0.6431434105797461
 40
0.7036850037986305
 40
0.7642265984504842
 40
0.79174550523553
 40
0.9287404319989934
 40
1.106572819088061
 40
1.287544879681018
 40
1.317578308030535
 40
1.399928030857174
 40
1.522968204799948
 40
1.675072986590569
 40
1.844616533180647
 40
2.019973001638711
 40
2.189516548880023
 40
2.341621331585362
 40
2.464661506320498
 40
2.547011229647062
 40
2.577044658168026
 40
2.603797890893096
 40
2.66265500290884
 40
2.721512114949709
 40
2.748265347702889
 40
2.774215307344965
 40
2.845959313407295
 40
2.954338556588493
 40
3.09019422758567
 40
3.244367517100633
 40
3.407699615844392
 40
3.571031714539538
 40
3.725205003920214
 40
3.861060674729712
 40
3.969439917716405
 40
4.041183923629079
 40
4.067133883213071
 40
4.311886746012241
 40
4.547897258335605
 40
4.764747083044045
 40
4.952749679951826
 40
5.045772974195964
 40
5.137862019645082
 40
5.330543169793133
 40
5.553448265244126
 40
5.795083855888281
 40
6.043293412177345
 40
6.285761695541292
 40
6.313902908752776
 40
6.384255941793366
 40
6.475714884766925
 40
6.56717382775896
 40
6.637526860839738
 40
6.665668074074072
 40
6.692018920328045
 40
6.749990782071115
 40
6.807962643790483
 40
6.834313490017958
 40
6.856393084245236
 40
6.91333519564986
 40
6.991194817302495
 40
7.076026942283757
 40
7.153886563725218
 40
7.210828674844772
 40
7.232908268931108
 40
7.258199334923629
 40
7.324875781592277
 40
7.419142481924932
 40
7.527204308841871
 40
7.635266135230446
 40
7.729532834168432
 40
7.796209279292751
 40
7.821500344594697
 40
7.844652988850796
 40
7.899863140541575
 40
7.96575912805377
 40
8.02096927977111
 40
8.044121924046577
 40
8.069356610160709
 40
8.1091343954414
 40
8.132238100191111
 40
8.193147867786474
 40
8.279261678876646
 40
8.377977512673858
 40
8.47669334714664
 40
8.56280716041169
 40
8.623716930826477
 40
8.646820636853429
 40
8.671988793774242
 40
8.734909185828096
 40
8.81670569518881
 40
8.898502204815353
 40
8.961422597377785
 40
8.986590754550898
 40
9.012941600733052
 40
9.070913462380137
 40
9.128885324081633
 40
9.155236170324953
 40
9.180404327928995
 40
9.24332472194804
 40
9.325121234211776
 40
9.406917746637431
 40
9.469838141977887
 40
9.495006288270632
 40
9.517811184378774
 40
9.572192090486771
 40
9.637098333281
 40
9.691479239515195
 40
9.714284125643234
 40
9.714284125643234
 40
9.714284125643234
 40
9.714284125643234
 10
185.2874469028654
 20
15.2688916318772
 30
0.0
 10
185.3090990569038
 20
15.24111869242811
 30
0.0
 10
185.3597257109475
 20
15.17618054561235
 30
0.0
 10
185.4349383202591
 20
15.06891060312896
 30
0.0
 10
185.5248482274347
 20
14.95377438266625
 30
0.0
 10
185.5709169676673
 20
14.85357045748316
 30
0.0
 10
185.6655825294656
 20
14.78434006814943
 30
0.0
 10
185.6204439320413
 20
14.73771639678272
 30
0.0
 10
185.5947047785791
 20
14.69660308866039
 30
0.0
 10
185.5645196708012
 20
14.66065971727938
 30
0.0
 10
185.5193684730562
 20
14.58579782596097
 30
0.0
 10
185.4710504458562
 20
14.80782524253606
 30
0.0
 10
185.3968539713073
 20
14.84510677337705
 30
0.0
 10
185.2836047324608
 20
15.11610202130599
 30
0.0
 10
185.288513357817
 20
15.00095328446228
 30
0.0
 10
185.2868486556307
 20
14.92836675781628
 30
0.0
 10
185.2876830076715
 20
14.80625588483986
 30
0.0
 10
185.2873609540265
 20
14.6591380081046
 30
0.0
 10
185.2875076912457
 20
14.49307063956557
 30
0.0
 10
185.2872950092723
 20
14.32187554608602
 30
0.0
 10
185.2879497252034
 20
14.15552828635498
 30
0.0
 10
185.285919246114
 20
14.00935173055693
 30
0.0
 10
185.2913460399931
 20
13.8847104747461
 30
0.0
 10
185.2804930868709
 20
13.81718656540626
 30
0.0
 10
185.2956739155556
 20
13.75549061417022
 30
0.0
 10
185.2457895108134
 20
13.76727503897003
 30
0.0
 10
185.2017150342523
 20
13.75943822779969
 30
0.0
 10
185.1582371630201
 20
13.76760441372703
 30
0.0
 10
185.1092346786488
 20
13.75538056738468
 30
0.0
 10
185.1218731234825
 20
13.80960667249313
 30
0.0
 10
185.113018296845
 20
13.86936918907558
 30
0.0
 10
185.1175058770314
 20
13.9792202904437
 30
0.0
 10
185.1157960135991
 20
14.11029975405678
 30
0.0
 10
185.1163550915987
 20
14.26198011444328
 30
0.0
 10
185.1161928768694
 20
14.42211074929953
 30
0.0
 10
185.1162269924674
 20
14.58236865674565
 30
0.0
 10
185.1162514960128
 20
14.73370247520439
 30
0.0
 10
185.1161453543224
 20
14.865821563386
 30
0.0
 10
185.1164299141931
 20
14.97294802533192
 30
0.0
 10
185.1158675547568
 20
15.03808619579473
 30
0.0
 10
185.1180765083689
 20
15.16618957858673
 30
0.0
 10
185.0319435998603
 20
14.79097610391573
 30
0.0
 10
184.95551408185
 20
14.63918193123394
 30
0.0
 10
184.8660040767834
 20
14.47766206446305
 30
0.0
 10
184.7640413217327
 20
14.20471848820172
 30
0.0
 10
184.7187976491039
 20
14.36717346596512
 30
0.0
 10
184.610235594167
 20
14.45605432058117
 30
0.0
 10
184.7995791751753
 20
14.6054979496141
 30
0.0
 10
184.85653405457
 20
14.79749136974925
 30
0.0
 10
184.9717520993352
 20
15.02899622906757
 30
0.0
 10
184.9940151630132
 20
15.21797259759063
 30
0.0
 10
185.177190515214
 20
15.4945408932593
 30
0.0
 10
185.0538033597552
 20
15.48698978832094
 30
0.0
 10
184.9925684166834
 20
15.48856772366118
 30
0.0
 10
184.9081999617064
 20
15.48882592573672
 30
0.0
 10
184.8204235085967
 20
15.48544845751206
 30
0.0
 10
184.7656768696123
 20
15.49394814982019
 30
0.0
 10
184.7104703026026
 20
15.48048561049789
 30
0.0
 10
184.7222823035537
 20
15.52931442126764
 30
0.0
 10
184.7142496151795
 20
15.57269004896708
 30
0.0
 10
184.7228186104678
 20
15.61509438309573
 30
0.0
 10
184.7102943409158
 20
15.66267796552118
 30
0.0
 10
184.7555101538736
 20
15.65267212995109
 30
0.0
 10
184.8014815562724
 20
15.65894105174061
 30
0.0
 10
184.8777222047711
 20
15.65593561405872
 30
0.0
 10
184.9561296131994
 20
15.65770448278541
 30
0.0
 10
185.0323992648933
 20
15.6546479398166
 30
0.0
 10
185.0783009459474
 20
15.66103971376176
 30
0.0
 10
185.12317339654
 20
15.65093822978897
 30
0.0
 10
185.1105552275634
 20
15.70157201581898
 30
0.0
 10
185.1191936582707
 20
15.7550126188207
 30
0.0
 10
185.1152361595443
 20
15.8486325513168
 30
0.0
 10
185.1162325068335
 20
15.95112606688923
 30
0.0
 10
185.1171927413073
 20
16.05353270248163
 30
0.0
 10
185.1133211458005
 20
16.1473592960932
 30
0.0
 10
185.1217789814364
 20
16.20036542840352
 30
0.0
 10
185.1093075932835
 20
16.25211435651187
 30
0.0
 10
185.154210638985
 20
16.23850747226756
 30
0.0
 10
185.1955083836772
 20
16.24100480320584
 30
0.0
 10
185.2595344281052
 20
16.23648060574487
 30
0.0
 10
185.2986111148786
 20
16.22781003043308
 30
0.0
 10
185.3476543498744
 20
16.23515102070685
 30
0.0
 10
185.322508003059
 20
16.19602896051763
 30
0.0
 10
185.2815901333724
 20
16.20563842455802
 30
0.0
 10
185.2910109616604
 20
16.15540148169778
 30
0.0
 10
185.2855647318747
 20
16.10385945639489
 30
0.0
 10
185.2881699601804
 20
16.01959707584519
 30
0.0
 10
185.2870102202155
 20
15.92559135583408
 30
0.0
 10
185.2883591064233
 20
15.83196865395525
 30
0.0
 10
185.2849970101509
 20
15.74679517552222
 30
0.0
 10
185.292095991777
 20
15.69716856072044
 30
0.0
 10
185.2812569154547
 20
15.64993694969989
 30
0.0
 10
185.3304010225246
 20
15.66201674936851
 30
0.0
 10
185.3794877630147
 20
15.65447393363011
 30
0.0
 10
185.4573714280641
 20
15.65686070361432
 30
0.0
 10
185.5350365172896
 20
15.65899381905415
 30
0.0
 10
185.5845393931354
 20
15.65193391922455
 30
0.0
 10
185.6344594750639
 20
15.66360151936214
 30
0.0
 10
185.6223198516881
 20
15.61540235371393
 30
0.0
 10
185.6305838229143
 20
15.57249219801236
 30
0.0
 10
185.6223198650783
 20
15.52958201851384
 30
0.0
 10
185.6344594549855
 20
15.48138288754864
 30
0.0
 10
185.5845395158746
 20
15.4930503447151
 30
0.0
 10
185.5350350651203
 20
15.48599202435046
 30
0.0
 10
185.4573784382973
 20
15.48811665228604
 30
0.0
 10
185.379464386576
 20
15.4905338936576
 30
0.0
 10
185.3304500352718
 20
15.48291848194486
 30
0.0
 10
185.2813246108944
 20
15.49507952557591
 30
0.0
 10
185.2915559988572
 20
15.45073013424159
 30
0.0
 10
185.2856677678054
 20
15.40925436202911
 30
0.0
 10
185.287878830557
 20
15.34915394315303
 30
0.0
 10
185.2874109346148
 20
15.3022578276289
 30
0.0
 10
185.2874386992914
 20
15.27650146418197
 30
0.0
 10
185.2874469028654
 20
15.2688916318772
 30
0.0
 11
185.2874469028654
 21
15.2688916318772
 31
0.0
 11
185.3516977534485
 21
15.18524999634256
 31
0.0
 11
185.4348258835499
 21
15.0711888974822
 31
0.0
 11
185.5216831568896
 21
14.94891767195723
 31
0.0
 11
185.5971214371872
 21
14.84064565642875
 31
0.0
 11
185.6459925881627
 21
14.76858218755789
 31
0.0
 11
185.6296821285094
 21
14.74641782124398
 31
0.0
 11
185.593799117272
 21
14.69765621535339
 31
0.0
 11
185.5579161060346
 21
14.6488946094628
 31
0.0
 11
185.5416056463813
 21
14.62673024314889
 31
0.0
 11
185.4763067109446
 21
14.74716139023812
 31
0.0
 11
185.3848434243235
 21
14.89966983670206
 31
0.0
 11
185.2874469028654
 21
15.05219788193142
 31
0.0
 11
185.2874469028654
 21
15.02216445328253
 31
0.0
 11
185.2874469028654
 21
14.93981472956783
 31
0.0
 11
185.2874469028654
 21
14.81677455413528
 31
0.0
 11
185.2874469028654
 21
14.66466977033283
 31
0.0
 11
185.2874469028654
 21
14.49512622150845
 31
0.0
 11
185.2874469028654
 21
14.31976975101009
 31
0.0
 11
185.2874469028654
 21
14.15022620218571
 31
0.0
 11
185.2874469028654
 21
13.99812141838326
 31
0.0
 11
185.2874469028654
 21
13.87508124295071
 31
0.0
 11
185.2874469028654
 21
13.79273151923601
 31
0.0
 11
185.2874469028654
 21
13.76269809058712
 31
0.0
 11
185.260693670041
 21
13.76269809058712
 31
0.0
 11
185.2018365578272
 21
13.76269809058712
 31
0.0
 11
185.1429794456134
 21
13.76269809058712
 31
0.0
 11
185.116226212789
 21
13.76269809058712
 31
0.0
 11
185.116226212789
 21
13.7886480503125
 31
0.0
 11
185.116226212789
 21
13.86039205661208
 31
0.0
 11
185.116226212789
 21
13.96877130017101
 31
0.0
 11
185.116226212789
 21
14.10462697167447
 31
0.0
 11
185.116226212789
 21
14.25880026180761
 31
0.0
 11
185.116226212789
 21
14.42213236125558
 31
0.0
 11
185.116226212789
 21
14.58546446070356
 31
0.0
 11
185.116226212789
 21
14.73963775083669
 31
0.0
 11
185.116226212789
 21
14.87549342234015
 31
0.0
 11
185.116226212789
 21
14.98387266589908
 31
0.0
 11
185.116226212789
 21
15.05561667219866
 31
0.0
 11
185.116226212789
 21
15.08156663192404
 31
0.0
 11
185.0379865861722
 21
14.84965603302371
 31
0.0
 11
184.9497110789304
 21
14.63077616328677
 31
0.0
 11
184.8544106930046
 21
14.43598991333546
 31
0.0
 11
184.7550964303357
 21
14.27636017379202
 31
0.0
 11
184.7109198342406
 21
14.35822446196599
 31
0.0
 11
184.658805738348
 21
14.43414885430811
 31
0.0
 11
184.7627302590299
 21
14.59640087926757
 31
0.0
 11
184.8629319864735
 21
14.79551465421781
 31
0.0
 11
184.9550446607901
 21
15.01890447916196
 31
0.0
 11
185.0347020220912
 21
15.25398465410319
 31
0.0
 11
185.097537810488
 21
15.48816947904465
 31
0.0
 11
185.0693965972142
 21
15.48816947904465
 31
0.0
 11
184.9990435640297
 21
15.48816947904465
 31
0.0
 11
184.9075846208898
 21
15.48816947904465
 31
0.0
 11
184.81612567775
 21
15.48816947904465
 31
0.0
 11
184.7457726445655
 21
15.48816947904465
 31
0.0
 11
184.7176314312917
 21
15.48816947904465
 31
0.0
 11
184.7176314312917
 21
15.51452032539222
 31
0.0
 11
184.7176314312917
 21
15.57249218735688
 31
0.0
 11
184.7176314312917
 21
15.63046404932155
 31
0.0
 11
184.7176314312917
 21
15.65681489566912
 31
0.0
 11
184.739711025602
 21
15.65681489566912
 31
0.0
 11
184.7966531372445
 21
15.65681489566912
 31
0.0
 11
184.8745127592863
 21
15.65681489566912
 31
0.0
 11
184.9593448847945
 21
15.65681489566912
 31
0.0
 11
185.0372045068362
 21
15.65681489566912
 31
0.0
 11
185.0941466184786
 21
15.65681489566912
 31
0.0
 11
185.116226212789
 21
15.65681489566912
 31
0.0
 11
185.116226212789
 21
15.68210596174353
 31
0.0
 11
185.116226212789
 21
15.74878240866697
 31
0.0
 11
185.116226212789
 21
15.84304910948976
 31
0.0
 11
185.116226212789
 21
15.95111093726224
 31
0.0
 11
185.116226212789
 21
16.05917276503471
 31
0.0
 11
185.116226212789
 21
16.1534394658575
 31
0.0
 11
185.116226212789
 21
16.22011591278094
 31
0.0
 11
185.116226212789
 21
16.24540697885535
 31
0.0
 11
185.1393181988666
 21
16.24373213107799
 31
0.0
 11
185.1943837041285
 21
16.23973826330121
 31
0.0
 11
185.2601070491185
 21
16.23497138885795
 31
0.0
 11
185.3151725543804
 21
16.23097752108116
 31
0.0
 11
185.3382645404579
 21
16.2293026733038
 31
0.0
 11
185.3249012644362
 21
16.2078967792119
 31
0.0
 11
185.2874469028654
 21
16.19450114553468
 31
0.0
 11
185.2874469028654
 21
16.17139743948577
 31
0.0
 11
185.2874469028654
 21
16.11048766899319
 31
0.0
 11
185.2874469028654
 21
16.02437385553815
 31
0.0
 11
185.2874469028654
 21
15.9256580206019
 31
0.0
 11
185.2874469028654
 21
15.82694218566565
 31
0.0
 11
185.2874469028654
 21
15.74082837221061
 31
0.0
 11
185.2874469028654
 21
15.67991860171803
 31
0.0
 11
185.2874469028654
 21
15.65681489566912
 31
0.0
 11
185.312615060481
 21
15.65681489566912
 31
0.0
 11
185.3755354545199
 21
15.65681489566912
 31
0.0
 11
185.4573319667706
 21
15.65681489566912
 31
0.0
 11
185.5391284790213
 21
15.65681489566912
 31
0.0
 11
185.6020488730602
 21
15.65681489566912
 31
0.0
 11
185.6272170306758
 21
15.65681489566912
 31
0.0
 11
185.6272170306758
 21
15.63046404932155
 31
0.0
 11
185.6272170306758
 21
15.57249218735689
 31
0.0
 11
185.6272170306758
 21
15.51452032539222
 31
0.0
 11
185.6272170306758
 21
15.48816947904465
 31
0.0
 11
185.6020488730602
 21
15.48816947904465
 31
0.0
 11
185.5391284790213
 21
15.48816947904465
 31
0.0
 11
185.4573319667706
 21
15.48816947904465
 31
0.0
 11
185.37553545452
 21
15.48816947904465
 31
0.0
 11
185.312615060481
 21
15.48816947904465
 31
0.0
 11
185.2874469028654
 21
15.48816947904465
 31
0.0
 11
185.2874469028654
 21
15.46536458293924
 31
0.0
 11
185.2874469028654
 21
15.41098367684171
 31
0.0
 11
185.2874469028654
 21
15.34607743408014
 31
0.0
 11
185.2874469028654
 21
15.29169652798262
 31
0.0
 11
185.2874469028654
 21
15.2688916318772
 31
0.0
  0
SPLINE
  5
AA
102
{ACAD_REACTORS
330
C7
102
}
330
4B
100
AcDbEntity
  8
_U_30EC_U_30A4_U_30E4_U_30FC_1
  6
Continuous
 62
     2
100
AcDbSpline
210
0.0
220
0.0
230
1.0
 70
    11
 71
     3
 72
    91
 73
    87
 74
    85
 42
0.000000001
 43
0.0000000001
 44
0.00000001
 40
0.0
 40
0.0
 40
0.0
 40
0.0
 40
0.0345987051695434
 40
0.1258134969461369
 40
0.2547723404888987
 40
0.4026032099154409
 40
0.5504340793417273
 40
0.6793929228836932
 40
0.7706077146571888
 40
0.8052064287781777
 40
1.124852390615363
 40
1.427402236308954
 40
1.706356627453596
 40
1.955541417875281
 40
2.169485938566426
 40
2.344350786664881
 40
2.480568411562031
 40
2.590440557429053
 40
2.649189927151255
 40
2.749320643306468
 40
2.912632739880163
 40
3.147745656000362
 40
3.244827496385204
 40
3.338490056946747
 40
3.583815413207163
 40
3.761423943238521
 40
3.886956104362684
 40
3.985855451886889
 40
4.091766255337774
 40
4.250186473811939
 40
4.422734315084562
 40
4.628285684838657
 40
4.872093227758499
 40
5.15254965214561
 40
5.46496713583759
 40
5.803201477852511
 40
6.160362988813985
 40
6.19344944827604
 40
6.284170385501695
 40
6.419718138764565
 40
6.587285046385815
 40
6.774063446723729
 40
6.967245678113712
 40
7.154024078817698
 40
7.321590987026084
 40
7.457138740890442
 40
7.547859678556178
 40
7.580946138182738
 40
7.60853308471479
 40
7.66922436707777
 40
7.729915649429992
 40
7.757502595950043
 40
7.790278062553496
 40
7.880146277430994
 40
8.014419963180458
 40
8.180411842397987
 40
8.365434637679456
 40
8.556801071622786
 40
8.74182386683087
 40
8.907815745916409
 40
9.042089431507591
 40
9.131957646249717
 40
9.164733112797293
 40
9.415425063140217
 40
9.667986180958684
 40
9.69416980746285
 40
9.75660768604781
 40
9.831130315322701
 40
9.893568193900137
 40
9.919751820398982
 40
9.950967964690792
 40
9.996421631210955
 40
10.22087981037484
 40
10.44341866197572
 40
10.47847970788884
 40
10.57091337438785
 40
10.70159545461265
 40
10.85140174170393
 40
11.00120802880516
 40
11.13189010907421
 40
11.22432377583046
 40
11.25938480938995
 40
11.28697175596183
 40
11.34766303835958
 40
11.40835432042109
 40
11.43594125892143
 40
11.43594125892143
 40
11.43594125892143
 40
11.43594125892143
 10
190.081811433329
 20
15.55242795125077
 30
0.0
 10
190.0702785844941
 20
15.55242790287915
 30
0.0
 10
190.0283409445
 20
15.55242773704164
 30
0.0
 10
189.9434129719026
 20
15.55243125800908
 30
0.0
 10
189.8207688553129
 20
15.55240926435879
 30
0.0
 10
189.6791206916993
 20
15.55250801177053
 30
0.0
 10
189.537975369849
 20
15.55214686232421
 30
0.0
 10
189.4141351317904
 20
15.55321883609088
 30
0.0
 10
189.3317217825381
 20
15.55092249091268
 30
0.0
 10
189.1727791229693
 20
15.56048569373421
 30
0.0
 10
189.3503402353375
 20
15.1978539431137
 30
0.0
 10
189.3379739205453
 20
14.95243127723115
 30
0.0
 10
189.4064519473864
 20
14.66862501324835
 30
0.0
 10
189.469302432097
 20
14.43250999939036
 30
0.0
 10
189.5452253431728
 20
14.2332674039613
 30
0.0
 10
189.6303189577016
 20
14.07745347451374
 30
0.0
 10
189.7244607592936
 20
13.97657857781392
 30
0.0
 10
189.8282648207727
 20
13.92465852638966
 30
0.0
 10
189.9125872030774
 20
13.97606484379614
 30
0.0
 10
189.9351322179453
 20
14.09144544037516
 30
0.0
 10
189.9745730975372
 20
14.2188514970238
 30
0.0
 10
189.9202919734944
 20
14.53622328086755
 30
0.0
 10
190.0451218072474
 20
14.38982180140906
 30
0.0
 10
190.2019291513603
 20
14.35795300331166
 30
0.0
 10
190.0947720007057
 20
14.12421357767627
 30
0.0
 10
190.0808711209867
 20
13.95972776583657
 30
0.0
 10
190.0234709467226
 20
13.83130869122481
 30
0.0
 10
189.9335020145008
 20
13.76018802352828
 30
0.0
 10
189.8095274657878
 20
13.74432324142254
 30
0.0
 10
189.663427319686
 20
13.77993797554172
 30
0.0
 10
189.5243894320285
 20
13.90000570500279
 30
0.0
 10
189.4102003962144
 20
14.0743568255032
 30
0.0
 10
189.3146141301487
 20
14.2994660311124
 30
0.0
 10
189.2318652572626
 20
14.56388246006442
 30
0.0
 10
189.1807179256411
 20
14.88187933098543
 30
0.0
 10
189.0770189207338
 20
15.15543728488912
 30
0.0
 10
189.2042841208519
 20
15.56005818612866
 30
0.0
 10
189.0357890623019
 20
15.55112367849678
 30
0.0
 10
188.9511995787077
 20
15.55315961418363
 30
0.0
 10
188.8189876387627
 20
15.55213937388406
 30
0.0
 10
188.6560505094104
 20
15.55253230318429
 30
0.0
 10
188.4733759170532
 20
15.55235696313368
 30
0.0
 10
188.2847057373383
 20
15.55260105307468
 30
0.0
 10
188.1014469020189
 20
15.55185657906236
 30
0.0
 10
187.9404746832718
 20
15.55416360522425
 30
0.0
 10
187.8029808335276
 20
15.54799804883662
 30
0.0
 10
187.728959037231
 20
15.56032838458211
 30
0.0
 10
187.6613215186856
 20
15.54329323723556
 30
0.0
 10
187.6732373719269
 20
15.59524438447528
 30
0.0
 10
187.6655677285694
 20
15.64071424966529
 30
0.0
 10
187.6732592225115
 20
15.68614453703705
 30
0.0
 10
187.6613141797762
 20
15.7380239598457
 30
0.0
 10
187.7283588305867
 20
15.72119143490264
 30
0.0
 10
187.8017375665676
 20
15.73335409092671
 30
0.0
 10
187.9379128305272
 20
15.72727231074958
 30
0.0
 10
188.0973811801512
 20
15.72954834315057
 30
0.0
 10
188.2789173085837
 20
15.72881233998962
 30
0.0
 10
188.465803486218
 20
15.72905954196133
 30
0.0
 10
188.6468012316836
 20
15.72886400799254
 30
0.0
 10
188.8080802578879
 20
15.72932234714839
 30
0.0
 10
188.9393882124887
 20
15.72812673751206
 30
0.0
 10
189.0225051322597
 20
15.73051347319742
 30
0.0
 10
189.1556236547815
 20
15.72230605725464
 30
0.0
 10
189.0645893502658
 20
15.97752868952655
 30
0.0
 10
188.9789633074418
 20
16.24164358328245
 30
0.0
 10
189.0990589003455
 20
16.22904442969165
 30
0.0
 10
189.1514264948543
 20
16.22694235763074
 30
0.0
 10
189.2214497569716
 20
16.22535399889658
 30
0.0
 10
189.2671922337818
 20
16.21602567538112
 30
0.0
 10
189.3220812646933
 20
16.22545966915428
 30
0.0
 10
189.2963574785682
 20
16.17733028655169
 30
0.0
 10
189.1825397571453
 20
16.18266829744175
 30
0.0
 10
189.3159346621137
 20
15.95449174576774
 30
0.0
 10
189.1943658735472
 20
15.72156856595924
 30
0.0
 10
189.3223188769412
 20
15.73087258884438
 30
0.0
 10
189.4049048406461
 20
15.7280100175468
 30
0.0
 10
189.5307214850824
 20
15.72923437412302
 30
0.0
 10
189.6741469838059
 20
15.72932431888964
 30
0.0
 10
189.8157420951728
 20
15.72746163183853
 30
0.0
 10
189.9459127249968
 20
15.73333075937162
 30
0.0
 10
190.0193452286191
 20
15.72070340823204
 30
0.0
 10
190.0891112922097
 20
15.73877563110413
 30
0.0
 10
190.0775772605396
 20
15.68612850546326
 30
0.0
 10
190.0833184346683
 20
15.64221317686547
 30
0.0
 10
190.0816615770912
 20
15.59089982676549
 30
0.0
 10
190.081775756167
 20
15.56158792021634
 30
0.0
 10
190.081811433329
 20
15.55242795125077
 30
0.0
 11
190.081811433329
 21
15.55242795125077
 31
0.0
 11
190.0472127192052
 21
15.55242795125077
 31
0.0
 11
189.9559979274242
 21
15.55242795125077
 31
0.0
 11
189.8270390838718
 21
15.55242795125077
 31
0.0
 11
189.6792082144336
 21
15.55242795125077
 31
0.0
 11
189.5313773449955
 21
15.55242795125077
 31
0.0
 11
189.402418501443
 21
15.55242795125077
 31
0.0
 11
189.311203709662
 21
15.55242795125077
 31
0.0
 11
189.2766049955382
 21
15.55242795125077
 31
0.0
 11
189.3083140497693
 21
15.23435864930121
 31
0.0
 11
189.3527866656865
 21
14.93509522788081
 31
0.0
 11
189.4092389118319
 21
14.66191269512576
 31
0.0
 11
189.4768868567478
 21
14.42208605917227
 31
0.0
 11
189.5549465689761
 21
14.22289032815655
 31
0.0
 11
189.6426341170591
 21
14.07160051021478
 31
0.0
 11
189.7391655695388
 21
13.97549161348317
 31
0.0
 11
189.8437569949575
 21
13.94183864609792
 31
0.0
 11
189.8943077302786
 21
13.97177376978835
 31
0.0
 11
189.9310588991552
 21
14.06491619815047
 31
0.0
 11
189.9562640977528
 21
14.22627151712054
 31
0.0
 11
189.9721769222369
 21
14.46084531263481
 31
0.0
 11
190.0494082682584
 21
14.40202182306618
 31
0.0
 11
190.1327184184385
 21
14.35921885432689
 31
0.0
 11
190.1066365811217
 21
14.11528388661009
 31
0.0
 11
190.0673317805106
 21
13.94207902887562
 31
0.0
 11
190.0105702596765
 21
13.83011272445917
 31
0.0
 11
189.932118261691
 21
13.76989341669645
 31
0.0
 11
189.8277420296256
 21
13.75192954892317
 31
0.0
 11
189.6738595065097
 21
13.78957440012361
 31
0.0
 11
189.5388902376748
 21
13.89707348877403
 31
0.0
 11
189.4221739916163
 21
14.06627361744809
 31
0.0
 11
189.32305053683
 21
14.28902158871943
 31
0.0
 11
189.2408596418113
 21
14.55716420516172
 31
0.0
 11
189.1749410750559
 21
14.8625482693486
 31
0.0
 11
189.1246346050593
 21
15.19702058385374
 31
0.0
 11
189.0892800003171
 21
15.55242795125077
 31
0.0
 11
189.0561935405844
 21
15.55242795125077
 31
0.0
 11
188.9654726026075
 21
15.55242795125077
 31
0.0
 11
188.8299248482185
 21
15.55242795125077
 31
0.0
 11
188.6623579392495
 21
15.55242795125077
 31
0.0
 11
188.4755795375324
 21
15.55242795125077
 31
0.0
 11
188.2823973048992
 21
15.55242795125077
 31
0.0
 11
188.0956189031822
 21
15.55242795125077
 31
0.0
 11
187.9280519942131
 21
15.55242795125077
 31
0.0
 11
187.7925042398241
 21
15.55242795125077
 31
0.0
 11
187.7017833018473
 21
15.55242795125077
 31
0.0
 11
187.6686968421145
 21
15.55242795125077
 31
0.0
 11
187.6686968421145
 21
15.58001489785846
 31
0.0
 11
187.6686968421145
 21
15.64070618039537
 31
0.0
 11
187.6686968421145
 21
15.70139746293229
 31
0.0
 11
187.6686968421145
 21
15.72898440953998
 31
0.0
 11
187.7014723087631
 21
15.72898440953998
 31
0.0
 11
187.7913405237673
 21
15.72898440953998
 31
0.0
 11
187.9256142097148
 21
15.72898440953998
 31
0.0
 11
188.0916060891932
 21
15.72898440953998
 31
0.0
 11
188.2766288847901
 21
15.72898440953998
 31
0.0
 11
188.4679953190933
 21
15.72898440953998
 31
0.0
 11
188.6530181146902
 21
15.72898440953998
 31
0.0
 11
188.8190099941685
 21
15.72898440953998
 31
0.0
 11
188.9532836801161
 21
15.72898440953998
 31
0.0
 11
189.0431518951203
 21
15.72898440953998
 31
0.0
 11
189.0759273617689
 21
15.72898440953998
 31
0.0
 11
189.0659183950103
 21
15.97947647544958
 31
0.0
 11
189.0599112510663
 21
16.23196614552531
 31
0.0
 11
189.0860575870659
 21
16.23056921608122
 31
0.0
 11
189.1484065421419
 21
16.22723807663761
 31
0.0
 11
189.22282303691
 21
16.22326220052749
 31
0.0
 11
189.285171991986
 21
16.21993106108388
 31
0.0
 11
189.3113183279856
 21
16.21853413163979
 31
0.0
 11
189.2982931113041
 21
16.19016528616079
 31
0.0
 11
189.2551649266406
 21
16.17581274276164
 31
0.0
 11
189.2574991961822
 21
15.95136670115107
 31
0.0
 11
189.2658452735903
 21
15.72898440953998
 31
0.0
 11
189.3009063195165
 21
15.72898440953998
 31
0.0
 11
189.3933399860495
 21
15.72898440953998
 31
0.0
 11
189.5240220663201
 21
15.72898440953998
 31
0.0
 11
189.6738283534596
 21
15.72898440953998
 31
0.0
 11
189.8236346405992
 21
15.72898440953998
 31
0.0
 11
189.9543167208698
 21
15.72898440953998
 31
0.0
 11
190.0467503874027
 21
15.72898440953998
 31
0.0
 11
190.081811433329
 21
15.72898440953998
 31
0.0
 11
190.081811433329
 21
15.70139746293229
 31
0.0
 11
190.081811433329
 21
15.64070618039537
 31
0.0
 11
190.081811433329
 21
15.58001489785846
 31
0.0
 11
190.081811433329
 21
15.55242795125077
 31
0.0
  0
SPLINE
  5
AB
102
{ACAD_REACTORS
330
C8
102
}
330
4B
100
AcDbEntity
  8
_U_30EC_U_30A4_U_30E4_U_30FC_1
  6
Continuous
 62
     2
100
AcDbSpline
210
0.0
220
0.0
230
1.0
 70
    11
 71
     3
 72
    75
 73
    71
 74
    69
 42
0.000000001
 43
0.0000000001
 44
0.00000001
 40
0.0
 40
0.0
 40
0.0
 40
0.0
 40
0.0342546099129691
 40
0.1245622414432364
 40
0.2522385480897554
 40
0.3985991922940715
 40
0.544959836498091
 40
0.6726361431438905
 40
0.7629437746737049
 40
0.7971983935298079
 40
1.101723623449699
 40
1.408591244036593
 40
1.433332471690301
 40
1.487763172450101
 40
1.542193873081933
 40
1.566935100592485
 40
1.923523931821794
 40
2.271755704953566
 40
2.590579755100781
 40
2.858943305581011
 40
2.889120339309043
 40
2.918305855191038
 40
2.94136664553116
 40
2.996357760973043
 40
3.061992318140589
 40
3.116983433626755
 40
3.140044223997444
 40
3.411273122936281
 40
3.732441619741056
 40
3.761068217532754
 40
3.83778749963032
 40
3.948858699125957
 40
4.080541049104335
 40
4.219093782625722
 40
4.350776132722274
 40
4.461847332405608
 40
4.538566614678341
 40
4.56719321254459
 40
4.594907573998848
 40
4.666381453557415
 40
4.764111044011054
 40
4.870592538125885
 40
4.968322128642336
 40
5.03979600828705
 40
5.067510369784509
 40
5.094263603185722
 40
5.153120716668354
 40
5.211977830150797
 40
5.238731063551802
 40
5.272290535139041
 40
5.363380529444902
 40
5.497618415781579
 40
5.660621563453821
 40
5.838007341749522
 40
6.015393119910874
 40
6.178396267038499
 40
6.312634151842451
 40
6.40372414305944
 40
6.437283612672536
 40
6.464036846261152
 40
6.522893960004765
 40
6.581751071484025
 40
6.608504301590971
 40
6.637253941281118
 40
6.71139774890297
 40
6.812778057283554
 40
6.923237199249273
 40
7.024617507623946
 40
7.09876131520757
 40
7.12751094600752
 40
7.12751094600752
 40
7.12751094600752
 40
7.12751094600752
 10
188.4418622390565
 20
14.95849128473265
 30
0.0
 10
188.4418622819707
 20
14.9470731340872
 30
0.0
 10
188.4418624481129
 20
14.9055525784263
 30
0.0
 10
188.4418593081788
 20
14.82146922003773
 30
0.0
 10
188.4418788279801
 20
14.70004497322329
 30
0.0
 10
188.4417912187738
 20
14.55980494047449
 30
0.0
 10
188.4421116235231
 20
14.42006556794576
 30
0.0
 10
188.4411605909741
 20
14.29745038894929
 30
0.0
 10
188.4431978595968
 20
14.21587074438043
 30
0.0
 10
188.4349433178747
 20
14.06271267077697
 30
0.0
 10
188.7430797940901
 20
14.22560236054717
 30
0.0
 10
189.0350645173736
 20
14.39482938687998
 30
0.0
 10
189.0408354448707
 20
14.25973235781911
 30
0.0
 10
189.0455471719891
 20
14.21617221160443
 30
0.0
 10
189.0482535411917
 20
14.17211249350543
 30
0.0
 10
189.0672545672961
 20
14.02272590363135
 30
0.0
 10
188.6583942247301
 20
14.08681172241261
 30
0.0
 10
188.3793710348833
 20
13.97296341411016
 30
0.0
 10
188.1018081587166
 20
13.87364095811143
 30
0.0
 10
187.8099837184402
 20
13.91630687596354
 30
0.0
 10
187.7869144678658
 20
13.81321679744539
 30
0.0
 10
187.7537474383333
 20
13.78691091244469
 30
0.0
 10
187.7480653962738
 20
13.83455309036303
 30
0.0
 10
187.7284214559045
 20
13.87180336115071
 30
0.0
 10
187.7095089485623
 20
13.93007387847561
 30
0.0
 10
187.6942849867709
 20
13.97385201007807
 30
0.0
 10
187.6477246372934
 20
14.08759421046303
 30
0.0
 10
187.9890897312452
 20
14.05576301120051
 30
0.0
 10
188.2679649367388
 20
14.02161435106475
 30
0.0
 10
188.2617753034908
 20
14.16913976479652
 30
0.0
 10
188.2630935452774
 20
14.24013150908832
 30
0.0
 10
188.2624831689949
 20
14.34719767958661
 30
0.0
 10
188.2625871570726
 20
14.47398529785998
 30
0.0
 10
188.2629987964057
 20
14.6084924349605
 30
0.0
 10
188.261390784197
 20
14.73395549951185
 30
0.0
 10
188.2659902567926
 20
14.84505246719118
 30
0.0
 10
188.256418650221
 20
14.90761886800689
 30
0.0
 10
188.2704001783692
 20
14.96595388295002
 30
0.0
 10
188.2147384386706
 20
14.95289710582239
 30
0.0
 10
188.1575655197822
 20
14.96136307749499
 30
0.0
 10
188.0616048925648
 20
14.95729976080637
 30
0.0
 10
187.9633767522821
 20
14.95970889852475
 30
0.0
 10
187.867258245756
 20
14.95551600613388
 30
0.0
 10
187.8104648525812
 20
14.96429346441164
 30
0.0
 10
187.7550356873384
 20
14.95094936850121
 30
0.0
 10
187.7670679427917
 20
15.00036910959258
 30
0.0
 10
187.7592003173938
 20
15.04393988030396
 30
0.0
 10
187.7666295563828
 20
15.08830469118525
 30
0.0
 10
187.7551930564144
 20
15.13902297763991
 30
0.0
 10
187.8232102370132
 20
15.12162460757743
 30
0.0
 10
187.8968496879747
 20
15.13417450237189
 30
0.0
 10
188.0325064058211
 20
15.12799677011097
 30
0.0
 10
188.1884909024525
 20
15.13029203093084
 30
0.0
 10
188.3615926358143
 20
15.1294096826253
 30
0.0
 10
188.5346942964181
 20
15.13029207142408
 30
0.0
 10
188.6906789811216
 20
15.1279966295555
 30
0.0
 10
188.8263351889797
 20
15.13417486262432
 30
0.0
 10
188.8999756705652
 20
15.12162394218335
 30
0.0
 10
188.9679914174724
 20
15.13902373012142
 30
0.0
 10
188.9565590885922
 20
15.08830130414555
 30
0.0
 10
188.9639539458297
 20
15.04397060811109
 30
0.0
 10
188.956203991227
 20
15.00028307550197
 30
0.0
 10
188.9681203741877
 20
14.95063590098477
 30
0.0
 10
188.9108170223616
 20
14.96461411338426
 30
0.0
 10
188.8520145789773
 20
14.95539755673255
 30
0.0
 10
188.75252936332
 20
14.95952268164931
 30
0.0
 10
188.6494280098349
 20
14.95822760025888
 30
0.0
 10
188.5537846354574
 20
14.95854077077641
 30
0.0
 10
188.4857467971617
 20
14.95848776697147
 30
0.0
 10
188.4514462213444
 20
14.95849051871657
 30
0.0
 10
188.4418622390565
 20
14.95849128473265
 30
0.0
 11
188.4418622390565
 21
14.95849128473265
 31
0.0
 11
188.4418622390565
 21
14.92423666587186
 31
0.0
 11
188.4418622390565
 21
14.83392903432976
 31
0.0
 11
188.4418622390565
 21
14.7062527276668
 31
0.0
 11
188.4418622390565
 21
14.5598920834434
 31
0.0
 11
188.4418622390565
 21
14.41353143922
 31
0.0
 11
188.4418622390565
 21
14.28585513255704
 31
0.0
 11
188.4418622390565
 21
14.19554750101494
 31
0.0
 11
188.4418622390565
 21
14.16129288215415
 31
0.0
 11
188.7391932644568
 21
14.22709475713768
 31
0.0
 11
189.0384623627245
 21
14.29496038212072
 31
0.0
 11
189.0405487124976
 21
14.27030727882827
 31
0.0
 11
189.0451386819987
 21
14.21607045158489
 31
0.0
 11
189.0497286514996
 21
14.16183362434151
 31
0.0
 11
189.0518150012728
 21
14.13718052104906
 31
0.0
 11
188.705639688924
 21
14.05163370140897
 31
0.0
 11
188.3669653138838
 21
13.97060877629901
 31
0.0
 11
188.0563731516688
 21
13.89862764024929
 31
0.0
 11
187.7944444777956
 21
13.84021218778991
 31
0.0
 11
187.7817515029292
 21
13.81283442738013
 31
0.0
 11
187.7569794787513
 21
13.79740260446735
 31
0.0
 11
187.7491867589501
 21
13.81910683390636
 31
0.0
 11
187.7306041194242
 21
13.87086307333786
 31
0.0
 11
187.70842483999
 21
13.93263664943351
 31
0.0
 11
187.6898422004641
 21
13.98439288886501
 31
0.0
 11
187.6820494806629
 21
14.00609711830402
 31
0.0
 11
187.9482776335931
 21
14.05794001759666
 31
0.0
 11
188.262633493629
 21
14.1237396877191
 31
0.0
 11
188.262633493629
 21
14.15236628569624
 31
0.0
 11
188.262633493629
 21
14.22908556827499
 31
0.0
 11
188.262633493629
 21
14.34015676842631
 31
0.0
 11
188.262633493629
 21
14.47183911912118
 31
0.0
 11
188.262633493629
 21
14.61039185333057
 31
0.0
 11
188.262633493629
 21
14.74207420402543
 31
0.0
 11
188.262633493629
 21
14.85314540417675
 31
0.0
 11
188.262633493629
 21
14.9298646867555
 31
0.0
 11
188.262633493629
 21
14.95849128473265
 31
0.0
 11
188.2349191321109
 21
14.95849128473265
 31
0.0
 11
188.1634452524064
 21
14.95849128473265
 31
0.0
 11
188.0657156617901
 21
14.95849128473265
 31
0.0
 11
187.9592341675364
 21
14.95849128473265
 31
0.0
 11
187.8615045769201
 21
14.95849128473265
 31
0.0
 11
187.7900306972156
 21
14.95849128473265
 31
0.0
 11
187.7623163356975
 21
14.95849128473265
 31
0.0
 11
187.7623163356975
 21
14.9852445182329
 31
0.0
 11
187.7623163356975
 21
15.04410163193345
 31
0.0
 11
187.7623163356975
 21
15.10295874563399
 31
0.0
 11
187.7623163356975
 21
15.12971197913424
 31
0.0
 11
187.7958758072874
 21
15.12971197913424
 31
0.0
 11
187.8869658016031
 21
15.12971197913424
 31
0.0
 11
188.0212036879629
 21
15.12971197913424
 31
0.0
 11
188.1842068356856
 21
15.12971197913424
 31
0.0
 11
188.3615926140897
 21
15.12971197913424
 31
0.0
 11
188.5389783924938
 21
15.12971197913424
 31
0.0
 11
188.7019815402164
 21
15.12971197913424
 31
0.0
 11
188.8362194265763
 21
15.12971197913424
 31
0.0
 11
188.9273094208918
 21
15.12971197913424
 31
0.0
 11
188.9608688924818
 21
15.12971197913424
 31
0.0
 11
188.9608688924818
 21
15.10295874563399
 31
0.0
 11
188.9608688924818
 21
15.04410163193344
 31
0.0
 11
188.9608688924818
 21
14.9852445182329
 31
0.0
 11
188.9608688924818
 21
14.95849128473265
 31
0.0
 11
188.9321192527877
 21
14.95849128473265
 31
0.0
 11
188.8579754451555
 21
14.95849128473265
 31
0.0
 11
188.7565951367605
 21
14.95849128473265
 31
0.0
 11
188.6461359947778
 21
14.95849128473265
 31
0.0
 11
188.5447556863828
 21
14.95849128473265
 31
0.0
 11
188.4706118787506
 21
14.95849128473265
 31
0.0
 11
188.4418622390565
 21
14.95849128473265
 31
0.0
  0
SPLINE
  5
AC
102
{ACAD_REACTORS
330
C9
102
}
330
4B
100
AcDbEntity
  8
_U_30EC_U_30A4_U_30E4_U_30FC_1
  6
Continuous
 62
     2
100
AcDbSpline
210
0.0
220
0.0
230
1.0
 70
    11
 71
     3
 72
    15
 73
    11
 74
     9
 42
0.000000001
 43
0.0000000001
 44
0.00000001
 40
0.0
 40
0.0
 40
0.0
 40
0.0
 40
0.2785535985096532
 40
0.5215624748198807
 40
0.6076917376040443
 40
0.6938210001741176
 40
0.9405019146454385
 40
1.221691403489051
 40
1.300471877080922
 40
1.379252341684639
 40
1.379252341684639
 40
1.379252341684639
 40
1.379252341684639
 10
189.5681493630999
 20
16.2293026733038
 30
0.0
 10
189.6296017794178
 20
16.17691646592715
 30
0.0
 10
189.7446649974113
 20
16.07882876798222
 30
0.0
 10
190.0397348497244
 20
15.92889785897223
 30
0.0
 10
189.9025147631856
 20
15.84343227515014
 30
0.0
 10
189.8041227843778
 20
15.71085785201556
 30
0.0
 10
189.7130033590651
 20
16.01616985781423
 30
0.0
 10
189.3636839480657
 20
16.07967869465372
 30
0.0
 10
189.511925837657
 20
16.17896509880877
 30
0.0
 10
189.5494081874236
 20
16.21252348402382
 30
0.0
 10
189.5681493630999
 20
16.2293026733038
 30
0.0
 11
189.5681493630999
 21
16.2293026733038
 31
0.0
 11
189.7919222440596
 21
16.06341774278972
 31
0.0
 11
189.9695046306383
 21
15.89753281227564
 31
0.0
 11
189.9066308127979
 21
15.83866743034592
 31
0.0
 11
189.8437569949575
 21
15.7798020484162
 31
0.0
 11
189.6688535117726
 21
15.95375677059491
 31
0.0
 11
189.4478256856141
 21
16.12757920110703
 31
0.0
 11
189.507987524357
 21
16.17844093720542
 31
0.0
 11
189.5681493630999
 21
16.2293026733038
 31
0.0
  0
SPLINE
  5
AD
102
{ACAD_REACTORS
330
CA
102
}
330
4B
100
AcDbEntity
  8
_U_30EC_U_30A4_U_30E4_U_30FC_1
  6
Continuous
 62
     2
100
AcDbSpline
210
0.0
220
0.0
230
1.0
 70
    11
 71
     3
 72
    35
 73
    31
 74
    29
 42
0.000000001
 43
0.0000000001
 44
0.00000001
 40
0.0
 40
0.0
 40
0.0
 40
0.0
 40
0.0335231036621153
 40
0.0713218571711781
 40
0.4278866681486333
 40
0.8116865841963128
 40
1.198190237999948
 40
1.561379546812578
 40
1.659983174621911
 40
1.75931557380703
 40
2.132719617230964
 40
2.525233363588716
 40
2.910815397779605
 40
3.265244364303193
 40
3.592606723581933
 40
3.964386154603859
 40
4.359942131737682
 40
4.758154118639143
 40
4.843846538699769
 40
4.936650065543126
 40
5.256616602537203
 40
5.58170740441594
 40
5.899719158308038
 40
6.198363494280643
 40
6.466301046615675
 40
6.493895311536997
 40
6.559697020196818
 40
6.638234543442422
 40
6.704036252154232
 40
6.731630508423038
 40
6.731630508423038
 40
6.731630508423038
 40
6.731630508423038
 10
191.973601056867
 20
16.23463843719133
 30
0.0
 10
191.967600609779
 20
16.22480690542322
 30
0.0
 10
191.9548344099157
 20
16.20388988579802
 30
0.0
 10
191.7949362006557
 20
16.17127126532669
 30
0.0
 10
192.2322025842337
 20
15.88206680336708
 30
0.0
 10
192.4345394828262
 20
15.68041138358437
 30
0.0
 10
192.6819564267973
 20
15.43749387603275
 30
0.0
 10
193.1831513624605
 20
15.3604766275778
 30
0.0
 10
193.012556219897
 20
15.21876939174655
 30
0.0
 10
192.9383299463202
 20
15.01710366209105
 30
0.0
 10
192.6131432248189
 20
15.36956287174725
 30
0.0
 10
192.3277741670664
 20
15.53175212559563
 30
0.0
 10
192.0337604077658
 20
15.73687130053047
 30
0.0
 10
191.8084452691134
 20
16.21827488595455
 30
0.0
 10
191.5993085055522
 20
15.75343046609225
 30
0.0
 10
191.3207873674835
 20
15.54350952252911
 30
0.0
 10
191.0371383177208
 20
15.37424456359986
 30
0.0
 10
190.7078639527833
 20
15.00142360907939
 30
0.0
 10
190.6277012318224
 20
15.19708014459002
 30
0.0
 10
190.4759724909744
 20
15.32491104190592
 30
0.0
 10
190.9083395826794
 20
15.40454031765936
 30
0.0
 10
191.0962565329766
 20
15.60026634915472
 30
0.0
 10
191.3468477420502
 20
15.81632996916755
 30
0.0
 10
191.5714350470161
 20
15.98190992300058
 30
0.0
 10
191.6259775409714
 20
16.26133964636828
 30
0.0
 10
191.7494661029011
 20
16.24737950408078
 30
0.0
 10
191.806027334452
 20
16.24521268867647
 30
0.0
 10
191.8761870984945
 20
16.2404685988136
 30
0.0
 10
191.9333414022106
 20
16.2370942935054
 30
0.0
 10
191.964419032084
 20
16.23519854711118
 30
0.0
 10
191.973601056867
 20
16.23463843719133
 30
0.0
 11
191.973601056867
 21
16.23463843719133
 31
0.0
 11
191.9525319069884
 21
16.20856374969784
 31
0.0
 11
191.9174464559426
 21
16.19450114553468
 31
0.0
 11
192.1512374769095
 21
15.92527961131382
 31
0.0
 11
192.4414585957567
 21
15.6741340796926
 31
0.0
 11
192.7612797483684
 21
15.45710987618784
 31
0.0
 11
193.0838708706289
 21
15.29025232631637
 31
0.0
 11
193.0213299868077
 21
15.21402035584928
 31
0.0
 11
192.9688035818976
 21
15.12971197913424
 31
0.0
 11
192.6436279095814
 21
15.3132640483158
 31
0.0
 11
192.3237227768436
 21
15.54070139743428
 31
0.0
 11
192.0354200158608
 21
15.7967385512331
 31
0.0
 11
191.8050514588095
 21
16.06609003445566
 31
0.0
 11
191.5995531719516
 21
15.81126348721036
 31
0.0
 11
191.3288301341536
 21
15.55645182277756
 31
0.0
 11
191.0119538423247
 21
15.31969466354856
 31
0.0
 11
190.6679957933742
 21
15.11903163191466
 31
0.0
 11
190.6218855341338
 21
15.19126067703553
 31
0.0
 11
190.5636970460348
 21
15.26355586798966
 31
0.0
 11
190.8433040489015
 21
15.41911456961744
 31
0.0
 11
191.1093004621154
 21
15.60601009790404
 31
0.0
 11
191.3499997459746
 21
15.81384496285208
 31
0.0
 11
191.5537153607774
 21
16.03222167446416
 31
0.0
 11
191.7087607668218
 21
16.25074274274287
 31
0.0
 11
191.7363041569865
 21
16.24906789496551
 31
0.0
 11
191.8019845489177
 21
16.24507402718873
 31
0.0
 11
191.8803772747711
 21
16.24030715274547
 31
0.0
 11
191.9460576667023
 21
16.23631328496869
 31
0.0
 11
191.973601056867
 21
16.23463843719133
 31
0.0
  0
SPLINE
  5
AE
102
{ACAD_REACTORS
330
CB
102
}
330
4B
100
AcDbEntity
  8
_U_30EC_U_30A4_U_30E4_U_30FC_1
  6
Continuous
 62
     2
100
AcDbSpline
210
0.0
220
0.0
230
1.0
 70
    11
 71
     3
 72
    91
 73
    87
 74
    85
 42
0.000000001
 43
0.0000000001
 44
0.00000001
 40
0.0
 40
0.0
 40
0.0
 40
0.0
 40
0.0267532254356684
 40
0.0856103386464066
 40
0.144467452199655
 40
0.1712206856618426
 40
0.2039416005642447
 40
0.2955601971652395
 40
0.4362601844616829
 40
0.6162252844507161
 40
0.8256392189704609
 40
1.054685709844402
 40
1.293548478893465
 40
1.532411247938209
 40
1.761457738799474
 40
1.970871673298442
 40
2.150836773256638
 40
2.291536760495471
 40
2.383155356836578
 40
2.415876284101198
 40
2.44262951748784
 40
2.501486630948967
 40
2.560343744424112
 40
2.587096977826383
 40
2.617068194440782
 40
2.699247336755923
 40
2.822032643466236
 40
2.973822353257737
 40
3.143014704823179
 40
3.31800793687973
 40
3.487200288186563
 40
3.638989997548044
 40
3.761775303794514
 40
3.843954445752849
 40
3.873925662229545
 40
3.890812773500252
 40
3.907699884771404
 40
3.937960767856989
 40
3.980983618142132
 40
4.199085915228254
 40
4.439444339237046
 40
4.677588241260717
 40
5.050698317837631
 40
5.448212454763046
 40
5.855291218044514
 40
6.138575438885127
 40
6.417434507584029
 40
6.44455110439371
 40
6.50420761736301
 40
6.563864130314331
 40
6.590980727103924
 40
6.848609460381323
 40
7.1096119906683
 40
7.352910904445963
 40
7.557830220705301
 40
7.587518925913219
 40
7.652834077375638
 40
7.718149228845575
 40
7.747837934061878
 40
7.854880190300835
 40
7.976511257403378
 40
8.36948789659218
 40
8.757514959223444
 40
9.126072419330878
 40
9.460639380391912
 40
9.746695593035625
 40
9.777569943118408
 40
9.807050320931586
 40
9.83037733612871
 40
9.886003295435794
 40
9.952395569429694
 40
10.00802152870605
 40
10.03134854388196
 40
10.21356951009561
 40
10.42203479292852
 40
10.66154556731042
 40
10.9169378956428
 40
11.15832906556541
 40
11.18982674596596
 40
11.27286608520383
 40
11.39026653033322
 40
11.52484752840859
 40
11.65942852648415
 40
11.77682897161453
 40
11.85986831085647
 40
11.89136598230392
 40
11.89136598230392
 40
11.89136598230392
 40
11.89136598230392
 10
190.7027885008197
 20
14.70699600701772
 30
0.0
 10
190.7028237765289
 20
14.71587847311985
 30
0.0
 10
190.7029366710797
 20
14.74430237047346
 30
0.0
 10
190.7012984568489
 20
14.79409639169802
 30
0.0
 10
190.7069750292911
 20
14.83657564478154
 30
0.0
 10
190.6956928731708
 20
14.88730154856846
 30
0.0
 10
190.7632296979033
 20
14.87012900740108
 30
0.0
 10
190.8388029210701
 20
14.88290227165995
 30
0.0
 10
190.9828357056001
 20
14.87629729457381
 30
0.0
 10
191.1569419185428
 20
14.87888462206465
 30
0.0
 10
191.3639599611004
 20
14.87800591955552
 30
0.0
 10
191.5894688172378
 20
14.87828207920026
 30
0.0
 10
191.8251162293406
 20
14.87818339658662
 30
0.0
 10
192.0607640531349
 20
14.87828184412766
 30
0.0
 10
192.2862717580626
 20
14.87800678190788
 30
0.0
 10
192.4932934632805
 20
14.87888186270734
 30
0.0
 10
192.6673888915288
 20
14.87630522678446
 30
0.0
 10
192.8114492071986
 20
14.88288290449212
 30
0.0
 10
192.8869691915292
 20
14.87016243405603
 30
0.0
 10
192.9545776037031
 20
14.88726400191686
 30
0.0
 10
192.9430840140675
 20
14.83674785802939
 30
0.0
 10
192.9505104581733
 20
14.79253252226501
 30
0.0
 10
192.9428838927986
 20
14.7486796650361
 30
0.0
 10
192.9546489459425
 20
14.69878374479329
 30
0.0
 10
192.8930788491983
 20
14.71393227712511
 30
0.0
 10
192.8256791738672
 20
14.70310665350674
 30
0.0
 10
192.7013004056221
 20
14.70852031626236
 30
0.0
 10
192.5554428236571
 20
14.70649205390785
 30
0.0
 10
192.3893576440086
 20
14.70715777578387
 30
0.0
 10
192.2188412621725
 20
14.70689643521242
 30
0.0
 10
192.051979085539
 20
14.70721553391094
 30
0.0
 10
191.9087346827106
 20
14.70635302590762
 30
0.0
 10
191.7773313869835
 20
14.70863300482987
 30
0.0
 10
191.7239859134658
 20
14.70407704374202
 30
0.0
 10
191.6485188456913
 20
14.70999914992877
 30
0.0
 10
191.6769075779233
 20
14.70094169343353
 30
0.0
 10
191.7033652409543
 20
14.69725912268929
 30
0.0
 10
191.6633522907702
 20
14.6665427196827
 30
0.0
 10
191.5713663691868
 20
14.67667591174646
 30
0.0
 10
191.543939620707
 20
14.43032502247781
 30
0.0
 10
191.4478793967235
 20
14.27499558764375
 30
0.0
 10
191.1917277964473
 20
13.94525417931569
 30
0.0
 10
191.7627537732763
 20
14.08430022210452
 30
0.0
 10
192.0173656320516
 20
14.08291779973364
 30
0.0
 10
192.6279647048616
 20
13.99790569242084
 30
0.0
 10
192.3340698578084
 20
14.29685417558209
 30
0.0
 10
192.0133304286517
 20
14.44330856901782
 30
0.0
 10
192.1313543360433
 20
14.50025540818286
 30
0.0
 10
192.1724716466261
 20
14.52420099873348
 30
0.0
 10
192.2156812394411
 20
14.54599758811229
 30
0.0
 10
192.317457409445
 20
14.60928721253902
 30
0.0
 10
192.4328867625248
 20
14.3514715140878
 30
0.0
 10
192.6329591642277
 20
14.21616041113683
 30
0.0
 10
192.7269077387228
 20
14.03792795138884
 30
0.0
 10
192.9558829746393
 20
13.87997821027048
 30
0.0
 10
192.8596031846708
 20
13.829159725763
 30
0.0
 10
192.8167959763779
 20
13.79881292523054
 30
0.0
 10
192.7718243528779
 20
13.77466130281459
 30
0.0
 10
192.7121720925214
 20
13.72552146747568
 30
0.0
 10
192.6789731061324
 20
13.85997475673609
 30
0.0
 10
192.5582013350796
 20
14.0159426528658
 30
0.0
 10
192.1970976005978
 20
13.88569928059556
 30
0.0
 10
191.8385061955541
 20
13.90224694409483
 30
0.0
 10
191.457092045008
 20
13.89331229351864
 30
0.0
 10
191.1703455282893
 20
13.82882671672411
 30
0.0
 10
190.8592055599714
 20
13.94230668192818
 30
0.0
 10
190.8268737818789
 20
13.83122259927766
 30
0.0
 10
190.7896178253318
 20
13.81196313850011
 30
0.0
 10
190.7865737632754
 20
13.85874784087297
 30
0.0
 10
190.7679892860606
 20
13.89806853919134
 30
0.0
 10
190.7512436616779
 20
13.95765983478233
 30
0.0
 10
190.7383730915753
 20
14.00201969871283
 30
0.0
 10
190.7042327806431
 20
14.09106331120201
 30
0.0
 10
190.9482714457754
 20
14.02181042943767
 30
0.0
 10
191.1441394486672
 20
14.00030369057741
 30
0.0
 10
191.2395426381277
 20
14.28226484478462
 30
0.0
 10
191.2945135769597
 20
14.44363045421125
 30
0.0
 10
191.5159619357155
 20
14.71391177589736
 30
0.0
 10
191.3849239381217
 20
14.70548446853735
 30
0.0
 10
191.3110026555854
 20
14.70779008496969
 30
0.0
 10
191.1977459876244
 20
14.70671378321658
 30
0.0
 10
191.0694251807485
 20
14.7070763907651
 30
0.0
 10
190.9404252030416
 20
14.70697724466085
 30
0.0
 10
190.8287840946292
 20
14.70699932712572
 30
0.0
 10
190.7514663970027
 20
14.7069957918967
 30
0.0
 10
190.7132876532011
 20
14.70699595845081
 30
0.0
 10
190.7027885008197
 20
14.70699600701772
 30
0.0
 11
190.7027885008197
 21
14.70699600701772
 31
0.0
 11
190.7027885008197
 21
14.73374924051797
 31
0.0
 11
190.7027885008197
 21
14.79260635421853
 31
0.0
 11
190.7027885008197
 21
14.85146346791909
 31
0.0
 11
190.7027885008197
 21
14.87821670141934
 31
0.0
 11
190.735509428099
 21
14.87821670141934
 31
0.0
 11
190.827128024481
 21
14.87821670141934
 31
0.0
 11
190.967828011782
 21
14.87821670141934
 31
0.0
 11
191.1477931118181
 21
14.87821670141934
 31
0.0
 11
191.3572070464055
 21
14.87821670141934
 31
0.0
 11
191.5862535373605
 21
14.87821670141934
 31
0.0
 11
191.8251163064993
 21
14.87821670141934
 31
0.0
 11
192.0639790756381
 21
14.87821670141934
 31
0.0
 11
192.2930255665931
 21
14.87821670141934
 31
0.0
 11
192.5024395011806
 21
14.87821670141934
 31
0.0
 11
192.6824046012167
 21
14.87821670141934
 31
0.0
 11
192.8231045885176
 21
14.87821670141934
 31
0.0
 11
192.9147231848996
 21
14.87821670141934
 31
0.0
 11
192.9474441121789
 21
14.87821670141934
 31
0.0
 11
192.9474441121789
 21
14.85146346791909
 31
0.0
 11
192.9474441121789
 21
14.79260635421853
 31
0.0
 11
192.9474441121789
 21
14.73374924051797
 31
0.0
 11
192.9474441121789
 21
14.70699600701772
 31
0.0
 11
192.9174728954758
 21
14.70699600701772
 31
0.0
 11
192.8352937529027
 21
14.70699600701772
 31
0.0
 11
192.712508445764
 21
14.70699600701772
 31
0.0
 11
192.5607187353642
 21
14.70699600701772
 31
0.0
 11
192.3915263830078
 21
14.70699600701772
 31
0.0
 11
192.2165331499992
 21
14.70699600701772
 31
0.0
 11
192.0473407976427
 21
14.70699600701772
 31
0.0
 11
191.8955510872429
 21
14.70699600701772
 31
0.0
 11
191.7727657801043
 21
14.70699600701772
 31
0.0
 11
191.6905866375311
 21
14.70699600701772
 31
0.0
 11
191.660615420828
 21
14.70699600701772
 31
0.0
 11
191.6766359412526
 21
14.70165583340794
 31
0.0
 11
191.6926564616772
 21
14.69631565979815
 31
0.0
 11
191.6706155681422
 21
14.67558114591443
 31
0.0
 11
191.6284861855363
 21
14.6668587153611
 31
0.0
 11
191.5365235541378
 21
14.46909247312657
 31
0.0
 11
191.4279078521764
 21
14.25467511978509
 31
0.0
 11
191.3127500824807
 21
14.0462255905162
 31
0.0
 11
191.685736667502
 21
14.05582441253029
 31
0.0
 11
192.0830700036151
 21
14.06781232404995
 31
0.0
 11
192.4899342191145
 21
14.08102711828532
 31
0.0
 11
192.2983119496979
 21
14.28966761302481
 31
0.0
 11
192.0966752013698
 21
14.48229420151832
 31
0.0
 11
192.1204947794749
 21
14.49525327269564
 31
0.0
 11
192.1728978513061
 21
14.52376322928576
 31
0.0
 11
192.2253009231374
 21
14.55227318587587
 31
0.0
 11
192.2491205012425
 21
14.56523225705319
 31
0.0
 11
192.4387101558627
 21
14.39079508370268
 31
0.0
 11
192.6200310940436
 21
14.20305846374091
 31
0.0
 11
192.7777729231148
 21
14.01782380992436
 31
0.0
 11
192.8966252504058
 21
13.85089253500949
 31
0.0
 11
192.8715408217923
 21
13.83501202286069
 31
0.0
 11
192.8163550788425
 21
13.80007489613332
 31
0.0
 11
192.7611693358928
 21
13.76513776940595
 31
0.0
 11
192.7360849072793
 21
13.74925725725715
 31
0.0
 11
192.6775518151612
 21
13.83887824681809
 31
0.0
 11
192.6050015078457
 21
13.93650288221032
 31
0.0
 11
192.2125412924095
 21
13.91636286943759
 31
0.0
 11
191.8249474069561
 21
13.89803302999773
 31
0.0
 11
191.4567378976213
 21
13.88202178722395
 31
0.0
 11
191.1224308105413
 21
13.86883756444947
 31
0.0
 11
190.8365441918519
 21
13.85898878500749
 31
0.0
 11
190.8211862321741
 21
13.83220523466695
 31
0.0
 11
190.7937434290546
 21
13.82143559057245
 31
0.0
 11
190.786792719232
 21
13.84370299445577
 31
0.0
 11
190.7702179496548
 21
13.89680218833139
 31
0.0
 11
190.7504351601596
 21
13.96017864553777
 31
0.0
 11
190.7338603905825
 21
14.01327783941338
 31
0.0
 11
190.7269096807599
 21
14.0355452432967
 31
0.0
 11
190.9091199859153
 21
14.03751638912952
 31
0.0
 11
191.1174975848589
 21
14.04356211829472
 31
0.0
 11
191.2303203127216
 21
14.25483550301554
 31
0.0
 11
191.3407936722035
 21
14.48509813155879
 31
0.0
 11
191.4358254265627
 21
14.70699600701772
 31
0.0
 11
191.4043277461597
 21
14.70699600701772
 31
0.0
 11
191.3212884069153
 21
14.70699600701772
 31
0.0
 11
191.2038879617768
 21
14.70699600701772
 31
0.0
 11
191.0693069636912
 21
14.70699600701772
 31
0.0
 11
190.9347259656056
 21
14.70699600701772
 31
0.0
 11
190.817325520467
 21
14.70699600701772
 31
0.0
 11
190.7342861812227
 21
14.70699600701772
 31
0.0
 11
190.7027885008197
 21
14.70699600701772
 31
0.0
  0
SPLINE
  5
AF
102
{ACAD_REACTORS
330
CC
102
}
330
4B
100
AcDbEntity
  8
_U_30EC_U_30A4_U_30E4_U_30FC_1
  6
Continuous
 62
     2
100
AcDbSpline
210
0.0
220
0.0
230
1.0
 70
    11
 71
     3
 72
   131
 73
   127
 74
   125
 42
0.000000001
 43
0.0000000001
 44
0.00000001
 40
0.0
 40
0.0
 40
0.0
 40
0.0
 40
0.0195577029826184
 40
0.0426490537461523
 40
0.2863607575856397
 40
0.5344948436189375
 40
0.7842238845573273
 40
0.8737315789467438
 40
0.9803832810313167
 40
1.092842274517041
 40
1.199761146656823
 40
1.289788768186553
 40
1.35157358078629
 40
1.370727117561536
 40
1.416400936017962
 40
1.470914848356106
 40
1.516588666791928
 40
1.535742203553009
 40
1.634216592293361
 40
1.760283341175175
 40
1.897966686682237
 40
2.031216387369015
 40
2.049689751138009
 40
2.101115601646945
 40
2.179502577740063
 40
2.278859318314181
 40
2.393194462258838
 40
2.516516648383952
 40
2.642834515406081
 40
2.766156701983586
 40
2.880491846754701
 40
2.979848588358743
 40
3.05823556544392
 40
3.109661416669077
 40
3.128134780704252
 40
3.146783742386569
 40
3.191254343315458
 40
3.244332157316117
 40
3.288802758226049
 40
3.30745171989532
 40
3.327717853844932
 40
3.383747753580294
 40
3.468388665924687
 40
3.574487837698997
 40
3.694892515729101
 40
3.822449946852243
 40
3.950007377920636
 40
4.070412055800729
 40
4.176511227368287
 40
4.261152139501734
 40
4.317182039076927
 40
4.337448172964848
 40
4.620011002696464
 40
4.885096638397643
 40
4.945373043518488
 40
5.014107710488817
 40
5.070481727652163
 40
5.319246955636642
 40
5.584812164506088
 40
5.859000912056917
 40
6.133746937542095
 40
6.401732212968893
 40
6.420736683995484
 40
6.472845717451134
 40
6.550702743894062
 40
6.646951193874271
 40
6.754234497930595
 40
6.865196086587373
 40
6.972479390357831
 40
7.068727839771993
 40
7.146584865451002
 40
7.198693898189232
 40
7.217698368905372
 40
7.234950401630851
 40
7.276089864269897
 40
7.325191803516011
 40
7.3663312660904
 40
7.383583298769752
 40
7.402779163492129
 40
7.45338644325456
 40
7.524934666445562
 40
7.606953361405902
 40
7.688972056429053
 40
7.760520279784304
 40
7.811127559734546
 40
7.830323424546167
 40
7.847844055299797
 40
7.894799345666836
 40
7.962779392744523
 40
8.04337429356057
 40
8.128174145149472
 40
8.208769044817274
 40
8.276749090376974
 40
8.323704379669536
 40
8.341225010056267
 40
8.358497614800415
 40
8.40167912668662
 40
8.457815092185678
 40
8.513951057728082
 40
8.557132569708038
 40
8.574405174505081
 40
8.602340668616424
 40
8.643455660539914
 40
8.663225271966581
 40
8.715345156564226
 40
8.78903188962856
 40
8.873502045520288
 40
8.95797219432391
 40
9.0316589255678
 40
9.083778811234488
 40
9.10354842300295
 40
9.119550083123515
 40
9.160817522379789
 40
9.217244429110183
 40
9.278724491644669
 40
9.335151398295425
 40
9.37641883735772
 40
9.392420497300508
 40
9.4011963027347
 40
9.417494229384122
 40
9.426270027749394
 40
9.440875075477427
 40
9.475702496998606
 40
9.517270709865768
 40
9.552098131993935
 40
9.566703169884143
 40
9.566703169884143
 40
9.566703169884143
 40
9.566703169884143
 10
194.6170254148479
 20
15.67015871511028
 30
0.0
 10
194.6134345093371
 20
15.6645369070216
 30
0.0
 10
194.6056039123624
 20
15.65227754419112
 30
0.0
 10
194.5129968974547
 20
15.61601916040969
 30
0.0
 10
194.4887622233248
 20
15.40148444212712
 30
0.0
 10
194.3858709845938
 20
15.22197284509709
 30
0.0
 10
194.1220492364305
 20
15.03615573798146
 30
0.0
 10
194.284547156918
 20
14.9595933656608
 30
0.0
 10
194.3607225760838
 20
14.89856693195444
 30
0.0
 10
194.4492171072758
 20
14.83515804544758
 30
0.0
 10
194.538993023311
 20
14.77525634219561
 30
0.0
 10
194.5883817636046
 20
14.72102154849206
 30
0.0
 10
194.6745708157384
 20
14.69286240541834
 30
0.0
 10
194.641126067423
 20
14.65713309652812
 30
0.0
 10
194.6214671166312
 20
14.62550387991907
 30
0.0
 10
194.5919888217883
 20
14.58475872796067
 30
0.0
 10
194.5688989446031
 20
14.55504663489645
 30
0.0
 10
194.5380205968357
 20
14.50211422668493
 30
0.0
 10
194.472919336574
 20
14.62740334938901
 30
0.0
 10
194.3796000122415
 20
14.68213900233935
 30
0.0
 10
194.295063628514
 20
14.73916423939341
 30
0.0
 10
194.1722498125743
 20
14.89675287427522
 30
0.0
 10
194.1764450847302
 20
14.82035806766836
 30
0.0
 10
194.1751478652678
 20
14.77361280161296
 30
0.0
 10
194.1758126448078
 20
14.69584785812601
 30
0.0
 10
194.1755549986958
 20
14.59902068324423
 30
0.0
 10
194.1756431239922
 20
14.48650279078809
 30
0.0
 10
194.1756077302282
 20
14.36524085945699
 30
0.0
 10
194.175651175828
 20
14.24086897858961
 30
0.0
 10
194.1755199942406
 20
14.11967683631335
 30
0.0
 10
194.1759477562047
 20
14.00691148919743
 30
0.0
 10
194.1746678202311
 20
13.91082913768744
 30
0.0
 10
194.1779759851044
 20
13.83113826468699
 30
0.0
 10
194.1715197740087
 20
13.78815175788783
 30
0.0
 10
194.1806208705557
 20
13.74955432372042
 30
0.0
 10
194.1447910339936
 20
13.7581088772407
 30
0.0
 10
194.1115223815253
 20
13.75342519985445
 30
0.0
 10
194.0604562576041
 20
13.75351298759783
 30
0.0
 10
194.0269723972813
 20
13.75794430283821
 30
0.0
 10
193.9907585408754
 20
13.74960793842508
 30
0.0
 10
194.0009782568665
 20
13.79145277179284
 30
0.0
 10
193.9936487887774
 20
13.83778560820173
 30
0.0
 10
193.9973633136102
 20
13.92374831106014
 30
0.0
 10
193.9959480554896
 20
14.02605142704848
 30
0.0
 10
193.9964105554638
 20
14.14453223931511
 30
0.0
 10
193.996277368623
 20
14.26957683153356
 30
0.0
 10
193.9963015910045
 20
14.3947582810705
 30
0.0
 10
193.9963354925552
 20
14.51286645379058
 30
0.0
 10
193.9962060293131
 20
14.61628748709516
 30
0.0
 10
193.9965507549081
 20
14.69932036153667
 30
0.0
 10
193.995869827869
 20
14.75143368521243
 30
0.0
 10
193.9994586600624
 20
14.87912907821364
 30
0.0
 10
193.7826171386436
 20
14.58048716819624
 30
0.0
 10
193.6021354921953
 20
14.3526398151152
 30
0.0
 10
193.5490322295611
 20
14.49373443289814
 30
0.0
 10
193.5200429133149
 20
14.54325767560941
 30
0.0
 10
193.4196648062822
 20
14.64641779790113
 30
0.0
 10
193.7405127723262
 20
14.72695035023778
 30
0.0
 10
193.868989700543
 20
14.91066283036436
 30
0.0
 10
194.0906454325359
 20
15.11931995771763
 30
0.0
 10
194.1770224894068
 20
15.29339211228343
 30
0.0
 10
194.4549394229076
 20
15.56967051342512
 30
0.0
 10
194.3346247839283
 20
15.56534559551113
 30
0.0
 10
194.2863197351349
 20
15.56614856202552
 30
0.0
 10
194.2102377454905
 20
15.56574582146583
 30
0.0
 10
194.116701000975
 20
15.56590275611608
 30
0.0
 10
194.0117594788557
 20
15.56582502576223
 30
0.0
 10
193.9033887738717
 20
15.56595464378553
 30
0.0
 10
193.7981454235897
 20
15.56554393490691
 30
0.0
 10
193.7056237819412
 20
15.5668207367159
 30
0.0
 10
193.6268130800707
 20
15.56340766534849
 30
0.0
 10
193.5839674565379
 20
15.57023350036319
 30
0.0
 10
193.5449499586515
 20
15.56065064201123
 30
0.0
 10
193.5526365271864
 20
15.59420779565542
 30
0.0
 10
193.5485464404312
 20
15.62523550322232
 30
0.0
 10
193.5485531368814
 20
15.672365292709
 30
0.0
 10
193.5526239724912
 20
15.70340941646779
 30
0.0
 10
193.5449495574582
 20
15.73701861635901
 30
0.0
 10
193.5834819405494
 20
15.72748410420872
 30
0.0
 10
193.624122801448
 20
15.73397435498071
 30
0.0
 10
193.6951471850463
 20
15.73100150650254
 30
0.0
 10
193.7729318149633
 20
15.73174761399158
 30
0.0
 10
193.8507292246474
 20
15.73247814044525
 30
0.0
 10
193.9217232089907
 20
15.7295423551416
 30
0.0
 10
193.962427979182
 20
15.73595468772952
 30
0.0
 10
194.000985348991
 20
15.72650524176004
 30
0.0
 10
193.9927342754927
 20
15.76264692158784
 30
0.0
 10
193.9982346669358
 20
15.80129837613226
 30
0.0
 10
193.9955754206164
 20
15.86913528561839
 30
0.0
 10
193.9965815471532
 20
15.94591641538739
 30
0.0
 10
193.9960178018319
 20
16.02849393582756
 30
0.0
 10
193.9970714526592
 20
16.10517329229877
 30
0.0
 10
193.994267586313
 20
16.17331990776699
 30
0.0
 10
194.0000702721303
 20
16.21132399809345
 30
0.0
 10
193.9915654551159
 20
16.24758448077645
 30
0.0
 10
194.0255610233125
 20
16.23755723771851
 30
0.0
 10
194.0594575683099
 20
16.24073266813706
 30
0.0
 10
194.1126669060346
 20
16.23508965640608
 30
0.0
 10
194.1660768574483
 20
16.23434774436424
 30
0.0
 10
194.1995914649491
 20
16.22819223482978
 30
0.0
 10
194.2388086183039
 20
16.23346029773592
 30
0.0
 10
194.2120263698492
 20
16.19253380793491
 30
0.0
 10
194.1708111001724
 20
16.20371204538107
 30
0.0
 10
194.1782641540875
 20
16.15867056192123
 30
0.0
 10
194.1742227952185
 20
16.11412278028143
 30
0.0
 10
194.1761714049641
 20
16.04223572621702
 30
0.0
 10
194.175236484976
 20
15.9616863058877
 30
0.0
 10
194.176510719003
 20
15.88173995404994
 30
0.0
 10
194.1732043793865
 20
15.80841837083183
 30
0.0
 10
194.1802106179962
 20
15.76688643002568
 30
0.0
 10
194.1701440380126
 20
15.72752418568112
 30
0.0
 10
194.2029814803922
 20
15.73468063430981
 30
0.0
 10
194.2364577296481
 20
15.73027243137944
 30
0.0
 10
194.2915053476019
 20
15.73217943347897
 30
0.0
 10
194.3489502595316
 20
15.73185366407289
 30
0.0
 10
194.402302624831
 20
15.73106308733081
 30
0.0
 10
194.4398540896639
 20
15.73313959118074
 30
0.0
 10
194.4623172523238
 20
15.73022338167108
 30
0.0
 10
194.4751678073731
 20
15.73572552644056
 30
0.0
 10
194.4858255685888
 20
15.73801118197791
 30
0.0
 10
194.4986635650144
 20
15.74494972588053
 30
0.0
 10
194.514599103307
 20
15.72853046313672
 30
0.0
 10
194.5410623920892
 20
15.71709122319449
 30
0.0
 10
194.5726805253757
 20
15.6964468783519
 30
0.0
 10
194.5987255892151
 20
15.68116869628295
 30
0.0
 10
194.6128517723973
 20
15.67266976323184
 30
0.0
 10
194.6170254148479
 20
15.67015871511028
 30
0.0
 11
194.6170254148479
 21
15.67015871511028
 31
0.0
 11
194.6049990002243
 21
15.65473571164188
 31
0.0
 11
194.5848961795565
 21
15.64337406233917
 31
0.0
 11
194.4778986355814
 21
15.42440620231159
 31
0.0
 11
194.3477039934324
 21
15.21317201512161
 31
0.0
 11
194.1996540366071
 21
15.01206059027479
 31
0.0
 11
194.2734958253735
 21
14.96147384935379
 31
0.0
 11
194.36056643118
 21
14.89988411653739
 31
0.0
 11
194.4518003750404
 21
14.83413160594426
 31
0.0
 11
194.5381321779688
 21
14.77105653169304
 31
0.0
 11
194.6104963609788
 21
14.71749910790242
 31
0.0
 11
194.6598274450844
 21
14.68029954869104
 31
0.0
 11
194.6486940702214
 21
14.66471410869494
 31
0.0
 11
194.6221452532403
 21
14.62754882870424
 31
0.0
 11
194.5904579555533
 21
14.58319026871533
 31
0.0
 11
194.5639091385723
 21
14.54602498872462
 31
0.0
 11
194.5527757637093
 21
14.53043954872852
 31
0.0
 11
194.4807013362947
 21
14.59754008690618
 31
0.0
 11
194.3852856985381
 21
14.67993354174669
 31
0.0
 11
194.279326415217
 21
14.76785017366916
 31
0.0
 11
194.1756210511091
 21
14.85152024309267
 31
0.0
 11
194.1756210511091
 21
14.83304687900863
 31
0.0
 11
194.1756210511091
 21
14.78162102763955
 31
0.0
 11
194.1756210511091
 21
14.70323405030999
 31
0.0
 11
194.1756210511091
 21
14.60387730834448
 31
0.0
 11
194.1756210511091
 21
14.4895421630676
 31
0.0
 11
194.1756210511091
 21
14.36621997580389
 31
0.0
 11
194.1756210511091
 21
14.2399021078779
 31
0.0
 11
194.1756210511091
 21
14.11657992061418
 31
0.0
 11
194.1756210511091
 21
14.0022447753373
 31
0.0
 11
194.1756210511091
 21
13.9028880333718
 31
0.0
 11
194.1756210511091
 21
13.82450105604223
 31
0.0
 11
194.1756210511091
 21
13.77307520467315
 31
0.0
 11
194.1756210511091
 21
13.75460184058911
 31
0.0
 11
194.1569720893627
 21
13.75460184058911
 31
0.0
 11
194.112501488275
 21
13.75460184058911
 31
0.0
 11
194.0594236740736
 21
13.75460184058911
 31
0.0
 11
194.0149530729859
 21
13.75460184058911
 31
0.0
 11
193.9963041112395
 21
13.75460184058911
 31
0.0
 11
193.9963041112395
 21
13.77486797460218
 31
0.0
 11
193.9963041112395
 21
13.83089787452066
 31
0.0
 11
193.9963041112395
 21
13.91553878716347
 31
0.0
 11
193.9963041112395
 21
14.02163795934953
 31
0.0
 11
193.9963041112395
 21
14.14204263789775
 31
0.0
 11
193.9963041112395
 21
14.26960006962705
 31
0.0
 11
193.9963041112395
 21
14.39715750135636
 31
0.0
 11
193.9963041112395
 21
14.51756217990458
 31
0.0
 11
193.9963041112395
 21
14.62366135209064
 31
0.0
 11
193.9963041112395
 21
14.70830226473345
 31
0.0
 11
193.9963041112395
 21
14.76433216465193
 31
0.0
 11
193.9963041112395
 21
14.784598298665
 31
0.0
 11
193.7883272849481
 21
14.59331998274057
 31
0.0
 11
193.5763486358426
 21
14.43414885430811
 31
0.0
 11
193.5495629014483
 21
14.48814671952095
 31
0.0
 11
193.5138765415024
 21
14.54689140572027
 31
0.0
 11
193.4799697494125
 21
14.59192871537977
 31
0.0
 11
193.6830287742319
 21
14.73563387201055
 31
0.0
 11
193.881853195826
 21
14.91168423529989
 31
0.0
 11
194.0677041444178
 21
15.1132751452495
 31
0.0
 11
194.2318427502303
 21
15.33360194186108
 31
0.0
 11
194.3655301434864
 21
15.56585996513634
 31
0.0
 11
194.3465256724482
 21
15.56585996513634
 31
0.0
 11
194.2944166389562
 21
15.56585996513634
 31
0.0
 11
194.2165596124447
 21
15.56585996513634
 31
0.0
 11
194.1203111623478
 21
15.56585996513634
 31
0.0
 11
194.0130278580997
 21
15.56585996513634
 31
0.0
 11
193.9020662691345
 21
15.56585996513634
 31
0.0
 11
193.7947829648864
 21
15.56585996513634
 31
0.0
 11
193.6985345147895
 21
15.56585996513634
 31
0.0
 11
193.620677488278
 21
15.56585996513634
 31
0.0
 11
193.568568454786
 21
15.56585996513634
 31
0.0
 11
193.5495639837478
 21
15.56585996513634
 31
0.0
 11
193.5495639837478
 21
15.58311199790981
 31
0.0
 11
193.5495639837478
 21
15.62425146067731
 31
0.0
 11
193.5495639837478
 21
15.67335340010949
 31
0.0
 11
193.5495639837478
 21
15.71449286287698
 31
0.0
 11
193.5495639837478
 21
15.73174489565045
 31
0.0
 11
193.5687598486009
 21
15.73174489565045
 31
0.0
 11
193.6193671286684
 21
15.73174489565045
 31
0.0
 11
193.690915352212
 21
15.73174489565045
 31
0.0
 11
193.7729340474937
 21
15.73174489565045
 31
0.0
 11
193.8549527427753
 21
15.73174489565045
 31
0.0
 11
193.9265009663189
 21
15.73174489565045
 31
0.0
 11
193.9771082463864
 21
15.73174489565045
 31
0.0
 11
193.9963041112395
 21
15.73174489565045
 31
0.0
 11
193.9963041112395
 21
15.74926552655218
 31
0.0
 11
193.9963041112395
 21
15.79622081736882
 31
0.0
 11
193.9963041112395
 21
15.86420086526753
 31
0.0
 11
193.9963041112395
 21
15.94479576741548
 31
0.0
 11
193.9963041112395
 21
16.02959562097985
 31
0.0
 11
193.9963041112395
 21
16.11019052312781
 31
0.0
 11
193.9963041112395
 21
16.17817057102652
 31
0.0
 11
193.9963041112395
 21
16.22512586184316
 31
0.0
 11
193.9963041112395
 21
16.24264649274489
 31
0.0
 11
194.0135484112111
 21
16.24165806167518
 31
0.0
 11
194.0566591611401
 21
16.2391869840009
 31
0.0
 11
194.1127031360477
 21
16.23597458302434
 31
0.0
 11
194.1687471109553
 21
16.23276218204779
 31
0.0
 11
194.2118578608843
 21
16.23029110437351
 31
0.0
 11
194.2291021608559
 21
16.2293026733038
 31
0.0
 11
194.2143774674851
 21
16.20556293372639
 31
0.0
 11
194.1756210511091
 21
16.19183767331311
 31
0.0
 11
194.1756210511091
 21
16.17206806177292
 31
0.0
 11
194.1756210511091
 21
16.11994817680332
 31
0.0
 11
194.1756210511091
 21
16.04626144288078
 31
0.0
 11
194.1756210511091
 21
15.96179128448178
 31
0.0
 11
194.1756210511091
 21
15.87732112608278
 31
0.0
 11
194.1756210511091
 21
15.80363439216024
 31
0.0
 11
194.1756210511091
 21
15.75151450719064
 31
0.0
 11
194.1756210511091
 21
15.73174489565045
 31
0.0
 11
194.1916227112937
 21
15.73174489565045
 31
0.0
 11
194.2328901507171
 21
15.73174489565045
 31
0.0
 11
194.2893170576838
 21
15.73174489565045
 31
0.0
 11
194.3507971204982
 21
15.73174489565045
 31
0.0
 11
194.4072240274649
 21
15.73174489565045
 31
0.0
 11
194.4484914668883
 21
15.73174489565045
 31
0.0
 11
194.4644931270729
 21
15.73174489565045
 31
0.0
 11
194.4728206422925
 21
15.73451387455921
 31
0.0
 11
194.4882860277004
 21
15.73965626396118
 31
0.0
 11
194.49661354292
 21
15.74242524286994
 31
0.0
 11
194.5091363776005
 21
15.73490952398294
 31
0.0
 11
194.5389985218386
 21
15.71698742509854
 31
0.0
 11
194.5746404359293
 21
15.69559653288168
 31
0.0
 11
194.6045025801674
 21
15.67767443399729
 31
0.0
 11
194.6170254148479
 21
15.67015871511028
 31
0.0
  0
SPLINE
  5
B0
102
{ACAD_REACTORS
330
CD
102
}
330
4B
100
AcDbEntity
  8
_U_30EC_U_30A4_U_30E4_U_30FC_1
  6
Continuous
 62
     2
100
AcDbSpline
210
0.0
220
0.0
230
1.0
 70
    11
 71
     3
 72
   124
 73
   120
 74
   118
 42
0.000000001
 43
0.0000000001
 44
0.00000001
 40
0.0
 40
0.0
 40
0.0
 40
0.0
 40
0.0278187229624226
 40
0.1011590162383985
 40
0.2048470170589954
 40
0.3237088716558677
 40
0.4425707262521431
 40
0.5462587270698694
 40
0.6195990203311229
 40
0.6474177522577808
 40
0.6750060736114372
 40
0.7357003855241906
 40
0.7963946998053639
 40
0.8239830245570932
 40
0.8540933811102025
 40
0.9373396629408706
 40
1.063094687343123
 40
1.220731268637961
 40
1.399622220914636
 40
1.58914035863762
 40
1.77865849642373
 40
1.957549448940368
 40
2.11518603087299
 40
2.240941056914294
 40
2.324187341760363
 40
2.354297700109213
 40
2.38188602467172
 40
2.442580338710308
 40
2.503274652750332
 40
2.530862977314439
 40
2.560983949278392
 40
2.640393784452738
 40
2.752662861758961
 40
2.881361560117949
 40
3.010060258454996
 40
3.1223293357052
 40
3.201739170817757
 40
3.231860142753146
 40
3.264298024030201
 40
3.352343701778074
 40
3.482095226868597
 40
3.639650650172855
 40
3.811108022565311
 40
3.982565394927817
 40
4.140120818152398
 40
4.269872343141109
 40
4.35791802080217
 40
4.390355902043798
 40
4.423256253992368
 40
4.508104530072861
 40
4.624121560636628
 40
4.750528176031357
 40
4.866545206601832
 40
4.951393482691789
 40
4.98429383464519
 40
5.011450833242105
 40
5.07119623015189
 40
5.130941627056969
 40
5.158098625648633
 40
5.190998977601295
 40
5.275847253689121
 40
5.391864284256584
 40
5.5182708996481
 40
5.634287930209111
 40
5.719136206287785
 40
5.752036558235701
 40
5.782130946282726
 40
5.862783906228901
 40
5.979550131774768
 40
6.117984316640174
 40
6.263641154587719
 40
6.402075339413925
 40
6.51884156490772
 40
6.599494524815301
 40
6.629588912848539
 40
6.654403028226115
 40
6.713575149487854
 40
6.784199939329171
 40
6.843372060493216
 40
6.868186175802462
 40
6.896246243201542
 40
6.939586233757858
 40
6.967846564564486
 40
7.043584251089424
 40
7.153234334451282
 40
7.283231855734032
 40
7.420011856035066
 40
7.550009376579418
 40
7.659659458834817
 40
7.73539714441681
 40
7.763657474850982
 40
7.796409728010639
 40
7.880876065095913
 40
7.996370852465299
 40
8.122208446418194
 40
8.237703224798787
 40
8.32216956201051
 40
8.354921815205495
 40
8.382078813307276
 40
8.441824209206581
 40
8.501569605239732
 40
8.52872660348531
 40
8.56147885669533
 40
8.645945193877381
 40
8.761439980864921
 40
8.887277580764064
 40
9.002772362000584
 40
9.087238696660776
 40
9.119990949235259
 40
9.152428830612958
 40
9.240474508638174
 40
9.370226034149123
 40
9.527781457984005
 40
9.699238830980995
 40
9.870696203978184
 40
10.0282516278136
 40
10.15800315332522
 40
10.24604883135077
 40
10.2784867037848
 40
10.2784867037848
 40
10.2784867037848
 40
10.2784867037848
 10
195.3821827564384
 20
14.01410517385757
 30
0.0
 10
195.3914554737524
 20
14.01410498511274
 30
0.0
 10
195.4251744536861
 20
14.01410430876714
 30
0.0
 10
195.4934706812466
 20
14.01411807243305
 30
0.0
 10
195.592014171158
 20
14.01403224219544
 30
0.0
 10
195.7062066464812
 20
14.01441755612251
 30
0.0
 10
195.8185894417071
 20
14.01300835897545
 30
0.0
 10
195.9214376600119
 20
14.01719117422243
 30
0.0
 10
195.9806839874848
 20
14.00823089251983
 30
0.0
 10
196.0371265937033
 20
14.0216443452606
 30
0.0
 10
196.0246255586955
 20
13.97087198613361
 30
0.0
 10
196.0329549635703
 20
13.92589320939067
 30
0.0
 10
196.024817084112
 20
13.88056752990488
 30
0.0
 10
196.0370529214457
 20
13.82931932408466
 30
0.0
 10
195.9747773490333
 20
13.84447955365276
 30
0.0
 10
195.9060513026868
 20
13.83359750710743
 30
0.0
 10
195.7782756749592
 20
13.83911304747972
 30
0.0
 10
195.6262984511643
 20
13.83700851253698
 30
0.0
 10
195.4502695972523
 20
13.83771002588473
 30
0.0
 10
195.2644431934287
 20
13.83745237531291
 30
0.0
 10
195.0786167437176
 20
13.83771005144603
 30
0.0
 10
194.9025880142169
 20
13.83700841847731
 30
0.0
 10
194.7506104154195
 20
13.83911332229988
 30
0.0
 10
194.6228357664555
 20
13.8335968076764
 30
0.0
 10
194.5541077836581
 20
13.84448077125942
 30
0.0
 10
194.4918349042884
 20
13.82931786684209
 30
0.0
 10
194.5040616290018
 20
13.88057510805171
 30
0.0
 10
194.4960004462598
 20
13.92582473272425
 30
0.0
 10
194.5040675809893
 20
13.97106357955323
 30
0.0
 10
194.4918238487084
 20
14.02234176909958
 30
0.0
 10
194.5525017120699
 20
14.00749577363134
 30
0.0
 10
194.6162810745737
 20
14.01756448170735
 30
0.0
 10
194.7277314353503
 20
14.01294644211999
 30
0.0
 10
194.8497533443824
 20
14.01413328905469
 30
0.0
 10
194.9719538137824
 20
14.01515863900635
 30
0.0
 10
195.0829794287392
 20
14.01092475623402
 30
0.0
 10
195.1476517413959
 20
14.02018584521739
 30
0.0
 10
195.2091162810502
 20
14.00604423049682
 30
0.0
 10
195.1930065601337
 20
14.07235527884516
 30
0.0
 10
195.204298032736
 20
14.14447790121976
 30
0.0
 10
195.1987400822561
 20
14.27513760888286
 30
0.0
 10
195.2008035061691
 20
14.42607323708241
 30
0.0
 10
195.2000167127295
 20
14.59335873107886
 30
0.0
 10
195.2007845215628
 20
14.76061110332302
 30
0.0
 10
195.198803878563
 20
14.91163289269914
 30
0.0
 10
195.2041306156621
 20
15.04206069552994
 30
0.0
 10
195.1933101388426
 20
15.11465442605899
 30
0.0
 10
195.2090326429876
 20
15.18150469436798
 30
0.0
 10
195.1432708132492
 20
15.16580512490825
 30
0.0
 10
195.0756367830764
 20
15.17609243083995
 30
0.0
 10
194.9615885293811
 20
15.17113786847122
 30
0.0
 10
194.8451242674903
 20
15.17414128030475
 30
0.0
 10
194.7306554121478
 20
15.16880303143389
 30
0.0
 10
194.6640324657813
 20
15.18001268074824
 30
0.0
 10
194.5990769715186
 20
15.16349132665011
 30
0.0
 10
194.610798975871
 20
15.21473720477059
 30
0.0
 10
194.6032830189121
 20
15.2595033378409
 30
0.0
 10
194.6107989878837
 20
15.30426944897961
 30
0.0
 10
194.5990769505347
 20
15.3555153612974
 30
0.0
 10
194.6640326339201
 20
15.33899381766816
 30
0.0
 10
194.7306533339821
 20
15.35020571373943
 30
0.0
 10
194.8451352858065
 20
15.34485436710665
 30
0.0
 10
194.9615454436963
 20
15.34791188771117
 30
0.0
 10
195.0757660174641
 20
15.34278499010708
 30
0.0
 10
195.1430150439228
 20
15.35345733355599
 30
0.0
 10
195.2083325941439
 20
15.33742082669076
 30
0.0
 10
195.1941391448553
 20
15.39949685750054
 30
0.0
 10
195.2036059462996
 20
15.46586761628762
 30
0.0
 10
195.1990269004085
 20
15.58239972741966
 30
0.0
 10
195.2007696555949
 20
15.71426685022376
 30
0.0
 10
195.1997551495392
 20
15.85615960150273
 30
0.0
 10
195.2017191344372
 20
15.9876905070258
 30
0.0
 10
195.1964668553852
 20
16.10524577283002
 30
0.0
 10
195.2073408763475
 20
16.16947789001584
 30
0.0
 10
195.1919536641854
 20
16.23108802545047
 30
0.0
 10
195.2407591537801
 20
16.21702407382111
 30
0.0
 10
195.2853995564726
 20
16.21954742075314
 30
0.0
 10
195.3538643946741
 20
16.21512797401709
 30
0.0
 10
195.3959106169103
 20
16.20613025544035
 30
0.0
 10
195.4487544758775
 20
16.2141171486651
 30
0.0
 10
195.4207035002014
 20
16.17113917611677
 30
0.0
 10
195.3749142248595
 20
16.18259552043834
 30
0.0
 10
195.3869539073265
 20
16.12173520005136
 30
0.0
 10
195.3796086070643
 20
16.05769299468773
 30
0.0
 10
195.3831195826162
 20
15.94909368863911
 30
0.0
 10
195.3819806760175
 20
15.82494319144753
 30
0.0
 10
195.3819174780263
 20
15.69189719829878
 30
0.0
 10
195.3832872966868
 20
15.56797381249555
 30
0.0
 10
195.3791638801314
 20
15.45868337849339
 30
0.0
 10
195.3877763103565
 20
15.3960858009417
 30
0.0
 10
195.3746757454402
 20
15.33740133296365
 30
0.0
 10
195.4393884328199
 20
15.35362113810902
 30
0.0
 10
195.5060405953157
 20
15.34270260383311
 30
0.0
 10
195.6198779541103
 20
15.34793740173756
 30
0.0
 10
195.7357259122097
 20
15.34485547516913
 30
0.0
 10
195.8496924263281
 20
15.35018259812513
 30
0.0
 10
195.9160341018099
 20
15.33904208166542
 30
0.0
 10
195.9807188525481
 20
15.35546979593177
 30
0.0
 10
195.9689820772723
 20
15.3042592521005
 30
0.0
 10
195.9765168063042
 20
15.25950334121001
 30
0.0
 10
195.9689820992259
 20
15.21474739010027
 30
0.0
 10
195.9807188140737
 20
15.16353690871041
 30
0.0
 10
195.9160344075253
 20
15.1799642779422
 30
0.0
 10
195.8496886430826
 20
15.1688278444727
 30
0.0
 10
195.7357459487013
 20
15.1741311589312
 30
0.0
 10
195.6197995623055
 20
15.17114764593544
 30
0.0
 10
195.5062756882124
 20
15.17606892268393
 30
0.0
 10
195.4389231318805
 20
15.1658508751352
 30
0.0
 10
195.3734285122496
 20
15.18145996138816
 30
0.0
 10
195.3891713619218
 20
15.11463851827411
 30
0.0
 10
195.3783275998215
 20
15.04207057815878
 30
0.0
 10
195.3836581629792
 20
14.91162247614416
 30
0.0
 10
195.3817136151857
 20
14.76064558185226
 30
0.0
 10
195.3823133683214
 20
14.59322243934158
 30
0.0
 10
195.3821506559606
 20
14.42656176118371
 30
0.0
 10
195.3821895488135
 20
14.27360142921636
 30
0.0
 10
195.38218164131
 20
14.14849178985705
 30
0.0
 10
195.3821828382745
 20
14.0650789099142
 30
0.0
 10
195.3821827716209
 20
14.02491778281976
 30
0.0
 10
195.3821827564384
 20
14.01410517385757
 30
0.0
 11
195.3821827564384
 21
14.01410517385757
 31
0.0
 11
195.4100014883675
 21
14.01410517385757
 31
0.0
 11
195.4833417816353
 21
14.01410517385757
 31
0.0
 11
195.5870297824623
 21
14.01410517385757
 31
0.0
 11
195.7058916370687
 21
14.01410517385757
 31
0.0
 11
195.8247534916752
 21
14.01410517385757
 31
0.0
 11
195.928441492502
 21
14.01410517385757
 31
0.0
 11
196.0017817857699
 21
14.01410517385757
 31
0.0
 11
196.029600517699
 21
14.01410517385757
 31
0.0
 11
196.029600517699
 21
13.9865168492117
 31
0.0
 11
196.029600517699
 21
13.92582253499077
 31
0.0
 11
196.029600517699
 21
13.86512822076984
 31
0.0
 11
196.029600517699
 21
13.83753989612397
 31
0.0
 11
195.9994901593494
 21
13.83753989612397
 31
0.0
 11
195.9162438745004
 21
13.83753989612397
 31
0.0
 11
195.7904888484521
 21
13.83753989612397
 31
0.0
 11
195.6328522665042
 21
13.83753989612397
 31
0.0
 11
195.4539613139565
 21
13.83753989612397
 31
0.0
 11
195.2644431761089
 21
13.83753989612397
 31
0.0
 11
195.0749250382613
 21
13.83753989612397
 31
0.0
 11
194.8960340857137
 21
13.83753989612397
 31
0.0
 11
194.7383975037657
 21
13.83753989612397
 31
0.0
 11
194.6126424777173
 21
13.83753989612397
 31
0.0
 11
194.5293961928684
 21
13.83753989612397
 31
0.0
 11
194.4992858345188
 21
13.83753989612397
 31
0.0
 11
194.4992858345188
 21
13.86512822076984
 31
0.0
 11
194.4992858345188
 21
13.92582253499077
 31
0.0
 11
194.4992858345188
 21
13.9865168492117
 31
0.0
 11
194.4992858345188
 21
14.01410517385757
 31
0.0
 11
194.5294068064948
 21
14.01410517385757
 31
0.0
 11
194.6088166417041
 21
14.01410517385757
 31
0.0
 11
194.7210857190691
 21
14.01410517385757
 31
0.0
 11
194.8497844175118
 21
14.01410517385757
 31
0.0
 11
194.9784831159546
 21
14.01410517385757
 31
0.0
 11
195.0907521933196
 21
14.01410517385757
 31
0.0
 11
195.1701620285289
 21
14.01410517385757
 31
0.0
 11
195.2002830005049
 21
14.01410517385757
 31
0.0
 11
195.2002830005049
 21
14.04654305523835
 31
0.0
 11
195.2002830005049
 21
14.1345887332719
 31
0.0
 11
195.2002830005049
 21
14.26434025879503
 31
0.0
 11
195.2002830005049
 21
14.42189568264454
 31
0.0
 11
195.2002830005049
 21
14.59335305565724
 31
0.0
 11
195.2002830005049
 21
14.76481042866994
 31
0.0
 11
195.2002830005049
 21
14.92236585251944
 31
0.0
 11
195.2002830005049
 21
15.05211737804257
 31
0.0
 11
195.2002830005049
 21
15.14016305607612
 31
0.0
 11
195.2002830005049
 21
15.1726009374569
 31
0.0
 11
195.1673826485529
 21
15.1726009374569
 31
0.0
 11
195.0825343724663
 21
15.1726009374569
 31
0.0
 11
194.9665173418989
 21
15.1726009374569
 31
0.0
 11
194.8401107265045
 21
15.1726009374569
 31
0.0
 11
194.7240936959371
 21
15.1726009374569
 31
0.0
 11
194.6392454198505
 21
15.1726009374569
 31
0.0
 11
194.6063450678985
 21
15.1726009374569
 31
0.0
 11
194.6063450678985
 21
15.19975793614802
 31
0.0
 11
194.6063450678985
 21
15.2595033332685
 31
0.0
 11
194.6063450678985
 21
15.31924873038898
 31
0.0
 11
194.6063450678985
 21
15.3464057290801
 31
0.0
 11
194.6392454198505
 21
15.3464057290801
 31
0.0
 11
194.7240936959371
 21
15.3464057290801
 31
0.0
 11
194.8401107265045
 21
15.3464057290801
 31
0.0
 11
194.9665173418989
 21
15.3464057290801
 31
0.0
 11
195.0825343724663
 21
15.3464057290801
 31
0.0
 11
195.1673826485529
 21
15.3464057290801
 31
0.0
 11
195.2002830005049
 21
15.3464057290801
 31
0.0
 11
195.2002830005049
 21
15.3765001173137
 31
0.0
 11
195.2002830005049
 21
15.45715307777974
 31
0.0
 11
195.2002830005049
 21
15.57391930412609
 31
0.0
 11
195.2002830005049
 21
15.71235349000063
 31
0.0
 11
195.2002830005049
 21
15.85801032905124
 31
0.0
 11
195.2002830005049
 21
15.99644451492578
 31
0.0
 11
195.2002830005049
 21
16.11321074127214
 31
0.0
 11
195.2002830005049
 21
16.19386370173817
 31
0.0
 11
195.2002830005049
 21
16.22395808997177
 31
0.0
 11
195.2250405288619
 21
16.22228324219442
 31
0.0
 11
195.284077711867
 21
16.21828937441765
 31
0.0
 11
195.3545414464215
 21
16.21352249997441
 31
0.0
 11
195.4135786294265
 21
16.20952863219765
 31
0.0
 11
195.4383361577835
 21
16.20785378442029
 31
0.0
 11
195.423306722403
 21
16.1841581420651
 31
0.0
 11
195.3821827564384
 21
16.17047697887404
 31
0.0
 11
195.3821827564384
 21
16.14221664794832
 31
0.0
 11
195.3821827564384
 21
16.0664789610674
 31
0.0
 11
195.3821827564384
 21
15.95682887707561
 31
0.0
 11
195.3821827564384
 21
15.82683135481731
 31
0.0
 11
195.3821827564384
 21
15.69005135313683
 31
0.0
 11
195.3821827564384
 21
15.56005383087853
 31
0.0
 11
195.3821827564384
 21
15.45040374688674
 31
0.0
 11
195.3821827564384
 21
15.37466606000582
 31
0.0
 11
195.3821827564384
 21
15.3464057290801
 31
0.0
 11
195.4149350096116
 21
15.3464057290801
 31
0.0
 11
195.4994013467423
 21
15.3464057290801
 31
0.0
 11
195.6148961342477
 21
15.3464057290801
 31
0.0
 11
195.7407337385446
 21
15.3464057290801
 31
0.0
 11
195.8562285260499
 21
15.3464057290801
 31
0.0
 11
195.9406948631807
 21
15.3464057290801
 31
0.0
 11
195.9734471163539
 21
15.3464057290801
 31
0.0
 11
195.9734471163539
 21
15.31924873038898
 31
0.0
 11
195.9734471163539
 21
15.2595033332685
 31
0.0
 11
195.9734471163539
 21
15.19975793614802
 31
0.0
 11
195.9734471163539
 21
15.1726009374569
 31
0.0
 11
195.9406948631807
 21
15.1726009374569
 31
0.0
 11
195.85622852605
 21
15.1726009374569
 31
0.0
 11
195.7407337385446
 21
15.1726009374569
 31
0.0
 11
195.6148961342477
 21
15.1726009374569
 31
0.0
 11
195.4994013467423
 21
15.1726009374569
 31
0.0
 11
195.4149350096116
 21
15.1726009374569
 31
0.0
 11
195.3821827564384
 21
15.1726009374569
 31
0.0
 11
195.3821827564384
 21
15.14016305607612
 31
0.0
 11
195.3821827564384
 21
15.05211737804257
 31
0.0
 11
195.3821827564384
 21
14.92236585251945
 31
0.0
 11
195.3821827564384
 21
14.76481042866994
 31
0.0
 11
195.3821827564384
 21
14.59335305565724
 31
0.0
 11
195.3821827564384
 21
14.42189568264453
 31
0.0
 11
195.3821827564384
 21
14.26434025879503
 31
0.0
 11
195.3821827564384
 21
14.1345887332719
 31
0.0
 11
195.3821827564384
 21
14.04654305523835
 31
0.0
 11
195.3821827564384
 21
14.01410517385757
 31
0.0
  0
SPLINE
  5
B1
102
{ACAD_REACTORS
330
CE
102
}
330
4B
100
AcDbEntity
  8
_U_30EC_U_30A4_U_30E4_U_30FC_1
  6
Continuous
 62
     2
100
AcDbSpline
210
0.0
220
0.0
230
1.0
 70
     8
 71
     3
 72
    62
 73
    58
 74
    56
 42
0.000000001
 43
0.0000000001
 44
0.00000001
 40
0.0
 40
0.0
 40
0.0
 40
0.0
 40
0.0598250028308769
 40
0.20248464868979
 40
0.3727558389221599
 40
0.5154154847936923
 40
0.5752404975786476
 40
0.9332326775488369
 40
1.290451762839606
 40
1.602077253146057
 40
1.699931634112347
 40
1.79935975642529
 40
2.270120149657334
 40
2.804661928461797
 40
2.882342287383509
 40
3.07654318571936
 40
3.32900435483582
 40
3.581465524568647
 40
3.775666424543931
 40
3.853346784558551
 40
3.899120679595296
 40
3.984129341792181
 40
4.029903236817529
 40
4.105797496059686
 40
4.295533144152647
 40
4.542189486611892
 40
4.788845828875844
 40
4.978581476410228
 40
5.054475735244472
 40
5.621734664339529
 40
6.130867242037527
 40
6.22524978094883
 40
6.318913039727525
 40
6.663579954559188
 40
7.047498900225002
 40
7.435230791575937
 40
7.498943906668349
 40
7.650875181210286
 40
7.832212509001768
 40
7.984143783697154
 40
8.04785689890328
 40
8.091554632732784
 40
8.172707566964435
 40
8.216405300768157
 40
8.289021782161042
 40
8.462184160757387
 40
8.668861838005553
 40
8.842024215264116
 40
8.914640695475311
 40
8.989881580861521
 40
9.155411528827434
 40
9.320941477744224
 40
9.39618235248748
 40
9.45470901114397
 40
9.58346766017099
 40
9.712226309013213
 40
9.770752957989695
 40
9.770752957989695
 40
9.770752957989695
 40
9.770752957989695
 10
187.1521871691834
 20
14.9398028819595
 30
0.0
 10
187.1322348171624
 20
14.93980875568671
 30
0.0
 10
187.0647037716466
 20
14.93982863806157
 30
0.0
 10
186.9410612161789
 20
14.93949362520326
 30
0.0
 10
186.7863180150056
 20
14.94107673750512
 30
0.0
 10
186.669734948248
 20
14.93686078860495
 30
0.0
 10
186.455094263424
 20
14.95215205331627
 30
0.0
 10
186.8518948407228
 20
14.59198721286191
 30
0.0
 10
186.8945656069268
 20
14.37510503397167
 30
0.0
 10
187.3189162146612
 20
14.19325062511441
 30
0.0
 10
187.1439821496075
 20
14.08985196568073
 30
0.0
 10
187.0194523925083
 20
13.87831523212722
 30
0.0
 10
186.7666277235942
 20
14.34806081001561
 30
0.0
 10
186.4797602893627
 20
14.99511516984521
 30
0.0
 10
186.4906335926659
 20
14.68782672154694
 30
0.0
 10
186.488289277796
 20
14.52288616971778
 30
0.0
 10
186.4861096126411
 20
14.28879670711693
 30
0.0
 10
186.4980774396346
 20
14.04498072421783
 30
0.0
 10
186.468798474063
 20
13.89855796860984
 30
0.0
 10
186.511452262547
 20
13.75113490174538
 30
0.0
 10
186.423981400564
 20
13.76685797306219
 30
0.0
 10
186.3768527606745
 20
13.76694303543454
 30
0.0
 10
186.2898973207714
 20
13.75109425482909
 30
0.0
 10
186.3313474021724
 20
13.89527771422762
 30
0.0
 10
186.3029875004286
 20
14.03855052698455
 30
0.0
 10
186.3145973775301
 20
14.27674947365265
 30
0.0
 10
186.3124175648273
 20
14.50517235240347
 30
0.0
 10
186.3103111127995
 20
14.66705729375995
 30
0.0
 10
186.3208035438324
 20
14.98153709333754
 30
0.0
 10
186.0128963252894
 20
14.29229470872435
 30
0.0
 10
185.7055258267457
 20
13.81476750243061
 30
0.0
 10
185.5851367066275
 20
14.03741112637424
 30
0.0
 10
185.4074607910721
 20
14.15011034955568
 30
0.0
 10
185.8853326362895
 20
14.32548143465456
 30
0.0
 10
185.9353959057207
 20
14.56091929252033
 30
0.0
 10
186.3583799621718
 20
14.95322989344608
 30
0.0
 10
186.1276754273539
 20
14.93655307029065
 30
0.0
 10
186.0049685859342
 20
14.94269518948771
 30
0.0
 10
185.8325483095663
 20
14.93312822699574
 30
0.0
 10
185.721322469445
 20
14.95448818489666
 30
0.0
 10
185.6025779627448
 20
14.92136265357419
 30
0.0
 10
185.6183169706686
 20
15.00203900606883
 30
0.0
 10
185.6178550933763
 20
15.04645414290853
 30
0.0
 10
185.6027881889932
 20
15.12967081778532
 30
0.0
 10
185.7372380935444
 20
15.09062651983882
 30
0.0
 10
185.8619755545747
 20
15.11739729328421
 30
0.0
 10
186.0628755237281
 20
15.10063949044051
 30
0.0
 10
186.1921540949354
 20
15.12204225913003
 30
0.0
 10
186.3328419928296
 20
15.08868778853419
 30
0.0
 10
186.2980927452616
 20
15.22651875785067
 30
0.0
 10
186.3222185666714
 20
15.34963257349482
 30
0.0
 10
186.2967086182393
 20
15.47024055670335
 30
0.0
 10
186.3333251146686
 20
15.60539865141494
 30
0.0
 10
186.221141702777
 20
15.58094545781891
 30
0.0
 10
186.1280356457138
 20
15.59307749842024
 30
0.0
 10
186.0191547579821
 20
15.58957630069995
 30
0.0
 10
185.9569697640965
 20
15.58981755951603
 30
0.0
 10
185.9375369557247
 20
15.58989295124145
 30
0.0
 11
187.1521871691834
 21
14.9398028819595
 31
0.0
 11
187.0923621563983
 21
14.9398028819595
 31
0.0
 11
186.949702510526
 21
14.9398028819595
 31
0.0
 11
186.7794313202914
 21
14.9398028819595
 31
0.0
 11
186.6367716744192
 21
14.9398028819595
 31
0.0
 11
186.576946661634
 21
14.9398028819595
 31
0.0
 11
186.7679960754842
 21
14.63705127966891
 31
0.0
 11
186.994127278563
 21
14.36051890576684
 31
0.0
 11
187.2244526173372
 21
14.15061253493456
 31
0.0
 11
187.1521596330704
 21
14.08466403668716
 31
0.0
 11
187.0879364402643
 21
14.00876059052559
 31
0.0
 11
186.7732818215558
 21
14.35891458349363
 31
0.0
 11
186.4886640249976
 21
14.81138295143601
 31
0.0
 11
186.4886640249976
 21
14.73370259137313
 31
0.0
 11
186.4886640249976
 21
14.53950169121593
 31
0.0
 11
186.4886640249976
 21
14.28704052101157
 31
0.0
 11
186.4886640249976
 21
14.0345793508072
 31
0.0
 11
186.4886640249976
 21
13.84037845065
 31
0.0
 11
186.4886640249976
 21
13.76269809058712
 31
0.0
 11
186.4428901295605
 21
13.76269809058712
 31
0.0
 11
186.3578814666059
 21
13.76269809058712
 31
0.0
 11
186.3121075711688
 21
13.76269809058712
 31
0.0
 11
186.3121075711688
 21
13.8385923498274
 31
0.0
 11
186.3121075711688
 21
14.02832799792812
 31
0.0
 11
186.3121075711688
 21
14.27498434045904
 31
0.0
 11
186.3121075711688
 21
14.52164068298997
 31
0.0
 11
186.3121075711688
 21
14.71137633109067
 31
0.0
 11
186.3121075711688
 21
14.78727059033096
 31
0.0
 11
185.9987626399267
 21
14.31440946197693
 31
0.0
 11
185.6352328662149
 21
13.95795177109381
 31
0.0
 11
185.5773927461627
 21
14.03253450545022
 31
0.0
 11
185.5094852305341
 21
14.09704322939242
 31
0.0
 11
185.775072189832
 21
14.31672219795889
 31
0.0
 11
186.0233764972061
 21
14.60953395971697
 31
0.0
 11
186.226498280526
 21
14.9398028819595
 31
0.0
 11
186.1627851652721
 21
14.9398028819595
 31
0.0
 11
186.0108538904359
 21
14.9398028819595
 31
0.0
 11
185.8295165624056
 21
14.9398028819595
 31
0.0
 11
185.6775852875694
 21
14.9398028819595
 31
0.0
 11
185.6138721723155
 21
14.9398028819595
 31
0.0
 11
185.6138721723155
 21
14.98350061600208
 31
0.0
 11
185.6138721723155
 21
15.06465355065258
 31
0.0
 11
185.6138721723155
 21
15.10835128469516
 31
0.0
 11
185.6864886537962
 21
15.10835128469516
 31
0.0
 11
185.8596510327119
 21
15.10835128469516
 31
0.0
 11
186.0663287107725
 21
15.10835128469516
 31
0.0
 11
186.2394910896881
 21
15.10835128469516
 31
0.0
 11
186.3121075711688
 21
15.10835128469516
 31
0.0
 11
186.3121075711688
 21
15.18359217009302
 31
0.0
 11
186.3121075711688
 21
15.3491221179683
 31
0.0
 11
186.3121075711688
 21
15.51465206584359
 31
0.0
 11
186.3121075711688
 21
15.58989295124145
 31
0.0
 11
186.2535809125057
 21
15.58989295124145
 31
0.0
 11
186.1248222634468
 21
15.58989295124145
 31
0.0
 11
185.9960636143879
 21
15.58989295124145
 31
0.0
 11
185.9375369557247
 21
15.58989295124145
 31
0.0
  0
SPLINE
  5
B2
102
{ACAD_REACTORS
330
CE
102
}
330
4B
100
AcDbEntity
  8
_U_30EC_U_30A4_U_30E4_U_30FC_1
  6
Continuous
 62
     2
100
AcDbSpline
210
0.0
220
0.0
230
1.0
 70
     8
 71
     3
 72
    70
 73
    66
 74
    64
 42
0.000000001
 43
0.0000000001
 44
0.00000001
 40
0.0
 40
0.0
 40
0.0
 40
0.0
 40
0.0241731073021472
 40
0.0846058988987582
 40
0.1631685280353852
 40
0.2417311571790608
 40
0.302163948829332
 40
0.3263370654896678
 40
0.3533118254250018
 40
0.4228783438923213
 40
0.517999909531445
 40
0.6216398239467097
 40
0.7167613891500665
 40
0.7863279069650823
 40
0.813302679176276
 40
0.8372943998772597
 40
0.8945054261373225
 40
0.962789554196271
 40
1.020000580349053
 40
1.043992300975151
 40
1.071934345522848
 40
1.113121768772916
 40
1.14522519933224
 40
1.225483775412768
 40
1.329819923771475
 40
1.43415607199436
 40
1.514414647795776
 40
1.546518078208382
 40
1.578974764260155
 40
1.66267884931415
 40
1.777131373668399
 40
1.901833377474818
 40
2.016285900500637
 40
2.099989982528004
 40
2.132446666570362
 40
2.158782354486086
 40
2.216720867907875
 40
2.2746593813343
 40
2.300995069256232
 40
2.333451754066204
 40
2.417155836543913
 40
2.531608358985353
 40
2.656310362283876
 40
2.770762886389009
 40
2.854466971340202
 40
2.886923657364009
 40
2.913597976833443
 40
2.98238964287525
 40
3.076451716947118
 40
3.178937260458738
 40
3.272999334740146
 40
3.341791001059369
 40
3.368465320663684
 40
3.396976080738933
 40
3.472140811846169
 40
3.578408190308859
 40
3.700226892456324
 40
3.822045594634569
 40
3.928312973256705
 40
4.003477705315102
 40
4.031988456867167
 40
4.058324144797965
 40
4.116262658237123
 40
4.174201171400918
 40
4.20053684960885
 40
4.20053684960885
 40
4.20053684960885
 40
4.20053684960885
 10
185.9857704961609
 20
15.75844135397706
 30
0.0
 10
185.9938259544679
 20
15.75844359811688
 30
0.0
 10
186.0220200663241
 20
15.75845146032798
 30
0.0
 10
186.0765534803673
 20
15.75830754828373
 30
0.0
 10
186.1482891808604
 20
15.75909120499899
 30
0.0
 10
186.2236240137063
 20
15.75627570463811
 30
0.0
 10
186.2713052366439
 20
15.76298403400958
 30
0.0
 10
186.3195071245617
 20
15.75197563692432
 30
0.0
 10
186.3062571799875
 20
15.80546402997034
 30
0.0
 10
186.3151093964539
 20
15.86049583543092
 30
0.0
 10
186.3108698036287
 20
15.95419908726109
 30
0.0
 10
186.313348348128
 20
16.04959482218532
 30
0.0
 10
186.3090938706061
 20
16.14356821983386
 30
0.0
 10
186.3179818665847
 20
16.19795062438011
 30
0.0
 10
186.3046977409946
 20
16.25233997691459
 30
0.0
 10
186.351411927711
 20
16.23842216335358
 30
0.0
 10
186.3943254545737
 20
16.24103877374041
 30
0.0
 10
186.4605443456685
 20
16.23648422450755
 30
0.0
 10
186.5013342271799
 20
16.2277816213416
 30
0.0
 10
186.5525145690819
 20
16.23531799890194
 30
0.0
 10
186.5253720487201
 20
16.19349970223281
 30
0.0
 10
186.4803096055707
 20
16.20284992072597
 30
0.0
 10
186.4942065045051
 20
16.13841207371836
 30
0.0
 10
186.4858414431653
 20
16.07378219627399
 30
0.0
 10
186.4903632178398
 20
15.97529141193887
 30
0.0
 10
186.4854741311167
 20
15.8759593284257
 30
0.0
 10
186.4950258992082
 20
15.8129311555297
 30
0.0
 10
186.47997614552
 20
15.7496401149979
 30
0.0
 10
186.5449159457208
 20
15.7651507294427
 30
0.0
 10
186.6116246399498
 20
15.75499387697813
 30
0.0
 10
186.7241435470827
 20
15.75988800099368
 30
0.0
 10
186.8390235448954
 20
15.75691204732784
 30
0.0
 10
186.9519871999747
 20
15.76221664184992
 30
0.0
 10
187.0176267597679
 20
15.7510730647209
 30
0.0
 10
187.0816276691054
 20
15.76744532319858
 30
0.0
 10
187.070314288919
 20
15.71761689905276
 30
0.0
 10
187.077533987151
 20
15.67416715212124
 30
0.0
 10
187.070314261127
 20
15.63071745587446
 30
0.0
 10
187.0816277175995
 20
15.58088895196877
 30
0.0
 10
187.0176263598972
 20
15.59726166091363
 30
0.0
 10
186.951992124046
 20
15.58611271661589
 30
0.0
 10
186.8389974317332
 20
15.59144857206855
 30
0.0
 10
186.7242456548643
 20
15.58834345663822
 30
0.0
 10
186.6113183686861
 20
15.5936489468259
 30
0.0
 10
186.5455220903584
 20
15.58257300019594
 30
0.0
 10
186.4816097975358
 20
15.59887597847619
 30
0.0
 10
186.4936015165126
 20
15.54423524395743
 30
0.0
 10
186.4862104613005
 20
15.48854295047842
 30
0.0
 10
186.4892684841983
 20
15.3964968914057
 30
0.0
 10
186.4893422785682
 20
15.30179109873101
 30
0.0
 10
186.4860313578359
 20
15.20952782902264
 30
0.0
 10
186.4939505989904
 20
15.15435768736139
 30
0.0
 10
186.4815076611617
 20
15.10058169100134
 30
0.0
 10
186.5389116551632
 20
15.1145376886278
 30
0.0
 10
186.5994708140383
 20
15.10511457884225
 30
0.0
 10
186.7048680855081
 20
15.10942885928704
 30
0.0
 10
186.8204294070623
 20
15.10835504612031
 30
0.0
 10
186.9359688877797
 20
15.10725965900993
 30
0.0
 10
187.0414181130843
 20
15.11162525770632
 30
0.0
 10
187.1018680471804
 20
15.10209426030669
 30
0.0
 10
187.1592837739111
 20
15.11617289606379
 30
0.0
 10
187.147777387671
 20
15.06707153265682
 30
0.0
 10
187.1537566781749
 20
15.02564658018649
 30
0.0
 10
187.1520311050804
 20
14.97651677966695
 30
0.0
 10
187.1521500122972
 20
14.94854428447608
 30
0.0
 10
187.1521871691834
 20
14.9398028819595
 30
0.0
 11
185.9857704961609
 21
15.75844135397706
 31
0.0
 11
186.0099436128282
 21
15.75844135397706
 31
0.0
 11
186.0703764044963
 21
15.75844135397706
 31
0.0
 11
186.1489390336649
 21
15.75844135397706
 31
0.0
 11
186.2275016628334
 21
15.75844135397706
 31
0.0
 11
186.2879344545015
 21
15.75844135397706
 31
0.0
 11
186.3121075711688
 21
15.75844135397706
 31
0.0
 11
186.3121075711688
 21
15.78541612620064
 31
0.0
 11
186.3121075711688
 21
15.85498264404039
 31
0.0
 11
186.3121075711688
 21
15.95010420924985
 31
0.0
 11
186.3121075711688
 21
16.05374412358255
 31
0.0
 11
186.3121075711688
 21
16.14886568879201
 31
0.0
 11
186.3121075711688
 21
16.21843220663177
 31
0.0
 11
186.3121075711688
 21
16.24540697885535
 31
0.0
 11
186.3360407604893
 21
16.24373213107799
 31
0.0
 11
186.3931122119458
 21
16.2397382633012
 31
0.0
 11
186.4612297507811
 21
16.23497138885795
 31
0.0
 11
186.5183012022376
 21
16.23097752108116
 31
0.0
 11
186.5422343915581
 21
16.2293026733038
 31
0.0
 11
186.527497273123
 21
16.20556293372639
 31
0.0
 11
186.4886640249976
 21
16.19183767331311
 31
0.0
 11
186.4886640249976
 21
16.15973424225118
 31
0.0
 11
186.4886640249976
 21
16.07947566459636
 31
0.0
 11
186.4886640249976
 21
15.97513951364508
 31
0.0
 11
186.4886640249976
 21
15.87080336269381
 31
0.0
 11
186.4886640249976
 21
15.79054478503899
 31
0.0
 11
186.4886640249976
 21
15.75844135397706
 31
0.0
 11
186.5211207110824
 21
15.75844135397706
 31
0.0
 11
186.6048247962486
 21
15.75844135397706
 31
0.0
 11
186.7192773208635
 21
15.75844135397706
 31
0.0
 11
186.8439793252946
 21
15.75844135397706
 31
0.0
 11
186.9584318499095
 21
15.75844135397706
 31
0.0
 11
187.0421359350757
 21
15.75844135397706
 31
0.0
 11
187.0745926211605
 21
15.75844135397706
 31
0.0
 11
187.0745926211605
 21
15.73210566604962
 31
0.0
 11
187.0745926211605
 21
15.67416715260926
 31
0.0
 11
187.0745926211605
 21
15.61622863916889
 31
0.0
 11
187.0745926211605
 21
15.58989295124145
 31
0.0
 11
187.0421359350757
 21
15.58989295124145
 31
0.0
 11
186.9584318499095
 21
15.58989295124145
 31
0.0
 11
186.8439793252946
 21
15.58989295124145
 31
0.0
 11
186.7192773208635
 21
15.58989295124145
 31
0.0
 11
186.6048247962486
 21
15.58989295124145
 31
0.0
 11
186.5211207110824
 21
15.58989295124145
 31
0.0
 11
186.4886640249976
 21
15.58989295124145
 31
0.0
 11
186.4886640249976
 21
15.56321863152023
 31
0.0
 11
186.4886640249976
 21
15.49442696487076
 31
0.0
 11
186.4886640249976
 21
15.40036489006434
 31
0.0
 11
186.4886640249976
 21
15.29787934587227
 31
0.0
 11
186.4886640249976
 21
15.20381727106585
 31
0.0
 11
186.4886640249976
 21
15.13502560441638
 31
0.0
 11
186.4886640249976
 21
15.10835128469516
 31
0.0
 11
186.5171747850993
 21
15.10835128469516
 31
0.0
 11
186.5923395162767
 21
15.10835128469516
 31
0.0
 11
186.6986068948376
 21
15.10835128469516
 31
0.0
 11
186.8204255970905
 21
15.10835128469516
 31
0.0
 11
186.9422442993434
 21
15.10835128469516
 31
0.0
 11
187.0485116779044
 21
15.10835128469516
 31
0.0
 11
187.1236764090817
 21
15.10835128469516
 31
0.0
 11
187.1521871691834
 21
15.10835128469516
 31
0.0
 11
187.1521871691834
 21
15.08201559676771
 31
0.0
 11
187.1521871691834
 21
15.02407708332733
 31
0.0
 11
187.1521871691834
 21
14.96613856988695
 31
0.0
 11
187.1521871691834
 21
14.9398028819595
 31
0.0
  0
SPLINE
  5
B3
102
{ACAD_REACTORS
330
CE
102
}
330
4B
100
AcDbEntity
  8
_U_30EC_U_30A4_U_30E4_U_30FC_1
  6
Continuous
 62
     2
100
AcDbSpline
210
0.0
220
0.0
230
1.0
 70
     8
 71
     3
 72
    24
 73
    20
 74
    18
 42
0.000000001
 43
0.0000000001
 44
0.00000001
 40
0.0
 40
0.0
 40
0.0
 40
0.0
 40
0.2211075008754001
 40
0.4273218586245245
 40
0.5080174679239461
 40
0.5914835907870376
 40
0.8143265690192689
 40
1.054651302686569
 40
1.295452694023161
 40
1.518109231328814
 40
1.540864321905401
 40
1.595126460622662
 40
1.659890947895975
 40
1.714153085187277
 40
1.736908174961577
 40
1.764951100735234
 40
1.801562291220794
 40
1.953914424543476
 40
2.126104167379559
 40
2.126104167379559
 40
2.126104167379559
 40
2.126104167379559
 10
185.937536955689
 20
15.58989295113016
 30
0.0
 10
185.9112579081813
 20
15.53097628234374
 30
0.0
 10
185.8604698894426
 20
15.41711139679258
 30
0.0
 10
185.8131784839112
 20
15.14441958233118
 30
0.0
 10
185.7043482802618
 20
15.24445482575453
 30
0.0
 10
185.5514800279639
 20
15.27118593367332
 30
0.0
 10
185.7686155181199
 20
15.48518135017632
 30
0.0
 10
185.7838483674381
 20
15.70332117782488
 30
0.0
 10
185.8906889492001
 20
15.88451579066424
 30
0.0
 10
185.8305380947078
 20
16.16913226311402
 30
0.0
 10
185.9334317395403
 20
16.14114089222449
 30
0.0
 10
185.977993346815
 20
16.13243251602299
 30
0.0
 10
186.0380842395397
 20
16.12139654183355
 30
0.0
 10
186.0756619587438
 20
16.10767523055559
 30
0.0
 10
186.1252466928606
 20
16.10756076160223
 30
0.0
 10
186.0930158919326
 20
16.07306592398622
 30
0.0
 10
186.0171802221882
 20
16.08404104537964
 30
0.0
 10
186.0429447159693
 20
15.89858969582449
 30
0.0
 10
186.005589676385
 20
15.80702313549589
 30
0.0
 10
185.9857704961609
 20
15.75844135397706
 30
0.0
 11
185.937536955689
 21
15.58989295113016
 31
0.0
 11
185.8616471328553
 21
15.38221708318559
 31
0.0
 11
185.7717402238434
 21
15.19663392356193
 31
0.0
 11
185.701149392311
 21
15.23573272563551
 31
0.0
 11
185.6245525192652
 21
15.2688916318772
 31
0.0
 11
185.7214026947456
 21
15.46958801203538
 31
0.0
 11
185.7994641467471
 21
15.69688163177024
 31
0.0
 11
185.8589716929721
 21
15.93021436608691
 31
0.0
 11
185.9001601511227
 21
16.14902808999053
 31
0.0
 11
185.9224183822215
 21
16.14429889221394
 31
0.0
 11
185.975495702534
 21
16.13302157443899
 31
0.0
 11
186.0388460525845
 21
16.11956154999791
 31
0.0
 11
186.091923372897
 21
16.10828423222296
 31
0.0
 11
186.1141816039958
 21
16.10355503444637
 31
0.0
 11
186.0964097157461
 21
16.08186250841009
 31
0.0
 11
186.0606122998072
 21
16.07418628445367
 31
0.0
 11
186.028195330148
 21
15.92532288171314
 31
0.0
 11
185.9857704961609
 21
15.75844135397706
 31
0.0
  0
LWPOLYLINE
  5
B4
102
{ACAD_REACTORS
330
CF
102
}
330
4B
100
AcDbEntity
  8
_U_30EC_U_30A4_U_30E4_U_30FC_1
  6
Continuous
 62
     2
100
AcDbPolyline
 90
        5
 70
     1
 43
0.0
 10
191.1602971697032
 20
15.39722336795625
 10
192.4578138032672
 20
15.39722336795625
 10
192.4578138032672
 20
15.22875434022058
 10
191.1602971697032
 20
15.22875434022058
 10
191.1602971697032
 20
15.39722336795625
  0
MTEXT
  5
B6
330
4B
100
AcDbEntity
  8
1
 62
   250
100
AcDbMText
 10
25.0
 20
5.0
 30
0.0
 40
3.5
 41
0.0
 71
     4
 72
     1
  1
備考欄の文字列 原点位置=4
  7
CONVERTER_11
 73
     1
 44
0.54545454545455
  0
MTEXT
  5
B7
330
4B
100
AcDbEntity
  8
1
 62
     2
100
AcDbMText
 10
89.50000000000001
 20
24.00000000000001
 30
0.0
 40
3.5
 41
0.0
 71
     5
 72
     1
  1
尺度
  7
CONVERTER_11
 73
     1
 44
0.54545454545455
  0
MTEXT
  5
B8
330
4B
100
AcDbEntity
  8
1
 62
     2
100
AcDbMText
 10
135.5
 20
25.00000000000001
 30
0.0
 40
3.0
 41
0.0
 71
     5
 72
     1
  1
製図
  7
CONVERTER_11
 73
     1
 44
0.59090909090909
  0
MTEXT
  5
B9
330
4B
100
AcDbEntity
  8
1
 62
     2
100
AcDbMText
 10
152.5
 20
25.00000000000001
 30
0.0
 40
3.0
 41
0.0
 71
     5
 72
     1
  1
設計
  7
CONVERTER_11
 73
     1
 44
0.59090909090909
  0
MTEXT
  5
BA
330
4B
100
AcDbEntity
  8
1
 62
     2
100
AcDbMText
 10
118.5
 20
25.00000000000001
 30
0.0
 40
3.0
 41
0.0
 71
     5
 72
     1
  1
検図
  7
CONVERTER_11
 73
     1
 44
0.59090909090909
  0
MTEXT
  5
BB
330
4B
100
AcDbEntity
  8
1
 62
     2
100
AcDbMText
 10
175.0
 20
23.50000000000001
 30
0.0
 40
3.5
 41
0.0
 71
     5
 72
     1
  1
第三角法
  7
CONVERTER_11
 73
     1
 44
0.54545454545455
  0
MTEXT
  5
BC
330
4B
100
AcDbEntity
  8
1
 62
     2
100
AcDbMText
 10
101.5
 20
25.00000000000001
 30
0.0
 40
3.0
 41
0.0
 71
     5
 72
     1
  1
承認
  7
CONVERTER_11
 73
     1
 44
0.59090909090909
  0
MTEXT
  5
BD
330
4B
100
AcDbEntity
  8
1
 62
     2
100
AcDbMText
 10
29.0
 20
14.25
 30
0.0
 40
3.5
 41
0.0
 71
     5
 72
     1
  1
品番
  7
CONVERTER_11
 73
     1
 44
0.72727272727273
  0
MTEXT
  5
BE
330
4B
100
AcDbEntity
  8
1
 62
     2
100
AcDbMText
 10
29.0
 20
22.75
 30
0.0
 40
3.5
 41
0.0
 71
     5
 72
     1
  1
品名
  7
CONVERTER_11
 73
     1
 44
0.72727272727273
  0
MTEXT
  5
BF
330
4B
100
AcDbEntity
  8
1
 62
     2
100
AcDbMText
 10
29.0
 20
34.0
 30
0.0
 40
3.5
 41
0.0
 71
     5
 72
     1
  1
備考
  7
CONVERTER_11
 73
     1
 44
0.45454545454545
  0
MTEXT
  5
C0
330
4B
100
AcDbEntity
  8
1
 62
     2
100
AcDbMText
 10
32.5
 20
282.0000000000003
 30
0.0
 40
5.0
 41
0.0
 71
     5
 72
     1
  1
図番
  7
CONVERTER_11
 73
     1
 44
0.45454545454545
  0
HATCH
  5
C1
330
4B
100
AcDbEntity
  8
1
  6
Continuous
 62
     2
100
AcDbHatch
 10
0.0
 20
0.0
 30
0.0
210
0.0
220
0.0
230
1.0
  2
CUSTOM0
 70
     0
 71
     1
 91
        1
 92
        1
 93
        1
 72
     4
 94
        3
 73
     0
 74
     0
 95
       99
 96
       95
 40
0.0
 40
0.0
 40
0.0
 40
0.0
 40
0.0796417172273087
 40
0.1621768542355946
 40
0.24864891609576
 40
0.3404969668524558
 40
0.4381912511165131
 40
0.5434463660244866
 40
0.6518115192847179
 40
0.7530190937887562
 40
0.8492196919725584
 40
0.9419290312998911
 40
1.0342496635701
 40
1.129078600620234
 40
1.226697027573289
 40
1.327220425421741
 40
1.470572134938055
 40
1.595489863371255
 40
1.719934125348398
 40
1.850576620127466
 40
1.989059629987299
 40
2.134139054226865
 40
2.280698007207204
 40
2.424529739039524
 40
2.565929576985846
 40
2.708239260773577
 40
2.861717887443665
 40
3.045168540347374
 40
3.183798301138613
 40
3.31481396145547
 40
3.442083470447324
 40
3.569912708372978
 40
3.702177512509309
 40
3.842307559659451
 40
3.992872223245882
 40
4.156750662218356
 40
4.310981861107465
 40
4.445859909322511
 40
4.572393936131534
 40
4.701656719781903
 40
4.76827908600837
 40
4.835960697898339
 40
4.912788918729257
 40
5.006285208481428
 40
5.026909478751532
 40
5.047533749021097
 40
5.101808031471181
 40
5.162325165538474
 40
5.226919745995755
 40
5.29423180659661
 40
5.364544852554777
 40
5.438319055467824
 40
5.517877651324187
 40
5.607647714861555
 40
5.700449642544374
 40
5.788251142364049
 40
5.872714706039756
 40
5.955167292575266
 40
6.037192395190362
 40
6.120669181469095
 40
6.206848616686337
 40
6.296680855416756
 40
6.442558392872593
 40
6.568190371608306
 40
6.692904567360363
 40
6.824220446557168
 40
6.96312185032935
 40
7.107843738851111
 40
7.253431663907223
 40
7.395187468036645
 40
7.533140753237703
 40
7.670550457175244
 40
7.816236511769252
 40
7.987691657359206
 40
8.142277421969238
 40
8.293662615414982
 40
8.442962460879256
 40
8.59159831618535
 40
8.743678992361772
 40
8.903725323699135
 40
9.076307008890536
 40
9.265578604680533
 40
9.459203795360736
 40
9.617619810273576
 40
9.753609671361913
 40
9.87487330000411
 40
9.954520184977822
 40
10.02416413719251
 40
10.0976976440545
 40
10.18909955924978
 40
10.20974586420134
 40
10.23039218263374
 40
10.30057101881259
 40
10.3763201298754
 40
10.3763201298754
 40
10.3763201298754
 40
10.3763201298754
 10
170.1465954835851
 20
14.13795663215994
 10
170.1632217851219
 20
14.11720608845313
 10
170.1970784206578
 20
14.07495111711906
 10
170.2599822541036
 20
14.02029811392069
 10
170.3332500940393
 20
13.97299025121051
 10
170.4175969238636
 20
13.93527231437933
 10
170.5132240615461
 20
13.91040619731953
 10
170.6171853775346
 20
13.90309559345937
 10
170.7224020220405
 20
13.91142322794054
 10
170.8206626371334
 20
13.94149179651525
 10
170.9058986427548
 20
13.98848822971877
 10
170.9779220206104
 20
14.04952991250856
 10
171.0350917709096
 20
14.12412969578582
 10
171.0767868747439
 20
14.21002464660177
 10
171.1026952846293
 20
14.30485850432209
 10
171.1118037332652
 20
14.41854979038368
 10
171.0986864796486
 20
14.54332587770778
 10
171.0325330334414
 20
14.66014719171891
 10
170.9369370919568
 20
14.74512539577376
 10
170.8249681022369
 20
14.81416684459159
 10
170.699365958327
 20
14.8720414204589
 10
170.5656691620858
 20
14.92373723284343
 10
170.4313122818831
 20
14.9789909239718
 10
170.3051983986877
 20
15.04939770641645
 10
170.1926579987536
 20
15.13785540731254
 10
170.0969963064458
 20
15.24981067868468
 10
170.0334157151827
 20
15.39949910101386
 10
170.0200706505016
 20
15.55932794385141
 10
170.0320510987449
 20
15.71048405306846
 10
170.0712298928842
 20
15.83809244591538
 10
170.1354987750911
 20
15.95080874030845
 10
170.2238204999741
 20
16.04648609268683
 10
170.3338091207627
 20
16.12354214985755
 10
170.4632284401265
 20
16.18151396936279
 10
170.6111838967793
 20
16.21739177588822
 10
170.7682069455487
 20
16.22746719050566
 10
170.917494046643
 20
16.21863637762589
 10
171.059625361417
 20
16.19074899340352
 10
171.1595922609625
 20
16.13413314701138
 10
171.3125074736184
 20
16.08674602105508
 10
171.2455131717169
 20
16.00197553001182
 10
171.2296479120269
 20
15.93438901873485
 10
171.1978750531297
 20
15.8692609279319
 10
171.2150202209571
 20
15.76723453256953
 10
171.1666427208233
 20
15.77493211681902
 10
171.1315789440766
 20
15.76806771724809
 10
171.1296697985717
 20
15.83263831158194
 10
171.0985692931989
 20
15.87825639621392
 10
171.0664551628456
 20
15.93561036628456
 10
171.0208038475169
 20
15.9854046269256
 10
170.9658508218388
 20
16.02994813718993
 10
170.9010841173008
 20
16.06763988836551
 10
170.8232377310597
 20
16.09283375791352
 10
170.7355160553352
 20
16.09931230998111
 10
170.6452903277807
 20
16.09235709285607
 10
170.5594594694065
 20
16.06909190460918
 10
170.4828343638596
 20
16.03131644107548
 10
170.41652656362
 20
15.98051641089574
 10
170.3622560536964
 20
15.91731143407211
 10
170.3224925345458
 20
15.84276455710367
 10
170.2976775510588
 20
15.75917313997763
 10
170.289212426287
 20
15.65192948382284
 10
170.3019697987103
 20
15.52965457267556
 10
170.3681548409274
 20
15.41149724291213
 10
170.4640977399832
 20
15.32606325709525
 10
170.5757914963183
 20
15.25583362306723
 10
170.7010863668702
 20
15.19659162305303
 10
170.8349823941447
 20
15.14616708086131
 10
170.968993033315
 20
15.09322516984381
 10
171.0950885316915
 20
15.02750170625176
 10
171.2076216638417
 20
14.94480352537317
 10
171.3031370284234
 20
14.83996006310078
 10
171.3672706486963
 20
14.69937117251568
 10
171.3811103725278
 20
14.54065409451591
 10
171.3673954712229
 20
14.38153155217876
 10
171.3244739153986
 20
14.23483828819208
 10
171.2545906329066
 20
14.1011979658714
 10
171.1574592213829
 20
13.98532387699294
 10
171.0347806023657
 20
13.89089981770086
 10
170.8874408413168
 20
13.82179270651978
 10
170.7177132497125
 20
13.77953210858853
 10
170.5317404979597
 20
13.76781736230407
 10
170.3528955926184
 20
13.77809486683437
 10
170.1881733753743
 20
13.8196657376915
 10
170.0834410841057
 20
13.88797642883943
 10
169.9350960790365
 20
13.93675219032106
 10
169.9980378194729
 20
14.02976591290841
 10
170.0072274430061
 20
14.1029653624828
 10
170.0303711301233
 20
14.16936294501345
 10
170.0034588335317
 20
14.26974809527579
 10
170.0521338956339
 20
14.26234033517379
 10
170.0916530580697
 20
14.26894063620893
 10
170.0996204944702
 20
14.19078703218931
 10
170.1305436967923
 20
14.15600927375856
 10
170.1465954835851
 20
14.13795663215994
 97
        1
330
A3
 75
     1
 76
     2
 52
45.0
 41
0.1
 77
     0
 78
     1
 53
45.0
 43
0.0
 44
0.0
 45
-0.282842712474619
 46
0.0
 79
     0
 98
        1
 10
0.0
 20
0.0
  0
HATCH
  5
C2
330
4B
100
AcDbEntity
  8
1
  6
Continuous
 62
     2
100
AcDbHatch
 10
0.0
 20
0.0
 30
0.0
210
0.0
220
0.0
230
1.0
  2
CUSTOM1
 70
     0
 71
     1
 91
        2
 92
        1
 93
        1
 72
     4
 94
        3
 73
     0
 74
     0
 95
       57
 96
       53
 40
0.0
 40
0.0
 40
0.0
 40
0.0
 40
0.0471632082809511
 40
0.0914861054632996
 40
0.1357762519702663
 40
0.1826527001611526
 40
0.2295203288573151
 40
0.2737751972220468
 40
0.3181310461543627
 40
0.3652607198398499
 40
0.4571007286314454
 40
0.5671851029165385
 40
0.6894623283868536
 40
0.8181758272545928
 40
0.951008722927429
 40
1.085852229674062
 40
1.218126164475304
 40
1.343545131142379
 40
1.454537202956824
 40
1.56718760753089
 40
1.68071096664248
 40
1.794226869736787
 40
1.900009184247644
 40
2.004085860447867
 40
2.108162674451811
 40
2.214000150155298
 40
2.496038577352145
 40
2.762350745479304
 40
2.997275353279413
 40
3.185110082137724
 40
3.246407890064063
 40
3.312607550212794
 40
3.378877742711696
 40
3.440140399651437
 40
4.100501696006424
 40
4.754913085563501
 40
5.411331693423891
 40
6.077890432568709
 40
6.110575292670988
 40
6.143260152775768
 40
6.36798936339512
 40
6.610525374951556
 40
6.863389136467315
 40
7.119380025547569
 40
7.376036605091096
 40
7.631164770966262
 40
7.876722425456421
 40
8.104953735855966
 40
8.312916685924282
 40
8.497730294941318
 40
8.651018984313863
 40
8.764738853624594
 40
8.764738853624594
 40
8.764738853624594
 40
8.764738853624594
 10
174.7922649500514
 20
13.81626739612927
 10
174.7766616726931
 20
13.81826231079077
 10
174.7463947960302
 20
13.82213201360299
 10
174.7010994202253
 20
13.82341984967267
 10
174.6559553129349
 20
13.8230868355405
 10
174.60990171234
 20
13.82314658674223
 10
174.5640496172097
 20
13.8232581365
 10
174.5183711648165
 20
13.82277833456589
 10
174.4750811541608
 20
13.82461109618722
 10
174.4039947951514
 20
13.80049556814658
 10
174.4057477261442
 20
13.92184693977253
 10
174.3586196370569
 20
14.0072623975123
 10
174.3191478251762
 20
14.12486929345134
 10
174.2706635532646
 20
14.24232752540442
 10
174.2201017402522
 20
14.36405935761506
 10
174.1718634610478
 20
14.49075967862467
 10
174.1135232947596
 20
14.59933687784954
 10
174.0980892667262
 20
14.7562065713441
 10
173.9566586330636
 20
14.72373446548323
 10
173.8508397414904
 20
14.73512888682178
 10
173.7358569725222
 20
14.73392591514616
 10
173.6253142252142
 20
14.73506945347409
 10
173.5176583522783
 20
14.73418350037527
 10
173.4121322529243
 20
14.73416602390517
 10
173.3109192682013
 20
14.72714032472416
 10
173.1266804827754
 20
14.75135859859865
 10
173.1157393685412
 20
14.44741691121884
 10
173.008769163475
 20
14.223531772534
 10
172.9098148604347
 20
14.03895314292495
 10
172.9225090524008
 20
13.79530204804204
 10
172.8050091716397
 20
13.82508046753196
 10
172.742205586831
 20
13.82258089509602
 10
172.67858720934
 20
13.82344075102805
 10
172.3946014194076
 20
13.78098039941946
 10
173.0251638499381
 20
14.50081952444793
 10
173.1087645289072
 20
15.01276539435726
 10
173.4929252789339
 20
15.53353743550045
 10
173.4777208288567
 20
16.23519626253218
 10
173.7239265722698
 20
16.22345633081257
 10
173.8256346157563
 20
16.23225004452775
 10
173.8249752035817
 20
15.9805965073034
 10
173.9428317155829
 20
15.79818020733961
 10
174.0315515260486
 20
15.55563740662868
 10
174.1322292485258
 20
15.32340030530123
 10
174.2311142712244
 20
15.08674644566917
 10
174.3299676990669
 20
14.8546173917009
 10
174.4256166390927
 20
14.63122222788789
 10
174.5159904573273
 20
14.4227254904932
 10
174.5989944568189
 20
14.23308448529316
 10
174.67260885828
 20
14.066631060681
 10
174.7342815895546
 20
13.92917699626096
 10
174.7749458885604
 20
13.84999239430033
 10
174.7922649500514
 20
13.81626739612927
 97
        1
330
A4
 92
       16
 93
        1
 72
     4
 94
        3
 73
     0
 74
     0
 95
       25
 96
       21
 40
0.0
 40
0.0
 40
0.0
 40
0.0
 40
0.091147996906539
 40
0.1858117896204666
 40
0.2804128399734491
 40
0.371588919071451
 40
0.4679080494218708
 40
0.5642683809229232
 40
0.6605683222645274
 40
0.7569653015811107
 40
0.8561348172523591
 40
1.092615965104389
 40
1.374867658141983
 40
1.61134881201172
 40
1.710518328425368
 40
1.809403163726687
 40
2.045205463294189
 40
2.326646917622249
 40
2.562449217190711
 40
2.66133404383403
 40
2.66133404383403
 40
2.66133404383403
 40
2.66133404383403
 10
173.2683700567199
 20
14.88614538197292
 10
173.2987525917923
 20
14.88598079714554
 10
173.3606895889112
 20
14.88564528689921
 10
173.454135696033
 20
14.88269055452
 10
173.5475095236357
 20
14.8797775287715
 10
173.6417760753476
 20
14.87894201643416
 10
173.7354964790966
 20
14.87996644658047
 10
173.8352040303205
 20
14.87916977470973
 10
173.9188949546313
 20
14.88921410235219
 10
174.0637996315046
 20
14.86234617674164
 10
173.9396132444802
 20
15.03665530280049
 10
173.8965867286283
 20
15.19651711006091
 10
173.780892214221
 20
15.45518458550216
 10
173.7017565431257
 20
15.59231052861857
 10
173.6431576621816
 20
15.80937033134077
 10
173.5864803939438
 20
15.59266134213428
 10
173.5052809900478
 20
15.45327012438236
 10
173.4063701281487
 20
15.20406969370194
 10
173.325362509426
 20
15.01925830226074
 10
173.2813683325838
 20
14.91650446856116
 10
173.2683700567199
 20
14.88614538197292
 97
        1
330
A5
 75
     1
 76
     2
 52
45.0
 41
0.1
 77
     0
 78
     1
 53
45.0
 43
0.0
 44
0.0
 45
-0.282842712474619
 46
0.0
 79
     0
 98
        1
 10
0.0
 20
0.0
  0
HATCH
  5
C3
330
4B
100
AcDbEntity
  8
1
  6
Continuous
 62
     2
100
AcDbHatch
 10
0.0
 20
0.0
 30
0.0
210
0.0
220
0.0
230
1.0
  2
CUSTOM2
 70
     0
 71
     1
 91
        1
 92
        1
 93
        1
 72
     4
 94
        3
 73
     0
 74
     0
 95
       95
 96
       91
 40
0.0
 40
0.0
 40
0.0
 40
0.0
 40
0.655040665691125
 40
1.308087289031888
 40
1.420803739835762
 40
1.566130759770761
 40
1.757067341888426
 40
2.006513545026422
 40
2.087328263121508
 40
2.185328872295582
 40
2.294612454748325
 40
2.408936380534776
 40
2.526802767798524
 40
2.646360524615573
 40
2.762535723971542
 40
2.87005734287013
 40
2.96688344843161
 40
3.050803243518259
 40
3.115818222436575
 40
3.156030057150205
 40
3.213914225080079
 40
3.276689026450422
 40
3.342960320981284
 40
3.404230667150533
 40
3.45382280949335
 40
3.532499827188409
 40
3.634775188507144
 40
3.754909333008154
 40
3.889736761660645
 40
4.035769602175205
 40
4.187256681197589
 40
4.33873368567594
 40
4.4884787346761
 40
4.63470831783156
 40
4.771493189921252
 40
4.892686571561182
 40
5.19977552894443
 40
5.460353566929618
 40
5.667603142345493
 40
5.814722905404482
 40
5.828990806219808
 40
5.855488336304477
 40
5.869756237118809
 40
6.189796507762805
 40
6.531890469872951
 40
6.883053637016983
 40
7.230512024911416
 40
7.56696665676454
 40
7.885203559707358
 40
8.172887439719172
 40
8.418011594062765
 40
8.443926721190687
 40
8.510760470613175
 40
8.602145393795684
 40
8.701714041647126
 40
8.793098965075355
 40
8.859932715057928
 40
8.885847842603578
 40
9.242301256612794
 40
9.589275455016738
 40
9.921808543164156
 40
10.23479624298465
 40
10.29968150889171
 40
10.35323493887753
 40
10.40154625355141
 40
10.46482922477814
 40
10.55973900668394
 40
10.69239545985608
 40
10.84920353475661
 40
11.01626328594767
 40
11.18672024367432
 40
11.353725825772
 40
11.50257442292416
 40
11.6186649502328
 40
11.71329869152864
 40
11.82511050573896
 40
11.94464880845705
 40
12.06929242642497
 40
12.19707290435166
 40
12.32562632860517
 40
12.45034565331269
 40
12.56646595170317
 40
12.67099007414624
 40
12.76077625936771
 40
12.82703233506683
 40
12.87429132785982
 40
12.89831990323321
 40
12.9223484786001
 40
13.53984767410307
 40
14.18294284359354
 40
14.18294284359354
 40
14.18294284359354
 40
14.18294284359354
 10
177.3067935648021
 20
14.70898038201723
 10
177.175201975855
 20
14.82265058603231
 10
176.9124193802729
 20
15.04964496316158
 10
176.3997393441022
 20
15.89214462956287
 10
176.4106654595363
 20
15.53423377577019
 10
176.4041226527991
 20
15.39267392272133
 10
176.4028026631773
 20
15.19421305299281
 10
176.4018117602538
 20
15.02150296045982
 10
176.4024101751975
 20
14.8786537325758
 10
176.4038994301882
 20
14.78265005413359
 10
176.4055683588473
 20
14.67545503263141
 10
176.4071934954618
 20
14.56164211517582
 10
176.4092429501686
 20
14.44441572604588
 10
176.4123165501928
 20
14.3265641123297
 10
176.4156339697043
 20
14.2122808732062
 10
176.4193605340279
 20
14.10521401867276
 10
176.4217338161424
 20
14.01007408766921
 10
176.4278718888357
 20
13.92558557205694
 10
176.4239784495948
 20
13.86923087298142
 10
176.4455230443077
 20
13.79825022472356
 10
176.3680940058618
 20
13.82902677604482
 10
176.3116353240192
 20
13.82011242517612
 10
176.2540495896807
 20
13.82896218398276
 10
176.1690163478472
 20
13.79738225225945
 10
176.2009714146383
 20
13.88095155992189
 10
176.1990705282541
 20
13.94882608968309
 10
176.2107960047299
 20
14.05233256764418
 10
176.2164241053001
 20
14.17002125616695
 10
176.2237902178941
 20
14.30388609164424
 10
176.2320759701611
 20
14.44764152872632
 10
176.2398851897426
 20
14.59714022843445
 10
176.2457571222658
 20
14.74792549402077
 10
176.2503667817968
 20
14.89699943878438
 10
176.2542632117544
 20
15.04122913163021
 10
176.2570715126563
 20
15.17583905213016
 10
176.2576698755022
 20
15.36469614347354
 10
176.261602386715
 20
15.58975494313153
 10
176.2442175378499
 20
15.86367091125707
 10
176.2850417342583
 20
16.02787112098598
 10
176.1995153256003
 20
16.22749661465097
 10
176.2660558907689
 20
16.2238545840398
 10
176.2838724273231
 20
16.22413447160855
 10
176.4056801797501
 20
16.22632927398615
 10
176.5080770335464
 20
15.94675118721515
 10
176.7580021509355
 20
15.74563008535998
 10
176.9870035331111
 20
15.47792614987921
 10
177.2245151213108
 20
15.22646413862372
 10
177.4486090740772
 20
14.98969974061361
 10
177.6750716283009
 20
14.73218692583076
 10
177.8325687886514
 20
14.61649335056921
 10
178.0472129612675
 20
14.27997152538791
 10
178.0422645974619
 20
14.40464754091603
 10
178.0433931602548
 20
14.46327691935737
 10
178.0428877841517
 20
14.55043662371977
 10
178.0430475158113
 20
14.64416143182872
 10
178.043005489132
 20
14.73018971297035
 10
178.0430202040374
 20
14.79153891945496
 10
178.0429706255984
 20
14.94135231520992
 10
178.0458811522811
 20
15.17989612510104
 10
178.0259521041162
 20
15.54486509868701
 10
178.0750433936248
 20
15.8079963199341
 10
177.9177951509181
 20
16.21928904947752
 10
178.0762112872422
 20
16.16398282551748
 10
178.1311680478629
 20
16.16199686500175
 10
178.1827887766739
 20
16.1626477824825
 10
178.2713198965366
 20
16.20369527738245
 10
178.2204898303168
 20
16.05696326622986
 10
178.2313389930283
 20
15.95019971954433
 10
178.2166036994848
 20
15.79085705414112
 10
178.2099976446206
 20
15.62853061652874
 10
178.2014961399915
 20
15.45992521892396
 10
178.19432272022
 20
15.2981481470354
 10
178.1889063215389
 20
15.15422331457932
 10
178.1871713967649
 20
15.03437493466925
 10
178.1875440672319
 20
14.92686101590514
 10
178.1873656126264
 20
14.81820024645586
 10
178.187701086314
 20
14.6995357016553
 10
178.1890040622186
 20
14.5755516351274
 10
178.1908887351575
 20
14.44858294171104
 10
178.192500445485
 20
14.32153861551031
 10
178.194140313743
 20
14.19854884492177
 10
178.1962570745753
 20
14.08300931383759
 10
178.1963848422363
 20
13.98090903955836
 10
178.2006514396554
 20
13.89009848838156
 10
178.190844008529
 20
13.83213621208786
 10
178.2118474771689
 20
13.76517130132029
 10
178.1725639739896
 20
13.77291153966687
 10
177.9595307117745
 20
13.75755254145192
 10
177.7636297943187
 20
14.31403058094472
 10
177.4611197631544
 20
14.5755603534851
 10
177.3067935648021
 20
14.70898038201723
 97
        1
330
A6
 75
     1
 76
     2
 52
45.0
 41
0.1
 77
     0
 78
     1
 53
45.0
 43
0.0
 44
0.0
 45
-0.282842712474619
 46
0.0
 79
     0
 98
        1
 10
0.0
 20
0.0
  0
HATCH
  5
C4
330
4B
100
AcDbEntity
  8
1
  6
Continuous
 62
     2
100
AcDbHatch
 10
0.0
 20
0.0
 30
0.0
210
0.0
220
0.0
230
1.0
  2
CUSTOM3
 70
     0
 71
     1
 91
        1
 92
        1
 93
        1
 72
     4
 94
        3
 73
     0
 74
     0
 95
      110
 96
      106
 40
0.0
 40
0.0
 40
0.0
 40
0.0
 40
0.2203406257277696
 40
0.4407808782838128
 40
0.5952494494615392
 40
0.748843165939311
 40
0.902358183130938
 40
1.056801968670408
 40
1.210736449100022
 40
1.363041386539787
 40
1.515315729683158
 40
1.669377239148166
 40
1.721611652756662
 40
1.773199502943047
 40
1.824933793210101
 40
1.877110426488087
 40
1.982682281206879
 40
2.078781667087631
 40
2.172809640822408
 40
2.271937807379119
 40
2.378349933379455
 40
2.494131557736587
 40
2.626681683943778
 40
2.783145050796262
 40
2.890701232941112
 40
2.993130312455024
 40
3.099869730692002
 40
3.2202378166915
 40
3.352695482737777
 40
3.481732806390041
 40
3.59349947369056
 40
3.674323013332066
 40
3.817951711952931
 40
3.946167120794042
 40
4.061405053453642
 40
4.166480796003254
 40
4.262478775059292
 40
4.350736673551248
 40
4.433071991254191
 40
4.51121629381485
 40
4.564262454118194
 40
4.618474415571811
 40
4.670128488754414
 40
4.722296879126629
 40
4.819540945314555
 40
4.931194984128355
 40
5.049996040258026
 40
5.168643755415542
 40
5.28397081176281
 40
5.392260784910692
 40
5.48651225487671
 40
5.559178233950081
 40
5.591425852853751
 40
5.62621596963813
 40
5.66715583867467
 40
5.717449290214486
 40
5.738402360945099
 40
5.784499116554067
 40
5.830595872165035
 40
5.851548942897893
 40
5.873019280662008
 40
5.92421777840855
 40
5.985325662817929
 40
6.036524160567946
 40
6.057994498334474
 40
6.236847789607723
 40
6.381409928945909
 40
6.493190424178933
 40
6.574067534230737
 40
6.691018086205831
 40
6.814881554220749
 40
6.944307823240758
 40
7.071266716066326
 40
7.193488604462227
 40
7.309042773128483
 40
7.414007203171081
 40
7.50514044188678
 40
7.531150360599927
 40
7.559221645322519
 40
7.587202218921178
 40
7.612569159499389
 40
7.662550809481266
 40
7.702878875764397
 40
7.857328205231211
 40
8.010799568088856
 40
8.165256399657807
 40
8.322232698714146
 40
8.479564855016804
 40
8.63521623029095
 40
8.790882550925954
 40
8.94830515494752
 40
9.16827183903321
 40
9.387358980987486
 40
9.608047961033723
 40
9.832914234792916
 40
9.858338694963253
 40
9.92536681723026
 40
10.02013071422784
 40
10.12876249859023
 40
10.23739428295273
 40
10.33215817995215
 40
10.39918630222418
 40
10.42461076239807
 40
10.64992019336968
 40
10.87188524531213
 40
10.87188524531213
 40
10.87188524531213
 40
10.87188524531213
 10
179.9057788376619
 20
15.7392326039819
 10
179.9092864933542
 20
15.80616462073803
 10
179.9163033987663
 20
15.94005891915859
 10
179.8198027599073
 20
16.22548554971471
 10
180.0510134726109
 20
16.16284386190283
 10
180.1919290057156
 20
16.17001554055991
 10
180.3490417757588
 20
16.16235883078244
 10
180.5025913427288
 20
16.1625275228304
 10
180.6545104935081
 20
16.16182040535431
 10
180.8142214813232
 20
16.1721015835164
 10
180.9408972601118
 20
16.1549651108075
 10
181.1370821122081
 20
16.22727260107146
 10
181.1034395279079
 20
16.12640699080118
 10
181.1052011317184
 20
16.0761925394767
 10
181.1027342073458
 20
16.02712335586465
 10
181.1347076966013
 20
15.94063490846998
 10
181.0010399903256
 20
15.98997438608335
 10
180.9172208688057
 20
15.98430634314168
 10
180.8173861139325
 20
15.99465516706298
 10
180.7186576720146
 20
16.00086450411086
 10
180.612153277111
 20
16.00697763816778
 10
180.4910511698061
 20
16.01588883484585
 10
180.3703381502453
 20
16.00521605912382
 10
180.1812553843437
 20
16.06468503080369
 10
180.2129028505312
 20
15.90558320077539
 10
180.1995563316835
 20
15.80839128339903
 10
180.1974958426451
 20
15.69634065110102
 10
180.195818804467
 20
15.5769968562935
 10
180.1973336794233
 20
15.45032592155109
 10
180.1956582478671
 20
15.32301588016117
 10
180.2058844271658
 20
15.22451566404464
 10
180.1779006596583
 20
15.08388702625633
 10
180.3508029999306
 20
15.13989551134097
 10
180.4645020202772
 20
15.12719951478498
 10
180.584015167224
 20
15.13448377051255
 10
180.6888491425072
 20
15.13878017056755
 10
180.7843084898612
 20
15.14330568258977
 10
180.8763823507032
 20
15.151492011462
 10
180.9476551782439
 20
15.14643850638111
 10
181.0544931705687
 20
15.18536425031676
 10
181.0226603598036
 20
15.10517122005881
 10
181.026616450393
 20
15.05562936846033
 10
181.0234502392012
 20
15.00557478039818
 10
181.0550791490587
 20
14.92128847612022
 10
180.9210133677691
 20
14.97425365495155
 10
180.8292322793202
 20
14.96540080890442
 10
180.7079729189603
 20
14.97570049965154
 10
180.5914113119773
 20
14.97748911767503
 10
180.4783375745879
 20
14.97787017109693
 10
180.3679246308472
 20
14.98415449472181
 10
180.2898124067841
 20
14.97189133255364
 10
180.1913625833645
 20
15.00453887616125
 10
180.2012355173561
 20
14.94769748054206
 10
180.1973923244405
 20
14.91392130557984
 10
180.1966789884267
 20
14.8711960470941
 10
180.1963369642976
 20
14.83401607262153
 10
180.1963834255345
 20
14.7948723737077
 10
180.1963649429926
 20
14.75716849497685
 10
180.1963703431807
 20
14.71944955232403
 10
180.1963697214201
 20
14.6899432474515
 10
180.1963698151545
 20
14.65873577699301
 10
180.1963704287921
 20
14.61414424908085
 10
180.1963671499336
 20
14.5596395650885
 10
180.1963759623481
 20
14.51505540201448
 10
180.1963359653417
 20
14.4311780858574
 10
180.1976024270255
 20
14.31737520677678
 10
180.1950274117843
 20
14.16830395933708
 10
180.206500938172
 20
14.06597203813905
 10
180.1823506222263
 20
13.93338903885834
 10
180.3332993946476
 20
13.97895732272021
 10
180.4428436671556
 20
13.96427012162349
 10
180.573397047392
 20
13.96920435125062
 10
180.6990312209514
 20
13.97257705323363
 10
180.8188730625602
 20
13.97711497498772
 10
180.9391362611427
 20
13.99048536182005
 10
181.0222761663516
 20
13.98068712782595
 10
181.1456080421075
 20
14.0412621462332
 10
181.1244269203957
 20
13.9853246013402
 10
181.1235950270117
 20
13.95939249372347
 10
181.1218963707558
 20
13.93197256190938
 10
181.1217974888829
 20
13.89738195206385
 10
181.120365930133
 20
13.86050408220767
 10
181.1532804192189
 20
13.76846841021806
 10
180.9551306988107
 20
13.84132015974831
 10
180.8300548294891
 20
13.81825726508605
 10
180.6673071295156
 20
13.82454021985784
 10
180.5129366450001
 20
13.82260943909925
 10
180.3566670436944
 20
13.82393762599267
 10
180.1970544465282
 20
13.82059872487861
 10
180.0540326342237
 20
13.83265795728241
 10
179.8197144881628
 20
13.76952001976918
 10
179.9173810751197
 20
14.05620527466318
 10
179.900686878006
 20
14.2498830814266
 10
179.9146296709684
 20
14.47848242880295
 10
179.9142987846632
 20
14.63384593955046
 10
179.9143078119264
 20
14.73966336444125
 10
179.9143055876316
 20
14.80205784124213
 10
179.9143065551888
 20
14.89220425248325
 10
179.9143065473262
 20
14.99621167157437
 10
179.9143053861102
 20
15.10022131375295
 10
179.9143090971502
 20
15.19036243688766
 10
179.9143011051052
 20
15.25276803097214
 10
179.9143334275017
 20
15.35868835961118
 10
179.913144078832
 20
15.51626716544739
 10
179.9082216489256
 20
15.66528219822065
 10
179.9057788376619
 20
15.7392326039819
 97
        1
330
A7
 75
     1
 76
     2
 52
45.0
 41
0.1
 77
     0
 78
     1
 53
45.0
 43
0.0
 44
0.0
 45
-0.282842712474619
 46
0.0
 79
     0
 98
        1
 10
0.0
 20
0.0
  0
HATCH
  5
C5
330
4B
100
AcDbEntity
  8
1
  6
Continuous
 62
     2
100
AcDbHatch
 10
0.0
 20
0.0
 30
0.0
210
0.0
220
0.0
230
1.0
  2
CUSTOM4
 70
     0
 71
     1
 91
        1
 92
        1
 93
        1
 72
     4
 94
        3
 73
     0
 74
     0
 95
       47
 96
       43
 40
0.0
 40
0.0
 40
0.0
 40
0.0
 40
0.2207912809957248
 40
0.4459404186303181
 40
0.4902387190459682
 40
0.5327473892722344
 40
0.5742260451226522
 40
0.6155432630561815
 40
0.6568164066317017
 40
0.6982511618781662
 40
0.7407663929317879
 40
0.7851366743176508
 40
1.010288833836458
 40
1.231080507002314
 40
1.451765243652532
 40
1.676638205891819
 40
1.72046104535979
 40
1.830018144043657
 40
1.97244237235329
 40
2.114866600677662
 40
2.224423699395289
 40
2.26824653888353
 40
2.493628801207356
 40
2.715602830286751
 40
2.934211330706505
 40
3.149502369855503
 40
3.231387784851205
 40
3.318231873854212
 40
3.405143198198228
 40
3.486970301720721
 40
3.702258172494168
 40
3.920866283534399
 40
4.142839325932181
 40
4.368221903865638
 40
4.412044743360122
 40
4.521601842096137
 40
4.664026070452618
 40
4.806450298809329
 40
4.916007397547025
 40
4.959830237043349
 40
5.184703515847382
 40
5.405387250767745
 40
5.405387250767745
 40
5.405387250767745
 40
5.405387250767745
 10
182.6507427258646
 20
15.73406440953871
 10
182.6568139420004
 20
15.79758482501209
 10
182.6690762107243
 20
15.92587938689627
 10
182.5604706879412
 20
16.20166220174078
 10
182.6761985896603
 20
16.17188133432053
 10
182.7171842509016
 20
16.1676555626282
 10
182.7591205797519
 20
16.16310446389607
 10
182.8004196625712
 20
16.16201982929485
 10
182.8417032115556
 20
16.16310338195226
 10
182.8836148270648
 20
16.16766112711345
 10
182.924598354902
 20
16.17187430209728
 10
183.040492284349
 20
16.20177611317535
 10
182.9295652727456
 20
15.9233980660989
 10
182.9574856365267
 20
15.74283140824952
 10
182.9404267346969
 20
15.50961042346471
 10
182.9414637282103
 20
15.34906622543147
 10
182.9414099399404
 20
15.22284817558721
 10
182.9414277372481
 20
15.12428963336241
 10
182.941418858108
 20
14.99280702442962
 10
182.9414263928034
 20
14.86132844968649
 10
182.9414129405128
 20
14.76276222694089
 10
182.9414531717492
 20
14.63639735624152
 10
182.9406746403816
 20
14.47482068822869
 10
182.9565958319267
 20
14.24361821892915
 10
182.9333468885407
 20
14.05874351972
 10
183.0360183444367
 20
13.78935602770054
 10
182.8820238362837
 20
13.82660112685816
 10
182.8004129802832
 20
13.82137994680533
 10
182.7188192292583
 20
13.8266062037835
 10
182.5648513666843
 20
13.78937069885385
 10
182.6674183421918
 20
14.05875129862879
 10
182.6442045316089
 20
14.24361585325414
 10
182.660044465514
 20
14.47482218565638
 10
182.6593296313426
 20
14.63639712308503
 10
182.6593664569907
 20
14.7627623121052
 10
182.659354900027
 20
14.86132756635981
 10
182.6593575019213
 20
14.99281127417219
 10
182.6593648531779
 20
15.124275480312
 10
182.6593442541351
 20
15.22287786275325
 10
182.6594082192028
 20
15.34896149354427
 10
182.658173394759
 20
15.51210091383771
 10
182.6532040396746
 20
15.66054183777549
 10
182.6507427258646
 20
15.73406440953871
 97
        1
330
A8
 75
     1
 76
     2
 52
45.0
 41
0.1
 77
     0
 78
     1
 53
45.0
 43
0.0
 44
0.0
 45
-0.282842712474619
 46
0.0
 79
     0
 98
        1
 10
0.0
 20
0.0
  0
HATCH
  5
C6
330
4B
100
AcDbEntity
  8
1
  6
Continuous
 62
     2
100
AcDbHatch
 10
0.0
 20
0.0
 30
0.0
210
0.0
220
0.0
230
1.0
  2
CUSTOM5
 70
     0
 71
     1
 91
        1
 92
        1
 93
        1
 72
     4
 94
        3
 73
     0
 74
     0
 95
      118
 96
      114
 40
0.0
 40
0.0
 40
0.0
 40
0.0
 40
0.1054708162973134
 40
0.246609827005151
 40
0.3965912874590848
 40
0.5285525069753589
 40
0.6156245055642163
 40
0.6431434105797461
 40
0.7036850037986305
 40
0.7642265984504842
 40
0.79174550523553
 40
0.9287404319989934
 40
1.106572819088061
 40
1.287544879681018
 40
1.317578308030535
 40
1.399928030857174
 40
1.522968204799948
 40
1.675072986590569
 40
1.844616533180647
 40
2.019973001638711
 40
2.189516548880023
 40
2.341621331585362
 40
2.464661506320498
 40
2.547011229647062
 40
2.577044658168026
 40
2.603797890893096
 40
2.66265500290884
 40
2.721512114949709
 40
2.748265347702889
 40
2.774215307344965
 40
2.845959313407295
 40
2.954338556588493
 40
3.09019422758567
 40
3.244367517100633
 40
3.407699615844392
 40
3.571031714539538
 40
3.725205003920214
 40
3.861060674729712
 40
3.969439917716405
 40
4.041183923629079
 40
4.067133883213071
 40
4.311886746012241
 40
4.547897258335605
 40
4.764747083044045
 40
4.952749679951826
 40
5.045772974195964
 40
5.137862019645082
 40
5.330543169793133
 40
5.553448265244126
 40
5.795083855888281
 40
6.043293412177345
 40
6.285761695541292
 40
6.313902908752776
 40
6.384255941793366
 40
6.475714884766925
 40
6.56717382775896
 40
6.637526860839738
 40
6.665668074074072
 40
6.692018920328045
 40
6.749990782071115
 40
6.807962643790483
 40
6.834313490017958
 40
6.856393084245236
 40
6.91333519564986
 40
6.991194817302495
 40
7.076026942283757
 40
7.153886563725218
 40
7.210828674844772
 40
7.232908268931108
 40
7.258199334923629
 40
7.324875781592277
 40
7.419142481924932
 40
7.527204308841871
 40
7.635266135230446
 40
7.729532834168432
 40
7.796209279292751
 40
7.821500344594697
 40
7.844652988850796
 40
7.899863140541575
 40
7.96575912805377
 40
8.02096927977111
 40
8.044121924046577
 40
8.069356610160709
 40
8.1091343954414
 40
8.132238100191111
 40
8.193147867786474
 40
8.279261678876646
 40
8.377977512673858
 40
8.47669334714664
 40
8.56280716041169
 40
8.623716930826477
 40
8.646820636853429
 40
8.671988793774242
 40
8.734909185828096
 40
8.81670569518881
 40
8.898502204815353
 40
8.961422597377785
 40
8.986590754550898
 40
9.012941600733052
 40
9.070913462380137
 40
9.128885324081633
 40
9.155236170324953
 40
9.180404327928995
 40
9.24332472194804
 40
9.325121234211776
 40
9.406917746637431
 40
9.469838141977887
 40
9.495006288270632
 40
9.517811184378774
 40
9.572192090486771
 40
9.637098333281
 40
9.691479239515195
 40
9.714284125643234
 40
9.714284125643234
 40
9.714284125643234
 40
9.714284125643234
 10
185.2874469028654
 20
15.2688916318772
 10
185.3090990569038
 20
15.24111869242811
 10
185.3597257109475
 20
15.17618054561235
 10
185.4349383202591
 20
15.06891060312896
 10
185.5248482274347
 20
14.95377438266625
 10
185.5709169676673
 20
14.85357045748316
 10
185.6655825294656
 20
14.78434006814943
 10
185.6204439320413
 20
14.73771639678272
 10
185.5947047785791
 20
14.69660308866039
 10
185.5645196708012
 20
14.66065971727938
 10
185.5193684730562
 20
14.58579782596097
 10
185.4710504458562
 20
14.80782524253606
 10
185.3968539713073
 20
14.84510677337705
 10
185.2836047324608
 20
15.11610202130599
 10
185.288513357817
 20
15.00095328446228
 10
185.2868486556307
 20
14.92836675781628
 10
185.2876830076715
 20
14.80625588483986
 10
185.2873609540265
 20
14.6591380081046
 10
185.2875076912457
 20
14.49307063956557
 10
185.2872950092723
 20
14.32187554608602
 10
185.2879497252034
 20
14.15552828635498
 10
185.285919246114
 20
14.00935173055693
 10
185.2913460399931
 20
13.8847104747461
 10
185.2804930868709
 20
13.81718656540626
 10
185.2956739155556
 20
13.75549061417022
 10
185.2457895108134
 20
13.76727503897003
 10
185.2017150342523
 20
13.75943822779969
 10
185.1582371630201
 20
13.76760441372703
 10
185.1092346786488
 20
13.75538056738468
 10
185.1218731234825
 20
13.80960667249313
 10
185.113018296845
 20
13.86936918907558
 10
185.1175058770314
 20
13.9792202904437
 10
185.1157960135991
 20
14.11029975405678
 10
185.1163550915987
 20
14.26198011444328
 10
185.1161928768694
 20
14.42211074929953
 10
185.1162269924674
 20
14.58236865674565
 10
185.1162514960128
 20
14.73370247520439
 10
185.1161453543224
 20
14.865821563386
 10
185.1164299141931
 20
14.97294802533192
 10
185.1158675547568
 20
15.03808619579473
 10
185.1180765083689
 20
15.16618957858673
 10
185.0319435998603
 20
14.79097610391573
 10
184.95551408185
 20
14.63918193123394
 10
184.8660040767834
 20
14.47766206446305
 10
184.7640413217327
 20
14.20471848820172
 10
184.7187976491039
 20
14.36717346596512
 10
184.610235594167
 20
14.45605432058117
 10
184.7995791751753
 20
14.6054979496141
 10
184.85653405457
 20
14.79749136974925
 10
184.9717520993352
 20
15.02899622906757
 10
184.9940151630132
 20
15.21797259759063
 10
185.177190515214
 20
15.4945408932593
 10
185.0538033597552
 20
15.48698978832094
 10
184.9925684166834
 20
15.48856772366118
 10
184.9081999617064
 20
15.48882592573672
 10
184.8204235085967
 20
15.48544845751206
 10
184.7656768696123
 20
15.49394814982019
 10
184.7104703026026
 20
15.48048561049789
 10
184.7222823035537
 20
15.52931442126764
 10
184.7142496151795
 20
15.57269004896708
 10
184.7228186104678
 20
15.61509438309573
 10
184.7102943409158
 20
15.66267796552118
 10
184.7555101538736
 20
15.65267212995109
 10
184.8014815562724
 20
15.65894105174061
 10
184.8777222047711
 20
15.65593561405872
 10
184.9561296131994
 20
15.65770448278541
 10
185.0323992648933
 20
15.6546479398166
 10
185.0783009459474
 20
15.66103971376176
 10
185.12317339654
 20
15.65093822978897
 10
185.1105552275634
 20
15.70157201581898
 10
185.1191936582707
 20
15.7550126188207
 10
185.1152361595443
 20
15.8486325513168
 10
185.1162325068335
 20
15.95112606688923
 10
185.1171927413073
 20
16.05353270248163
 10
185.1133211458005
 20
16.1473592960932
 10
185.1217789814364
 20
16.20036542840352
 10
185.1093075932835
 20
16.25211435651187
 10
185.154210638985
 20
16.23850747226756
 10
185.1955083836772
 20
16.24100480320584
 10
185.2595344281052
 20
16.23648060574487
 10
185.2986111148786
 20
16.22781003043308
 10
185.3476543498744
 20
16.23515102070685
 10
185.322508003059
 20
16.19602896051763
 10
185.2815901333724
 20
16.20563842455802
 10
185.2910109616604
 20
16.15540148169778
 10
185.2855647318747
 20
16.10385945639489
 10
185.2881699601804
 20
16.01959707584519
 10
185.2870102202155
 20
15.92559135583408
 10
185.2883591064233
 20
15.83196865395525
 10
185.2849970101509
 20
15.74679517552222
 10
185.292095991777
 20
15.69716856072044
 10
185.2812569154547
 20
15.64993694969989
 10
185.3304010225246
 20
15.66201674936851
 10
185.3794877630147
 20
15.65447393363011
 10
185.4573714280641
 20
15.65686070361432
 10
185.5350365172896
 20
15.65899381905415
 10
185.5845393931354
 20
15.65193391922455
 10
185.6344594750639
 20
15.66360151936214
 10
185.6223198516881
 20
15.61540235371393
 10
185.6305838229143
 20
15.57249219801236
 10
185.6223198650783
 20
15.52958201851384
 10
185.6344594549855
 20
15.48138288754864
 10
185.5845395158746
 20
15.4930503447151
 10
185.5350350651203
 20
15.48599202435046
 10
185.4573784382973
 20
15.48811665228604
 10
185.379464386576
 20
15.4905338936576
 10
185.3304500352718
 20
15.48291848194486
 10
185.2813246108944
 20
15.49507952557591
 10
185.2915559988572
 20
15.45073013424159
 10
185.2856677678054
 20
15.40925436202911
 10
185.287878830557
 20
15.34915394315303
 10
185.2874109346148
 20
15.3022578276289
 10
185.2874386992914
 20
15.27650146418197
 10
185.2874469028654
 20
15.2688916318772
 97
        1
330
A9
 75
     1
 76
     2
 52
45.0
 41
0.1
 77
     0
 78
     1
 53
45.0
 43
0.0
 44
0.0
 45
-0.282842712474619
 46
0.0
 79
     0
 98
        1
 10
0.0
 20
0.0
  0
HATCH
  5
C7
330
4B
100
AcDbEntity
  8
1
  6
Continuous
 62
     2
100
AcDbHatch
 10
0.0
 20
0.0
 30
0.0
210
0.0
220
0.0
230
1.0
  2
CUSTOM6
 70
     0
 71
     1
 91
        1
 92
        1
 93
        1
 72
     4
 94
        3
 73
     0
 74
     0
 95
       91
 96
       87
 40
0.0
 40
0.0
 40
0.0
 40
0.0
 40
0.0345987051695434
 40
0.1258134969461369
 40
0.2547723404888987
 40
0.4026032099154409
 40
0.5504340793417273
 40
0.6793929228836932
 40
0.7706077146571888
 40
0.8052064287781777
 40
1.124852390615363
 40
1.427402236308954
 40
1.706356627453596
 40
1.955541417875281
 40
2.169485938566426
 40
2.344350786664881
 40
2.480568411562031
 40
2.590440557429053
 40
2.649189927151255
 40
2.749320643306468
 40
2.912632739880163
 40
3.147745656000362
 40
3.244827496385204
 40
3.338490056946747
 40
3.583815413207163
 40
3.761423943238521
 40
3.886956104362684
 40
3.985855451886889
 40
4.091766255337774
 40
4.250186473811939
 40
4.422734315084562
 40
4.628285684838657
 40
4.872093227758499
 40
5.15254965214561
 40
5.46496713583759
 40
5.803201477852511
 40
6.160362988813985
 40
6.19344944827604
 40
6.284170385501695
 40
6.419718138764565
 40
6.587285046385815
 40
6.774063446723729
 40
6.967245678113712
 40
7.154024078817698
 40
7.321590987026084
 40
7.457138740890442
 40
7.547859678556178
 40
7.580946138182738
 40
7.60853308471479
 40
7.66922436707777
 40
7.729915649429992
 40
7.757502595950043
 40
7.790278062553496
 40
7.880146277430994
 40
8.014419963180458
 40
8.180411842397987
 40
8.365434637679456
 40
8.556801071622786
 40
8.74182386683087
 40
8.907815745916409
 40
9.042089431507591
 40
9.131957646249717
 40
9.164733112797293
 40
9.415425063140217
 40
9.667986180958684
 40
9.69416980746285
 40
9.75660768604781
 40
9.831130315322701
 40
9.893568193900137
 40
9.919751820398982
 40
9.950967964690792
 40
9.996421631210955
 40
10.22087981037484
 40
10.44341866197572
 40
10.47847970788884
 40
10.57091337438785
 40
10.70159545461265
 40
10.85140174170393
 40
11.00120802880516
 40
11.13189010907421
 40
11.22432377583046
 40
11.25938480938995
 40
11.28697175596183
 40
11.34766303835958
 40
11.40835432042109
 40
11.43594125892143
 40
11.43594125892143
 40
11.43594125892143
 40
11.43594125892143
 10
190.081811433329
 20
15.55242795125077
 10
190.0702785844941
 20
15.55242790287915
 10
190.0283409445
 20
15.55242773704164
 10
189.9434129719026
 20
15.55243125800908
 10
189.8207688553129
 20
15.55240926435879
 10
189.6791206916993
 20
15.55250801177053
 10
189.537975369849
 20
15.55214686232421
 10
189.4141351317904
 20
15.55321883609088
 10
189.3317217825381
 20
15.55092249091268
 10
189.1727791229693
 20
15.56048569373421
 10
189.3503402353375
 20
15.1978539431137
 10
189.3379739205453
 20
14.95243127723115
 10
189.4064519473864
 20
14.66862501324835
 10
189.469302432097
 20
14.43250999939036
 10
189.5452253431728
 20
14.2332674039613
 10
189.6303189577016
 20
14.07745347451374
 10
189.7244607592936
 20
13.97657857781392
 10
189.8282648207727
 20
13.92465852638966
 10
189.9125872030774
 20
13.97606484379614
 10
189.9351322179453
 20
14.09144544037516
 10
189.9745730975372
 20
14.2188514970238
 10
189.9202919734944
 20
14.53622328086755
 10
190.0451218072474
 20
14.38982180140906
 10
190.2019291513603
 20
14.35795300331166
 10
190.0947720007057
 20
14.12421357767627
 10
190.0808711209867
 20
13.95972776583657
 10
190.0234709467226
 20
13.83130869122481
 10
189.9335020145008
 20
13.76018802352828
 10
189.8095274657878
 20
13.74432324142254
 10
189.663427319686
 20
13.77993797554172
 10
189.5243894320285
 20
13.90000570500279
 10
189.4102003962144
 20
14.0743568255032
 10
189.3146141301487
 20
14.2994660311124
 10
189.2318652572626
 20
14.56388246006442
 10
189.1807179256411
 20
14.88187933098543
 10
189.0770189207338
 20
15.15543728488912
 10
189.2042841208519
 20
15.56005818612866
 10
189.0357890623019
 20
15.55112367849678
 10
188.9511995787077
 20
15.55315961418363
 10
188.8189876387627
 20
15.55213937388406
 10
188.6560505094104
 20
15.55253230318429
 10
188.4733759170532
 20
15.55235696313368
 10
188.2847057373383
 20
15.55260105307468
 10
188.1014469020189
 20
15.55185657906236
 10
187.9404746832718
 20
15.55416360522425
 10
187.8029808335276
 20
15.54799804883662
 10
187.728959037231
 20
15.56032838458211
 10
187.6613215186856
 20
15.54329323723556
 10
187.6732373719269
 20
15.59524438447528
 10
187.6655677285694
 20
15.64071424966529
 10
187.6732592225115
 20
15.68614453703705
 10
187.6613141797762
 20
15.7380239598457
 10
187.7283588305867
 20
15.72119143490264
 10
187.8017375665676
 20
15.73335409092671
 10
187.9379128305272
 20
15.72727231074958
 10
188.0973811801512
 20
15.72954834315057
 10
188.2789173085837
 20
15.72881233998962
 10
188.465803486218
 20
15.72905954196133
 10
188.6468012316836
 20
15.72886400799254
 10
188.8080802578879
 20
15.72932234714839
 10
188.9393882124887
 20
15.72812673751206
 10
189.0225051322597
 20
15.73051347319742
 10
189.1556236547815
 20
15.72230605725464
 10
189.0645893502658
 20
15.97752868952655
 10
188.9789633074418
 20
16.24164358328245
 10
189.0990589003455
 20
16.22904442969165
 10
189.1514264948543
 20
16.22694235763074
 10
189.2214497569716
 20
16.22535399889658
 10
189.2671922337818
 20
16.21602567538112
 10
189.3220812646933
 20
16.22545966915428
 10
189.2963574785682
 20
16.17733028655169
 10
189.1825397571453
 20
16.18266829744175
 10
189.3159346621137
 20
15.95449174576774
 10
189.1943658735472
 20
15.72156856595924
 10
189.3223188769412
 20
15.73087258884438
 10
189.4049048406461
 20
15.7280100175468
 10
189.5307214850824
 20
15.72923437412302
 10
189.6741469838059
 20
15.72932431888964
 10
189.8157420951728
 20
15.72746163183853
 10
189.9459127249968
 20
15.73333075937162
 10
190.0193452286191
 20
15.72070340823204
 10
190.0891112922097
 20
15.73877563110413
 10
190.0775772605396
 20
15.68612850546326
 10
190.0833184346683
 20
15.64221317686547
 10
190.0816615770912
 20
15.59089982676549
 10
190.081775756167
 20
15.56158792021634
 10
190.081811433329
 20
15.55242795125077
 97
        1
330
AA
 75
     1
 76
     2
 52
45.0
 41
0.1
 77
     0
 78
     1
 53
45.0
 43
0.0
 44
0.0
 45
-0.282842712474619
 46
0.0
 79
     0
 98
        1
 10
0.0
 20
0.0
  0
HATCH
  5
C8
330
4B
100
AcDbEntity
  8
1
  6
Continuous
 62
     2
100
AcDbHatch
 10
0.0
 20
0.0
 30
0.0
210
0.0
220
0.0
230
1.0
  2
CUSTOM7
 70
     0
 71
     1
 91
        1
 92
        1
 93
        1
 72
     4
 94
        3
 73
     0
 74
     0
 95
       75
 96
       71
 40
0.0
 40
0.0
 40
0.0
 40
0.0
 40
0.0342546099129691
 40
0.1245622414432364
 40
0.2522385480897554
 40
0.3985991922940715
 40
0.544959836498091
 40
0.6726361431438905
 40
0.7629437746737049
 40
0.7971983935298079
 40
1.101723623449699
 40
1.408591244036593
 40
1.433332471690301
 40
1.487763172450101
 40
1.542193873081933
 40
1.566935100592485
 40
1.923523931821794
 40
2.271755704953566
 40
2.590579755100781
 40
2.858943305581011
 40
2.889120339309043
 40
2.918305855191038
 40
2.94136664553116
 40
2.996357760973043
 40
3.061992318140589
 40
3.116983433626755
 40
3.140044223997444
 40
3.411273122936281
 40
3.732441619741056
 40
3.761068217532754
 40
3.83778749963032
 40
3.948858699125957
 40
4.080541049104335
 40
4.219093782625722
 40
4.350776132722274
 40
4.461847332405608
 40
4.538566614678341
 40
4.56719321254459
 40
4.594907573998848
 40
4.666381453557415
 40
4.764111044011054
 40
4.870592538125885
 40
4.968322128642336
 40
5.03979600828705
 40
5.067510369784509
 40
5.094263603185722
 40
5.153120716668354
 40
5.211977830150797
 40
5.238731063551802
 40
5.272290535139041
 40
5.363380529444902
 40
5.497618415781579
 40
5.660621563453821
 40
5.838007341749522
 40
6.015393119910874
 40
6.178396267038499
 40
6.312634151842451
 40
6.40372414305944
 40
6.437283612672536
 40
6.464036846261152
 40
6.522893960004765
 40
6.581751071484025
 40
6.608504301590971
 40
6.637253941281118
 40
6.71139774890297
 40
6.812778057283554
 40
6.923237199249273
 40
7.024617507623946
 40
7.09876131520757
 40
7.12751094600752
 40
7.12751094600752
 40
7.12751094600752
 40
7.12751094600752
 10
188.4418622390565
 20
14.95849128473265
 10
188.4418622819707
 20
14.9470731340872
 10
188.4418624481129
 20
14.9055525784263
 10
188.4418593081788
 20
14.82146922003773
 10
188.4418788279801
 20
14.70004497322329
 10
188.4417912187738
 20
14.55980494047449
 10
188.4421116235231
 20
14.42006556794576
 10
188.4411605909741
 20
14.29745038894929
 10
188.4431978595968
 20
14.21587074438043
 10
188.4349433178747
 20
14.06271267077697
 10
188.7430797940901
 20
14.22560236054717
 10
189.0350645173736
 20
14.39482938687998
 10
189.0408354448707
 20
14.25973235781911
 10
189.0455471719891
 20
14.21617221160443
 10
189.0482535411917
 20
14.17211249350543
 10
189.0672545672961
 20
14.02272590363135
 10
188.6583942247301
 20
14.08681172241261
 10
188.3793710348833
 20
13.97296341411016
 10
188.1018081587166
 20
13.87364095811143
 10
187.8099837184402
 20
13.91630687596354
 10
187.7869144678658
 20
13.81321679744539
 10
187.7537474383333
 20
13.78691091244469
 10
187.7480653962738
 20
13.83455309036303
 10
187.7284214559045
 20
13.87180336115071
 10
187.7095089485623
 20
13.93007387847561
 10
187.6942849867709
 20
13.97385201007807
 10
187.6477246372934
 20
14.08759421046303
 10
187.9890897312452
 20
14.05576301120051
 10
188.2679649367388
 20
14.02161435106475
 10
188.2617753034908
 20
14.16913976479652
 10
188.2630935452774
 20
14.24013150908832
 10
188.2624831689949
 20
14.34719767958661
 10
188.2625871570726
 20
14.47398529785998
 10
188.2629987964057
 20
14.6084924349605
 10
188.261390784197
 20
14.73395549951185
 10
188.2659902567926
 20
14.84505246719118
 10
188.256418650221
 20
14.90761886800689
 10
188.2704001783692
 20
14.96595388295002
 10
188.2147384386706
 20
14.95289710582239
 10
188.1575655197822
 20
14.96136307749499
 10
188.0616048925648
 20
14.95729976080637
 10
187.9633767522821
 20
14.95970889852475
 10
187.867258245756
 20
14.95551600613388
 10
187.8104648525812
 20
14.96429346441164
 10
187.7550356873384
 20
14.95094936850121
 10
187.7670679427917
 20
15.00036910959258
 10
187.7592003173938
 20
15.04393988030396
 10
187.7666295563828
 20
15.08830469118525
 10
187.7551930564144
 20
15.13902297763991
 10
187.8232102370132
 20
15.12162460757743
 10
187.8968496879747
 20
15.13417450237189
 10
188.0325064058211
 20
15.12799677011097
 10
188.1884909024525
 20
15.13029203093084
 10
188.3615926358143
 20
15.1294096826253
 10
188.5346942964181
 20
15.13029207142408
 10
188.6906789811216
 20
15.1279966295555
 10
188.8263351889797
 20
15.13417486262432
 10
188.8999756705652
 20
15.12162394218335
 10
188.9679914174724
 20
15.13902373012142
 10
188.9565590885922
 20
15.08830130414555
 10
188.9639539458297
 20
15.04397060811109
 10
188.956203991227
 20
15.00028307550197
 10
188.9681203741877
 20
14.95063590098477
 10
188.9108170223616
 20
14.96461411338426
 10
188.8520145789773
 20
14.95539755673255
 10
188.75252936332
 20
14.95952268164931
 10
188.6494280098349
 20
14.95822760025888
 10
188.5537846354574
 20
14.95854077077641
 10
188.4857467971617
 20
14.95848776697147
 10
188.4514462213444
 20
14.95849051871657
 10
188.4418622390565
 20
14.95849128473265
 97
        1
330
AB
 75
     1
 76
     2
 52
45.0
 41
0.1
 77
     0
 78
     1
 53
45.0
 43
0.0
 44
0.0
 45
-0.282842712474619
 46
0.0
 79
     0
 98
        1
 10
0.0
 20
0.0
  0
HATCH
  5
C9
330
4B
100
AcDbEntity
  8
1
  6
Continuous
 62
     2
100
AcDbHatch
 10
0.0
 20
0.0
 30
0.0
210
0.0
220
0.0
230
1.0
  2
CUSTOM8
 70
     0
 71
     1
 91
        1
 92
        1
 93
        1
 72
     4
 94
        3
 73
     0
 74
     0
 95
       15
 96
       11
 40
0.0
 40
0.0
 40
0.0
 40
0.0
 40
0.2785535985096532
 40
0.5215624748198807
 40
0.6076917376040443
 40
0.6938210001741176
 40
0.9405019146454385
 40
1.221691403489051
 40
1.300471877080922
 40
1.379252341684639
 40
1.379252341684639
 40
1.379252341684639
 40
1.379252341684639
 10
189.5681493630999
 20
16.2293026733038
 10
189.6296017794178
 20
16.17691646592715
 10
189.7446649974113
 20
16.07882876798222
 10
190.0397348497244
 20
15.92889785897223
 10
189.9025147631856
 20
15.84343227515014
 10
189.8041227843778
 20
15.71085785201556
 10
189.7130033590651
 20
16.01616985781423
 10
189.3636839480657
 20
16.07967869465372
 10
189.511925837657
 20
16.17896509880877
 10
189.5494081874236
 20
16.21252348402382
 10
189.5681493630999
 20
16.2293026733038
 97
        1
330
AC
 75
     1
 76
     2
 52
45.0
 41
0.1
 77
     0
 78
     1
 53
45.0
 43
0.0
 44
0.0
 45
-0.282842712474619
 46
0.0
 79
     0
 98
        1
 10
0.0
 20
0.0
  0
HATCH
  5
CA
330
4B
100
AcDbEntity
  8
1
  6
Continuous
 62
     2
100
AcDbHatch
 10
0.0
 20
0.0
 30
0.0
210
0.0
220
0.0
230
1.0
  2
CUSTOM9
 70
     0
 71
     1
 91
        1
 92
        1
 93
        1
 72
     4
 94
        3
 73
     0
 74
     0
 95
       35
 96
       31
 40
0.0
 40
0.0
 40
0.0
 40
0.0
 40
0.0335231036621153
 40
0.0713218571711781
 40
0.4278866681486333
 40
0.8116865841963128
 40
1.198190237999948
 40
1.561379546812578
 40
1.659983174621911
 40
1.75931557380703
 40
2.132719617230964
 40
2.525233363588716
 40
2.910815397779605
 40
3.265244364303193
 40
3.592606723581933
 40
3.964386154603859
 40
4.359942131737682
 40
4.758154118639143
 40
4.843846538699769
 40
4.936650065543126
 40
5.256616602537203
 40
5.58170740441594
 40
5.899719158308038
 40
6.198363494280643
 40
6.466301046615675
 40
6.493895311536997
 40
6.559697020196818
 40
6.638234543442422
 40
6.704036252154232
 40
6.731630508423038
 40
6.731630508423038
 40
6.731630508423038
 40
6.731630508423038
 10
191.973601056867
 20
16.23463843719133
 10
191.967600609779
 20
16.22480690542322
 10
191.9548344099157
 20
16.20388988579802
 10
191.7949362006557
 20
16.17127126532669
 10
192.2322025842337
 20
15.88206680336708
 10
192.4345394828262
 20
15.68041138358437
 10
192.6819564267973
 20
15.43749387603275
 10
193.1831513624605
 20
15.3604766275778
 10
193.012556219897
 20
15.21876939174655
 10
192.9383299463202
 20
15.01710366209105
 10
192.6131432248189
 20
15.36956287174725
 10
192.3277741670664
 20
15.53175212559563
 10
192.0337604077658
 20
15.73687130053047
 10
191.8084452691134
 20
16.21827488595455
 10
191.5993085055522
 20
15.75343046609225
 10
191.3207873674835
 20
15.54350952252911
 10
191.0371383177208
 20
15.37424456359986
 10
190.7078639527833
 20
15.00142360907939
 10
190.6277012318224
 20
15.19708014459002
 10
190.4759724909744
 20
15.32491104190592
 10
190.9083395826794
 20
15.40454031765936
 10
191.0962565329766
 20
15.60026634915472
 10
191.3468477420502
 20
15.81632996916755
 10
191.5714350470161
 20
15.98190992300058
 10
191.6259775409714
 20
16.26133964636828
 10
191.7494661029011
 20
16.24737950408078
 10
191.806027334452
 20
16.24521268867647
 10
191.8761870984945
 20
16.2404685988136
 10
191.9333414022106
 20
16.2370942935054
 10
191.964419032084
 20
16.23519854711118
 10
191.973601056867
 20
16.23463843719133
 97
        1
330
AD
 75
     1
 76
     2
 52
45.0
 41
0.1
 77
     0
 78
     1
 53
45.0
 43
0.0
 44
0.0
 45
-0.282842712474619
 46
0.0
 79
     0
 98
        1
 10
0.0
 20
0.0
  0
HATCH
  5
CB
330
4B
100
AcDbEntity
  8
1
  6
Continuous
 62
     2
100
AcDbHatch
 10
0.0
 20
0.0
 30
0.0
210
0.0
220
0.0
230
1.0
  2
CUSTOM10
 70
     0
 71
     1
 91
        1
 92
        1
 93
        1
 72
     4
 94
        3
 73
     0
 74
     0
 95
       91
 96
       87
 40
0.0
 40
0.0
 40
0.0
 40
0.0
 40
0.0267532254356684
 40
0.0856103386464066
 40
0.144467452199655
 40
0.1712206856618426
 40
0.2039416005642447
 40
0.2955601971652395
 40
0.4362601844616829
 40
0.6162252844507161
 40
0.8256392189704609
 40
1.054685709844402
 40
1.293548478893465
 40
1.532411247938209
 40
1.761457738799474
 40
1.970871673298442
 40
2.150836773256638
 40
2.291536760495471
 40
2.383155356836578
 40
2.415876284101198
 40
2.44262951748784
 40
2.501486630948967
 40
2.560343744424112
 40
2.587096977826383
 40
2.617068194440782
 40
2.699247336755923
 40
2.822032643466236
 40
2.973822353257737
 40
3.143014704823179
 40
3.31800793687973
 40
3.487200288186563
 40
3.638989997548044
 40
3.761775303794514
 40
3.843954445752849
 40
3.873925662229545
 40
3.890812773500252
 40
3.907699884771404
 40
3.937960767856989
 40
3.980983618142132
 40
4.199085915228254
 40
4.439444339237046
 40
4.677588241260717
 40
5.050698317837631
 40
5.448212454763046
 40
5.855291218044514
 40
6.138575438885127
 40
6.417434507584029
 40
6.44455110439371
 40
6.50420761736301
 40
6.563864130314331
 40
6.590980727103924
 40
6.848609460381323
 40
7.1096119906683
 40
7.352910904445963
 40
7.557830220705301
 40
7.587518925913219
 40
7.652834077375638
 40
7.718149228845575
 40
7.747837934061878
 40
7.854880190300835
 40
7.976511257403378
 40
8.36948789659218
 40
8.757514959223444
 40
9.126072419330878
 40
9.460639380391912
 40
9.746695593035625
 40
9.777569943118408
 40
9.807050320931586
 40
9.83037733612871
 40
9.886003295435794
 40
9.952395569429694
 40
10.00802152870605
 40
10.03134854388196
 40
10.21356951009561
 40
10.42203479292852
 40
10.66154556731042
 40
10.9169378956428
 40
11.15832906556541
 40
11.18982674596596
 40
11.27286608520383
 40
11.39026653033322
 40
11.52484752840859
 40
11.65942852648415
 40
11.77682897161453
 40
11.85986831085647
 40
11.89136598230392
 40
11.89136598230392
 40
11.89136598230392
 40
11.89136598230392
 10
190.7027885008197
 20
14.70699600701772
 10
190.7028237765289
 20
14.71587847311985
 10
190.7029366710797
 20
14.74430237047346
 10
190.7012984568489
 20
14.79409639169802
 10
190.7069750292911
 20
14.83657564478154
 10
190.6956928731708
 20
14.88730154856846
 10
190.7632296979033
 20
14.87012900740108
 10
190.8388029210701
 20
14.88290227165995
 10
190.9828357056001
 20
14.87629729457381
 10
191.1569419185428
 20
14.87888462206465
 10
191.3639599611004
 20
14.87800591955552
 10
191.5894688172378
 20
14.87828207920026
 10
191.8251162293406
 20
14.87818339658662
 10
192.0607640531349
 20
14.87828184412766
 10
192.2862717580626
 20
14.87800678190788
 10
192.4932934632805
 20
14.87888186270734
 10
192.6673888915288
 20
14.87630522678446
 10
192.8114492071986
 20
14.88288290449212
 10
192.8869691915292
 20
14.87016243405603
 10
192.9545776037031
 20
14.88726400191686
 10
192.9430840140675
 20
14.83674785802939
 10
192.9505104581733
 20
14.79253252226501
 10
192.9428838927986
 20
14.7486796650361
 10
192.9546489459425
 20
14.69878374479329
 10
192.8930788491983
 20
14.71393227712511
 10
192.8256791738672
 20
14.70310665350674
 10
192.7013004056221
 20
14.70852031626236
 10
192.5554428236571
 20
14.70649205390785
 10
192.3893576440086
 20
14.70715777578387
 10
192.2188412621725
 20
14.70689643521242
 10
192.051979085539
 20
14.70721553391094
 10
191.9087346827106
 20
14.70635302590762
 10
191.7773313869835
 20
14.70863300482987
 10
191.7239859134658
 20
14.70407704374202
 10
191.6485188456913
 20
14.70999914992877
 10
191.6769075779233
 20
14.70094169343353
 10
191.7033652409543
 20
14.69725912268929
 10
191.6633522907702
 20
14.6665427196827
 10
191.5713663691868
 20
14.67667591174646
 10
191.543939620707
 20
14.43032502247781
 10
191.4478793967235
 20
14.27499558764375
 10
191.1917277964473
 20
13.94525417931569
 10
191.7627537732763
 20
14.08430022210452
 10
192.0173656320516
 20
14.08291779973364
 10
192.6279647048616
 20
13.99790569242084
 10
192.3340698578084
 20
14.29685417558209
 10
192.0133304286517
 20
14.44330856901782
 10
192.1313543360433
 20
14.50025540818286
 10
192.1724716466261
 20
14.52420099873348
 10
192.2156812394411
 20
14.54599758811229
 10
192.317457409445
 20
14.60928721253902
 10
192.4328867625248
 20
14.3514715140878
 10
192.6329591642277
 20
14.21616041113683
 10
192.7269077387228
 20
14.03792795138884
 10
192.9558829746393
 20
13.87997821027048
 10
192.8596031846708
 20
13.829159725763
 10
192.8167959763779
 20
13.79881292523054
 10
192.7718243528779
 20
13.77466130281459
 10
192.7121720925214
 20
13.72552146747568
 10
192.6789731061324
 20
13.85997475673609
 10
192.5582013350796
 20
14.0159426528658
 10
192.1970976005978
 20
13.88569928059556
 10
191.8385061955541
 20
13.90224694409483
 10
191.457092045008
 20
13.89331229351864
 10
191.1703455282893
 20
13.82882671672411
 10
190.8592055599714
 20
13.94230668192818
 10
190.8268737818789
 20
13.83122259927766
 10
190.7896178253318
 20
13.81196313850011
 10
190.7865737632754
 20
13.85874784087297
 10
190.7679892860606
 20
13.89806853919134
 10
190.7512436616779
 20
13.95765983478233
 10
190.7383730915753
 20
14.00201969871283
 10
190.7042327806431
 20
14.09106331120201
 10
190.9482714457754
 20
14.02181042943767
 10
191.1441394486672
 20
14.00030369057741
 10
191.2395426381277
 20
14.28226484478462
 10
191.2945135769597
 20
14.44363045421125
 10
191.5159619357155
 20
14.71391177589736
 10
191.3849239381217
 20
14.70548446853735
 10
191.3110026555854
 20
14.70779008496969
 10
191.1977459876244
 20
14.70671378321658
 10
191.0694251807485
 20
14.7070763907651
 10
190.9404252030416
 20
14.70697724466085
 10
190.8287840946292
 20
14.70699932712572
 10
190.7514663970027
 20
14.7069957918967
 10
190.7132876532011
 20
14.70699595845081
 10
190.7027885008197
 20
14.70699600701772
 97
        1
330
AE
 75
     1
 76
     2
 52
45.0
 41
0.1
 77
     0
 78
     1
 53
45.0
 43
0.0
 44
0.0
 45
-0.282842712474619
 46
0.0
 79
     0
 98
        1
 10
0.0
 20
0.0
  0
HATCH
  5
CC
330
4B
100
AcDbEntity
  8
1
  6
Continuous
 62
     2
100
AcDbHatch
 10
0.0
 20
0.0
 30
0.0
210
0.0
220
0.0
230
1.0
  2
CUSTOM11
 70
     0
 71
     1
 91
        1
 92
        1
 93
        1
 72
     4
 94
        3
 73
     0
 74
     0
 95
      131
 96
      127
 40
0.0
 40
0.0
 40
0.0
 40
0.0
 40
0.0195577029826184
 40
0.0426490537461523
 40
0.2863607575856397
 40
0.5344948436189375
 40
0.7842238845573273
 40
0.8737315789467438
 40
0.9803832810313167
 40
1.092842274517041
 40
1.199761146656823
 40
1.289788768186553
 40
1.35157358078629
 40
1.370727117561536
 40
1.416400936017962
 40
1.470914848356106
 40
1.516588666791928
 40
1.535742203553009
 40
1.634216592293361
 40
1.760283341175175
 40
1.897966686682237
 40
2.031216387369015
 40
2.049689751138009
 40
2.101115601646945
 40
2.179502577740063
 40
2.278859318314181
 40
2.393194462258838
 40
2.516516648383952
 40
2.642834515406081
 40
2.766156701983586
 40
2.880491846754701
 40
2.979848588358743
 40
3.05823556544392
 40
3.109661416669077
 40
3.128134780704252
 40
3.146783742386569
 40
3.191254343315458
 40
3.244332157316117
 40
3.288802758226049
 40
3.30745171989532
 40
3.327717853844932
 40
3.383747753580294
 40
3.468388665924687
 40
3.574487837698997
 40
3.694892515729101
 40
3.822449946852243
 40
3.950007377920636
 40
4.070412055800729
 40
4.176511227368287
 40
4.261152139501734
 40
4.317182039076927
 40
4.337448172964848
 40
4.620011002696464
 40
4.885096638397643
 40
4.945373043518488
 40
5.014107710488817
 40
5.070481727652163
 40
5.319246955636642
 40
5.584812164506088
 40
5.859000912056917
 40
6.133746937542095
 40
6.401732212968893
 40
6.420736683995484
 40
6.472845717451134
 40
6.550702743894062
 40
6.646951193874271
 40
6.754234497930595
 40
6.865196086587373
 40
6.972479390357831
 40
7.068727839771993
 40
7.146584865451002
 40
7.198693898189232
 40
7.217698368905372
 40
7.234950401630851
 40
7.276089864269897
 40
7.325191803516011
 40
7.3663312660904
 40
7.383583298769752
 40
7.402779163492129
 40
7.45338644325456
 40
7.524934666445562
 40
7.606953361405902
 40
7.688972056429053
 40
7.760520279784304
 40
7.811127559734546
 40
7.830323424546167
 40
7.847844055299797
 40
7.894799345666836
 40
7.962779392744523
 40
8.04337429356057
 40
8.128174145149472
 40
8.208769044817274
 40
8.276749090376974
 40
8.323704379669536
 40
8.341225010056267
 40
8.358497614800415
 40
8.40167912668662
 40
8.457815092185678
 40
8.513951057728082
 40
8.557132569708038
 40
8.574405174505081
 40
8.602340668616424
 40
8.643455660539914
 40
8.663225271966581
 40
8.715345156564226
 40
8.78903188962856
 40
8.873502045520288
 40
8.95797219432391
 40
9.0316589255678
 40
9.083778811234488
 40
9.10354842300295
 40
9.119550083123515
 40
9.160817522379789
 40
9.217244429110183
 40
9.278724491644669
 40
9.335151398295425
 40
9.37641883735772
 40
9.392420497300508
 40
9.4011963027347
 40
9.417494229384122
 40
9.426270027749394
 40
9.440875075477427
 40
9.475702496998606
 40
9.517270709865768
 40
9.552098131993935
 40
9.566703169884143
 40
9.566703169884143
 40
9.566703169884143
 40
9.566703169884143
 10
194.6170254148479
 20
15.67015871511028
 10
194.6134345093371
 20
15.6645369070216
 10
194.6056039123624
 20
15.65227754419112
 10
194.5129968974547
 20
15.61601916040969
 10
194.4887622233248
 20
15.40148444212712
 10
194.3858709845938
 20
15.22197284509709
 10
194.1220492364305
 20
15.03615573798146
 10
194.284547156918
 20
14.9595933656608
 10
194.3607225760838
 20
14.89856693195444
 10
194.4492171072758
 20
14.83515804544758
 10
194.538993023311
 20
14.77525634219561
 10
194.5883817636046
 20
14.72102154849206
 10
194.6745708157384
 20
14.69286240541834
 10
194.641126067423
 20
14.65713309652812
 10
194.6214671166312
 20
14.62550387991907
 10
194.5919888217883
 20
14.58475872796067
 10
194.5688989446031
 20
14.55504663489645
 10
194.5380205968357
 20
14.50211422668493
 10
194.472919336574
 20
14.62740334938901
 10
194.3796000122415
 20
14.68213900233935
 10
194.295063628514
 20
14.73916423939341
 10
194.1722498125743
 20
14.89675287427522
 10
194.1764450847302
 20
14.82035806766836
 10
194.1751478652678
 20
14.77361280161296
 10
194.1758126448078
 20
14.69584785812601
 10
194.1755549986958
 20
14.59902068324423
 10
194.1756431239922
 20
14.48650279078809
 10
194.1756077302282
 20
14.36524085945699
 10
194.175651175828
 20
14.24086897858961
 10
194.1755199942406
 20
14.11967683631335
 10
194.1759477562047
 20
14.00691148919743
 10
194.1746678202311
 20
13.91082913768744
 10
194.1779759851044
 20
13.83113826468699
 10
194.1715197740087
 20
13.78815175788783
 10
194.1806208705557
 20
13.74955432372042
 10
194.1447910339936
 20
13.7581088772407
 10
194.1115223815253
 20
13.75342519985445
 10
194.0604562576041
 20
13.75351298759783
 10
194.0269723972813
 20
13.75794430283821
 10
193.9907585408754
 20
13.74960793842508
 10
194.0009782568665
 20
13.79145277179284
 10
193.9936487887774
 20
13.83778560820173
 10
193.9973633136102
 20
13.92374831106014
 10
193.9959480554896
 20
14.02605142704848
 10
193.9964105554638
 20
14.14453223931511
 10
193.996277368623
 20
14.26957683153356
 10
193.9963015910045
 20
14.3947582810705
 10
193.9963354925552
 20
14.51286645379058
 10
193.9962060293131
 20
14.61628748709516
 10
193.9965507549081
 20
14.69932036153667
 10
193.995869827869
 20
14.75143368521243
 10
193.9994586600624
 20
14.87912907821364
 10
193.7826171386436
 20
14.58048716819624
 10
193.6021354921953
 20
14.3526398151152
 10
193.5490322295611
 20
14.49373443289814
 10
193.5200429133149
 20
14.54325767560941
 10
193.4196648062822
 20
14.64641779790113
 10
193.7405127723262
 20
14.72695035023778
 10
193.868989700543
 20
14.91066283036436
 10
194.0906454325359
 20
15.11931995771763
 10
194.1770224894068
 20
15.29339211228343
 10
194.4549394229076
 20
15.56967051342512
 10
194.3346247839283
 20
15.56534559551113
 10
194.2863197351349
 20
15.56614856202552
 10
194.2102377454905
 20
15.56574582146583
 10
194.116701000975
 20
15.56590275611608
 10
194.0117594788557
 20
15.56582502576223
 10
193.9033887738717
 20
15.56595464378553
 10
193.7981454235897
 20
15.56554393490691
 10
193.7056237819412
 20
15.5668207367159
 10
193.6268130800707
 20
15.56340766534849
 10
193.5839674565379
 20
15.57023350036319
 10
193.5449499586515
 20
15.56065064201123
 10
193.5526365271864
 20
15.59420779565542
 10
193.5485464404312
 20
15.62523550322232
 10
193.5485531368814
 20
15.672365292709
 10
193.5526239724912
 20
15.70340941646779
 10
193.5449495574582
 20
15.73701861635901
 10
193.5834819405494
 20
15.72748410420872
 10
193.624122801448
 20
15.73397435498071
 10
193.6951471850463
 20
15.73100150650254
 10
193.7729318149633
 20
15.73174761399158
 10
193.8507292246474
 20
15.73247814044525
 10
193.9217232089907
 20
15.7295423551416
 10
193.962427979182
 20
15.73595468772952
 10
194.000985348991
 20
15.72650524176004
 10
193.9927342754927
 20
15.76264692158784
 10
193.9982346669358
 20
15.80129837613226
 10
193.9955754206164
 20
15.86913528561839
 10
193.9965815471532
 20
15.94591641538739
 10
193.9960178018319
 20
16.02849393582756
 10
193.9970714526592
 20
16.10517329229877
 10
193.994267586313
 20
16.17331990776699
 10
194.0000702721303
 20
16.21132399809345
 10
193.9915654551159
 20
16.24758448077645
 10
194.0255610233125
 20
16.23755723771851
 10
194.0594575683099
 20
16.24073266813706
 10
194.1126669060346
 20
16.23508965640608
 10
194.1660768574483
 20
16.23434774436424
 10
194.1995914649491
 20
16.22819223482978
 10
194.2388086183039
 20
16.23346029773592
 10
194.2120263698492
 20
16.19253380793491
 10
194.1708111001724
 20
16.20371204538107
 10
194.1782641540875
 20
16.15867056192123
 10
194.1742227952185
 20
16.11412278028143
 10
194.1761714049641
 20
16.04223572621702
 10
194.175236484976
 20
15.9616863058877
 10
194.176510719003
 20
15.88173995404994
 10
194.1732043793865
 20
15.80841837083183
 10
194.1802106179962
 20
15.76688643002568
 10
194.1701440380126
 20
15.72752418568112
 10
194.2029814803922
 20
15.73468063430981
 10
194.2364577296481
 20
15.73027243137944
 10
194.2915053476019
 20
15.73217943347897
 10
194.3489502595316
 20
15.73185366407289
 10
194.402302624831
 20
15.73106308733081
 10
194.4398540896639
 20
15.73313959118074
 10
194.4623172523238
 20
15.73022338167108
 10
194.4751678073731
 20
15.73572552644056
 10
194.4858255685888
 20
15.73801118197791
 10
194.4986635650144
 20
15.74494972588053
 10
194.514599103307
 20
15.72853046313672
 10
194.5410623920892
 20
15.71709122319449
 10
194.5726805253757
 20
15.6964468783519
 10
194.5987255892151
 20
15.68116869628295
 10
194.6128517723973
 20
15.67266976323184
 10
194.6170254148479
 20
15.67015871511028
 97
        1
330
AF
 75
     1
 76
     2
 52
45.0
 41
0.1
 77
     0
 78
     1
 53
45.0
 43
0.0
 44
0.0
 45
-0.282842712474619
 46
0.0
 79
     0
 98
        1
 10
0.0
 20
0.0
  0
HATCH
  5
CD
330
4B
100
AcDbEntity
  8
1
  6
Continuous
 62
     2
100
AcDbHatch
 10
0.0
 20
0.0
 30
0.0
210
0.0
220
0.0
230
1.0
  2
CUSTOM12
 70
     0
 71
     1
 91
        1
 92
        1
 93
        1
 72
     4
 94
        3
 73
     0
 74
     0
 95
      124
 96
      120
 40
0.0
 40
0.0
 40
0.0
 40
0.0
 40
0.0278187229624226
 40
0.1011590162383985
 40
0.2048470170589954
 40
0.3237088716558677
 40
0.4425707262521431
 40
0.5462587270698694
 40
0.6195990203311229
 40
0.6474177522577808
 40
0.6750060736114372
 40
0.7357003855241906
 40
0.7963946998053639
 40
0.8239830245570932
 40
0.8540933811102025
 40
0.9373396629408706
 40
1.063094687343123
 40
1.220731268637961
 40
1.399622220914636
 40
1.58914035863762
 40
1.77865849642373
 40
1.957549448940368
 40
2.11518603087299
 40
2.240941056914294
 40
2.324187341760363
 40
2.354297700109213
 40
2.38188602467172
 40
2.442580338710308
 40
2.503274652750332
 40
2.530862977314439
 40
2.560983949278392
 40
2.640393784452738
 40
2.752662861758961
 40
2.881361560117949
 40
3.010060258454996
 40
3.1223293357052
 40
3.201739170817757
 40
3.231860142753146
 40
3.264298024030201
 40
3.352343701778074
 40
3.482095226868597
 40
3.639650650172855
 40
3.811108022565311
 40
3.982565394927817
 40
4.140120818152398
 40
4.269872343141109
 40
4.35791802080217
 40
4.390355902043798
 40
4.423256253992368
 40
4.508104530072861
 40
4.624121560636628
 40
4.750528176031357
 40
4.866545206601832
 40
4.951393482691789
 40
4.98429383464519
 40
5.011450833242105
 40
5.07119623015189
 40
5.130941627056969
 40
5.158098625648633
 40
5.190998977601295
 40
5.275847253689121
 40
5.391864284256584
 40
5.5182708996481
 40
5.634287930209111
 40
5.719136206287785
 40
5.752036558235701
 40
5.782130946282726
 40
5.862783906228901
 40
5.979550131774768
 40
6.117984316640174
 40
6.263641154587719
 40
6.402075339413925
 40
6.51884156490772
 40
6.599494524815301
 40
6.629588912848539
 40
6.654403028226115
 40
6.713575149487854
 40
6.784199939329171
 40
6.843372060493216
 40
6.868186175802462
 40
6.896246243201542
 40
6.939586233757858
 40
6.967846564564486
 40
7.043584251089424
 40
7.153234334451282
 40
7.283231855734032
 40
7.420011856035066
 40
7.550009376579418
 40
7.659659458834817
 40
7.73539714441681
 40
7.763657474850982
 40
7.796409728010639
 40
7.880876065095913
 40
7.996370852465299
 40
8.122208446418194
 40
8.237703224798787
 40
8.32216956201051
 40
8.354921815205495
 40
8.382078813307276
 40
8.441824209206581
 40
8.501569605239732
 40
8.52872660348531
 40
8.56147885669533
 40
8.645945193877381
 40
8.761439980864921
 40
8.887277580764064
 40
9.002772362000584
 40
9.087238696660776
 40
9.119990949235259
 40
9.152428830612958
 40
9.240474508638174
 40
9.370226034149123
 40
9.527781457984005
 40
9.699238830980995
 40
9.870696203978184
 40
10.0282516278136
 40
10.15800315332522
 40
10.24604883135077
 40
10.2784867037848
 40
10.2784867037848
 40
10.2784867037848
 40
10.2784867037848
 10
195.3821827564384
 20
14.01410517385757
 10
195.3914554737524
 20
14.01410498511274
 10
195.4251744536861
 20
14.01410430876714
 10
195.4934706812466
 20
14.01411807243305
 10
195.592014171158
 20
14.01403224219544
 10
195.7062066464812
 20
14.01441755612251
 10
195.8185894417071
 20
14.01300835897545
 10
195.9214376600119
 20
14.01719117422243
 10
195.9806839874848
 20
14.00823089251983
 10
196.0371265937033
 20
14.0216443452606
 10
196.0246255586955
 20
13.97087198613361
 10
196.0329549635703
 20
13.92589320939067
 10
196.024817084112
 20
13.88056752990488
 10
196.0370529214457
 20
13.82931932408466
 10
195.9747773490333
 20
13.84447955365276
 10
195.9060513026868
 20
13.83359750710743
 10
195.7782756749592
 20
13.83911304747972
 10
195.6262984511643
 20
13.83700851253698
 10
195.4502695972523
 20
13.83771002588473
 10
195.2644431934287
 20
13.83745237531291
 10
195.0786167437176
 20
13.83771005144603
 10
194.9025880142169
 20
13.83700841847731
 10
194.7506104154195
 20
13.83911332229988
 10
194.6228357664555
 20
13.8335968076764
 10
194.5541077836581
 20
13.84448077125942
 10
194.4918349042884
 20
13.82931786684209
 10
194.5040616290018
 20
13.88057510805171
 10
194.4960004462598
 20
13.92582473272425
 10
194.5040675809893
 20
13.97106357955323
 10
194.4918238487084
 20
14.02234176909958
 10
194.5525017120699
 20
14.00749577363134
 10
194.6162810745737
 20
14.01756448170735
 10
194.7277314353503
 20
14.01294644211999
 10
194.8497533443824
 20
14.01413328905469
 10
194.9719538137824
 20
14.01515863900635
 10
195.0829794287392
 20
14.01092475623402
 10
195.1476517413959
 20
14.02018584521739
 10
195.2091162810502
 20
14.00604423049682
 10
195.1930065601337
 20
14.07235527884516
 10
195.204298032736
 20
14.14447790121976
 10
195.1987400822561
 20
14.27513760888286
 10
195.2008035061691
 20
14.42607323708241
 10
195.2000167127295
 20
14.59335873107886
 10
195.2007845215628
 20
14.76061110332302
 10
195.198803878563
 20
14.91163289269914
 10
195.2041306156621
 20
15.04206069552994
 10
195.1933101388426
 20
15.11465442605899
 10
195.2090326429876
 20
15.18150469436798
 10
195.1432708132492
 20
15.16580512490825
 10
195.0756367830764
 20
15.17609243083995
 10
194.9615885293811
 20
15.17113786847122
 10
194.8451242674903
 20
15.17414128030475
 10
194.7306554121478
 20
15.16880303143389
 10
194.6640324657813
 20
15.18001268074824
 10
194.5990769715186
 20
15.16349132665011
 10
194.610798975871
 20
15.21473720477059
 10
194.6032830189121
 20
15.2595033378409
 10
194.6107989878837
 20
15.30426944897961
 10
194.5990769505347
 20
15.3555153612974
 10
194.6640326339201
 20
15.33899381766816
 10
194.7306533339821
 20
15.35020571373943
 10
194.8451352858065
 20
15.34485436710665
 10
194.9615454436963
 20
15.34791188771117
 10
195.0757660174641
 20
15.34278499010708
 10
195.1430150439228
 20
15.35345733355599
 10
195.2083325941439
 20
15.33742082669076
 10
195.1941391448553
 20
15.39949685750054
 10
195.2036059462996
 20
15.46586761628762
 10
195.1990269004085
 20
15.58239972741966
 10
195.2007696555949
 20
15.71426685022376
 10
195.1997551495392
 20
15.85615960150273
 10
195.2017191344372
 20
15.9876905070258
 10
195.1964668553852
 20
16.10524577283002
 10
195.2073408763475
 20
16.16947789001584
 10
195.1919536641854
 20
16.23108802545047
 10
195.2407591537801
 20
16.21702407382111
 10
195.2853995564726
 20
16.21954742075314
 10
195.3538643946741
 20
16.21512797401709
 10
195.3959106169103
 20
16.20613025544035
 10
195.4487544758775
 20
16.2141171486651
 10
195.4207035002014
 20
16.17113917611677
 10
195.3749142248595
 20
16.18259552043834
 10
195.3869539073265
 20
16.12173520005136
 10
195.3796086070643
 20
16.05769299468773
 10
195.3831195826162
 20
15.94909368863911
 10
195.3819806760175
 20
15.82494319144753
 10
195.3819174780263
 20
15.69189719829878
 10
195.3832872966868
 20
15.56797381249555
 10
195.3791638801314
 20
15.45868337849339
 10
195.3877763103565
 20
15.3960858009417
 10
195.3746757454402
 20
15.33740133296365
 10
195.4393884328199
 20
15.35362113810902
 10
195.5060405953157
 20
15.34270260383311
 10
195.6198779541103
 20
15.34793740173756
 10
195.7357259122097
 20
15.34485547516913
 10
195.8496924263281
 20
15.35018259812513
 10
195.9160341018099
 20
15.33904208166542
 10
195.9807188525481
 20
15.35546979593177
 10
195.9689820772723
 20
15.3042592521005
 10
195.9765168063042
 20
15.25950334121001
 10
195.9689820992259
 20
15.21474739010027
 10
195.9807188140737
 20
15.16353690871041
 10
195.9160344075253
 20
15.1799642779422
 10
195.8496886430826
 20
15.1688278444727
 10
195.7357459487013
 20
15.1741311589312
 10
195.6197995623055
 20
15.17114764593544
 10
195.5062756882124
 20
15.17606892268393
 10
195.4389231318805
 20
15.1658508751352
 10
195.3734285122496
 20
15.18145996138816
 10
195.3891713619218
 20
15.11463851827411
 10
195.3783275998215
 20
15.04207057815878
 10
195.3836581629792
 20
14.91162247614416
 10
195.3817136151857
 20
14.76064558185226
 10
195.3823133683214
 20
14.59322243934158
 10
195.3821506559606
 20
14.42656176118371
 10
195.3821895488135
 20
14.27360142921636
 10
195.38218164131
 20
14.14849178985705
 10
195.3821828382745
 20
14.0650789099142
 10
195.3821827716209
 20
14.02491778281976
 10
195.3821827564384
 20
14.01410517385757
 97
        1
330
B0
 75
     1
 76
     2
 52
45.0
 41
0.1
 77
     0
 78
     1
 53
45.0
 43
0.0
 44
0.0
 45
-0.282842712474619
 46
0.0
 79
     0
 98
        1
 10
0.0
 20
0.0
  0
HATCH
  5
CE
330
4B
100
AcDbEntity
  8
1
  6
Continuous
 62
     2
100
AcDbHatch
 10
0.0
 20
0.0
 30
0.0
210
0.0
220
0.0
230
1.0
  2
CUSTOM13
 70
     0
 71
     1
 91
        1
 92
        1
 93
        3
 72
     4
 94
        3
 73
     0
 74
     0
 95
       24
 96
       20
 40
0.0
 40
0.0
 40
0.0
 40
0.0
 40
0.2211075008754001
 40
0.4273218586245245
 40
0.5080174679239461
 40
0.5914835907870376
 40
0.8143265690192689
 40
1.054651302686569
 40
1.295452694023161
 40
1.518109231328814
 40
1.540864321905401
 40
1.595126460622662
 40
1.659890947895975
 40
1.714153085187277
 40
1.736908174961577
 40
1.764951100735234
 40
1.801562291220794
 40
1.953914424543476
 40
2.126104167379559
 40
2.126104167379559
 40
2.126104167379559
 40
2.126104167379559
 10
185.937536955689
 20
15.58989295113016
 10
185.9112579081813
 20
15.53097628234374
 10
185.8604698894426
 20
15.41711139679258
 10
185.8131784839112
 20
15.14441958233118
 10
185.7043482802618
 20
15.24445482575453
 10
185.5514800279639
 20
15.27118593367332
 10
185.7686155181199
 20
15.48518135017632
 10
185.7838483674381
 20
15.70332117782488
 10
185.8906889492001
 20
15.88451579066424
 10
185.8305380947078
 20
16.16913226311402
 10
185.9334317395403
 20
16.14114089222449
 10
185.977993346815
 20
16.13243251602299
 10
186.0380842395397
 20
16.12139654183355
 10
186.0756619587438
 20
16.10767523055559
 10
186.1252466928606
 20
16.10756076160223
 10
186.0930158919326
 20
16.07306592398622
 10
186.0171802221882
 20
16.08404104537964
 10
186.0429447159693
 20
15.89858969582449
 10
186.005589676385
 20
15.80702313549589
 10
185.9857704961609
 20
15.75844135397706
 72
     4
 94
        3
 73
     0
 74
     0
 95
       70
 96
       66
 40
0.0
 40
0.0
 40
0.0
 40
0.0
 40
0.0241731073021472
 40
0.0846058988987582
 40
0.1631685280353852
 40
0.2417311571790608
 40
0.302163948829332
 40
0.3263370654896678
 40
0.3533118254250018
 40
0.4228783438923213
 40
0.517999909531445
 40
0.6216398239467097
 40
0.7167613891500665
 40
0.7863279069650823
 40
0.813302679176276
 40
0.8372943998772597
 40
0.8945054261373225
 40
0.962789554196271
 40
1.020000580349053
 40
1.043992300975151
 40
1.071934345522848
 40
1.113121768772916
 40
1.14522519933224
 40
1.225483775412768
 40
1.329819923771475
 40
1.43415607199436
 40
1.514414647795776
 40
1.546518078208382
 40
1.578974764260155
 40
1.66267884931415
 40
1.777131373668399
 40
1.901833377474818
 40
2.016285900500637
 40
2.099989982528004
 40
2.132446666570362
 40
2.158782354486086
 40
2.216720867907875
 40
2.2746593813343
 40
2.300995069256232
 40
2.333451754066204
 40
2.417155836543913
 40
2.531608358985353
 40
2.656310362283876
 40
2.770762886389009
 40
2.854466971340202
 40
2.886923657364009
 40
2.913597976833443
 40
2.98238964287525
 40
3.076451716947118
 40
3.178937260458738
 40
3.272999334740146
 40
3.341791001059369
 40
3.368465320663684
 40
3.396976080738933
 40
3.472140811846169
 40
3.578408190308859
 40
3.700226892456324
 40
3.822045594634569
 40
3.928312973256705
 40
4.003477705315102
 40
4.031988456867167
 40
4.058324144797965
 40
4.116262658237123
 40
4.174201171400918
 40
4.20053684960885
 40
4.20053684960885
 40
4.20053684960885
 40
4.20053684960885
 10
185.9857704961609
 20
15.75844135397706
 10
185.9938259544679
 20
15.75844359811688
 10
186.0220200663241
 20
15.75845146032798
 10
186.0765534803673
 20
15.75830754828373
 10
186.1482891808604
 20
15.75909120499899
 10
186.2236240137063
 20
15.75627570463811
 10
186.2713052366439
 20
15.76298403400958
 10
186.3195071245617
 20
15.75197563692432
 10
186.3062571799875
 20
15.80546402997034
 10
186.3151093964539
 20
15.86049583543092
 10
186.3108698036287
 20
15.95419908726109
 10
186.313348348128
 20
16.04959482218532
 10
186.3090938706061
 20
16.14356821983386
 10
186.3179818665847
 20
16.19795062438011
 10
186.3046977409946
 20
16.25233997691459
 10
186.351411927711
 20
16.23842216335358
 10
186.3943254545737
 20
16.24103877374041
 10
186.4605443456685
 20
16.23648422450755
 10
186.5013342271799
 20
16.2277816213416
 10
186.5525145690819
 20
16.23531799890194
 10
186.5253720487201
 20
16.19349970223281
 10
186.4803096055707
 20
16.20284992072597
 10
186.4942065045051
 20
16.13841207371836
 10
186.4858414431653
 20
16.07378219627399
 10
186.4903632178398
 20
15.97529141193887
 10
186.4854741311167
 20
15.8759593284257
 10
186.4950258992082
 20
15.8129311555297
 10
186.47997614552
 20
15.7496401149979
 10
186.5449159457208
 20
15.7651507294427
 10
186.6116246399498
 20
15.75499387697813
 10
186.7241435470827
 20
15.75988800099368
 10
186.8390235448954
 20
15.75691204732784
 10
186.9519871999747
 20
15.76221664184992
 10
187.0176267597679
 20
15.7510730647209
 10
187.0816276691054
 20
15.76744532319858
 10
187.070314288919
 20
15.71761689905276
 10
187.077533987151
 20
15.67416715212124
 10
187.070314261127
 20
15.63071745587446
 10
187.0816277175995
 20
15.58088895196877
 10
187.0176263598972
 20
15.59726166091363
 10
186.951992124046
 20
15.58611271661589
 10
186.8389974317332
 20
15.59144857206855
 10
186.7242456548643
 20
15.58834345663822
 10
186.6113183686861
 20
15.5936489468259
 10
186.5455220903584
 20
15.58257300019594
 10
186.4816097975358
 20
15.59887597847619
 10
186.4936015165126
 20
15.54423524395743
 10
186.4862104613005
 20
15.48854295047842
 10
186.4892684841983
 20
15.3964968914057
 10
186.4893422785682
 20
15.30179109873101
 10
186.4860313578359
 20
15.20952782902264
 10
186.4939505989904
 20
15.15435768736139
 10
186.4815076611617
 20
15.10058169100134
 10
186.5389116551632
 20
15.1145376886278
 10
186.5994708140383
 20
15.10511457884225
 10
186.7048680855081
 20
15.10942885928704
 10
186.8204294070623
 20
15.10835504612031
 10
186.9359688877797
 20
15.10725965900993
 10
187.0414181130843
 20
15.11162525770632
 10
187.1018680471804
 20
15.10209426030669
 10
187.1592837739111
 20
15.11617289606379
 10
187.147777387671
 20
15.06707153265682
 10
187.1537566781749
 20
15.02564658018649
 10
187.1520311050804
 20
14.97651677966695
 10
187.1521500122972
 20
14.94854428447608
 10
187.1521871691834
 20
14.9398028819595
 72
     4
 94
        3
 73
     0
 74
     0
 95
       62
 96
       58
 40
0.0
 40
0.0
 40
0.0
 40
0.0
 40
0.0598250028308769
 40
0.20248464868979
 40
0.3727558389221599
 40
0.5154154847936923
 40
0.5752404975786476
 40
0.9332326775488369
 40
1.290451762839606
 40
1.602077253146057
 40
1.699931634112347
 40
1.79935975642529
 40
2.270120149657334
 40
2.804661928461797
 40
2.882342287383509
 40
3.07654318571936
 40
3.32900435483582
 40
3.581465524568647
 40
3.775666424543931
 40
3.853346784558551
 40
3.899120679595296
 40
3.984129341792181
 40
4.029903236817529
 40
4.105797496059686
 40
4.295533144152647
 40
4.542189486611892
 40
4.788845828875844
 40
4.978581476410228
 40
5.054475735244472
 40
5.621734664339529
 40
6.130867242037527
 40
6.22524978094883
 40
6.318913039727525
 40
6.663579954559188
 40
7.047498900225002
 40
7.435230791575937
 40
7.498943906668349
 40
7.650875181210286
 40
7.832212509001768
 40
7.984143783697154
 40
8.04785689890328
 40
8.091554632732784
 40
8.172707566964435
 40
8.216405300768157
 40
8.289021782161042
 40
8.462184160757387
 40
8.668861838005553
 40
8.842024215264116
 40
8.914640695475311
 40
8.989881580861521
 40
9.155411528827434
 40
9.320941477744224
 40
9.39618235248748
 40
9.45470901114397
 40
9.58346766017099
 40
9.712226309013213
 40
9.770752957989695
 40
9.770752957989695
 40
9.770752957989695
 40
9.770752957989695
 10
187.1521871691834
 20
14.9398028819595
 10
187.1322348171624
 20
14.93980875568671
 10
187.0647037716466
 20
14.93982863806157
 10
186.9410612161789
 20
14.93949362520326
 10
186.7863180150056
 20
14.94107673750512
 10
186.669734948248
 20
14.93686078860495
 10
186.455094263424
 20
14.95215205331627
 10
186.8518948407228
 20
14.59198721286191
 10
186.8945656069268
 20
14.37510503397167
 10
187.3189162146612
 20
14.19325062511441
 10
187.1439821496075
 20
14.08985196568073
 10
187.0194523925083
 20
13.87831523212722
 10
186.7666277235942
 20
14.34806081001561
 10
186.4797602893627
 20
14.99511516984521
 10
186.4906335926659
 20
14.68782672154694
 10
186.488289277796
 20
14.52288616971778
 10
186.4861096126411
 20
14.28879670711693
 10
186.4980774396346
 20
14.04498072421783
 10
186.468798474063
 20
13.89855796860984
 10
186.511452262547
 20
13.75113490174538
 10
186.423981400564
 20
13.76685797306219
 10
186.3768527606745
 20
13.76694303543454
 10
186.2898973207714
 20
13.75109425482909
 10
186.3313474021724
 20
13.89527771422762
 10
186.3029875004286
 20
14.03855052698455
 10
186.3145973775301
 20
14.27674947365265
 10
186.3124175648273
 20
14.50517235240347
 10
186.3103111127995
 20
14.66705729375995
 10
186.3208035438324
 20
14.98153709333754
 10
186.0128963252894
 20
14.29229470872435
 10
185.7055258267457
 20
13.81476750243061
 10
185.5851367066275
 20
14.03741112637424
 10
185.4074607910721
 20
14.15011034955568
 10
185.8853326362895
 20
14.32548143465456
 10
185.9353959057207
 20
14.56091929252033
 10
186.3583799621718
 20
14.95322989344608
 10
186.1276754273539
 20
14.93655307029065
 10
186.0049685859342
 20
14.94269518948771
 10
185.8325483095663
 20
14.93312822699574
 10
185.721322469445
 20
14.95448818489666
 10
185.6025779627448
 20
14.92136265357419
 10
185.6183169706686
 20
15.00203900606883
 10
185.6178550933763
 20
15.04645414290853
 10
185.6027881889932
 20
15.12967081778532
 10
185.7372380935444
 20
15.09062651983882
 10
185.8619755545747
 20
15.11739729328421
 10
186.0628755237281
 20
15.10063949044051
 10
186.1921540949354
 20
15.12204225913003
 10
186.3328419928296
 20
15.08868778853419
 10
186.2980927452616
 20
15.22651875785067
 10
186.3222185666714
 20
15.34963257349482
 10
186.2967086182393
 20
15.47024055670335
 10
186.3333251146686
 20
15.60539865141494
 10
186.221141702777
 20
15.58094545781891
 10
186.1280356457138
 20
15.59307749842024
 10
186.0191547579821
 20
15.58957630069995
 10
185.9569697640965
 20
15.58981755951603
 10
185.9375369557247
 20
15.58989295124145
 97
        3
330
B2
330
B3
330
B1
 75
     1
 76
     2
 52
45.0
 41
0.1
 77
     0
 78
     1
 53
45.0
 43
0.0
 44
0.0
 45
-0.282842712474619
 46
0.0
 79
     0
 98
        1
 10
0.0
 20
0.0
  0
HATCH
  5
CF
330
4B
100
AcDbEntity
  8
1
  6
Continuous
 62
     2
100
AcDbHatch
 10
0.0
 20
0.0
 30
0.0
210
0.0
220
0.0
230
1.0
  2
CUSTOM14
 70
     0
 71
     1
 91
        1
 92
        1
 93
        4
 72
     1
 10
192.4578138032672
 20
15.22875434022058
 11
191.1602971697032
 21
15.22875434022058
 72
     1
 10
191.1602971697032
 20
15.22875434022058
 11
191.1602971697032
 21
15.39722336795625
 72
     1
 10
191.1602971697032
 20
15.39722336795625
 11
192.4578138032672
 21
15.39722336795625
 72
     1
 10
192.4578138032672
 20
15.39722336795625
 11
192.4578138032672
 21
15.22875434022058
 97
        1
330
B4
 75
     1
 76
     2
 52
45.0
 41
0.1
 77
     0
 78
     1
 53
45.0
 43
0.0
 44
0.0
 45
-0.282842712474619
 46
0.0
 79
     0
 98
        1
 10
0.0
 20
0.0
  0
ENDBLK
  5
4D
330
4B
100
AcDbEntity
  8
0
100
AcDbBlockEnd
  0
BLOCK
  5
50
330
4E
100
AcDbEntity
  8
0
100
AcDbBlockBegin
  2
開示A4枠
 70
     0
 10
0.0
 20
0.0
 30
0.0
  3
開示A4枠
  1

  0
INSERT
  5
4F
330
4E
100
AcDbEntity
  8
1
100
AcDbBlockReference
  2
開示A4
 10
0.0
 20
0.0
 30
0.0
  0
ENDBLK
  5
51
330
4E
100
AcDbEntity
  8
0
100
AcDbBlockEnd
  0
BLOCK
  5
153
330
14C
100
AcDbEntity
  8
0
100
AcDbBlockBegin
  2
*D3
 70
     1
 10
0.0
 20
0.0
 30
0.0
  3
*D3
  1

  0
LINE
  5
14D
330
14C
100
AcDbEntity
  8
1
  6
Continuous
 62
     2
100
AcDbLine
 10
99.74477118786268
 20
153.7489852147875
 30
0.0
 11
166.7447871878625
 21
153.7489852147875
 31
0.0
  0
LINE
  5
14E
330
14C
100
AcDbEntity
  8
1
  6
Continuous
 62
     2
100
AcDbLine
 10
166.7447871878625
 20
120.7489848147875
 30
0.0
 11
166.7447871878625
 21
154.7489852147875
 31
0.0
  0
LINE
  5
14F
330
14C
100
AcDbEntity
  8
1
  6
Continuous
 62
     2
100
AcDbLine
 10
99.74477118786268
 20
120.7489848147875
 30
0.0
 11
99.74477118786268
 21
154.7489852147875
 31
0.0
  0
SOLID
  5
150
330
14C
100
AcDbEntity
  8
1
 62
     2
100
AcDbTrace
 10
103.2447711878627
 20
154.2097689563434
 30
0.0
 11
103.2447711878627
 21
153.2882014732316
 31
0.0
 12
99.74477118786268
 22
153.7489852147875
 32
0.0
 13
99.74477118786268
 23
153.7489852147875
 33
0.0
  0
SOLID
  5
151
330
14C
100
AcDbEntity
  8
1
 62
     2
100
AcDbTrace
 10
163.2447871878625
 20
153.2882014732316
 30
0.0
 11
163.2447871878625
 21
154.2097689563434
 31
0.0
 12
166.7447871878625
 22
153.7489852147875
 32
0.0
 13
166.7447871878625
 23
153.7489852147875
 33
0.0
  0
MTEXT
  5
152
330
14C
100
AcDbEntity
  8
1
 62
     7
100
AcDbMText
 10
130.2937321496228
 20
154.7489852147875
 30
0.0
 40
3.5
 41
0.0
 71
     7
 72
     1
  1
67
  7
CONVERTER_12
 11
0.9999999999970619
 21
2.424068405545306E-6
 31
0.0
 73
     1
 44
0.60024009603842
  0
ENDBLK
  5
154
330
14C
100
AcDbEntity
  8
0
100
AcDbBlockEnd
  0
BLOCK
  5
15E
330
157
100
AcDbEntity
  8
0
100
AcDbBlockBegin
  2
*D4
 70
     1
 10
0.0
 20
0.0
 30
0.0
  3
*D4
  1

  0
LINE
  5
158
330
157
100
AcDbEntity
  8
1
  6
Continuous
 62
     2
100
AcDbLine
 10
191.2447691878625
 20
101.2490002147875
 30
0.0
 11
191.2447691878625
 21
137.7489852147875
 31
0.0
  0
LINE
  5
159
330
157
100
AcDbEntity
  8
1
  6
Continuous
 62
     2
100
AcDbLine
 10
144.7447791878625
 20
137.7489852147875
 30
0.0
 11
192.2447691878625
 21
137.7489852147875
 31
0.0
  0
LINE
  5
15A
330
157
100
AcDbEntity
  8
1
  6
Continuous
 62
     2
100
AcDbLine
 10
182.2447691878625
 20
101.2490002147875
 30
0.0
 11
192.2447691878625
 21
101.2490002147875
 31
0.0
  0
SOLID
  5
15B
330
157
100
AcDbEntity
  8
1
 62
     2
100
AcDbTrace
 10
190.7839854463066
 20
104.7490002147875
 30
0.0
 11
191.7055529294184
 21
104.7490002147875
 31
0.0
 12
191.2447691878625
 22
101.2490002147875
 32
0.0
 13
191.2447691878625
 23
101.2490002147875
 33
0.0
  0
SOLID
  5
15C
330
157
100
AcDbEntity
  8
1
 62
     2
100
AcDbTrace
 10
191.7055529294184
 20
134.2489852147875
 30
0.0
 11
190.7839854463066
 21
134.2489852147875
 31
0.0
 12
191.2447691878625
 22
137.7489852147875
 32
0.0
 13
191.2447691878625
 23
137.7489852147875
 33
0.0
  0
MTEXT
  5
15D
330
157
100
AcDbEntity
  8
1
 62
     7
100
AcDbMText
 10
190.2447691878625
 20
116.3605358156055
 30
0.0
 40
3.5
 41
0.0
 71
     7
 72
     1
  1
37
  7
CONVERTER_12
 11
0.0
 21
1.0
 31
0.0
 73
     1
 44
0.60024009603842
  0
ENDBLK
  5
15F
330
157
100
AcDbEntity
  8
0
100
AcDbBlockEnd
  0
BLOCK
  5
169
330
162
100
AcDbEntity
  8
0
100
AcDbBlockBegin
  2
*D5
 70
     1
 10
0.0
 20
0.0
 30
0.0
  3
*D5
  1

  0
LINE
  5
163
330
162
100
AcDbEntity
  8
0
  6
Continuous
 62
     2
100
AcDbLine
 10
103.2447791878626
 20
92.24900021478749
 30
0.0
 11
163.2447791878626
 21
92.24900021478749
 31
0.0
  0
LINE
  5
164
330
162
100
AcDbEntity
  8
0
  6
Continuous
 62
     2
100
AcDbLine
 10
163.2447791878626
 20
103.2490002147875
 30
0.0
 11
163.2447791878626
 21
91.24900021478749
 31
0.0
  0
LINE
  5
165
330
162
100
AcDbEntity
  8
0
  6
Continuous
 62
     2
100
AcDbLine
 10
103.2447791878626
 20
103.2490002147875
 30
0.0
 11
103.2447791878626
 21
91.24900021478749
 31
0.0
  0
SOLID
  5
166
330
162
100
AcDbEntity
  8
0
 62
     2
100
AcDbTrace
 10
106.7447791878626
 20
92.70978395634337
 30
0.0
 11
106.7447791878626
 21
91.7882164732316
 31
0.0
 12
103.2447791878626
 22
92.24900021478749
 32
0.0
 13
103.2447791878626
 23
92.24900021478749
 33
0.0
  0
SOLID
  5
167
330
162
100
AcDbEntity
  8
0
 62
     2
100
AcDbTrace
 10
159.7447791878626
 20
91.7882164732316
 30
0.0
 11
159.7447791878626
 21
92.70978395634337
 31
0.0
 12
163.2447791878626
 22
92.24900021478749
 32
0.0
 13
163.2447791878626
 23
92.24900021478749
 33
0.0
  0
MTEXT
  5
168
330
162
100
AcDbEntity
  8
0
 62
     7
100
AcDbMText
 10
130.8092105263156
 20
93.24900021478749
 30
0.0
 40
3.5
 41
0.0
 71
     7
 72
     1
  1
60
  7
CONVERTER_12
 11
0.9999999999970619
 21
2.424068405545306E-6
 31
0.0
 73
     1
 44
0.60024009603842
  0
ENDBLK
  5
16A
330
162
100
AcDbEntity
  8
0
100
AcDbBlockEnd
  0
BLOCK
  5
174
330
16D
100
AcDbEntity
  8
0
100
AcDbBlockBegin
  2
*D6
 70
     1
 10
0.0
 20
0.0
 30
0.0
  3
*D6
  1

  0
LINE
  5
16E
330
16D
100
AcDbEntity
  8
0
  6
Continuous
 62
     2
100
AcDbLine
 10
92.24478918786258
 20
186.1804292147875
 30
0.0
 11
174.2447831878626
 21
186.1804292147875
 31
0.0
  0
LINE
  5
16F
330
16D
100
AcDbEntity
  8
0
  6
Continuous
 62
     2
100
AcDbLine
 10
174.2447831878626
 20
208.1804272147875
 30
0.0
 11
174.2447831878626
 21
185.1804292147875
 31
0.0
  0
LINE
  5
170
330
16D
100
AcDbEntity
  8
0
  6
Continuous
 62
     2
100
AcDbLine
 10
92.24478918786258
 20
208.1804272147875
 30
0.0
 11
92.24478918786258
 21
185.1804292147875
 31
0.0
  0
SOLID
  5
171
330
16D
100
AcDbEntity
  8
0
 62
     2
100
AcDbTrace
 10
95.74478918786258
 20
186.6412129563434
 30
0.0
 11
95.74478918786258
 21
185.7196454732316
 31
0.0
 12
92.24478918786258
 22
186.1804292147875
 32
0.0
 13
92.24478918786258
 23
186.1804292147875
 33
0.0
  0
SOLID
  5
172
330
16D
100
AcDbEntity
  8
0
 62
     2
100
AcDbTrace
 10
170.7447831878626
 20
185.7196454732316
 30
0.0
 11
170.7447831878626
 21
186.6412129563434
 31
0.0
 12
174.2447831878626
 22
186.1804292147875
 32
0.0
 13
174.2447831878626
 23
186.1804292147875
 33
0.0
  0
MTEXT
  5
173
330
16D
100
AcDbEntity
  8
0
 62
     7
100
AcDbMText
 10
130.9171412889646
 20
187.1804292147875
 30
0.0
 40
3.5
 41
0.0
 71
     7
 72
     1
  1
82
  7
CONVERTER_12
 11
0.9999999999970619
 21
2.424068405545306E-6
 31
0.0
 73
     1
 44
0.60024009603842
  0
ENDBLK
  5
175
330
16D
100
AcDbEntity
  8
0
100
AcDbBlockEnd
  0
BLOCK
  5
17F
330
178
100
AcDbEntity
  8
0
100
AcDbBlockBegin
  2
*D7
 70
     1
 10
0.0
 20
0.0
 30
0.0
  3
*D7
  1

  0
LINE
  5
179
330
178
100
AcDbEntity
  8
0
  6
Continuous
 62
     2
100
AcDbLine
 10
84.24478918786272
 20
178.1804292147875
 30
0.0
 11
182.2447831878626
 21
178.1804292147875
 31
0.0
  0
LINE
  5
17A
330
178
100
AcDbEntity
  8
0
  6
Continuous
 62
     2
100
AcDbLine
 10
182.2447831878626
 20
208.1804272147875
 30
0.0
 11
182.2447831878626
 21
177.1804292147875
 31
0.0
  0
LINE
  5
17B
330
178
100
AcDbEntity
  8
0
  6
Continuous
 62
     2
100
AcDbLine
 10
84.24478918786272
 20
208.1804272147875
 30
0.0
 11
84.24478918786272
 21
177.1804292147875
 31
0.0
  0
SOLID
  5
17C
330
178
100
AcDbEntity
  8
0
 62
     2
100
AcDbTrace
 10
87.74478918786272
 20
178.6412129563434
 30
0.0
 11
87.74478918786272
 21
177.7196454732316
 31
0.0
 12
84.24478918786272
 22
178.1804292147875
 32
0.0
 13
84.24478918786272
 23
178.1804292147875
 33
0.0
  0
SOLID
  5
17D
330
178
100
AcDbEntity
  8
0
 62
     2
100
AcDbTrace
 10
178.7447831878626
 20
177.7196454732316
 30
0.0
 11
178.7447831878626
 21
178.6412129563434
 31
0.0
 12
182.2447831878626
 22
178.1804292147875
 32
0.0
 13
182.2447831878626
 23
178.1804292147875
 33
0.0
  0
MTEXT
  5
17E
330
178
100
AcDbEntity
  8
0
 62
     7
100
AcDbMText
 10
130.9856893018406
 20
179.1804292147875
 30
0.0
 40
3.5
 41
0.0
 71
     7
 72
     1
  1
98
  7
CONVERTER_12
 11
0.9999999999970619
 21
2.424068405545306E-6
 31
0.0
 73
     1
 44
0.60024009603842
  0
ENDBLK
  5
180
330
178
100
AcDbEntity
  8
0
100
AcDbBlockEnd
  0
BLOCK
  5
18A
330
183
100
AcDbEntity
  8
0
100
AcDbBlockBegin
  2
*D8
 70
     1
 10
0.0
 20
0.0
 30
0.0
  3
*D8
  1

  0
LINE
  5
184
330
183
100
AcDbEntity
  8
0
  6
Continuous
 62
     2
100
AcDbLine
 10
191.2447831878626
 20
203.1804292147875
 30
0.0
 11
191.2447831878626
 21
223.1804172147875
 31
0.0
  0
LINE
  5
185
330
183
100
AcDbEntity
  8
0
  6
Continuous
 62
     2
100
AcDbLine
 10
177.2447831878626
 20
223.1804172147875
 30
0.0
 11
192.2447831878626
 21
223.1804172147875
 31
0.0
  0
LINE
  5
186
330
183
100
AcDbEntity
  8
0
  6
Continuous
 62
     2
100
AcDbLine
 10
177.2447831878626
 20
203.1804292147875
 30
0.0
 11
192.2447831878626
 21
203.1804292147875
 31
0.0
  0
SOLID
  5
187
330
183
100
AcDbEntity
  8
0
 62
     2
100
AcDbTrace
 10
190.7839994463067
 20
206.6804292147875
 30
0.0
 11
191.7055669294185
 21
206.6804292147875
 31
0.0
 12
191.2447831878626
 22
203.1804292147875
 32
0.0
 13
191.2447831878626
 23
203.1804292147875
 33
0.0
  0
SOLID
  5
188
330
183
100
AcDbEntity
  8
0
 62
     2
100
AcDbTrace
 10
191.7055669294185
 20
219.6804172147875
 30
0.0
 11
190.7839994463067
 21
219.6804172147875
 31
0.0
 12
191.2447831878626
 22
223.1804172147875
 32
0.0
 13
191.2447831878626
 23
223.1804172147875
 33
0.0
  0
MTEXT
  5
189
330
183
100
AcDbEntity
  8
0
 62
     7
100
AcDbMText
 10
190.2447831878626
 20
210.6416936399025
 30
0.0
 40
3.5
 41
0.0
 71
     7
 72
     1
  1
20
  7
CONVERTER_12
 11
0.0
 21
1.0
 31
0.0
 73
     1
 44
0.60024009603842
  0
ENDBLK
  5
18B
330
183
100
AcDbEntity
  8
0
100
AcDbBlockEnd
  0
BLOCK
  5
195
330
18E
100
AcDbEntity
  8
0
100
AcDbBlockBegin
  2
*D9
 70
     1
 10
0.0
 20
0.0
 30
0.0
  3
*D9
  1

  0
LINE
  5
18F
330
18E
100
AcDbEntity
  8
0
  6
Continuous
 62
     2
100
AcDbLine
 10
65.24478918786272
 20
142.7489852147875
 30
0.0
 11
65.24478918786272
 21
101.2490002147875
 31
0.0
  0
LINE
  5
190
330
18E
100
AcDbEntity
  8
0
  6
Continuous
 62
     2
100
AcDbLine
 10
84.24478918786271
 20
101.2490002147875
 30
0.0
 11
64.24478918786272
 21
101.2490002147875
 31
0.0
  0
LINE
  5
191
330
18E
100
AcDbEntity
  8
0
  6
Continuous
 62
     2
100
AcDbLine
 10
121.7447791878627
 20
142.7489852147875
 30
0.0
 11
64.24478918786272
 21
142.7489852147875
 31
0.0
  0
SOLID
  5
192
330
18E
100
AcDbEntity
  8
0
 62
     2
100
AcDbTrace
 10
65.70557292941861
 20
139.2489852147875
 30
0.0
 11
64.78400544630684
 21
139.2489852147875
 31
0.0
 12
65.24478918786272
 22
142.7489852147875
 32
0.0
 13
65.24478918786272
 23
142.7489852147875
 33
0.0
  0
SOLID
  5
193
330
18E
100
AcDbEntity
  8
0
 62
     2
100
AcDbTrace
 10
64.78400544630684
 20
104.7490002147875
 30
0.0
 11
65.70557292941861
 21
104.7490002147875
 31
0.0
 12
65.24478918786272
 22
101.2490002147875
 32
0.0
 13
65.24478918786272
 23
101.2490002147875
 33
0.0
  0
MTEXT
  5
194
330
18E
100
AcDbEntity
  8
0
 62
     7
100
AcDbMText
 10
64.24478918786272
 20
118.0051761226649
 30
0.0
 40
3.5
 41
0.0
 71
     7
 72
     1
  1
42
  7
CONVERTER_12
 11
0.0
 21
1.0
 31
0.0
 73
     1
 44
0.60024009603842
  0
ENDBLK
  5
196
330
18E
100
AcDbEntity
  8
0
100
AcDbBlockEnd
  0
BLOCK
  5
1A2
330
199
100
AcDbEntity
  8
0
100
AcDbBlockBegin
  2
*D10
 70
     1
 10
0.0
 20
0.0
 30
0.0
  3
*D10
  1

  0
LINE
  5
19A
330
199
100
AcDbEntity
  8
0
  6
Continuous
 62
     2
100
AcDbLine
 10
73.24478918786271
 20
105.7490002147875
 30
0.0
 11
73.24478918786271
 21
112.7490002147875
 31
0.0
  0
LINE
  5
19B
330
199
100
AcDbEntity
  8
0
  6
Continuous
 62
     2
100
AcDbLine
 10
73.24478918786271
 20
101.2490002147875
 30
0.0
 11
73.24478918786271
 21
105.7490002147875
 31
0.0
  0
LINE
  5
19C
330
199
100
AcDbEntity
  8
0
  6
Continuous
 62
     2
100
AcDbLine
 10
73.24478918786271
 20
94.2490002147875
 30
0.0
 11
73.24478918786271
 21
101.2490002147875
 31
0.0
  0
LINE
  5
19D
330
199
100
AcDbEntity
  8
0
  6
Continuous
 62
     2
100
AcDbLine
 10
85.74478918786261
 20
105.7490002147875
 30
0.0
 11
72.24478918786271
 21
105.7490002147875
 31
0.0
  0
LINE
  5
19E
330
199
100
AcDbEntity
  8
0
  6
Continuous
 62
     2
100
AcDbLine
 10
84.24478918786271
 20
101.2490002147875
 30
0.0
 11
72.24478918786271
 21
101.2490002147875
 31
0.0
  0
SOLID
  5
19F
330
199
100
AcDbEntity
  8
0
 62
     2
100
AcDbTrace
 10
73.7055729294186
 20
97.7490002147875
 30
0.0
 11
72.78400544630682
 21
97.7490002147875
 31
0.0
 12
73.24478918786271
 22
101.2490002147875
 32
0.0
 13
73.24478918786271
 23
101.2490002147875
 33
0.0
  0
SOLID
  5
1A0
330
199
100
AcDbEntity
  8
0
 62
     2
100
AcDbTrace
 10
72.78400544630682
 20
109.2490002147875
 30
0.0
 11
73.7055729294186
 21
109.2490002147875
 31
0.0
 12
73.24478918786271
 22
105.7490002147875
 32
0.0
 13
73.24478918786271
 23
105.7490002147875
 33
0.0
  0
MTEXT
  5
1A1
330
199
100
AcDbEntity
  8
0
 62
     7
100
AcDbMText
 10
72.24478918786271
 20
109.1142832595603
 30
0.0
 40
3.5
 41
0.0
 71
     7
 72
     1
  1
5
  7
CONVERTER_12
 11
0.0
 21
1.0
 31
0.0
 73
     1
 44
0.60024009603842
  0
ENDBLK
  5
1A3
330
199
100
AcDbEntity
  8
0
100
AcDbBlockEnd
  0
ENDSEC
  0
SECTION
  2
ENTITIES
  0
INSERT
  5
52
330
1F
100
AcDbEntity
  8
0
100
AcDbBlockReference
  2
開示A4枠
 10
0.0
 20
0.0
 30
0.0
  0
POINT
  5
D0
330
1F
100
AcDbEntity
  8
0
 62
     7
100
AcDbPoint
 10
182.2447831878626
 20
213.1804272147875
 30
0.0
  0
LINE
  5
D1
330
1F
100
AcDbEntity
  8
0
  6
Continuous
 62
     7
100
AcDbLine
 10
144.7447791878625
 20
142.7489852147875
 30
0.0
 11
133.2447791878626
 21
142.7489852147875
 31
0.0
  0
LINE
  5
D2
330
1F
100
AcDbEntity
  8
LAYER002
  6
Continuous
 62
     7
100
AcDbLine
 10
133.2447791878626
 20
141.7489852147875
 30
0.0
 11
144.7626691878625
 21
141.7489852147875
 31
0.0
  0
LINE
  5
D3
330
1F
100
AcDbEntity
  8
LAYER002
  6
Continuous
 62
     7
100
AcDbLine
 10
133.2447791878626
 20
139.2489852147875
 30
0.0
 11
144.7447791878625
 21
139.2489852147875
 31
0.0
  0
LINE
  5
D4
330
1F
100
AcDbEntity
  8
LAYER002
  6
Continuous
 62
     7
100
AcDbLine
 10
133.2447791878626
 20
137.7489852147875
 30
0.0
 11
144.7447791878625
 21
137.7489852147875
 31
0.0
  0
LINE
  5
D5
330
1F
100
AcDbEntity
  8
LAYER003
  6
PHANTOM
 62
     4
100
AcDbLine
 10
144.7447831878626
 20
139.2489848147875
 30
0.0
 11
144.7447831878626
 21
137.7489852147875
 31
0.0
  0
LINE
  5
D6
330
1F
100
AcDbEntity
  8
LAYER002
  6
Continuous
 62
     7
100
AcDbLine
 10
181.2447691878625
 20
104.7490002147875
 30
0.0
 11
181.2447691878625
 21
105.2490002147875
 31
0.0
  0
LINE
  5
D7
330
1F
100
AcDbEntity
  8
LAYER002
  6
Continuous
 62
     7
100
AcDbLine
 10
165.7447691878625
 20
109.2490012147875
 30
0.0
 11
165.7447691878625
 21
120.7489848147875
 31
0.0
  0
LINE
  5
D8
330
1F
100
AcDbEntity
  8
LAYER002
  6
Continuous
 62
     7
100
AcDbLine
 10
182.2447691878625
 20
101.2490002147875
 30
0.0
 11
182.2447691878625
 21
103.7490002147875
 31
0.0
  0
LINE
  5
D9
330
1F
100
AcDbEntity
  8
LAYER002
  6
Continuous
 62
     7
100
AcDbLine
 10
166.7447691878625
 20
109.2490012147875
 30
0.0
 11
166.7447691878625
 21
120.7489848147875
 31
0.0
  0
LINE
  5
DA
330
1F
100
AcDbEntity
  8
LAYER006
  6
DASH_CENTER
 62
     2
100
AcDbLine
 10
174.2447491878625
 20
98.24900021478749
 30
0.0
 11
174.2447491878625
 21
108.7490002147875
 31
0.0
  0
LINE
  5
DB
330
1F
100
AcDbEntity
  8
LAYER002
  6
Continuous
 62
     7
100
AcDbLine
 10
163.2447791878626
 20
103.2490002147875
 30
0.0
 11
163.2447791878626
 21
120.7489848147875
 31
0.0
  0
LINE
  5
DC
330
1F
100
AcDbEntity
  8
LAYER002
  6
Continuous
 62
     7
100
AcDbLine
 10
170.2447691878626
 20
105.7490002147875
 30
0.0
 11
180.7447691878626
 21
105.7490002147875
 31
0.0
  0
LINE
  5
DD
330
1F
100
AcDbEntity
  8
LAYER002
  6
Continuous
 62
     7
100
AcDbLine
 10
170.2447691878626
 20
104.7490002147875
 30
0.0
 11
181.2447691878625
 21
104.7490002147875
 31
0.0
  0
LINE
  5
DE
330
1F
100
AcDbEntity
  8
LAYER002
  6
Continuous
 62
     7
100
AcDbLine
 10
165.2447791878626
 20
101.2490002147875
 30
0.0
 11
182.2447691878625
 21
101.2490002147875
 31
0.0
  0
LINE
  5
DF
330
1F
100
AcDbEntity
  8
LAYER002
  6
Continuous
 62
     7
100
AcDbLine
 10
156.7655991878626
 20
132.7698025147875
 30
0.0
 11
157.8262491878626
 21
133.8304619147875
 31
0.0
  0
LINE
  5
E0
330
1F
100
AcDbEntity
  8
LAYER002
  6
Continuous
 62
     7
100
AcDbLine
 10
85.24478918786271
 20
216.1804272147875
 30
0.0
 11
85.24478918786271
 21
210.1804272147875
 31
0.0
  0
LINE
  5
E1
330
1F
100
AcDbEntity
  8
LAYER006
  6
DASH_CENTER
 62
     2
100
AcDbLine
 10
92.24478918786261
 20
218.1804272147875
 30
0.0
 11
92.24478918786261
 21
208.1804272147875
 31
0.0
  0
LINE
  5
E2
330
1F
100
AcDbEntity
  8
LAYER002
  6
Continuous
 62
     7
100
AcDbLine
 10
181.2447831878626
 20
216.1804272147875
 30
0.0
 11
181.2447831878626
 21
210.1804272147875
 31
0.0
  0
LINE
  5
E3
330
1F
100
AcDbEntity
  8
LAYER006
  6
DASH_CENTER
 62
     2
100
AcDbLine
 10
174.2447831878626
 20
218.1804272147875
 30
0.0
 11
174.2447831878626
 21
208.1804272147875
 31
0.0
  0
LINE
  5
E4
330
1F
100
AcDbEntity
  8
LAYER002
  6
Continuous
 62
     7
100
AcDbLine
 10
165.7447901878626
 20
206.1804272147875
 30
0.0
 11
165.7447901878626
 21
204.1804272147874
 31
0.0
  0
LINE
  5
E5
330
1F
100
AcDbEntity
  8
LAYER002
  6
Continuous
 62
     7
100
AcDbLine
 10
165.7447901878626
 20
220.1804172147875
 30
0.0
 11
165.7447901878626
 21
222.1804172147875
 31
0.0
  0
LINE
  5
E6
330
1F
100
AcDbEntity
  8
LAYER006
  6
DASH_CENTER
 62
     2
100
AcDbLine
 10
133.2447791878626
 20
229.7103172147875
 30
0.0
 11
133.2447791878626
 21
195.9164592147875
 31
0.0
  0
LINE
  5
E7
330
1F
100
AcDbEntity
  8
LAYER002
  6
Continuous
 62
     7
100
AcDbLine
 10
100.7447891878627
 20
220.1804172147875
 30
0.0
 11
100.7447891878627
 21
222.1804172147875
 31
0.0
  0
LINE
  5
E8
330
1F
100
AcDbEntity
  8
LAYER002
  6
Continuous
 62
     7
100
AcDbLine
 10
166.7447901878626
 20
219.6804172147874
 30
0.0
 11
166.7447901878626
 21
206.6804272147874
 31
0.0
  0
LINE
  5
E9
330
1F
100
AcDbEntity
  8
LAYER002
  6
Continuous
 62
     7
100
AcDbLine
 10
100.7447891878627
 20
206.1804272147875
 30
0.0
 11
100.7447891878627
 21
204.1804272147874
 31
0.0
  0
LINE
  5
EA
330
1F
100
AcDbEntity
  8
LAYER002
  6
Continuous
 62
     7
100
AcDbLine
 10
99.74478918786272
 20
219.6804172147874
 30
0.0
 11
99.74478918786272
 21
206.6804272147874
 31
0.0
  0
LINE
  5
EB
330
1F
100
AcDbEntity
  8
LAYER002
  6
Continuous
 62
     7
100
AcDbLine
 10
89.24478918786271
 20
206.1804272147875
 30
0.0
 11
177.2447831878626
 21
206.1804272147875
 31
0.0
  0
LINE
  5
EC
330
1F
100
AcDbEntity
  8
LAYER002
  6
Continuous
 62
     7
100
AcDbLine
 10
89.24478918786271
 20
220.1804172147875
 30
0.0
 11
177.2447831878626
 21
220.1804172147875
 31
0.0
  0
LINE
  5
ED
330
1F
100
AcDbEntity
  8
LAYER002
  6
Continuous
 62
     7
100
AcDbLine
 10
182.2447831878626
 20
218.1804272147875
 30
0.0
 11
182.2447831878626
 21
208.1804272147875
 31
0.0
  0
LINE
  5
EE
330
1F
100
AcDbEntity
  8
LAYER006
  6
DASH_CENTER
 62
     2
100
AcDbLine
 10
81.24478918786271
 20
213.1804272147875
 30
0.0
 11
185.2447831878626
 21
213.1804272147875
 31
0.0
  0
LINE
  5
EF
330
1F
100
AcDbEntity
  8
LAYER002
  6
Continuous
 62
     7
100
AcDbLine
 10
89.24478918786271
 20
223.1804172147875
 30
0.0
 11
177.2447831878626
 21
223.1804172147875
 31
0.0
  0
LINE
  5
F0
330
1F
100
AcDbEntity
  8
LAYER002
  6
Continuous
 62
     7
100
AcDbLine
 10
84.24478918786271
 20
218.1804272147875
 30
0.0
 11
84.24478918786271
 21
208.1804272147875
 31
0.0
  0
LINE
  5
F1
330
1F
100
AcDbEntity
  8
LAYER002
  6
Continuous
 62
     7
100
AcDbLine
 10
89.24478918786271
 20
203.1804292147875
 30
0.0
 11
177.2447831878626
 21
203.1804292147875
 31
0.0
  0
LINE
  5
F2
330
1F
100
AcDbEntity
  8
LAYER002
  6
Continuous
 62
     7
100
AcDbLine
 10
121.7447791878627
 20
137.7489852147875
 30
0.0
 11
133.2447791878626
 21
137.7489852147875
 31
0.0
  0
LINE
  5
F3
330
1F
100
AcDbEntity
  8
LAYER002
  6
Continuous
 62
     7
100
AcDbLine
 10
121.7447791878627
 20
139.2489852147875
 30
0.0
 11
133.2447791878626
 21
139.2489852147875
 31
0.0
  0
LINE
  5
F4
330
1F
100
AcDbEntity
  8
LAYER002
  6
Continuous
 62
     7
100
AcDbLine
 10
121.7268891878627
 20
141.7489852147875
 30
0.0
 11
133.2447791878626
 21
141.7489852147875
 31
0.0
  0
LINE
  5
F5
330
1F
100
AcDbEntity
  8
LAYER006
  6
DASH_CENTER
 62
     2
100
AcDbLine
 10
133.2447791878626
 20
145.7489852147875
 30
0.0
 11
133.2447791878626
 21
142.7489852147875
 31
0.0
  0
LINE
  5
F6
330
1F
100
AcDbEntity
  8
LAYER006
  6
DASH_CENTER
 62
     2
100
AcDbLine
 10
133.2447791878626
 20
137.7489852147875
 30
0.0
 11
133.2447791878626
 21
98.24900021478749
 31
0.0
  0
LINE
  5
F7
330
1F
100
AcDbEntity
  8
LAYER006
  6
DASH_CENTER
 62
     2
100
AcDbLine
 10
133.2447791878626
 20
142.7489852147875
 30
0.0
 11
133.2447791878626
 21
139.2489852147875
 31
0.0
  0
LINE
  5
F8
330
1F
100
AcDbEntity
  8
LAYER003
  6
PHANTOM
 62
     4
100
AcDbLine
 10
121.7447751878626
 20
137.7489852147875
 30
0.0
 11
121.7447751878626
 21
139.2489848147875
 31
0.0
  0
LINE
  5
F9
330
1F
100
AcDbEntity
  8
LAYER006
  6
DASH_CENTER
 62
     2
100
AcDbLine
 10
133.2447791878626
 20
139.2489852147875
 30
0.0
 11
133.2447791878626
 21
137.7489852147875
 31
0.0
  0
LINE
  5
FA
330
1F
100
AcDbEntity
  8
0
  6
Continuous
 62
     7
100
AcDbLine
 10
133.2447791878626
 20
142.7489852147875
 30
0.0
 11
121.7447791878627
 21
142.7489852147875
 31
0.0
  0
LINE
  5
FB
330
1F
100
AcDbEntity
  8
LAYER002
  6
Continuous
 62
     7
100
AcDbLine
 10
85.24478918786271
 20
105.2490002147875
 30
0.0
 11
85.24478918786271
 21
104.7490002147875
 31
0.0
  0
LINE
  5
FC
330
1F
100
AcDbEntity
  8
LAYER002
  6
Continuous
 62
     7
100
AcDbLine
 10
100.7447891878627
 20
120.7489848147875
 30
0.0
 11
100.7447891878627
 21
109.2490012147875
 31
0.0
  0
LINE
  5
FD
330
1F
100
AcDbEntity
  8
LAYER002
  6
Continuous
 62
     7
100
AcDbLine
 10
84.24478918786271
 20
103.7490002147875
 30
0.0
 11
84.24478918786271
 21
101.2490002147875
 31
0.0
  0
LINE
  5
FE
330
1F
100
AcDbEntity
  8
LAYER002
  6
Continuous
 62
     7
100
AcDbLine
 10
99.74478918786272
 20
120.7489848147875
 30
0.0
 11
99.74478918786272
 21
109.2490012147875
 31
0.0
  0
LINE
  5
FF
330
1F
100
AcDbEntity
  8
LAYER006
  6
DASH_CENTER
 62
     2
100
AcDbLine
 10
92.24480918786271
 20
108.7490002147875
 30
0.0
 11
92.24480918786271
 21
98.24900021478749
 31
0.0
  0
LINE
  5
100
330
1F
100
AcDbEntity
  8
LAYER002
  6
Continuous
 62
     7
100
AcDbLine
 10
103.2447791878626
 20
120.7489848147875
 30
0.0
 11
103.2447791878626
 21
103.2490002147875
 31
0.0
  0
LINE
  5
101
330
1F
100
AcDbEntity
  8
LAYER002
  6
Continuous
 62
     7
100
AcDbLine
 10
85.74478918786261
 20
105.7490002147875
 30
0.0
 11
96.24478918786261
 21
105.7490002147875
 31
0.0
  0
LINE
  5
102
330
1F
100
AcDbEntity
  8
LAYER002
  6
Continuous
 62
     7
100
AcDbLine
 10
85.24478918786271
 20
104.7490002147875
 30
0.0
 11
96.24478918786261
 21
104.7490002147875
 31
0.0
  0
LINE
  5
103
330
1F
100
AcDbEntity
  8
LAYER002
  6
Continuous
 62
     7
100
AcDbLine
 10
84.24478918786271
 20
101.2490002147875
 30
0.0
 11
101.2447791878626
 21
101.2490002147875
 31
0.0
  0
LINE
  5
104
330
1F
100
AcDbEntity
  8
LAYER002
  6
Continuous
 62
     7
100
AcDbLine
 10
108.6633091878626
 20
133.8304619147875
 30
0.0
 11
109.7239591878626
 21
132.7698025147875
 31
0.0
  0
LINE
  5
105
330
1F
100
AcDbEntity
  8
LAYER002
  6
Continuous
 62
     7
100
AcDbLine
 10
34.28096918786261
 20
104.7490002147875
 30
0.0
 11
52.28096868786261
 21
104.7490002147875
 31
0.0
  0
LINE
  5
106
330
1F
100
AcDbEntity
  8
LAYER002
  6
Continuous
 62
     7
100
AcDbLine
 10
33.28096918786261
 20
140.7489852147875
 30
0.0
 11
33.28096918786261
 21
101.2490002147875
 31
0.0
  0
LINE
  5
107
330
1F
100
AcDbEntity
  8
LAYER002
  6
Continuous
 62
     7
100
AcDbLine
 10
33.28096918786261
 20
101.2490002147875
 30
0.0
 11
53.28096868786261
 21
101.2490002147875
 31
0.0
  0
LINE
  5
108
330
1F
100
AcDbEntity
  8
LAYER002
  6
Continuous
 62
     7
100
AcDbLine
 10
53.28096868786261
 20
140.7489852147875
 30
0.0
 11
53.28096868786261
 21
101.2490002147875
 31
0.0
  0
LINE
  5
109
330
1F
100
AcDbEntity
  8
LAYER002
  6
Continuous
 62
     7
100
AcDbLine
 10
36.78096918786261
 20
105.7490002147875
 30
0.0
 11
49.78096918786261
 21
105.7490002147875
 31
0.0
  0
LINE
  5
10A
330
1F
100
AcDbEntity
  8
LAYER002
  6
Continuous
 62
     7
100
AcDbLine
 10
50.28096868786261
 20
142.2489852147875
 30
0.0
 11
50.28096868786261
 21
104.7490002147875
 31
0.0
  0
LINE
  5
10B
330
1F
100
AcDbEntity
  8
LAYER002
  6
Continuous
 62
     7
100
AcDbLine
 10
34.28096918786261
 20
141.7489852147875
 30
0.0
 11
36.28096918786261
 21
141.7489852147875
 31
0.0
  0
LINE
  5
10C
330
1F
100
AcDbEntity
  8
LAYER002
  6
Continuous
 62
     7
100
AcDbLine
 10
50.28096868786261
 20
141.7489852147875
 30
0.0
 11
52.28096868786261
 21
141.7489852147875
 31
0.0
  0
LINE
  5
10D
330
1F
100
AcDbEntity
  8
LAYER002
  6
Continuous
 62
     7
100
AcDbLine
 10
36.78096918786261
 20
142.7489852147875
 30
0.0
 11
49.78096918786261
 21
142.7489852147875
 31
0.0
  0
LINE
  5
10E
330
1F
100
AcDbEntity
  8
LAYER002
  6
Continuous
 62
     7
100
AcDbLine
 10
36.28096918786261
 20
142.2489852147875
 30
0.0
 11
36.28096918786261
 21
104.7490002147875
 31
0.0
  0
LINE
  5
10F
330
1F
100
AcDbEntity
  8
0
  6
DASH_CENTER
 62
     2
100
AcDbLine
 10
43.28096918786261
 20
145.7489852147875
 30
0.0
 11
43.28096918786261
 21
98.24900021478749
 31
0.0
  0
ARC
  5
110
330
1F
100
AcDbEntity
  8
LAYER002
  6
Continuous
 62
     7
100
AcDbCircle
 10
144.7447791878625
 20
120.7489848147875
 30
0.0
 40
18.5
100
AcDbArc
 50
359.99999
 51
90.0
  0
ARC
  5
111
330
1F
100
AcDbEntity
  8
LAYER002
  6
Continuous
 62
     7
100
AcDbCircle
 10
144.7447791878625
 20
120.7489848147875
 30
0.0
 40
21.00000800000002
100
AcDbArc
 50
359.99999
 51
90.0
  0
ARC
  5
112
330
1F
100
AcDbEntity
  8
LAYER002
  6
Continuous
 62
     7
100
AcDbCircle
 10
144.7447791878625
 20
120.7489848147875
 30
0.0
 40
17.00000000000004
100
AcDbArc
 50
44.99998000000002
 51
90.0
  0
ARC
  5
113
330
1F
100
AcDbEntity
  8
LAYER002
  6
Continuous
 62
     7
100
AcDbCircle
 10
144.7447791878625
 20
120.7489848147875
 30
0.0
 40
22.00000800000001
100
AcDbArc
 50
0.0
 51
90.0
  0
ARC
  5
114
330
1F
100
AcDbEntity
  8
LAYER002
  6
Continuous
 62
     7
100
AcDbCircle
 10
180.7447691878626
 20
105.2490002147875
 30
0.0
 40
0.4999999999998863
100
AcDbArc
 50
0.0
 51
90.0
  0
ARC
  5
115
330
1F
100
AcDbEntity
  8
LAYER002
  6
Continuous
 62
     7
100
AcDbCircle
 10
181.2447691878625
 20
103.7490002147875
 30
0.0
 40
1.0
100
AcDbArc
 50
0.0
 51
90.0
  0
ARC
  5
116
330
1F
100
AcDbEntity
  8
LAYER002
  6
Continuous
 62
     7
100
AcDbCircle
 10
170.2447691878626
 20
109.2490012147875
 30
0.0
 40
3.500000000000114
100
AcDbArc
 50
180.0
 51
270.0
  0
ARC
  5
117
330
1F
100
AcDbEntity
  8
LAYER002
  6
Continuous
 62
     7
100
AcDbCircle
 10
165.2447791878626
 20
103.2490002147875
 30
0.0
 40
2.0
100
AcDbArc
 50
180.0
 51
270.0
  0
ARC
  5
118
330
1F
100
AcDbEntity
  8
LAYER002
  6
Continuous
 62
     7
100
AcDbCircle
 10
170.2447691878626
 20
109.2490012147875
 30
0.0
 40
4.500000000000114
100
AcDbArc
 50
180.0
 51
270.0
  0
ARC
  5
119
330
1F
100
AcDbEntity
  8
LAYER002
  6
Continuous
 62
     7
100
AcDbCircle
 10
177.2447831878626
 20
208.1804272147875
 30
0.0
 40
5.0
100
AcDbArc
 50
270.0
 51
0.0
  0
ARC
  5
11A
330
1F
100
AcDbEntity
  8
LAYER002
  6
Continuous
 62
     7
100
AcDbCircle
 10
177.2447831878626
 20
218.1804272147875
 30
0.0
 40
5.0
100
AcDbArc
 50
0.0
 51
90.0
  0
ARC
  5
11B
330
1F
100
AcDbEntity
  8
LAYER002
  6
Continuous
 62
     7
100
AcDbCircle
 10
177.2447831878626
 20
210.1804272147875
 30
0.0
 40
4.0
100
AcDbArc
 50
270.0
 51
0.0
  0
ARC
  5
11C
330
1F
100
AcDbEntity
  8
LAYER002
  6
Continuous
 62
     7
100
AcDbCircle
 10
177.2447831878626
 20
216.1804272147875
 30
0.0
 40
4.0
100
AcDbArc
 50
0.0
 51
90.0
  0
ARC
  5
11D
330
1F
100
AcDbEntity
  8
LAYER002
  6
Continuous
 62
     7
100
AcDbCircle
 10
89.24478918786271
 20
210.1804272147875
 30
0.0
 40
4.0
100
AcDbArc
 50
180.0
 51
270.0
  0
ARC
  5
11E
330
1F
100
AcDbEntity
  8
LAYER002
  6
Continuous
 62
     7
100
AcDbCircle
 10
89.24478918786271
 20
216.1804272147875
 30
0.0
 40
4.0
100
AcDbArc
 50
90.0
 51
180.0
  0
ARC
  5
11F
330
1F
100
AcDbEntity
  8
LAYER002
  6
Continuous
 62
     7
100
AcDbCircle
 10
164.7447901878626
 20
222.1804172147875
 30
0.0
 40
1.0
100
AcDbArc
 50
0.0
 51
90.0
  0
ARC
  5
120
330
1F
100
AcDbEntity
  8
LAYER002
  6
Continuous
 62
     7
100
AcDbCircle
 10
164.7447901878626
 20
204.1804272147874
 30
0.0
 40
1.0
100
AcDbArc
 50
270.0
 51
0.0
  0
ARC
  5
121
330
1F
100
AcDbEntity
  8
LAYER002
  6
Continuous
 62
     7
100
AcDbCircle
 10
101.7447891878627
 20
222.1804172147875
 30
0.0
 40
1.0
100
AcDbArc
 50
90.0
 51
180.0
  0
ARC
  5
122
330
1F
100
AcDbEntity
  8
LAYER002
  6
Continuous
 62
     7
100
AcDbCircle
 10
101.7447891878627
 20
204.1804272147874
 30
0.0
 40
1.0
100
AcDbArc
 50
180.0
 51
270.0
  0
ARC
  5
123
330
1F
100
AcDbEntity
  8
LAYER002
  6
Continuous
 62
     7
100
AcDbCircle
 10
89.24478918786271
 20
218.1804272147875
 30
0.0
 40
5.0
100
AcDbArc
 50
90.0
 51
180.0
  0
ARC
  5
124
330
1F
100
AcDbEntity
  8
LAYER002
  6
Continuous
 62
     7
100
AcDbCircle
 10
89.24478918786271
 20
208.1804272147875
 30
0.0
 40
5.0
100
AcDbArc
 50
180.0
 51
270.0
  0
ARC
  5
125
330
1F
100
AcDbEntity
  8
LAYER002
  6
Continuous
 62
     7
100
AcDbCircle
 10
166.2447901878626
 20
206.6804272147874
 30
0.0
 40
0.5
100
AcDbArc
 50
270.0
 51
0.0
  0
ARC
  5
126
330
1F
100
AcDbEntity
  8
LAYER002
  6
Continuous
 62
     7
100
AcDbCircle
 10
166.2447901878626
 20
219.6804172147874
 30
0.0
 40
0.5
100
AcDbArc
 50
0.0
 51
90.0
  0
ARC
  5
127
330
1F
100
AcDbEntity
  8
LAYER002
  6
Continuous
 62
     7
100
AcDbCircle
 10
100.2447891878626
 20
206.6804272147874
 30
0.0
 40
0.4999999999998721
100
AcDbArc
 50
180.0
 51
270.0
  0
ARC
  5
128
330
1F
100
AcDbEntity
  8
LAYER002
  6
Continuous
 62
     7
100
AcDbCircle
 10
100.2447891878626
 20
219.6804172147874
 30
0.0
 40
0.5
100
AcDbArc
 50
90.0
 51
180.0
  0
ARC
  5
129
330
1F
100
AcDbEntity
  8
LAYER002
  6
Continuous
 62
     7
100
AcDbCircle
 10
121.7447791878627
 20
120.7489848147875
 30
0.0
 40
18.49999999999999
100
AcDbArc
 50
90.0
 51
180.0000099999999
  0
ARC
  5
12A
330
1F
100
AcDbEntity
  8
LAYER002
  6
Continuous
 62
     7
100
AcDbCircle
 10
121.7447791878627
 20
120.7489848147875
 30
0.0
 40
21.00000799999999
100
AcDbArc
 50
90.0
 51
180.0000099999999
  0
ARC
  5
12B
330
1F
100
AcDbEntity
  8
LAYER002
  6
Continuous
 62
     7
100
AcDbCircle
 10
121.7447791878627
 20
120.7489848147875
 30
0.0
 40
16.99999999999999
100
AcDbArc
 50
90.0
 51
135.00002
  0
ARC
  5
12C
330
1F
100
AcDbEntity
  8
LAYER002
  6
Continuous
 62
     7
100
AcDbCircle
 10
121.7447791878627
 20
120.7489848147875
 30
0.0
 40
22.00000799999999
100
AcDbArc
 50
90.0
 51
180.0
  0
ARC
  5
12D
330
1F
100
AcDbEntity
  8
LAYER002
  6
Continuous
 62
     7
100
AcDbCircle
 10
85.74478918786261
 20
105.2490002147875
 30
0.0
 40
0.5
100
AcDbArc
 50
90.0
 51
180.0
  0
ARC
  5
12E
330
1F
100
AcDbEntity
  8
LAYER002
  6
Continuous
 62
     7
100
AcDbCircle
 10
85.24478918786271
 20
103.7490002147875
 30
0.0
 40
1.0
100
AcDbArc
 50
90.0
 51
180.0
  0
ARC
  5
12F
330
1F
100
AcDbEntity
  8
LAYER002
  6
Continuous
 62
     7
100
AcDbCircle
 10
96.24478918786261
 20
109.2490012147875
 30
0.0
 40
3.5
100
AcDbArc
 50
270.0
 51
0.0
  0
ARC
  5
130
330
1F
100
AcDbEntity
  8
LAYER002
  6
Continuous
 62
     7
100
AcDbCircle
 10
101.2447791878626
 20
103.2490002147875
 30
0.0
 40
2.0
100
AcDbArc
 50
270.0
 51
0.0
  0
ARC
  5
131
330
1F
100
AcDbEntity
  8
LAYER002
  6
Continuous
 62
     7
100
AcDbCircle
 10
96.24478918786261
 20
109.2490012147875
 30
0.0
 40
4.5
100
AcDbArc
 50
270.0
 51
0.0
  0
ARC
  5
132
330
1F
100
AcDbEntity
  8
LAYER002
  6
Continuous
 62
     7
100
AcDbCircle
 10
49.78096918786261
 20
105.2490002147875
 30
0.0
 40
0.5
100
AcDbArc
 50
0.0
 51
90.0
  0
ARC
  5
133
330
1F
100
AcDbEntity
  8
LAYER002
  6
Continuous
 62
     7
100
AcDbCircle
 10
34.28096918786261
 20
103.7490002147875
 30
0.0
 40
1.0
100
AcDbArc
 50
90.0
 51
180.0
  0
ARC
  5
134
330
1F
100
AcDbEntity
  8
LAYER002
  6
Continuous
 62
     7
100
AcDbCircle
 10
52.28096868786261
 20
103.7490002147875
 30
0.0
 40
1.0
100
AcDbArc
 50
0.0
 51
90.0
  0
ARC
  5
135
330
1F
100
AcDbEntity
  8
LAYER002
  6
Continuous
 62
     7
100
AcDbCircle
 10
34.28096918786261
 20
140.7489852147875
 30
0.0
 40
1.0
100
AcDbArc
 50
90.0
 51
180.0
  0
ARC
  5
136
330
1F
100
AcDbEntity
  8
LAYER002
  6
Continuous
 62
     7
100
AcDbCircle
 10
52.28096868786261
 20
140.7489852147875
 30
0.0
 40
1.0
100
AcDbArc
 50
0.0
 51
90.0
  0
ARC
  5
137
330
1F
100
AcDbEntity
  8
LAYER002
  6
Continuous
 62
     7
100
AcDbCircle
 10
49.78096918786261
 20
142.2489852147875
 30
0.0
 40
0.5
100
AcDbArc
 50
0.0
 51
90.0
  0
ARC
  5
138
330
1F
100
AcDbEntity
  8
LAYER002
  6
Continuous
 62
     7
100
AcDbCircle
 10
36.78096918786261
 20
142.2489852147875
 30
0.0
 40
0.5
100
AcDbArc
 50
90.0
 51
180.0
  0
ARC
  5
139
330
1F
100
AcDbEntity
  8
LAYER002
  6
Continuous
 62
     7
100
AcDbCircle
 10
36.78096918786261
 20
105.2490002147875
 30
0.0
 40
0.5
100
AcDbArc
 50
90.0
 51
180.0
  0
CIRCLE
  5
13A
330
1F
100
AcDbEntity
  8
LAYER002
  6
Continuous
 62
     7
100
AcDbCircle
 10
174.2447831878626
 20
213.1804272147875
 30
0.0
 40
2.5
  0
CIRCLE
  5
13B
330
1F
100
AcDbEntity
  8
LAYER002
  6
Continuous
 62
     7
100
AcDbCircle
 10
92.24478918786261
 20
213.1804272147875
 30
0.0
 40
2.5
  0
SOLID
  5
13C
330
1F
100
AcDbEntity
  8
0
 62
     2
100
AcDbTrace
 10
177.840915776563
 20
98.44830317231991
 30
0.0
 11
177.0428149248865
 21
97.98751943076402
 31
0.0
 12
175.6918653507247
 22
101.2490002147875
 32
0.0
 13
175.6918653507247
 23
101.2490002147875
 33
0.0
  0
LEADER
  5
13D
330
1F
100
AcDbEntity
  8
0
  6
Continuous
 62
     2
100
AcDbLeader
  3
Standard
 71
     0
 76
     3
 10
175.6918653507247
 20
101.2490002147875
 30
0.0
 10
183.9031758296979
 20
87.02659326848311
 30
0.0
 10
196.9611700535671
 20
87.02659326848311
 30
0.0
  0
MTEXT
  5
13F
330
1F
100
AcDbEntity
  8
1
 62
     7
100
AcDbMText
 10
157.5
 20
12.5
 30
0.0
 40
2.5
 41
0.0
 71
     5
 72
     1
  1
3
  7
CONVERTER_12
 73
     1
 44
0.7202881152461
  0
MTEXT
  5
140
330
1F
100
AcDbEntity
  8
1
 62
     7
100
AcDbMText
 10
151.75
 20
12.5
 30
0.0
 40
2.5
 41
0.0
 71
     5
 72
     1
  1
04
  7
CONVERTER_12
 73
     1
 44
0.7202881152461
  0
MTEXT
  5
141
330
1F
100
AcDbEntity
  8
1
 62
     7
100
AcDbMText
 10
140.5
 20
12.5
 30
0.0
 40
2.5
 41
0.0
 71
     5
 72
     1
  1
3
  7
CONVERTER_12
 73
     1
 44
0.7202881152461
  0
MTEXT
  5
142
330
1F
100
AcDbEntity
  8
1
 62
     7
100
AcDbMText
 10
134.75
 20
12.5
 30
0.0
 40
2.5
 41
0.0
 71
     5
 72
     1
  1
04
  7
CONVERTER_12
 73
     1
 44
0.7202881152461
  0
MTEXT
  5
143
330
1F
100
AcDbEntity
  8
1
 62
     7
100
AcDbMText
 10
123.5
 20
12.5
 30
0.0
 40
2.5
 41
0.0
 71
     5
 72
     1
  1
3
  7
CONVERTER_12
 73
     1
 44
0.7202881152461
  0
MTEXT
  5
144
330
1F
100
AcDbEntity
  8
1
 62
     7
100
AcDbMText
 10
117.75
 20
12.5
 30
0.0
 40
2.5
 41
0.0
 71
     5
 72
     1
  1
04
  7
CONVERTER_12
 73
     1
 44
0.7202881152461
  0
MTEXT
  5
145
330
1F
100
AcDbEntity
  8
1
 62
     7
100
AcDbMText
 10
100.75
 20
12.5
 30
0.0
 40
2.5
 41
0.0
 71
     5
 72
     1
  1
04
  7
CONVERTER_12
 73
     1
 44
0.7202881152461
  0
MTEXT
  5
146
330
1F
100
AcDbEntity
  8
1
 62
     7
100
AcDbMText
 10
106.5
 20
12.5
 30
0.0
 40
2.5
 41
0.0
 71
     5
 72
     1
  1
3
  7
CONVERTER_12
 73
     1
 44
0.7202881152461
  0
MTEXT
  5
147
330
1F
100
AcDbEntity
  8
0
 62
     7
100
AcDbMText
 10
191.1654558615258
 20
90.5130398262709
 30
0.0
 40
3.0
 41
0.0
 71
     5
 72
     1
  1
2-{\Fgdt;n}5
  7
CONVERTER_12
 73
     1
 44
0.7202881152461
  0
MTEXT
  5
148
330
1F
100
AcDbEntity
  8
1
 62
     7
100
AcDbMText
 10
93.75000000000001
 20
17.0
 30
0.0
 40
3.5
 41
0.0
 71
     5
 72
     1
  1
1
  7
CONVERTER_12
 73
     1
 44
0.7202881152461
  0
MTEXT
  5
149
330
1F
100
AcDbEntity
  8
1
 62
     7
100
AcDbMText
 10
57.0
 20
14.25
 30
0.0
 40
3.5
 41
0.0
 71
     5
 72
     1
  1
R6500-15A
  7
CONVERTER_12
 73
     1
 44
0.7202881152461
  0
MTEXT
  5
14A
330
1F
100
AcDbEntity
  8
1
 62
     7
100
AcDbMText
 10
57.0
 20
22.75000000000004
 30
0.0
 40
3.5
 41
0.0
 71
     5
 72
     1
  1
PCサドルバンド
  7
CONVERTER_11
 73
     1
 44
0.54545454545455
  0
MTEXT
  5
14B
330
1F
100
AcDbEntity
  8
1
 62
     7
100
AcDbMText
 10
85.25000000000001
 20
17.0
 30
0.0
 40
3.5
 41
0.0
 71
     5
 72
     1
  1
1
  7
CONVERTER_12
 73
     1
 44
0.7202881152461
  0
DIMENSION
  5
156
330
1F
100
AcDbEntity
  8
1
100
AcDbDimension
  2
*D3
 10
99.74477118786268
 20
153.7489852147875
 30
0.0
 11
132.9187321496228
 21
156.4989852147875
 31
0.0
 70
    33
  1
<>
 71
     5
 42
-1.0
 53
0.00013888888889
  3
ME10_DIM_10
100
AcDbAlignedDimension
 13
166.7447871878625
 23
120.7489848147875
 33
0.0
 14
99.74477118786271
 24
120.7489848147875
 34
0.0
  0
DIMENSION
  5
161
330
1F
100
AcDbEntity
  8
1
100
AcDbDimension
  2
*D4
 10
191.2447691878625
 20
101.2490002147875
 30
0.0
 11
188.4947691878625
 21
118.9855358156055
 31
0.0
 70
    32
  1
37
 71
     5
 42
-1.0
 53
90.0
  3
ME10_DIM_11
100
AcDbAlignedDimension
 13
144.7447791878625
 23
137.7489852147875
 33
0.0
 14
182.2447691878625
 24
101.2490002147875
 34
0.0
 50
90.0
100
AcDbRotatedDimension
  0
DIMENSION
  5
16C
330
1F
100
AcDbEntity
  8
0
100
AcDbDimension
  2
*D5
 10
103.2447791878626
 20
92.24900021478749
 30
0.0
 11
133.4342105263156
 21
94.99900021478749
 31
0.0
 70
    32
  1
<>
 71
     5
 42
-1.0
 53
0.00013888888889
  3
ME10_DIM_12
100
AcDbAlignedDimension
 13
163.2447791878626
 23
103.2490002147875
 33
0.0
 14
103.2447791878626
 24
103.2490002147875
 34
0.0
100
AcDbRotatedDimension
  0
DIMENSION
  5
177
330
1F
100
AcDbEntity
  8
0
100
AcDbDimension
  2
*D6
 10
92.24478918786258
 20
186.1804292147875
 30
0.0
 11
133.5421412889646
 21
188.9304292147875
 31
0.0
 70
    32
  1
<>
 71
     5
 42
-1.0
 53
0.00013888888889
  3
ME10_DIM_13
100
AcDbAlignedDimension
 13
174.2447831878626
 23
208.1804272147875
 33
0.0
 14
92.24478918786261
 24
208.1804272147875
 34
0.0
100
AcDbRotatedDimension
  0
DIMENSION
  5
182
330
1F
100
AcDbEntity
  8
0
100
AcDbDimension
  2
*D7
 10
84.24478918786272
 20
178.1804292147875
 30
0.0
 11
133.6106893018406
 21
180.9304292147875
 31
0.0
 70
    32
  1
<>
 71
     5
 42
-1.0
 53
0.00013888888889
  3
ME10_DIM_14
100
AcDbAlignedDimension
 13
182.2447831878626
 23
208.1804272147875
 33
0.0
 14
84.24478918786271
 24
208.1804272147875
 34
0.0
100
AcDbRotatedDimension
  0
DIMENSION
  5
18D
330
1F
100
AcDbEntity
  8
0
100
AcDbDimension
  2
*D8
 10
191.2447831878626
 20
203.1804292147875
 30
0.0
 11
188.4947831878626
 21
213.2666936399025
 31
0.0
 70
    32
  1
<>
 71
     5
 42
-1.0
 53
90.0
  3
ME10_DIM_15
100
AcDbAlignedDimension
 13
177.2447831878626
 23
223.1804172147875
 33
0.0
 14
177.2447831878626
 24
203.1804292147875
 34
0.0
 50
90.0
100
AcDbRotatedDimension
  0
DIMENSION
  5
198
330
1F
100
AcDbEntity
  8
0
100
AcDbDimension
  2
*D9
 10
65.24478918786272
 20
142.7489852147875
 30
0.0
 11
62.49478918786272
 21
120.6301761226649
 31
0.0
 70
    32
  1
42
 71
     5
 42
-1.0
 53
90.0
  3
ME10_DIM_16
100
AcDbAlignedDimension
 13
84.24478918786271
 23
101.2490002147875
 33
0.0
 14
121.7447791878627
 24
142.7489852147875
 34
0.0
 50
90.0
100
AcDbRotatedDimension
  0
DIMENSION
  5
1A5
330
1F
100
AcDbEntity
  8
0
100
AcDbDimension
  2
*D10
 10
73.24478918786271
 20
101.2490002147875
 30
0.0
 11
70.49478918786271
 21
110.1642832595603
 31
0.0
 70
    32
  1
5
 71
     5
 42
-1.0
 53
90.0
  3
ME10_DIM_17
100
AcDbAlignedDimension
 13
85.74478918786261
 23
105.7490002147875
 33
0.0
 14
84.24478918786271
 24
101.2490002147875
 34
0.0
 50
90.0
100
AcDbRotatedDimension
  0
ENDSEC
  0
SECTION
  2
OBJECTS
  0
DICTIONARY
  5
C
330
0
100
AcDbDictionary
281
     1
  3
ACAD_GROUP
350
D
  3
ACAD_LAYOUT
350
1A
  3
ACAD_MATERIAL
350
3B
  3
ACAD_MLEADERSTYLE
350
1A8
  3
ACAD_MLINESTYLE
350
17
  3
ACAD_PLOTSETTINGS
350
19
  3
ACAD_PLOTSTYLENAME
350
E
  3
ACAD_VISUALSTYLE
350
2A
  3
AcDbVariableDictionary
350
1A6
  0
DICTIONARY
  5
D
102
{ACAD_REACTORS
330
C
102
}
330
C
100
AcDbDictionary
281
     1
  0
DICTIONARY
  5
1A
102
{ACAD_REACTORS
330
C
102
}
330
C
100
AcDbDictionary
281
     1
  3
Layout1
350
1E
  3
Layout2
350
26
  3
Model
350
22
  0
DICTIONARY
  5
3B
102
{ACAD_REACTORS
330
C
102
}
330
C
100
AcDbDictionary
281
     1
  3
ByBlock
350
3D
  3
ByLayer
350
3C
  3
Global
350
3E
  0
DICTIONARY
  5
1A8
102
{ACAD_REACTORS
330
C
102
}
330
C
100
AcDbDictionary
281
     1
  0
DICTIONARY
  5
17
102
{ACAD_REACTORS
330
C
102
}
330
C
100
AcDbDictionary
281
     1
  3
Standard
350
18
  0
DICTIONARY
  5
19
102
{ACAD_REACTORS
330
C
102
}
330
C
100
AcDbDictionary
281
     1
  0
ACDBDICTIONARYWDFLT
  5
E
102
{ACAD_REACTORS
330
C
102
}
330
C
100
AcDbDictionary
281
     1
  3
Normal
350
F
100
AcDbDictionaryWithDefault
340
F
  0
DICTIONARY
  5
2A
102
{ACAD_REACTORS
330
C
102
}
330
C
100
AcDbDictionary
281
     1
  3
2dWireframe
350
2F
  3
3D Hidden
350
31
  3
3dWireframe
350
30
  3
Basic
350
32
  3
Brighten
350
36
  3
ColorChange
350
3A
  3
Conceptual
350
34
  3
Dim
350
35
  3
Facepattern
350
39
  3
Flat
350
2B
  3
FlatWithEdges
350
2C
  3
Gouraud
350
2D
  3
GouraudWithEdges
350
2E
  3
Linepattern
350
38
  3
Realistic
350
33
  3
Thicken
350
37
  0
DICTIONARY
  5
1A6
102
{ACAD_REACTORS
330
C
102
}
330
C
100
AcDbDictionary
281
     1
  3
DIMASSOC
350
1A9
  3
HIDETEXT
350
1AA
  0
LAYOUT
  5
1E
102
{ACAD_REACTORS
330
1A
102
}
330
1A
100
AcDbPlotSettings
  1

  2
none_device
  4

  6

 40
0.0
 41
0.0
 42
0.0
 43
0.0
 44
0.0
 45
0.0
 46
0.0
 47
0.0
 48
0.0
 49
0.0
140
0.0
141
0.0
142
1.0
143
1.0
 70
   688
 72
     0
 73
     0
 74
     5
  7

 75
    16
147
1.0
148
0.0
149
0.0
100
AcDbLayout
  1
Layout1
 70
     1
 71
     1
 10
0.0
 20
0.0
 11
12.0
 21
9.0
 12
0.0
 22
0.0
 32
0.0
 14
1.00000000000000E+20
 24
1.00000000000000E+20
 34
1.00000000000000E+20
 15
-1.00000000000000E+20
 25
-1.00000000000000E+20
 35
-1.00000000000000E+20
146
0.0
 13
0.0
 23
0.0
 33
0.0
 16
1.0
 26
0.0
 36
0.0
 17
0.0
 27
1.0
 37
0.0
 76
     0
330
1B
  0
LAYOUT
  5
26
102
{ACAD_REACTORS
330
1A
102
}
330
1A
100
AcDbPlotSettings
  1

  2
none_device
  4

  6

 40
0.0
 41
0.0
 42
0.0
 43
0.0
 44
0.0
 45
0.0
 46
0.0
 47
0.0
 48
0.0
 49
0.0
140
0.0
141
0.0
142
1.0
143
1.0
 70
   688
 72
     0
 73
     0
 74
     5
  7

 75
    16
147
1.0
148
0.0
149
0.0
100
AcDbLayout
  1
Layout2
 70
     1
 71
     2
 10
0.0
 20
0.0
 11
0.0
 21
0.0
 12
0.0
 22
0.0
 32
0.0
 14
0.0
 24
0.0
 34
0.0
 15
0.0
 25
0.0
 35
0.0
146
0.0
 13
0.0
 23
0.0
 33
0.0
 16
1.0
 26
0.0
 36
0.0
 17
0.0
 27
1.0
 37
0.0
 76
     0
330
23
  0
LAYOUT
  5
22
102
{ACAD_REACTORS
330
1A
102
}
330
1A
100
AcDbPlotSettings
  1

  2
none_device
  4

  6

 40
0.0
 41
0.0
 42
0.0
 43
0.0
 44
0.0
 45
0.0
 46
0.0
 47
0.0
 48
0.0
 49
0.0
140
0.0
141
0.0
142
1.0
143
1.0
 70
  1712
 72
     0
 73
     0
 74
     0
  7

 75
     0
147
1.0
148
0.0
149
0.0
100
AcDbLayout
  1
Model
 70
     1
 71
     0
 10
0.0
 20
0.0
 11
12.0
 21
9.0
 12
0.0
 22
0.0
 32
0.0
 14
0.0
 24
0.0
 34
0.0
 15
210.0
 25
297.0
 35
0.0
146
0.0
 13
0.0
 23
0.0
 33
0.0
 16
1.0
 26
0.0
 36
0.0
 17
0.0
 27
1.0
 37
0.0
 76
     0
330
1F
331
29
  0
MATERIAL
  5
3D
102
{ACAD_REACTORS
330
3B
102
}
102
{ACAD_XDICTIONARY
360
1CD
102
}
330
3B
100
AcDbMaterial
  1
ByBlock
  0
MATERIAL
  5
3C
102
{ACAD_REACTORS
330
3B
102
}
102
{ACAD_XDICTIONARY
360
1CB
102
}
330
3B
100
AcDbMaterial
  1
ByLayer
  0
MATERIAL
  5
3E
102
{ACAD_REACTORS
330
3B
102
}
102
{ACAD_XDICTIONARY
360
1CF
102
}
330
3B
100
AcDbMaterial
  1
Global
  0
MLINESTYLE
  5
18
102
{ACAD_REACTORS
330
17
102
}
330
17
100
AcDbMlineStyle
  2
Standard
 70
     0
  3

 62
   256
 51
90.0
 52
90.0
 71
     2
 49
0.5
 62
   256
  6
BYLAYER
 49
-0.5
 62
   256
  6
BYLAYER
  0
ACDBPLACEHOLDER
  5
F
102
{ACAD_REACTORS
330
E
102
}
330
E
  0
VISUALSTYLE
  5
2F
102
{ACAD_REACTORS
330
2A
102
}
102
{ACAD_XDICTIONARY
360
1B3
102
}
330
2A
100
AcDbVisualStyle
  2
2dWireframe
 70
     4
 71
     0
 72
     2
 73
     0
 90
        0
 40
-0.6
 41
-30.0
 62
     5
 63
     7
 74
     1
 91
        4
 64
     7
 65
   257
 75
     1
175
     1
 42
1.0
 92
        0
 66
   257
 43
1.0
 76
     1
 77
     6
 78
     2
 67
     7
 79
     5
170
     0
171
     0
290
     0
174
     0
 93
        1
 44
0.0
173
     0
291
     0
 45
0.0
1001
ACAD
1000
AcDbSavedByObjectVersion
1070
     0
  0
VISUALSTYLE
  5
31
102
{ACAD_REACTORS
330
2A
102
}
102
{ACAD_XDICTIONARY
360
1B7
102
}
330
2A
100
AcDbVisualStyle
  2
3D Hidden
 70
     6
 71
     1
 72
     2
 73
     2
 90
        0
 40
-0.6
 41
-30.0
 62
     5
 63
     7
 74
     2
 91
        2
 64
     7
 65
   257
 75
     2
175
     1
 42
40.0
 92
        0
 66
   257
 43
1.0
 76
     1
 77
     6
 78
     2
 67
     7
 79
     3
170
     0
171
     0
290
     0
174
     0
 93
        1
 44
0.0
173
     0
291
     0
 45
0.0
1001
ACAD
1000
AcDbSavedByObjectVersion
1070
     0
  0
VISUALSTYLE
  5
30
102
{ACAD_REACTORS
330
2A
102
}
102
{ACAD_XDICTIONARY
360
1B5
102
}
330
2A
100
AcDbVisualStyle
  2
3dWireframe
 70
     5
 71
     0
 72
     2
 73
     0
 90
        0
 40
-0.6
 41
-30.0
 62
     5
 63
     7
 74
     1
 91
        4
 64
     7
 65
   257
 75
     1
175
     1
 42
1.0
 92
        0
 66
   257
 43
1.0
 76
     1
 77
     6
 78
     2
 67
     7
 79
     5
170
     0
171
     0
290
     0
174
     0
 93
        1
 44
0.0
173
     0
291
     0
 45
0.0
1001
ACAD
1000
AcDbSavedByObjectVersion
1070
     0
  0
VISUALSTYLE
  5
32
102
{ACAD_REACTORS
330
2A
102
}
102
{ACAD_XDICTIONARY
360
1B9
102
}
330
2A
100
AcDbVisualStyle
  2
Basic
 70
     7
 71
     1
 72
     0
 73
     1
 90
        0
 40
-0.6
 41
-30.0
 62
     5
 63
     7
 74
     0
 91
        4
 64
     7
 65
   257
 75
     1
175
     1
 42
1.0
 92
        8
 66
     7
 43
1.0
 76
     1
 77
     6
 78
     2
 67
     7
 79
     5
170
     0
171
     0
290
     0
174
     0
 93
        1
 44
0.0
173
     0
291
     1
 45
0.0
1001
ACAD
1000
AcDbSavedByObjectVersion
1070
     0
  0
VISUALSTYLE
  5
36
102
{ACAD_REACTORS
330
2A
102
}
102
{ACAD_XDICTIONARY
360
1C1
102
}
330
2A
100
AcDbVisualStyle
  2
Brighten
 70
    12
 71
     2
 72
     2
 73
     0
 90
        0
 40
-0.6
 41
-30.0
 62
     5
 63
     7
 74
     1
 91
        4
 64
     7
 65
   257
 75
     1
175
     1
 42
1.0
 92
        8
 66
     7
 43
1.0
 76
     1
 77
     6
 78
     2
 67
     7
 79
     5
170
     0
171
     0
290
     0
174
     0
 93
        1
 44
50.0
173
     0
291
     1
 45
0.0
1001
ACAD
1000
AcDbSavedByObjectVersion
1070
     0
  0
VISUALSTYLE
  5
3A
102
{ACAD_REACTORS
330
2A
102
}
102
{ACAD_XDICTIONARY
360
1C9
102
}
330
2A
100
AcDbVisualStyle
  2
ColorChange
 70
    16
 71
     2
 72
     2
 73
     3
 90
        0
 40
-0.6
 41
-30.0
 62
     5
 63
     8
 74
     1
 91
        4
 64
     7
 65
   257
 75
     1
175
     1
 42
1.0
 92
        8
 66
     8
 43
1.0
 76
     1
 77
     6
 78
     2
 67
     7
 79
     5
170
     0
171
     0
290
     0
174
     0
 93
        1
 44
0.0
173
     0
291
     1
 45
0.0
1001
ACAD
1000
AcDbSavedByObjectVersion
1070
     0
  0
VISUALSTYLE
  5
34
102
{ACAD_REACTORS
330
2A
102
}
102
{ACAD_XDICTIONARY
360
1BD
102
}
330
2A
100
AcDbVisualStyle
  2
Conceptual
 70
     9
 71
     3
 72
     2
 73
     0
 90
        0
 40
-0.6
 41
-30.0
 62
     5
 63
     7
 74
     2
 91
        2
 64
     7
 65
   257
 75
     1
175
     1
 42
40.0
 92
        8
 66
     7
 43
1.0
 76
     1
 77
     6
 78
     2
 67
     7
 79
     3
170
     0
171
     0
290
     0
174
     0
 93
        1
 44
0.0
173
     0
291
     0
 45
0.0
1001
ACAD
1000
AcDbSavedByObjectVersion
1070
     0
  0
VISUALSTYLE
  5
35
102
{ACAD_REACTORS
330
2A
102
}
102
{ACAD_XDICTIONARY
360
1BF
102
}
330
2A
100
AcDbVisualStyle
  2
Dim
 70
    11
 71
     2
 72
     2
 73
     0
 90
        0
 40
-0.6
 41
-30.0
 62
     5
 63
     7
 74
     1
 91
        4
 64
     7
 65
   257
 75
     1
175
     1
 42
1.0
 92
        8
 66
     7
 43
1.0
 76
     1
 77
     6
 78
     2
 67
     7
 79
     5
170
     0
171
     0
290
     0
174
     0
 93
        1
 44
-50.0
173
     0
291
     1
 45
0.0
1001
ACAD
1000
AcDbSavedByObjectVersion
1070
     0
  0
VISUALSTYLE
  5
39
102
{ACAD_REACTORS
330
2A
102
}
102
{ACAD_XDICTIONARY
360
1C7
102
}
330
2A
100
AcDbVisualStyle
  2
Facepattern
 70
    15
 71
     2
 72
     2
 73
     0
 90
        0
 40
-0.6
 41
-30.0
 62
     5
 63
     7
 74
     1
 91
        4
 64
     7
 65
   257
 75
     1
175
     1
 42
1.0
 92
        8
 66
     7
 43
1.0
 76
     1
 77
     6
 78
     2
 67
     7
 79
     5
170
     0
171
     0
290
     0
174
     0
 93
        1
 44
0.0
173
     0
291
     1
 45
0.0
1001
ACAD
1000
AcDbSavedByObjectVersion
1070
     0
  0
VISUALSTYLE
  5
2B
102
{ACAD_REACTORS
330
2A
102
}
102
{ACAD_XDICTIONARY
360
1AB
102
}
330
2A
100
AcDbVisualStyle
  2
Flat
 70
     0
 71
     2
 72
     1
 73
     1
 90
        2
 40
-0.6
 41
30.0
 62
     5
 63
     7
 74
     0
 91
        4
 64
     7
 65
   257
 75
     1
175
     1
 42
1.0
 92
        8
 66
     7
 43
1.0
 76
     1
 77
     6
 78
     2
 67
     7
 79
     5
170
     0
171
     0
290
     0
174
     0
 93
       13
 44
0.0
173
     0
291
     1
 45
0.0
1001
ACAD
1000
AcDbSavedByObjectVersion
1070
     0
  0
VISUALSTYLE
  5
2C
102
{ACAD_REACTORS
330
2A
102
}
102
{ACAD_XDICTIONARY
360
1AD
102
}
330
2A
100
AcDbVisualStyle
  2
FlatWithEdges
 70
     1
 71
     2
 72
     1
 73
     1
 90
        2
 40
-0.6
 41
30.0
 62
     5
 63
     7
 74
     1
 91
        4
 64
     7
 65
   257
 75
     1
175
     1
 42
1.0
 92
        0
 66
   257
 43
1.0
 76
     1
 77
     6
 78
     2
 67
     7
 79
     5
170
     0
171
     0
290
     0
174
     0
 93
       13
 44
0.0
173
     0
291
     1
 45
0.0
1001
ACAD
1000
AcDbSavedByObjectVersion
1070
     0
  0
VISUALSTYLE
  5
2D
102
{ACAD_REACTORS
330
2A
102
}
102
{ACAD_XDICTIONARY
360
1AF
102
}
330
2A
100
AcDbVisualStyle
  2
Gouraud
 70
     2
 71
     2
 72
     2
 73
     1
 90
        2
 40
-0.6
 41
30.0
 62
     5
 63
     7
 74
     0
 91
        4
 64
     7
 65
   257
 75
     1
175
     1
 42
1.0
 92
        0
 66
     7
 43
1.0
 76
     1
 77
     6
 78
     2
 67
     7
 79
     5
170
     0
171
     0
290
     0
174
     0
 93
       13
 44
0.0
173
     0
291
     1
 45
0.0
1001
ACAD
1000
AcDbSavedByObjectVersion
1070
     0
  0
VISUALSTYLE
  5
2E
102
{ACAD_REACTORS
330
2A
102
}
102
{ACAD_XDICTIONARY
360
1B1
102
}
330
2A
100
AcDbVisualStyle
  2
GouraudWithEdges
 70
     3
 71
     2
 72
     2
 73
     1
 90
        2
 40
-0.6
 41
30.0
 62
     5
 63
     7
 74
     1
 91
        4
 64
     7
 65
   257
 75
     1
175
     1
 42
1.0
 92
        0
 66
   257
 43
1.0
 76
     1
 77
     6
 78
     2
 67
     7
 79
     5
170
     0
171
     0
290
     0
174
     0
 93
       13
 44
0.0
173
     0
291
     1
 45
0.0
1001
ACAD
1000
AcDbSavedByObjectVersion
1070
     0
  0
VISUALSTYLE
  5
38
102
{ACAD_REACTORS
330
2A
102
}
102
{ACAD_XDICTIONARY
360
1C5
102
}
330
2A
100
AcDbVisualStyle
  2
Linepattern
 70
    14
 71
     2
 72
     2
 73
     0
 90
        0
 40
-0.6
 41
-30.0
 62
     5
 63
     7
 74
     1
 91
        4
 64
     7
 65
   257
 75
     7
175
     7
 42
1.0
 92
        8
 66
     7
 43
1.0
 76
     1
 77
     6
 78
     2
 67
     7
 79
     5
170
     0
171
     0
290
     0
174
     0
 93
        1
 44
0.0
173
     0
291
     1
 45
0.0
1001
ACAD
1000
AcDbSavedByObjectVersion
1070
     0
  0
VISUALSTYLE
  5
33
102
{ACAD_REACTORS
330
2A
102
}
102
{ACAD_XDICTIONARY
360
1BB
102
}
330
2A
100
AcDbVisualStyle
  2
Realistic
 70
     8
 71
     2
 72
     2
 73
     0
 90
        0
 40
-0.6
 41
-30.0
 62
     5
 63
     7
 74
     1
 91
        0
 64
     7
 65
   257
 75
     1
175
     1
 42
1.0
 92
        8
 66
     8
 43
1.0
 76
     1
 77
     6
 78
     2
 67
     7
 79
     5
170
     0
171
     0
290
     0
174
     0
 93
       13
 44
0.0
173
     0
291
     0
 45
0.0
1001
ACAD
1000
AcDbSavedByObjectVersion
1070
     0
  0
VISUALSTYLE
  5
37
102
{ACAD_REACTORS
330
2A
102
}
102
{ACAD_XDICTIONARY
360
1C3
102
}
330
2A
100
AcDbVisualStyle
  2
Thicken
 70
    13
 71
     2
 72
     2
 73
     0
 90
        0
 40
-0.6
 41
-30.0
 62
     5
 63
     7
 74
     1
 91
        4
 64
     7
 65
   257
 75
     1
175
     1
 42
1.0
 92
       12
 66
     7
 43
1.0
 76
     1
 77
     6
 78
     2
 67
     7
 79
     5
170
     0
171
     0
290
     0
174
     0
 93
        1
 44
0.0
173
     0
291
     1
 45
0.0
1001
ACAD
1000
AcDbSavedByObjectVersion
1070
     0
  0
DICTIONARYVAR
  5
1A9
102
{ACAD_REACTORS
330
1A6
102
}
330
1A6
100
DictionaryVariables
280
     0
  1
2
  0
DICTIONARYVAR
  5
1AA
102
{ACAD_REACTORS
330
1A6
102
}
330
1A6
100
DictionaryVariables
280
     0
  1
1
  0
DICTIONARY
  5
1CD
330
3D
100
AcDbDictionary
280
     1
281
     1
  3
ACAD_XREC_ROUNDTRIP
360
1CE
  0
DICTIONARY
  5
1CB
330
3C
100
AcDbDictionary
280
     1
281
     1
  3
ACAD_XREC_ROUNDTRIP
360
1CC
  0
DICTIONARY
  5
1CF
330
3E
100
AcDbDictionary
280
     1
281
     1
  3
ACAD_XREC_ROUNDTRIP
360
1D0
  0
DICTIONARY
  5
1B3
330
2F
100
AcDbDictionary
280
     1
281
     1
  3
ACAD_XREC_ROUNDTRIP
360
1B4
  0
DICTIONARY
  5
1B7
330
31
100
AcDbDictionary
280
     1
281
     1
  3
ACAD_XREC_ROUNDTRIP
360
1B8
  0
DICTIONARY
  5
1B5
330
30
100
AcDbDictionary
280
     1
281
     1
  3
ACAD_XREC_ROUNDTRIP
360
1B6
  0
DICTIONARY
  5
1B9
330
32
100
AcDbDictionary
280
     1
281
     1
  3
ACAD_XREC_ROUNDTRIP
360
1BA
  0
DICTIONARY
  5
1C1
330
36
100
AcDbDictionary
280
     1
281
     1
  3
ACAD_XREC_ROUNDTRIP
360
1C2
  0
DICTIONARY
  5
1C9
330
3A
100
AcDbDictionary
280
     1
281
     1
  3
ACAD_XREC_ROUNDTRIP
360
1CA
  0
DICTIONARY
  5
1BD
330
34
100
AcDbDictionary
280
     1
281
     1
  3
ACAD_XREC_ROUNDTRIP
360
1BE
  0
DICTIONARY
  5
1BF
330
35
100
AcDbDictionary
280
     1
281
     1
  3
ACAD_XREC_ROUNDTRIP
360
1C0
  0
DICTIONARY
  5
1C7
330
39
100
AcDbDictionary
280
     1
281
     1
  3
ACAD_XREC_ROUNDTRIP
360
1C8
  0
DICTIONARY
  5
1AB
330
2B
100
AcDbDictionary
280
     1
281
     1
  3
ACAD_XREC_ROUNDTRIP
360
1AC
  0
DICTIONARY
  5
1AD
330
2C
100
AcDbDictionary
280
     1
281
     1
  3
ACAD_XREC_ROUNDTRIP
360
1AE
  0
DICTIONARY
  5
1AF
330
2D
100
AcDbDictionary
280
     1
281
     1
  3
ACAD_XREC_ROUNDTRIP
360
1B0
  0
DICTIONARY
  5
1B1
330
2E
100
AcDbDictionary
280
     1
281
     1
  3
ACAD_XREC_ROUNDTRIP
360
1B2
  0
DICTIONARY
  5
1C5
330
38
100
AcDbDictionary
280
     1
281
     1
  3
ACAD_XREC_ROUNDTRIP
360
1C6
  0
DICTIONARY
  5
1BB
330
33
100
AcDbDictionary
280
     1
281
     1
  3
ACAD_XREC_ROUNDTRIP
360
1BC
  0
DICTIONARY
  5
1C3
330
37
100
AcDbDictionary
280
     1
281
     1
  3
ACAD_XREC_ROUNDTRIP
360
1C4
  0
XRECORD
  5
1CE
102
{ACAD_REACTORS
330
1CD
102
}
330
1CD
100
AcDbXrecord
280
     1
102
MATERIAL
148
0.0
149
0.0
149
0.0
 93
        0
 94
      127
282
     0
 72
     1
 77
     1
171
     1
175
     1
179
     1
273
     0
  0
XRECORD
  5
1CC
102
{ACAD_REACTORS
330
1CB
102
}
330
1CB
100
AcDbXrecord
280
     1
102
MATERIAL
148
0.0
149
0.0
149
0.0
 93
        0
 94
      127
282
     0
 72
     1
 77
     1
171
     1
175
     1
179
     1
273
     0
  0
XRECORD
  5
1D0
102
{ACAD_REACTORS
330
1CF
102
}
330
1CF
100
AcDbXrecord
280
     1
102
MATERIAL
148
0.0
149
0.0
149
0.0
 93
        0
 94
      127
282
     0
 72
     1
 77
     1
171
     1
175
     1
179
     1
273
     0
  0
XRECORD
  5
1B4
102
{ACAD_REACTORS
330
1B3
102
}
330
1B3
100
AcDbXrecord
280
     1
102
RTVSPropertyOp0
 70
     1
102
RTVSPropertyOp1
 70
     1
102
RTVSPropertyOp2
 70
     1
102
RTVSPropertyOp3
 70
     1
102
RTVSPropertyOp4
 70
     1
102
RTVSPropertyOp5
 70
     1
102
RTVSPropertyOp6
 70
     1
102
RTVSPropertyOp7
 70
     1
102
RTVSPropertyOp8
 70
     1
102
RTVSPropertyOp9
 70
     1
102
RTVSPropertyOp10
 70
     1
102
RTVSPropertyOp11
 70
     1
102
RTVSPropertyOp12
 70
     1
102
RTVSPropertyOp13
 70
     1
102
RTVSPropertyOp14
 70
     1
102
RTVSPropertyOp15
 70
     1
102
RTVSPropertyOp16
 70
     1
102
RTVSPropertyOp17
 70
     1
102
RTVSPropertyOp18
 70
     1
102
RTVSPropertyOp19
 70
     1
102
RTVSPropertyOp20
 70
     1
102
RTVSPropertyOp21
 70
     1
102
RTVSPropertyOp22
 70
     1
102
RTVSPropertyOp23
 70
     1
102
RTVSPropertyOp24
 70
     1
102
RTVSPropertyOp25
 70
     1
102
RTVSPropertyOp26
 70
     1
102
RTVSPropertyOp27
 70
     1
102
RTVSPropertyOp28
 70
     1
102
RTVSPropertyOp29
 70
     1
102
RTVSPropertyOp30
 70
     1
102
RTVSPropertyOp31
 70
     1
102
RTVSPropertyOp32
 70
     1
  0
XRECORD
  5
1B8
102
{ACAD_REACTORS
330
1B7
102
}
330
1B7
100
AcDbXrecord
280
     1
102
RTVSPropertyOp0
 70
     1
102
RTVSPropertyOp1
 70
     1
102
RTVSPropertyOp2
 70
     1
102
RTVSPropertyOp3
 70
     1
102
RTVSPropertyOp4
 70
     1
102
RTVSPropertyOp5
 70
     1
102
RTVSPropertyOp6
 70
     1
102
RTVSPropertyOp7
 70
     1
102
RTVSPropertyOp8
 70
     1
102
RTVSPropertyOp9
 70
     1
102
RTVSPropertyOp10
 70
     1
102
RTVSPropertyOp11
 70
     1
102
RTVSPropertyOp12
 70
     1
102
RTVSPropertyOp13
 70
     1
102
RTVSPropertyOp14
 70
     1
102
RTVSPropertyOp15
 70
     1
102
RTVSPropertyOp16
 70
     1
102
RTVSPropertyOp17
 70
     1
102
RTVSPropertyOp18
 70
     1
102
RTVSPropertyOp19
 70
     1
102
RTVSPropertyOp20
 70
     1
102
RTVSPropertyOp21
 70
     1
102
RTVSPropertyOp22
 70
     1
102
RTVSPropertyOp23
 70
     1
102
RTVSPropertyOp24
 70
     1
102
RTVSPropertyOp25
 70
     1
102
RTVSPropertyOp26
 70
     1
102
RTVSPropertyOp27
 70
     1
102
RTVSPropertyOp28
 70
     1
102
RTVSPropertyOp29
 70
     1
102
RTVSPropertyOp30
 70
     1
102
RTVSPropertyOp31
 70
     1
102
RTVSPropertyOp32
 70
     1
  0
XRECORD
  5
1B6
102
{ACAD_REACTORS
330
1B5
102
}
330
1B5
100
AcDbXrecord
280
     1
102
RTVSPropertyOp0
 70
     1
102
RTVSPropertyOp1
 70
     1
102
RTVSPropertyOp2
 70
     1
102
RTVSPropertyOp3
 70
     1
102
RTVSPropertyOp4
 70
     1
102
RTVSPropertyOp5
 70
     1
102
RTVSPropertyOp6
 70
     1
102
RTVSPropertyOp7
 70
     1
102
RTVSPropertyOp8
 70
     1
102
RTVSPropertyOp9
 70
     1
102
RTVSPropertyOp10
 70
     1
102
RTVSPropertyOp11
 70
     1
102
RTVSPropertyOp12
 70
     1
102
RTVSPropertyOp13
 70
     1
102
RTVSPropertyOp14
 70
     1
102
RTVSPropertyOp15
 70
     1
102
RTVSPropertyOp16
 70
     1
102
RTVSPropertyOp17
 70
     1
102
RTVSPropertyOp18
 70
     1
102
RTVSPropertyOp19
 70
     1
102
RTVSPropertyOp20
 70
     1
102
RTVSPropertyOp21
 70
     1
102
RTVSPropertyOp22
 70
     1
102
RTVSPropertyOp23
 70
     1
102
RTVSPropertyOp24
 70
     1
102
RTVSPropertyOp25
 70
     1
102
RTVSPropertyOp26
 70
     1
102
RTVSPropertyOp27
 70
     1
102
RTVSPropertyOp28
 70
     1
102
RTVSPropertyOp29
 70
     1
102
RTVSPropertyOp30
 70
     1
102
RTVSPropertyOp31
 70
     1
102
RTVSPropertyOp32
 70
     1
  0
XRECORD
  5
1BA
102
{ACAD_REACTORS
330
1B9
102
}
330
1B9
100
AcDbXrecord
280
     1
102
RTVSPropertyOp0
 70
     1
102
RTVSPropertyOp1
 70
     1
102
RTVSPropertyOp2
 70
     1
102
RTVSPropertyOp3
 70
     1
102
RTVSPropertyOp4
 70
     1
102
RTVSPropertyOp5
 70
     1
102
RTVSPropertyOp6
 70
     1
102
RTVSPropertyOp7
 70
     1
102
RTVSPropertyOp8
 70
     1
102
RTVSPropertyOp9
 70
     1
102
RTVSPropertyOp10
 70
     1
102
RTVSPropertyOp11
 70
     1
102
RTVSPropertyOp12
 70
     1
102
RTVSPropertyOp13
 70
     1
102
RTVSPropertyOp14
 70
     1
102
RTVSPropertyOp15
 70
     1
102
RTVSPropertyOp16
 70
     1
102
RTVSPropertyOp17
 70
     1
102
RTVSPropertyOp18
 70
     1
102
RTVSPropertyOp19
 70
     1
102
RTVSPropertyOp20
 70
     1
102
RTVSPropertyOp21
 70
     1
102
RTVSPropertyOp22
 70
     1
102
RTVSPropertyOp23
 70
     1
102
RTVSPropertyOp24
 70
     1
102
RTVSPropertyOp25
 70
     1
102
RTVSPropertyOp26
 70
     1
102
RTVSPropertyOp27
 70
     1
102
RTVSPropertyOp28
 70
     1
102
RTVSPropertyOp29
 70
     1
102
RTVSPropertyOp30
 70
     1
102
RTVSPropertyOp31
 70
     1
102
RTVSPropertyOp32
 70
     1
  0
XRECORD
  5
1C2
102
{ACAD_REACTORS
330
1C1
102
}
330
1C1
100
AcDbXrecord
280
     1
102
RTVSPropertyOp0
 70
     1
102
RTVSPropertyOp1
 70
     1
102
RTVSPropertyOp2
 70
     1
102
RTVSPropertyOp3
 70
     1
102
RTVSPropertyOp4
 70
     1
102
RTVSPropertyOp5
 70
     1
102
RTVSPropertyOp6
 70
     1
102
RTVSPropertyOp7
 70
     1
102
RTVSPropertyOp8
 70
     1
102
RTVSPropertyOp9
 70
     1
102
RTVSPropertyOp10
 70
     1
102
RTVSPropertyOp11
 70
     1
102
RTVSPropertyOp12
 70
     1
102
RTVSPropertyOp13
 70
     1
102
RTVSPropertyOp14
 70
     1
102
RTVSPropertyOp15
 70
     1
102
RTVSPropertyOp16
 70
     1
102
RTVSPropertyOp17
 70
     1
102
RTVSPropertyOp18
 70
     1
102
RTVSPropertyOp19
 70
     1
102
RTVSPropertyOp20
 70
     1
102
RTVSPropertyOp21
 70
     1
102
RTVSPropertyOp22
 70
     1
102
RTVSPropertyOp23
 70
     1
102
RTVSPropertyOp24
 70
     1
102
RTVSPropertyOp25
 70
     1
102
RTVSPropertyOp26
 70
     1
102
RTVSPropertyOp27
 70
     1
102
RTVSPropertyOp28
 70
     1
102
RTVSPropertyOp29
 70
     1
102
RTVSPropertyOp30
 70
     1
102
RTVSPropertyOp31
 70
     1
102
RTVSPropertyOp32
 70
     1
  0
XRECORD
  5
1CA
102
{ACAD_REACTORS
330
1C9
102
}
330
1C9
100
AcDbXrecord
280
     1
102
RTVSPropertyOp0
 70
     1
102
RTVSPropertyOp1
 70
     1
102
RTVSPropertyOp2
 70
     1
102
RTVSPropertyOp3
 70
     1
102
RTVSPropertyOp4
 70
     1
102
RTVSPropertyOp5
 70
     1
102
RTVSPropertyOp6
 70
     1
102
RTVSPropertyOp7
 70
     1
102
RTVSPropertyOp8
 70
     1
102
RTVSPropertyOp9
 70
     1
102
RTVSPropertyOp10
 70
     1
102
RTVSPropertyOp11
 70
     1
102
RTVSPropertyOp12
 70
     1
102
RTVSPropertyOp13
 70
     1
102
RTVSPropertyOp14
 70
     1
102
RTVSPropertyOp15
 70
     1
102
RTVSPropertyOp16
 70
     1
102
RTVSPropertyOp17
 70
     1
102
RTVSPropertyOp18
 70
     1
102
RTVSPropertyOp19
 70
     1
102
RTVSPropertyOp20
 70
     1
102
RTVSPropertyOp21
 70
     1
102
RTVSPropertyOp22
 70
     1
102
RTVSPropertyOp23
 70
     1
102
RTVSPropertyOp24
 70
     1
102
RTVSPropertyOp25
 70
     1
102
RTVSPropertyOp26
 70
     1
102
RTVSPropertyOp27
 70
     1
102
RTVSPropertyOp28
 70
     1
102
RTVSPropertyOp29
 70
     1
102
RTVSPropertyOp30
 70
     1
102
RTVSPropertyOp31
 70
     1
102
RTVSPropertyOp32
 70
     1
  0
XRECORD
  5
1BE
102
{ACAD_REACTORS
330
1BD
102
}
330
1BD
100
AcDbXrecord
280
     1
102
RTVSPropertyOp0
 70
     1
102
RTVSPropertyOp1
 70
     1
102
RTVSPropertyOp2
 70
     1
102
RTVSPropertyOp3
 70
     1
102
RTVSPropertyOp4
 70
     1
102
RTVSPropertyOp5
 70
     1
102
RTVSPropertyOp6
 70
     1
102
RTVSPropertyOp7
 70
     1
102
RTVSPropertyOp8
 70
     1
102
RTVSPropertyOp9
 70
     1
102
RTVSPropertyOp10
 70
     1
102
RTVSPropertyOp11
 70
     1
102
RTVSPropertyOp12
 70
     1
102
RTVSPropertyOp13
 70
     1
102
RTVSPropertyOp14
 70
     1
102
RTVSPropertyOp15
 70
     1
102
RTVSPropertyOp16
 70
     1
102
RTVSPropertyOp17
 70
     1
102
RTVSPropertyOp18
 70
     1
102
RTVSPropertyOp19
 70
     1
102
RTVSPropertyOp20
 70
     1
102
RTVSPropertyOp21
 70
     1
102
RTVSPropertyOp22
 70
     1
102
RTVSPropertyOp23
 70
     1
102
RTVSPropertyOp24
 70
     1
102
RTVSPropertyOp25
 70
     1
102
RTVSPropertyOp26
 70
     1
102
RTVSPropertyOp27
 70
     1
102
RTVSPropertyOp28
 70
     1
102
RTVSPropertyOp29
 70
     1
102
RTVSPropertyOp30
 70
     1
102
RTVSPropertyOp31
 70
     1
102
RTVSPropertyOp32
 70
     1
  0
XRECORD
  5
1C0
102
{ACAD_REACTORS
330
1BF
102
}
330
1BF
100
AcDbXrecord
280
     1
102
RTVSPropertyOp0
 70
     1
102
RTVSPropertyOp1
 70
     1
102
RTVSPropertyOp2
 70
     1
102
RTVSPropertyOp3
 70
     1
102
RTVSPropertyOp4
 70
     1
102
RTVSPropertyOp5
 70
     1
102
RTVSPropertyOp6
 70
     1
102
RTVSPropertyOp7
 70
     1
102
RTVSPropertyOp8
 70
     1
102
RTVSPropertyOp9
 70
     1
102
RTVSPropertyOp10
 70
     1
102
RTVSPropertyOp11
 70
     1
102
RTVSPropertyOp12
 70
     1
102
RTVSPropertyOp13
 70
     1
102
RTVSPropertyOp14
 70
     1
102
RTVSPropertyOp15
 70
     1
102
RTVSPropertyOp16
 70
     1
102
RTVSPropertyOp17
 70
     1
102
RTVSPropertyOp18
 70
     1
102
RTVSPropertyOp19
 70
     1
102
RTVSPropertyOp20
 70
     1
102
RTVSPropertyOp21
 70
     1
102
RTVSPropertyOp22
 70
     1
102
RTVSPropertyOp23
 70
     1
102
RTVSPropertyOp24
 70
     1
102
RTVSPropertyOp25
 70
     1
102
RTVSPropertyOp26
 70
     1
102
RTVSPropertyOp27
 70
     1
102
RTVSPropertyOp28
 70
     1
102
RTVSPropertyOp29
 70
     1
102
RTVSPropertyOp30
 70
     1
102
RTVSPropertyOp31
 70
     1
102
RTVSPropertyOp32
 70
     1
  0
XRECORD
  5
1C8
102
{ACAD_REACTORS
330
1C7
102
}
330
1C7
100
AcDbXrecord
280
     1
102
RTVSPropertyOp0
 70
     1
102
RTVSPropertyOp1
 70
     1
102
RTVSPropertyOp2
 70
     1
102
RTVSPropertyOp3
 70
     1
102
RTVSPropertyOp4
 70
     1
102
RTVSPropertyOp5
 70
     1
102
RTVSPropertyOp6
 70
     1
102
RTVSPropertyOp7
 70
     1
102
RTVSPropertyOp8
 70
     1
102
RTVSPropertyOp9
 70
     1
102
RTVSPropertyOp10
 70
     1
102
RTVSPropertyOp11
 70
     1
102
RTVSPropertyOp12
 70
     1
102
RTVSPropertyOp13
 70
     1
102
RTVSPropertyOp14
 70
     1
102
RTVSPropertyOp15
 70
     1
102
RTVSPropertyOp16
 70
     1
102
RTVSPropertyOp17
 70
     1
102
RTVSPropertyOp18
 70
     1
102
RTVSPropertyOp19
 70
     1
102
RTVSPropertyOp20
 70
     1
102
RTVSPropertyOp21
 70
     1
102
RTVSPropertyOp22
 70
     1
102
RTVSPropertyOp23
 70
     1
102
RTVSPropertyOp24
 70
     1
102
RTVSPropertyOp25
 70
     1
102
RTVSPropertyOp26
 70
     1
102
RTVSPropertyOp27
 70
     1
102
RTVSPropertyOp28
 70
     1
102
RTVSPropertyOp29
 70
     1
102
RTVSPropertyOp30
 70
     1
102
RTVSPropertyOp31
 70
     1
102
RTVSPropertyOp32
 70
     1
  0
XRECORD
  5
1AC
102
{ACAD_REACTORS
330
1AB
102
}
330
1AB
100
AcDbXrecord
280
     1
102
RTVSPropertyOp0
 70
     1
102
RTVSPropertyOp1
 70
     1
102
RTVSPropertyOp2
 70
     1
102
RTVSPropertyOp3
 70
     1
102
RTVSPropertyOp4
 70
     1
102
RTVSPropertyOp5
 70
     1
102
RTVSPropertyOp6
 70
     1
102
RTVSPropertyOp7
 70
     1
102
RTVSPropertyOp8
 70
     1
102
RTVSPropertyOp9
 70
     1
102
RTVSPropertyOp10
 70
     1
102
RTVSPropertyOp11
 70
     1
102
RTVSPropertyOp12
 70
     1
102
RTVSPropertyOp13
 70
     1
102
RTVSPropertyOp14
 70
     1
102
RTVSPropertyOp15
 70
     1
102
RTVSPropertyOp16
 70
     1
102
RTVSPropertyOp17
 70
     1
102
RTVSPropertyOp18
 70
     1
102
RTVSPropertyOp19
 70
     1
102
RTVSPropertyOp20
 70
     1
102
RTVSPropertyOp21
 70
     1
102
RTVSPropertyOp22
 70
     1
102
RTVSPropertyOp23
 70
     1
102
RTVSPropertyOp24
 70
     1
102
RTVSPropertyOp25
 70
     1
102
RTVSPropertyOp26
 70
     1
102
RTVSPropertyOp27
 70
     1
102
RTVSPropertyOp28
 70
     1
102
RTVSPropertyOp29
 70
     1
102
RTVSPropertyOp30
 70
     1
102
RTVSPropertyOp31
 70
     1
102
RTVSPropertyOp32
 70
     1
  0
XRECORD
  5
1AE
102
{ACAD_REACTORS
330
1AD
102
}
330
1AD
100
AcDbXrecord
280
     1
102
RTVSPropertyOp0
 70
     1
102
RTVSPropertyOp1
 70
     1
102
RTVSPropertyOp2
 70
     1
102
RTVSPropertyOp3
 70
     1
102
RTVSPropertyOp4
 70
     1
102
RTVSPropertyOp5
 70
     1
102
RTVSPropertyOp6
 70
     1
102
RTVSPropertyOp7
 70
     1
102
RTVSPropertyOp8
 70
     1
102
RTVSPropertyOp9
 70
     1
102
RTVSPropertyOp10
 70
     1
102
RTVSPropertyOp11
 70
     1
102
RTVSPropertyOp12
 70
     1
102
RTVSPropertyOp13
 70
     1
102
RTVSPropertyOp14
 70
     1
102
RTVSPropertyOp15
 70
     1
102
RTVSPropertyOp16
 70
     1
102
RTVSPropertyOp17
 70
     1
102
RTVSPropertyOp18
 70
     1
102
RTVSPropertyOp19
 70
     1
102
RTVSPropertyOp20
 70
     1
102
RTVSPropertyOp21
 70
     1
102
RTVSPropertyOp22
 70
     1
102
RTVSPropertyOp23
 70
     1
102
RTVSPropertyOp24
 70
     1
102
RTVSPropertyOp25
 70
     1
102
RTVSPropertyOp26
 70
     1
102
RTVSPropertyOp27
 70
     1
102
RTVSPropertyOp28
 70
     1
102
RTVSPropertyOp29
 70
     1
102
RTVSPropertyOp30
 70
     1
102
RTVSPropertyOp31
 70
     1
102
RTVSPropertyOp32
 70
     1
  0
XRECORD
  5
1B0
102
{ACAD_REACTORS
330
1AF
102
}
330
1AF
100
AcDbXrecord
280
     1
102
RTVSPropertyOp0
 70
     1
102
RTVSPropertyOp1
 70
     1
102
RTVSPropertyOp2
 70
     1
102
RTVSPropertyOp3
 70
     1
102
RTVSPropertyOp4
 70
     1
102
RTVSPropertyOp5
 70
     1
102
RTVSPropertyOp6
 70
     1
102
RTVSPropertyOp7
 70
     1
102
RTVSPropertyOp8
 70
     1
102
RTVSPropertyOp9
 70
     1
102
RTVSPropertyOp10
 70
     1
102
RTVSPropertyOp11
 70
     1
102
RTVSPropertyOp12
 70
     1
102
RTVSPropertyOp13
 70
     1
102
RTVSPropertyOp14
 70
     1
102
RTVSPropertyOp15
 70
     1
102
RTVSPropertyOp16
 70
     1
102
RTVSPropertyOp17
 70
     1
102
RTVSPropertyOp18
 70
     1
102
RTVSPropertyOp19
 70
     1
102
RTVSPropertyOp20
 70
     1
102
RTVSPropertyOp21
 70
     1
102
RTVSPropertyOp22
 70
     1
102
RTVSPropertyOp23
 70
     1
102
RTVSPropertyOp24
 70
     1
102
RTVSPropertyOp25
 70
     1
102
RTVSPropertyOp26
 70
     1
102
RTVSPropertyOp27
 70
     1
102
RTVSPropertyOp28
 70
     1
102
RTVSPropertyOp29
 70
     1
102
RTVSPropertyOp30
 70
     1
102
RTVSPropertyOp31
 70
     1
102
RTVSPropertyOp32
 70
     1
  0
XRECORD
  5
1B2
102
{ACAD_REACTORS
330
1B1
102
}
330
1B1
100
AcDbXrecord
280
     1
102
RTVSPropertyOp0
 70
     1
102
RTVSPropertyOp1
 70
     1
102
RTVSPropertyOp2
 70
     1
102
RTVSPropertyOp3
 70
     1
102
RTVSPropertyOp4
 70
     1
102
RTVSPropertyOp5
 70
     1
102
RTVSPropertyOp6
 70
     1
102
RTVSPropertyOp7
 70
     1
102
RTVSPropertyOp8
 70
     1
102
RTVSPropertyOp9
 70
     1
102
RTVSPropertyOp10
 70
     1
102
RTVSPropertyOp11
 70
     1
102
RTVSPropertyOp12
 70
     1
102
RTVSPropertyOp13
 70
     1
102
RTVSPropertyOp14
 70
     1
102
RTVSPropertyOp15
 70
     1
102
RTVSPropertyOp16
 70
     1
102
RTVSPropertyOp17
 70
     1
102
RTVSPropertyOp18
 70
     1
102
RTVSPropertyOp19
 70
     1
102
RTVSPropertyOp20
 70
     1
102
RTVSPropertyOp21
 70
     1
102
RTVSPropertyOp22
 70
     1
102
RTVSPropertyOp23
 70
     1
102
RTVSPropertyOp24
 70
     1
102
RTVSPropertyOp25
 70
     1
102
RTVSPropertyOp26
 70
     1
102
RTVSPropertyOp27
 70
     1
102
RTVSPropertyOp28
 70
     1
102
RTVSPropertyOp29
 70
     1
102
RTVSPropertyOp30
 70
     1
102
RTVSPropertyOp31
 70
     1
102
RTVSPropertyOp32
 70
     1
  0
XRECORD
  5
1C6
102
{ACAD_REACTORS
330
1C5
102
}
330
1C5
100
AcDbXrecord
280
     1
102
RTVSPropertyOp0
 70
     1
102
RTVSPropertyOp1
 70
     1
102
RTVSPropertyOp2
 70
     1
102
RTVSPropertyOp3
 70
     1
102
RTVSPropertyOp4
 70
     1
102
RTVSPropertyOp5
 70
     1
102
RTVSPropertyOp6
 70
     1
102
RTVSPropertyOp7
 70
     1
102
RTVSPropertyOp8
 70
     1
102
RTVSPropertyOp9
 70
     1
102
RTVSPropertyOp10
 70
     1
102
RTVSPropertyOp11
 70
     1
102
RTVSPropertyOp12
 70
     1
102
RTVSPropertyOp13
 70
     1
102
RTVSPropertyOp14
 70
     1
102
RTVSPropertyOp15
 70
     1
102
RTVSPropertyOp16
 70
     1
102
RTVSPropertyOp17
 70
     1
102
RTVSPropertyOp18
 70
     1
102
RTVSPropertyOp19
 70
     1
102
RTVSPropertyOp20
 70
     1
102
RTVSPropertyOp21
 70
     1
102
RTVSPropertyOp22
 70
     1
102
RTVSPropertyOp23
 70
     1
102
RTVSPropertyOp24
 70
     1
102
RTVSPropertyOp25
 70
     1
102
RTVSPropertyOp26
 70
     1
102
RTVSPropertyOp27
 70
     1
102
RTVSPropertyOp28
 70
     1
102
RTVSPropertyOp29
 70
     1
102
RTVSPropertyOp30
 70
     1
102
RTVSPropertyOp31
 70
     1
102
RTVSPropertyOp32
 70
     1
  0
XRECORD
  5
1BC
102
{ACAD_REACTORS
330
1BB
102
}
330
1BB
100
AcDbXrecord
280
     1
102
RTVSPropertyOp0
 70
     1
102
RTVSPropertyOp1
 70
     1
102
RTVSPropertyOp2
 70
     1
102
RTVSPropertyOp3
 70
     1
102
RTVSPropertyOp4
 70
     1
102
RTVSPropertyOp5
 70
     1
102
RTVSPropertyOp6
 70
     1
102
RTVSPropertyOp7
 70
     1
102
RTVSPropertyOp8
 70
     1
102
RTVSPropertyOp9
 70
     1
102
RTVSPropertyOp10
 70
     1
102
RTVSPropertyOp11
 70
     1
102
RTVSPropertyOp12
 70
     1
102
RTVSPropertyOp13
 70
     1
102
RTVSPropertyOp14
 70
     1
102
RTVSPropertyOp15
 70
     1
102
RTVSPropertyOp16
 70
     1
102
RTVSPropertyOp17
 70
     1
102
RTVSPropertyOp18
 70
     1
102
RTVSPropertyOp19
 70
     1
102
RTVSPropertyOp20
 70
     1
102
RTVSPropertyOp21
 70
     1
102
RTVSPropertyOp22
 70
     1
102
RTVSPropertyOp23
 70
     1
102
RTVSPropertyOp24
 70
     1
102
RTVSPropertyOp25
 70
     1
102
RTVSPropertyOp26
 70
     1
102
RTVSPropertyOp27
 70
     1
102
RTVSPropertyOp28
 70
     1
102
RTVSPropertyOp29
 70
     1
102
RTVSPropertyOp30
 70
     1
102
RTVSPropertyOp31
 70
     1
102
RTVSPropertyOp32
 70
     1
  0
XRECORD
  5
1C4
102
{ACAD_REACTORS
330
1C3
102
}
330
1C3
100
AcDbXrecord
280
     1
102
RTVSPropertyOp0
 70
     1
102
RTVSPropertyOp1
 70
     1
102
RTVSPropertyOp2
 70
     1
102
RTVSPropertyOp3
 70
     1
102
RTVSPropertyOp4
 70
     1
102
RTVSPropertyOp5
 70
     1
102
RTVSPropertyOp6
 70
     1
102
RTVSPropertyOp7
 70
     1
102
RTVSPropertyOp8
 70
     1
102
RTVSPropertyOp9
 70
     1
102
RTVSPropertyOp10
 70
     1
102
RTVSPropertyOp11
 70
     1
102
RTVSPropertyOp12
 70
     1
102
RTVSPropertyOp13
 70
     1
102
RTVSPropertyOp14
 70
     1
102
RTVSPropertyOp15
 70
     1
102
RTVSPropertyOp16
 70
     1
102
RTVSPropertyOp17
 70
     1
102
RTVSPropertyOp18
 70
     1
102
RTVSPropertyOp19
 70
     1
102
RTVSPropertyOp20
 70
     1
102
RTVSPropertyOp21
 70
     1
102
RTVSPropertyOp22
 70
     1
102
RTVSPropertyOp23
 70
     1
102
RTVSPropertyOp24
 70
     1
102
RTVSPropertyOp25
 70
     1
102
RTVSPropertyOp26
 70
     1
102
RTVSPropertyOp27
 70
     1
102
RTVSPropertyOp28
 70
     1
102
RTVSPropertyOp29
 70
     1
102
RTVSPropertyOp30
 70
     1
102
RTVSPropertyOp31
 70
     1
102
RTVSPropertyOp32
 70
     1
  0
ENDSEC
  0
EOF
