  0
SECTION
  2
HEADER
  9
$ACADVER
  1
AC1015
  9
$ACADMAINTVER
 70
     6
  9
$DWGCODEPAGE
  3
ANSI_932
  9
$INSBASE
 10
0.0
 20
0.0
 30
0.0
  9
$EXTMIN
 10
0.00000000000111
 20
0.0
 30
0.0
  9
$EXTMAX
 10
210.0000000000011
 20
297.0
 30
0.0
  9
$LIMMIN
 10
0.0
 20
0.0
  9
$LIMMAX
 10
12.0
 20
9.0
  9
$ORTHOMODE
 70
     0
  9
$REGENMODE
 70
     1
  9
$FILLMODE
 70
     1
  9
$QTEXTMODE
 70
     0
  9
$MIRRTEXT
 70
     1
  9
$LTSCALE
 40
1.0
  9
$ATTMODE
 70
     1
  9
$TEXTSIZE
 40
0.2
  9
$TRACEWID
 40
0.05
  9
$TEXTSTYLE
  7
Standard
  9
$CLAYER
  8
0
  9
$CELTYPE
  6
ByLayer
  9
$CECOLOR
 62
   256
  9
$CELTSCALE
 40
1.0
  9
$DISPSILH
 70
     0
  9
$DIMSCALE
 40
1.0
  9
$DIMASZ
 40
0.18
  9
$DIMEXO
 40
0.0625
  9
$DIMDLI
 40
0.38
  9
$DIMRND
 40
0.0
  9
$DIMDLE
 40
0.0
  9
$DIMEXE
 40
0.18
  9
$DIMTP
 40
0.0
  9
$DIMTM
 40
0.0
  9
$DIMTXT
 40
0.18
  9
$DIMCEN
 40
0.09
  9
$DIMTSZ
 40
0.0
  9
$DIMTOL
 70
     0
  9
$DIMLIM
 70
     0
  9
$DIMTIH
 70
     1
  9
$DIMTOH
 70
     1
  9
$DIMSE1
 70
     0
  9
$DIMSE2
 70
     0
  9
$DIMTAD
 70
     0
  9
$DIMZIN
 70
     0
  9
$DIMBLK
  1

  9
$DIMASO
 70
     1
  9
$DIMSHO
 70
     1
  9
$DIMPOST
  1

  9
$DIMAPOST
  1

  9
$DIMALT
 70
     0
  9
$DIMALTD
 70
     2
  9
$DIMALTF
 40
25.4
  9
$DIMLFAC
 40
1.0
  9
$DIMTOFL
 70
     0
  9
$DIMTVP
 40
0.0
  9
$DIMTIX
 70
     0
  9
$DIMSOXD
 70
     0
  9
$DIMSAH
 70
     0
  9
$DIMBLK1
  1

  9
$DIMBLK2
  1

  9
$DIMSTYLE
  2
Standard
  9
$DIMCLRD
 70
     0
  9
$DIMCLRE
 70
     0
  9
$DIMCLRT
 70
     0
  9
$DIMTFAC
 40
1.0
  9
$DIMGAP
 40
0.09
  9
$DIMJUST
 70
     0
  9
$DIMSD1
 70
     0
  9
$DIMSD2
 70
     0
  9
$DIMTOLJ
 70
     1
  9
$DIMTZIN
 70
     0
  9
$DIMALTZ
 70
     0
  9
$DIMALTTZ
 70
     0
  9
$DIMUPT
 70
     0
  9
$DIMDEC
 70
     4
  9
$DIMTDEC
 70
     4
  9
$DIMALTU
 70
     2
  9
$DIMALTTD
 70
     2
  9
$DIMTXSTY
  7
Standard
  9
$DIMAUNIT
 70
     0
  9
$DIMADEC
 70
     0
  9
$DIMALTRND
 40
0.0
  9
$DIMAZIN
 70
     0
  9
$DIMDSEP
 70
    46
  9
$DIMATFIT
 70
     3
  9
$DIMFRAC
 70
     0
  9
$DIMLDRBLK
  1

  9
$DIMLUNIT
 70
     2
  9
$DIMLWD
 70
    -2
  9
$DIMLWE
 70
    -2
  9
$DIMTMOVE
 70
     0
  9
$LUNITS
 70
     2
  9
$LUPREC
 70
     4
  9
$SKETCHINC
 40
0.1
  9
$FILLETRAD
 40
0.5
  9
$AUNITS
 70
     0
  9
$AUPREC
 70
     0
  9
$MENU
  1
.
  9
$ELEVATION
 40
0.0
  9
$PELEVATION
 40
0.0
  9
$THICKNESS
 40
0.0
  9
$LIMCHECK
 70
     0
  9
$CHAMFERA
 40
0.5
  9
$CHAMFERB
 40
0.5
  9
$CHAMFERC
 40
1.0
  9
$CHAMFERD
 40
0.0
  9
$SKPOLY
 70
     0
  9
$TDCREATE
 40
2459829.678710498
  9
$TDUCREATE
 40
2459829.303710498
  9
$TDUPDATE
 40
2459829.678711944
  9
$TDUUPDATE
 40
2459829.303711944
  9
$TDINDWG
 40
0.0000000116
  9
$TDUSRTIMER
 40
0.0000000116
  9
$USRTIMER
 70
     1
  9
$ANGBASE
 50
0.0
  9
$ANGDIR
 70
     0
  9
$PDMODE
 70
     0
  9
$PDSIZE
 40
0.0
  9
$PLINEWID
 40
0.0
  9
$SPLFRAME
 70
     0
  9
$SPLINETYPE
 70
     6
  9
$SPLINESEGS
 70
     8
  9
$HANDSEED
  5
1A8
  9
$SURFTAB1
 70
     6
  9
$SURFTAB2
 70
     6
  9
$SURFTYPE
 70
     6
  9
$SURFU
 70
     6
  9
$SURFV
 70
     6
  9
$UCSBASE
  2

  9
$UCSNAME
  2

  9
$UCSORG
 10
0.0
 20
0.0
 30
0.0
  9
$UCSXDIR
 10
1.0
 20
0.0
 30
0.0
  9
$UCSYDIR
 10
0.0
 20
1.0
 30
0.0
  9
$UCSORTHOREF
  2

  9
$UCSORTHOVIEW
 70
     0
  9
$UCSORGTOP
 10
0.0
 20
0.0
 30
0.0
  9
$UCSORGBOTTOM
 10
0.0
 20
0.0
 30
0.0
  9
$UCSORGLEFT
 10
0.0
 20
0.0
 30
0.0
  9
$UCSORGRIGHT
 10
0.0
 20
0.0
 30
0.0
  9
$UCSORGFRONT
 10
0.0
 20
0.0
 30
0.0
  9
$UCSORGBACK
 10
0.0
 20
0.0
 30
0.0
  9
$PUCSBASE
  2

  9
$PUCSNAME
  2

  9
$PUCSORG
 10
0.0
 20
0.0
 30
0.0
  9
$PUCSXDIR
 10
1.0
 20
0.0
 30
0.0
  9
$PUCSYDIR
 10
0.0
 20
1.0
 30
0.0
  9
$PUCSORTHOREF
  2

  9
$PUCSORTHOVIEW
 70
     0
  9
$PUCSORGTOP
 10
0.0
 20
0.0
 30
0.0
  9
$PUCSORGBOTTOM
 10
0.0
 20
0.0
 30
0.0
  9
$PUCSORGLEFT
 10
0.0
 20
0.0
 30
0.0
  9
$PUCSORGRIGHT
 10
0.0
 20
0.0
 30
0.0
  9
$PUCSORGFRONT
 10
0.0
 20
0.0
 30
0.0
  9
$PUCSORGBACK
 10
0.0
 20
0.0
 30
0.0
  9
$USERI1
 70
     0
  9
$USERI2
 70
     0
  9
$USERI3
 70
     0
  9
$USERI4
 70
     0
  9
$USERI5
 70
     0
  9
$USERR1
 40
18.1
  9
$USERR2
 40
0.0
  9
$USERR3
 40
0.0
  9
$USERR4
 40
0.0
  9
$USERR5
 40
0.0
  9
$WORLDVIEW
 70
     1
  9
$SHADEDGE
 70
     3
  9
$SHADEDIF
 70
    70
  9
$TILEMODE
 70
     1
  9
$MAXACTVP
 70
    64
  9
$PINSBASE
 10
0.0
 20
0.0
 30
0.0
  9
$PLIMCHECK
 70
     0
  9
$PEXTMIN
 10
1.00000000000000E+20
 20
1.00000000000000E+20
 30
1.00000000000000E+20
  9
$PEXTMAX
 10
-1.00000000000000E+20
 20
-1.00000000000000E+20
 30
-1.00000000000000E+20
  9
$PLIMMIN
 10
0.0
 20
0.0
  9
$PLIMMAX
 10
12.0
 20
9.0
  9
$UNITMODE
 70
     0
  9
$VISRETAIN
 70
     1
  9
$PLINEGEN
 70
     0
  9
$PSLTSCALE
 70
     1
  9
$TREEDEPTH
 70
  3020
  9
$CMLSTYLE
  2
Standard
  9
$CMLJUST
 70
     0
  9
$CMLSCALE
 40
1.0
  9
$PROXYGRAPHICS
 70
     1
  9
$MEASUREMENT
 70
     1
  9
$CELWEIGHT
370
    -1
  9
$ENDCAPS
280
     0
  9
$JOINSTYLE
280
     0
  9
$LWDISPLAY
290
     0
  9
$INSUNITS
 70
     4
  9
$HYPERLINKBASE
  1

  9
$STYLESHEET
  1

  9
$XEDIT
290
     1
  9
$CEPSNTYPE
380
     0
  9
$PSTYLEMODE
290
     1
  9
$FINGERPRINTGUID
  2
{13966199-8AEC-41A0-8D6C-6817AD10616D}
  9
$VERSIONGUID
  2
{FAEB1C32-E019-11D5-929B-00C0DF256EC4}
  9
$EXTNAMES
290
     1
  9
$PSVPSCALE
 40
0.0
  9
$OLESTARTUP
290
     0
  0
ENDSEC
  0
SECTION
  2
CLASSES
  0
CLASS
  1
ACDBDICTIONARYWDFLT
  2
AcDbDictionaryWithDefault
  3
ObjectDBX Classes
 90
        0
280
     0
281
     0
  0
CLASS
  1
VISUALSTYLE
  2
AcDbVisualStyle
  3
ObjectDBX Classes
 90
     4095
280
     0
281
     0
  0
CLASS
  1
MATERIAL
  2
AcDbMaterial
  3
ObjectDBX Classes
 90
     1153
280
     0
281
     0
  0
CLASS
  1
DICTIONARYVAR
  2
AcDbDictionaryVar
  3
ObjectDBX Classes
 90
        0
280
     0
281
     0
  0
CLASS
  1
ACDBPLACEHOLDER
  2
AcDbPlaceHolder
  3
ObjectDBX Classes
 90
        0
280
     0
281
     0
  0
CLASS
  1
LAYOUT
  2
AcDbLayout
  3
ObjectDBX Classes
 90
        0
280
     0
281
     0
  0
ENDSEC
  0
SECTION
  2
TABLES
  0
TABLE
  2
VPORT
  5
8
330
0
100
AcDbSymbolTable
 70
     1
  0
VPORT
  5
29
330
8
100
AcDbSymbolTableRecord
100
AcDbViewportTableRecord
  2
*Active
 70
     0
 10
0.0
 20
0.0
 11
1.0
 21
1.0
 12
105.0000000000011
 22
148.5
 13
0.0
 23
0.0
 14
0.5
 24
0.5
 15
0.5
 25
0.5
 16
0.0
 26
0.0
 36
1.0
 17
0.0
 27
0.0
 37
0.0
 40
326.7
 41
1.60267857142857
 42
50.0
 43
0.0
 44
0.0
 50
0.0
 51
0.0
 71
     0
 72
   100
 73
     1
 74
     3
 75
     0
 76
     0
 77
     0
 78
     0
281
     0
 65
     1
110
0.0
120
0.0
130
0.0
111
1.0
121
0.0
131
0.0
112
0.0
122
1.0
132
0.0
 79
     0
146
0.0
  0
ENDTAB
  0
TABLE
  2
LTYPE
  5
5
330
0
100
AcDbSymbolTable
 70
     8
  0
LTYPE
  5
14
330
5
100
AcDbSymbolTableRecord
100
AcDbLinetypeTableRecord
  2
ByBlock
 70
     0
  3

 72
    65
 73
     0
 40
0.0
  0
LTYPE
  5
15
330
5
100
AcDbSymbolTableRecord
100
AcDbLinetypeTableRecord
  2
ByLayer
 70
     0
  3

 72
    65
 73
     0
 40
0.0
  0
LTYPE
  5
16
330
5
100
AcDbSymbolTableRecord
100
AcDbLinetypeTableRecord
  2
Continuous
 70
     0
  3
Solid line
 72
    65
 73
     0
 40
0.0
  0
LTYPE
  5
3F
330
5
100
AcDbSymbolTableRecord
100
AcDbLinetypeTableRecord
  2
DASHED
 70
     0
  3
Dashed
 72
    65
 73
     2
 40
15.0
 49
7.0
 74
     0
 49
-8.0
 74
     0
  0
LTYPE
  5
40
330
5
100
AcDbSymbolTableRecord
100
AcDbLinetypeTableRecord
  2
DOTTED
 70
     0
  3
Dotted
 72
    65
 73
     2
 40
1.0
 49
0.0
 74
     0
 49
-1.0
 74
     0
  0
LTYPE
  5
41
330
5
100
AcDbSymbolTableRecord
100
AcDbLinetypeTableRecord
  2
DOT_CENTER
 70
     0
  3
Dot_Center
 72
    65
 73
     4
 40
14.0
 49
12.0
 74
     0
 49
-1.0
 74
     0
 49
0.0
 74
     0
 49
-1.0
 74
     0
  0
LTYPE
  5
42
330
5
100
AcDbSymbolTableRecord
100
AcDbLinetypeTableRecord
  2
LONG_DASHED
 70
     0
  3
Long_Dashed
 72
    65
 73
     2
 40
15.0
 49
10.0
 74
     0
 49
-5.0
 74
     0
  0
LTYPE
  5
43
330
5
100
AcDbSymbolTableRecord
100
AcDbLinetypeTableRecord
  2
DASH_CENTER
 70
     0
  3
Dash_Center
 72
    65
 73
     4
 40
14.0
 49
11.0
 74
     0
 49
-1.0
 74
     0
 49
1.0
 74
     0
 49
-1.0
 74
     0
  0
LTYPE
  5
44
330
5
100
AcDbSymbolTableRecord
100
AcDbLinetypeTableRecord
  2
PHANTOM
 70
     0
  3
Phantom
 72
    65
 73
     6
 40
13.0
 49
10.0
 74
     0
 49
-1.0
 74
     0
 49
0.0
 74
     0
 49
-1.0
 74
     0
 49
0.0
 74
     0
 49
-1.0
 74
     0
  0
LTYPE
  5
45
330
5
100
AcDbSymbolTableRecord
100
AcDbLinetypeTableRecord
  2
CENTER_DASH_DASH
 70
     0
  3
Center_Dash_Dash
 72
    65
 73
     6
 40
14.0
 49
9.0
 74
     0
 49
-1.0
 74
     0
 49
1.0
 74
     0
 49
-1.0
 74
     0
 49
1.0
 74
     0
 49
-1.0
 74
     0
  0
ENDTAB
  0
TABLE
  2
LAYER
  5
2
330
0
100
AcDbSymbolTable
 70
     3
  0
LAYER
  5
10
330
2
100
AcDbSymbolTableRecord
100
AcDbLayerTableRecord
  2
0
 70
     0
 62
     7
  6
Continuous
370
    -3
390
F
  0
LAYER
  5
46
330
2
100
AcDbSymbolTableRecord
100
AcDbLayerTableRecord
  2
1
 70
     0
 62
     7
  6
Continuous
370
    -3
390
F
  0
LAYER
  5
47
330
2
100
AcDbSymbolTableRecord
100
AcDbLayerTableRecord
  2
_U_30EC_U_30A4_U_30E4_U_30FC_1
 70
     0
 62
     7
  6
Continuous
370
    -3
390
F
  0
ENDTAB
  0
TABLE
  2
STYLE
  5
3
330
0
100
AcDbSymbolTable
 70
     3
  0
STYLE
  5
11
330
3
100
AcDbSymbolTableRecord
100
AcDbTextStyleTableRecord
  2
Standard
 70
     0
 40
0.0
 41
1.0
 50
0.0
 71
     0
 42
0.2
  3
txt
  4

  0
STYLE
  5
B6
330
3
100
AcDbSymbolTableRecord
100
AcDbTextStyleTableRecord
  2
CONVERTER_11
 70
     0
 40
0.0
 41
0.89
 50
0.0
 71
     0
 42
0.2
  3
MS Mincho.ttf
  4

1001
ACAD
1000
MS Mincho
1071
    32785
  0
STYLE
  5
105
330
3
100
AcDbSymbolTableRecord
100
AcDbTextStyleTableRecord
  2
CONVERTER_12
 70
     0
 40
0.0
 41
0.9
 50
0.0
 71
     0
 42
0.2
  3
txt.shx
  4

  0
ENDTAB
  0
TABLE
  2
VIEW
  5
6
330
0
100
AcDbSymbolTable
 70
     0
  0
ENDTAB
  0
TABLE
  2
UCS
  5
7
330
0
100
AcDbSymbolTable
 70
     0
  0
ENDTAB
  0
TABLE
  2
APPID
  5
9
330
0
100
AcDbSymbolTable
 70
     1
  0
APPID
  5
12
330
9
100
AcDbSymbolTableRecord
100
AcDbRegAppTableRecord
  2
ACAD
 70
     0
  0
ENDTAB
  0
TABLE
  2
DIMSTYLE
  5
A
330
0
100
AcDbSymbolTable
 70
     9
100
AcDbDimStyleTable
  0
DIMSTYLE
105
27
330
A
100
AcDbSymbolTableRecord
100
AcDbDimStyleTableRecord
  2
Standard
 70
     0
178
     0
340
11
  0
DIMSTYLE
105
11B
102
{ACAD_REACTORS
330
11C
102
}
330
A
100
AcDbSymbolTableRecord
100
AcDbDimStyleTableRecord
  2
ME10_DIM_10
 70
     0
 41
3.5
 42
0.0
 44
1.0
 73
     0
 74
     0
 77
     1
 78
     8
140
3.5
147
1.0
172
     1
173
     1
174
     1
175
     1
176
     2
177
     2
271
     2
178
     7
271
     2
340
105
  0
DIMSTYLE
105
126
102
{ACAD_REACTORS
330
127
102
}
330
A
100
AcDbSymbolTableRecord
100
AcDbDimStyleTableRecord
  2
ME10_DIM_11
 70
     0
 41
3.5
 42
0.0
 44
1.0
 73
     0
 74
     0
 77
     1
 78
     8
140
3.5
147
1.0
172
     1
173
     1
174
     1
175
     1
176
     2
177
     2
271
     2
178
     7
271
     2
340
105
  0
DIMSTYLE
105
131
102
{ACAD_REACTORS
330
132
102
}
330
A
100
AcDbSymbolTableRecord
100
AcDbDimStyleTableRecord
  2
ME10_DIM_12
 70
     0
 41
3.5
 42
0.0
 44
1.0
 73
     0
 74
     0
 77
     1
 78
     8
140
3.5
147
1.0
172
     1
173
     1
174
     1
175
     1
176
     2
177
     2
271
     2
178
     7
271
     2
340
105
  0
DIMSTYLE
105
13C
102
{ACAD_REACTORS
330
13D
102
}
330
A
100
AcDbSymbolTableRecord
100
AcDbDimStyleTableRecord
  2
ME10_DIM_13
 70
     0
 41
3.5
 42
0.0
 44
1.0
 73
     0
 74
     0
 77
     1
 78
     8
140
3.5
147
1.0
172
     1
173
     1
174
     1
175
     1
176
     2
177
     2
271
     2
178
     7
271
     2
340
105
  0
DIMSTYLE
105
149
102
{ACAD_REACTORS
330
14A
102
}
330
A
100
AcDbSymbolTableRecord
100
AcDbDimStyleTableRecord
  2
ME10_DIM_14
 70
     0
 41
3.5
 42
0.0
 44
1.0
 73
     0
 74
     0
 77
     1
 78
     8
140
3.5
147
1.0
172
     1
173
     1
174
     1
175
     1
176
     2
177
     2
271
     2
178
     7
271
     2
340
105
  0
DIMSTYLE
105
154
102
{ACAD_REACTORS
330
155
102
}
330
A
100
AcDbSymbolTableRecord
100
AcDbDimStyleTableRecord
  2
ME10_DIM_15
 70
     0
 41
3.5
 42
0.0
 44
1.0
 73
     0
 74
     0
 77
     1
 78
     8
140
3.5
147
1.0
172
     1
173
     1
174
     1
175
     1
176
     2
177
     2
271
     2
178
     7
271
     2
340
105
  0
DIMSTYLE
105
15F
102
{ACAD_REACTORS
330
160
102
}
330
A
100
AcDbSymbolTableRecord
100
AcDbDimStyleTableRecord
  2
ME10_DIM_16
 70
     0
 41
3.5
 42
0.0
 44
1.0
 73
     0
 74
     0
 77
     1
 78
     8
140
3.5
147
1.0
172
     1
173
     1
174
     1
175
     1
176
     2
177
     2
271
     2
178
     7
271
     2
340
105
  0
DIMSTYLE
105
16C
102
{ACAD_REACTORS
330
16D
102
}
330
A
100
AcDbSymbolTableRecord
100
AcDbDimStyleTableRecord
  2
ME10_DIM_17
 70
     0
 41
3.5
 42
0.0
 44
1.0
 73
     0
 74
     0
 77
     1
 78
     8
140
3.5
147
1.0
172
     1
173
     1
174
     1
175
     1
176
     2
177
     2
271
     2
178
     7
271
     2
340
105
  0
ENDTAB
  0
TABLE
  2
BLOCK_RECORD
  5
1
330
0
100
AcDbSymbolTable
 70
    14
  0
BLOCK_RECORD
  5
1F
330
1
100
AcDbSymbolTableRecord
100
AcDbBlockTableRecord
  2
*Model_Space
340
22
  0
BLOCK_RECORD
  5
1B
330
1
100
AcDbSymbolTableRecord
100
AcDbBlockTableRecord
  2
*Paper_Space
340
1E
  0
BLOCK_RECORD
  5
23
330
1
100
AcDbSymbolTableRecord
100
AcDbBlockTableRecord
  2
*Paper_Space0
340
26
  0
BLOCK_RECORD
  5
48
330
1
100
AcDbSymbolTableRecord
100
AcDbBlockTableRecord
  2
開示A4
340
0
102
{BLKREFS
331
4C
102
}
  0
BLOCK_RECORD
  5
4B
330
1
100
AcDbSymbolTableRecord
100
AcDbBlockTableRecord
  2
開示A4枠
340
0
102
{BLKREFS
331
52
102
}
  0
BLOCK_RECORD
  5
4F
330
1
100
AcDbSymbolTableRecord
100
AcDbBlockTableRecord
  2
R65N-1
340
0
102
{BLKREFS
331
53
102
}
  0
BLOCK_RECORD
  5
112
330
1
100
AcDbSymbolTableRecord
100
AcDbBlockTableRecord
  2
*D4
340
0
  0
BLOCK_RECORD
  5
11D
330
1
100
AcDbSymbolTableRecord
100
AcDbBlockTableRecord
  2
*D5
340
0
  0
BLOCK_RECORD
  5
128
330
1
100
AcDbSymbolTableRecord
100
AcDbBlockTableRecord
  2
*D6
340
0
  0
BLOCK_RECORD
  5
133
330
1
100
AcDbSymbolTableRecord
100
AcDbBlockTableRecord
  2
*D7
340
0
  0
BLOCK_RECORD
  5
13E
330
1
100
AcDbSymbolTableRecord
100
AcDbBlockTableRecord
  2
*D8
340
0
  0
BLOCK_RECORD
  5
14B
330
1
100
AcDbSymbolTableRecord
100
AcDbBlockTableRecord
  2
*D9
340
0
  0
BLOCK_RECORD
  5
156
330
1
100
AcDbSymbolTableRecord
100
AcDbBlockTableRecord
  2
*D10
340
0
  0
BLOCK_RECORD
  5
161
330
1
100
AcDbSymbolTableRecord
100
AcDbBlockTableRecord
  2
*D11
340
0
  0
BLOCK_RECORD
  5
16E
330
1
100
AcDbSymbolTableRecord
100
AcDbBlockTableRecord
  2
*D12
340
0
102
{BLKREFS
331
174
102
}
  0
BLOCK_RECORD
  5
175
330
1
100
AcDbSymbolTableRecord
100
AcDbBlockTableRecord
  2
*D13
340
0
102
{BLKREFS
331
17C
102
}
  0
ENDTAB
  0
ENDSEC
  0
SECTION
  2
BLOCKS
  0
BLOCK
  5
20
330
1F
100
AcDbEntity
  8
0
100
AcDbBlockBegin
  2
*Model_Space
 70
     0
 10
0.0
 20
0.0
 30
0.0
  3
*Model_Space
  1

  0
ENDBLK
  5
21
330
1F
100
AcDbEntity
  8
0
100
AcDbBlockEnd
  0
BLOCK
  5
1C
330
1B
100
AcDbEntity
 67
     1
  8
0
100
AcDbBlockBegin
  2
*Paper_Space
 70
     0
 10
0.0
 20
0.0
 30
0.0
  3
*Paper_Space
  1

  0
ENDBLK
  5
1D
330
1B
100
AcDbEntity
 67
     1
  8
0
100
AcDbBlockEnd
  0
BLOCK
  5
24
330
23
100
AcDbEntity
  8
0
100
AcDbBlockBegin
  2
*Paper_Space0
 70
     0
 10
0.0
 20
0.0
 30
0.0
  3
*Paper_Space0
  1

  0
ENDBLK
  5
25
330
23
100
AcDbEntity
  8
0
100
AcDbBlockEnd
  0
BLOCK
  5
49
330
48
100
AcDbEntity
  8
0
100
AcDbBlockBegin
  2
開示A4
 70
     0
 10
0.00000000000111
 20
0.0
 30
0.0
  3
開示A4
  1

  0
POINT
  5
54
330
48
100
AcDbEntity
  8
1
 62
     4
100
AcDbPoint
 10
34.00000000000111
 20
34.00000000000001
 30
0.0
  0
POINT
  5
55
330
48
100
AcDbEntity
  8
1
 62
     4
100
AcDbPoint
 10
57.00000000000111
 20
12.25
 30
0.0
  0
POINT
  5
56
330
48
100
AcDbEntity
  8
1
 62
     4
100
AcDbPoint
 10
57.00000000000111
 20
20.75000000000001
 30
0.0
  0
POINT
  5
57
330
48
100
AcDbEntity
  8
1
 62
     4
100
AcDbPoint
 10
57.00000000000111
 20
24.75000000000001
 30
0.0
  0
POINT
  5
58
330
48
100
AcDbEntity
  8
1
 62
     4
100
AcDbPoint
 10
57.00000000000111
 20
16.25
 30
0.0
  0
POINT
  5
59
330
48
100
AcDbEntity
  8
1
 62
     4
100
AcDbPoint
 10
157.5000000000011
 20
19.00000000000001
 30
0.0
  0
POINT
  5
5A
330
48
100
AcDbEntity
  8
1
 62
     4
100
AcDbPoint
 10
47.50000000000111
 20
282.0000000000002
 30
0.0
  0
POINT
  5
5B
330
48
100
AcDbEntity
  8
1
 62
     4
100
AcDbPoint
 10
57.00000000000111
 20
22.75000000000001
 30
0.0
  0
POINT
  5
5C
330
48
100
AcDbEntity
  8
1
 62
     4
100
AcDbPoint
 10
57.00000000000111
 20
14.25
 30
0.0
  0
POINT
  5
5D
330
48
100
AcDbEntity
  8
1
 62
     4
100
AcDbPoint
 10
157.5000000000011
 20
12.5
 30
0.0
  0
POINT
  5
5E
330
48
100
AcDbEntity
  8
1
 62
     4
100
AcDbPoint
 10
163.2500000000011
 20
12.5
 30
0.0
  0
POINT
  5
5F
330
48
100
AcDbEntity
  8
1
 62
     4
100
AcDbPoint
 10
151.7500000000011
 20
12.5
 30
0.0
  0
POINT
  5
60
330
48
100
AcDbEntity
  8
1
 62
     4
100
AcDbPoint
 10
134.7500000000011
 20
12.5
 30
0.0
  0
POINT
  5
61
330
48
100
AcDbEntity
  8
1
 62
     4
100
AcDbPoint
 10
146.2500000000011
 20
12.5
 30
0.0
  0
POINT
  5
62
330
48
100
AcDbEntity
  8
1
 62
     4
100
AcDbPoint
 10
140.5000000000011
 20
12.5
 30
0.0
  0
POINT
  5
63
330
48
100
AcDbEntity
  8
1
 62
     4
100
AcDbPoint
 10
140.5000000000011
 20
19.00000000000001
 30
0.0
  0
POINT
  5
64
330
48
100
AcDbEntity
  8
1
 62
     4
100
AcDbPoint
 10
117.7500000000011
 20
12.5
 30
0.0
  0
POINT
  5
65
330
48
100
AcDbEntity
  8
1
 62
     4
100
AcDbPoint
 10
129.2500000000011
 20
12.5
 30
0.0
  0
POINT
  5
66
330
48
100
AcDbEntity
  8
1
 62
     4
100
AcDbPoint
 10
123.5000000000011
 20
12.5
 30
0.0
  0
POINT
  5
67
330
48
100
AcDbEntity
  8
1
 62
     4
100
AcDbPoint
 10
123.5000000000011
 20
19.00000000000001
 30
0.0
  0
POINT
  5
68
330
48
100
AcDbEntity
  8
1
 62
     4
100
AcDbPoint
 10
100.7500000000011
 20
12.5
 30
0.0
  0
POINT
  5
69
330
48
100
AcDbEntity
  8
1
 62
     4
100
AcDbPoint
 10
112.2500000000011
 20
12.5
 30
0.0
  0
POINT
  5
6A
330
48
100
AcDbEntity
  8
1
 62
     4
100
AcDbPoint
 10
106.5000000000011
 20
12.5
 30
0.0
  0
POINT
  5
6B
330
48
100
AcDbEntity
  8
1
 62
     4
100
AcDbPoint
 10
106.5000000000011
 20
19.00000000000001
 30
0.0
  0
POINT
  5
6C
330
48
100
AcDbEntity
  8
1
 62
     4
100
AcDbPoint
 10
85.2500000000011
 20
17.0
 30
0.0
  0
POINT
  5
6D
330
48
100
AcDbEntity
  8
1
 62
     4
100
AcDbPoint
 10
93.7500000000011
 20
17.0
 30
0.0
  0
POINT
  5
6E
330
48
100
AcDbEntity
  8
1
 62
     4
100
AcDbPoint
 10
183.0000000000011
 20
15.00000000000001
 30
0.0
  0
LINE
  5
6F
330
48
100
AcDbEntity
  8
1
  6
Continuous
 62
     2
100
AcDbLine
 10
81.0000000000011
 20
27.00000000000001
 30
0.0
 11
81.0000000000011
 21
10.0
 31
0.0
  0
LINE
  5
70
330
48
100
AcDbEntity
  8
1
  6
DOT_CENTER
 62
     2
100
AcDbLine
 10
187.0000000000011
 20
26.50000000000001
 30
0.0
 11
187.0000000000011
 21
20.50000000000001
 31
0.0
  0
LINE
  5
71
330
48
100
AcDbEntity
  8
1
  6
DOT_CENTER
 62
     2
100
AcDbLine
 10
184.0000000000011
 20
23.50000000000001
 30
0.0
 11
197.0000000000011
 21
23.50000000000001
 31
0.0
  0
LINE
  5
72
330
48
100
AcDbEntity
  8
1
  6
Continuous
 62
     7
100
AcDbLine
 10
196.0000000000011
 20
21.50000000000001
 30
0.0
 11
191.0000000000011
 21
22.30000000000001
 31
0.0
  0
LINE
  5
73
330
48
100
AcDbEntity
  8
1
  6
Continuous
 62
     7
100
AcDbLine
 10
196.0000000000011
 20
25.50000000000001
 30
0.0
 11
196.0000000000011
 21
21.50000000000001
 31
0.0
  0
LINE
  5
74
330
48
100
AcDbEntity
  8
1
  6
Continuous
 62
     7
100
AcDbLine
 10
191.0000000000011
 20
24.70000000000001
 30
0.0
 11
196.0000000000011
 21
25.50000000000001
 31
0.0
  0
LINE
  5
75
330
48
100
AcDbEntity
  8
1
  6
Continuous
 62
     7
100
AcDbLine
 10
191.0000000000011
 20
24.70000000000001
 30
0.0
 11
191.0000000000011
 21
22.30000000000001
 31
0.0
  0
LINE
  5
76
330
48
100
AcDbEntity
  8
1
  6
Continuous
 62
     2
100
AcDbLine
 10
33.00000000000111
 20
27.0
 30
0.0
 11
33.00000000000111
 21
10.0
 31
0.0
  0
LINE
  5
77
330
48
100
AcDbEntity
  8
1
  6
Continuous
 62
     2
100
AcDbLine
 10
25.00000000000111
 20
18.50000000000001
 30
0.0
 11
81.0000000000011
 21
18.50000000000001
 31
0.0
  0
LINE
  5
78
330
48
100
AcDbEntity
  8
1
  6
Continuous
 62
     7
100
AcDbLine
 10
200.0000000000011
 20
287.0000000000002
 30
0.0
 11
105.0000000000011
 21
287.0000000000002
 31
0.0
  0
LINE
  5
79
330
48
100
AcDbEntity
  8
1
  6
Continuous
 62
     7
100
AcDbLine
 10
200.0000000000011
 20
10.0
 30
0.0
 11
200.0000000000011
 21
148.5
 31
0.0
  0
LINE
  5
7A
330
48
100
AcDbEntity
  8
1
  6
Continuous
 62
     7
100
AcDbLine
 10
25.00000000000111
 20
10.0
 30
0.0
 11
105.0000000000011
 21
10.0
 31
0.0
  0
LINE
  5
7B
330
48
100
AcDbEntity
  8
1
  6
PHANTOM
 62
     4
100
AcDbLine
 10
0.00000000000111
 20
297.0
 30
0.0
 11
0.00000000000111
 21
0.0
 31
0.0
  0
LINE
  5
7C
330
48
100
AcDbEntity
  8
1
  6
PHANTOM
 62
     4
100
AcDbLine
 10
210.0000000000011
 20
297.0
 30
0.0
 11
0.00000000000111
 21
297.0
 31
0.0
  0
LINE
  5
7D
330
48
100
AcDbEntity
  8
1
  6
PHANTOM
 62
     4
100
AcDbLine
 10
210.0000000000011
 20
0.0
 30
0.0
 11
210.0000000000011
 21
297.0
 31
0.0
  0
LINE
  5
7E
330
48
100
AcDbEntity
  8
1
  6
PHANTOM
 62
     4
100
AcDbLine
 10
0.00000000000111
 20
0.0
 30
0.0
 11
210.0000000000011
 21
0.0
 31
0.0
  0
LINE
  5
7F
330
48
100
AcDbEntity
  8
1
  6
Continuous
 62
     7
100
AcDbLine
 10
25.00000000000111
 20
41.0
 30
0.0
 11
200.0000000000011
 21
41.0
 31
0.0
  0
LINE
  5
80
330
48
100
AcDbEntity
  8
1
  6
Continuous
 62
     7
100
AcDbLine
 10
200.0000000000011
 20
27.00000000000001
 30
0.0
 11
25.00000000000111
 21
27.00000000000001
 31
0.0
  0
LINE
  5
81
330
48
100
AcDbEntity
  8
1
  6
Continuous
 62
     2
100
AcDbLine
 10
33.00000000000111
 20
41.00000000000001
 30
0.0
 11
33.00000000000111
 21
27.0
 31
0.0
  0
LINE
  5
82
330
48
100
AcDbEntity
  8
1
  6
Continuous
 62
     2
100
AcDbLine
 10
55.00000000000111
 20
287.0000000000002
 30
0.0
 11
55.00000000000111
 21
277.0000000000002
 31
0.0
  0
LINE
  5
83
330
48
100
AcDbEntity
  8
1
  6
Continuous
 62
     2
100
AcDbLine
 10
40.00000000000111
 20
287.0000000000002
 30
0.0
 11
40.00000000000111
 21
277.0000000000002
 31
0.0
  0
LINE
  5
84
330
48
100
AcDbEntity
  8
1
  6
Continuous
 62
     7
100
AcDbLine
 10
25.00000000000111
 20
10.0
 30
0.0
 11
25.00000000000111
 21
148.5
 31
0.0
  0
LINE
  5
85
330
48
100
AcDbEntity
  8
1
  6
Continuous
 62
     2
100
AcDbLine
 10
55.00000000000111
 20
277.0000000000002
 30
0.0
 11
25.00000000000111
 21
277.0000000000002
 31
0.0
  0
LINE
  5
86
330
48
100
AcDbEntity
  8
1
  6
Continuous
 62
     2
100
AcDbLine
 10
166.0000000000011
 20
27.00000000000001
 30
0.0
 11
166.0000000000011
 21
10.0
 31
0.0
  0
LINE
  5
87
330
48
100
AcDbEntity
  8
1
  6
Continuous
 62
     2
100
AcDbLine
 10
132.0000000000011
 20
27.00000000000001
 30
0.0
 11
132.0000000000011
 21
9.99999999999999
 31
0.0
  0
LINE
  5
88
330
48
100
AcDbEntity
  8
1
  6
Continuous
 62
     2
100
AcDbLine
 10
149.0000000000011
 20
27.00000000000001
 30
0.0
 11
149.0000000000011
 21
10.0
 31
0.0
  0
LINE
  5
89
330
48
100
AcDbEntity
  8
1
  6
Continuous
 62
     2
100
AcDbLine
 10
115.0000000000011
 20
27.00000000000001
 30
0.0
 11
115.0000000000011
 21
9.99999999999999
 31
0.0
  0
LINE
  5
8A
330
48
100
AcDbEntity
  8
1
  6
Continuous
 62
     2
100
AcDbLine
 10
98.0000000000011
 20
27.00000000000001
 30
0.0
 11
98.0000000000011
 21
9.99999999999999
 31
0.0
  0
LINE
  5
8B
330
48
100
AcDbEntity
  8
1
  6
Continuous
 62
     2
100
AcDbLine
 10
166.0000000000011
 20
20.00000000000001
 30
0.0
 11
200.0000000000011
 21
20.00000000000001
 31
0.0
  0
LINE
  5
8C
330
48
100
AcDbEntity
  8
1
  6
Continuous
 62
     2
100
AcDbLine
 10
105.0000000000011
 20
287.0000000000002
 30
0.0
 11
105.0000000000011
 21
292.0000000000002
 31
0.0
  0
LINE
  5
8D
330
48
100
AcDbEntity
  8
1
  6
Continuous
 62
     7
100
AcDbLine
 10
105.0000000000011
 20
287.0000000000002
 30
0.0
 11
25.00000000000111
 21
287.0000000000002
 31
0.0
  0
LINE
  5
8E
330
48
100
AcDbEntity
  8
1
  6
Continuous
 62
     2
100
AcDbLine
 10
25.00000000000111
 20
148.5
 30
0.0
 11
20.00000000000111
 21
148.5
 31
0.0
  0
LINE
  5
8F
330
48
100
AcDbEntity
  8
1
  6
Continuous
 62
     7
100
AcDbLine
 10
25.00000000000111
 20
148.5
 30
0.0
 11
25.00000000000111
 21
287.0000000000002
 31
0.0
  0
LINE
  5
90
330
48
100
AcDbEntity
  8
1
  6
Continuous
 62
     2
100
AcDbLine
 10
200.0000000000011
 20
148.5
 30
0.0
 11
205.0000000000011
 21
148.5
 31
0.0
  0
LINE
  5
91
330
48
100
AcDbEntity
  8
1
  6
Continuous
 62
     7
100
AcDbLine
 10
200.0000000000011
 20
148.5
 30
0.0
 11
200.0000000000011
 21
287.0000000000002
 31
0.0
  0
LINE
  5
92
330
48
100
AcDbEntity
  8
1
  6
Continuous
 62
     2
100
AcDbLine
 10
105.0000000000011
 20
10.0
 30
0.0
 11
105.0000000000011
 21
5.0
 31
0.0
  0
LINE
  5
93
330
48
100
AcDbEntity
  8
1
  6
Continuous
 62
     7
100
AcDbLine
 10
105.0000000000011
 20
10.0
 30
0.0
 11
200.0000000000011
 21
10.0
 31
0.0
  0
CIRCLE
  5
98
330
48
100
AcDbEntity
  8
1
  6
DOT_CENTER
 62
     7
100
AcDbCircle
 10
89.5000000000011
 20
18.0
 30
0.0
 40
0.1000000000000085
  0
CIRCLE
  5
99
330
48
100
AcDbEntity
  8
1
  6
DOT_CENTER
 62
     7
100
AcDbCircle
 10
89.5000000000011
 20
16.0
 30
0.0
 40
0.1000000000000085
  0
CIRCLE
  5
9A
330
48
100
AcDbEntity
  8
1
  6
Continuous
 62
     7
100
AcDbCircle
 10
187.0000000000011
 20
23.50000000000001
 30
0.0
 40
2.0
  0
CIRCLE
  5
9B
330
48
100
AcDbEntity
  8
1
  6
Continuous
 62
     7
100
AcDbCircle
 10
187.0000000000011
 20
23.50000000000001
 30
0.0
 40
1.200000000000102
  0
CIRCLE
  5
9C
330
48
100
AcDbEntity
  8
1
  6
Continuous
 62
     7
100
AcDbCircle
 10
154.5000000000011
 20
12.5
 30
0.0
 40
0.2999999999999829
  0
CIRCLE
  5
9D
330
48
100
AcDbEntity
  8
1
  6
Continuous
 62
     7
100
AcDbCircle
 10
160.5000000000011
 20
12.5
 30
0.0
 40
0.2999999999999829
  0
CIRCLE
  5
9E
330
48
100
AcDbEntity
  8
1
  6
Continuous
 62
     7
100
AcDbCircle
 10
143.5000000000011
 20
12.5
 30
0.0
 40
0.2999999999999829
  0
CIRCLE
  5
9F
330
48
100
AcDbEntity
  8
1
  6
Continuous
 62
     7
100
AcDbCircle
 10
137.5000000000011
 20
12.5
 30
0.0
 40
0.2999999999999829
  0
CIRCLE
  5
A0
330
48
100
AcDbEntity
  8
1
  6
Continuous
 62
     7
100
AcDbCircle
 10
126.5000000000011
 20
12.5
 30
0.0
 40
0.3000000000000114
  0
CIRCLE
  5
A1
330
48
100
AcDbEntity
  8
1
  6
Continuous
 62
     7
100
AcDbCircle
 10
120.5000000000011
 20
12.5
 30
0.0
 40
0.3000000000000114
  0
CIRCLE
  5
A2
330
48
100
AcDbEntity
  8
1
  6
Continuous
 62
     7
100
AcDbCircle
 10
109.5000000000011
 20
12.5
 30
0.0
 40
0.3000000000000114
  0
CIRCLE
  5
A3
330
48
100
AcDbEntity
  8
1
  6
Continuous
 62
     7
100
AcDbCircle
 10
103.5000000000011
 20
12.5
 30
0.0
 40
0.3000000000000114
  0
SPLINE
  5
A4
102
{ACAD_REACTORS
330
C2
102
}
330
48
100
AcDbEntity
  8
_U_30EC_U_30A4_U_30E4_U_30FC_1
  6
Continuous
 62
     2
100
AcDbSpline
210
0.0
220
0.0
230
1.0
 70
    11
 71
     3
 72
    99
 73
    95
 74
    93
 42
0.000000001
 43
0.0000000001
 44
0.00000001
 40
0.0
 40
0.0
 40
0.0
 40
0.0
 40
0.0796417172272494
 40
0.1621768542356028
 40
0.2486489160957443
 40
0.34049696685244
 40
0.4381912511164698
 40
0.5434463660244999
 40
0.6518115192847319
 40
0.753019093788662
 40
0.849219691972514
 40
0.9419290312997977
 40
1.034249663570039
 40
1.129078600620178
 40
1.226697027573223
 40
1.327220425421688
 40
1.470572134938007
 40
1.595489863371193
 40
1.719934125348374
 40
1.850576620127391
 40
1.989059629987306
 40
2.134139054226898
 40
2.280698007207212
 40
2.424529739039481
 40
2.565929576985825
 40
2.708239260773538
 40
2.861717887443668
 40
3.045168540347376
 40
3.183798301138615
 40
3.314813961455473
 40
3.442083470447323
 40
3.56991270837298
 40
3.702177512509402
 40
3.842307559659542
 40
3.992872223245918
 40
4.156750662218336
 40
4.310981861107529
 40
4.445859909322603
 40
4.572393936131543
 40
4.701656719781965
 40
4.768279086008453
 40
4.835960697898399
 40
4.912788918729324
 40
5.006285208481525
 40
5.026909478751602
 40
5.047533749021166
 40
5.101808031471239
 40
5.162325165538528
 40
5.226919745995833
 40
5.294231806596724
 40
5.364544852554872
 40
5.438319055467942
 40
5.51787765132425
 40
5.607647714861562
 40
5.700449642544409
 40
5.78825114236414
 40
5.872714706039772
 40
5.955167292575286
 40
6.037192395190379
 40
6.120669181469108
 40
6.206848616686347
 40
6.296680855416769
 40
6.442558392872593
 40
6.568190371608286
 40
6.692904567360342
 40
6.824220446557143
 40
6.96312185032938
 40
7.107843738851168
 40
7.253431663907254
 40
7.395187468036676
 40
7.533140753237709
 40
7.670550457175215
 40
7.816236511769244
 40
7.987691657359208
 40
8.14227742196924
 40
8.293662615415007
 40
8.442962460879267
 40
8.591598316185335
 40
8.743678992361806
 40
8.903725323699165
 40
9.07630700889054
 40
9.265578604680595
 40
9.459203795360741
 40
9.617619810273528
 40
9.753609671361913
 40
9.874873300004085
 40
9.954520184977788
 40
10.02416413719247
 40
10.09769764405446
 40
10.18909955924974
 40
10.20974586420135
 40
10.23039218263378
 40
10.30057101881264
 40
10.37632012987545
 40
10.37632012987545
 40
10.37632012987545
 40
10.37632012987545
 10
170.1465954835862
 20
14.13795663215994
 30
0.0
 10
170.163221785123
 20
14.11720608845313
 30
0.0
 10
170.1970784206588
 20
14.07495111711901
 30
0.0
 10
170.2599822541047
 20
14.02029811392073
 30
0.0
 10
170.3332500940404
 20
13.97299025121049
 30
0.0
 10
170.4175969238647
 20
13.93527231437935
 30
0.0
 10
170.5132240615471
 20
13.91040619731951
 30
0.0
 10
170.6171853775356
 20
13.90309559345937
 30
0.0
 10
170.7224020220416
 20
13.91142322794052
 30
0.0
 10
170.8206626371344
 20
13.9414917965153
 30
0.0
 10
170.9058986427559
 20
13.98848822971874
 30
0.0
 10
170.9779220206113
 20
14.0495299125086
 30
0.0
 10
171.0350917709107
 20
14.12412969578581
 30
0.0
 10
171.076786874745
 20
14.21002464660175
 30
0.0
 10
171.1026952846302
 20
14.30485850432211
 30
0.0
 10
171.1118037332665
 20
14.41854979038367
 30
0.0
 10
171.0986864796498
 20
14.54332587770777
 30
0.0
 10
171.0325330334425
 20
14.66014719171894
 30
0.0
 10
170.936937091958
 20
14.74512539577373
 30
0.0
 10
170.824968102238
 20
14.81416684459162
 30
0.0
 10
170.699365958328
 20
14.87204142045888
 30
0.0
 10
170.5656691620867
 20
14.92373723284342
 30
0.0
 10
170.4313122818841
 20
14.9789909239718
 30
0.0
 10
170.3051983986887
 20
15.04939770641649
 30
0.0
 10
170.1926579987546
 20
15.13785540731251
 30
0.0
 10
170.0969963064468
 20
15.24981067868472
 30
0.0
 10
170.0334157151836
 20
15.39949910101382
 30
0.0
 10
170.0200706505026
 20
15.55932794385141
 30
0.0
 10
170.0320510987459
 20
15.71048405306846
 30
0.0
 10
170.0712298928852
 20
15.83809244591538
 30
0.0
 10
170.1354987750921
 20
15.95080874030845
 30
0.0
 10
170.2238204999751
 20
16.04648609268687
 30
0.0
 10
170.3338091207639
 20
16.12354214985751
 30
0.0
 10
170.4632284401276
 20
16.18151396936278
 30
0.0
 10
170.6111838967804
 20
16.21739177588823
 30
0.0
 10
170.7682069455497
 20
16.22746719050564
 30
0.0
 10
170.9174940466441
 20
16.21863637762589
 30
0.0
 10
171.0596253614181
 20
16.19074899340355
 30
0.0
 10
171.1595922609636
 20
16.13413314701136
 30
0.0
 10
171.3125074736195
 20
16.08674602105507
 30
0.0
 10
171.2455131717179
 20
16.00197553001184
 30
0.0
 10
171.2296479120279
 20
15.93438901873484
 30
0.0
 10
171.1978750531308
 20
15.8692609279319
 30
0.0
 10
171.2150202209581
 20
15.76723453256952
 30
0.0
 10
171.1666427208243
 20
15.77493211681901
 30
0.0
 10
171.1315789440777
 20
15.76806771724807
 30
0.0
 10
171.1296697985729
 20
15.83263831158196
 30
0.0
 10
171.0985692932
 20
15.87825639621395
 30
0.0
 10
171.0664551628466
 20
15.93561036628456
 30
0.0
 10
171.0208038475179
 20
15.98540462692558
 30
0.0
 10
170.9658508218398
 20
16.02994813718996
 30
0.0
 10
170.9010841173018
 20
16.06763988836548
 30
0.0
 10
170.8232377310607
 20
16.09283375791353
 30
0.0
 10
170.7355160553363
 20
16.09931230998111
 30
0.0
 10
170.6452903277817
 20
16.09235709285607
 30
0.0
 10
170.5594594694076
 20
16.06909190460921
 30
0.0
 10
170.4828343638607
 20
16.03131644107545
 30
0.0
 10
170.4165265636212
 20
15.98051641089574
 30
0.0
 10
170.3622560536975
 20
15.9173114340721
 30
0.0
 10
170.322492534547
 20
15.84276455710367
 30
0.0
 10
170.2976775510598
 20
15.75917313997763
 30
0.0
 10
170.2892124262881
 20
15.65192948382285
 30
0.0
 10
170.3019697987115
 20
15.52965457267558
 30
0.0
 10
170.3681548409284
 20
15.41149724291212
 30
0.0
 10
170.4640977399843
 20
15.32606325709525
 30
0.0
 10
170.5757914963193
 20
15.25583362306723
 30
0.0
 10
170.7010863668713
 20
15.19659162305303
 30
0.0
 10
170.8349823941458
 20
15.14616708086132
 30
0.0
 10
170.9689930333161
 20
15.09322516984381
 30
0.0
 10
171.0950885316926
 20
15.02750170625177
 30
0.0
 10
171.2076216638428
 20
14.94480352537319
 30
0.0
 10
171.3031370284243
 20
14.83996006310074
 30
0.0
 10
171.3672706486973
 20
14.6993711725157
 30
0.0
 10
171.381110372529
 20
14.54065409451592
 30
0.0
 10
171.3673954712241
 20
14.38153155217875
 30
0.0
 10
171.3244739153996
 20
14.2348382881921
 30
0.0
 10
171.2545906329077
 20
14.1011979658714
 30
0.0
 10
171.157459221384
 20
13.98532387699292
 30
0.0
 10
171.0347806023668
 20
13.89089981770088
 30
0.0
 10
170.8874408413179
 20
13.8217927065198
 30
0.0
 10
170.7177132497135
 20
13.77953210858853
 30
0.0
 10
170.5317404979608
 20
13.76781736230407
 30
0.0
 10
170.3528955926193
 20
13.77809486683436
 30
0.0
 10
170.1881733753754
 20
13.81966573769155
 30
0.0
 10
170.0834410841067
 20
13.8879764288394
 30
0.0
 10
169.9350960790376
 20
13.93675219032106
 30
0.0
 10
169.998037819474
 20
14.02976591290842
 30
0.0
 10
170.0072274430071
 20
14.10296536248279
 30
0.0
 10
170.0303711301243
 20
14.16936294501347
 30
0.0
 10
170.0034588335327
 20
14.2697480952758
 30
0.0
 10
170.052133895635
 20
14.26234033517379
 30
0.0
 10
170.0916530580707
 20
14.26894063620894
 30
0.0
 10
170.0996204944713
 20
14.19078703218933
 30
0.0
 10
170.1305436967934
 20
14.15600927375856
 30
0.0
 10
170.1465954835862
 20
14.13795663215994
 30
0.0
 11
170.1465954835862
 21
14.13795663215994
 31
0.0
 11
170.1982038075875
 21
14.07729869814736
 31
0.0
 11
170.2601105501346
 21
14.0227129516332
 31
0.0
 11
170.3327764009813
 21
13.97583980928383
 31
0.0
 11
170.4166468655854
 21
13.93839906276537
 31
0.0
 11
170.5112210732421
 21
13.91390636311877
 31
0.0
 11
170.6161603327176
 21
13.90575829888472
 31
0.0
 11
170.7240739497563
 21
13.91564048638223
 31
0.0
 11
170.8208419941627
 21
13.94528704887482
 31
0.0
 11
170.905077608333
 21
13.99175118948819
 31
0.0
 11
170.9756144207697
 21
14.0519141321815
 31
0.0
 11
171.0319442109991
 21
14.1250581946632
 31
0.0
 11
171.0736690016014
 21
14.21021434047522
 31
0.0
 11
171.0994680808043
 21
14.30436190989612
 31
0.0
 11
171.1080824729457
 21
14.4045155209822
 31
0.0
 11
171.0878517703368
 21
14.54643250879397
 31
0.0
 11
171.0272522666742
 21
14.65566684036387
 31
0.0
 11
170.9364971286296
 21
14.74081306430094
 31
0.0
 11
170.8260101884751
 21
14.81052746532516
 31
0.0
 11
170.7008523531265
 21
14.86979854169922
 31
0.0
 11
170.5662951951009
 21
14.9240425347412
 31
0.0
 11
170.4316884277018
 21
14.98201274306004
 31
0.0
 11
170.3065802017269
 21
15.05297399304232
 31
0.0
 11
170.1960276098291
 21
15.14113315968694
 31
0.0
 11
170.1053381235276
 21
15.25080295132617
 31
0.0
 11
170.0447055469494
 21
15.39179720476315
 31
0.0
 11
170.0245079172564
 21
15.57413260402314
 31
0.0
 11
170.0374030471358
 21
15.71216131926641
 31
0.0
 11
170.0761016659402
 21
15.83733128451289
 31
0.0
 11
170.1393141731517
 21
15.94779262129084
 31
0.0
 11
170.2257499954556
 21
16.04196885390621
 31
0.0
 11
170.3336492808974
 21
16.11846540770651
 31
0.0
 11
170.4613526283339
 21
16.17615670109487
 31
0.0
 11
170.6075393259933
 21
16.21220066809973
 31
0.0
 11
170.7709768565461
 21
16.22421385386062
 31
0.0
 11
170.92489184313
 21
16.21434269066864
 31
0.0
 11
171.0564887242618
 21
16.18477329831497
 31
0.0
 11
171.172563634495
 21
16.13439993895252
 31
0.0
 11
171.2800792741133
 21
16.06264163167877
 31
0.0
 11
171.2516994050455
 21
16.00236624106886
 31
0.0
 11
171.2284855254294
 21
15.93879017337647
 31
0.0
 11
171.2078381040811
 21
15.86478841992269
 31
0.0
 11
171.1871840681498
 21
15.77360197897327
 31
0.0
 11
171.1665597978426
 21
15.77360197897327
 31
0.0
 11
171.1459355275354
 21
15.77360197897327
 31
0.0
 11
171.1256706495802
 21
15.82395108486346
 31
0.0
 11
171.0994658759432
 21
15.87850045116929
 31
0.0
 11
171.0650468924462
 21
15.93316116296115
 31
0.0
 11
171.0203554612948
 21
15.98349593725411
 31
0.0
 11
170.9657333359522
 21
16.02777175321529
 31
0.0
 11
170.9016722004337
 21
16.06436142334501
 31
0.0
 11
170.8259682961151
 21
16.08882545979727
 31
0.0
 11
170.736572204646
 21
16.09701100667022
 31
0.0
 11
170.6440937174218
 21
16.08926973931101
 31
0.0
 11
170.5594072091656
 21
16.06609003445566
 31
0.0
 11
170.4837024488851
 21
16.02863495634008
 31
0.0
 11
170.4183754766527
 21
15.97832774281102
 31
0.0
 11
170.3650487887675
 21
15.91600293379879
 31
0.0
 11
170.3254809233912
 21
15.84249947895607
 31
0.0
 11
170.3009523754722
 21
15.75988443557391
 31
0.0
 11
170.2927954104119
 21
15.67042329844352
 31
0.0
 11
170.3130095765628
 21
15.52595308146573
 31
0.0
 11
170.3736256166831
 21
15.41591177072936
 31
0.0
 11
170.4643479320769
 21
15.33033670130631
 31
0.0
 11
170.5748676948824
 21
15.25941954854625
 31
0.0
 11
170.700008993773
 21
15.19914305550579
 31
0.0
 11
170.8345826882564
 21
15.14590447913021
 31
0.0
 11
170.9691729191978
 21
15.09039489581074
 31
0.0
 11
171.0942976816308
 21
15.0237728124941
 31
0.0
 11
171.2048009079781
 21
14.94118863716749
 31
0.0
 11
171.2955397598299
 21
14.83800003476272
 31
0.0
 11
171.35615579995
 21
14.70552315979584
 31
0.0
 11
171.3763699661009
 21
14.53526378483839
 31
0.0
 11
171.3621839748009
 21
14.38133030397412
 31
0.0
 11
171.3196087009204
 21
14.23605531269097
 31
0.0
 11
171.2499752884276
 21
14.10398854189068
 31
0.0
 11
171.1544992078724
 21
13.99007218775247
 31
0.0
 11
171.0341060772635
 21
13.89715272597017
 31
0.0
 11
170.8896160201857
 21
13.8283235766818
 31
0.0
 11
170.7223519532724
 21
13.78581275203967
 31
0.0
 11
170.5336103348237
 21
13.77165864614041
 31
0.0
 11
170.3405031726398
 21
13.78581275203967
 31
0.0
 11
170.1878975900922
 21
13.8283235766818
 31
0.0
 11
170.0661897942214
 21
13.88899033013889
 31
0.0
 11
169.9660261826374
 21
13.95734322942737
 31
0.0
 11
169.992232058705
 21
14.03255545163076
 31
0.0
 11
170.0090121537629
 21
14.10014767383612
 31
0.0
 11
170.0206196447862
 21
14.17275926235962
 31
0.0
 11
170.031360625415
 21
14.26352788212859
 31
0.0
 11
170.0520069443326
 21
14.26352788212859
 31
0.0
 11
170.0726532632503
 21
14.26352788212859
 31
0.0
 11
170.104891639164
 21
14.20119204881084
 31
0.0
 11
170.1465954835862
 21
14.13795663215994
 31
0.0
  0
SPLINE
  5
A5
102
{ACAD_REACTORS
330
C3
102
}
330
48
100
AcDbEntity
  8
_U_30EC_U_30A4_U_30E4_U_30FC_1
  6
Continuous
 62
     2
100
AcDbSpline
210
0.0
220
0.0
230
1.0
 70
    11
 71
     3
 72
    57
 73
    53
 74
    51
 42
0.000000001
 43
0.0000000001
 44
0.00000001
 40
0.0
 40
0.0
 40
0.0
 40
0.0
 40
0.0471632082809235
 40
0.0914861054632153
 40
0.1357762519702388
 40
0.1826527001610967
 40
0.2295203288572876
 40
0.2737751972220762
 40
0.3181310461543639
 40
0.3652607198398515
 40
0.4571007286314575
 40
0.567185102916519
 40
0.6894623283868343
 40
0.8181758272546068
 40
0.9510087229273984
 40
1.085852229674056
 40
1.218126164475324
 40
1.343545131142394
 40
1.45453720295681
 40
1.567187607530819
 40
1.680710966642409
 40
1.794226869736802
 40
1.900009184247573
 40
2.004085860447852
 40
2.10816267445174
 40
2.214000150155285
 40
2.496038577352131
 40
2.76235074547927
 40
2.99727535327941
 40
3.185110082137718
 40
3.246407890063945
 40
3.312607550212676
 40
3.378877742711635
 40
3.440140399651432
 40
4.100501696006454
 40
4.754913085563497
 40
5.411331693423902
 40
6.077890432568696
 40
6.110575292670974
 40
6.143260152775754
 40
6.367989363395147
 40
6.610525374951544
 40
6.863389136467302
 40
7.119380025547589
 40
7.376036605091095
 40
7.631164770966283
 40
7.876722425456408
 40
8.104953735855952
 40
8.31291668592429
 40
8.497730294941295
 40
8.651018984313847
 40
8.764738853624582
 40
8.764738853624582
 40
8.764738853624582
 40
8.764738853624582
 10
174.7922649500524
 20
13.81626739612927
 30
0.0
 10
174.7766616726942
 20
13.81826231079078
 30
0.0
 10
174.7463947960313
 20
13.82213201360299
 30
0.0
 10
174.7010994202263
 20
13.82341984967268
 30
0.0
 10
174.6559553129359
 20
13.8230868355405
 30
0.0
 10
174.609901712341
 20
13.82314658674224
 30
0.0
 10
174.5640496172108
 20
13.82325813650001
 30
0.0
 10
174.5183711648175
 20
13.8227783345659
 30
0.0
 10
174.4750811541619
 20
13.82461109618722
 30
0.0
 10
174.4039947951525
 20
13.80049556814658
 30
0.0
 10
174.4057477261451
 20
13.9218469397725
 30
0.0
 10
174.3586196370582
 20
14.00726239751234
 30
0.0
 10
174.3191478251772
 20
14.12486929345135
 30
0.0
 10
174.2706635532656
 20
14.24232752540437
 30
0.0
 10
174.2201017402533
 20
14.3640593576151
 30
0.0
 10
174.1718634610488
 20
14.49075967862466
 30
0.0
 10
174.1135232947605
 20
14.59933687784951
 30
0.0
 10
174.0980892667271
 20
14.7562065713441
 30
0.0
 10
173.9566586330646
 20
14.72373446548322
 30
0.0
 10
173.8508397414915
 20
14.7351288868218
 30
0.0
 10
173.7358569725233
 20
14.73392591514615
 30
0.0
 10
173.6253142252152
 20
14.73506945347408
 30
0.0
 10
173.5176583522794
 20
14.73418350037526
 30
0.0
 10
173.4121322529253
 20
14.73416602390519
 30
0.0
 10
173.3109192682024
 20
14.72714032472414
 30
0.0
 10
173.1266804827764
 20
14.75135859859868
 30
0.0
 10
173.1157393685422
 20
14.44741691121886
 30
0.0
 10
173.0087691634761
 20
14.22353177253396
 30
0.0
 10
172.9098148604356
 20
14.03895314292499
 30
0.0
 10
172.9225090524019
 20
13.79530204804205
 30
0.0
 10
172.8050091716407
 20
13.82508046753197
 30
0.0
 10
172.7422055868321
 20
13.82258089509603
 30
0.0
 10
172.678587209341
 20
13.82344075102805
 30
0.0
 10
172.3946014194086
 20
13.78098039941946
 30
0.0
 10
173.0251638499392
 20
14.50081952444786
 30
0.0
 10
173.1087645289081
 20
15.0127653943573
 30
0.0
 10
173.4929252789351
 20
15.53353743550044
 30
0.0
 10
173.4777208288572
 20
16.23519626253213
 30
0.0
 10
173.7239265722708
 20
16.22345633081256
 30
0.0
 10
173.8256346157572
 20
16.23225004452773
 30
0.0
 10
173.8249752035829
 20
15.98059650730347
 30
0.0
 10
173.9428317155839
 20
15.79818020733958
 30
0.0
 10
174.0315515260496
 20
15.55563740662866
 30
0.0
 10
174.132229248527
 20
15.32340030530126
 30
0.0
 10
174.2311142712254
 20
15.08674644566915
 30
0.0
 10
174.329967699068
 20
14.85461739170092
 30
0.0
 10
174.4256166390936
 20
14.63122222788788
 30
0.0
 10
174.5159904573283
 20
14.42272549049316
 30
0.0
 10
174.59899445682
 20
14.2330844852932
 30
0.0
 10
174.672608858281
 20
14.06663106068099
 30
0.0
 10
174.7342815895556
 20
13.92917699626097
 30
0.0
 10
174.7749458885615
 20
13.84999239430033
 30
0.0
 10
174.7922649500524
 20
13.81626739612927
 30
0.0
 11
174.7922649500524
 21
13.81626739612927
 31
0.0
 11
174.7453878317459
 21
13.82145433189185
 31
0.0
 11
174.7010975896136
 21
13.82315538223862
 31
0.0
 11
174.656807443174
 21
13.82315538223862
 31
0.0
 11
174.609930994717
 21
13.82315538223862
 31
0.0
 11
174.5630633657044
 21
13.82315538223862
 31
0.0
 11
174.5188084970419
 21
13.82315538223862
 31
0.0
 11
174.4744852776864
 21
13.82145433189185
 31
0.0
 11
174.4276419021454
 21
13.81626739612927
 31
0.0
 11
174.3992532136336
 21
13.90360966173244
 31
0.0
 11
174.3622721815909
 21
14.00729656274819
 31
0.0
 11
174.3188386236712
 21
14.12159987001127
 31
0.0
 11
174.2711055866947
 21
14.24113531268969
 31
0.0
 11
174.2208160133248
 21
14.36408057307565
 31
0.0
 11
174.1696467003943
 21
14.48883822929446
 31
0.0
 11
174.1197531801337
 21
14.61134141502772
 31
0.0
 11
174.0733119111852
 21
14.72784517367917
 31
0.0
 11
173.96236119076
 21
14.73087465284506
 31
0.0
 11
173.84973092251
 21
14.7330045486779
 31
0.0
 11
173.736215206946
 21
14.7343219531914
 31
0.0
 11
173.6227000476811
 21
14.73473315978852
 31
0.0
 11
173.5169185312827
 21
14.7343219531914
 31
0.0
 11
173.4128501919236
 21
14.7330045486779
 31
0.0
 11
173.3087951724056
 21
14.73087465284506
 31
0.0
 11
173.2030010615607
 21
14.72784517367917
 31
0.0
 11
173.0980914750149
 21
14.4660443751335
 31
0.0
 11
173.0034868690342
 21
14.2171023265846
 31
0.0
 11
172.9252231210309
 21
13.99559756969557
 31
0.0
 11
172.8693431224566
 21
13.81626739612927
 31
0.0
 11
172.8082651639453
 21
13.82145433189185
 31
0.0
 11
172.7420873618141
 21
13.82315538223862
 31
0.0
 11
172.6758390041293
 21
13.82145433189185
 31
0.0
 11
172.6147963233949
 21
13.81626739612927
 31
0.0
 11
172.8899684951941
 21
14.41656508695142
 31
0.0
 11
173.1582945734181
 21
15.01343642360775
 31
0.0
 11
173.4240277350415
 21
15.61366245644381
 31
0.0
 11
173.6914740737044
 21
16.22421385386062
 31
0.0
 11
173.7241589339817
 21
16.22421385386062
 31
0.0
 11
173.756843794259
 21
16.22421385386062
 31
0.0
 11
173.8428300681068
 21
16.01658539037084
 31
0.0
 11
173.935728581362
 21
15.79254614563517
 31
0.0
 11
174.0328714521474
 21
15.55908663180469
 31
0.0
 11
174.1317936458042
 21
15.32298128464145
 31
0.0
 11
174.2315341249938
 21
15.08649780379784
 31
0.0
 11
174.3313071129364
 21
14.8516878125371
 31
0.0
 11
174.4280608257459
 21
14.6259949219685
 31
0.0
 11
174.5188084970419
 21
14.41658052097919
 31
0.0
 11
174.6022150834557
 21
14.22607611130461
 31
0.0
 11
174.6770293263388
 21
14.05708232662467
 31
0.0
 11
174.7410729186614
 21
13.91781337700667
 31
0.0
 11
174.7922649500524
 21
13.81626739612927
 31
0.0
  0
SPLINE
  5
A6
102
{ACAD_REACTORS
330
C3
102
}
330
48
100
AcDbEntity
  8
_U_30EC_U_30A4_U_30E4_U_30FC_1
  6
Continuous
 62
     2
100
AcDbSpline
210
0.0
220
0.0
230
1.0
 70
    11
 71
     3
 72
    25
 73
    21
 74
    19
 42
0.000000001
 43
0.0000000001
 44
0.00000001
 40
0.0
 40
0.0
 40
0.0
 40
0.0
 40
0.0911479969064822
 40
0.1858117896204666
 40
0.2804128399734491
 40
0.371588919071451
 40
0.4679080494218708
 40
0.5642683809228947
 40
0.6605683222644707
 40
0.7569653015809972
 40
0.8561348172522569
 40
1.092615965104264
 40
1.374867658141858
 40
1.611348812011561
 40
1.710518328425209
 40
1.809403163726539
 40
2.045205463294042
 40
2.326646917622091
 40
2.562449217190564
 40
2.661334043833872
 40
2.661334043833872
 40
2.661334043833872
 40
2.661334043833872
 10
173.268370056721
 20
14.88614538197292
 30
0.0
 10
173.2987525917933
 20
14.88598079714554
 30
0.0
 10
173.3606895889122
 20
14.88564528689921
 30
0.0
 10
173.4541356960341
 20
14.88269055452
 30
0.0
 10
173.5475095236368
 20
14.8797775287715
 30
0.0
 10
173.6417760753487
 20
14.87894201643417
 30
0.0
 10
173.7354964790978
 20
14.87996644658046
 30
0.0
 10
173.8352040303215
 20
14.87916977470972
 30
0.0
 10
173.9188949546324
 20
14.8892141023522
 30
0.0
 10
174.0637996315055
 20
14.86234617674165
 30
0.0
 10
173.9396132444811
 20
15.03665530280047
 30
0.0
 10
173.8965867286293
 20
15.19651711006093
 30
0.0
 10
173.7808922142219
 20
15.45518458550213
 30
0.0
 10
173.7017565431268
 20
15.5923105286186
 30
0.0
 10
173.6431576621827
 20
15.80937033134076
 30
0.0
 10
173.5864803939449
 20
15.5926613421343
 30
0.0
 10
173.5052809900488
 20
15.45327012438236
 30
0.0
 10
173.4063701281499
 20
15.20406969370192
 30
0.0
 10
173.325362509427
 20
15.01925830226075
 30
0.0
 10
173.2813683325849
 20
14.91650446856116
 30
0.0
 10
173.268370056721
 20
14.88614538197292
 30
0.0
 11
173.268370056721
 21
14.88614538197292
 31
0.0
 11
173.3595137737831
 21
14.88526123266759
 31
0.0
 11
173.4541428297592
 21
14.88269697919599
 31
0.0
 11
173.5487082179717
 21
14.88009965280777
 31
0.0
 11
173.6398803250207
 21
14.8792485764191
 31
0.0
 11
173.7361985777717
 21
14.87965978301621
 31
0.0
 11
173.8325499034387
 21
14.88097718752971
 31
0.0
 11
173.9288262638297
 21
14.88310818579312
 31
0.0
 11
174.0251753846354
 21
14.88614538197292
 31
0.0
 11
173.9854633323152
 21
14.9770164219502
 31
0.0
 11
173.8907653613979
 21
15.19370890189602
 31
0.0
 11
173.7777387509481
 21
15.45234186183135
 31
0.0
 11
173.6830407800308
 21
15.66903434177717
 31
0.0
 11
173.6433287277106
 21
15.75990538175445
 31
0.0
 11
173.6043330259277
 21
15.66903434177717
 31
0.0
 11
173.5113432755223
 21
15.45234186183135
 31
0.0
 11
173.4003555089093
 21
15.19370890189602
 31
0.0
 11
173.3073657585039
 21
14.9770164219502
 31
0.0
 11
173.268370056721
 21
14.88614538197292
 31
0.0
  0
SPLINE
  5
A7
102
{ACAD_REACTORS
330
C4
102
}
330
48
100
AcDbEntity
  8
_U_30EC_U_30A4_U_30E4_U_30FC_1
  6
Continuous
 62
     2
100
AcDbSpline
210
0.0
220
0.0
230
1.0
 70
    11
 71
     3
 72
    95
 73
    91
 74
    89
 42
0.000000001
 43
0.0000000001
 44
0.00000001
 40
0.0
 40
0.0
 40
0.0
 40
0.0
 40
0.6550406656911547
 40
1.308087289031959
 40
1.420803739835833
 40
1.56613075977083
 40
1.757067341888495
 40
2.006513545026491
 40
2.087328263121584
 40
2.18532887229566
 40
2.294612454748402
 40
2.408936380534845
 40
2.526802767798595
 40
2.646360524615639
 40
2.762535723971616
 40
2.87005734287019
 40
2.966883448431681
 40
3.050803243518329
 40
3.115818222436641
 40
3.156030057150276
 40
3.213914225080149
 40
3.276689026450549
 40
3.342960320981327
 40
3.404230667150604
 40
3.453822809493416
 40
3.532499827188472
 40
3.634775188507209
 40
3.754909333008207
 40
3.889736761660706
 40
4.035769602175272
 40
4.187256681197655
 40
4.338733685676003
 40
4.488478734676165
 40
4.634708317831632
 40
4.771493189921319
 40
4.892686571561257
 40
5.199775528944497
 40
5.460353566929683
 40
5.667603142345558
 40
5.814722905404537
 40
5.828990806219863
 40
5.855488336304504
 40
5.869756237118835
 40
6.18979650776286
 40
6.531890469873027
 40
6.883053637017038
 40
7.230512024911511
 40
7.566966656764618
 40
7.885203559707445
 40
8.172887439719245
 40
8.41801159406278
 40
8.443926721190701
 40
8.510760470613189
 40
8.602145393795698
 40
8.70171404164714
 40
8.79309896507537
 40
8.859932715057942
 40
8.885847842603592
 40
9.242301256612807
 40
9.589275455016761
 40
9.921808543164165
 40
10.23479624298467
 40
10.29968150889178
 40
10.35323493887766
 40
10.40154625355148
 40
10.46482922477823
 40
10.55973900668404
 40
10.69239545985616
 40
10.8492035347567
 40
11.01626328594778
 40
11.18672024367442
 40
11.35372582577209
 40
11.50257442292425
 40
11.6186649502329
 40
11.71329869152873
 40
11.82511050573906
 40
11.94464880845714
 40
12.06929242642506
 40
12.19707290435175
 40
12.32562632860527
 40
12.45034565331278
 40
12.56646595170326
 40
12.67099007414634
 40
12.76077625936781
 40
12.82703233506693
 40
12.87429132785992
 40
12.89831990323331
 40
12.9223484786002
 40
13.53984767410317
 40
14.18294284359362
 40
14.18294284359362
 40
14.18294284359362
 40
14.18294284359362
 10
177.3067935648032
 20
14.70898038201724
 30
0.0
 10
177.1752019758561
 20
14.82265058603231
 30
0.0
 10
176.9124193802739
 20
15.04964496316159
 30
0.0
 10
176.3997393441031
 20
15.89214462956287
 30
0.0
 10
176.4106654595373
 20
15.5342337757702
 30
0.0
 10
176.4041226528002
 20
15.39267392272132
 30
0.0
 10
176.4028026631784
 20
15.19421305299281
 30
0.0
 10
176.401811760255
 20
15.02150296045983
 30
0.0
 10
176.4024101751985
 20
14.87865373257579
 30
0.0
 10
176.4038994301894
 20
14.78265005413358
 30
0.0
 10
176.4055683588482
 20
14.67545503263141
 30
0.0
 10
176.4071934954629
 20
14.56164211517582
 30
0.0
 10
176.4092429501697
 20
14.44441572604589
 30
0.0
 10
176.4123165501937
 20
14.32656411232969
 30
0.0
 10
176.4156339697053
 20
14.2122808732062
 30
0.0
 10
176.4193605340291
 20
14.10521401867276
 30
0.0
 10
176.4217338161435
 20
14.01007408766921
 30
0.0
 10
176.4278718888368
 20
13.92558557205695
 30
0.0
 10
176.4239784495957
 20
13.86923087298141
 30
0.0
 10
176.4455230443088
 20
13.79825022472356
 30
0.0
 10
176.3680940058629
 20
13.82902677604483
 30
0.0
 10
176.3116353240202
 20
13.82011242517613
 30
0.0
 10
176.2540495896818
 20
13.82896218398275
 30
0.0
 10
176.1690163478483
 20
13.79738225225944
 30
0.0
 10
176.2009714146393
 20
13.88095155992189
 30
0.0
 10
176.199070528255
 20
13.94882608968309
 30
0.0
 10
176.2107960047311
 20
14.05233256764418
 30
0.0
 10
176.216424105301
 20
14.17002125616695
 30
0.0
 10
176.2237902178952
 20
14.30388609164423
 30
0.0
 10
176.2320759701621
 20
14.44764152872632
 30
0.0
 10
176.2398851897437
 20
14.59714022843445
 30
0.0
 10
176.2457571222668
 20
14.74792549402078
 30
0.0
 10
176.250366781798
 20
14.89699943878438
 30
0.0
 10
176.2542632117554
 20
15.04122913163022
 30
0.0
 10
176.2570715126575
 20
15.17583905213017
 30
0.0
 10
176.2576698755034
 20
15.36469614347355
 30
0.0
 10
176.2616023867162
 20
15.58975494313154
 30
0.0
 10
176.2442175378508
 20
15.86367091125706
 30
0.0
 10
176.2850417342594
 20
16.02787112098598
 30
0.0
 10
176.1995153256013
 20
16.22749661465095
 30
0.0
 10
176.2660558907699
 20
16.22385458403978
 30
0.0
 10
176.2838724273241
 20
16.22413447160854
 30
0.0
 10
176.4056801797514
 20
16.22632927398612
 30
0.0
 10
176.5080770335473
 20
15.94675118721517
 30
0.0
 10
176.7580021509367
 20
15.74563008535999
 30
0.0
 10
176.9870035331121
 20
15.47792614987918
 30
0.0
 10
177.224515121312
 20
15.22646413862376
 30
0.0
 10
177.4486090740783
 20
14.98969974061358
 30
0.0
 10
177.675071628302
 20
14.73218692583079
 30
0.0
 10
177.8325687886524
 20
14.61649335056921
 30
0.0
 10
178.0472129612686
 20
14.27997152538796
 30
0.0
 10
178.0422645974629
 20
14.40464754091603
 30
0.0
 10
178.0433931602558
 20
14.46327691935737
 30
0.0
 10
178.0428877841526
 20
14.55043662371977
 30
0.0
 10
178.0430475158124
 20
14.64416143182872
 30
0.0
 10
178.0430054891329
 20
14.73018971297035
 30
0.0
 10
178.0430202040384
 20
14.79153891945496
 30
0.0
 10
178.0429706255993
 20
14.94135231520991
 30
0.0
 10
178.0458811522822
 20
15.17989612510105
 30
0.0
 10
178.0259521041172
 20
15.544865098687
 30
0.0
 10
178.0750433936257
 20
15.80799631993412
 30
0.0
 10
177.9177951509191
 20
16.21928904947751
 30
0.0
 10
178.0762112872432
 20
16.16398282551748
 30
0.0
 10
178.1311680478639
 20
16.16199686500175
 30
0.0
 10
178.1827887766751
 20
16.16264778248253
 30
0.0
 10
178.2713198965376
 20
16.20369527738245
 30
0.0
 10
178.220489830318
 20
16.05696326622986
 30
0.0
 10
178.2313389930294
 20
15.95019971954433
 30
0.0
 10
178.2166036994859
 20
15.79085705414112
 30
0.0
 10
178.2099976446215
 20
15.62853061652874
 30
0.0
 10
178.2014961399926
 20
15.45992521892395
 30
0.0
 10
178.1943227202209
 20
15.29814814703541
 30
0.0
 10
178.18890632154
 20
15.15422331457932
 30
0.0
 10
178.1871713967659
 20
15.03437493466925
 30
0.0
 10
178.187544067233
 20
14.92686101590515
 30
0.0
 10
178.1873656126273
 20
14.81820024645586
 30
0.0
 10
178.187701086315
 20
14.6995357016553
 30
0.0
 10
178.1890040622195
 20
14.57555163512741
 30
0.0
 10
178.1908887351585
 20
14.44858294171104
 30
0.0
 10
178.1925004454861
 20
14.32153861551032
 30
0.0
 10
178.1941403137441
 20
14.19854884492177
 30
0.0
 10
178.1962570745762
 20
14.08300931383759
 30
0.0
 10
178.1963848422374
 20
13.98090903955837
 30
0.0
 10
178.2006514396565
 20
13.89009848838156
 30
0.0
 10
178.19084400853
 20
13.83213621208786
 30
0.0
 10
178.21184747717
 20
13.76517130132029
 30
0.0
 10
178.1725639739907
 20
13.77291153966688
 30
0.0
 10
177.9595307117755
 20
13.75755254145191
 30
0.0
 10
177.7636297943199
 20
14.31403058094472
 30
0.0
 10
177.4611197631555
 20
14.5755603534851
 30
0.0
 10
177.3067935648032
 20
14.70898038201724
 30
0.0
 11
177.3067935648032
 21
14.70898038201724
 31
0.0
 11
176.8595529338522
 21
15.18757635411977
 31
0.0
 11
176.4124049070654
 21
15.6635264928897
 31
0.0
 11
176.4089664262504
 21
15.55086249986232
 31
0.0
 11
176.4055610183511
 21
15.4055753818431
 31
0.0
 11
176.4029636920285
 21
15.21465645827968
 31
0.0
 11
176.4021126156614
 21
14.96521170139757
 31
0.0
 11
176.40252392303
 21
14.8843980295428
 31
0.0
 11
176.4038420329828
 21
14.78640628477561
 31
0.0
 11
176.4055192267729
 21
14.67713557299739
 31
0.0
 11
176.4072367127529
 21
14.56282454872039
 31
0.0
 11
176.4094007838783
 21
14.44497802965265
 31
0.0
 11
176.4124049070654
 21
14.32545802100199
 31
0.0
 11
176.4158359733149
 21
14.20933349846156
 31
0.0
 11
176.4192928930009
 21
14.10186746550229
 31
0.0
 11
176.4227085253099
 21
14.00510162351264
 31
0.0
 11
176.4261896983804
 21
13.92125406276972
 31
0.0
 11
176.4296006184323
 21
13.85632862007759
 31
0.0
 11
176.4330776843159
 21
13.81626739612927
 31
0.0
 11
176.3754263821583
 21
13.82145433189185
 31
0.0
 11
176.312674631832
 21
13.82315538223862
 31
0.0
 11
176.2464251717168
 21
13.82145433189185
 31
0.0
 11
176.1853747739686
 21
13.81626739612927
 31
0.0
 11
176.1926772737824
 21
13.8653189412559
 31
0.0
 11
176.2008793569065
 21
13.94356725720855
 31
0.0
 11
176.2090098822359
 21
14.04551893253029
 31
0.0
 11
176.2163406441408
 21
14.16542920159752
 31
0.0
 11
176.2236358280433
 21
14.30005912343889
 31
0.0
 11
176.2318444255607
 21
14.44586107652745
 31
0.0
 11
176.2395504149476
 21
14.59715203135073
 31
0.0
 11
176.2455763002104
 21
14.74850913200734
 31
0.0
 11
176.2503046247427
 21
14.89817951391435
 31
0.0
 11
176.2541928972131
 21
15.04435739582222
 31
0.0
 11
176.2567527408976
 21
15.18111831592696
 31
0.0
 11
176.2576324804585
 21
15.3023085068689
 31
0.0
 11
176.2571926106781
 21
15.60939715262544
 31
0.0
 11
176.2559126888358
 21
15.86997204839365
 31
0.0
 11
176.2528658717903
 21
16.07719922716125
 31
0.0
 11
176.2473049112774
 21
16.22421385386062
 31
0.0
 11
176.261572812148
 21
16.22421385386062
 31
0.0
 11
176.2880703423363
 21
16.22421385386062
 31
0.0
 11
176.3023382432069
 21
16.22421385386062
 31
0.0
 11
176.5194743650288
 21
15.98910179662773
 31
0.0
 11
176.751274412309
 21
15.73751281231562
 31
0.0
 11
176.989481601885
 21
15.4794955554357
 31
0.0
 11
177.2260074557532
 21
15.22497079855489
 31
0.0
 11
177.4555698717716
 21
14.97899759549137
 31
0.0
 11
177.6731797360114
 21
14.74678934034107
 31
0.0
 11
177.8713724913718
 21
14.538266805671
 31
0.0
 11
178.0430143099097
 21
14.36326697932589
 31
0.0
 11
178.0430143099097
 21
14.38918210687043
 31
0.0
 11
178.0430143099097
 21
14.45601585685371
 31
0.0
 11
178.0430143099097
 21
14.54740078030025
 31
0.0
 11
178.0430143099097
 21
14.64696942823453
 31
0.0
 11
178.0430143099097
 21
14.73835435168106
 31
0.0
 11
178.0430143099097
 21
14.80518810166435
 31
0.0
 11
178.0430143099097
 21
14.83110322920889
 31
0.0
 11
178.041723363762
 21
15.18755430550867
 31
0.0
 11
178.0378461155969
 21
15.53450684014415
 31
0.0
 11
178.0296197790013
 21
15.86693815950551
 31
0.0
 11
178.0154535467239
 21
16.17960510387179
 31
0.0
 11
178.0790351249629
 21
16.16666367158334
 31
0.0
 11
178.1324170159622
 21
16.16238072887607
 31
0.0
 11
178.1805381084844
 21
16.16666367158334
 31
0.0
 11
178.2424836798208
 21
16.17960510387179
 31
0.0
 11
178.2351216487586
 21
16.084981284451
 31
0.0
 11
178.2269790968829
 21
15.95257496503964
 31
0.0
 11
178.2183705364016
 21
15.79600336785655
 31
0.0
 11
178.2097547223226
 21
15.6291659373427
 31
0.0
 11
178.20161878503
 21
15.4589032550936
 31
0.0
 11
178.1942501393846
 21
15.292060312427
 31
0.0
 11
178.1891406931533
 21
15.14329943572809
 31
0.0
 11
178.1874503478915
 21
15.02722121527101
 31
0.0
 11
178.1874503478915
 21
14.93258747397519
 31
0.0
 11
178.1874503478915
 21
14.82077565976707
 31
0.0
 11
178.1878461204508
 21
14.70123801222749
 31
0.0
 11
178.1890819450719
 21
14.57660052093919
 31
0.0
 11
178.1908392193328
 21
14.44883212687391
 31
0.0
 11
178.1925303477619
 21
14.32028982655879
 31
0.0
 11
178.1942876220226
 21
14.19558288214555
 31
0.0
 11
178.1959787504516
 21
14.07947489606349
 31
0.0
 11
178.1972884379182
 21
13.97495896727017
 31
0.0
 11
178.1976985420746
 21
13.88517371555652
 31
0.0
 11
178.1976985420746
 21
13.81891763918416
 31
0.0
 11
178.1976985420746
 21
13.77165864614041
 31
0.0
 11
178.1736699662987
 21
13.77165864614041
 31
0.0
 11
178.1496413905228
 21
13.77165864614041
 31
0.0
 11
177.7410729200434
 21
14.2346673526219
 31
0.0
 11
177.3067935648032
 21
14.70898038201724
 31
0.0
  0
SPLINE
  5
A8
102
{ACAD_REACTORS
330
C5
102
}
330
48
100
AcDbEntity
  8
_U_30EC_U_30A4_U_30E4_U_30FC_1
  6
Continuous
 62
     2
100
AcDbSpline
210
0.0
220
0.0
230
1.0
 70
    11
 71
     3
 72
   110
 73
   106
 74
   104
 42
0.000000001
 43
0.0000000001
 44
0.00000001
 40
0.0
 40
0.0
 40
0.0
 40
0.0
 40
0.2203406257277737
 40
0.4407808782838091
 40
0.5952494494615352
 40
0.7488431659393073
 40
0.9023581831309057
 40
1.056801968670404
 40
1.210736449099933
 40
1.363041386539811
 40
1.515315729683155
 40
1.669377239148077
 40
1.72161165275656
 40
1.773199502942943
 40
1.824933793209993
 40
1.877110426487969
 40
1.982682281206704
 40
2.078781667087513
 40
2.172809640822262
 40
2.271937807378916
 40
2.378349933379281
 40
2.49413155773647
 40
2.626681683943604
 40
2.783145050796031
 40
2.890701232940889
 40
2.993130312454789
 40
3.099869730691767
 40
3.22023781669126
 40
3.352695482737549
 40
3.4817328063898
 40
3.593499473690331
 40
3.674323013331845
 40
3.817951711952795
 40
3.946167120793821
 40
4.061405053453478
 40
4.166480796003147
 40
4.262478775059185
 40
4.350736673551141
 40
4.433071991254026
 40
4.511216293814629
 40
4.564262454117951
 40
4.618474415571571
 40
4.670128488754165
 40
4.722296879126364
 40
4.819540945314289
 40
4.931194984128089
 40
5.049996040257731
 40
5.168643755415276
 40
5.283970811762516
 40
5.392260784910313
 40
5.486512254876388
 40
5.559178233949815
 40
5.591425852853482
 40
5.626215969637865
 40
5.667155838674406
 40
5.717449290214218
 40
5.738402360944831
 40
5.784499116553799
 40
5.830595872164767
 40
5.851548942897625
 40
5.873019280661739
 40
5.924217778408281
 40
5.985325662817661
 40
6.036524160567677
 40
6.057994498334206
 40
6.236847789607459
 40
6.381409928945631
 40
6.493190424178661
 40
6.574067534230471
 40
6.691018086205537
 40
6.814881554220483
 40
6.944307823240435
 40
7.071266716066059
 40
7.193488604461876
 40
7.309042773128103
 40
7.414007203170785
 40
7.505140441886485
 40
7.531150360599637
 40
7.559221645322222
 40
7.587202218920881
 40
7.612569159499093
 40
7.66255080948097
 40
7.702878875764095
 40
7.857328205230881
 40
8.010799568088526
 40
8.165256399657476
 40
8.322232698713815
 40
8.47956485501653
 40
8.635216230290734
 40
8.790882550925652
 40
8.948305154947217
 40
9.168271839032908
 40
9.38735898098718
 40
9.608047961033423
 40
9.832914234792625
 40
9.85833869496296
 40
9.925366817229968
 40
10.02013071422755
 40
10.12876249858994
 40
10.23739428295244
 40
10.33215817995186
 40
10.39918630222389
 40
10.42461076239778
 40
10.64992019336938
 40
10.87188524531183
 40
10.87188524531183
 40
10.87188524531183
 40
10.87188524531183
 10
179.9057788376629
 20
15.7392326039819
 30
0.0
 10
179.9092864933552
 20
15.80616462073804
 30
0.0
 10
179.9163033987673
 20
15.94005891915859
 30
0.0
 10
179.8198027599083
 20
16.2254855497147
 30
0.0
 10
180.0510134726119
 20
16.16284386190284
 30
0.0
 10
180.1919290057167
 20
16.1700155405599
 30
0.0
 10
180.3490417757599
 20
16.16235883078244
 30
0.0
 10
180.5025913427298
 20
16.16252752283039
 30
0.0
 10
180.6545104935092
 20
16.16182040535433
 30
0.0
 10
180.8142214813242
 20
16.17210158351639
 30
0.0
 10
180.9408972601129
 20
16.15496511080751
 30
0.0
 10
181.1370821122091
 20
16.22727260107145
 30
0.0
 10
181.1034395279089
 20
16.12640699080117
 30
0.0
 10
181.1052011317195
 20
16.0761925394767
 30
0.0
 10
181.1027342073469
 20
16.02712335586466
 30
0.0
 10
181.1347076966022
 20
15.94063490847
 30
0.0
 10
181.0010399903267
 20
15.98997438608336
 30
0.0
 10
180.9172208688067
 20
15.98430634314168
 30
0.0
 10
180.8173861139334
 20
15.99465516706298
 30
0.0
 10
180.7186576720157
 20
16.00086450411087
 30
0.0
 10
180.612153277112
 20
16.00697763816777
 30
0.0
 10
180.4910511698071
 20
16.01588883484586
 30
0.0
 10
180.3703381502465
 20
16.00521605912383
 30
0.0
 10
180.1812553843448
 20
16.06468503080367
 30
0.0
 10
180.2129028505321
 20
15.9055832007754
 30
0.0
 10
180.1995563316844
 20
15.80839128339904
 30
0.0
 10
180.1974958426461
 20
15.69634065110103
 30
0.0
 10
180.1958188044682
 20
15.5769968562935
 30
0.0
 10
180.1973336794244
 20
15.4503259215511
 30
0.0
 10
180.1956582478681
 20
15.32301588016117
 30
0.0
 10
180.2058844271668
 20
15.22451566404463
 30
0.0
 10
180.1779006596593
 20
15.0838870262563
 30
0.0
 10
180.3508029999316
 20
15.13989551134095
 30
0.0
 10
180.4645020202782
 20
15.12719951478498
 30
0.0
 10
180.584015167225
 20
15.13448377051256
 30
0.0
 10
180.6888491425082
 20
15.13878017056754
 30
0.0
 10
180.7843084898623
 20
15.14330568258977
 30
0.0
 10
180.8763823507043
 20
15.151492011462
 30
0.0
 10
180.947655178245
 20
15.14643850638111
 30
0.0
 10
181.0544931705696
 20
15.18536425031673
 30
0.0
 10
181.0226603598047
 20
15.10517122005879
 30
0.0
 10
181.026616450394
 20
15.05562936846033
 30
0.0
 10
181.0234502392024
 20
15.00557478039818
 30
0.0
 10
181.0550791490596
 20
14.92128847612021
 30
0.0
 10
180.9210133677702
 20
14.97425365495156
 30
0.0
 10
180.8292322793211
 20
14.96540080890442
 30
0.0
 10
180.7079729189613
 20
14.97570049965154
 30
0.0
 10
180.5914113119783
 20
14.97748911767503
 30
0.0
 10
180.4783375745889
 20
14.97787017109694
 30
0.0
 10
180.3679246308483
 20
14.9841544947218
 30
0.0
 10
180.2898124067851
 20
14.97189133255363
 30
0.0
 10
180.1913625833655
 20
15.00453887616127
 30
0.0
 10
180.2012355173571
 20
14.94769748054206
 30
0.0
 10
180.1973923244414
 20
14.91392130557984
 30
0.0
 10
180.196678988428
 20
14.87119604709411
 30
0.0
 10
180.1963369642986
 20
14.83401607262152
 30
0.0
 10
180.1963834255357
 20
14.79487237370771
 30
0.0
 10
180.1963649429937
 20
14.75716849497685
 30
0.0
 10
180.1963703431818
 20
14.71944955232403
 30
0.0
 10
180.1963697214211
 20
14.6899432474515
 30
0.0
 10
180.1963698151557
 20
14.65873577699301
 30
0.0
 10
180.1963704287932
 20
14.61414424908085
 30
0.0
 10
180.1963671499347
 20
14.5596395650885
 30
0.0
 10
180.1963759623492
 20
14.51505540201448
 30
0.0
 10
180.1963359653427
 20
14.4311780858574
 30
0.0
 10
180.1976024270267
 20
14.31737520677678
 30
0.0
 10
180.1950274117853
 20
14.16830395933709
 30
0.0
 10
180.206500938173
 20
14.06597203813905
 30
0.0
 10
180.1823506222274
 20
13.93338903885835
 30
0.0
 10
180.3332993946487
 20
13.97895732272021
 30
0.0
 10
180.4428436671566
 20
13.96427012162349
 30
0.0
 10
180.5733970473931
 20
13.96920435125063
 30
0.0
 10
180.6990312209525
 20
13.97257705323361
 30
0.0
 10
180.8188730625612
 20
13.97711497498773
 30
0.0
 10
180.9391362611437
 20
13.99048536182006
 30
0.0
 10
181.0222761663526
 20
13.98068712782593
 30
0.0
 10
181.1456080421085
 20
14.04126214623319
 30
0.0
 10
181.1244269203968
 20
13.9853246013402
 30
0.0
 10
181.1235950270128
 20
13.95939249372346
 30
0.0
 10
181.1218963707569
 20
13.93197256190939
 30
0.0
 10
181.1217974888841
 20
13.89738195206385
 30
0.0
 10
181.1203659301341
 20
13.86050408220768
 30
0.0
 10
181.15328041922
 20
13.76846841021806
 30
0.0
 10
180.9551306988119
 20
13.84132015974832
 30
0.0
 10
180.8300548294901
 20
13.81825726508605
 30
0.0
 10
180.6673071295168
 20
13.82454021985786
 30
0.0
 10
180.5129366450011
 20
13.82260943909925
 30
0.0
 10
180.3566670436955
 20
13.82393762599268
 30
0.0
 10
180.1970544465292
 20
13.82059872487862
 30
0.0
 10
180.0540326342248
 20
13.8326579572824
 30
0.0
 10
179.8197144881639
 20
13.76952001976918
 30
0.0
 10
179.9173810751208
 20
14.05620527466318
 30
0.0
 10
179.900686878007
 20
14.2498830814266
 30
0.0
 10
179.9146296709695
 20
14.47848242880295
 30
0.0
 10
179.9142987846645
 20
14.63384593955048
 30
0.0
 10
179.9143078119274
 20
14.73966336444125
 30
0.0
 10
179.9143055876327
 20
14.80205784124214
 30
0.0
 10
179.91430655519
 20
14.89220425248327
 30
0.0
 10
179.9143065473272
 20
14.99621167157438
 30
0.0
 10
179.9143053861114
 20
15.10022131375296
 30
0.0
 10
179.9143090971513
 20
15.19036243688768
 30
0.0
 10
179.9143011051063
 20
15.25276803097215
 30
0.0
 10
179.9143334275028
 20
15.35868835961119
 30
0.0
 10
179.9131440788331
 20
15.5162671654474
 30
0.0
 10
179.9082216489267
 20
15.66528219822065
 30
0.0
 10
179.9057788376629
 20
15.7392326039819
 30
0.0
 11
179.9057788376629
 21
15.7392326039819
 31
0.0
 11
179.8966918223751
 21
15.95938578101018
 31
0.0
 11
179.8868249573144
 21
16.17960510387179
 31
0.0
 11
180.0411575141411
 21
16.17312391463728
 31
0.0
 11
180.1946500189057
 21
16.16754892331924
 31
0.0
 11
180.3481160653377
 21
16.16367167505631
 31
0.0
 11
180.502554455495
 21
16.16238072887607
 31
0.0
 11
180.6564835227484
 21
16.16367167505631
 31
0.0
 11
180.8087391004611
 21
16.16754892331924
 31
0.0
 11
180.9609113551085
 21
16.17312391463728
 31
0.0
 11
181.1148364762494
 21
16.17960510387179
 31
0.0
 11
181.1070811703134
 21
16.12794961777358
 31
0.0
 11
181.1044991623602
 21
16.07642642334204
 31
0.0
 11
181.1070811703134
 21
16.0247566056466
 31
0.0
 11
181.1148364762494
 21
15.97315954836784
 31
0.0
 11
181.0094874054422
 21
15.98001446156057
 31
0.0
 11
180.9136375700071
 21
15.98693552058657
 31
0.0
 11
180.8198593171914
 21
15.99378381919598
 31
0.0
 11
180.7209679915892
 21
16.0006321178054
 31
0.0
 11
180.6147532199935
 21
16.00710999974824
 31
0.0
 11
180.4991060528049
 21
16.01268829835794
 31
0.0
 11
180.3666126447269
 21
16.01656554662088
 31
0.0
 11
180.2101546018434
 21
16.01785649280112
 31
0.0
 11
180.2062663293732
 21
15.91037061609186
 31
0.0
 11
180.2015380048411
 21
15.80805072896464
 31
0.0
 11
180.197660756676
 21
15.70138175329687
 31
0.0
 11
180.1963698105283
 21
15.5810205901325
 31
0.0
 11
180.1967799146847
 21
15.44856355891565
 31
0.0
 11
180.1980896021513
 21
15.31953288186455
 31
0.0
 11
180.199407457706
 21
15.20777398432308
 31
0.0
 11
180.1998191153671
 21
15.12695149302384
 31
0.0
 11
180.3434452935885
 21
15.1278025694125
 31
0.0
 11
180.4716343930769
 21
15.13039989580077
 31
0.0
 11
180.5868078221806
 21
15.13425509545254
 31
0.0
 11
180.6917756312231
 21
15.13901649302076
 31
0.0
 11
180.7876346289432
 21
15.14418027774175
 31
0.0
 11
180.8757413374204
 21
15.14934406246267
 31
0.0
 11
180.9578881438507
 21
15.15491243919739
 31
0.0
 11
181.0357692335582
 21
15.16132086801524
 31
0.0
 11
181.0280180445197
 21
15.10884407115336
 31
0.0
 11
181.0254328449328
 21
15.05469378470857
 31
0.0
 11
181.0280180445197
 21
15.00310444444367
 31
0.0
 11
181.0357692335582
 21
14.95151510417882
 31
0.0
 11
180.9389813454025
 21
14.96092324653757
 31
0.0
 11
180.8275950722026
 21
14.96865128473012
 31
0.0
 11
180.7089261429384
 21
14.97425273438145
 31
0.0
 11
180.5903167449224
 21
14.97726788195011
 31
0.0
 11
180.4750025117532
 21
14.97898767361638
 31
0.0
 11
180.3667261950711
 21
14.98070746528257
 31
0.0
 11
180.2724839317719
 21
14.98202486979616
 31
0.0
 11
180.1998191153671
 21
14.98243607639329
 31
0.0
 11
180.199407457706
 21
14.95019108508191
 31
0.0
 11
180.1980896021513
 21
14.91542593752117
 31
0.0
 11
180.1967799146847
 21
14.87450702260084
 31
0.0
 11
180.1963698105283
 21
14.82421524309951
 31
0.0
 11
180.1963698105283
 21
14.80326217235821
 31
0.0
 11
180.1963698105283
 21
14.75716541672736
 31
0.0
 11
180.1963698105283
 21
14.71106866109651
 31
0.0
 11
180.1963698105283
 21
14.69011559035521
 31
0.0
 11
180.1963698105283
 21
14.6686452525828
 31
0.0
 11
180.1963698105283
 21
14.61744675481784
 31
0.0
 11
180.1963698105283
 21
14.55633887038868
 31
0.0
 11
180.1963698105283
 21
14.50514037262371
 31
0.0
 11
180.1963698105283
 21
14.4836700348513
 31
0.0
 11
180.1967799146847
 21
14.30481721371547
 31
0.0
 11
180.1980896021513
 21
14.16026100715442
 31
0.0
 11
180.200286858972
 21
14.04850210961289
 31
0.0
 11
180.2032586986996
 21
13.96767961831365
 31
0.0
 11
180.3202092517458
 21
13.96767961831365
 31
0.0
 11
180.4440727208757
 21
13.96767961831365
 31
0.0
 11
180.5734925526433
 21
13.9689705644939
 31
0.0
 11
180.7003922282255
 21
13.97284781275682
 31
0.0
 11
180.8224658067984
 21
13.97886708358865
 31
0.0
 11
180.9377587499474
 21
13.98663260442002
 31
0.0
 11
181.042175457353
 21
13.99734161483402
 31
0.0
 11
181.1320599255459
 21
14.01237656274692
 31
0.0
 11
181.1264254031202
 21
13.98698427976715
 31
0.0
 11
181.1234433285434
 21
13.95907184053802
 31
0.0
 11
181.1221339881211
 21
13.93112191867002
 31
0.0
 11
181.1217235369206
 21
13.90575829888472
 31
0.0
 11
181.1243087365075
 21
13.85584355063326
 31
0.0
 11
181.1320599255459
 21
13.81626739612927
 31
0.0
 11
180.9776977178355
 21
13.82145433189185
 31
0.0
 11
180.8242357818776
 21
13.82315538223862
 31
0.0
 11
180.6697789496494
 21
13.82315538223862
 31
0.0
 11
180.5128026496779
 21
13.82315538223862
 31
0.0
 11
180.3554704921547
 21
13.82315538223862
 31
0.0
 11
180.1998191153671
 21
13.82315538223862
 31
0.0
 11
180.0441620874252
 21
13.82145433189185
 31
0.0
 11
179.8868249573144
 21
13.81626739612927
 31
0.0
 11
179.8966918223751
 21
14.0360126738521
 31
0.0
 11
179.9057788376629
 21
14.25491128490851
 31
0.0
 11
179.9121721518411
 21
14.47550763902002
 31
0.0
 11
179.914306345502
 21
14.70036378479715
 31
0.0
 11
179.914306345502
 21
14.72578824496874
 31
0.0
 11
179.914306345502
 21
14.79281636723931
 31
0.0
 11
179.914306345502
 21
14.88758026424253
 31
0.0
 11
179.914306345502
 21
14.99621204861207
 31
0.0
 11
179.914306345502
 21
15.10484383298162
 31
0.0
 11
179.914306345502
 21
15.19960772998484
 31
0.0
 11
179.914306345502
 21
15.2666358522554
 31
0.0
 11
179.914306345502
 21
15.292060312427
 31
0.0
 11
179.9121721518411
 21
15.51735963528735
 31
0.0
 11
179.9057788376629
 21
15.7392326039819
 31
0.0
  0
SPLINE
  5
A9
102
{ACAD_REACTORS
330
C6
102
}
330
48
100
AcDbEntity
  8
_U_30EC_U_30A4_U_30E4_U_30FC_1
  6
Continuous
 62
     2
100
AcDbSpline
210
0.0
220
0.0
230
1.0
 70
    11
 71
     3
 72
    47
 73
    43
 74
    41
 42
0.000000001
 43
0.0000000001
 44
0.00000001
 40
0.0
 40
0.0
 40
0.0
 40
0.0
 40
0.2207912809957213
 40
0.4459404186303042
 40
0.4902387190459256
 40
0.5327473892722214
 40
0.5742260451225253
 40
0.6155432630560546
 40
0.6568164066315464
 40
0.6982511618780385
 40
0.7407663929316899
 40
0.7851366743175241
 40
1.010288833836324
 40
1.231080507002174
 40
1.4517652436524
 40
1.676638205891688
 40
1.720461045359657
 40
1.830018144043522
 40
1.972442372353153
 40
2.114866600677522
 40
2.224423699395147
 40
2.268246538883388
 40
2.493628801207219
 40
2.715602830286619
 40
2.934211330706372
 40
3.149502369855366
 40
3.231387784851012
 40
3.318231873854076
 40
3.405143198198035
 40
3.486970301720472
 40
3.702258172493915
 40
3.920866283534145
 40
4.142839325931932
 40
4.368221903865396
 40
4.412044743359876
 40
4.521601842095891
 40
4.664026070452372
 40
4.80645029880908
 40
4.916007397546772
 40
4.959830237043096
 40
5.18470351584713
 40
5.405387250767502
 40
5.405387250767502
 40
5.405387250767502
 40
5.405387250767502
 10
182.6507427258656
 20
15.73406440953872
 30
0.0
 10
182.6568139420014
 20
15.79758482501211
 30
0.0
 10
182.6690762107253
 20
15.92587938689626
 30
0.0
 10
182.5604706879424
 20
16.20166220174076
 30
0.0
 10
182.6761985896615
 20
16.17188133432053
 30
0.0
 10
182.7171842509026
 20
16.1676555626282
 30
0.0
 10
182.7591205797529
 20
16.16310446389607
 30
0.0
 10
182.8004196625721
 20
16.16201982929485
 30
0.0
 10
182.8417032115566
 20
16.16310338195228
 30
0.0
 10
182.8836148270658
 20
16.16766112711343
 30
0.0
 10
182.924598354903
 20
16.17187430209729
 30
0.0
 10
183.04049228435
 20
16.20177611317533
 30
0.0
 10
182.9295652727467
 20
15.92339806609891
 30
0.0
 10
182.9574856365278
 20
15.74283140824952
 30
0.0
 10
182.940426734698
 20
15.50961042346471
 30
0.0
 10
182.9414637282115
 20
15.34906622543146
 30
0.0
 10
182.9414099399415
 20
15.22284817558722
 30
0.0
 10
182.9414277372493
 20
15.12428963336241
 30
0.0
 10
182.941418858109
 20
14.99280702442963
 30
0.0
 10
182.9414263928045
 20
14.8613284496865
 30
0.0
 10
182.9414129405139
 20
14.76276222694091
 30
0.0
 10
182.9414531717503
 20
14.63639735624152
 30
0.0
 10
182.9406746403828
 20
14.4748206882287
 30
0.0
 10
182.9565958319278
 20
14.24361821892914
 30
0.0
 10
182.9333468885418
 20
14.05874351972001
 30
0.0
 10
183.0360183444377
 20
13.78935602770055
 30
0.0
 10
182.8820238362847
 20
13.82660112685817
 30
0.0
 10
182.8004129802843
 20
13.82137994680534
 30
0.0
 10
182.7188192292593
 20
13.8266062037835
 30
0.0
 10
182.5648513666854
 20
13.78937069885386
 30
0.0
 10
182.6674183421928
 20
14.0587512986288
 30
0.0
 10
182.6442045316099
 20
14.24361585325414
 30
0.0
 10
182.6600444655149
 20
14.47482218565638
 30
0.0
 10
182.6593296313439
 20
14.63639712308503
 30
0.0
 10
182.6593664569916
 20
14.7627623121052
 30
0.0
 10
182.6593549000281
 20
14.86132756635981
 30
0.0
 10
182.6593575019224
 20
14.9928112741722
 30
0.0
 10
182.6593648531791
 20
15.124275480312
 30
0.0
 10
182.6593442541362
 20
15.22287786275325
 30
0.0
 10
182.6594082192039
 20
15.34896149354427
 30
0.0
 10
182.65817339476
 20
15.51210091383771
 30
0.0
 10
182.6532040396756
 20
15.66054183777549
 30
0.0
 10
182.6507427258656
 20
15.73406440953872
 30
0.0
 11
182.6507427258656
 21
15.73406440953872
 31
0.0
 11
182.641732820039
 21
15.95467178795577
 31
0.0
 11
182.6318769706157
 21
16.17960510387179
 31
0.0
 11
182.6756985840812
 21
16.17312391463728
 31
0.0
 11
182.7178400934226
 21
16.16754892331924
 31
0.0
 11
182.7591371409801
 21
16.16367167505631
 31
0.0
 11
182.8004341885376
 21
16.16238072887607
 31
0.0
 11
182.8416871388741
 21
16.16367167505631
 31
0.0
 11
182.8829400892108
 21
16.16754892331924
 31
0.0
 11
182.9250882131354
 21
16.17312391463728
 31
0.0
 11
182.9689825870156
 21
16.17960510387179
 31
0.0
 11
182.9590577693902
 21
15.95467178795577
 31
0.0
 11
182.9500384208321
 21
15.73406440953872
 31
0.0
 11
182.9435638463446
 21
15.51347467001054
 31
0.0
 11
182.9414218238297
 21
15.28861190965007
 31
0.0
 11
182.9414218238297
 21
15.24478907015486
 31
0.0
 11
182.9414218238297
 21
15.13523197141682
 31
0.0
 11
182.9414218238297
 21
14.99280774305737
 31
0.0
 11
182.9414218238297
 21
14.85038351469792
 31
0.0
 11
182.9414218238297
 21
14.74082641595989
 31
0.0
 11
182.9414218238297
 21
14.69700357646467
 31
0.0
 11
182.9435638463446
 21
14.47163149318766
 31
0.0
 11
182.9500384208321
 21
14.2497519099098
 31
0.0
 11
182.9590577693902
 21
14.03132954885329
 31
0.0
 11
182.9689825870156
 21
13.81626739612927
 31
0.0
 11
182.8872616168781
 21
13.82145433189185
 31
0.0
 11
182.8004341885376
 21
13.82315538223862
 31
0.0
 11
182.713539511935
 21
13.82145433189185
 31
0.0
 11
182.6318769706157
 21
13.81626739612927
 31
0.0
 11
182.641732820039
 21
14.03132954885329
 31
0.0
 11
182.6507427258656
 21
14.2497519099098
 31
0.0
 11
182.6571833838809
 21
14.47163149318766
 31
0.0
 11
182.6593583588034
 21
14.69700357646467
 31
0.0
 11
182.6593583588034
 21
14.74082641595988
 31
0.0
 11
182.6593583588034
 21
14.85038351469792
 31
0.0
 11
182.6593583588034
 21
14.99280774305737
 31
0.0
 11
182.6593583588034
 21
15.13523197141682
 31
0.0
 11
182.6593583588034
 21
15.24478907015486
 31
0.0
 11
182.6593583588034
 21
15.28861190965007
 31
0.0
 11
182.6571833838809
 21
15.51347467001054
 31
0.0
 11
182.6507427258656
 21
15.73406440953872
 31
0.0
  0
SPLINE
  5
AA
102
{ACAD_REACTORS
330
C7
102
}
330
48
100
AcDbEntity
  8
_U_30EC_U_30A4_U_30E4_U_30FC_1
  6
Continuous
 62
     2
100
AcDbSpline
210
0.0
220
0.0
230
1.0
 70
    11
 71
     3
 72
   118
 73
   114
 74
   112
 42
0.000000001
 43
0.0000000001
 44
0.00000001
 40
0.0
 40
0.0
 40
0.0
 40
0.0
 40
0.1054708162973251
 40
0.2466098270051904
 40
0.3965912874591242
 40
0.5285525069753984
 40
0.6156245055642036
 40
0.643143410579718
 40
0.7036850037986053
 40
0.7642265984504114
 40
0.7917455052354586
 40
0.9287404319989658
 40
1.106572819088004
 40
1.287544879681004
 40
1.317578308030521
 40
1.39992803085716
 40
1.522968204799934
 40
1.675072986590555
 40
1.844616533180633
 40
2.019973001638697
 40
2.189516548880009
 40
2.341621331585348
 40
2.464661506320484
 40
2.547011229647048
 40
2.577044658168012
 40
2.603797890893054
 40
2.662655002908798
 40
2.721512114949581
 40
2.748265347702761
 40
2.774215307344837
 40
2.845959313407167
 40
2.954338556588366
 40
3.090194227585544
 40
3.244367517100507
 40
3.407699615844267
 40
3.571031714539417
 40
3.725205003920093
 40
3.861060674729593
 40
3.969439917716286
 40
4.041183923628958
 40
4.067133883212952
 40
4.31188674601212
 40
4.547897258335518
 40
4.764747083043959
 40
4.952749679951761
 40
5.045772974195873
 40
5.137862019644975
 40
5.330543169793025
 40
5.553448265244031
 40
5.795083855888175
 40
6.043293412177239
 40
6.285761695541186
 40
6.313902908752699
 40
6.384255941793288
 40
6.475714884766877
 40
6.567173827758911
 40
6.637526860839689
 40
6.665668074074052
 40
6.692018920328024
 40
6.749990782071094
 40
6.807962643790463
 40
6.834313490017937
 40
6.856393084245216
 40
6.913335195649868
 40
6.991194817302503
 40
7.076026942283793
 40
7.153886563725312
 40
7.210828674844866
 40
7.232908268931201
 40
7.258199334923722
 40
7.324875781592372
 40
7.419142481925029
 40
7.527204308841968
 40
7.635266135230546
 40
7.729532834168532
 40
7.796209279292855
 40
7.821500344594801
 40
7.8446529888509
 40
7.899863140541679
 40
7.965759128053788
 40
8.02096927977113
 40
8.044121924046568
 40
8.069356610160657
 40
8.109134395441428
 40
8.13223810019114
 40
8.193147867786506
 40
8.279261678876678
 40
8.377977512673892
 40
8.476693347146675
 40
8.56280716041173
 40
8.623716930826516
 40
8.646820636853468
 40
8.67198879377428
 40
8.734909185828164
 40
8.816705695188906
 40
8.898502204815449
 40
8.96142259737791
 40
8.986590754551022
 40
9.012941600733177
 40
9.070913462380261
 40
9.128885324081757
 40
9.155236170325077
 40
9.180404327929148
 40
9.243324721948165
 40
9.325121234211958
 40
9.40691774663764
 40
9.469838141978096
 40
9.495006288270842
 40
9.517811184378985
 40
9.572192090486984
 40
9.637098333281214
 40
9.691479239515413
 40
9.714284125643452
 40
9.714284125643452
 40
9.714284125643452
 40
9.714284125643452
 10
185.2874469028664
 20
15.26889163187719
 30
0.0
 10
185.3090990569048
 20
15.2411186924281
 30
0.0
 10
185.3597257109485
 20
15.17618054561234
 30
0.0
 10
185.4349383202602
 20
15.06891060312899
 30
0.0
 10
185.5248482274357
 20
14.95377438266625
 30
0.0
 10
185.5709169676684
 20
14.85357045748319
 30
0.0
 10
185.6655825294665
 20
14.78434006814944
 30
0.0
 10
185.6204439320424
 20
14.73771639678272
 30
0.0
 10
185.5947047785801
 20
14.69660308866042
 30
0.0
 10
185.5645196708023
 20
14.66065971727937
 30
0.0
 10
185.5193684730573
 20
14.58579782596096
 30
0.0
 10
185.4710504458572
 20
14.80782524253601
 30
0.0
 10
185.3968539713085
 20
14.84510677337712
 30
0.0
 10
185.2836047324618
 20
15.11610202130601
 30
0.0
 10
185.288513357818
 20
15.00095328446229
 30
0.0
 10
185.2868486556317
 20
14.92836675781627
 30
0.0
 10
185.2876830076726
 20
14.80625588483986
 30
0.0
 10
185.2873609540275
 20
14.6591380081046
 30
0.0
 10
185.2875076912466
 20
14.49307063956557
 30
0.0
 10
185.2872950092733
 20
14.32187554608602
 30
0.0
 10
185.2879497252045
 20
14.15552828635498
 30
0.0
 10
185.2859192461151
 20
14.00935173055694
 30
0.0
 10
185.2913460399941
 20
13.8847104747461
 30
0.0
 10
185.2804930868719
 20
13.81718656540627
 30
0.0
 10
185.2956739155565
 20
13.75549061417022
 30
0.0
 10
185.2457895108145
 20
13.76727503897003
 30
0.0
 10
185.2017150342532
 20
13.75943822779969
 30
0.0
 10
185.1582371630212
 20
13.76760441372703
 30
0.0
 10
185.10923467865
 20
13.75538056738468
 30
0.0
 10
185.1218731234835
 20
13.80960667249313
 30
0.0
 10
185.1130182968461
 20
13.86936918907558
 30
0.0
 10
185.1175058770325
 20
13.9792202904437
 30
0.0
 10
185.1157960136003
 20
14.11029975405679
 30
0.0
 10
185.1163550915996
 20
14.26198011444328
 30
0.0
 10
185.1161928768705
 20
14.42211074929953
 30
0.0
 10
185.1162269924686
 20
14.58236865674566
 30
0.0
 10
185.1162514960138
 20
14.73370247520439
 30
0.0
 10
185.1161453543237
 20
14.86582156338601
 30
0.0
 10
185.1164299141942
 20
14.97294802533193
 30
0.0
 10
185.115867554758
 20
15.03808619579473
 30
0.0
 10
185.1180765083698
 20
15.16618957858674
 30
0.0
 10
185.0319435998616
 20
14.79097610391571
 30
0.0
 10
184.955514081851
 20
14.63918193123397
 30
0.0
 10
184.8660040767844
 20
14.47766206446306
 30
0.0
 10
184.7640413217337
 20
14.20471848820171
 30
0.0
 10
184.718797649105
 20
14.36717346596512
 30
0.0
 10
184.610235594168
 20
14.45605432058118
 30
0.0
 10
184.7995791751764
 20
14.6054979496141
 30
0.0
 10
184.8565340545711
 20
14.79749136974923
 30
0.0
 10
184.9717520993362
 20
15.02899622906757
 30
0.0
 10
184.9940151630144
 20
15.21797259759063
 30
0.0
 10
185.1771905152149
 20
15.49454089325932
 30
0.0
 10
185.0538033597563
 20
15.48698978832094
 30
0.0
 10
184.9925684166844
 20
15.48856772366118
 30
0.0
 10
184.9081999617075
 20
15.48882592573673
 30
0.0
 10
184.8204235085976
 20
15.48544845751206
 30
0.0
 10
184.7656768696133
 20
15.4939481498202
 30
0.0
 10
184.7104703026035
 20
15.48048561049788
 30
0.0
 10
184.7222823035547
 20
15.52931442126763
 30
0.0
 10
184.7142496151804
 20
15.57269004896709
 30
0.0
 10
184.7228186104689
 20
15.61509438309572
 30
0.0
 10
184.7102943409168
 20
15.66267796552119
 30
0.0
 10
184.7555101538746
 20
15.65267212995109
 30
0.0
 10
184.8014815562734
 20
15.65894105174061
 30
0.0
 10
184.8777222047721
 20
15.65593561405872
 30
0.0
 10
184.9561296132005
 20
15.65770448278541
 30
0.0
 10
185.0323992648944
 20
15.6546479398166
 30
0.0
 10
185.0783009459486
 20
15.66103971376177
 30
0.0
 10
185.1231733965411
 20
15.65093822978896
 30
0.0
 10
185.1105552275645
 20
15.70157201581898
 30
0.0
 10
185.1191936582718
 20
15.7550126188207
 30
0.0
 10
185.1152361595454
 20
15.8486325513168
 30
0.0
 10
185.1162325068346
 20
15.95112606688924
 30
0.0
 10
185.1171927413084
 20
16.05353270248163
 30
0.0
 10
185.1133211458017
 20
16.14735929609321
 30
0.0
 10
185.1217789814375
 20
16.20036542840353
 30
0.0
 10
185.1093075932846
 20
16.25211435651189
 30
0.0
 10
185.1542106389861
 20
16.23850747226757
 30
0.0
 10
185.1955083836782
 20
16.24100480320585
 30
0.0
 10
185.2595344281062
 20
16.23648060574487
 30
0.0
 10
185.2986111148797
 20
16.22781003043308
 30
0.0
 10
185.3476543498753
 20
16.23515102070686
 30
0.0
 10
185.3225080030601
 20
16.19602896051758
 30
0.0
 10
185.2815901333735
 20
16.20563842455808
 30
0.0
 10
185.2910109616615
 20
16.15540148169778
 30
0.0
 10
185.2855647318757
 20
16.1038594563949
 30
0.0
 10
185.2881699601814
 20
16.0195970758452
 30
0.0
 10
185.2870102202165
 20
15.92559135583408
 30
0.0
 10
185.2883591064242
 20
15.83196865395526
 30
0.0
 10
185.284997010152
 20
15.74679517552223
 30
0.0
 10
185.292095991778
 20
15.69716856072044
 30
0.0
 10
185.2812569154557
 20
15.64993694969989
 30
0.0
 10
185.3304010225256
 20
15.66201674936851
 30
0.0
 10
185.3794877630158
 20
15.65447393363011
 30
0.0
 10
185.4573714280652
 20
15.65686070361433
 30
0.0
 10
185.5350365172906
 20
15.65899381905414
 30
0.0
 10
185.5845393931365
 20
15.65193391922455
 30
0.0
 10
185.634459475065
 20
15.66360151936214
 30
0.0
 10
185.6223198516891
 20
15.61540235371392
 30
0.0
 10
185.6305838229154
 20
15.57249219801236
 30
0.0
 10
185.6223198650794
 20
15.52958201851384
 30
0.0
 10
185.6344594549866
 20
15.48138288754864
 30
0.0
 10
185.5845395158756
 20
15.4930503447151
 30
0.0
 10
185.5350350651214
 20
15.48599202435046
 30
0.0
 10
185.4573784382983
 20
15.48811665228604
 30
0.0
 10
185.3794643865771
 20
15.4905338936576
 30
0.0
 10
185.3304500352728
 20
15.48291848194486
 30
0.0
 10
185.2813246108953
 20
15.49507952557591
 30
0.0
 10
185.2915559988583
 20
15.45073013424158
 30
0.0
 10
185.2856677678064
 20
15.40925436202911
 30
0.0
 10
185.287878830558
 20
15.34915394315302
 30
0.0
 10
185.2874109346158
 20
15.30225782762889
 30
0.0
 10
185.2874386992924
 20
15.27650146418196
 30
0.0
 10
185.2874469028664
 20
15.26889163187719
 30
0.0
 11
185.2874469028664
 21
15.26889163187719
 31
0.0
 11
185.3516977534495
 21
15.18524999634256
 31
0.0
 11
185.434825883551
 21
15.07118889748221
 31
0.0
 11
185.5216831568907
 21
14.94891767195723
 31
0.0
 11
185.5971214371883
 21
14.84064565642876
 31
0.0
 11
185.6459925881637
 21
14.7685821875579
 31
0.0
 11
185.6296821285104
 21
14.74641782124399
 31
0.0
 11
185.593799117273
 21
14.69765621535339
 31
0.0
 11
185.5579161060357
 21
14.6488946094628
 31
0.0
 11
185.5416056463824
 21
14.62673024314889
 31
0.0
 11
185.4763067109457
 21
14.74716139023813
 31
0.0
 11
185.3848434243245
 21
14.89966983670207
 31
0.0
 11
185.2874469028664
 21
15.05219788193142
 31
0.0
 11
185.2874469028664
 21
15.02216445328253
 31
0.0
 11
185.2874469028664
 21
14.93981472956783
 31
0.0
 11
185.2874469028664
 21
14.81677455413528
 31
0.0
 11
185.2874469028664
 21
14.66466977033283
 31
0.0
 11
185.2874469028664
 21
14.49512622150845
 31
0.0
 11
185.2874469028664
 21
14.31976975101009
 31
0.0
 11
185.2874469028664
 21
14.15022620218571
 31
0.0
 11
185.2874469028664
 21
13.99812141838326
 31
0.0
 11
185.2874469028664
 21
13.87508124295071
 31
0.0
 11
185.2874469028664
 21
13.79273151923601
 31
0.0
 11
185.2874469028664
 21
13.76269809058712
 31
0.0
 11
185.260693670042
 21
13.76269809058712
 31
0.0
 11
185.2018365578282
 21
13.76269809058712
 31
0.0
 11
185.1429794456145
 21
13.76269809058712
 31
0.0
 11
185.1162262127901
 21
13.76269809058712
 31
0.0
 11
185.1162262127901
 21
13.7886480503125
 31
0.0
 11
185.1162262127901
 21
13.86039205661208
 31
0.0
 11
185.1162262127901
 21
13.96877130017102
 31
0.0
 11
185.1162262127901
 21
14.10462697167447
 31
0.0
 11
185.1162262127901
 21
14.25880026180761
 31
0.0
 11
185.1162262127901
 21
14.42213236125558
 31
0.0
 11
185.1162262127901
 21
14.58546446070356
 31
0.0
 11
185.1162262127901
 21
14.7396377508367
 31
0.0
 11
185.1162262127901
 21
14.87549342234015
 31
0.0
 11
185.1162262127901
 21
14.98387266589909
 31
0.0
 11
185.1162262127901
 21
15.05561667219867
 31
0.0
 11
185.1162262127901
 21
15.08156663192405
 31
0.0
 11
185.0379865861733
 21
14.84965603302372
 31
0.0
 11
184.9497110789314
 21
14.63077616328678
 31
0.0
 11
184.8544106930056
 21
14.43598991333547
 31
0.0
 11
184.7550964303367
 21
14.27636017379202
 31
0.0
 11
184.7109198342417
 21
14.35822446196599
 31
0.0
 11
184.6588057383491
 21
14.43414885430811
 31
0.0
 11
184.762730259031
 21
14.59640087926757
 31
0.0
 11
184.8629319864746
 21
14.79551465421781
 31
0.0
 11
184.9550446607912
 21
15.01890447916196
 31
0.0
 11
185.0347020220922
 21
15.25398465410319
 31
0.0
 11
185.0975378104891
 21
15.48816947904465
 31
0.0
 11
185.0693965972153
 21
15.48816947904465
 31
0.0
 11
184.9990435640308
 21
15.48816947904465
 31
0.0
 11
184.9075846208909
 21
15.48816947904465
 31
0.0
 11
184.816125677751
 21
15.48816947904465
 31
0.0
 11
184.7457726445665
 21
15.48816947904465
 31
0.0
 11
184.7176314312927
 21
15.48816947904465
 31
0.0
 11
184.7176314312927
 21
15.51452032539222
 31
0.0
 11
184.7176314312927
 21
15.57249218735688
 31
0.0
 11
184.7176314312927
 21
15.63046404932155
 31
0.0
 11
184.7176314312927
 21
15.65681489566912
 31
0.0
 11
184.739711025603
 21
15.65681489566912
 31
0.0
 11
184.7966531372455
 21
15.65681489566912
 31
0.0
 11
184.8745127592873
 21
15.65681489566912
 31
0.0
 11
184.9593448847955
 21
15.65681489566912
 31
0.0
 11
185.0372045068373
 21
15.65681489566912
 31
0.0
 11
185.0941466184798
 21
15.65681489566912
 31
0.0
 11
185.1162262127901
 21
15.65681489566912
 31
0.0
 11
185.1162262127901
 21
15.68210596174353
 31
0.0
 11
185.1162262127901
 21
15.74878240866697
 31
0.0
 11
185.1162262127901
 21
15.84304910948977
 31
0.0
 11
185.1162262127901
 21
15.95111093726224
 31
0.0
 11
185.1162262127901
 21
16.05917276503471
 31
0.0
 11
185.1162262127901
 21
16.15343946585751
 31
0.0
 11
185.1162262127901
 21
16.22011591278095
 31
0.0
 11
185.1162262127901
 21
16.24540697885536
 31
0.0
 11
185.1393181988677
 21
16.243732131078
 31
0.0
 11
185.1943837041296
 21
16.23973826330122
 31
0.0
 11
185.2601070491195
 21
16.23497138885796
 31
0.0
 11
185.3151725543814
 21
16.23097752108117
 31
0.0
 11
185.3382645404589
 21
16.22930267330381
 31
0.0
 11
185.3249012644373
 21
16.20789677921191
 31
0.0
 11
185.2874469028664
 21
16.19450114553469
 31
0.0
 11
185.2874469028664
 21
16.17139743948578
 31
0.0
 11
185.2874469028664
 21
16.11048766899319
 31
0.0
 11
185.2874469028664
 21
16.02437385553816
 31
0.0
 11
185.2874469028664
 21
15.9256580206019
 31
0.0
 11
185.2874469028664
 21
15.82694218566565
 31
0.0
 11
185.2874469028664
 21
15.74082837221061
 31
0.0
 11
185.2874469028664
 21
15.67991860171803
 31
0.0
 11
185.2874469028664
 21
15.65681489566912
 31
0.0
 11
185.312615060482
 21
15.65681489566912
 31
0.0
 11
185.375535454521
 21
15.65681489566912
 31
0.0
 11
185.4573319667717
 21
15.65681489566912
 31
0.0
 11
185.5391284790223
 21
15.65681489566912
 31
0.0
 11
185.6020488730613
 21
15.65681489566912
 31
0.0
 11
185.6272170306769
 21
15.65681489566912
 31
0.0
 11
185.6272170306769
 21
15.63046404932155
 31
0.0
 11
185.6272170306769
 21
15.57249218735689
 31
0.0
 11
185.6272170306769
 21
15.51452032539222
 31
0.0
 11
185.6272170306769
 21
15.48816947904465
 31
0.0
 11
185.6020488730612
 21
15.48816947904465
 31
0.0
 11
185.5391284790223
 21
15.48816947904465
 31
0.0
 11
185.4573319667716
 21
15.48816947904465
 31
0.0
 11
185.375535454521
 21
15.48816947904465
 31
0.0
 11
185.312615060482
 21
15.48816947904465
 31
0.0
 11
185.2874469028664
 21
15.48816947904465
 31
0.0
 11
185.2874469028664
 21
15.46536458293923
 31
0.0
 11
185.2874469028664
 21
15.4109836768417
 31
0.0
 11
185.2874469028664
 21
15.34607743408013
 31
0.0
 11
185.2874469028664
 21
15.29169652798261
 31
0.0
 11
185.2874469028664
 21
15.26889163187719
 31
0.0
  0
SPLINE
  5
AB
102
{ACAD_REACTORS
330
C8
102
}
330
48
100
AcDbEntity
  8
_U_30EC_U_30A4_U_30E4_U_30FC_1
  6
Continuous
 62
     2
100
AcDbSpline
210
0.0
220
0.0
230
1.0
 70
    11
 71
     3
 72
    91
 73
    87
 74
    85
 42
0.000000001
 43
0.0000000001
 44
0.00000001
 40
0.0
 40
0.0
 40
0.0
 40
0.0
 40
0.0345987051695434
 40
0.1258134969461369
 40
0.2547723404888703
 40
0.4026032099153841
 40
0.5504340793416704
 40
0.6793929228836364
 40
0.7706077146571035
 40
0.8052064287780925
 40
1.124852390615282
 40
1.427402236308871
 40
1.706356627453518
 40
1.955541417875194
 40
2.169485938566337
 40
2.344350786664794
 40
2.480568411561963
 40
2.590440557428985
 40
2.649189927151138
 40
2.749320643306341
 40
2.912632739880041
 40
3.147745656000243
 40
3.244827496385091
 40
3.338490056946732
 40
3.583815413207156
 40
3.761423943238516
 40
3.886956104362706
 40
3.985855451886866
 40
4.091766255337722
 40
4.250186473811915
 40
4.42273431508456
 40
4.628285684838655
 40
4.872093227758485
 40
5.152549652145605
 40
5.464967135837584
 40
5.803201477852501
 40
6.160362988813973
 40
6.193449448276056
 40
6.284170385501654
 40
6.419718138764552
 40
6.587285046385802
 40
6.774063446723745
 40
6.9672456781137
 40
7.154024078817742
 40
7.3215909870261
 40
7.457138740890429
 40
7.547859678556166
 40
7.580946138182754
 40
7.608533084714804
 40
7.669224367077782
 40
7.729915649429997
 40
7.75750259595005
 40
7.790278062553532
 40
7.880146277431002
 40
8.014419963180465
 40
8.180411842397966
 40
8.365434637679435
 40
8.556801071622736
 40
8.741823866830849
 40
8.907815745916416
 40
9.042089431507542
 40
9.131957646249667
 40
9.164733112797244
 40
9.415425063140171
 40
9.667986180958637
 40
9.694169807462776
 40
9.756607686047708
 40
9.8311303153226
 40
9.893568193900007
 40
9.919751820398853
 40
9.950967964690687
 40
9.996421631210797
 40
10.22087981037468
 40
10.44341866197557
 40
10.47847970788869
 40
10.5709133743877
 40
10.70159545461244
 40
10.85140174170369
 40
11.00120802880489
 40
11.13189010907395
 40
11.22432377583023
 40
11.25938480938969
 40
11.28697175596157
 40
11.34766303835931
 40
11.40835432042082
 40
11.43594125892116
 40
11.43594125892116
 40
11.43594125892116
 40
11.43594125892116
 10
190.08181143333
 20
15.55242795125077
 30
0.0
 10
190.0702785844952
 20
15.55242790287916
 30
0.0
 10
190.0283409445009
 20
15.55242773704164
 30
0.0
 10
189.9434129719036
 20
15.55243125800909
 30
0.0
 10
189.820768855314
 20
15.55240926435879
 30
0.0
 10
189.6791206917004
 20
15.55250801177054
 30
0.0
 10
189.53797536985
 20
15.55214686232421
 30
0.0
 10
189.4141351317915
 20
15.55321883609088
 30
0.0
 10
189.3317217825392
 20
15.55092249091268
 30
0.0
 10
189.1727791229704
 20
15.56048569373421
 30
0.0
 10
189.3503402353387
 20
15.19785394311371
 30
0.0
 10
189.3379739205463
 20
14.95243127723113
 30
0.0
 10
189.4064519473875
 20
14.66862501324836
 30
0.0
 10
189.4693024320981
 20
14.43250999939035
 30
0.0
 10
189.5452253431739
 20
14.2332674039613
 30
0.0
 10
189.6303189577027
 20
14.07745347451372
 30
0.0
 10
189.7244607592946
 20
13.97657857781393
 30
0.0
 10
189.8282648207739
 20
13.92465852638965
 30
0.0
 10
189.9125872030785
 20
13.97606484379616
 30
0.0
 10
189.9351322179463
 20
14.09144544037517
 30
0.0
 10
189.9745730975381
 20
14.21885149702379
 30
0.0
 10
189.9202919734954
 20
14.53622328086758
 30
0.0
 10
190.0451218072484
 20
14.38982180140902
 30
0.0
 10
190.2019291513614
 20
14.35795300331176
 30
0.0
 10
190.0947720007068
 20
14.12421357767627
 30
0.0
 10
190.0808711209878
 20
13.95972776583654
 30
0.0
 10
190.0234709467236
 20
13.83130869122484
 30
0.0
 10
189.9335020145019
 20
13.76018802352827
 30
0.0
 10
189.8095274657888
 20
13.74432324142254
 30
0.0
 10
189.6634273196872
 20
13.77993797554172
 30
0.0
 10
189.5243894320295
 20
13.90000570500277
 30
0.0
 10
189.4102003962155
 20
14.0743568255032
 30
0.0
 10
189.3146141301497
 20
14.29946603111241
 30
0.0
 10
189.2318652572637
 20
14.56388246006442
 30
0.0
 10
189.1807179256422
 20
14.88187933098543
 30
0.0
 10
189.0770189207349
 20
15.15543728488912
 30
0.0
 10
189.2042841208532
 20
15.56005818612869
 30
0.0
 10
189.0357890623029
 20
15.55112367849678
 30
0.0
 10
188.9511995787088
 20
15.55315961418363
 30
0.0
 10
188.8189876387638
 20
15.55213937388406
 30
0.0
 10
188.6560505094115
 20
15.55253230318429
 30
0.0
 10
188.4733759170543
 20
15.55235696313369
 30
0.0
 10
188.2847057373394
 20
15.55260105307468
 30
0.0
 10
188.10144690202
 20
15.55185657906236
 30
0.0
 10
187.9404746832728
 20
15.55416360522426
 30
0.0
 10
187.8029808335287
 20
15.54799804883662
 30
0.0
 10
187.7289590372321
 20
15.56032838458211
 30
0.0
 10
187.6613215186867
 20
15.54329323723555
 30
0.0
 10
187.673237371928
 20
15.59524438447527
 30
0.0
 10
187.6655677285705
 20
15.64071424966529
 30
0.0
 10
187.6732592225126
 20
15.68614453703704
 30
0.0
 10
187.6613141797772
 20
15.73802395984571
 30
0.0
 10
187.7283588305878
 20
15.72119143490263
 30
0.0
 10
187.8017375665687
 20
15.7333540909267
 30
0.0
 10
187.9379128305283
 20
15.72727231074957
 30
0.0
 10
188.0973811801523
 20
15.72954834315057
 30
0.0
 10
188.2789173085847
 20
15.72881233998961
 30
0.0
 10
188.4658034862189
 20
15.72905954196132
 30
0.0
 10
188.6468012316847
 20
15.72886400799253
 30
0.0
 10
188.8080802578889
 20
15.72932234714838
 30
0.0
 10
188.9393882124898
 20
15.72812673751205
 30
0.0
 10
189.0225051322607
 20
15.73051347319742
 30
0.0
 10
189.1556236547825
 20
15.72230605725462
 30
0.0
 10
189.0645893502669
 20
15.97752868952654
 30
0.0
 10
188.9789633074431
 20
16.24164358328247
 30
0.0
 10
189.0990589003465
 20
16.22904442969165
 30
0.0
 10
189.1514264948555
 20
16.22694235763075
 30
0.0
 10
189.2214497569726
 20
16.22535399889657
 30
0.0
 10
189.2671922337829
 20
16.21602567538113
 30
0.0
 10
189.3220812646944
 20
16.22545966915427
 30
0.0
 10
189.2963574785692
 20
16.17733028655173
 30
0.0
 10
189.1825397571464
 20
16.18266829744167
 30
0.0
 10
189.3159346621147
 20
15.95449174576776
 30
0.0
 10
189.1943658735481
 20
15.72156856595922
 30
0.0
 10
189.3223188769424
 20
15.73087258884438
 30
0.0
 10
189.4049048406471
 20
15.72801001754679
 30
0.0
 10
189.5307214850835
 20
15.72923437412301
 30
0.0
 10
189.6741469838069
 20
15.72932431888964
 30
0.0
 10
189.8157420951739
 20
15.72746163183853
 30
0.0
 10
189.9459127249978
 20
15.73333075937162
 30
0.0
 10
190.0193452286202
 20
15.72070340823202
 30
0.0
 10
190.0891112922107
 20
15.73877563110411
 30
0.0
 10
190.0775772605407
 20
15.68612850546325
 30
0.0
 10
190.0833184346693
 20
15.64221317686547
 30
0.0
 10
190.0816615770921
 20
15.59089982676549
 30
0.0
 10
190.081775756168
 20
15.56158792021635
 30
0.0
 10
190.08181143333
 20
15.55242795125077
 30
0.0
 11
190.08181143333
 21
15.55242795125077
 31
0.0
 11
190.0472127192062
 21
15.55242795125077
 31
0.0
 11
189.9559979274252
 21
15.55242795125077
 31
0.0
 11
189.8270390838728
 21
15.55242795125077
 31
0.0
 11
189.6792082144347
 21
15.55242795125077
 31
0.0
 11
189.5313773449965
 21
15.55242795125077
 31
0.0
 11
189.4024185014441
 21
15.55242795125077
 31
0.0
 11
189.3112037096631
 21
15.55242795125077
 31
0.0
 11
189.2766049955393
 21
15.55242795125077
 31
0.0
 11
189.3083140497704
 21
15.23435864930121
 31
0.0
 11
189.3527866656876
 21
14.9350952278808
 31
0.0
 11
189.4092389118331
 21
14.66191269512576
 31
0.0
 11
189.4768868567489
 21
14.42208605917227
 31
0.0
 11
189.5549465689772
 21
14.22289032815655
 31
0.0
 11
189.6426341170602
 21
14.07160051021477
 31
0.0
 11
189.7391655695399
 21
13.97549161348317
 31
0.0
 11
189.8437569949586
 21
13.94183864609792
 31
0.0
 11
189.8943077302797
 21
13.97177376978835
 31
0.0
 11
189.9310588991563
 21
14.06491619815047
 31
0.0
 11
189.9562640977538
 21
14.22627151712054
 31
0.0
 11
189.9721769222379
 21
14.46084531263482
 31
0.0
 11
190.0494082682594
 21
14.40202182306618
 31
0.0
 11
190.1327184184396
 21
14.3592188543269
 31
0.0
 11
190.1066365811228
 21
14.1152838866101
 31
0.0
 11
190.0673317805116
 21
13.94207902887562
 31
0.0
 11
190.0105702596775
 21
13.83011272445917
 31
0.0
 11
189.9321182616921
 21
13.76989341669645
 31
0.0
 11
189.8277420296267
 21
13.75192954892317
 31
0.0
 11
189.6738595065108
 21
13.78957440012361
 31
0.0
 11
189.5388902376758
 21
13.89707348877403
 31
0.0
 11
189.4221739916174
 21
14.06627361744809
 31
0.0
 11
189.3230505368311
 21
14.28902158871943
 31
0.0
 11
189.2408596418124
 21
14.55716420516172
 31
0.0
 11
189.174941075057
 21
14.8625482693486
 31
0.0
 11
189.1246346050604
 21
15.19702058385374
 31
0.0
 11
189.0892800003182
 21
15.55242795125077
 31
0.0
 11
189.0561935405854
 21
15.55242795125077
 31
0.0
 11
188.9654726026086
 21
15.55242795125077
 31
0.0
 11
188.8299248482196
 21
15.55242795125077
 31
0.0
 11
188.6623579392506
 21
15.55242795125077
 31
0.0
 11
188.4755795375334
 21
15.55242795125077
 31
0.0
 11
188.2823973049003
 21
15.55242795125077
 31
0.0
 11
188.0956189031832
 21
15.55242795125077
 31
0.0
 11
187.9280519942142
 21
15.55242795125077
 31
0.0
 11
187.7925042398252
 21
15.55242795125077
 31
0.0
 11
187.7017833018484
 21
15.55242795125077
 31
0.0
 11
187.6686968421156
 21
15.55242795125077
 31
0.0
 11
187.6686968421156
 21
15.58001489785846
 31
0.0
 11
187.6686968421156
 21
15.64070618039537
 31
0.0
 11
187.6686968421156
 21
15.70139746293228
 31
0.0
 11
187.6686968421156
 21
15.72898440953997
 31
0.0
 11
187.7014723087642
 21
15.72898440953997
 31
0.0
 11
187.7913405237684
 21
15.72898440953997
 31
0.0
 11
187.9256142097159
 21
15.72898440953997
 31
0.0
 11
188.0916060891943
 21
15.72898440953997
 31
0.0
 11
188.2766288847912
 21
15.72898440953997
 31
0.0
 11
188.4679953190943
 21
15.72898440953997
 31
0.0
 11
188.6530181146912
 21
15.72898440953997
 31
0.0
 11
188.8190099941696
 21
15.72898440953997
 31
0.0
 11
188.9532836801171
 21
15.72898440953997
 31
0.0
 11
189.0431518951213
 21
15.72898440953997
 31
0.0
 11
189.0759273617699
 21
15.72898440953997
 31
0.0
 11
189.0659183950114
 21
15.97947647544958
 31
0.0
 11
189.0599112510674
 21
16.23196614552531
 31
0.0
 11
189.086057587067
 21
16.23056921608122
 31
0.0
 11
189.148406542143
 21
16.22723807663761
 31
0.0
 11
189.2228230369111
 21
16.22326220052749
 31
0.0
 11
189.285171991987
 21
16.21993106108388
 31
0.0
 11
189.3113183279866
 21
16.21853413163979
 31
0.0
 11
189.2982931113051
 21
16.19016528616079
 31
0.0
 11
189.2551649266416
 21
16.17581274276164
 31
0.0
 11
189.2574991961832
 21
15.95136670115108
 31
0.0
 11
189.2658452735914
 21
15.72898440953997
 31
0.0
 11
189.3009063195177
 21
15.72898440953997
 31
0.0
 11
189.3933399860506
 21
15.72898440953997
 31
0.0
 11
189.5240220663212
 21
15.72898440953997
 31
0.0
 11
189.6738283534607
 21
15.72898440953997
 31
0.0
 11
189.8236346406002
 21
15.72898440953997
 31
0.0
 11
189.9543167208708
 21
15.72898440953997
 31
0.0
 11
190.0467503874037
 21
15.72898440953997
 31
0.0
 11
190.08181143333
 21
15.72898440953997
 31
0.0
 11
190.08181143333
 21
15.70139746293228
 31
0.0
 11
190.08181143333
 21
15.64070618039537
 31
0.0
 11
190.08181143333
 21
15.58001489785846
 31
0.0
 11
190.08181143333
 21
15.55242795125077
 31
0.0
  0
SPLINE
  5
AC
102
{ACAD_REACTORS
330
C9
102
}
330
48
100
AcDbEntity
  8
_U_30EC_U_30A4_U_30E4_U_30FC_1
  6
Continuous
 62
     2
100
AcDbSpline
210
0.0
220
0.0
230
1.0
 70
    11
 71
     3
 72
    75
 73
    71
 74
    69
 42
0.000000001
 43
0.0000000001
 44
0.00000001
 40
0.0
 40
0.0
 40
0.0
 40
0.0
 40
0.0342546099129691
 40
0.1245622414432364
 40
0.2522385480897518
 40
0.398599192294068
 40
0.5449598364980839
 40
0.6726361431438834
 40
0.7629437746736942
 40
0.7971983935297973
 40
1.101723623449661
 40
1.408591244036665
 40
1.433332471690371
 40
1.487763172450165
 40
1.542193873082001
 40
1.566935100592548
 40
1.923523931821832
 40
2.271755704953659
 40
2.590579755100929
 40
2.858943305581187
 40
2.889120339309208
 40
2.91830585519113
 40
2.941366645531252
 40
2.996357760973145
 40
3.0619923181407
 40
3.116983433626885
 40
3.140044223997574
 40
3.411273122936495
 40
3.732441619741187
 40
3.761068217532885
 40
3.837787499630447
 40
3.948858699126085
 40
4.080541049104462
 40
4.219093782625845
 40
4.350776132722395
 40
4.461847332405731
 40
4.538566614678461
 40
4.567193212544709
 40
4.594907573998968
 40
4.666381453557535
 40
4.764111044011117
 40
4.870592538125892
 40
4.968322128642371
 40
5.039796008287085
 40
5.067510369784515
 40
5.094263603185728
 40
5.153120716668366
 40
5.211977830150814
 40
5.238731063551819
 40
5.272290535139086
 40
5.36338052944489
 40
5.497618415781568
 40
5.660621563453838
 40
5.838007341749539
 40
6.015393119910862
 40
6.178396267038488
 40
6.312634151842411
 40
6.403724143059429
 40
6.437283612672524
 40
6.46403684626114
 40
6.522893960004757
 40
6.581751071484024
 40
6.60850430159097
 40
6.637253941281117
 40
6.711397748902997
 40
6.812778057283581
 40
6.923237199249301
 40
7.024617507623945
 40
7.098761315207597
 40
7.127510946007576
 40
7.127510946007576
 40
7.127510946007576
 40
7.127510946007576
 10
188.4418622390575
 20
14.95849128473264
 30
0.0
 10
188.4418622819718
 20
14.9470731340872
 30
0.0
 10
188.4418624481139
 20
14.90555257842628
 30
0.0
 10
188.4418593081798
 20
14.82146922003771
 30
0.0
 10
188.4418788279811
 20
14.70004497322328
 30
0.0
 10
188.4417912187749
 20
14.55980494047448
 30
0.0
 10
188.4421116235241
 20
14.42006556794576
 30
0.0
 10
188.4411605909751
 20
14.29745038894929
 30
0.0
 10
188.4431978595978
 20
14.21587074438043
 30
0.0
 10
188.4349433178756
 20
14.06271267077697
 30
0.0
 10
188.7430797940913
 20
14.22560236054722
 30
0.0
 10
189.0350645173745
 20
14.39482938688001
 30
0.0
 10
189.0408354448719
 20
14.25973235781911
 30
0.0
 10
189.0455471719901
 20
14.21617221160444
 30
0.0
 10
189.048253541193
 20
14.17211249350545
 30
0.0
 10
189.0672545672965
 20
14.02272590363132
 30
0.0
 10
188.6583942247316
 20
14.08681172241262
 30
0.0
 10
188.3793710348842
 20
13.97296341411016
 30
0.0
 10
188.1018081587178
 20
13.87364095811143
 30
0.0
 10
187.809983718441
 20
13.91630687596354
 30
0.0
 10
187.7869144678669
 20
13.81321679744542
 30
0.0
 10
187.7537474383344
 20
13.78691091244469
 30
0.0
 10
187.748065396275
 20
13.83455309036305
 30
0.0
 10
187.7284214559055
 20
13.87180336115069
 30
0.0
 10
187.7095089485634
 20
13.93007387847563
 30
0.0
 10
187.6942849867718
 20
13.97385201007805
 30
0.0
 10
187.6477246372947
 20
14.08759421046309
 30
0.0
 10
187.9890897312462
 20
14.05576301120049
 30
0.0
 10
188.2679649367396
 20
14.02161435106477
 30
0.0
 10
188.2617753034918
 20
14.16913976479652
 30
0.0
 10
188.2630935452784
 20
14.24013150908832
 30
0.0
 10
188.2624831689959
 20
14.34719767958661
 30
0.0
 10
188.2625871570736
 20
14.47398529785998
 30
0.0
 10
188.2629987964067
 20
14.6084924349605
 30
0.0
 10
188.2613907841979
 20
14.73395549951184
 30
0.0
 10
188.2659902567937
 20
14.84505246719117
 30
0.0
 10
188.2564186502221
 20
14.90761886800689
 30
0.0
 10
188.2704001783702
 20
14.96595388295
 30
0.0
 10
188.2147384386716
 20
14.95289710582239
 30
0.0
 10
188.1575655197832
 20
14.96136307749498
 30
0.0
 10
188.0616048925658
 20
14.95729976080636
 30
0.0
 10
187.9633767522833
 20
14.95970889852474
 30
0.0
 10
187.8672582457571
 20
14.95551600613388
 30
0.0
 10
187.8104648525822
 20
14.96429346441162
 30
0.0
 10
187.7550356873396
 20
14.95094936850122
 30
0.0
 10
187.7670679427927
 20
15.00036910959256
 30
0.0
 10
187.7592003173949
 20
15.04393988030396
 30
0.0
 10
187.766629556384
 20
15.08830469118525
 30
0.0
 10
187.7551930564154
 20
15.13902297763992
 30
0.0
 10
187.8232102370144
 20
15.12162460757743
 30
0.0
 10
187.8968496879758
 20
15.13417450237189
 30
0.0
 10
188.0325064058221
 20
15.12799677011096
 30
0.0
 10
188.1884909024537
 20
15.13029203093085
 30
0.0
 10
188.3615926358154
 20
15.1294096826253
 30
0.0
 10
188.5346942964193
 20
15.13029207142409
 30
0.0
 10
188.6906789811227
 20
15.1279966295555
 30
0.0
 10
188.8263351889807
 20
15.13417486262431
 30
0.0
 10
188.8999756705663
 20
15.12162394218334
 30
0.0
 10
188.9679914174735
 20
15.13902373012143
 30
0.0
 10
188.9565590885933
 20
15.08830130414555
 30
0.0
 10
188.9639539458308
 20
15.04397060811108
 30
0.0
 10
188.9562039912281
 20
15.00028307550196
 30
0.0
 10
188.9681203741888
 20
14.95063590098477
 30
0.0
 10
188.9108170223627
 20
14.96461411338426
 30
0.0
 10
188.8520145789784
 20
14.95539755673254
 30
0.0
 10
188.752529363321
 20
14.95952268164929
 30
0.0
 10
188.649428009836
 20
14.95822760025887
 30
0.0
 10
188.5537846354585
 20
14.95854077077641
 30
0.0
 10
188.4857467971628
 20
14.95848776697144
 30
0.0
 10
188.4514462213454
 20
14.95849051871656
 30
0.0
 10
188.4418622390575
 20
14.95849128473264
 30
0.0
 11
188.4418622390575
 21
14.95849128473264
 31
0.0
 11
188.4418622390575
 21
14.92423666587185
 31
0.0
 11
188.4418622390575
 21
14.83392903432975
 31
0.0
 11
188.4418622390575
 21
14.70625272766679
 31
0.0
 11
188.4418622390575
 21
14.55989208344339
 31
0.0
 11
188.4418622390575
 21
14.41353143922
 31
0.0
 11
188.4418622390575
 21
14.28585513255704
 31
0.0
 11
188.4418622390575
 21
14.19554750101494
 31
0.0
 11
188.4418622390575
 21
14.16129288215415
 31
0.0
 11
188.7391932644578
 21
14.22709475713768
 31
0.0
 11
189.0384623627256
 21
14.29496038212072
 31
0.0
 11
189.0405487124987
 21
14.27030727882827
 31
0.0
 11
189.0451386819997
 21
14.2160704515849
 31
0.0
 11
189.0497286515007
 21
14.16183362434152
 31
0.0
 11
189.0518150012739
 21
14.13718052104907
 31
0.0
 11
188.7056396889251
 21
14.05163370140897
 31
0.0
 11
188.3669653138849
 21
13.97060877629901
 31
0.0
 11
188.0563731516698
 21
13.89862764024929
 31
0.0
 11
187.7944444777966
 21
13.84021218778991
 31
0.0
 11
187.7817515029303
 21
13.81283442738013
 31
0.0
 11
187.7569794787524
 21
13.79740260446735
 31
0.0
 11
187.7491867589512
 21
13.81910683390636
 31
0.0
 11
187.7306041194253
 21
13.87086307333786
 31
0.0
 11
187.7084248399911
 21
13.93263664943351
 31
0.0
 11
187.6898422004651
 21
13.98439288886501
 31
0.0
 11
187.6820494806639
 21
14.00609711830402
 31
0.0
 11
187.9482776335942
 21
14.05794001759666
 31
0.0
 11
188.26263349363
 21
14.1237396877191
 31
0.0
 11
188.26263349363
 21
14.15236628569624
 31
0.0
 11
188.26263349363
 21
14.22908556827499
 31
0.0
 11
188.26263349363
 21
14.34015676842631
 31
0.0
 11
188.26263349363
 21
14.47183911912118
 31
0.0
 11
188.26263349363
 21
14.61039185333056
 31
0.0
 11
188.26263349363
 21
14.74207420402542
 31
0.0
 11
188.26263349363
 21
14.85314540417675
 31
0.0
 11
188.26263349363
 21
14.92986468675549
 31
0.0
 11
188.26263349363
 21
14.95849128473264
 31
0.0
 11
188.2349191321119
 21
14.95849128473264
 31
0.0
 11
188.1634452524074
 21
14.95849128473264
 31
0.0
 11
188.0657156617911
 21
14.95849128473264
 31
0.0
 11
187.9592341675375
 21
14.95849128473264
 31
0.0
 11
187.8615045769212
 21
14.95849128473264
 31
0.0
 11
187.7900306972167
 21
14.95849128473264
 31
0.0
 11
187.7623163356986
 21
14.95849128473264
 31
0.0
 11
187.7623163356986
 21
14.98524451823289
 31
0.0
 11
187.7623163356986
 21
15.04410163193344
 31
0.0
 11
187.7623163356986
 21
15.10295874563399
 31
0.0
 11
187.7623163356986
 21
15.12971197913424
 31
0.0
 11
187.7958758072886
 21
15.12971197913424
 31
0.0
 11
187.8869658016042
 21
15.12971197913424
 31
0.0
 11
188.021203687964
 21
15.12971197913424
 31
0.0
 11
188.1842068356867
 21
15.12971197913424
 31
0.0
 11
188.3615926140908
 21
15.12971197913424
 31
0.0
 11
188.5389783924948
 21
15.12971197913424
 31
0.0
 11
188.7019815402175
 21
15.12971197913424
 31
0.0
 11
188.8362194265773
 21
15.12971197913424
 31
0.0
 11
188.9273094208929
 21
15.12971197913424
 31
0.0
 11
188.9608688924829
 21
15.12971197913424
 31
0.0
 11
188.9608688924829
 21
15.10295874563399
 31
0.0
 11
188.9608688924829
 21
15.04410163193344
 31
0.0
 11
188.9608688924829
 21
14.98524451823289
 31
0.0
 11
188.9608688924829
 21
14.95849128473264
 31
0.0
 11
188.9321192527888
 21
14.95849128473264
 31
0.0
 11
188.8579754451565
 21
14.95849128473264
 31
0.0
 11
188.7565951367615
 21
14.95849128473264
 31
0.0
 11
188.6461359947789
 21
14.95849128473264
 31
0.0
 11
188.5447556863838
 21
14.95849128473264
 31
0.0
 11
188.4706118787516
 21
14.95849128473264
 31
0.0
 11
188.4418622390575
 21
14.95849128473264
 31
0.0
  0
SPLINE
  5
AD
102
{ACAD_REACTORS
330
CA
102
}
330
48
100
AcDbEntity
  8
_U_30EC_U_30A4_U_30E4_U_30FC_1
  6
Continuous
 62
     2
100
AcDbSpline
210
0.0
220
0.0
230
1.0
 70
    11
 71
     3
 72
    15
 73
    11
 74
     9
 42
0.000000001
 43
0.0000000001
 44
0.00000001
 40
0.0
 40
0.0
 40
0.0
 40
0.0
 40
0.2785535985096574
 40
0.5215624748198666
 40
0.6076917376040094
 40
0.6938210001740828
 40
0.9405019146454641
 40
1.221691403489094
 40
1.300471877080992
 40
1.379252341684781
 40
1.379252341684781
 40
1.379252341684781
 40
1.379252341684781
 10
189.568149363101
 20
16.22930267330381
 30
0.0
 10
189.6296017794189
 20
16.17691646592715
 30
0.0
 10
189.7446649974124
 20
16.07882876798222
 30
0.0
 10
190.0397348497254
 20
15.92889785897224
 30
0.0
 10
189.9025147631868
 20
15.84343227515013
 30
0.0
 10
189.8041227843789
 20
15.71085785201555
 30
0.0
 10
189.7130033590661
 20
16.01616985781421
 30
0.0
 10
189.3636839480667
 20
16.07967869465372
 30
0.0
 10
189.5119258376581
 20
16.17896509880879
 30
0.0
 10
189.5494081874248
 20
16.21252348402383
 30
0.0
 10
189.568149363101
 20
16.22930267330381
 30
0.0
 11
189.568149363101
 21
16.22930267330381
 31
0.0
 11
189.7919222440607
 21
16.06341774278972
 31
0.0
 11
189.9695046306394
 21
15.89753281227564
 31
0.0
 11
189.906630812799
 21
15.83866743034592
 31
0.0
 11
189.8437569949586
 21
15.7798020484162
 31
0.0
 11
189.6688535117736
 21
15.95375677059491
 31
0.0
 11
189.4478256856151
 21
16.12757920110702
 31
0.0
 11
189.507987524358
 21
16.17844093720542
 31
0.0
 11
189.568149363101
 21
16.22930267330381
 31
0.0
  0
SPLINE
  5
AE
102
{ACAD_REACTORS
330
CB
102
}
330
48
100
AcDbEntity
  8
_U_30EC_U_30A4_U_30E4_U_30FC_1
  6
Continuous
 62
     2
100
AcDbSpline
210
0.0
220
0.0
230
1.0
 70
    11
 71
     3
 72
    35
 73
    31
 74
    29
 42
0.000000001
 43
0.0000000001
 44
0.00000001
 40
0.0
 40
0.0
 40
0.0
 40
0.0
 40
0.0335231036620645
 40
0.0713218571712051
 40
0.4278866681487056
 40
0.8116865841964089
 40
1.198190238000042
 40
1.561379546812672
 40
1.65998317462202
 40
1.759315573807158
 40
2.132719617231043
 40
2.525233363588794
 40
2.910815397779683
 40
3.265244364303253
 40
3.592606723581957
 40
3.964386154603945
 40
4.359942131737768
 40
4.758154118639278
 40
4.843846538699892
 40
4.93665006554321
 40
5.25661660253729
 40
5.581707404416002
 40
5.899719158308121
 40
6.198363494280705
 40
6.466301046615754
 40
6.493895311537076
 40
6.559697020196869
 40
6.638234543442444
 40
6.704036252154225
 40
6.731630508423002
 40
6.731630508423002
 40
6.731630508423002
 40
6.731630508423002
 10
191.973601056868
 20
16.23463843719134
 30
0.0
 10
191.96760060978
 20
16.22480690542323
 30
0.0
 10
191.9548344099168
 20
16.20388988579798
 30
0.0
 10
191.7949362006564
 20
16.17127126532689
 30
0.0
 10
192.2322025842349
 20
15.88206680336702
 30
0.0
 10
192.4345394828272
 20
15.68041138358439
 30
0.0
 10
192.6819564267984
 20
15.43749387603275
 30
0.0
 10
193.1831513624617
 20
15.36047662757779
 30
0.0
 10
193.0125562198981
 20
15.21876939174655
 30
0.0
 10
192.9383299463213
 20
15.01710366209108
 30
0.0
 10
192.6131432248199
 20
15.36956287174725
 30
0.0
 10
192.3277741670674
 20
15.53175212559563
 30
0.0
 10
192.0337604077669
 20
15.73687130053046
 30
0.0
 10
191.8084452691145
 20
16.21827488595456
 30
0.0
 10
191.5993085055533
 20
15.75343046609218
 30
0.0
 10
191.3207873674845
 20
15.54350952252915
 30
0.0
 10
191.0371383177219
 20
15.37424456359983
 30
0.0
 10
190.7078639527842
 20
15.00142360907936
 30
0.0
 10
190.6277012318235
 20
15.19708014459002
 30
0.0
 10
190.4759724909755
 20
15.32491104190595
 30
0.0
 10
190.9083395826806
 20
15.40454031765935
 30
0.0
 10
191.0962565329776
 20
15.60026634915474
 30
0.0
 10
191.3468477420514
 20
15.81632996916754
 30
0.0
 10
191.5714350470171
 20
15.98190992300059
 30
0.0
 10
191.6259775409724
 20
16.2613396463683
 30
0.0
 10
191.7494661029022
 20
16.24737950408078
 30
0.0
 10
191.8060273344531
 20
16.24521268867647
 30
0.0
 10
191.8761870984955
 20
16.2404685988136
 30
0.0
 10
191.9333414022117
 20
16.23709429350542
 30
0.0
 10
191.964419032085
 20
16.23519854711119
 30
0.0
 10
191.973601056868
 20
16.23463843719134
 30
0.0
 11
191.973601056868
 21
16.23463843719134
 31
0.0
 11
191.9525319069895
 21
16.20856374969785
 31
0.0
 11
191.9174464559436
 21
16.19450114553469
 31
0.0
 11
192.1512374769106
 21
15.92527961131382
 31
0.0
 11
192.4414585957578
 21
15.67413407969259
 31
0.0
 11
192.7612797483695
 21
15.45710987618784
 31
0.0
 11
193.08387087063
 21
15.29025232631637
 31
0.0
 11
193.0213299868087
 21
15.21402035584928
 31
0.0
 11
192.9688035818986
 21
15.12971197913424
 31
0.0
 11
192.6436279095825
 21
15.3132640483158
 31
0.0
 11
192.3237227768447
 21
15.54070139743428
 31
0.0
 11
192.0354200158619
 21
15.7967385512331
 31
0.0
 11
191.8050514588106
 21
16.06609003445566
 31
0.0
 11
191.5995531719527
 21
15.81126348721036
 31
0.0
 11
191.3288301341547
 21
15.55645182277756
 31
0.0
 11
191.0119538423257
 21
15.31969466354856
 31
0.0
 11
190.6679957933752
 21
15.11903163191466
 31
0.0
 11
190.6218855341349
 21
15.19126067703553
 31
0.0
 11
190.5636970460359
 21
15.26355586798966
 31
0.0
 11
190.8433040489026
 21
15.41911456961744
 31
0.0
 11
191.1093004621165
 21
15.60601009790405
 31
0.0
 11
191.3499997459757
 21
15.81384496285209
 31
0.0
 11
191.5537153607785
 21
16.03222167446416
 31
0.0
 11
191.7087607668229
 21
16.25074274274287
 31
0.0
 11
191.7363041569876
 21
16.24906789496551
 31
0.0
 11
191.8019845489188
 21
16.24507402718873
 31
0.0
 11
191.8803772747721
 21
16.24030715274548
 31
0.0
 11
191.9460576667033
 21
16.2363132849687
 31
0.0
 11
191.973601056868
 21
16.23463843719134
 31
0.0
  0
SPLINE
  5
AF
102
{ACAD_REACTORS
330
CC
102
}
330
48
100
AcDbEntity
  8
_U_30EC_U_30A4_U_30E4_U_30FC_1
  6
Continuous
 62
     2
100
AcDbSpline
210
0.0
220
0.0
230
1.0
 70
    11
 71
     3
 72
    91
 73
    87
 74
    85
 42
0.000000001
 43
0.0000000001
 44
0.00000001
 40
0.0
 40
0.0
 40
0.0
 40
0.0
 40
0.0267532254356701
 40
0.0856103386464102
 40
0.1444674521996621
 40
0.1712206856618514
 40
0.2039416005642252
 40
0.2955601971652485
 40
0.4362601844616918
 40
0.616225284450725
 40
0.8256392189704698
 40
1.054685709844411
 40
1.293548478893531
 40
1.532411247938275
 40
1.76145773879954
 40
1.970871673298508
 40
2.150836773256704
 40
2.291536760495565
 40
2.383155356836643
 40
2.415876284101292
 40
2.442629517487936
 40
2.501486630949066
 40
2.560343744424213
 40
2.587096977826486
 40
2.617068194440914
 40
2.699247336756083
 40
2.822032643466367
 40
2.973822353257897
 40
3.143014704823339
 40
3.31800793687989
 40
3.487200288186723
 40
3.638989997548232
 40
3.761775303794731
 40
3.843954445753037
 40
3.873925662229733
 40
3.890812773500441
 40
3.907699884771619
 40
3.937960767857204
 40
3.980983618142264
 40
4.199085915228434
 40
4.439444339237186
 40
4.677588241260843
 40
5.050698317837729
 40
5.448212454763115
 40
5.85529121804464
 40
6.138575438885311
 40
6.417434507584151
 40
6.444551104393784
 40
6.504207617363133
 40
6.563864130314482
 40
6.59098072710405
 40
6.848609460381433
 40
7.109611990668391
 40
7.352910904446056
 40
7.557830220705427
 40
7.587518925913345
 40
7.652834077375764
 40
7.718149228845701
 40
7.747837934062004
 40
7.854880190300976
 40
7.976511257403519
 40
8.369487896592348
 40
8.757514959223613
 40
9.126072419331075
 40
9.460639380392138
 40
9.74669559303585
 40
9.777569943118642
 40
9.807050320931715
 40
9.830377336128839
 40
9.886003295435923
 40
9.95239556942983
 40
10.0080215287062
 40
10.03134854388212
 40
10.21356951009582
 40
10.42203479292865
 40
10.66154556731056
 40
10.91693789564298
 40
11.15832906556559
 40
11.18982674596617
 40
11.27286608520401
 40
11.39026653033346
 40
11.52484752840879
 40
11.65942852648438
 40
11.7768289716148
 40
11.85986831085676
 40
11.89136598230422
 40
11.89136598230422
 40
11.89136598230422
 40
11.89136598230422
 10
190.7027885008207
 20
14.70699600701772
 30
0.0
 10
190.7028237765299
 20
14.71587847311985
 30
0.0
 10
190.7029366710807
 20
14.74430237047346
 30
0.0
 10
190.7012984568499
 20
14.79409639169803
 30
0.0
 10
190.7069750292922
 20
14.83657564478154
 30
0.0
 10
190.6956928731717
 20
14.88730154856846
 30
0.0
 10
190.7632296979044
 20
14.87012900740109
 30
0.0
 10
190.838802921071
 20
14.88290227165995
 30
0.0
 10
190.9828357056012
 20
14.87629729457382
 30
0.0
 10
191.1569419185438
 20
14.87888462206466
 30
0.0
 10
191.3639599611014
 20
14.87800591955553
 30
0.0
 10
191.5894688172388
 20
14.87828207920027
 30
0.0
 10
191.8251162293416
 20
14.87818339658662
 30
0.0
 10
192.0607640531359
 20
14.87828184412767
 30
0.0
 10
192.2862717580637
 20
14.87800678190789
 30
0.0
 10
192.4932934632815
 20
14.87888186270735
 30
0.0
 10
192.6673888915299
 20
14.87630522678446
 30
0.0
 10
192.8114492071996
 20
14.88288290449214
 30
0.0
 10
192.8869691915303
 20
14.87016243405604
 30
0.0
 10
192.9545776037041
 20
14.88726400191688
 30
0.0
 10
192.9430840140687
 20
14.8367478580294
 30
0.0
 10
192.9505104581743
 20
14.79253252226501
 30
0.0
 10
192.9428838927997
 20
14.7486796650361
 30
0.0
 10
192.9546489459435
 20
14.69878374479327
 30
0.0
 10
192.8930788491994
 20
14.71393227712512
 30
0.0
 10
192.8256791738682
 20
14.70310665350673
 30
0.0
 10
192.7013004056232
 20
14.70852031626236
 30
0.0
 10
192.5554428236581
 20
14.70649205390785
 30
0.0
 10
192.3893576440097
 20
14.70715777578387
 30
0.0
 10
192.2188412621735
 20
14.70689643521242
 30
0.0
 10
192.05197908554
 20
14.70721553391094
 30
0.0
 10
191.9087346827116
 20
14.70635302590762
 30
0.0
 10
191.7773313869844
 20
14.70863300482987
 30
0.0
 10
191.7239859134667
 20
14.70407704374202
 30
0.0
 10
191.6485188456923
 20
14.70999914992878
 30
0.0
 10
191.6769075779243
 20
14.70094169343353
 30
0.0
 10
191.7033652409553
 20
14.6972591226893
 30
0.0
 10
191.6633522907713
 20
14.66654271968272
 30
0.0
 10
191.5713663691879
 20
14.67667591174639
 30
0.0
 10
191.5439396207079
 20
14.43032502247788
 30
0.0
 10
191.4478793967245
 20
14.27499558764372
 30
0.0
 10
191.1917277964484
 20
13.9452541793157
 30
0.0
 10
191.7627537732773
 20
14.08430022210451
 30
0.0
 10
192.0173656320528
 20
14.08291779973364
 30
0.0
 10
192.6279647048628
 20
13.99790569242083
 30
0.0
 10
192.3340698578094
 20
14.29685417558208
 30
0.0
 10
192.0133304286529
 20
14.4433085690177
 30
0.0
 10
192.1313543360445
 20
14.50025540818291
 30
0.0
 10
192.1724716466272
 20
14.52420099873347
 30
0.0
 10
192.2156812394422
 20
14.54599758811229
 30
0.0
 10
192.3174574094461
 20
14.60928721253908
 30
0.0
 10
192.4328867625258
 20
14.35147151408778
 30
0.0
 10
192.6329591642288
 20
14.21616041113683
 30
0.0
 10
192.7269077387239
 20
14.03792795138882
 30
0.0
 10
192.9558829746404
 20
13.87997821027049
 30
0.0
 10
192.8596031846719
 20
13.82915972576299
 30
0.0
 10
192.816795976379
 20
13.79881292523055
 30
0.0
 10
192.771824352879
 20
13.77466130281459
 30
0.0
 10
192.7121720925224
 20
13.72552146747567
 30
0.0
 10
192.6789731061336
 20
13.85997475673608
 30
0.0
 10
192.5582013350806
 20
14.01594265286581
 30
0.0
 10
192.1970976005989
 20
13.88569928059556
 30
0.0
 10
191.8385061955552
 20
13.90224694409483
 30
0.0
 10
191.457092045009
 20
13.89331229351864
 30
0.0
 10
191.1703455282902
 20
13.82882671672411
 30
0.0
 10
190.8592055599723
 20
13.94230668192819
 30
0.0
 10
190.8268737818799
 20
13.83122259927769
 30
0.0
 10
190.7896178253328
 20
13.81196313850013
 30
0.0
 10
190.7865737632766
 20
13.85874784087299
 30
0.0
 10
190.7679892860618
 20
13.89806853919133
 30
0.0
 10
190.751243661679
 20
13.95765983478235
 30
0.0
 10
190.7383730915764
 20
14.00201969871282
 30
0.0
 10
190.704232780644
 20
14.09106331120204
 30
0.0
 10
190.9482714457764
 20
14.02181042943768
 30
0.0
 10
191.1441394486682
 20
14.00030369057744
 30
0.0
 10
191.2395426381288
 20
14.28226484478465
 30
0.0
 10
191.2945135769608
 20
14.44363045421122
 30
0.0
 10
191.5159619357167
 20
14.71391177589737
 30
0.0
 10
191.3849239381227
 20
14.70548446853735
 30
0.0
 10
191.3110026555865
 20
14.70779008496969
 30
0.0
 10
191.1977459876254
 20
14.70671378321657
 30
0.0
 10
191.0694251807496
 20
14.7070763907651
 30
0.0
 10
190.9404252030426
 20
14.70697724466086
 30
0.0
 10
190.8287840946302
 20
14.70699932712571
 30
0.0
 10
190.7514663970038
 20
14.70699579189671
 30
0.0
 10
190.713287653202
 20
14.70699595845081
 30
0.0
 10
190.7027885008207
 20
14.70699600701772
 30
0.0
 11
190.7027885008207
 21
14.70699600701772
 31
0.0
 11
190.7027885008207
 21
14.73374924051797
 31
0.0
 11
190.7027885008207
 21
14.79260635421853
 31
0.0
 11
190.7027885008207
 21
14.85146346791909
 31
0.0
 11
190.7027885008207
 21
14.87821670141935
 31
0.0
 11
190.7355094281
 21
14.87821670141935
 31
0.0
 11
190.827128024482
 21
14.87821670141935
 31
0.0
 11
190.967828011783
 21
14.87821670141935
 31
0.0
 11
191.1477931118191
 21
14.87821670141935
 31
0.0
 11
191.3572070464065
 21
14.87821670141935
 31
0.0
 11
191.5862535373615
 21
14.87821670141935
 31
0.0
 11
191.8251163065003
 21
14.87821670141935
 31
0.0
 11
192.0639790756392
 21
14.87821670141935
 31
0.0
 11
192.2930255665942
 21
14.87821670141935
 31
0.0
 11
192.5024395011816
 21
14.87821670141935
 31
0.0
 11
192.6824046012178
 21
14.87821670141935
 31
0.0
 11
192.8231045885187
 21
14.87821670141935
 31
0.0
 11
192.9147231849007
 21
14.87821670141935
 31
0.0
 11
192.94744411218
 21
14.87821670141935
 31
0.0
 11
192.94744411218
 21
14.85146346791909
 31
0.0
 11
192.94744411218
 21
14.79260635421853
 31
0.0
 11
192.94744411218
 21
14.73374924051797
 31
0.0
 11
192.94744411218
 21
14.70699600701772
 31
0.0
 11
192.9174728954768
 21
14.70699600701772
 31
0.0
 11
192.8352937529037
 21
14.70699600701772
 31
0.0
 11
192.712508445765
 21
14.70699600701772
 31
0.0
 11
192.5607187353653
 21
14.70699600701772
 31
0.0
 11
192.3915263830088
 21
14.70699600701772
 31
0.0
 11
192.2165331500002
 21
14.70699600701772
 31
0.0
 11
192.0473407976437
 21
14.70699600701772
 31
0.0
 11
191.8955510872439
 21
14.70699600701772
 31
0.0
 11
191.7727657801053
 21
14.70699600701772
 31
0.0
 11
191.6905866375321
 21
14.70699600701772
 31
0.0
 11
191.660615420829
 21
14.70699600701772
 31
0.0
 11
191.6766359412536
 21
14.70165583340794
 31
0.0
 11
191.6926564616782
 21
14.69631565979815
 31
0.0
 11
191.6706155681432
 21
14.67558114591443
 31
0.0
 11
191.6284861855374
 21
14.6668587153611
 31
0.0
 11
191.5365235541388
 21
14.46909247312657
 31
0.0
 11
191.4279078521775
 21
14.25467511978509
 31
0.0
 11
191.3127500824818
 21
14.0462255905162
 31
0.0
 11
191.6857366675031
 21
14.05582441253029
 31
0.0
 11
192.0830700036161
 21
14.06781232404995
 31
0.0
 11
192.4899342191156
 21
14.08102711828532
 31
0.0
 11
192.298311949699
 21
14.28966761302481
 31
0.0
 11
192.0966752013709
 21
14.48229420151832
 31
0.0
 11
192.120494779476
 21
14.49525327269565
 31
0.0
 11
192.1728978513073
 21
14.52376322928576
 31
0.0
 11
192.2253009231385
 21
14.55227318587588
 31
0.0
 11
192.2491205012436
 21
14.5652322570532
 31
0.0
 11
192.4387101558638
 21
14.39079508370268
 31
0.0
 11
192.6200310940446
 21
14.20305846374091
 31
0.0
 11
192.7777729231158
 21
14.01782380992436
 31
0.0
 11
192.8966252504069
 21
13.85089253500949
 31
0.0
 11
192.8715408217934
 21
13.83501202286069
 31
0.0
 11
192.8163550788437
 21
13.80007489613332
 31
0.0
 11
192.7611693358939
 21
13.76513776940595
 31
0.0
 11
192.7360849072804
 21
13.74925725725715
 31
0.0
 11
192.6775518151623
 21
13.83887824681809
 31
0.0
 11
192.6050015078468
 21
13.93650288221032
 31
0.0
 11
192.2125412924105
 21
13.91636286943759
 31
0.0
 11
191.8249474069571
 21
13.89803302999773
 31
0.0
 11
191.4567378976224
 21
13.88202178722395
 31
0.0
 11
191.1224308105423
 21
13.86883756444947
 31
0.0
 11
190.8365441918529
 21
13.8589887850075
 31
0.0
 11
190.8211862321751
 21
13.83220523466695
 31
0.0
 11
190.7937434290557
 21
13.82143559057245
 31
0.0
 11
190.7867927192331
 21
13.84370299445577
 31
0.0
 11
190.7702179496559
 21
13.89680218833139
 31
0.0
 11
190.7504351601607
 21
13.96017864553777
 31
0.0
 11
190.7338603905836
 21
14.01327783941338
 31
0.0
 11
190.7269096807609
 21
14.0355452432967
 31
0.0
 11
190.9091199859164
 21
14.03751638912952
 31
0.0
 11
191.1174975848599
 21
14.04356211829472
 31
0.0
 11
191.2303203127227
 21
14.25483550301554
 31
0.0
 11
191.3407936722046
 21
14.48509813155879
 31
0.0
 11
191.4358254265638
 21
14.70699600701772
 31
0.0
 11
191.4043277461608
 21
14.70699600701772
 31
0.0
 11
191.3212884069164
 21
14.70699600701772
 31
0.0
 11
191.2038879617779
 21
14.70699600701772
 31
0.0
 11
191.0693069636923
 21
14.70699600701772
 31
0.0
 11
190.9347259656066
 21
14.70699600701772
 31
0.0
 11
190.817325520468
 21
14.70699600701772
 31
0.0
 11
190.7342861812237
 21
14.70699600701772
 31
0.0
 11
190.7027885008207
 21
14.70699600701772
 31
0.0
  0
SPLINE
  5
B0
102
{ACAD_REACTORS
330
CD
102
}
330
48
100
AcDbEntity
  8
_U_30EC_U_30A4_U_30E4_U_30FC_1
  6
Continuous
 62
     2
100
AcDbSpline
210
0.0
220
0.0
230
1.0
 70
    11
 71
     3
 72
   131
 73
   127
 74
   125
 42
0.000000001
 43
0.0000000001
 44
0.00000001
 40
0.0
 40
0.0
 40
0.0
 40
0.0
 40
0.0195577029826316
 40
0.0426490537461391
 40
0.2863607575856515
 40
0.5344948436189194
 40
0.7842238845573092
 40
0.8737315789467043
 40
0.9803832810313003
 40
1.092842274517025
 40
1.199761146656761
 40
1.289788768186489
 40
1.351573580786181
 40
1.370727117561442
 40
1.416400936017802
 40
1.470914848355963
 40
1.516588666791753
 40
1.535742203552833
 40
1.634216592293182
 40
1.760283341175019
 40
1.897966686682103
 40
2.031216387368905
 40
2.049689751137898
 40
2.101115601646835
 40
2.179502577739952
 40
2.278859318314066
 40
2.393194462258724
 40
2.516516648383837
 40
2.642834515405966
 40
2.766156701983468
 40
2.880491846754583
 40
2.979848588358625
 40
3.058235565443803
 40
3.109661416668957
 40
3.128134780704133
 40
3.146783742386478
 40
3.19125434331531
 40
3.244332157315969
 40
3.288802758225873
 40
3.307451719895144
 40
3.327717853844757
 40
3.383747753580116
 40
3.468388665924507
 40
3.574487837698816
 40
3.694892515728919
 40
3.822449946852058
 40
3.950007377920447
 40
4.070412055800539
 40
4.176511227368095
 40
4.261152139501541
 40
4.317182039076735
 40
4.337448172964653
 40
4.620011002696246
 40
4.885096638397513
 40
4.945373043518318
 40
5.014107710488644
 40
5.070481727652039
 40
5.31924695563654
 40
5.584812164506054
 40
5.859000912056906
 40
6.133746937542071
 40
6.401732212968859
 40
6.42073668399545
 40
6.472845717451072
 40
6.550702743894028
 40
6.646951193874237
 40
6.754234497930561
 40
6.865196086587282
 40
6.972479390357798
 40
7.068727839771931
 40
7.146584865450968
 40
7.19869389818917
 40
7.21769836890531
 40
7.234950401630789
 40
7.276089864269833
 40
7.325191803515942
 40
7.366331266090329
 40
7.383583298769681
 40
7.402779163492058
 40
7.453386443254489
 40
7.524934666445491
 40
7.606953361405802
 40
7.688972056428954
 40
7.760520279784204
 40
7.811127559734446
 40
7.830323424546068
 40
7.847844055299698
 40
7.894799345666739
 40
7.962779392744427
 40
8.043374293560474
 40
8.12817414514938
 40
8.208769044817185
 40
8.276749090376885
 40
8.323704379669444
 40
8.341225010056178
 40
8.358497614800354
 40
8.401679126686531
 40
8.457815092185617
 40
8.513951057728022
 40
8.55713256970795
 40
8.57440517450502
 40
8.602340668616382
 40
8.643455660539924
 40
8.663225271966592
 40
8.71534515656424
 40
8.789031889628575
 40
8.873502045520304
 40
8.957972194323927
 40
9.031658925567818
 40
9.08377881123451
 40
9.103548423002971
 40
9.119550083123508
 40
9.160817522379839
 40
9.217244429110147
 40
9.278724491644661
 40
9.335151398295418
 40
9.376418837357713
 40
9.3924204973005
 40
9.401196302734746
 40
9.417494229384221
 40
9.426270027749494
 40
9.440875075477479
 40
9.475702496998732
 40
9.51727070986587
 40
9.552098131994065
 40
9.566703169884248
 40
9.566703169884248
 40
9.566703169884248
 40
9.566703169884248
 10
194.617025414849
 20
15.67015871511027
 30
0.0
 10
194.6134345093382
 20
15.66453690702159
 30
0.0
 10
194.6056039123635
 20
15.65227754419113
 30
0.0
 10
194.5129968974559
 20
15.61601916040964
 30
0.0
 10
194.4887622233258
 20
15.40148444212718
 30
0.0
 10
194.3858709845949
 20
15.22197284509706
 30
0.0
 10
194.1220492364316
 20
15.03615573798148
 30
0.0
 10
194.284547156919
 20
14.95959336566078
 30
0.0
 10
194.360722576085
 20
14.89856693195445
 30
0.0
 10
194.4492171072769
 20
14.83515804544759
 30
0.0
 10
194.5389930233122
 20
14.77525634219558
 30
0.0
 10
194.5883817636057
 20
14.7210215484921
 30
0.0
 10
194.6745708157393
 20
14.6928624054183
 30
0.0
 10
194.641126067424
 20
14.65713309652816
 30
0.0
 10
194.6214671166322
 20
14.62550387991901
 30
0.0
 10
194.5919888217894
 20
14.58475872796071
 30
0.0
 10
194.5688989446042
 20
14.55504663489643
 30
0.0
 10
194.5380205968368
 20
14.50211422668494
 30
0.0
 10
194.472919336575
 20
14.62740334938901
 30
0.0
 10
194.3796000122426
 20
14.68213900233935
 30
0.0
 10
194.295063628515
 20
14.73916423939341
 30
0.0
 10
194.1722498125751
 20
14.8967528742752
 30
0.0
 10
194.1764450847313
 20
14.82035806766837
 30
0.0
 10
194.1751478652688
 20
14.77361280161295
 30
0.0
 10
194.1758126448087
 20
14.695847858126
 30
0.0
 10
194.1755549986968
 20
14.59902068324423
 30
0.0
 10
194.1756431239933
 20
14.48650279078809
 30
0.0
 10
194.1756077302292
 20
14.365240859457
 30
0.0
 10
194.175651175829
 20
14.24086897858961
 30
0.0
 10
194.1755199942417
 20
14.11967683631337
 30
0.0
 10
194.1759477562057
 20
14.00691148919743
 30
0.0
 10
194.1746678202321
 20
13.91082913768744
 30
0.0
 10
194.1779759851055
 20
13.831138264687
 30
0.0
 10
194.1715197740097
 20
13.78815175788783
 30
0.0
 10
194.1806208705567
 20
13.74955432372042
 30
0.0
 10
194.1447910339946
 20
13.7581088772407
 30
0.0
 10
194.1115223815263
 20
13.75342519985446
 30
0.0
 10
194.0604562576052
 20
13.75351298759784
 30
0.0
 10
194.0269723972823
 20
13.75794430283821
 30
0.0
 10
193.9907585408764
 20
13.74960793842509
 30
0.0
 10
194.0009782568676
 20
13.79145277179284
 30
0.0
 10
193.9936487887782
 20
13.83778560820173
 30
0.0
 10
193.9973633136114
 20
13.92374831106014
 30
0.0
 10
193.9959480554906
 20
14.02605142704849
 30
0.0
 10
193.996410555465
 20
14.14453223931512
 30
0.0
 10
193.996277368624
 20
14.26957683153356
 30
0.0
 10
193.9963015910056
 20
14.3947582810705
 30
0.0
 10
193.9963354925562
 20
14.51286645379058
 30
0.0
 10
193.9962060293144
 20
14.61628748709516
 30
0.0
 10
193.9965507549092
 20
14.69932036153667
 30
0.0
 10
193.9958698278701
 20
14.75143368521243
 30
0.0
 10
193.9994586600634
 20
14.8791290782136
 30
0.0
 10
193.7826171386448
 20
14.58048716819619
 30
0.0
 10
193.6021354921961
 20
14.35263981511513
 30
0.0
 10
193.5490322295623
 20
14.49373443289815
 30
0.0
 10
193.520042913316
 20
14.54325767560942
 30
0.0
 10
193.4196648062831
 20
14.64641779790105
 30
0.0
 10
193.7405127723272
 20
14.72695035023781
 30
0.0
 10
193.868989700544
 20
14.91066283036432
 30
0.0
 10
194.090645432537
 20
15.11931995771762
 30
0.0
 10
194.177022489408
 20
15.29339211228344
 30
0.0
 10
194.4549394229084
 20
15.56967051342511
 30
0.0
 10
194.3346247839295
 20
15.56534559551114
 30
0.0
 10
194.286319735136
 20
15.56614856202553
 30
0.0
 10
194.2102377454915
 20
15.56574582146583
 30
0.0
 10
194.1167010009761
 20
15.5659027561161
 30
0.0
 10
194.0117594788568
 20
15.56582502576224
 30
0.0
 10
193.9033887738728
 20
15.56595464378554
 30
0.0
 10
193.7981454235907
 20
15.56554393490691
 30
0.0
 10
193.7056237819424
 20
15.56682073671591
 30
0.0
 10
193.6268130800718
 20
15.56340766534849
 30
0.0
 10
193.583967456539
 20
15.5702335003632
 30
0.0
 10
193.5449499586526
 20
15.56065064201123
 30
0.0
 10
193.5526365271875
 20
15.59420779565543
 30
0.0
 10
193.5485464404323
 20
15.62523550322233
 30
0.0
 10
193.5485531368824
 20
15.672365292709
 30
0.0
 10
193.5526239724923
 20
15.70340941646779
 30
0.0
 10
193.5449495574593
 20
15.73701861635901
 30
0.0
 10
193.5834819405506
 20
15.72748410420872
 30
0.0
 10
193.6241228014491
 20
15.73397435498071
 30
0.0
 10
193.6951471850474
 20
15.73100150650254
 30
0.0
 10
193.7729318149644
 20
15.73174761399158
 30
0.0
 10
193.8507292246486
 20
15.73247814044525
 30
0.0
 10
193.9217232089918
 20
15.7295423551416
 30
0.0
 10
193.9624279791831
 20
15.73595468772952
 30
0.0
 10
194.000985348992
 20
15.72650524176004
 30
0.0
 10
193.9927342754938
 20
15.76264692158784
 30
0.0
 10
193.9982346669369
 20
15.80129837613227
 30
0.0
 10
193.9955754206173
 20
15.86913528561839
 30
0.0
 10
193.9965815471544
 20
15.9459164153874
 30
0.0
 10
193.9960178018329
 20
16.02849393582757
 30
0.0
 10
193.9970714526603
 20
16.10517329229878
 30
0.0
 10
193.9942675863141
 20
16.173319907767
 30
0.0
 10
194.0000702721314
 20
16.21132399809346
 30
0.0
 10
193.9915654551169
 20
16.24758448077647
 30
0.0
 10
194.0255610233136
 20
16.23755723771853
 30
0.0
 10
194.059457568311
 20
16.24073266813705
 30
0.0
 10
194.1126669060357
 20
16.23508965640609
 30
0.0
 10
194.1660768574494
 20
16.23434774436425
 30
0.0
 10
194.1995914649501
 20
16.2281922348298
 30
0.0
 10
194.238808618305
 20
16.23346029773593
 30
0.0
 10
194.2120263698503
 20
16.1925338079349
 30
0.0
 10
194.1708111001735
 20
16.2037120453811
 30
0.0
 10
194.1782641540885
 20
16.15867056192124
 30
0.0
 10
194.1742227952195
 20
16.11412278028144
 30
0.0
 10
194.1761714049651
 20
16.04223572621703
 30
0.0
 10
194.1752364849769
 20
15.96168630588771
 30
0.0
 10
194.1765107190041
 20
15.88173995404994
 30
0.0
 10
194.1732043793875
 20
15.80841837083183
 30
0.0
 10
194.1802106179972
 20
15.76688643002568
 30
0.0
 10
194.1701440380136
 20
15.72752418568113
 30
0.0
 10
194.2029814803933
 20
15.73468063430982
 30
0.0
 10
194.2364577296491
 20
15.73027243137944
 30
0.0
 10
194.2915053476029
 20
15.73217943347897
 30
0.0
 10
194.3489502595326
 20
15.73185366407288
 30
0.0
 10
194.4023026248321
 20
15.73106308733083
 30
0.0
 10
194.4398540896649
 20
15.73313959118072
 30
0.0
 10
194.4623172523249
 20
15.7302233816711
 30
0.0
 10
194.4751678073741
 20
15.73572552644055
 30
0.0
 10
194.48582556859
 20
15.7380111819779
 30
0.0
 10
194.4986635650154
 20
15.74494972588053
 30
0.0
 10
194.5145991033081
 20
15.72853046313666
 30
0.0
 10
194.5410623920903
 20
15.71709122319453
 30
0.0
 10
194.5726805253769
 20
15.69644687835187
 30
0.0
 10
194.5987255892162
 20
15.68116869628296
 30
0.0
 10
194.6128517723984
 20
15.67266976323183
 30
0.0
 10
194.617025414849
 20
15.67015871511027
 30
0.0
 11
194.617025414849
 21
15.67015871511027
 31
0.0
 11
194.6049990002254
 21
15.65473571164188
 31
0.0
 11
194.5848961795576
 21
15.64337406233917
 31
0.0
 11
194.4778986355824
 21
15.42440620231159
 31
0.0
 11
194.3477039934335
 21
15.21317201512161
 31
0.0
 11
194.1996540366082
 21
15.01206059027479
 31
0.0
 11
194.2734958253746
 21
14.96147384935379
 31
0.0
 11
194.3605664311811
 21
14.89988411653739
 31
0.0
 11
194.4518003750416
 21
14.83413160594425
 31
0.0
 11
194.5381321779698
 21
14.77105653169304
 31
0.0
 11
194.6104963609798
 21
14.71749910790242
 31
0.0
 11
194.6598274450854
 21
14.68029954869104
 31
0.0
 11
194.6486940702224
 21
14.66471410869494
 31
0.0
 11
194.6221452532414
 21
14.62754882870424
 31
0.0
 11
194.5904579555544
 21
14.58319026871533
 31
0.0
 11
194.5639091385734
 21
14.54602498872462
 31
0.0
 11
194.5527757637104
 21
14.53043954872852
 31
0.0
 11
194.4807013362958
 21
14.59754008690617
 31
0.0
 11
194.3852856985391
 21
14.67993354174669
 31
0.0
 11
194.2793264152181
 21
14.76785017366916
 31
0.0
 11
194.1756210511101
 21
14.85152024309267
 31
0.0
 11
194.1756210511101
 21
14.83304687900863
 31
0.0
 11
194.1756210511101
 21
14.78162102763955
 31
0.0
 11
194.1756210511101
 21
14.70323405030999
 31
0.0
 11
194.1756210511101
 21
14.60387730834449
 31
0.0
 11
194.1756210511101
 21
14.4895421630676
 31
0.0
 11
194.1756210511101
 21
14.36621997580389
 31
0.0
 11
194.1756210511101
 21
14.2399021078779
 31
0.0
 11
194.1756210511101
 21
14.11657992061419
 31
0.0
 11
194.1756210511101
 21
14.0022447753373
 31
0.0
 11
194.1756210511101
 21
13.9028880333718
 31
0.0
 11
194.1756210511101
 21
13.82450105604223
 31
0.0
 11
194.1756210511101
 21
13.77307520467316
 31
0.0
 11
194.1756210511101
 21
13.75460184058912
 31
0.0
 11
194.1569720893637
 21
13.75460184058912
 31
0.0
 11
194.1125014882761
 21
13.75460184058912
 31
0.0
 11
194.0594236740747
 21
13.75460184058912
 31
0.0
 11
194.014953072987
 21
13.75460184058912
 31
0.0
 11
193.9963041112406
 21
13.75460184058912
 31
0.0
 11
193.9963041112406
 21
13.77486797460219
 31
0.0
 11
193.9963041112406
 21
13.83089787452066
 31
0.0
 11
193.9963041112406
 21
13.91553878716347
 31
0.0
 11
193.9963041112406
 21
14.02163795934953
 31
0.0
 11
193.9963041112406
 21
14.14204263789775
 31
0.0
 11
193.9963041112406
 21
14.26960006962705
 31
0.0
 11
193.9963041112406
 21
14.39715750135636
 31
0.0
 11
193.9963041112406
 21
14.51756217990458
 31
0.0
 11
193.9963041112406
 21
14.62366135209064
 31
0.0
 11
193.9963041112406
 21
14.70830226473344
 31
0.0
 11
193.9963041112406
 21
14.76433216465193
 31
0.0
 11
193.9963041112406
 21
14.78459829866499
 31
0.0
 11
193.7883272849492
 21
14.59331998274056
 31
0.0
 11
193.5763486358436
 21
14.43414885430811
 31
0.0
 11
193.5495629014494
 21
14.48814671952095
 31
0.0
 11
193.5138765415035
 21
14.54689140572026
 31
0.0
 11
193.4799697494135
 21
14.59192871537976
 31
0.0
 11
193.683028774233
 21
14.73563387201053
 31
0.0
 11
193.8818531958271
 21
14.91168423529988
 31
0.0
 11
194.0677041444189
 21
15.1132751452495
 31
0.0
 11
194.2318427502314
 21
15.33360194186109
 31
0.0
 11
194.3655301434875
 21
15.56585996513635
 31
0.0
 11
194.3465256724492
 21
15.56585996513635
 31
0.0
 11
194.2944166389573
 21
15.56585996513635
 31
0.0
 11
194.2165596124458
 21
15.56585996513635
 31
0.0
 11
194.1203111623489
 21
15.56585996513635
 31
0.0
 11
194.0130278581008
 21
15.56585996513635
 31
0.0
 11
193.9020662691356
 21
15.56585996513635
 31
0.0
 11
193.7947829648874
 21
15.56585996513635
 31
0.0
 11
193.6985345147906
 21
15.56585996513635
 31
0.0
 11
193.6206774882791
 21
15.56585996513635
 31
0.0
 11
193.5685684547871
 21
15.56585996513635
 31
0.0
 11
193.5495639837489
 21
15.56585996513635
 31
0.0
 11
193.5495639837489
 21
15.58311199790982
 31
0.0
 11
193.5495639837489
 21
15.62425146067731
 31
0.0
 11
193.5495639837489
 21
15.67335340010949
 31
0.0
 11
193.5495639837489
 21
15.71449286287698
 31
0.0
 11
193.5495639837489
 21
15.73174489565045
 31
0.0
 11
193.568759848602
 21
15.73174489565045
 31
0.0
 11
193.6193671286695
 21
15.73174489565045
 31
0.0
 11
193.6909153522131
 21
15.73174489565045
 31
0.0
 11
193.7729340474947
 21
15.73174489565045
 31
0.0
 11
193.8549527427764
 21
15.73174489565045
 31
0.0
 11
193.92650096632
 21
15.73174489565045
 31
0.0
 11
193.9771082463874
 21
15.73174489565045
 31
0.0
 11
193.9963041112406
 21
15.73174489565045
 31
0.0
 11
193.9963041112406
 21
15.74926552655218
 31
0.0
 11
193.9963041112406
 21
15.79622081736882
 31
0.0
 11
193.9963041112406
 21
15.86420086526753
 31
0.0
 11
193.9963041112406
 21
15.94479576741549
 31
0.0
 11
193.9963041112406
 21
16.02959562097986
 31
0.0
 11
193.9963041112406
 21
16.11019052312782
 31
0.0
 11
193.9963041112406
 21
16.17817057102653
 31
0.0
 11
193.9963041112406
 21
16.22512586184317
 31
0.0
 11
193.9963041112406
 21
16.2426464927449
 31
0.0
 11
194.0135484112122
 21
16.24165806167519
 31
0.0
 11
194.0566591611411
 21
16.23918698400091
 31
0.0
 11
194.1127031360488
 21
16.23597458302435
 31
0.0
 11
194.1687471109564
 21
16.2327621820478
 31
0.0
 11
194.2118578608854
 21
16.23029110437352
 31
0.0
 11
194.229102160857
 21
16.22930267330381
 31
0.0
 11
194.2143774674862
 21
16.2055629337264
 31
0.0
 11
194.1756210511101
 21
16.19183767331312
 31
0.0
 11
194.1756210511101
 21
16.17206806177293
 31
0.0
 11
194.1756210511101
 21
16.11994817680333
 31
0.0
 11
194.1756210511101
 21
16.04626144288079
 31
0.0
 11
194.1756210511101
 21
15.96179128448179
 31
0.0
 11
194.1756210511101
 21
15.87732112608278
 31
0.0
 11
194.1756210511101
 21
15.80363439216024
 31
0.0
 11
194.1756210511101
 21
15.75151450719064
 31
0.0
 11
194.1756210511101
 21
15.73174489565045
 31
0.0
 11
194.1916227112947
 21
15.73174489565045
 31
0.0
 11
194.2328901507181
 21
15.73174489565045
 31
0.0
 11
194.2893170576848
 21
15.73174489565045
 31
0.0
 11
194.3507971204992
 21
15.73174489565045
 31
0.0
 11
194.4072240274659
 21
15.73174489565045
 31
0.0
 11
194.4484914668893
 21
15.73174489565045
 31
0.0
 11
194.4644931270739
 21
15.73174489565045
 31
0.0
 11
194.4728206422936
 21
15.73451387455921
 31
0.0
 11
194.4882860277015
 21
15.73965626396118
 31
0.0
 11
194.4966135429211
 21
15.74242524286994
 31
0.0
 11
194.5091363776016
 21
15.73490952398294
 31
0.0
 11
194.5389985218397
 21
15.71698742509854
 31
0.0
 11
194.5746404359304
 21
15.69559653288167
 31
0.0
 11
194.6045025801685
 21
15.67767443399728
 31
0.0
 11
194.617025414849
 21
15.67015871511027
 31
0.0
  0
SPLINE
  5
B1
102
{ACAD_REACTORS
330
CE
102
}
330
48
100
AcDbEntity
  8
_U_30EC_U_30A4_U_30E4_U_30FC_1
  6
Continuous
 62
     2
100
AcDbSpline
210
0.0
220
0.0
230
1.0
 70
    11
 71
     3
 72
   124
 73
   120
 74
   118
 42
0.000000001
 43
0.0000000001
 44
0.00000001
 40
0.0
 40
0.0
 40
0.0
 40
0.0
 40
0.027818722962451
 40
0.1011590162384554
 40
0.2048470170590239
 40
0.3237088716558961
 40
0.4425707262522
 40
0.5462587270699547
 40
0.6195990203311798
 40
0.647417752257866
 40
0.6750060736115224
 40
0.7357003855242759
 40
0.7963946998054492
 40
0.8239830245571784
 40
0.8540933811102878
 40
0.9373396629409274
 40
1.063094687343237
 40
1.220731268638075
 40
1.399622220914749
 40
1.589140358637706
 40
1.778658496423843
 40
1.957549448940511
 40
2.115186030873132
 40
2.240941056914436
 40
2.324187341760477
 40
2.354297700109355
 40
2.381886024671862
 40
2.44258033871045
 40
2.503274652750474
 40
2.530862977314581
 40
2.560983949278534
 40
2.64039378445288
 40
2.752662861759075
 40
2.881361560118063
 40
3.01006025845511
 40
3.122329335705314
 40
3.201739170817871
 40
3.23186014275326
 40
3.264298024030315
 40
3.352343701778188
 40
3.482095226868711
 40
3.639650650172968
 40
3.811108022565425
 40
3.98256539492793
 40
4.140120818152512
 40
4.269872343141222
 40
4.357918020802283
 40
4.390355902043912
 40
4.423256253992482
 40
4.508104530072974
 40
4.62412156063677
 40
4.750528176031499
 40
4.866545206601946
 40
4.951393482691903
 40
4.984293834645304
 40
5.011450833242219
 40
5.071196230152004
 40
5.130941627057083
 40
5.158098625648747
 40
5.190998977601409
 40
5.275847253689235
 40
5.391864284256697
 40
5.518270899648214
 40
5.634287930209253
 40
5.719136206287927
 40
5.752036558235814
 40
5.78213094628284
 40
5.862783906229015
 40
5.979550131774881
 40
6.117984316640288
 40
6.263641154587833
 40
6.402075339414039
 40
6.518841564907834
 40
6.599494524815415
 40
6.629588912848653
 40
6.6544030282262
 40
6.713575149487967
 40
6.784199939329342
 40
6.843372060493415
 40
6.868186175802661
 40
6.896246243201726
 40
6.939586233758149
 40
6.967846564564777
 40
7.043584251089715
 40
7.153234334451573
 40
7.283231855734323
 40
7.420011856035357
 40
7.550009376579709
 40
7.659659458835108
 40
7.735397144417101
 40
7.763657474851273
 40
7.79640972801093
 40
7.880876065096205
 40
7.99637085246559
 40
8.122208446418485
 40
8.237703224799079
 40
8.322169562010773
 40
8.354921815205786
 40
8.382078813307567
 40
8.441824209206873
 40
8.501569605240023
 40
8.528726603485602
 40
8.56147885669565
 40
8.645945193877672
 40
8.761439980865212
 40
8.887277580764383
 40
9.002772362000876
 40
9.087238696661096
 40
9.11999094923555
 40
9.15242883061325
 40
9.240474508638465
 40
9.370226034149415
 40
9.527781457984297
 40
9.699238830981287
 40
9.870696203978476
 40
10.0282516278139
 40
10.15800315332551
 40
10.24604883135106
 40
10.27848670378509
 40
10.27848670378509
 40
10.27848670378509
 40
10.27848670378509
 10
195.3821827564394
 20
14.01410517385757
 30
0.0
 10
195.3914554737534
 20
14.01410498511274
 30
0.0
 10
195.425174453687
 20
14.01410430876713
 30
0.0
 10
195.4934706812476
 20
14.01411807243305
 30
0.0
 10
195.5920141711591
 20
14.01403224219545
 30
0.0
 10
195.7062066464822
 20
14.0144175561225
 30
0.0
 10
195.8185894417082
 20
14.01300835897545
 30
0.0
 10
195.9214376600129
 20
14.01719117422243
 30
0.0
 10
195.980683987486
 20
14.00823089251982
 30
0.0
 10
196.0371265937043
 20
14.02164434526061
 30
0.0
 10
196.0246255586966
 20
13.97087198613361
 30
0.0
 10
196.0329549635715
 20
13.92589320939067
 30
0.0
 10
196.024817084113
 20
13.88056752990488
 30
0.0
 10
196.0370529214468
 20
13.82931932408466
 30
0.0
 10
195.9747773490344
 20
13.84447955365276
 30
0.0
 10
195.9060513026879
 20
13.83359750710743
 30
0.0
 10
195.7782756749602
 20
13.83911304747972
 30
0.0
 10
195.6262984511654
 20
13.83700851253699
 30
0.0
 10
195.4502695972534
 20
13.83771002588473
 30
0.0
 10
195.2644431934298
 20
13.83745237531291
 30
0.0
 10
195.0786167437187
 20
13.83771005144603
 30
0.0
 10
194.9025880142179
 20
13.83700841847731
 30
0.0
 10
194.7506104154206
 20
13.83911332229988
 30
0.0
 10
194.6228357664565
 20
13.8335968076764
 30
0.0
 10
194.5541077836591
 20
13.84448077125942
 30
0.0
 10
194.4918349042894
 20
13.82931786684208
 30
0.0
 10
194.5040616290029
 20
13.88057510805171
 30
0.0
 10
194.4960004462608
 20
13.92582473272425
 30
0.0
 10
194.5040675809903
 20
13.97106357955323
 30
0.0
 10
194.4918238487094
 20
14.02234176909958
 30
0.0
 10
194.5525017120708
 20
14.00749577363134
 30
0.0
 10
194.6162810745747
 20
14.01756448170736
 30
0.0
 10
194.7277314353513
 20
14.01294644211999
 30
0.0
 10
194.8497533443834
 20
14.01413328905468
 30
0.0
 10
194.9719538137833
 20
14.01515863900634
 30
0.0
 10
195.0829794287403
 20
14.01092475623402
 30
0.0
 10
195.1476517413968
 20
14.02018584521739
 30
0.0
 10
195.2091162810512
 20
14.00604423049682
 30
0.0
 10
195.1930065601348
 20
14.07235527884516
 30
0.0
 10
195.2042980327369
 20
14.14447790121976
 30
0.0
 10
195.1987400822571
 20
14.27513760888286
 30
0.0
 10
195.2008035061701
 20
14.42607323708241
 30
0.0
 10
195.2000167127305
 20
14.59335873107886
 30
0.0
 10
195.2007845215636
 20
14.76061110332302
 30
0.0
 10
195.198803878564
 20
14.91163289269914
 30
0.0
 10
195.2041306156631
 20
15.04206069552994
 30
0.0
 10
195.1933101388436
 20
15.11465442605899
 30
0.0
 10
195.2090326429886
 20
15.18150469436798
 30
0.0
 10
195.1432708132501
 20
15.16580512490824
 30
0.0
 10
195.0756367830775
 20
15.17609243083996
 30
0.0
 10
194.961588529382
 20
15.17113786847121
 30
0.0
 10
194.8451242674914
 20
15.17414128030475
 30
0.0
 10
194.7306554121487
 20
15.16880303143389
 30
0.0
 10
194.6640324657824
 20
15.18001268074824
 30
0.0
 10
194.5990769715197
 20
15.16349132665011
 30
0.0
 10
194.6107989758719
 20
15.21473720477059
 30
0.0
 10
194.6032830189131
 20
15.2595033378409
 30
0.0
 10
194.6107989878846
 20
15.30426944897961
 30
0.0
 10
194.5990769505357
 20
15.3555153612974
 30
0.0
 10
194.6640326339211
 20
15.33899381766816
 30
0.0
 10
194.7306533339831
 20
15.35020571373943
 30
0.0
 10
194.8451352858075
 20
15.34485436710665
 30
0.0
 10
194.9615454436974
 20
15.34791188771117
 30
0.0
 10
195.0757660174651
 20
15.34278499010708
 30
0.0
 10
195.1430150439237
 20
15.35345733355599
 30
0.0
 10
195.2083325941449
 20
15.33742082669077
 30
0.0
 10
195.1941391448562
 20
15.39949685750054
 30
0.0
 10
195.2036059463006
 20
15.46586761628762
 30
0.0
 10
195.1990269004096
 20
15.58239972741966
 30
0.0
 10
195.2007696555958
 20
15.71426685022376
 30
0.0
 10
195.1997551495402
 20
15.85615960150273
 30
0.0
 10
195.2017191344383
 20
15.9876905070258
 30
0.0
 10
195.1964668553862
 20
16.10524577283002
 30
0.0
 10
195.2073408763485
 20
16.16947789001583
 30
0.0
 10
195.1919536641864
 20
16.23108802545046
 30
0.0
 10
195.2407591537811
 20
16.21702407382111
 30
0.0
 10
195.2853995564736
 20
16.21954742075314
 30
0.0
 10
195.3538643946753
 20
16.2151279740171
 30
0.0
 10
195.3959106169113
 20
16.20613025544034
 30
0.0
 10
195.4487544758786
 20
16.21411714866512
 30
0.0
 10
195.4207035002024
 20
16.17113917611671
 30
0.0
 10
195.3749142248605
 20
16.18259552043838
 30
0.0
 10
195.3869539073275
 20
16.12173520005136
 30
0.0
 10
195.3796086070653
 20
16.05769299468773
 30
0.0
 10
195.3831195826172
 20
15.94909368863911
 30
0.0
 10
195.3819806760184
 20
15.82494319144753
 30
0.0
 10
195.3819174780274
 20
15.69189719829878
 30
0.0
 10
195.3832872966878
 20
15.56797381249555
 30
0.0
 10
195.3791638801324
 20
15.45868337849339
 30
0.0
 10
195.3877763103576
 20
15.3960858009417
 30
0.0
 10
195.3746757454412
 20
15.33740133296365
 30
0.0
 10
195.4393884328209
 20
15.35362113810902
 30
0.0
 10
195.5060405953166
 20
15.34270260383311
 30
0.0
 10
195.6198779541113
 20
15.34793740173756
 30
0.0
 10
195.7357259122107
 20
15.34485547516913
 30
0.0
 10
195.849692426329
 20
15.35018259812512
 30
0.0
 10
195.916034101811
 20
15.33904208166543
 30
0.0
 10
195.980718852549
 20
15.35546979593178
 30
0.0
 10
195.9689820772733
 20
15.3042592521005
 30
0.0
 10
195.9765168063052
 20
15.25950334121001
 30
0.0
 10
195.9689820992268
 20
15.21474739010027
 30
0.0
 10
195.9807188140747
 20
15.1635369087104
 30
0.0
 10
195.9160344075264
 20
15.17996427794219
 30
0.0
 10
195.8496886430836
 20
15.1688278444727
 30
0.0
 10
195.7357459487023
 20
15.1741311589312
 30
0.0
 10
195.6197995623065
 20
15.17114764593544
 30
0.0
 10
195.5062756882133
 20
15.17606892268393
 30
0.0
 10
195.4389231318814
 20
15.16585087513519
 30
0.0
 10
195.3734285122506
 20
15.18145996138815
 30
0.0
 10
195.3891713619229
 20
15.11463851827411
 30
0.0
 10
195.3783275998223
 20
15.04207057815878
 30
0.0
 10
195.3836581629803
 20
14.91162247614416
 30
0.0
 10
195.3817136151866
 20
14.76064558185226
 30
0.0
 10
195.3823133683224
 20
14.59322243934158
 30
0.0
 10
195.3821506559616
 20
14.42656176118371
 30
0.0
 10
195.3821895488146
 20
14.27360142921636
 30
0.0
 10
195.382181641311
 20
14.14849178985705
 30
0.0
 10
195.3821828382756
 20
14.0650789099142
 30
0.0
 10
195.3821827716219
 20
14.02491778281976
 30
0.0
 10
195.3821827564394
 20
14.01410517385757
 30
0.0
 11
195.3821827564394
 21
14.01410517385757
 31
0.0
 11
195.4100014883686
 21
14.01410517385757
 31
0.0
 11
195.4833417816364
 21
14.01410517385757
 31
0.0
 11
195.5870297824633
 21
14.01410517385757
 31
0.0
 11
195.7058916370697
 21
14.01410517385757
 31
0.0
 11
195.8247534916762
 21
14.01410517385757
 31
0.0
 11
195.9284414925031
 21
14.01410517385757
 31
0.0
 11
196.0017817857709
 21
14.01410517385757
 31
0.0
 11
196.0296005177001
 21
14.01410517385757
 31
0.0
 11
196.0296005177001
 21
13.9865168492117
 31
0.0
 11
196.0296005177001
 21
13.92582253499077
 31
0.0
 11
196.0296005177001
 21
13.86512822076984
 31
0.0
 11
196.0296005177001
 21
13.83753989612397
 31
0.0
 11
195.9994901593505
 21
13.83753989612397
 31
0.0
 11
195.9162438745015
 21
13.83753989612397
 31
0.0
 11
195.7904888484532
 21
13.83753989612397
 31
0.0
 11
195.6328522665052
 21
13.83753989612397
 31
0.0
 11
195.4539613139575
 21
13.83753989612397
 31
0.0
 11
195.26444317611
 21
13.83753989612397
 31
0.0
 11
195.0749250382624
 21
13.83753989612397
 31
0.0
 11
194.8960340857147
 21
13.83753989612397
 31
0.0
 11
194.7383975037667
 21
13.83753989612397
 31
0.0
 11
194.6126424777183
 21
13.83753989612397
 31
0.0
 11
194.5293961928694
 21
13.83753989612397
 31
0.0
 11
194.4992858345198
 21
13.83753989612397
 31
0.0
 11
194.4992858345198
 21
13.86512822076984
 31
0.0
 11
194.4992858345198
 21
13.92582253499077
 31
0.0
 11
194.4992858345198
 21
13.9865168492117
 31
0.0
 11
194.4992858345198
 21
14.01410517385757
 31
0.0
 11
194.5294068064958
 21
14.01410517385757
 31
0.0
 11
194.6088166417051
 21
14.01410517385757
 31
0.0
 11
194.7210857190701
 21
14.01410517385757
 31
0.0
 11
194.8497844175128
 21
14.01410517385757
 31
0.0
 11
194.9784831159556
 21
14.01410517385757
 31
0.0
 11
195.0907521933206
 21
14.01410517385757
 31
0.0
 11
195.1701620285299
 21
14.01410517385757
 31
0.0
 11
195.2002830005059
 21
14.01410517385757
 31
0.0
 11
195.2002830005059
 21
14.04654305523835
 31
0.0
 11
195.2002830005059
 21
14.1345887332719
 31
0.0
 11
195.2002830005059
 21
14.26434025879503
 31
0.0
 11
195.2002830005059
 21
14.42189568264454
 31
0.0
 11
195.2002830005059
 21
14.59335305565724
 31
0.0
 11
195.2002830005059
 21
14.76481042866994
 31
0.0
 11
195.2002830005059
 21
14.92236585251944
 31
0.0
 11
195.2002830005059
 21
15.05211737804257
 31
0.0
 11
195.2002830005059
 21
15.14016305607612
 31
0.0
 11
195.2002830005059
 21
15.1726009374569
 31
0.0
 11
195.1673826485539
 21
15.1726009374569
 31
0.0
 11
195.0825343724673
 21
15.1726009374569
 31
0.0
 11
194.9665173418999
 21
15.1726009374569
 31
0.0
 11
194.8401107265055
 21
15.1726009374569
 31
0.0
 11
194.7240936959381
 21
15.1726009374569
 31
0.0
 11
194.6392454198514
 21
15.1726009374569
 31
0.0
 11
194.6063450678995
 21
15.1726009374569
 31
0.0
 11
194.6063450678995
 21
15.19975793614802
 31
0.0
 11
194.6063450678995
 21
15.2595033332685
 31
0.0
 11
194.6063450678995
 21
15.31924873038898
 31
0.0
 11
194.6063450678995
 21
15.3464057290801
 31
0.0
 11
194.6392454198514
 21
15.3464057290801
 31
0.0
 11
194.7240936959381
 21
15.3464057290801
 31
0.0
 11
194.8401107265055
 21
15.3464057290801
 31
0.0
 11
194.9665173418999
 21
15.3464057290801
 31
0.0
 11
195.0825343724673
 21
15.3464057290801
 31
0.0
 11
195.1673826485539
 21
15.3464057290801
 31
0.0
 11
195.2002830005059
 21
15.3464057290801
 31
0.0
 11
195.2002830005059
 21
15.3765001173137
 31
0.0
 11
195.2002830005059
 21
15.45715307777974
 31
0.0
 11
195.2002830005059
 21
15.57391930412609
 31
0.0
 11
195.2002830005059
 21
15.71235349000063
 31
0.0
 11
195.2002830005059
 21
15.85801032905124
 31
0.0
 11
195.2002830005059
 21
15.99644451492578
 31
0.0
 11
195.2002830005059
 21
16.11321074127214
 31
0.0
 11
195.2002830005059
 21
16.19386370173817
 31
0.0
 11
195.2002830005059
 21
16.22395808997177
 31
0.0
 11
195.2250405288628
 21
16.22228324219442
 31
0.0
 11
195.284077711868
 21
16.21828937441765
 31
0.0
 11
195.3545414464225
 21
16.21352249997441
 31
0.0
 11
195.4135786294276
 21
16.20952863219765
 31
0.0
 11
195.4383361577846
 21
16.20785378442029
 31
0.0
 11
195.4233067224041
 21
16.1841581420651
 31
0.0
 11
195.3821827564394
 21
16.17047697887404
 31
0.0
 11
195.3821827564394
 21
16.14221664794832
 31
0.0
 11
195.3821827564394
 21
16.0664789610674
 31
0.0
 11
195.3821827564394
 21
15.95682887707561
 31
0.0
 11
195.3821827564394
 21
15.82683135481731
 31
0.0
 11
195.3821827564394
 21
15.69005135313683
 31
0.0
 11
195.3821827564394
 21
15.56005383087853
 31
0.0
 11
195.3821827564394
 21
15.45040374688674
 31
0.0
 11
195.3821827564394
 21
15.37466606000582
 31
0.0
 11
195.3821827564394
 21
15.3464057290801
 31
0.0
 11
195.4149350096125
 21
15.3464057290801
 31
0.0
 11
195.4994013467433
 21
15.3464057290801
 31
0.0
 11
195.6148961342487
 21
15.3464057290801
 31
0.0
 11
195.7407337385456
 21
15.3464057290801
 31
0.0
 11
195.8562285260509
 21
15.3464057290801
 31
0.0
 11
195.9406948631817
 21
15.3464057290801
 31
0.0
 11
195.9734471163549
 21
15.3464057290801
 31
0.0
 11
195.9734471163549
 21
15.31924873038898
 31
0.0
 11
195.9734471163549
 21
15.2595033332685
 31
0.0
 11
195.9734471163549
 21
15.19975793614802
 31
0.0
 11
195.9734471163549
 21
15.1726009374569
 31
0.0
 11
195.9406948631817
 21
15.1726009374569
 31
0.0
 11
195.856228526051
 21
15.1726009374569
 31
0.0
 11
195.7407337385456
 21
15.1726009374569
 31
0.0
 11
195.6148961342487
 21
15.1726009374569
 31
0.0
 11
195.4994013467433
 21
15.1726009374569
 31
0.0
 11
195.4149350096125
 21
15.1726009374569
 31
0.0
 11
195.3821827564394
 21
15.1726009374569
 31
0.0
 11
195.3821827564394
 21
15.14016305607612
 31
0.0
 11
195.3821827564394
 21
15.05211737804257
 31
0.0
 11
195.3821827564394
 21
14.92236585251945
 31
0.0
 11
195.3821827564394
 21
14.76481042866994
 31
0.0
 11
195.3821827564394
 21
14.59335305565724
 31
0.0
 11
195.3821827564394
 21
14.42189568264453
 31
0.0
 11
195.3821827564394
 21
14.26434025879503
 31
0.0
 11
195.3821827564394
 21
14.1345887332719
 31
0.0
 11
195.3821827564394
 21
14.04654305523835
 31
0.0
 11
195.3821827564394
 21
14.01410517385757
 31
0.0
  0
SPLINE
  5
B2
102
{ACAD_REACTORS
330
CF
102
}
330
48
100
AcDbEntity
  8
_U_30EC_U_30A4_U_30E4_U_30FC_1
  6
Continuous
 62
     2
100
AcDbSpline
210
0.0
220
0.0
230
1.0
 70
     8
 71
     3
 72
    62
 73
    58
 74
    56
 42
0.000000001
 43
0.0000000001
 44
0.00000001
 40
0.0
 40
0.0
 40
0.0
 40
0.0
 40
0.0598250028308769
 40
0.2024846486897331
 40
0.3727558389220746
 40
0.515415484793607
 40
0.5752404975785339
 40
0.933232677548711
 40
1.29045176283946
 40
1.602077253145861
 40
1.699931634112094
 40
1.799359756425011
 40
2.27012014965707
 40
2.804661928461514
 40
2.882342287383227
 40
3.076543185719077
 40
3.329004354835537
 40
3.581465524568364
 40
3.775666424543648
 40
3.853346784558268
 40
3.899120679595042
 40
3.984129341791983
 40
4.02990323681736
 40
4.105797496059517
 40
4.295533144152476
 40
4.542189486611718
 40
4.788845828875664
 40
4.97858147641005
 40
5.054475735244293
 40
5.621734664339327
 40
6.130867242037337
 40
6.225249780948584
 40
6.318913039727255
 40
6.663579954558855
 40
7.047498900224724
 40
7.435230791575656
 40
7.49894390666804
 40
7.650875181210062
 40
7.832212509001573
 40
7.984143783696987
 40
8.047856898903113
 40
8.091554632732619
 40
8.172707566964277
 40
8.216405300767999
 40
8.289021782160884
 40
8.462184160757257
 40
8.668861838005395
 40
8.842024215263958
 40
8.914640695475153
 40
8.98988158086136
 40
9.155411528827267
 40
9.32094147774405
 40
9.396182352487303
 40
9.45470901114385
 40
9.583467660170813
 40
9.712226309013035
 40
9.770752957989517
 40
9.770752957989517
 40
9.770752957989517
 40
9.770752957989517
 10
187.1521871691844
 20
14.9398028819595
 30
0.0
 10
187.1322348171634
 20
14.93980875568671
 30
0.0
 10
187.0647037716477
 20
14.93982863806157
 30
0.0
 10
186.9410612161799
 20
14.93949362520326
 30
0.0
 10
186.7863180150068
 20
14.94107673750512
 30
0.0
 10
186.6697349482491
 20
14.93686078860495
 30
0.0
 10
186.4550942634252
 20
14.95215205331626
 30
0.0
 10
186.8518948407239
 20
14.59198721286191
 30
0.0
 10
186.8945656069279
 20
14.37510503397166
 30
0.0
 10
187.3189162146621
 20
14.19325062511448
 30
0.0
 10
187.1439821496085
 20
14.08985196568072
 30
0.0
 10
187.0194523925093
 20
13.87831523212723
 30
0.0
 10
186.7666277235954
 20
14.3480608100156
 30
0.0
 10
186.4797602893637
 20
14.9951151698452
 30
0.0
 10
186.4906335926671
 20
14.68782672154694
 30
0.0
 10
186.4882892777971
 20
14.52288616971778
 30
0.0
 10
186.4861096126422
 20
14.28879670711693
 30
0.0
 10
186.4980774396357
 20
14.04498072421783
 30
0.0
 10
186.4687984740641
 20
13.89855796860985
 30
0.0
 10
186.5114522625481
 20
13.75113490174537
 30
0.0
 10
186.4239814005651
 20
13.76685797306221
 30
0.0
 10
186.3768527606755
 20
13.76694303543455
 30
0.0
 10
186.2898973207724
 20
13.75109425482908
 30
0.0
 10
186.3313474021734
 20
13.89527771422762
 30
0.0
 10
186.3029875004296
 20
14.03855052698456
 30
0.0
 10
186.314597377531
 20
14.27674947365265
 30
0.0
 10
186.3124175648283
 20
14.50517235240346
 30
0.0
 10
186.3103111128005
 20
14.66705729375994
 30
0.0
 10
186.3208035438333
 20
14.98153709333752
 30
0.0
 10
186.0128963252904
 20
14.29229470872436
 30
0.0
 10
185.7055258267467
 20
13.81476750243053
 30
0.0
 10
185.5851367066285
 20
14.03741112637426
 30
0.0
 10
185.4074607910733
 20
14.15011034955568
 30
0.0
 10
185.8853326362905
 20
14.32548143465462
 30
0.0
 10
185.9353959057219
 20
14.5609192925203
 30
0.0
 10
186.3583799621728
 20
14.95322989344606
 30
0.0
 10
186.1276754273551
 20
14.93655307029066
 30
0.0
 10
186.0049685859352
 20
14.94269518948771
 30
0.0
 10
185.8325483095673
 20
14.93312822699573
 30
0.0
 10
185.721322469446
 20
14.95448818489667
 30
0.0
 10
185.6025779627458
 20
14.92136265357419
 30
0.0
 10
185.6183169706697
 20
15.00203900606884
 30
0.0
 10
185.6178550933773
 20
15.04645414290853
 30
0.0
 10
185.6027881889942
 20
15.12967081778533
 30
0.0
 10
185.7372380935454
 20
15.09062651983882
 30
0.0
 10
185.8619755545757
 20
15.11739729328422
 30
0.0
 10
186.0628755237291
 20
15.10063949044051
 30
0.0
 10
186.1921540949364
 20
15.12204225913004
 30
0.0
 10
186.3328419928306
 20
15.08868778853421
 30
0.0
 10
186.2980927452626
 20
15.22651875785067
 30
0.0
 10
186.3222185666723
 20
15.34963257349481
 30
0.0
 10
186.2967086182404
 20
15.47024055670335
 30
0.0
 10
186.3333251146695
 20
15.60539865141495
 30
0.0
 10
186.221141702778
 20
15.58094545781891
 30
0.0
 10
186.1280356457147
 20
15.59307749842022
 30
0.0
 10
186.0191547579831
 20
15.58957630069994
 30
0.0
 10
185.9569697640975
 20
15.58981755951602
 30
0.0
 10
185.9375369557257
 20
15.58989295124144
 30
0.0
 11
187.1521871691844
 21
14.9398028819595
 31
0.0
 11
187.0923621563993
 21
14.9398028819595
 31
0.0
 11
186.9497025105271
 21
14.9398028819595
 31
0.0
 11
186.7794313202925
 21
14.9398028819595
 31
0.0
 11
186.6367716744202
 21
14.9398028819595
 31
0.0
 11
186.5769466616351
 21
14.9398028819595
 31
0.0
 11
186.7679960754853
 21
14.63705127966891
 31
0.0
 11
186.994127278564
 21
14.36051890576684
 31
0.0
 11
187.2244526173382
 21
14.15061253493457
 31
0.0
 11
187.1521596330715
 21
14.08466403668716
 31
0.0
 11
187.0879364402654
 21
14.0087605905256
 31
0.0
 11
186.7732818215569
 21
14.35891458349363
 31
0.0
 11
186.4886640249987
 21
14.81138295143601
 31
0.0
 11
186.4886640249987
 21
14.73370259137313
 31
0.0
 11
186.4886640249987
 21
14.53950169121593
 31
0.0
 11
186.4886640249987
 21
14.28704052101157
 31
0.0
 11
186.4886640249987
 21
14.0345793508072
 31
0.0
 11
186.4886640249987
 21
13.84037845065
 31
0.0
 11
186.4886640249987
 21
13.76269809058712
 31
0.0
 11
186.4428901295616
 21
13.76269809058712
 31
0.0
 11
186.357881466607
 21
13.76269809058712
 31
0.0
 11
186.3121075711698
 21
13.76269809058712
 31
0.0
 11
186.3121075711698
 21
13.8385923498274
 31
0.0
 11
186.3121075711698
 21
14.02832799792811
 31
0.0
 11
186.3121075711698
 21
14.27498434045904
 31
0.0
 11
186.3121075711698
 21
14.52164068298996
 31
0.0
 11
186.3121075711698
 21
14.71137633109067
 31
0.0
 11
186.3121075711698
 21
14.78727059033095
 31
0.0
 11
185.9987626399277
 21
14.31440946197693
 31
0.0
 11
185.6352328662159
 21
13.95795177109382
 31
0.0
 11
185.5773927461638
 21
14.03253450545022
 31
0.0
 11
185.5094852305352
 21
14.09704322939242
 31
0.0
 11
185.775072189833
 21
14.3167221979589
 31
0.0
 11
186.0233764972072
 21
14.60953395971697
 31
0.0
 11
186.2264982805271
 21
14.9398028819595
 31
0.0
 11
186.1627851652732
 21
14.9398028819595
 31
0.0
 11
186.010853890437
 21
14.9398028819595
 31
0.0
 11
185.8295165624066
 21
14.9398028819595
 31
0.0
 11
185.6775852875704
 21
14.9398028819595
 31
0.0
 11
185.6138721723165
 21
14.9398028819595
 31
0.0
 11
185.6138721723165
 21
14.98350061600208
 31
0.0
 11
185.6138721723165
 21
15.06465355065259
 31
0.0
 11
185.6138721723165
 21
15.10835128469517
 31
0.0
 11
185.6864886537972
 21
15.10835128469517
 31
0.0
 11
185.8596510327129
 21
15.10835128469517
 31
0.0
 11
186.0663287107735
 21
15.10835128469517
 31
0.0
 11
186.2394910896891
 21
15.10835128469517
 31
0.0
 11
186.3121075711698
 21
15.10835128469517
 31
0.0
 11
186.3121075711698
 21
15.18359217009302
 31
0.0
 11
186.3121075711698
 21
15.3491221179683
 31
0.0
 11
186.3121075711698
 21
15.51465206584358
 31
0.0
 11
186.3121075711698
 21
15.58989295124144
 31
0.0
 11
186.2535809125066
 21
15.58989295124144
 31
0.0
 11
186.1248222634478
 21
15.58989295124144
 31
0.0
 11
185.9960636143888
 21
15.58989295124144
 31
0.0
 11
185.9375369557257
 21
15.58989295124144
 31
0.0
  0
SPLINE
  5
B3
102
{ACAD_REACTORS
330
CF
102
}
330
48
100
AcDbEntity
  8
_U_30EC_U_30A4_U_30E4_U_30FC_1
  6
Continuous
 62
     2
100
AcDbSpline
210
0.0
220
0.0
230
1.0
 70
     8
 71
     3
 72
    70
 73
    66
 74
    64
 42
0.000000001
 43
0.0000000001
 44
0.00000001
 40
0.0
 40
0.0
 40
0.0
 40
0.0
 40
0.0241731073021188
 40
0.0846058988987013
 40
0.1631685280353284
 40
0.241731157179004
 40
0.3021639488292751
 40
0.3263370654895825
 40
0.3533118254249165
 40
0.4228783438922395
 40
0.5179999095313687
 40
0.6216398239466386
 40
0.716761389149999
 40
0.7863279069650148
 40
0.813302679176212
 40
0.8372943998771958
 40
0.894505426137287
 40
0.9627895541962923
 40
1.020000580349102
 40
1.043992300975172
 40
1.071934345522902
 40
1.113121768772888
 40
1.145225199332213
 40
1.225483775412748
 40
1.329819923771456
 40
1.434156071994346
 40
1.514414647795767
 40
1.546518078208375
 40
1.578974764260177
 40
1.662678849314115
 40
1.777131373668364
 40
1.901833377474727
 40
2.016285900500517
 40
2.099989982527884
 40
2.132446666570242
 40
2.158782354485965
 40
2.216720867907755
 40
2.274659381334178
 40
2.300995069256112
 40
2.333451754066084
 40
2.417155836543765
 40
2.531608358985205
 40
2.656310362283699
 40
2.770762886388775
 40
2.85446697133994
 40
2.886923657363775
 40
2.913597976833209
 40
2.982389642875013
 40
3.076451716946876
 40
3.178937260458493
 40
3.272999334739895
 40
3.341791001059118
 40
3.368465320663431
 40
3.39697608073868
 40
3.472140811845859
 40
3.578408190308606
 40
3.700226892456042
 40
3.822045594634231
 40
3.928312973256309
 40
4.003477705314763
 40
4.031988456866801
 40
4.0583241447976
 40
4.116262658236762
 40
4.174201171400558
 40
4.200536849608492
 40
4.200536849608492
 40
4.200536849608492
 40
4.200536849608492
 10
185.985770496162
 20
15.75844135397705
 30
0.0
 10
185.993825954469
 20
15.75844359811687
 30
0.0
 10
186.0220200663251
 20
15.75845146032798
 30
0.0
 10
186.0765534803683
 20
15.75830754828371
 30
0.0
 10
186.1482891808614
 20
15.75909120499898
 30
0.0
 10
186.2236240137073
 20
15.75627570463811
 30
0.0
 10
186.271305236645
 20
15.76298403400957
 30
0.0
 10
186.3195071245627
 20
15.75197563692432
 30
0.0
 10
186.3062571799885
 20
15.80546402997032
 30
0.0
 10
186.3151093964548
 20
15.86049583543092
 30
0.0
 10
186.3108698036297
 20
15.95419908726109
 30
0.0
 10
186.313348348129
 20
16.04959482218532
 30
0.0
 10
186.3090938706072
 20
16.14356821983387
 30
0.0
 10
186.3179818665857
 20
16.19795062438012
 30
0.0
 10
186.3046977409956
 20
16.25233997691461
 30
0.0
 10
186.351411927712
 20
16.23842216335358
 30
0.0
 10
186.3943254545747
 20
16.24103877374043
 30
0.0
 10
186.4605443456696
 20
16.23648422450754
 30
0.0
 10
186.5013342271809
 20
16.22778162134163
 30
0.0
 10
186.5525145690829
 20
16.23531799890193
 30
0.0
 10
186.5253720487211
 20
16.19349970223286
 30
0.0
 10
186.4803096055717
 20
16.20284992072595
 30
0.0
 10
186.4942065045063
 20
16.13841207371837
 30
0.0
 10
186.4858414431665
 20
16.07378219627399
 30
0.0
 10
186.490363217841
 20
15.97529141193887
 30
0.0
 10
186.4854741311178
 20
15.8759593284257
 30
0.0
 10
186.4950258992092
 20
15.81293115552968
 30
0.0
 10
186.4799761455212
 20
15.74964011499788
 30
0.0
 10
186.5449159457219
 20
15.76515072944268
 30
0.0
 10
186.6116246399508
 20
15.75499387697812
 30
0.0
 10
186.7241435470838
 20
15.75988800099367
 30
0.0
 10
186.8390235448965
 20
15.75691204732784
 30
0.0
 10
186.9519871999757
 20
15.76221664184991
 30
0.0
 10
187.0176267597688
 20
15.75107306472089
 30
0.0
 10
187.0816276691064
 20
15.76744532319857
 30
0.0
 10
187.07031428892
 20
15.71761689905274
 30
0.0
 10
187.0775339871521
 20
15.67416715212123
 30
0.0
 10
187.0703142611279
 20
15.63071745587445
 30
0.0
 10
187.0816277176005
 20
15.58088895196876
 30
0.0
 10
187.0176263598982
 20
15.59726166091362
 30
0.0
 10
186.951992124047
 20
15.58611271661588
 30
0.0
 10
186.8389974317342
 20
15.59144857206854
 30
0.0
 10
186.7242456548653
 20
15.58834345663822
 30
0.0
 10
186.6113183686873
 20
15.59364894682589
 30
0.0
 10
186.5455220903596
 20
15.58257300019593
 30
0.0
 10
186.4816097975369
 20
15.59887597847619
 30
0.0
 10
186.4936015165138
 20
15.54423524395742
 30
0.0
 10
186.4862104613016
 20
15.48854295047841
 30
0.0
 10
186.4892684841994
 20
15.3964968914057
 30
0.0
 10
186.4893422785695
 20
15.30179109873101
 30
0.0
 10
186.486031357837
 20
15.20952782902265
 30
0.0
 10
186.4939505989914
 20
15.15435768736139
 30
0.0
 10
186.4815076611628
 20
15.10058169100135
 30
0.0
 10
186.5389116551643
 20
15.11453768862781
 30
0.0
 10
186.5994708140394
 20
15.10511457884226
 30
0.0
 10
186.7048680855091
 20
15.10942885928704
 30
0.0
 10
186.8204294070634
 20
15.10835504612032
 30
0.0
 10
186.9359688877808
 20
15.10725965900995
 30
0.0
 10
187.0414181130853
 20
15.11162525770632
 30
0.0
 10
187.1018680471814
 20
15.1020942603067
 30
0.0
 10
187.1592837739122
 20
15.11617289606379
 30
0.0
 10
187.147777387672
 20
15.06707153265683
 30
0.0
 10
187.153756678176
 20
15.02564658018648
 30
0.0
 10
187.1520311050813
 20
14.97651677966696
 30
0.0
 10
187.1521500122982
 20
14.94854428447608
 30
0.0
 10
187.1521871691844
 20
14.9398028819595
 30
0.0
 11
185.985770496162
 21
15.75844135397705
 31
0.0
 11
186.0099436128292
 21
15.75844135397705
 31
0.0
 11
186.0703764044973
 21
15.75844135397705
 31
0.0
 11
186.1489390336659
 21
15.75844135397705
 31
0.0
 11
186.2275016628345
 21
15.75844135397705
 31
0.0
 11
186.2879344545025
 21
15.75844135397705
 31
0.0
 11
186.3121075711698
 21
15.75844135397705
 31
0.0
 11
186.3121075711698
 21
15.78541612620063
 31
0.0
 11
186.3121075711698
 21
15.85498264404039
 31
0.0
 11
186.3121075711698
 21
15.95010420924985
 31
0.0
 11
186.3121075711698
 21
16.05374412358256
 31
0.0
 11
186.3121075711698
 21
16.14886568879202
 31
0.0
 11
186.3121075711698
 21
16.21843220663178
 31
0.0
 11
186.3121075711698
 21
16.24540697885536
 31
0.0
 11
186.3360407604903
 21
16.243732131078
 31
0.0
 11
186.3931122119469
 21
16.23973826330121
 31
0.0
 11
186.4612297507821
 21
16.23497138885795
 31
0.0
 11
186.5183012022387
 21
16.23097752108117
 31
0.0
 11
186.5422343915592
 21
16.22930267330381
 31
0.0
 11
186.527497273124
 21
16.2055629337264
 31
0.0
 11
186.4886640249987
 21
16.19183767331312
 31
0.0
 11
186.4886640249987
 21
16.15973424225119
 31
0.0
 11
186.4886640249987
 21
16.07947566459636
 31
0.0
 11
186.4886640249987
 21
15.97513951364509
 31
0.0
 11
186.4886640249987
 21
15.87080336269381
 31
0.0
 11
186.4886640249987
 21
15.79054478503898
 31
0.0
 11
186.4886640249987
 21
15.75844135397705
 31
0.0
 11
186.5211207110835
 21
15.75844135397705
 31
0.0
 11
186.6048247962496
 21
15.75844135397705
 31
0.0
 11
186.7192773208645
 21
15.75844135397705
 31
0.0
 11
186.8439793252957
 21
15.75844135397705
 31
0.0
 11
186.9584318499105
 21
15.75844135397705
 31
0.0
 11
187.0421359350767
 21
15.75844135397705
 31
0.0
 11
187.0745926211615
 21
15.75844135397705
 31
0.0
 11
187.0745926211615
 21
15.73210566604961
 31
0.0
 11
187.0745926211615
 21
15.67416715260924
 31
0.0
 11
187.0745926211615
 21
15.61622863916888
 31
0.0
 11
187.0745926211615
 21
15.58989295124144
 31
0.0
 11
187.0421359350767
 21
15.58989295124144
 31
0.0
 11
186.9584318499105
 21
15.58989295124144
 31
0.0
 11
186.8439793252957
 21
15.58989295124144
 31
0.0
 11
186.7192773208645
 21
15.58989295124144
 31
0.0
 11
186.6048247962497
 21
15.58989295124144
 31
0.0
 11
186.5211207110835
 21
15.58989295124144
 31
0.0
 11
186.4886640249987
 21
15.58989295124144
 31
0.0
 11
186.4886640249987
 21
15.56321863152022
 31
0.0
 11
186.4886640249987
 21
15.49442696487075
 31
0.0
 11
186.4886640249987
 21
15.40036489006434
 31
0.0
 11
186.4886640249987
 21
15.29787934587227
 31
0.0
 11
186.4886640249987
 21
15.20381727106586
 31
0.0
 11
186.4886640249987
 21
15.13502560441639
 31
0.0
 11
186.4886640249987
 21
15.10835128469517
 31
0.0
 11
186.5171747851005
 21
15.10835128469517
 31
0.0
 11
186.5923395162777
 21
15.10835128469517
 31
0.0
 11
186.6986068948387
 21
15.10835128469517
 31
0.0
 11
186.8204255970916
 21
15.10835128469517
 31
0.0
 11
186.9422442993444
 21
15.10835128469517
 31
0.0
 11
187.0485116779054
 21
15.10835128469517
 31
0.0
 11
187.1236764090827
 21
15.10835128469517
 31
0.0
 11
187.1521871691844
 21
15.10835128469517
 31
0.0
 11
187.1521871691844
 21
15.08201559676772
 31
0.0
 11
187.1521871691844
 21
15.02407708332733
 31
0.0
 11
187.1521871691844
 21
14.96613856988695
 31
0.0
 11
187.1521871691844
 21
14.9398028819595
 31
0.0
  0
SPLINE
  5
B4
102
{ACAD_REACTORS
330
CF
102
}
330
48
100
AcDbEntity
  8
_U_30EC_U_30A4_U_30E4_U_30FC_1
  6
Continuous
 62
     2
100
AcDbSpline
210
0.0
220
0.0
230
1.0
 70
     8
 71
     3
 72
    24
 73
    20
 74
    18
 42
0.000000001
 43
0.0000000001
 44
0.00000001
 40
0.0
 40
0.0
 40
0.0
 40
0.0
 40
0.2211075008753887
 40
0.4273218586245351
 40
0.5080174679239361
 40
0.5914835907870502
 40
0.8143265690193232
 40
1.054651302686627
 40
1.295452694023215
 40
1.51810923132887
 40
1.540864321905458
 40
1.595126460622719
 40
1.65989094789606
 40
1.714153085187419
 40
1.736908174961719
 40
1.764951100735406
 40
1.801562291220995
 40
1.953914424543677
 40
2.126104167379758
 40
2.126104167379758
 40
2.126104167379758
 40
2.126104167379758
 10
185.93753695569
 20
15.58989295113016
 30
0.0
 10
185.9112579081823
 20
15.53097628234374
 30
0.0
 10
185.8604698894437
 20
15.41711139679257
 30
0.0
 10
185.8131784839122
 20
15.14441958233115
 30
0.0
 10
185.7043482802629
 20
15.24445482575456
 30
0.0
 10
185.5514800279648
 20
15.27118593367329
 30
0.0
 10
185.7686155181211
 20
15.4851813501763
 30
0.0
 10
185.7838483674391
 20
15.70332117782487
 30
0.0
 10
185.8906889492011
 20
15.88451579066423
 30
0.0
 10
185.8305380947089
 20
16.16913226311404
 30
0.0
 10
185.9334317395412
 20
16.1411408922245
 30
0.0
 10
185.9779933468161
 20
16.13243251602299
 30
0.0
 10
186.0380842395407
 20
16.12139654183355
 30
0.0
 10
186.0756619587449
 20
16.10767523055559
 30
0.0
 10
186.1252466928617
 20
16.10756076160223
 30
0.0
 10
186.0930158919336
 20
16.07306592398623
 30
0.0
 10
186.0171802221892
 20
16.08404104537964
 30
0.0
 10
186.0429447159704
 20
15.8985896958245
 30
0.0
 10
186.0055896763861
 20
15.80702313549589
 30
0.0
 10
185.985770496162
 20
15.75844135397705
 30
0.0
 11
185.93753695569
 21
15.58989295113016
 31
0.0
 11
185.8616471328563
 21
15.38221708318559
 31
0.0
 11
185.7717402238444
 21
15.19663392356192
 31
0.0
 11
185.7011493923121
 21
15.23573272563551
 31
0.0
 11
185.6245525192662
 21
15.26889163187719
 31
0.0
 11
185.7214026947467
 21
15.46958801203538
 31
0.0
 11
185.7994641467482
 21
15.69688163177024
 31
0.0
 11
185.8589716929731
 21
15.93021436608691
 31
0.0
 11
185.9001601511237
 21
16.14902808999054
 31
0.0
 11
185.9224183822225
 21
16.14429889221395
 31
0.0
 11
185.9754957025351
 21
16.13302157443899
 31
0.0
 11
186.0388460525855
 21
16.11956154999792
 31
0.0
 11
186.0919233728981
 21
16.10828423222296
 31
0.0
 11
186.1141816039969
 21
16.10355503444637
 31
0.0
 11
186.0964097157471
 21
16.0818625084101
 31
0.0
 11
186.0606122998082
 21
16.07418628445367
 31
0.0
 11
186.0281953301491
 21
15.92532288171313
 31
0.0
 11
185.985770496162
 21
15.75844135397705
 31
0.0
  0
LWPOLYLINE
  5
B5
102
{ACAD_REACTORS
330
D0
102
}
330
48
100
AcDbEntity
  8
_U_30EC_U_30A4_U_30E4_U_30FC_1
  6
Continuous
 62
     2
100
AcDbPolyline
 90
        5
 70
     1
 43
0.0
 10
191.1602971697042
 20
15.39722336795625
 10
192.4578138032683
 20
15.39722336795625
 10
192.4578138032683
 20
15.22875434022057
 10
191.1602971697042
 20
15.22875434022057
 10
191.1602971697042
 20
15.39722336795625
  0
MTEXT
  5
B7
330
48
100
AcDbEntity
  8
1
 62
   250
100
AcDbMText
 10
25.00000000000111
 20
5.0
 30
0.0
 40
3.5
 41
0.0
 71
     4
 72
     1
  1
備考欄の文字列 原点位置=4
  7
CONVERTER_11
 73
     1
 44
0.54545454545455
  0
MTEXT
  5
B8
330
48
100
AcDbEntity
  8
1
 62
     2
100
AcDbMText
 10
89.5000000000011
 20
24.00000000000001
 30
0.0
 40
3.5
 41
0.0
 71
     5
 72
     1
  1
尺度
  7
CONVERTER_11
 73
     1
 44
0.54545454545455
  0
MTEXT
  5
B9
330
48
100
AcDbEntity
  8
1
 62
     2
100
AcDbMText
 10
135.5000000000011
 20
25.00000000000001
 30
0.0
 40
3.0
 41
0.0
 71
     5
 72
     1
  1
製図
  7
CONVERTER_11
 73
     1
 44
0.59090909090909
  0
MTEXT
  5
BA
330
48
100
AcDbEntity
  8
1
 62
     2
100
AcDbMText
 10
152.5000000000011
 20
25.00000000000001
 30
0.0
 40
3.0
 41
0.0
 71
     5
 72
     1
  1
設計
  7
CONVERTER_11
 73
     1
 44
0.59090909090909
  0
MTEXT
  5
BB
330
48
100
AcDbEntity
  8
1
 62
     2
100
AcDbMText
 10
118.5000000000011
 20
25.00000000000001
 30
0.0
 40
3.0
 41
0.0
 71
     5
 72
     1
  1
検図
  7
CONVERTER_11
 73
     1
 44
0.59090909090909
  0
MTEXT
  5
BC
330
48
100
AcDbEntity
  8
1
 62
     2
100
AcDbMText
 10
175.0000000000011
 20
23.50000000000001
 30
0.0
 40
3.5
 41
0.0
 71
     5
 72
     1
  1
第三角法
  7
CONVERTER_11
 73
     1
 44
0.54545454545455
  0
MTEXT
  5
BD
330
48
100
AcDbEntity
  8
1
 62
     2
100
AcDbMText
 10
101.5000000000011
 20
25.00000000000001
 30
0.0
 40
3.0
 41
0.0
 71
     5
 72
     1
  1
承認
  7
CONVERTER_11
 73
     1
 44
0.59090909090909
  0
MTEXT
  5
BE
330
48
100
AcDbEntity
  8
1
 62
     2
100
AcDbMText
 10
29.00000000000111
 20
14.25
 30
0.0
 40
3.5
 41
0.0
 71
     5
 72
     1
  1
品番
  7
CONVERTER_11
 73
     1
 44
0.72727272727273
  0
MTEXT
  5
BF
330
48
100
AcDbEntity
  8
1
 62
     2
100
AcDbMText
 10
29.00000000000111
 20
22.75
 30
0.0
 40
3.5
 41
0.0
 71
     5
 72
     1
  1
品名
  7
CONVERTER_11
 73
     1
 44
0.72727272727273
  0
MTEXT
  5
C0
330
48
100
AcDbEntity
  8
1
 62
     2
100
AcDbMText
 10
29.00000000000111
 20
34.00000000000001
 30
0.0
 40
3.5
 41
0.0
 71
     5
 72
     1
  1
備考
  7
CONVERTER_11
 73
     1
 44
0.45454545454545
  0
MTEXT
  5
C1
330
48
100
AcDbEntity
  8
1
 62
     2
100
AcDbMText
 10
32.50000000000111
 20
282.0000000000002
 30
0.0
 40
5.0
 41
0.0
 71
     5
 72
     1
  1
図番
  7
CONVERTER_11
 73
     1
 44
0.45454545454545
  0
HATCH
  5
C2
330
48
100
AcDbEntity
  8
1
  6
Continuous
 62
     2
100
AcDbHatch
 10
0.0
 20
0.0
 30
0.0
210
0.0
220
0.0
230
1.0
  2
CUSTOM0
 70
     0
 71
     1
 91
        1
 92
        1
 93
        1
 72
     4
 94
        3
 73
     0
 74
     0
 95
       99
 96
       95
 40
0.0
 40
0.0
 40
0.0
 40
0.0
 40
0.0796417172272494
 40
0.1621768542356028
 40
0.2486489160957443
 40
0.34049696685244
 40
0.4381912511164698
 40
0.5434463660244999
 40
0.6518115192847319
 40
0.753019093788662
 40
0.849219691972514
 40
0.9419290312997977
 40
1.034249663570039
 40
1.129078600620178
 40
1.226697027573223
 40
1.327220425421688
 40
1.470572134938007
 40
1.595489863371193
 40
1.719934125348374
 40
1.850576620127391
 40
1.989059629987306
 40
2.134139054226898
 40
2.280698007207212
 40
2.424529739039481
 40
2.565929576985825
 40
2.708239260773538
 40
2.861717887443668
 40
3.045168540347376
 40
3.183798301138615
 40
3.314813961455473
 40
3.442083470447323
 40
3.56991270837298
 40
3.702177512509402
 40
3.842307559659542
 40
3.992872223245918
 40
4.156750662218336
 40
4.310981861107529
 40
4.445859909322603
 40
4.572393936131543
 40
4.701656719781965
 40
4.768279086008453
 40
4.835960697898399
 40
4.912788918729324
 40
5.006285208481525
 40
5.026909478751602
 40
5.047533749021166
 40
5.101808031471239
 40
5.162325165538528
 40
5.226919745995833
 40
5.294231806596724
 40
5.364544852554872
 40
5.438319055467942
 40
5.51787765132425
 40
5.607647714861562
 40
5.700449642544409
 40
5.78825114236414
 40
5.872714706039772
 40
5.955167292575286
 40
6.037192395190379
 40
6.120669181469108
 40
6.206848616686347
 40
6.296680855416769
 40
6.442558392872593
 40
6.568190371608286
 40
6.692904567360342
 40
6.824220446557143
 40
6.96312185032938
 40
7.107843738851168
 40
7.253431663907254
 40
7.395187468036676
 40
7.533140753237709
 40
7.670550457175215
 40
7.816236511769244
 40
7.987691657359208
 40
8.14227742196924
 40
8.293662615415007
 40
8.442962460879267
 40
8.591598316185335
 40
8.743678992361806
 40
8.903725323699165
 40
9.07630700889054
 40
9.265578604680595
 40
9.459203795360741
 40
9.617619810273528
 40
9.753609671361913
 40
9.874873300004085
 40
9.954520184977788
 40
10.02416413719247
 40
10.09769764405446
 40
10.18909955924974
 40
10.20974586420135
 40
10.23039218263378
 40
10.30057101881264
 40
10.37632012987545
 40
10.37632012987545
 40
10.37632012987545
 40
10.37632012987545
 10
170.1465954835862
 20
14.13795663215994
 10
170.163221785123
 20
14.11720608845313
 10
170.1970784206588
 20
14.07495111711901
 10
170.2599822541047
 20
14.02029811392073
 10
170.3332500940404
 20
13.97299025121049
 10
170.4175969238647
 20
13.93527231437935
 10
170.5132240615471
 20
13.91040619731951
 10
170.6171853775356
 20
13.90309559345937
 10
170.7224020220416
 20
13.91142322794052
 10
170.8206626371344
 20
13.9414917965153
 10
170.9058986427559
 20
13.98848822971874
 10
170.9779220206113
 20
14.0495299125086
 10
171.0350917709107
 20
14.12412969578581
 10
171.076786874745
 20
14.21002464660175
 10
171.1026952846302
 20
14.30485850432211
 10
171.1118037332665
 20
14.41854979038367
 10
171.0986864796498
 20
14.54332587770777
 10
171.0325330334425
 20
14.66014719171894
 10
170.936937091958
 20
14.74512539577373
 10
170.824968102238
 20
14.81416684459162
 10
170.699365958328
 20
14.87204142045888
 10
170.5656691620867
 20
14.92373723284342
 10
170.4313122818841
 20
14.9789909239718
 10
170.3051983986887
 20
15.04939770641649
 10
170.1926579987546
 20
15.13785540731251
 10
170.0969963064468
 20
15.24981067868472
 10
170.0334157151836
 20
15.39949910101382
 10
170.0200706505026
 20
15.55932794385141
 10
170.0320510987459
 20
15.71048405306846
 10
170.0712298928852
 20
15.83809244591538
 10
170.1354987750921
 20
15.95080874030845
 10
170.2238204999751
 20
16.04648609268687
 10
170.3338091207639
 20
16.12354214985751
 10
170.4632284401276
 20
16.18151396936278
 10
170.6111838967804
 20
16.21739177588823
 10
170.7682069455497
 20
16.22746719050564
 10
170.9174940466441
 20
16.21863637762589
 10
171.0596253614181
 20
16.19074899340355
 10
171.1595922609636
 20
16.13413314701136
 10
171.3125074736195
 20
16.08674602105507
 10
171.2455131717179
 20
16.00197553001184
 10
171.2296479120279
 20
15.93438901873484
 10
171.1978750531308
 20
15.8692609279319
 10
171.2150202209581
 20
15.76723453256952
 10
171.1666427208243
 20
15.77493211681901
 10
171.1315789440777
 20
15.76806771724807
 10
171.1296697985729
 20
15.83263831158196
 10
171.0985692932
 20
15.87825639621395
 10
171.0664551628466
 20
15.93561036628456
 10
171.0208038475179
 20
15.98540462692558
 10
170.9658508218398
 20
16.02994813718996
 10
170.9010841173018
 20
16.06763988836548
 10
170.8232377310607
 20
16.09283375791353
 10
170.7355160553363
 20
16.09931230998111
 10
170.6452903277817
 20
16.09235709285607
 10
170.5594594694076
 20
16.06909190460921
 10
170.4828343638607
 20
16.03131644107545
 10
170.4165265636212
 20
15.98051641089574
 10
170.3622560536975
 20
15.9173114340721
 10
170.322492534547
 20
15.84276455710367
 10
170.2976775510598
 20
15.75917313997763
 10
170.2892124262881
 20
15.65192948382285
 10
170.3019697987115
 20
15.52965457267558
 10
170.3681548409284
 20
15.41149724291212
 10
170.4640977399843
 20
15.32606325709525
 10
170.5757914963193
 20
15.25583362306723
 10
170.7010863668713
 20
15.19659162305303
 10
170.8349823941458
 20
15.14616708086132
 10
170.9689930333161
 20
15.09322516984381
 10
171.0950885316926
 20
15.02750170625177
 10
171.2076216638428
 20
14.94480352537319
 10
171.3031370284243
 20
14.83996006310074
 10
171.3672706486973
 20
14.6993711725157
 10
171.381110372529
 20
14.54065409451592
 10
171.3673954712241
 20
14.38153155217875
 10
171.3244739153996
 20
14.2348382881921
 10
171.2545906329077
 20
14.1011979658714
 10
171.157459221384
 20
13.98532387699292
 10
171.0347806023668
 20
13.89089981770088
 10
170.8874408413179
 20
13.8217927065198
 10
170.7177132497135
 20
13.77953210858853
 10
170.5317404979608
 20
13.76781736230407
 10
170.3528955926193
 20
13.77809486683436
 10
170.1881733753754
 20
13.81966573769155
 10
170.0834410841067
 20
13.8879764288394
 10
169.9350960790376
 20
13.93675219032106
 10
169.998037819474
 20
14.02976591290842
 10
170.0072274430071
 20
14.10296536248279
 10
170.0303711301243
 20
14.16936294501347
 10
170.0034588335327
 20
14.2697480952758
 10
170.052133895635
 20
14.26234033517379
 10
170.0916530580707
 20
14.26894063620894
 10
170.0996204944713
 20
14.19078703218933
 10
170.1305436967934
 20
14.15600927375856
 10
170.1465954835862
 20
14.13795663215994
 97
        1
330
A4
 75
     1
 76
     2
 52
45.0
 41
0.1
 77
     0
 78
     1
 53
45.0
 43
0.0
 44
0.0
 45
-0.282842712474619
 46
0.0
 79
     0
 98
        1
 10
0.0
 20
0.0
  0
HATCH
  5
C3
330
48
100
AcDbEntity
  8
1
  6
Continuous
 62
     2
100
AcDbHatch
 10
0.0
 20
0.0
 30
0.0
210
0.0
220
0.0
230
1.0
  2
CUSTOM1
 70
     0
 71
     1
 91
        2
 92
        1
 93
        1
 72
     4
 94
        3
 73
     0
 74
     0
 95
       57
 96
       53
 40
0.0
 40
0.0
 40
0.0
 40
0.0
 40
0.0471632082809235
 40
0.0914861054632153
 40
0.1357762519702388
 40
0.1826527001610967
 40
0.2295203288572876
 40
0.2737751972220762
 40
0.3181310461543639
 40
0.3652607198398515
 40
0.4571007286314575
 40
0.567185102916519
 40
0.6894623283868343
 40
0.8181758272546068
 40
0.9510087229273984
 40
1.085852229674056
 40
1.218126164475324
 40
1.343545131142394
 40
1.45453720295681
 40
1.567187607530819
 40
1.680710966642409
 40
1.794226869736802
 40
1.900009184247573
 40
2.004085860447852
 40
2.10816267445174
 40
2.214000150155285
 40
2.496038577352131
 40
2.76235074547927
 40
2.99727535327941
 40
3.185110082137718
 40
3.246407890063945
 40
3.312607550212676
 40
3.378877742711635
 40
3.440140399651432
 40
4.100501696006454
 40
4.754913085563497
 40
5.411331693423902
 40
6.077890432568696
 40
6.110575292670974
 40
6.143260152775754
 40
6.367989363395147
 40
6.610525374951544
 40
6.863389136467302
 40
7.119380025547589
 40
7.376036605091095
 40
7.631164770966283
 40
7.876722425456408
 40
8.104953735855952
 40
8.31291668592429
 40
8.497730294941295
 40
8.651018984313847
 40
8.764738853624582
 40
8.764738853624582
 40
8.764738853624582
 40
8.764738853624582
 10
174.7922649500524
 20
13.81626739612927
 10
174.7766616726942
 20
13.81826231079078
 10
174.7463947960313
 20
13.82213201360299
 10
174.7010994202263
 20
13.82341984967268
 10
174.6559553129359
 20
13.8230868355405
 10
174.609901712341
 20
13.82314658674224
 10
174.5640496172108
 20
13.82325813650001
 10
174.5183711648175
 20
13.8227783345659
 10
174.4750811541619
 20
13.82461109618722
 10
174.4039947951525
 20
13.80049556814658
 10
174.4057477261451
 20
13.9218469397725
 10
174.3586196370582
 20
14.00726239751234
 10
174.3191478251772
 20
14.12486929345135
 10
174.2706635532656
 20
14.24232752540437
 10
174.2201017402533
 20
14.3640593576151
 10
174.1718634610488
 20
14.49075967862466
 10
174.1135232947605
 20
14.59933687784951
 10
174.0980892667271
 20
14.7562065713441
 10
173.9566586330646
 20
14.72373446548322
 10
173.8508397414915
 20
14.7351288868218
 10
173.7358569725233
 20
14.73392591514615
 10
173.6253142252152
 20
14.73506945347408
 10
173.5176583522794
 20
14.73418350037526
 10
173.4121322529253
 20
14.73416602390519
 10
173.3109192682024
 20
14.72714032472414
 10
173.1266804827764
 20
14.75135859859868
 10
173.1157393685422
 20
14.44741691121886
 10
173.0087691634761
 20
14.22353177253396
 10
172.9098148604356
 20
14.03895314292499
 10
172.9225090524019
 20
13.79530204804205
 10
172.8050091716407
 20
13.82508046753197
 10
172.7422055868321
 20
13.82258089509603
 10
172.678587209341
 20
13.82344075102805
 10
172.3946014194086
 20
13.78098039941946
 10
173.0251638499392
 20
14.50081952444786
 10
173.1087645289081
 20
15.0127653943573
 10
173.4929252789351
 20
15.53353743550044
 10
173.4777208288572
 20
16.23519626253213
 10
173.7239265722708
 20
16.22345633081256
 10
173.8256346157572
 20
16.23225004452773
 10
173.8249752035829
 20
15.98059650730347
 10
173.9428317155839
 20
15.79818020733958
 10
174.0315515260496
 20
15.55563740662866
 10
174.132229248527
 20
15.32340030530126
 10
174.2311142712254
 20
15.08674644566915
 10
174.329967699068
 20
14.85461739170092
 10
174.4256166390936
 20
14.63122222788788
 10
174.5159904573283
 20
14.42272549049316
 10
174.59899445682
 20
14.2330844852932
 10
174.672608858281
 20
14.06663106068099
 10
174.7342815895556
 20
13.92917699626097
 10
174.7749458885615
 20
13.84999239430033
 10
174.7922649500524
 20
13.81626739612927
 97
        1
330
A5
 92
       16
 93
        1
 72
     4
 94
        3
 73
     0
 74
     0
 95
       25
 96
       21
 40
0.0
 40
0.0
 40
0.0
 40
0.0
 40
0.0911479969064822
 40
0.1858117896204666
 40
0.2804128399734491
 40
0.371588919071451
 40
0.4679080494218708
 40
0.5642683809228947
 40
0.6605683222644707
 40
0.7569653015809972
 40
0.8561348172522569
 40
1.092615965104264
 40
1.374867658141858
 40
1.611348812011561
 40
1.710518328425209
 40
1.809403163726539
 40
2.045205463294042
 40
2.326646917622091
 40
2.562449217190564
 40
2.661334043833872
 40
2.661334043833872
 40
2.661334043833872
 40
2.661334043833872
 10
173.268370056721
 20
14.88614538197292
 10
173.2987525917933
 20
14.88598079714554
 10
173.3606895889122
 20
14.88564528689921
 10
173.4541356960341
 20
14.88269055452
 10
173.5475095236368
 20
14.8797775287715
 10
173.6417760753487
 20
14.87894201643417
 10
173.7354964790978
 20
14.87996644658046
 10
173.8352040303215
 20
14.87916977470972
 10
173.9188949546324
 20
14.8892141023522
 10
174.0637996315055
 20
14.86234617674165
 10
173.9396132444811
 20
15.03665530280047
 10
173.8965867286293
 20
15.19651711006093
 10
173.7808922142219
 20
15.45518458550213
 10
173.7017565431268
 20
15.5923105286186
 10
173.6431576621827
 20
15.80937033134076
 10
173.5864803939449
 20
15.5926613421343
 10
173.5052809900488
 20
15.45327012438236
 10
173.4063701281499
 20
15.20406969370192
 10
173.325362509427
 20
15.01925830226075
 10
173.2813683325849
 20
14.91650446856116
 10
173.268370056721
 20
14.88614538197292
 97
        1
330
A6
 75
     1
 76
     2
 52
45.0
 41
0.1
 77
     0
 78
     1
 53
45.0
 43
0.0
 44
0.0
 45
-0.282842712474619
 46
0.0
 79
     0
 98
        1
 10
0.0
 20
0.0
  0
HATCH
  5
C4
330
48
100
AcDbEntity
  8
1
  6
Continuous
 62
     2
100
AcDbHatch
 10
0.0
 20
0.0
 30
0.0
210
0.0
220
0.0
230
1.0
  2
CUSTOM2
 70
     0
 71
     1
 91
        1
 92
        1
 93
        1
 72
     4
 94
        3
 73
     0
 74
     0
 95
       95
 96
       91
 40
0.0
 40
0.0
 40
0.0
 40
0.0
 40
0.6550406656911547
 40
1.308087289031959
 40
1.420803739835833
 40
1.56613075977083
 40
1.757067341888495
 40
2.006513545026491
 40
2.087328263121584
 40
2.18532887229566
 40
2.294612454748402
 40
2.408936380534845
 40
2.526802767798595
 40
2.646360524615639
 40
2.762535723971616
 40
2.87005734287019
 40
2.966883448431681
 40
3.050803243518329
 40
3.115818222436641
 40
3.156030057150276
 40
3.213914225080149
 40
3.276689026450549
 40
3.342960320981327
 40
3.404230667150604
 40
3.453822809493416
 40
3.532499827188472
 40
3.634775188507209
 40
3.754909333008207
 40
3.889736761660706
 40
4.035769602175272
 40
4.187256681197655
 40
4.338733685676003
 40
4.488478734676165
 40
4.634708317831632
 40
4.771493189921319
 40
4.892686571561257
 40
5.199775528944497
 40
5.460353566929683
 40
5.667603142345558
 40
5.814722905404537
 40
5.828990806219863
 40
5.855488336304504
 40
5.869756237118835
 40
6.18979650776286
 40
6.531890469873027
 40
6.883053637017038
 40
7.230512024911511
 40
7.566966656764618
 40
7.885203559707445
 40
8.172887439719245
 40
8.41801159406278
 40
8.443926721190701
 40
8.510760470613189
 40
8.602145393795698
 40
8.70171404164714
 40
8.79309896507537
 40
8.859932715057942
 40
8.885847842603592
 40
9.242301256612807
 40
9.589275455016761
 40
9.921808543164165
 40
10.23479624298467
 40
10.29968150889178
 40
10.35323493887766
 40
10.40154625355148
 40
10.46482922477823
 40
10.55973900668404
 40
10.69239545985616
 40
10.8492035347567
 40
11.01626328594778
 40
11.18672024367442
 40
11.35372582577209
 40
11.50257442292425
 40
11.6186649502329
 40
11.71329869152873
 40
11.82511050573906
 40
11.94464880845714
 40
12.06929242642506
 40
12.19707290435175
 40
12.32562632860527
 40
12.45034565331278
 40
12.56646595170326
 40
12.67099007414634
 40
12.76077625936781
 40
12.82703233506693
 40
12.87429132785992
 40
12.89831990323331
 40
12.9223484786002
 40
13.53984767410317
 40
14.18294284359362
 40
14.18294284359362
 40
14.18294284359362
 40
14.18294284359362
 10
177.3067935648032
 20
14.70898038201724
 10
177.1752019758561
 20
14.82265058603231
 10
176.9124193802739
 20
15.04964496316159
 10
176.3997393441031
 20
15.89214462956287
 10
176.4106654595373
 20
15.5342337757702
 10
176.4041226528002
 20
15.39267392272132
 10
176.4028026631784
 20
15.19421305299281
 10
176.401811760255
 20
15.02150296045983
 10
176.4024101751985
 20
14.87865373257579
 10
176.4038994301894
 20
14.78265005413358
 10
176.4055683588482
 20
14.67545503263141
 10
176.4071934954629
 20
14.56164211517582
 10
176.4092429501697
 20
14.44441572604589
 10
176.4123165501937
 20
14.32656411232969
 10
176.4156339697053
 20
14.2122808732062
 10
176.4193605340291
 20
14.10521401867276
 10
176.4217338161435
 20
14.01007408766921
 10
176.4278718888368
 20
13.92558557205695
 10
176.4239784495957
 20
13.86923087298141
 10
176.4455230443088
 20
13.79825022472356
 10
176.3680940058629
 20
13.82902677604483
 10
176.3116353240202
 20
13.82011242517613
 10
176.2540495896818
 20
13.82896218398275
 10
176.1690163478483
 20
13.79738225225944
 10
176.2009714146393
 20
13.88095155992189
 10
176.199070528255
 20
13.94882608968309
 10
176.2107960047311
 20
14.05233256764418
 10
176.216424105301
 20
14.17002125616695
 10
176.2237902178952
 20
14.30388609164423
 10
176.2320759701621
 20
14.44764152872632
 10
176.2398851897437
 20
14.59714022843445
 10
176.2457571222668
 20
14.74792549402078
 10
176.250366781798
 20
14.89699943878438
 10
176.2542632117554
 20
15.04122913163022
 10
176.2570715126575
 20
15.17583905213017
 10
176.2576698755034
 20
15.36469614347355
 10
176.2616023867162
 20
15.58975494313154
 10
176.2442175378508
 20
15.86367091125706
 10
176.2850417342594
 20
16.02787112098598
 10
176.1995153256013
 20
16.22749661465095
 10
176.2660558907699
 20
16.22385458403978
 10
176.2838724273241
 20
16.22413447160854
 10
176.4056801797514
 20
16.22632927398612
 10
176.5080770335473
 20
15.94675118721517
 10
176.7580021509367
 20
15.74563008535999
 10
176.9870035331121
 20
15.47792614987918
 10
177.224515121312
 20
15.22646413862376
 10
177.4486090740783
 20
14.98969974061358
 10
177.675071628302
 20
14.73218692583079
 10
177.8325687886524
 20
14.61649335056921
 10
178.0472129612686
 20
14.27997152538796
 10
178.0422645974629
 20
14.40464754091603
 10
178.0433931602558
 20
14.46327691935737
 10
178.0428877841526
 20
14.55043662371977
 10
178.0430475158124
 20
14.64416143182872
 10
178.0430054891329
 20
14.73018971297035
 10
178.0430202040384
 20
14.79153891945496
 10
178.0429706255993
 20
14.94135231520991
 10
178.0458811522822
 20
15.17989612510105
 10
178.0259521041172
 20
15.544865098687
 10
178.0750433936257
 20
15.80799631993412
 10
177.9177951509191
 20
16.21928904947751
 10
178.0762112872432
 20
16.16398282551748
 10
178.1311680478639
 20
16.16199686500175
 10
178.1827887766751
 20
16.16264778248253
 10
178.2713198965376
 20
16.20369527738245
 10
178.220489830318
 20
16.05696326622986
 10
178.2313389930294
 20
15.95019971954433
 10
178.2166036994859
 20
15.79085705414112
 10
178.2099976446215
 20
15.62853061652874
 10
178.2014961399926
 20
15.45992521892395
 10
178.1943227202209
 20
15.29814814703541
 10
178.18890632154
 20
15.15422331457932
 10
178.1871713967659
 20
15.03437493466925
 10
178.187544067233
 20
14.92686101590515
 10
178.1873656126273
 20
14.81820024645586
 10
178.187701086315
 20
14.6995357016553
 10
178.1890040622195
 20
14.57555163512741
 10
178.1908887351585
 20
14.44858294171104
 10
178.1925004454861
 20
14.32153861551032
 10
178.1941403137441
 20
14.19854884492177
 10
178.1962570745762
 20
14.08300931383759
 10
178.1963848422374
 20
13.98090903955837
 10
178.2006514396565
 20
13.89009848838156
 10
178.19084400853
 20
13.83213621208786
 10
178.21184747717
 20
13.76517130132029
 10
178.1725639739907
 20
13.77291153966688
 10
177.9595307117755
 20
13.75755254145191
 10
177.7636297943199
 20
14.31403058094472
 10
177.4611197631555
 20
14.5755603534851
 10
177.3067935648032
 20
14.70898038201724
 97
        1
330
A7
 75
     1
 76
     2
 52
45.0
 41
0.1
 77
     0
 78
     1
 53
45.0
 43
0.0
 44
0.0
 45
-0.282842712474619
 46
0.0
 79
     0
 98
        1
 10
0.0
 20
0.0
  0
HATCH
  5
C5
330
48
100
AcDbEntity
  8
1
  6
Continuous
 62
     2
100
AcDbHatch
 10
0.0
 20
0.0
 30
0.0
210
0.0
220
0.0
230
1.0
  2
CUSTOM3
 70
     0
 71
     1
 91
        1
 92
        1
 93
        1
 72
     4
 94
        3
 73
     0
 74
     0
 95
      110
 96
      106
 40
0.0
 40
0.0
 40
0.0
 40
0.0
 40
0.2203406257277737
 40
0.4407808782838091
 40
0.5952494494615352
 40
0.7488431659393073
 40
0.9023581831309057
 40
1.056801968670404
 40
1.210736449099933
 40
1.363041386539811
 40
1.515315729683155
 40
1.669377239148077
 40
1.72161165275656
 40
1.773199502942943
 40
1.824933793209993
 40
1.877110426487969
 40
1.982682281206704
 40
2.078781667087513
 40
2.172809640822262
 40
2.271937807378916
 40
2.378349933379281
 40
2.49413155773647
 40
2.626681683943604
 40
2.783145050796031
 40
2.890701232940889
 40
2.993130312454789
 40
3.099869730691767
 40
3.22023781669126
 40
3.352695482737549
 40
3.4817328063898
 40
3.593499473690331
 40
3.674323013331845
 40
3.817951711952795
 40
3.946167120793821
 40
4.061405053453478
 40
4.166480796003147
 40
4.262478775059185
 40
4.350736673551141
 40
4.433071991254026
 40
4.511216293814629
 40
4.564262454117951
 40
4.618474415571571
 40
4.670128488754165
 40
4.722296879126364
 40
4.819540945314289
 40
4.931194984128089
 40
5.049996040257731
 40
5.168643755415276
 40
5.283970811762516
 40
5.392260784910313
 40
5.486512254876388
 40
5.559178233949815
 40
5.591425852853482
 40
5.626215969637865
 40
5.667155838674406
 40
5.717449290214218
 40
5.738402360944831
 40
5.784499116553799
 40
5.830595872164767
 40
5.851548942897625
 40
5.873019280661739
 40
5.924217778408281
 40
5.985325662817661
 40
6.036524160567677
 40
6.057994498334206
 40
6.236847789607459
 40
6.381409928945631
 40
6.493190424178661
 40
6.574067534230471
 40
6.691018086205537
 40
6.814881554220483
 40
6.944307823240435
 40
7.071266716066059
 40
7.193488604461876
 40
7.309042773128103
 40
7.414007203170785
 40
7.505140441886485
 40
7.531150360599637
 40
7.559221645322222
 40
7.587202218920881
 40
7.612569159499093
 40
7.66255080948097
 40
7.702878875764095
 40
7.857328205230881
 40
8.010799568088526
 40
8.165256399657476
 40
8.322232698713815
 40
8.47956485501653
 40
8.635216230290734
 40
8.790882550925652
 40
8.948305154947217
 40
9.168271839032908
 40
9.38735898098718
 40
9.608047961033423
 40
9.832914234792625
 40
9.85833869496296
 40
9.925366817229968
 40
10.02013071422755
 40
10.12876249858994
 40
10.23739428295244
 40
10.33215817995186
 40
10.39918630222389
 40
10.42461076239778
 40
10.64992019336938
 40
10.87188524531183
 40
10.87188524531183
 40
10.87188524531183
 40
10.87188524531183
 10
179.9057788376629
 20
15.7392326039819
 10
179.9092864933552
 20
15.80616462073804
 10
179.9163033987673
 20
15.94005891915859
 10
179.8198027599083
 20
16.2254855497147
 10
180.0510134726119
 20
16.16284386190284
 10
180.1919290057167
 20
16.1700155405599
 10
180.3490417757599
 20
16.16235883078244
 10
180.5025913427298
 20
16.16252752283039
 10
180.6545104935092
 20
16.16182040535433
 10
180.8142214813242
 20
16.17210158351639
 10
180.9408972601129
 20
16.15496511080751
 10
181.1370821122091
 20
16.22727260107145
 10
181.1034395279089
 20
16.12640699080117
 10
181.1052011317195
 20
16.0761925394767
 10
181.1027342073469
 20
16.02712335586466
 10
181.1347076966022
 20
15.94063490847
 10
181.0010399903267
 20
15.98997438608336
 10
180.9172208688067
 20
15.98430634314168
 10
180.8173861139334
 20
15.99465516706298
 10
180.7186576720157
 20
16.00086450411087
 10
180.612153277112
 20
16.00697763816777
 10
180.4910511698071
 20
16.01588883484586
 10
180.3703381502465
 20
16.00521605912383
 10
180.1812553843448
 20
16.06468503080367
 10
180.2129028505321
 20
15.9055832007754
 10
180.1995563316844
 20
15.80839128339904
 10
180.1974958426461
 20
15.69634065110103
 10
180.1958188044682
 20
15.5769968562935
 10
180.1973336794244
 20
15.4503259215511
 10
180.1956582478681
 20
15.32301588016117
 10
180.2058844271668
 20
15.22451566404463
 10
180.1779006596593
 20
15.0838870262563
 10
180.3508029999316
 20
15.13989551134095
 10
180.4645020202782
 20
15.12719951478498
 10
180.584015167225
 20
15.13448377051256
 10
180.6888491425082
 20
15.13878017056754
 10
180.7843084898623
 20
15.14330568258977
 10
180.8763823507043
 20
15.151492011462
 10
180.947655178245
 20
15.14643850638111
 10
181.0544931705696
 20
15.18536425031673
 10
181.0226603598047
 20
15.10517122005879
 10
181.026616450394
 20
15.05562936846033
 10
181.0234502392024
 20
15.00557478039818
 10
181.0550791490596
 20
14.92128847612021
 10
180.9210133677702
 20
14.97425365495156
 10
180.8292322793211
 20
14.96540080890442
 10
180.7079729189613
 20
14.97570049965154
 10
180.5914113119783
 20
14.97748911767503
 10
180.4783375745889
 20
14.97787017109694
 10
180.3679246308483
 20
14.9841544947218
 10
180.2898124067851
 20
14.97189133255363
 10
180.1913625833655
 20
15.00453887616127
 10
180.2012355173571
 20
14.94769748054206
 10
180.1973923244414
 20
14.91392130557984
 10
180.196678988428
 20
14.87119604709411
 10
180.1963369642986
 20
14.83401607262152
 10
180.1963834255357
 20
14.79487237370771
 10
180.1963649429937
 20
14.75716849497685
 10
180.1963703431818
 20
14.71944955232403
 10
180.1963697214211
 20
14.6899432474515
 10
180.1963698151557
 20
14.65873577699301
 10
180.1963704287932
 20
14.61414424908085
 10
180.1963671499347
 20
14.5596395650885
 10
180.1963759623492
 20
14.51505540201448
 10
180.1963359653427
 20
14.4311780858574
 10
180.1976024270267
 20
14.31737520677678
 10
180.1950274117853
 20
14.16830395933709
 10
180.206500938173
 20
14.06597203813905
 10
180.1823506222274
 20
13.93338903885835
 10
180.3332993946487
 20
13.97895732272021
 10
180.4428436671566
 20
13.96427012162349
 10
180.5733970473931
 20
13.96920435125063
 10
180.6990312209525
 20
13.97257705323361
 10
180.8188730625612
 20
13.97711497498773
 10
180.9391362611437
 20
13.99048536182006
 10
181.0222761663526
 20
13.98068712782593
 10
181.1456080421085
 20
14.04126214623319
 10
181.1244269203968
 20
13.9853246013402
 10
181.1235950270128
 20
13.95939249372346
 10
181.1218963707569
 20
13.93197256190939
 10
181.1217974888841
 20
13.89738195206385
 10
181.1203659301341
 20
13.86050408220768
 10
181.15328041922
 20
13.76846841021806
 10
180.9551306988119
 20
13.84132015974832
 10
180.8300548294901
 20
13.81825726508605
 10
180.6673071295168
 20
13.82454021985786
 10
180.5129366450011
 20
13.82260943909925
 10
180.3566670436955
 20
13.82393762599268
 10
180.1970544465292
 20
13.82059872487862
 10
180.0540326342248
 20
13.8326579572824
 10
179.8197144881639
 20
13.76952001976918
 10
179.9173810751208
 20
14.05620527466318
 10
179.900686878007
 20
14.2498830814266
 10
179.9146296709695
 20
14.47848242880295
 10
179.9142987846645
 20
14.63384593955048
 10
179.9143078119274
 20
14.73966336444125
 10
179.9143055876327
 20
14.80205784124214
 10
179.91430655519
 20
14.89220425248327
 10
179.9143065473272
 20
14.99621167157438
 10
179.9143053861114
 20
15.10022131375296
 10
179.9143090971513
 20
15.19036243688768
 10
179.9143011051063
 20
15.25276803097215
 10
179.9143334275028
 20
15.35868835961119
 10
179.9131440788331
 20
15.5162671654474
 10
179.9082216489267
 20
15.66528219822065
 10
179.9057788376629
 20
15.7392326039819
 97
        1
330
A8
 75
     1
 76
     2
 52
45.0
 41
0.1
 77
     0
 78
     1
 53
45.0
 43
0.0
 44
0.0
 45
-0.282842712474619
 46
0.0
 79
     0
 98
        1
 10
0.0
 20
0.0
  0
HATCH
  5
C6
330
48
100
AcDbEntity
  8
1
  6
Continuous
 62
     2
100
AcDbHatch
 10
0.0
 20
0.0
 30
0.0
210
0.0
220
0.0
230
1.0
  2
CUSTOM4
 70
     0
 71
     1
 91
        1
 92
        1
 93
        1
 72
     4
 94
        3
 73
     0
 74
     0
 95
       47
 96
       43
 40
0.0
 40
0.0
 40
0.0
 40
0.0
 40
0.2207912809957213
 40
0.4459404186303042
 40
0.4902387190459256
 40
0.5327473892722214
 40
0.5742260451225253
 40
0.6155432630560546
 40
0.6568164066315464
 40
0.6982511618780385
 40
0.7407663929316899
 40
0.7851366743175241
 40
1.010288833836324
 40
1.231080507002174
 40
1.4517652436524
 40
1.676638205891688
 40
1.720461045359657
 40
1.830018144043522
 40
1.972442372353153
 40
2.114866600677522
 40
2.224423699395147
 40
2.268246538883388
 40
2.493628801207219
 40
2.715602830286619
 40
2.934211330706372
 40
3.149502369855366
 40
3.231387784851012
 40
3.318231873854076
 40
3.405143198198035
 40
3.486970301720472
 40
3.702258172493915
 40
3.920866283534145
 40
4.142839325931932
 40
4.368221903865396
 40
4.412044743359876
 40
4.521601842095891
 40
4.664026070452372
 40
4.80645029880908
 40
4.916007397546772
 40
4.959830237043096
 40
5.18470351584713
 40
5.405387250767502
 40
5.405387250767502
 40
5.405387250767502
 40
5.405387250767502
 10
182.6507427258656
 20
15.73406440953872
 10
182.6568139420014
 20
15.79758482501211
 10
182.6690762107253
 20
15.92587938689626
 10
182.5604706879424
 20
16.20166220174076
 10
182.6761985896615
 20
16.17188133432053
 10
182.7171842509026
 20
16.1676555626282
 10
182.7591205797529
 20
16.16310446389607
 10
182.8004196625721
 20
16.16201982929485
 10
182.8417032115566
 20
16.16310338195228
 10
182.8836148270658
 20
16.16766112711343
 10
182.924598354903
 20
16.17187430209729
 10
183.04049228435
 20
16.20177611317533
 10
182.9295652727467
 20
15.92339806609891
 10
182.9574856365278
 20
15.74283140824952
 10
182.940426734698
 20
15.50961042346471
 10
182.9414637282115
 20
15.34906622543146
 10
182.9414099399415
 20
15.22284817558722
 10
182.9414277372493
 20
15.12428963336241
 10
182.941418858109
 20
14.99280702442963
 10
182.9414263928045
 20
14.8613284496865
 10
182.9414129405139
 20
14.76276222694091
 10
182.9414531717503
 20
14.63639735624152
 10
182.9406746403828
 20
14.4748206882287
 10
182.9565958319278
 20
14.24361821892914
 10
182.9333468885418
 20
14.05874351972001
 10
183.0360183444377
 20
13.78935602770055
 10
182.8820238362847
 20
13.82660112685817
 10
182.8004129802843
 20
13.82137994680534
 10
182.7188192292593
 20
13.8266062037835
 10
182.5648513666854
 20
13.78937069885386
 10
182.6674183421928
 20
14.0587512986288
 10
182.6442045316099
 20
14.24361585325414
 10
182.6600444655149
 20
14.47482218565638
 10
182.6593296313439
 20
14.63639712308503
 10
182.6593664569916
 20
14.7627623121052
 10
182.6593549000281
 20
14.86132756635981
 10
182.6593575019224
 20
14.9928112741722
 10
182.6593648531791
 20
15.124275480312
 10
182.6593442541362
 20
15.22287786275325
 10
182.6594082192039
 20
15.34896149354427
 10
182.65817339476
 20
15.51210091383771
 10
182.6532040396756
 20
15.66054183777549
 10
182.6507427258656
 20
15.73406440953872
 97
        1
330
A9
 75
     1
 76
     2
 52
45.0
 41
0.1
 77
     0
 78
     1
 53
45.0
 43
0.0
 44
0.0
 45
-0.282842712474619
 46
0.0
 79
     0
 98
        1
 10
0.0
 20
0.0
  0
HATCH
  5
C7
330
48
100
AcDbEntity
  8
1
  6
Continuous
 62
     2
100
AcDbHatch
 10
0.0
 20
0.0
 30
0.0
210
0.0
220
0.0
230
1.0
  2
CUSTOM5
 70
     0
 71
     1
 91
        1
 92
        1
 93
        1
 72
     4
 94
        3
 73
     0
 74
     0
 95
      118
 96
      114
 40
0.0
 40
0.0
 40
0.0
 40
0.0
 40
0.1054708162973251
 40
0.2466098270051904
 40
0.3965912874591242
 40
0.5285525069753984
 40
0.6156245055642036
 40
0.643143410579718
 40
0.7036850037986053
 40
0.7642265984504114
 40
0.7917455052354586
 40
0.9287404319989658
 40
1.106572819088004
 40
1.287544879681004
 40
1.317578308030521
 40
1.39992803085716
 40
1.522968204799934
 40
1.675072986590555
 40
1.844616533180633
 40
2.019973001638697
 40
2.189516548880009
 40
2.341621331585348
 40
2.464661506320484
 40
2.547011229647048
 40
2.577044658168012
 40
2.603797890893054
 40
2.662655002908798
 40
2.721512114949581
 40
2.748265347702761
 40
2.774215307344837
 40
2.845959313407167
 40
2.954338556588366
 40
3.090194227585544
 40
3.244367517100507
 40
3.407699615844267
 40
3.571031714539417
 40
3.725205003920093
 40
3.861060674729593
 40
3.969439917716286
 40
4.041183923628958
 40
4.067133883212952
 40
4.31188674601212
 40
4.547897258335518
 40
4.764747083043959
 40
4.952749679951761
 40
5.045772974195873
 40
5.137862019644975
 40
5.330543169793025
 40
5.553448265244031
 40
5.795083855888175
 40
6.043293412177239
 40
6.285761695541186
 40
6.313902908752699
 40
6.384255941793288
 40
6.475714884766877
 40
6.567173827758911
 40
6.637526860839689
 40
6.665668074074052
 40
6.692018920328024
 40
6.749990782071094
 40
6.807962643790463
 40
6.834313490017937
 40
6.856393084245216
 40
6.913335195649868
 40
6.991194817302503
 40
7.076026942283793
 40
7.153886563725312
 40
7.210828674844866
 40
7.232908268931201
 40
7.258199334923722
 40
7.324875781592372
 40
7.419142481925029
 40
7.527204308841968
 40
7.635266135230546
 40
7.729532834168532
 40
7.796209279292855
 40
7.821500344594801
 40
7.8446529888509
 40
7.899863140541679
 40
7.965759128053788
 40
8.02096927977113
 40
8.044121924046568
 40
8.069356610160657
 40
8.109134395441428
 40
8.13223810019114
 40
8.193147867786506
 40
8.279261678876678
 40
8.377977512673892
 40
8.476693347146675
 40
8.56280716041173
 40
8.623716930826516
 40
8.646820636853468
 40
8.67198879377428
 40
8.734909185828164
 40
8.816705695188906
 40
8.898502204815449
 40
8.96142259737791
 40
8.986590754551022
 40
9.012941600733177
 40
9.070913462380261
 40
9.128885324081757
 40
9.155236170325077
 40
9.180404327929148
 40
9.243324721948165
 40
9.325121234211958
 40
9.40691774663764
 40
9.469838141978096
 40
9.495006288270842
 40
9.517811184378985
 40
9.572192090486984
 40
9.637098333281214
 40
9.691479239515413
 40
9.714284125643452
 40
9.714284125643452
 40
9.714284125643452
 40
9.714284125643452
 10
185.2874469028664
 20
15.26889163187719
 10
185.3090990569048
 20
15.2411186924281
 10
185.3597257109485
 20
15.17618054561234
 10
185.4349383202602
 20
15.06891060312899
 10
185.5248482274357
 20
14.95377438266625
 10
185.5709169676684
 20
14.85357045748319
 10
185.6655825294665
 20
14.78434006814944
 10
185.6204439320424
 20
14.73771639678272
 10
185.5947047785801
 20
14.69660308866042
 10
185.5645196708023
 20
14.66065971727937
 10
185.5193684730573
 20
14.58579782596096
 10
185.4710504458572
 20
14.80782524253601
 10
185.3968539713085
 20
14.84510677337712
 10
185.2836047324618
 20
15.11610202130601
 10
185.288513357818
 20
15.00095328446229
 10
185.2868486556317
 20
14.92836675781627
 10
185.2876830076726
 20
14.80625588483986
 10
185.2873609540275
 20
14.6591380081046
 10
185.2875076912466
 20
14.49307063956557
 10
185.2872950092733
 20
14.32187554608602
 10
185.2879497252045
 20
14.15552828635498
 10
185.2859192461151
 20
14.00935173055694
 10
185.2913460399941
 20
13.8847104747461
 10
185.2804930868719
 20
13.81718656540627
 10
185.2956739155565
 20
13.75549061417022
 10
185.2457895108145
 20
13.76727503897003
 10
185.2017150342532
 20
13.75943822779969
 10
185.1582371630212
 20
13.76760441372703
 10
185.10923467865
 20
13.75538056738468
 10
185.1218731234835
 20
13.80960667249313
 10
185.1130182968461
 20
13.86936918907558
 10
185.1175058770325
 20
13.9792202904437
 10
185.1157960136003
 20
14.11029975405679
 10
185.1163550915996
 20
14.26198011444328
 10
185.1161928768705
 20
14.42211074929953
 10
185.1162269924686
 20
14.58236865674566
 10
185.1162514960138
 20
14.73370247520439
 10
185.1161453543237
 20
14.86582156338601
 10
185.1164299141942
 20
14.97294802533193
 10
185.115867554758
 20
15.03808619579473
 10
185.1180765083698
 20
15.16618957858674
 10
185.0319435998616
 20
14.79097610391571
 10
184.955514081851
 20
14.63918193123397
 10
184.8660040767844
 20
14.47766206446306
 10
184.7640413217337
 20
14.20471848820171
 10
184.718797649105
 20
14.36717346596512
 10
184.610235594168
 20
14.45605432058118
 10
184.7995791751764
 20
14.6054979496141
 10
184.8565340545711
 20
14.79749136974923
 10
184.9717520993362
 20
15.02899622906757
 10
184.9940151630144
 20
15.21797259759063
 10
185.1771905152149
 20
15.49454089325932
 10
185.0538033597563
 20
15.48698978832094
 10
184.9925684166844
 20
15.48856772366118
 10
184.9081999617075
 20
15.48882592573673
 10
184.8204235085976
 20
15.48544845751206
 10
184.7656768696133
 20
15.4939481498202
 10
184.7104703026035
 20
15.48048561049788
 10
184.7222823035547
 20
15.52931442126763
 10
184.7142496151804
 20
15.57269004896709
 10
184.7228186104689
 20
15.61509438309572
 10
184.7102943409168
 20
15.66267796552119
 10
184.7555101538746
 20
15.65267212995109
 10
184.8014815562734
 20
15.65894105174061
 10
184.8777222047721
 20
15.65593561405872
 10
184.9561296132005
 20
15.65770448278541
 10
185.0323992648944
 20
15.6546479398166
 10
185.0783009459486
 20
15.66103971376177
 10
185.1231733965411
 20
15.65093822978896
 10
185.1105552275645
 20
15.70157201581898
 10
185.1191936582718
 20
15.7550126188207
 10
185.1152361595454
 20
15.8486325513168
 10
185.1162325068346
 20
15.95112606688924
 10
185.1171927413084
 20
16.05353270248163
 10
185.1133211458017
 20
16.14735929609321
 10
185.1217789814375
 20
16.20036542840353
 10
185.1093075932846
 20
16.25211435651189
 10
185.1542106389861
 20
16.23850747226757
 10
185.1955083836782
 20
16.24100480320585
 10
185.2595344281062
 20
16.23648060574487
 10
185.2986111148797
 20
16.22781003043308
 10
185.3476543498753
 20
16.23515102070686
 10
185.3225080030601
 20
16.19602896051758
 10
185.2815901333735
 20
16.20563842455808
 10
185.2910109616615
 20
16.15540148169778
 10
185.2855647318757
 20
16.1038594563949
 10
185.2881699601814
 20
16.0195970758452
 10
185.2870102202165
 20
15.92559135583408
 10
185.2883591064242
 20
15.83196865395526
 10
185.284997010152
 20
15.74679517552223
 10
185.292095991778
 20
15.69716856072044
 10
185.2812569154557
 20
15.64993694969989
 10
185.3304010225256
 20
15.66201674936851
 10
185.3794877630158
 20
15.65447393363011
 10
185.4573714280652
 20
15.65686070361433
 10
185.5350365172906
 20
15.65899381905414
 10
185.5845393931365
 20
15.65193391922455
 10
185.634459475065
 20
15.66360151936214
 10
185.6223198516891
 20
15.61540235371392
 10
185.6305838229154
 20
15.57249219801236
 10
185.6223198650794
 20
15.52958201851384
 10
185.6344594549866
 20
15.48138288754864
 10
185.5845395158756
 20
15.4930503447151
 10
185.5350350651214
 20
15.48599202435046
 10
185.4573784382983
 20
15.48811665228604
 10
185.3794643865771
 20
15.4905338936576
 10
185.3304500352728
 20
15.48291848194486
 10
185.2813246108953
 20
15.49507952557591
 10
185.2915559988583
 20
15.45073013424158
 10
185.2856677678064
 20
15.40925436202911
 10
185.287878830558
 20
15.34915394315302
 10
185.2874109346158
 20
15.30225782762889
 10
185.2874386992924
 20
15.27650146418196
 10
185.2874469028664
 20
15.26889163187719
 97
        1
330
AA
 75
     1
 76
     2
 52
45.0
 41
0.1
 77
     0
 78
     1
 53
45.0
 43
0.0
 44
0.0
 45
-0.282842712474619
 46
0.0
 79
     0
 98
        1
 10
0.0
 20
0.0
  0
HATCH
  5
C8
330
48
100
AcDbEntity
  8
1
  6
Continuous
 62
     2
100
AcDbHatch
 10
0.0
 20
0.0
 30
0.0
210
0.0
220
0.0
230
1.0
  2
CUSTOM6
 70
     0
 71
     1
 91
        1
 92
        1
 93
        1
 72
     4
 94
        3
 73
     0
 74
     0
 95
       91
 96
       87
 40
0.0
 40
0.0
 40
0.0
 40
0.0
 40
0.0345987051695434
 40
0.1258134969461369
 40
0.2547723404888703
 40
0.4026032099153841
 40
0.5504340793416704
 40
0.6793929228836364
 40
0.7706077146571035
 40
0.8052064287780925
 40
1.124852390615282
 40
1.427402236308871
 40
1.706356627453518
 40
1.955541417875194
 40
2.169485938566337
 40
2.344350786664794
 40
2.480568411561963
 40
2.590440557428985
 40
2.649189927151138
 40
2.749320643306341
 40
2.912632739880041
 40
3.147745656000243
 40
3.244827496385091
 40
3.338490056946732
 40
3.583815413207156
 40
3.761423943238516
 40
3.886956104362706
 40
3.985855451886866
 40
4.091766255337722
 40
4.250186473811915
 40
4.42273431508456
 40
4.628285684838655
 40
4.872093227758485
 40
5.152549652145605
 40
5.464967135837584
 40
5.803201477852501
 40
6.160362988813973
 40
6.193449448276056
 40
6.284170385501654
 40
6.419718138764552
 40
6.587285046385802
 40
6.774063446723745
 40
6.9672456781137
 40
7.154024078817742
 40
7.3215909870261
 40
7.457138740890429
 40
7.547859678556166
 40
7.580946138182754
 40
7.608533084714804
 40
7.669224367077782
 40
7.729915649429997
 40
7.75750259595005
 40
7.790278062553532
 40
7.880146277431002
 40
8.014419963180465
 40
8.180411842397966
 40
8.365434637679435
 40
8.556801071622736
 40
8.741823866830849
 40
8.907815745916416
 40
9.042089431507542
 40
9.131957646249667
 40
9.164733112797244
 40
9.415425063140171
 40
9.667986180958637
 40
9.694169807462776
 40
9.756607686047708
 40
9.8311303153226
 40
9.893568193900007
 40
9.919751820398853
 40
9.950967964690687
 40
9.996421631210797
 40
10.22087981037468
 40
10.44341866197557
 40
10.47847970788869
 40
10.5709133743877
 40
10.70159545461244
 40
10.85140174170369
 40
11.00120802880489
 40
11.13189010907395
 40
11.22432377583023
 40
11.25938480938969
 40
11.28697175596157
 40
11.34766303835931
 40
11.40835432042082
 40
11.43594125892116
 40
11.43594125892116
 40
11.43594125892116
 40
11.43594125892116
 10
190.08181143333
 20
15.55242795125077
 10
190.0702785844952
 20
15.55242790287916
 10
190.0283409445009
 20
15.55242773704164
 10
189.9434129719036
 20
15.55243125800909
 10
189.820768855314
 20
15.55240926435879
 10
189.6791206917004
 20
15.55250801177054
 10
189.53797536985
 20
15.55214686232421
 10
189.4141351317915
 20
15.55321883609088
 10
189.3317217825392
 20
15.55092249091268
 10
189.1727791229704
 20
15.56048569373421
 10
189.3503402353387
 20
15.19785394311371
 10
189.3379739205463
 20
14.95243127723113
 10
189.4064519473875
 20
14.66862501324836
 10
189.4693024320981
 20
14.43250999939035
 10
189.5452253431739
 20
14.2332674039613
 10
189.6303189577027
 20
14.07745347451372
 10
189.7244607592946
 20
13.97657857781393
 10
189.8282648207739
 20
13.92465852638965
 10
189.9125872030785
 20
13.97606484379616
 10
189.9351322179463
 20
14.09144544037517
 10
189.9745730975381
 20
14.21885149702379
 10
189.9202919734954
 20
14.53622328086758
 10
190.0451218072484
 20
14.38982180140902
 10
190.2019291513614
 20
14.35795300331176
 10
190.0947720007068
 20
14.12421357767627
 10
190.0808711209878
 20
13.95972776583654
 10
190.0234709467236
 20
13.83130869122484
 10
189.9335020145019
 20
13.76018802352827
 10
189.8095274657888
 20
13.74432324142254
 10
189.6634273196872
 20
13.77993797554172
 10
189.5243894320295
 20
13.90000570500277
 10
189.4102003962155
 20
14.0743568255032
 10
189.3146141301497
 20
14.29946603111241
 10
189.2318652572637
 20
14.56388246006442
 10
189.1807179256422
 20
14.88187933098543
 10
189.0770189207349
 20
15.15543728488912
 10
189.2042841208532
 20
15.56005818612869
 10
189.0357890623029
 20
15.55112367849678
 10
188.9511995787088
 20
15.55315961418363
 10
188.8189876387638
 20
15.55213937388406
 10
188.6560505094115
 20
15.55253230318429
 10
188.4733759170543
 20
15.55235696313369
 10
188.2847057373394
 20
15.55260105307468
 10
188.10144690202
 20
15.55185657906236
 10
187.9404746832728
 20
15.55416360522426
 10
187.8029808335287
 20
15.54799804883662
 10
187.7289590372321
 20
15.56032838458211
 10
187.6613215186867
 20
15.54329323723555
 10
187.673237371928
 20
15.59524438447527
 10
187.6655677285705
 20
15.64071424966529
 10
187.6732592225126
 20
15.68614453703704
 10
187.6613141797772
 20
15.73802395984571
 10
187.7283588305878
 20
15.72119143490263
 10
187.8017375665687
 20
15.7333540909267
 10
187.9379128305283
 20
15.72727231074957
 10
188.0973811801523
 20
15.72954834315057
 10
188.2789173085847
 20
15.72881233998961
 10
188.4658034862189
 20
15.72905954196132
 10
188.6468012316847
 20
15.72886400799253
 10
188.8080802578889
 20
15.72932234714838
 10
188.9393882124898
 20
15.72812673751205
 10
189.0225051322607
 20
15.73051347319742
 10
189.1556236547825
 20
15.72230605725462
 10
189.0645893502669
 20
15.97752868952654
 10
188.9789633074431
 20
16.24164358328247
 10
189.0990589003465
 20
16.22904442969165
 10
189.1514264948555
 20
16.22694235763075
 10
189.2214497569726
 20
16.22535399889657
 10
189.2671922337829
 20
16.21602567538113
 10
189.3220812646944
 20
16.22545966915427
 10
189.2963574785692
 20
16.17733028655173
 10
189.1825397571464
 20
16.18266829744167
 10
189.3159346621147
 20
15.95449174576776
 10
189.1943658735481
 20
15.72156856595922
 10
189.3223188769424
 20
15.73087258884438
 10
189.4049048406471
 20
15.72801001754679
 10
189.5307214850835
 20
15.72923437412301
 10
189.6741469838069
 20
15.72932431888964
 10
189.8157420951739
 20
15.72746163183853
 10
189.9459127249978
 20
15.73333075937162
 10
190.0193452286202
 20
15.72070340823202
 10
190.0891112922107
 20
15.73877563110411
 10
190.0775772605407
 20
15.68612850546325
 10
190.0833184346693
 20
15.64221317686547
 10
190.0816615770921
 20
15.59089982676549
 10
190.081775756168
 20
15.56158792021635
 10
190.08181143333
 20
15.55242795125077
 97
        1
330
AB
 75
     1
 76
     2
 52
45.0
 41
0.1
 77
     0
 78
     1
 53
45.0
 43
0.0
 44
0.0
 45
-0.282842712474619
 46
0.0
 79
     0
 98
        1
 10
0.0
 20
0.0
  0
HATCH
  5
C9
330
48
100
AcDbEntity
  8
1
  6
Continuous
 62
     2
100
AcDbHatch
 10
0.0
 20
0.0
 30
0.0
210
0.0
220
0.0
230
1.0
  2
CUSTOM7
 70
     0
 71
     1
 91
        1
 92
        1
 93
        1
 72
     4
 94
        3
 73
     0
 74
     0
 95
       75
 96
       71
 40
0.0
 40
0.0
 40
0.0
 40
0.0
 40
0.0342546099129691
 40
0.1245622414432364
 40
0.2522385480897518
 40
0.398599192294068
 40
0.5449598364980839
 40
0.6726361431438834
 40
0.7629437746736942
 40
0.7971983935297973
 40
1.101723623449661
 40
1.408591244036665
 40
1.433332471690371
 40
1.487763172450165
 40
1.542193873082001
 40
1.566935100592548
 40
1.923523931821832
 40
2.271755704953659
 40
2.590579755100929
 40
2.858943305581187
 40
2.889120339309208
 40
2.91830585519113
 40
2.941366645531252
 40
2.996357760973145
 40
3.0619923181407
 40
3.116983433626885
 40
3.140044223997574
 40
3.411273122936495
 40
3.732441619741187
 40
3.761068217532885
 40
3.837787499630447
 40
3.948858699126085
 40
4.080541049104462
 40
4.219093782625845
 40
4.350776132722395
 40
4.461847332405731
 40
4.538566614678461
 40
4.567193212544709
 40
4.594907573998968
 40
4.666381453557535
 40
4.764111044011117
 40
4.870592538125892
 40
4.968322128642371
 40
5.039796008287085
 40
5.067510369784515
 40
5.094263603185728
 40
5.153120716668366
 40
5.211977830150814
 40
5.238731063551819
 40
5.272290535139086
 40
5.36338052944489
 40
5.497618415781568
 40
5.660621563453838
 40
5.838007341749539
 40
6.015393119910862
 40
6.178396267038488
 40
6.312634151842411
 40
6.403724143059429
 40
6.437283612672524
 40
6.46403684626114
 40
6.522893960004757
 40
6.581751071484024
 40
6.60850430159097
 40
6.637253941281117
 40
6.711397748902997
 40
6.812778057283581
 40
6.923237199249301
 40
7.024617507623945
 40
7.098761315207597
 40
7.127510946007576
 40
7.127510946007576
 40
7.127510946007576
 40
7.127510946007576
 10
188.4418622390575
 20
14.95849128473264
 10
188.4418622819718
 20
14.9470731340872
 10
188.4418624481139
 20
14.90555257842628
 10
188.4418593081798
 20
14.82146922003771
 10
188.4418788279811
 20
14.70004497322328
 10
188.4417912187749
 20
14.55980494047448
 10
188.4421116235241
 20
14.42006556794576
 10
188.4411605909751
 20
14.29745038894929
 10
188.4431978595978
 20
14.21587074438043
 10
188.4349433178756
 20
14.06271267077697
 10
188.7430797940913
 20
14.22560236054722
 10
189.0350645173745
 20
14.39482938688001
 10
189.0408354448719
 20
14.25973235781911
 10
189.0455471719901
 20
14.21617221160444
 10
189.048253541193
 20
14.17211249350545
 10
189.0672545672965
 20
14.02272590363132
 10
188.6583942247316
 20
14.08681172241262
 10
188.3793710348842
 20
13.97296341411016
 10
188.1018081587178
 20
13.87364095811143
 10
187.809983718441
 20
13.91630687596354
 10
187.7869144678669
 20
13.81321679744542
 10
187.7537474383344
 20
13.78691091244469
 10
187.748065396275
 20
13.83455309036305
 10
187.7284214559055
 20
13.87180336115069
 10
187.7095089485634
 20
13.93007387847563
 10
187.6942849867718
 20
13.97385201007805
 10
187.6477246372947
 20
14.08759421046309
 10
187.9890897312462
 20
14.05576301120049
 10
188.2679649367396
 20
14.02161435106477
 10
188.2617753034918
 20
14.16913976479652
 10
188.2630935452784
 20
14.24013150908832
 10
188.2624831689959
 20
14.34719767958661
 10
188.2625871570736
 20
14.47398529785998
 10
188.2629987964067
 20
14.6084924349605
 10
188.2613907841979
 20
14.73395549951184
 10
188.2659902567937
 20
14.84505246719117
 10
188.2564186502221
 20
14.90761886800689
 10
188.2704001783702
 20
14.96595388295
 10
188.2147384386716
 20
14.95289710582239
 10
188.1575655197832
 20
14.96136307749498
 10
188.0616048925658
 20
14.95729976080636
 10
187.9633767522833
 20
14.95970889852474
 10
187.8672582457571
 20
14.95551600613388
 10
187.8104648525822
 20
14.96429346441162
 10
187.7550356873396
 20
14.95094936850122
 10
187.7670679427927
 20
15.00036910959256
 10
187.7592003173949
 20
15.04393988030396
 10
187.766629556384
 20
15.08830469118525
 10
187.7551930564154
 20
15.13902297763992
 10
187.8232102370144
 20
15.12162460757743
 10
187.8968496879758
 20
15.13417450237189
 10
188.0325064058221
 20
15.12799677011096
 10
188.1884909024537
 20
15.13029203093085
 10
188.3615926358154
 20
15.1294096826253
 10
188.5346942964193
 20
15.13029207142409
 10
188.6906789811227
 20
15.1279966295555
 10
188.8263351889807
 20
15.13417486262431
 10
188.8999756705663
 20
15.12162394218334
 10
188.9679914174735
 20
15.13902373012143
 10
188.9565590885933
 20
15.08830130414555
 10
188.9639539458308
 20
15.04397060811108
 10
188.9562039912281
 20
15.00028307550196
 10
188.9681203741888
 20
14.95063590098477
 10
188.9108170223627
 20
14.96461411338426
 10
188.8520145789784
 20
14.95539755673254
 10
188.752529363321
 20
14.95952268164929
 10
188.649428009836
 20
14.95822760025887
 10
188.5537846354585
 20
14.95854077077641
 10
188.4857467971628
 20
14.95848776697144
 10
188.4514462213454
 20
14.95849051871656
 10
188.4418622390575
 20
14.95849128473264
 97
        1
330
AC
 75
     1
 76
     2
 52
45.0
 41
0.1
 77
     0
 78
     1
 53
45.0
 43
0.0
 44
0.0
 45
-0.282842712474619
 46
0.0
 79
     0
 98
        1
 10
0.0
 20
0.0
  0
HATCH
  5
CA
330
48
100
AcDbEntity
  8
1
  6
Continuous
 62
     2
100
AcDbHatch
 10
0.0
 20
0.0
 30
0.0
210
0.0
220
0.0
230
1.0
  2
CUSTOM8
 70
     0
 71
     1
 91
        1
 92
        1
 93
        1
 72
     4
 94
        3
 73
     0
 74
     0
 95
       15
 96
       11
 40
0.0
 40
0.0
 40
0.0
 40
0.0
 40
0.2785535985096574
 40
0.5215624748198666
 40
0.6076917376040094
 40
0.6938210001740828
 40
0.9405019146454641
 40
1.221691403489094
 40
1.300471877080992
 40
1.379252341684781
 40
1.379252341684781
 40
1.379252341684781
 40
1.379252341684781
 10
189.568149363101
 20
16.22930267330381
 10
189.6296017794189
 20
16.17691646592715
 10
189.7446649974124
 20
16.07882876798222
 10
190.0397348497254
 20
15.92889785897224
 10
189.9025147631868
 20
15.84343227515013
 10
189.8041227843789
 20
15.71085785201555
 10
189.7130033590661
 20
16.01616985781421
 10
189.3636839480667
 20
16.07967869465372
 10
189.5119258376581
 20
16.17896509880879
 10
189.5494081874248
 20
16.21252348402383
 10
189.568149363101
 20
16.22930267330381
 97
        1
330
AD
 75
     1
 76
     2
 52
45.0
 41
0.1
 77
     0
 78
     1
 53
45.0
 43
0.0
 44
0.0
 45
-0.282842712474619
 46
0.0
 79
     0
 98
        1
 10
0.0
 20
0.0
  0
HATCH
  5
CB
330
48
100
AcDbEntity
  8
1
  6
Continuous
 62
     2
100
AcDbHatch
 10
0.0
 20
0.0
 30
0.0
210
0.0
220
0.0
230
1.0
  2
CUSTOM9
 70
     0
 71
     1
 91
        1
 92
        1
 93
        1
 72
     4
 94
        3
 73
     0
 74
     0
 95
       35
 96
       31
 40
0.0
 40
0.0
 40
0.0
 40
0.0
 40
0.0335231036620645
 40
0.0713218571712051
 40
0.4278866681487056
 40
0.8116865841964089
 40
1.198190238000042
 40
1.561379546812672
 40
1.65998317462202
 40
1.759315573807158
 40
2.132719617231043
 40
2.525233363588794
 40
2.910815397779683
 40
3.265244364303253
 40
3.592606723581957
 40
3.964386154603945
 40
4.359942131737768
 40
4.758154118639278
 40
4.843846538699892
 40
4.93665006554321
 40
5.25661660253729
 40
5.581707404416002
 40
5.899719158308121
 40
6.198363494280705
 40
6.466301046615754
 40
6.493895311537076
 40
6.559697020196869
 40
6.638234543442444
 40
6.704036252154225
 40
6.731630508423002
 40
6.731630508423002
 40
6.731630508423002
 40
6.731630508423002
 10
191.973601056868
 20
16.23463843719134
 10
191.96760060978
 20
16.22480690542323
 10
191.9548344099168
 20
16.20388988579798
 10
191.7949362006564
 20
16.17127126532689
 10
192.2322025842349
 20
15.88206680336702
 10
192.4345394828272
 20
15.68041138358439
 10
192.6819564267984
 20
15.43749387603275
 10
193.1831513624617
 20
15.36047662757779
 10
193.0125562198981
 20
15.21876939174655
 10
192.9383299463213
 20
15.01710366209108
 10
192.6131432248199
 20
15.36956287174725
 10
192.3277741670674
 20
15.53175212559563
 10
192.0337604077669
 20
15.73687130053046
 10
191.8084452691145
 20
16.21827488595456
 10
191.5993085055533
 20
15.75343046609218
 10
191.3207873674845
 20
15.54350952252915
 10
191.0371383177219
 20
15.37424456359983
 10
190.7078639527842
 20
15.00142360907936
 10
190.6277012318235
 20
15.19708014459002
 10
190.4759724909755
 20
15.32491104190595
 10
190.9083395826806
 20
15.40454031765935
 10
191.0962565329776
 20
15.60026634915474
 10
191.3468477420514
 20
15.81632996916754
 10
191.5714350470171
 20
15.98190992300059
 10
191.6259775409724
 20
16.2613396463683
 10
191.7494661029022
 20
16.24737950408078
 10
191.8060273344531
 20
16.24521268867647
 10
191.8761870984955
 20
16.2404685988136
 10
191.9333414022117
 20
16.23709429350542
 10
191.964419032085
 20
16.23519854711119
 10
191.973601056868
 20
16.23463843719134
 97
        1
330
AE
 75
     1
 76
     2
 52
45.0
 41
0.1
 77
     0
 78
     1
 53
45.0
 43
0.0
 44
0.0
 45
-0.282842712474619
 46
0.0
 79
     0
 98
        1
 10
0.0
 20
0.0
  0
HATCH
  5
CC
330
48
100
AcDbEntity
  8
1
  6
Continuous
 62
     2
100
AcDbHatch
 10
0.0
 20
0.0
 30
0.0
210
0.0
220
0.0
230
1.0
  2
CUSTOM10
 70
     0
 71
     1
 91
        1
 92
        1
 93
        1
 72
     4
 94
        3
 73
     0
 74
     0
 95
       91
 96
       87
 40
0.0
 40
0.0
 40
0.0
 40
0.0
 40
0.0267532254356701
 40
0.0856103386464102
 40
0.1444674521996621
 40
0.1712206856618514
 40
0.2039416005642252
 40
0.2955601971652485
 40
0.4362601844616918
 40
0.616225284450725
 40
0.8256392189704698
 40
1.054685709844411
 40
1.293548478893531
 40
1.532411247938275
 40
1.76145773879954
 40
1.970871673298508
 40
2.150836773256704
 40
2.291536760495565
 40
2.383155356836643
 40
2.415876284101292
 40
2.442629517487936
 40
2.501486630949066
 40
2.560343744424213
 40
2.587096977826486
 40
2.617068194440914
 40
2.699247336756083
 40
2.822032643466367
 40
2.973822353257897
 40
3.143014704823339
 40
3.31800793687989
 40
3.487200288186723
 40
3.638989997548232
 40
3.761775303794731
 40
3.843954445753037
 40
3.873925662229733
 40
3.890812773500441
 40
3.907699884771619
 40
3.937960767857204
 40
3.980983618142264
 40
4.199085915228434
 40
4.439444339237186
 40
4.677588241260843
 40
5.050698317837729
 40
5.448212454763115
 40
5.85529121804464
 40
6.138575438885311
 40
6.417434507584151
 40
6.444551104393784
 40
6.504207617363133
 40
6.563864130314482
 40
6.59098072710405
 40
6.848609460381433
 40
7.109611990668391
 40
7.352910904446056
 40
7.557830220705427
 40
7.587518925913345
 40
7.652834077375764
 40
7.718149228845701
 40
7.747837934062004
 40
7.854880190300976
 40
7.976511257403519
 40
8.369487896592348
 40
8.757514959223613
 40
9.126072419331075
 40
9.460639380392138
 40
9.74669559303585
 40
9.777569943118642
 40
9.807050320931715
 40
9.830377336128839
 40
9.886003295435923
 40
9.95239556942983
 40
10.0080215287062
 40
10.03134854388212
 40
10.21356951009582
 40
10.42203479292865
 40
10.66154556731056
 40
10.91693789564298
 40
11.15832906556559
 40
11.18982674596617
 40
11.27286608520401
 40
11.39026653033346
 40
11.52484752840879
 40
11.65942852648438
 40
11.7768289716148
 40
11.85986831085676
 40
11.89136598230422
 40
11.89136598230422
 40
11.89136598230422
 40
11.89136598230422
 10
190.7027885008207
 20
14.70699600701772
 10
190.7028237765299
 20
14.71587847311985
 10
190.7029366710807
 20
14.74430237047346
 10
190.7012984568499
 20
14.79409639169803
 10
190.7069750292922
 20
14.83657564478154
 10
190.6956928731717
 20
14.88730154856846
 10
190.7632296979044
 20
14.87012900740109
 10
190.838802921071
 20
14.88290227165995
 10
190.9828357056012
 20
14.87629729457382
 10
191.1569419185438
 20
14.87888462206466
 10
191.3639599611014
 20
14.87800591955553
 10
191.5894688172388
 20
14.87828207920027
 10
191.8251162293416
 20
14.87818339658662
 10
192.0607640531359
 20
14.87828184412767
 10
192.2862717580637
 20
14.87800678190789
 10
192.4932934632815
 20
14.87888186270735
 10
192.6673888915299
 20
14.87630522678446
 10
192.8114492071996
 20
14.88288290449214
 10
192.8869691915303
 20
14.87016243405604
 10
192.9545776037041
 20
14.88726400191688
 10
192.9430840140687
 20
14.8367478580294
 10
192.9505104581743
 20
14.79253252226501
 10
192.9428838927997
 20
14.7486796650361
 10
192.9546489459435
 20
14.69878374479327
 10
192.8930788491994
 20
14.71393227712512
 10
192.8256791738682
 20
14.70310665350673
 10
192.7013004056232
 20
14.70852031626236
 10
192.5554428236581
 20
14.70649205390785
 10
192.3893576440097
 20
14.70715777578387
 10
192.2188412621735
 20
14.70689643521242
 10
192.05197908554
 20
14.70721553391094
 10
191.9087346827116
 20
14.70635302590762
 10
191.7773313869844
 20
14.70863300482987
 10
191.7239859134667
 20
14.70407704374202
 10
191.6485188456923
 20
14.70999914992878
 10
191.6769075779243
 20
14.70094169343353
 10
191.7033652409553
 20
14.6972591226893
 10
191.6633522907713
 20
14.66654271968272
 10
191.5713663691879
 20
14.67667591174639
 10
191.5439396207079
 20
14.43032502247788
 10
191.4478793967245
 20
14.27499558764372
 10
191.1917277964484
 20
13.9452541793157
 10
191.7627537732773
 20
14.08430022210451
 10
192.0173656320528
 20
14.08291779973364
 10
192.6279647048628
 20
13.99790569242083
 10
192.3340698578094
 20
14.29685417558208
 10
192.0133304286529
 20
14.4433085690177
 10
192.1313543360445
 20
14.50025540818291
 10
192.1724716466272
 20
14.52420099873347
 10
192.2156812394422
 20
14.54599758811229
 10
192.3174574094461
 20
14.60928721253908
 10
192.4328867625258
 20
14.35147151408778
 10
192.6329591642288
 20
14.21616041113683
 10
192.7269077387239
 20
14.03792795138882
 10
192.9558829746404
 20
13.87997821027049
 10
192.8596031846719
 20
13.82915972576299
 10
192.816795976379
 20
13.79881292523055
 10
192.771824352879
 20
13.77466130281459
 10
192.7121720925224
 20
13.72552146747567
 10
192.6789731061336
 20
13.85997475673608
 10
192.5582013350806
 20
14.01594265286581
 10
192.1970976005989
 20
13.88569928059556
 10
191.8385061955552
 20
13.90224694409483
 10
191.457092045009
 20
13.89331229351864
 10
191.1703455282902
 20
13.82882671672411
 10
190.8592055599723
 20
13.94230668192819
 10
190.8268737818799
 20
13.83122259927769
 10
190.7896178253328
 20
13.81196313850013
 10
190.7865737632766
 20
13.85874784087299
 10
190.7679892860618
 20
13.89806853919133
 10
190.751243661679
 20
13.95765983478235
 10
190.7383730915764
 20
14.00201969871282
 10
190.704232780644
 20
14.09106331120204
 10
190.9482714457764
 20
14.02181042943768
 10
191.1441394486682
 20
14.00030369057744
 10
191.2395426381288
 20
14.28226484478465
 10
191.2945135769608
 20
14.44363045421122
 10
191.5159619357167
 20
14.71391177589737
 10
191.3849239381227
 20
14.70548446853735
 10
191.3110026555865
 20
14.70779008496969
 10
191.1977459876254
 20
14.70671378321657
 10
191.0694251807496
 20
14.7070763907651
 10
190.9404252030426
 20
14.70697724466086
 10
190.8287840946302
 20
14.70699932712571
 10
190.7514663970038
 20
14.70699579189671
 10
190.713287653202
 20
14.70699595845081
 10
190.7027885008207
 20
14.70699600701772
 97
        1
330
AF
 75
     1
 76
     2
 52
45.0
 41
0.1
 77
     0
 78
     1
 53
45.0
 43
0.0
 44
0.0
 45
-0.282842712474619
 46
0.0
 79
     0
 98
        1
 10
0.0
 20
0.0
  0
HATCH
  5
CD
330
48
100
AcDbEntity
  8
1
  6
Continuous
 62
     2
100
AcDbHatch
 10
0.0
 20
0.0
 30
0.0
210
0.0
220
0.0
230
1.0
  2
CUSTOM11
 70
     0
 71
     1
 91
        1
 92
        1
 93
        1
 72
     4
 94
        3
 73
     0
 74
     0
 95
      131
 96
      127
 40
0.0
 40
0.0
 40
0.0
 40
0.0
 40
0.0195577029826316
 40
0.0426490537461391
 40
0.2863607575856515
 40
0.5344948436189194
 40
0.7842238845573092
 40
0.8737315789467043
 40
0.9803832810313003
 40
1.092842274517025
 40
1.199761146656761
 40
1.289788768186489
 40
1.351573580786181
 40
1.370727117561442
 40
1.416400936017802
 40
1.470914848355963
 40
1.516588666791753
 40
1.535742203552833
 40
1.634216592293182
 40
1.760283341175019
 40
1.897966686682103
 40
2.031216387368905
 40
2.049689751137898
 40
2.101115601646835
 40
2.179502577739952
 40
2.278859318314066
 40
2.393194462258724
 40
2.516516648383837
 40
2.642834515405966
 40
2.766156701983468
 40
2.880491846754583
 40
2.979848588358625
 40
3.058235565443803
 40
3.109661416668957
 40
3.128134780704133
 40
3.146783742386478
 40
3.19125434331531
 40
3.244332157315969
 40
3.288802758225873
 40
3.307451719895144
 40
3.327717853844757
 40
3.383747753580116
 40
3.468388665924507
 40
3.574487837698816
 40
3.694892515728919
 40
3.822449946852058
 40
3.950007377920447
 40
4.070412055800539
 40
4.176511227368095
 40
4.261152139501541
 40
4.317182039076735
 40
4.337448172964653
 40
4.620011002696246
 40
4.885096638397513
 40
4.945373043518318
 40
5.014107710488644
 40
5.070481727652039
 40
5.31924695563654
 40
5.584812164506054
 40
5.859000912056906
 40
6.133746937542071
 40
6.401732212968859
 40
6.42073668399545
 40
6.472845717451072
 40
6.550702743894028
 40
6.646951193874237
 40
6.754234497930561
 40
6.865196086587282
 40
6.972479390357798
 40
7.068727839771931
 40
7.146584865450968
 40
7.19869389818917
 40
7.21769836890531
 40
7.234950401630789
 40
7.276089864269833
 40
7.325191803515942
 40
7.366331266090329
 40
7.383583298769681
 40
7.402779163492058
 40
7.453386443254489
 40
7.524934666445491
 40
7.606953361405802
 40
7.688972056428954
 40
7.760520279784204
 40
7.811127559734446
 40
7.830323424546068
 40
7.847844055299698
 40
7.894799345666739
 40
7.962779392744427
 40
8.043374293560474
 40
8.12817414514938
 40
8.208769044817185
 40
8.276749090376885
 40
8.323704379669444
 40
8.341225010056178
 40
8.358497614800354
 40
8.401679126686531
 40
8.457815092185617
 40
8.513951057728022
 40
8.55713256970795
 40
8.57440517450502
 40
8.602340668616382
 40
8.643455660539924
 40
8.663225271966592
 40
8.71534515656424
 40
8.789031889628575
 40
8.873502045520304
 40
8.957972194323927
 40
9.031658925567818
 40
9.08377881123451
 40
9.103548423002971
 40
9.119550083123508
 40
9.160817522379839
 40
9.217244429110147
 40
9.278724491644661
 40
9.335151398295418
 40
9.376418837357713
 40
9.3924204973005
 40
9.401196302734746
 40
9.417494229384221
 40
9.426270027749494
 40
9.440875075477479
 40
9.475702496998732
 40
9.51727070986587
 40
9.552098131994065
 40
9.566703169884248
 40
9.566703169884248
 40
9.566703169884248
 40
9.566703169884248
 10
194.617025414849
 20
15.67015871511027
 10
194.6134345093382
 20
15.66453690702159
 10
194.6056039123635
 20
15.65227754419113
 10
194.5129968974559
 20
15.61601916040964
 10
194.4887622233258
 20
15.40148444212718
 10
194.3858709845949
 20
15.22197284509706
 10
194.1220492364316
 20
15.03615573798148
 10
194.284547156919
 20
14.95959336566078
 10
194.360722576085
 20
14.89856693195445
 10
194.4492171072769
 20
14.83515804544759
 10
194.5389930233122
 20
14.77525634219558
 10
194.5883817636057
 20
14.7210215484921
 10
194.6745708157393
 20
14.6928624054183
 10
194.641126067424
 20
14.65713309652816
 10
194.6214671166322
 20
14.62550387991901
 10
194.5919888217894
 20
14.58475872796071
 10
194.5688989446042
 20
14.55504663489643
 10
194.5380205968368
 20
14.50211422668494
 10
194.472919336575
 20
14.62740334938901
 10
194.3796000122426
 20
14.68213900233935
 10
194.295063628515
 20
14.73916423939341
 10
194.1722498125751
 20
14.8967528742752
 10
194.1764450847313
 20
14.82035806766837
 10
194.1751478652688
 20
14.77361280161295
 10
194.1758126448087
 20
14.695847858126
 10
194.1755549986968
 20
14.59902068324423
 10
194.1756431239933
 20
14.48650279078809
 10
194.1756077302292
 20
14.365240859457
 10
194.175651175829
 20
14.24086897858961
 10
194.1755199942417
 20
14.11967683631337
 10
194.1759477562057
 20
14.00691148919743
 10
194.1746678202321
 20
13.91082913768744
 10
194.1779759851055
 20
13.831138264687
 10
194.1715197740097
 20
13.78815175788783
 10
194.1806208705567
 20
13.74955432372042
 10
194.1447910339946
 20
13.7581088772407
 10
194.1115223815263
 20
13.75342519985446
 10
194.0604562576052
 20
13.75351298759784
 10
194.0269723972823
 20
13.75794430283821
 10
193.9907585408764
 20
13.74960793842509
 10
194.0009782568676
 20
13.79145277179284
 10
193.9936487887782
 20
13.83778560820173
 10
193.9973633136114
 20
13.92374831106014
 10
193.9959480554906
 20
14.02605142704849
 10
193.996410555465
 20
14.14453223931512
 10
193.996277368624
 20
14.26957683153356
 10
193.9963015910056
 20
14.3947582810705
 10
193.9963354925562
 20
14.51286645379058
 10
193.9962060293144
 20
14.61628748709516
 10
193.9965507549092
 20
14.69932036153667
 10
193.9958698278701
 20
14.75143368521243
 10
193.9994586600634
 20
14.8791290782136
 10
193.7826171386448
 20
14.58048716819619
 10
193.6021354921961
 20
14.35263981511513
 10
193.5490322295623
 20
14.49373443289815
 10
193.520042913316
 20
14.54325767560942
 10
193.4196648062831
 20
14.64641779790105
 10
193.7405127723272
 20
14.72695035023781
 10
193.868989700544
 20
14.91066283036432
 10
194.090645432537
 20
15.11931995771762
 10
194.177022489408
 20
15.29339211228344
 10
194.4549394229084
 20
15.56967051342511
 10
194.3346247839295
 20
15.56534559551114
 10
194.286319735136
 20
15.56614856202553
 10
194.2102377454915
 20
15.56574582146583
 10
194.1167010009761
 20
15.5659027561161
 10
194.0117594788568
 20
15.56582502576224
 10
193.9033887738728
 20
15.56595464378554
 10
193.7981454235907
 20
15.56554393490691
 10
193.7056237819424
 20
15.56682073671591
 10
193.6268130800718
 20
15.56340766534849
 10
193.583967456539
 20
15.5702335003632
 10
193.5449499586526
 20
15.56065064201123
 10
193.5526365271875
 20
15.59420779565543
 10
193.5485464404323
 20
15.62523550322233
 10
193.5485531368824
 20
15.672365292709
 10
193.5526239724923
 20
15.70340941646779
 10
193.5449495574593
 20
15.73701861635901
 10
193.5834819405506
 20
15.72748410420872
 10
193.6241228014491
 20
15.73397435498071
 10
193.6951471850474
 20
15.73100150650254
 10
193.7729318149644
 20
15.73174761399158
 10
193.8507292246486
 20
15.73247814044525
 10
193.9217232089918
 20
15.7295423551416
 10
193.9624279791831
 20
15.73595468772952
 10
194.000985348992
 20
15.72650524176004
 10
193.9927342754938
 20
15.76264692158784
 10
193.9982346669369
 20
15.80129837613227
 10
193.9955754206173
 20
15.86913528561839
 10
193.9965815471544
 20
15.9459164153874
 10
193.9960178018329
 20
16.02849393582757
 10
193.9970714526603
 20
16.10517329229878
 10
193.9942675863141
 20
16.173319907767
 10
194.0000702721314
 20
16.21132399809346
 10
193.9915654551169
 20
16.24758448077647
 10
194.0255610233136
 20
16.23755723771853
 10
194.059457568311
 20
16.24073266813705
 10
194.1126669060357
 20
16.23508965640609
 10
194.1660768574494
 20
16.23434774436425
 10
194.1995914649501
 20
16.2281922348298
 10
194.238808618305
 20
16.23346029773593
 10
194.2120263698503
 20
16.1925338079349
 10
194.1708111001735
 20
16.2037120453811
 10
194.1782641540885
 20
16.15867056192124
 10
194.1742227952195
 20
16.11412278028144
 10
194.1761714049651
 20
16.04223572621703
 10
194.1752364849769
 20
15.96168630588771
 10
194.1765107190041
 20
15.88173995404994
 10
194.1732043793875
 20
15.80841837083183
 10
194.1802106179972
 20
15.76688643002568
 10
194.1701440380136
 20
15.72752418568113
 10
194.2029814803933
 20
15.73468063430982
 10
194.2364577296491
 20
15.73027243137944
 10
194.2915053476029
 20
15.73217943347897
 10
194.3489502595326
 20
15.73185366407288
 10
194.4023026248321
 20
15.73106308733083
 10
194.4398540896649
 20
15.73313959118072
 10
194.4623172523249
 20
15.7302233816711
 10
194.4751678073741
 20
15.73572552644055
 10
194.48582556859
 20
15.7380111819779
 10
194.4986635650154
 20
15.74494972588053
 10
194.5145991033081
 20
15.72853046313666
 10
194.5410623920903
 20
15.71709122319453
 10
194.5726805253769
 20
15.69644687835187
 10
194.5987255892162
 20
15.68116869628296
 10
194.6128517723984
 20
15.67266976323183
 10
194.617025414849
 20
15.67015871511027
 97
        1
330
B0
 75
     1
 76
     2
 52
45.0
 41
0.1
 77
     0
 78
     1
 53
45.0
 43
0.0
 44
0.0
 45
-0.282842712474619
 46
0.0
 79
     0
 98
        1
 10
0.0
 20
0.0
  0
HATCH
  5
CE
330
48
100
AcDbEntity
  8
1
  6
Continuous
 62
     2
100
AcDbHatch
 10
0.0
 20
0.0
 30
0.0
210
0.0
220
0.0
230
1.0
  2
CUSTOM12
 70
     0
 71
     1
 91
        1
 92
        1
 93
        1
 72
     4
 94
        3
 73
     0
 74
     0
 95
      124
 96
      120
 40
0.0
 40
0.0
 40
0.0
 40
0.0
 40
0.027818722962451
 40
0.1011590162384554
 40
0.2048470170590239
 40
0.3237088716558961
 40
0.4425707262522
 40
0.5462587270699547
 40
0.6195990203311798
 40
0.647417752257866
 40
0.6750060736115224
 40
0.7357003855242759
 40
0.7963946998054492
 40
0.8239830245571784
 40
0.8540933811102878
 40
0.9373396629409274
 40
1.063094687343237
 40
1.220731268638075
 40
1.399622220914749
 40
1.589140358637706
 40
1.778658496423843
 40
1.957549448940511
 40
2.115186030873132
 40
2.240941056914436
 40
2.324187341760477
 40
2.354297700109355
 40
2.381886024671862
 40
2.44258033871045
 40
2.503274652750474
 40
2.530862977314581
 40
2.560983949278534
 40
2.64039378445288
 40
2.752662861759075
 40
2.881361560118063
 40
3.01006025845511
 40
3.122329335705314
 40
3.201739170817871
 40
3.23186014275326
 40
3.264298024030315
 40
3.352343701778188
 40
3.482095226868711
 40
3.639650650172968
 40
3.811108022565425
 40
3.98256539492793
 40
4.140120818152512
 40
4.269872343141222
 40
4.357918020802283
 40
4.390355902043912
 40
4.423256253992482
 40
4.508104530072974
 40
4.62412156063677
 40
4.750528176031499
 40
4.866545206601946
 40
4.951393482691903
 40
4.984293834645304
 40
5.011450833242219
 40
5.071196230152004
 40
5.130941627057083
 40
5.158098625648747
 40
5.190998977601409
 40
5.275847253689235
 40
5.391864284256697
 40
5.518270899648214
 40
5.634287930209253
 40
5.719136206287927
 40
5.752036558235814
 40
5.78213094628284
 40
5.862783906229015
 40
5.979550131774881
 40
6.117984316640288
 40
6.263641154587833
 40
6.402075339414039
 40
6.518841564907834
 40
6.599494524815415
 40
6.629588912848653
 40
6.6544030282262
 40
6.713575149487967
 40
6.784199939329342
 40
6.843372060493415
 40
6.868186175802661
 40
6.896246243201726
 40
6.939586233758149
 40
6.967846564564777
 40
7.043584251089715
 40
7.153234334451573
 40
7.283231855734323
 40
7.420011856035357
 40
7.550009376579709
 40
7.659659458835108
 40
7.735397144417101
 40
7.763657474851273
 40
7.79640972801093
 40
7.880876065096205
 40
7.99637085246559
 40
8.122208446418485
 40
8.237703224799079
 40
8.322169562010773
 40
8.354921815205786
 40
8.382078813307567
 40
8.441824209206873
 40
8.501569605240023
 40
8.528726603485602
 40
8.56147885669565
 40
8.645945193877672
 40
8.761439980865212
 40
8.887277580764383
 40
9.002772362000876
 40
9.087238696661096
 40
9.11999094923555
 40
9.15242883061325
 40
9.240474508638465
 40
9.370226034149415
 40
9.527781457984297
 40
9.699238830981287
 40
9.870696203978476
 40
10.0282516278139
 40
10.15800315332551
 40
10.24604883135106
 40
10.27848670378509
 40
10.27848670378509
 40
10.27848670378509
 40
10.27848670378509
 10
195.3821827564394
 20
14.01410517385757
 10
195.3914554737534
 20
14.01410498511274
 10
195.425174453687
 20
14.01410430876713
 10
195.4934706812476
 20
14.01411807243305
 10
195.5920141711591
 20
14.01403224219545
 10
195.7062066464822
 20
14.0144175561225
 10
195.8185894417082
 20
14.01300835897545
 10
195.9214376600129
 20
14.01719117422243
 10
195.980683987486
 20
14.00823089251982
 10
196.0371265937043
 20
14.02164434526061
 10
196.0246255586966
 20
13.97087198613361
 10
196.0329549635715
 20
13.92589320939067
 10
196.024817084113
 20
13.88056752990488
 10
196.0370529214468
 20
13.82931932408466
 10
195.9747773490344
 20
13.84447955365276
 10
195.9060513026879
 20
13.83359750710743
 10
195.7782756749602
 20
13.83911304747972
 10
195.6262984511654
 20
13.83700851253699
 10
195.4502695972534
 20
13.83771002588473
 10
195.2644431934298
 20
13.83745237531291
 10
195.0786167437187
 20
13.83771005144603
 10
194.9025880142179
 20
13.83700841847731
 10
194.7506104154206
 20
13.83911332229988
 10
194.6228357664565
 20
13.8335968076764
 10
194.5541077836591
 20
13.84448077125942
 10
194.4918349042894
 20
13.82931786684208
 10
194.5040616290029
 20
13.88057510805171
 10
194.4960004462608
 20
13.92582473272425
 10
194.5040675809903
 20
13.97106357955323
 10
194.4918238487094
 20
14.02234176909958
 10
194.5525017120708
 20
14.00749577363134
 10
194.6162810745747
 20
14.01756448170736
 10
194.7277314353513
 20
14.01294644211999
 10
194.8497533443834
 20
14.01413328905468
 10
194.9719538137833
 20
14.01515863900634
 10
195.0829794287403
 20
14.01092475623402
 10
195.1476517413968
 20
14.02018584521739
 10
195.2091162810512
 20
14.00604423049682
 10
195.1930065601348
 20
14.07235527884516
 10
195.2042980327369
 20
14.14447790121976
 10
195.1987400822571
 20
14.27513760888286
 10
195.2008035061701
 20
14.42607323708241
 10
195.2000167127305
 20
14.59335873107886
 10
195.2007845215636
 20
14.76061110332302
 10
195.198803878564
 20
14.91163289269914
 10
195.2041306156631
 20
15.04206069552994
 10
195.1933101388436
 20
15.11465442605899
 10
195.2090326429886
 20
15.18150469436798
 10
195.1432708132501
 20
15.16580512490824
 10
195.0756367830775
 20
15.17609243083996
 10
194.961588529382
 20
15.17113786847121
 10
194.8451242674914
 20
15.17414128030475
 10
194.7306554121487
 20
15.16880303143389
 10
194.6640324657824
 20
15.18001268074824
 10
194.5990769715197
 20
15.16349132665011
 10
194.6107989758719
 20
15.21473720477059
 10
194.6032830189131
 20
15.2595033378409
 10
194.6107989878846
 20
15.30426944897961
 10
194.5990769505357
 20
15.3555153612974
 10
194.6640326339211
 20
15.33899381766816
 10
194.7306533339831
 20
15.35020571373943
 10
194.8451352858075
 20
15.34485436710665
 10
194.9615454436974
 20
15.34791188771117
 10
195.0757660174651
 20
15.34278499010708
 10
195.1430150439237
 20
15.35345733355599
 10
195.2083325941449
 20
15.33742082669077
 10
195.1941391448562
 20
15.39949685750054
 10
195.2036059463006
 20
15.46586761628762
 10
195.1990269004096
 20
15.58239972741966
 10
195.2007696555958
 20
15.71426685022376
 10
195.1997551495402
 20
15.85615960150273
 10
195.2017191344383
 20
15.9876905070258
 10
195.1964668553862
 20
16.10524577283002
 10
195.2073408763485
 20
16.16947789001583
 10
195.1919536641864
 20
16.23108802545046
 10
195.2407591537811
 20
16.21702407382111
 10
195.2853995564736
 20
16.21954742075314
 10
195.3538643946753
 20
16.2151279740171
 10
195.3959106169113
 20
16.20613025544034
 10
195.4487544758786
 20
16.21411714866512
 10
195.4207035002024
 20
16.17113917611671
 10
195.3749142248605
 20
16.18259552043838
 10
195.3869539073275
 20
16.12173520005136
 10
195.3796086070653
 20
16.05769299468773
 10
195.3831195826172
 20
15.94909368863911
 10
195.3819806760184
 20
15.82494319144753
 10
195.3819174780274
 20
15.69189719829878
 10
195.3832872966878
 20
15.56797381249555
 10
195.3791638801324
 20
15.45868337849339
 10
195.3877763103576
 20
15.3960858009417
 10
195.3746757454412
 20
15.33740133296365
 10
195.4393884328209
 20
15.35362113810902
 10
195.5060405953166
 20
15.34270260383311
 10
195.6198779541113
 20
15.34793740173756
 10
195.7357259122107
 20
15.34485547516913
 10
195.849692426329
 20
15.35018259812512
 10
195.916034101811
 20
15.33904208166543
 10
195.980718852549
 20
15.35546979593178
 10
195.9689820772733
 20
15.3042592521005
 10
195.9765168063052
 20
15.25950334121001
 10
195.9689820992268
 20
15.21474739010027
 10
195.9807188140747
 20
15.1635369087104
 10
195.9160344075264
 20
15.17996427794219
 10
195.8496886430836
 20
15.1688278444727
 10
195.7357459487023
 20
15.1741311589312
 10
195.6197995623065
 20
15.17114764593544
 10
195.5062756882133
 20
15.17606892268393
 10
195.4389231318814
 20
15.16585087513519
 10
195.3734285122506
 20
15.18145996138815
 10
195.3891713619229
 20
15.11463851827411
 10
195.3783275998223
 20
15.04207057815878
 10
195.3836581629803
 20
14.91162247614416
 10
195.3817136151866
 20
14.76064558185226
 10
195.3823133683224
 20
14.59322243934158
 10
195.3821506559616
 20
14.42656176118371
 10
195.3821895488146
 20
14.27360142921636
 10
195.382181641311
 20
14.14849178985705
 10
195.3821828382756
 20
14.0650789099142
 10
195.3821827716219
 20
14.02491778281976
 10
195.3821827564394
 20
14.01410517385757
 97
        1
330
B1
 75
     1
 76
     2
 52
45.0
 41
0.1
 77
     0
 78
     1
 53
45.0
 43
0.0
 44
0.0
 45
-0.282842712474619
 46
0.0
 79
     0
 98
        1
 10
0.0
 20
0.0
  0
HATCH
  5
CF
330
48
100
AcDbEntity
  8
1
  6
Continuous
 62
     2
100
AcDbHatch
 10
0.0
 20
0.0
 30
0.0
210
0.0
220
0.0
230
1.0
  2
CUSTOM13
 70
     0
 71
     1
 91
        1
 92
        1
 93
        3
 72
     4
 94
        3
 73
     0
 74
     0
 95
       24
 96
       20
 40
0.0
 40
0.0
 40
0.0
 40
0.0
 40
0.2211075008753887
 40
0.4273218586245351
 40
0.5080174679239361
 40
0.5914835907870502
 40
0.8143265690193232
 40
1.054651302686627
 40
1.295452694023215
 40
1.51810923132887
 40
1.540864321905458
 40
1.595126460622719
 40
1.65989094789606
 40
1.714153085187419
 40
1.736908174961719
 40
1.764951100735406
 40
1.801562291220995
 40
1.953914424543677
 40
2.126104167379758
 40
2.126104167379758
 40
2.126104167379758
 40
2.126104167379758
 10
185.93753695569
 20
15.58989295113016
 10
185.9112579081823
 20
15.53097628234374
 10
185.8604698894437
 20
15.41711139679257
 10
185.8131784839122
 20
15.14441958233115
 10
185.7043482802629
 20
15.24445482575456
 10
185.5514800279648
 20
15.27118593367329
 10
185.7686155181211
 20
15.4851813501763
 10
185.7838483674391
 20
15.70332117782487
 10
185.8906889492011
 20
15.88451579066423
 10
185.8305380947089
 20
16.16913226311404
 10
185.9334317395412
 20
16.1411408922245
 10
185.9779933468161
 20
16.13243251602299
 10
186.0380842395407
 20
16.12139654183355
 10
186.0756619587449
 20
16.10767523055559
 10
186.1252466928617
 20
16.10756076160223
 10
186.0930158919336
 20
16.07306592398623
 10
186.0171802221892
 20
16.08404104537964
 10
186.0429447159704
 20
15.8985896958245
 10
186.0055896763861
 20
15.80702313549589
 10
185.985770496162
 20
15.75844135397705
 72
     4
 94
        3
 73
     0
 74
     0
 95
       70
 96
       66
 40
0.0
 40
0.0
 40
0.0
 40
0.0
 40
0.0241731073021188
 40
0.0846058988987013
 40
0.1631685280353284
 40
0.241731157179004
 40
0.3021639488292751
 40
0.3263370654895825
 40
0.3533118254249165
 40
0.4228783438922395
 40
0.5179999095313687
 40
0.6216398239466386
 40
0.716761389149999
 40
0.7863279069650148
 40
0.813302679176212
 40
0.8372943998771958
 40
0.894505426137287
 40
0.9627895541962923
 40
1.020000580349102
 40
1.043992300975172
 40
1.071934345522902
 40
1.113121768772888
 40
1.145225199332213
 40
1.225483775412748
 40
1.329819923771456
 40
1.434156071994346
 40
1.514414647795767
 40
1.546518078208375
 40
1.578974764260177
 40
1.662678849314115
 40
1.777131373668364
 40
1.901833377474727
 40
2.016285900500517
 40
2.099989982527884
 40
2.132446666570242
 40
2.158782354485965
 40
2.216720867907755
 40
2.274659381334178
 40
2.300995069256112
 40
2.333451754066084
 40
2.417155836543765
 40
2.531608358985205
 40
2.656310362283699
 40
2.770762886388775
 40
2.85446697133994
 40
2.886923657363775
 40
2.913597976833209
 40
2.982389642875013
 40
3.076451716946876
 40
3.178937260458493
 40
3.272999334739895
 40
3.341791001059118
 40
3.368465320663431
 40
3.39697608073868
 40
3.472140811845859
 40
3.578408190308606
 40
3.700226892456042
 40
3.822045594634231
 40
3.928312973256309
 40
4.003477705314763
 40
4.031988456866801
 40
4.0583241447976
 40
4.116262658236762
 40
4.174201171400558
 40
4.200536849608492
 40
4.200536849608492
 40
4.200536849608492
 40
4.200536849608492
 10
185.985770496162
 20
15.75844135397705
 10
185.993825954469
 20
15.75844359811687
 10
186.0220200663251
 20
15.75845146032798
 10
186.0765534803683
 20
15.75830754828371
 10
186.1482891808614
 20
15.75909120499898
 10
186.2236240137073
 20
15.75627570463811
 10
186.271305236645
 20
15.76298403400957
 10
186.3195071245627
 20
15.75197563692432
 10
186.3062571799885
 20
15.80546402997032
 10
186.3151093964548
 20
15.86049583543092
 10
186.3108698036297
 20
15.95419908726109
 10
186.313348348129
 20
16.04959482218532
 10
186.3090938706072
 20
16.14356821983387
 10
186.3179818665857
 20
16.19795062438012
 10
186.3046977409956
 20
16.25233997691461
 10
186.351411927712
 20
16.23842216335358
 10
186.3943254545747
 20
16.24103877374043
 10
186.4605443456696
 20
16.23648422450754
 10
186.5013342271809
 20
16.22778162134163
 10
186.5525145690829
 20
16.23531799890193
 10
186.5253720487211
 20
16.19349970223286
 10
186.4803096055717
 20
16.20284992072595
 10
186.4942065045063
 20
16.13841207371837
 10
186.4858414431665
 20
16.07378219627399
 10
186.490363217841
 20
15.97529141193887
 10
186.4854741311178
 20
15.8759593284257
 10
186.4950258992092
 20
15.81293115552968
 10
186.4799761455212
 20
15.74964011499788
 10
186.5449159457219
 20
15.76515072944268
 10
186.6116246399508
 20
15.75499387697812
 10
186.7241435470838
 20
15.75988800099367
 10
186.8390235448965
 20
15.75691204732784
 10
186.9519871999757
 20
15.76221664184991
 10
187.0176267597688
 20
15.75107306472089
 10
187.0816276691064
 20
15.76744532319857
 10
187.07031428892
 20
15.71761689905274
 10
187.0775339871521
 20
15.67416715212123
 10
187.0703142611279
 20
15.63071745587445
 10
187.0816277176005
 20
15.58088895196876
 10
187.0176263598982
 20
15.59726166091362
 10
186.951992124047
 20
15.58611271661588
 10
186.8389974317342
 20
15.59144857206854
 10
186.7242456548653
 20
15.58834345663822
 10
186.6113183686873
 20
15.59364894682589
 10
186.5455220903596
 20
15.58257300019593
 10
186.4816097975369
 20
15.59887597847619
 10
186.4936015165138
 20
15.54423524395742
 10
186.4862104613016
 20
15.48854295047841
 10
186.4892684841994
 20
15.3964968914057
 10
186.4893422785695
 20
15.30179109873101
 10
186.486031357837
 20
15.20952782902265
 10
186.4939505989914
 20
15.15435768736139
 10
186.4815076611628
 20
15.10058169100135
 10
186.5389116551643
 20
15.11453768862781
 10
186.5994708140394
 20
15.10511457884226
 10
186.7048680855091
 20
15.10942885928704
 10
186.8204294070634
 20
15.10835504612032
 10
186.9359688877808
 20
15.10725965900995
 10
187.0414181130853
 20
15.11162525770632
 10
187.1018680471814
 20
15.1020942603067
 10
187.1592837739122
 20
15.11617289606379
 10
187.147777387672
 20
15.06707153265683
 10
187.153756678176
 20
15.02564658018648
 10
187.1520311050813
 20
14.97651677966696
 10
187.1521500122982
 20
14.94854428447608
 10
187.1521871691844
 20
14.9398028819595
 72
     4
 94
        3
 73
     0
 74
     0
 95
       62
 96
       58
 40
0.0
 40
0.0
 40
0.0
 40
0.0
 40
0.0598250028308769
 40
0.2024846486897331
 40
0.3727558389220746
 40
0.515415484793607
 40
0.5752404975785339
 40
0.933232677548711
 40
1.29045176283946
 40
1.602077253145861
 40
1.699931634112094
 40
1.799359756425011
 40
2.27012014965707
 40
2.804661928461514
 40
2.882342287383227
 40
3.076543185719077
 40
3.329004354835537
 40
3.581465524568364
 40
3.775666424543648
 40
3.853346784558268
 40
3.899120679595042
 40
3.984129341791983
 40
4.02990323681736
 40
4.105797496059517
 40
4.295533144152476
 40
4.542189486611718
 40
4.788845828875664
 40
4.97858147641005
 40
5.054475735244293
 40
5.621734664339327
 40
6.130867242037337
 40
6.225249780948584
 40
6.318913039727255
 40
6.663579954558855
 40
7.047498900224724
 40
7.435230791575656
 40
7.49894390666804
 40
7.650875181210062
 40
7.832212509001573
 40
7.984143783696987
 40
8.047856898903113
 40
8.091554632732619
 40
8.172707566964277
 40
8.216405300767999
 40
8.289021782160884
 40
8.462184160757257
 40
8.668861838005395
 40
8.842024215263958
 40
8.914640695475153
 40
8.98988158086136
 40
9.155411528827267
 40
9.32094147774405
 40
9.396182352487303
 40
9.45470901114385
 40
9.583467660170813
 40
9.712226309013035
 40
9.770752957989517
 40
9.770752957989517
 40
9.770752957989517
 40
9.770752957989517
 10
187.1521871691844
 20
14.9398028819595
 10
187.1322348171634
 20
14.93980875568671
 10
187.0647037716477
 20
14.93982863806157
 10
186.9410612161799
 20
14.93949362520326
 10
186.7863180150068
 20
14.94107673750512
 10
186.6697349482491
 20
14.93686078860495
 10
186.4550942634252
 20
14.95215205331626
 10
186.8518948407239
 20
14.59198721286191
 10
186.8945656069279
 20
14.37510503397166
 10
187.3189162146621
 20
14.19325062511448
 10
187.1439821496085
 20
14.08985196568072
 10
187.0194523925093
 20
13.87831523212723
 10
186.7666277235954
 20
14.3480608100156
 10
186.4797602893637
 20
14.9951151698452
 10
186.4906335926671
 20
14.68782672154694
 10
186.4882892777971
 20
14.52288616971778
 10
186.4861096126422
 20
14.28879670711693
 10
186.4980774396357
 20
14.04498072421783
 10
186.4687984740641
 20
13.89855796860985
 10
186.5114522625481
 20
13.75113490174537
 10
186.4239814005651
 20
13.76685797306221
 10
186.3768527606755
 20
13.76694303543455
 10
186.2898973207724
 20
13.75109425482908
 10
186.3313474021734
 20
13.89527771422762
 10
186.3029875004296
 20
14.03855052698456
 10
186.314597377531
 20
14.27674947365265
 10
186.3124175648283
 20
14.50517235240346
 10
186.3103111128005
 20
14.66705729375994
 10
186.3208035438333
 20
14.98153709333752
 10
186.0128963252904
 20
14.29229470872436
 10
185.7055258267467
 20
13.81476750243053
 10
185.5851367066285
 20
14.03741112637426
 10
185.4074607910733
 20
14.15011034955568
 10
185.8853326362905
 20
14.32548143465462
 10
185.9353959057219
 20
14.5609192925203
 10
186.3583799621728
 20
14.95322989344606
 10
186.1276754273551
 20
14.93655307029066
 10
186.0049685859352
 20
14.94269518948771
 10
185.8325483095673
 20
14.93312822699573
 10
185.721322469446
 20
14.95448818489667
 10
185.6025779627458
 20
14.92136265357419
 10
185.6183169706697
 20
15.00203900606884
 10
185.6178550933773
 20
15.04645414290853
 10
185.6027881889942
 20
15.12967081778533
 10
185.7372380935454
 20
15.09062651983882
 10
185.8619755545757
 20
15.11739729328422
 10
186.0628755237291
 20
15.10063949044051
 10
186.1921540949364
 20
15.12204225913004
 10
186.3328419928306
 20
15.08868778853421
 10
186.2980927452626
 20
15.22651875785067
 10
186.3222185666723
 20
15.34963257349481
 10
186.2967086182404
 20
15.47024055670335
 10
186.3333251146695
 20
15.60539865141495
 10
186.221141702778
 20
15.58094545781891
 10
186.1280356457147
 20
15.59307749842022
 10
186.0191547579831
 20
15.58957630069994
 10
185.9569697640975
 20
15.58981755951602
 10
185.9375369557257
 20
15.58989295124144
 97
        3
330
B3
330
B4
330
B2
 75
     1
 76
     2
 52
45.0
 41
0.1
 77
     0
 78
     1
 53
45.0
 43
0.0
 44
0.0
 45
-0.282842712474619
 46
0.0
 79
     0
 98
        1
 10
0.0
 20
0.0
  0
HATCH
  5
D0
330
48
100
AcDbEntity
  8
1
  6
Continuous
 62
     2
100
AcDbHatch
 10
0.0
 20
0.0
 30
0.0
210
0.0
220
0.0
230
1.0
  2
CUSTOM14
 70
     0
 71
     1
 91
        1
 92
        1
 93
        4
 72
     1
 10
192.4578138032683
 20
15.22875434022057
 11
191.1602971697042
 21
15.22875434022057
 72
     1
 10
191.1602971697042
 20
15.22875434022057
 11
191.1602971697042
 21
15.39722336795625
 72
     1
 10
191.1602971697042
 20
15.39722336795625
 11
192.4578138032683
 21
15.39722336795625
 72
     1
 10
192.4578138032683
 20
15.39722336795625
 11
192.4578138032683
 21
15.22875434022057
 97
        1
330
B5
 75
     1
 76
     2
 52
45.0
 41
0.1
 77
     0
 78
     1
 53
45.0
 43
0.0
 44
0.0
 45
-0.282842712474619
 46
0.0
 79
     0
 98
        1
 10
0.0
 20
0.0
  0
ENDBLK
  5
4A
330
48
100
AcDbEntity
  8
0
100
AcDbBlockEnd
  0
BLOCK
  5
4D
330
4B
100
AcDbEntity
  8
0
100
AcDbBlockBegin
  2
開示A4枠
 70
     0
 10
0.00000000000111
 20
0.0
 30
0.0
  3
開示A4枠
  1

  0
INSERT
  5
4C
330
4B
100
AcDbEntity
  8
1
100
AcDbBlockReference
  2
開示A4
 10
0.00000000000111
 20
0.0
 30
0.0
  0
ENDBLK
  5
4E
330
4B
100
AcDbEntity
  8
0
100
AcDbBlockEnd
  0
BLOCK
  5
50
330
4F
100
AcDbEntity
  8
0
100
AcDbBlockBegin
  2
R65N-1
 70
     0
 10
108.5
 20
90.5
 30
0.0
  3
R65N-1
  1

  0
LINE
  5
D1
330
4F
100
AcDbEntity
  8
1
  6
Continuous
 62
     7
100
AcDbLine
 10
68.65092441160891
 20
112.39008169102
 30
0.0
 11
83.2509244116089
 21
112.39008169102
 31
0.0
  0
LINE
  5
D2
330
4F
100
AcDbEntity
  8
1
  6
Continuous
 62
     7
100
AcDbLine
 10
142.6509244116089
 20
127.39008169102
 30
0.0
 11
128.0509244116089
 21
127.39008169102
 31
0.0
  0
LINE
  5
D3
330
4F
100
AcDbEntity
  8
1
  6
Continuous
 62
     7
100
AcDbLine
 10
128.0509244116089
 20
112.39008169102
 30
0.0
 11
142.6509244116089
 21
112.39008169102
 31
0.0
  0
LINE
  5
D4
330
4F
100
AcDbEntity
  8
1
  6
Continuous
 62
     7
100
AcDbLine
 10
127.6509244116089
 20
117.39008169102
 30
0.0
 11
127.6509244116089
 21
112.39008169102
 31
0.0
  0
LINE
  5
D5
330
4F
100
AcDbEntity
  8
1
  6
Continuous
 62
     7
100
AcDbLine
 10
128.0509244116089
 20
127.39008169102
 30
0.0
 11
83.2509244116089
 21
127.39008169102
 31
0.0
  0
LINE
  5
D6
330
4F
100
AcDbEntity
  8
1
  6
Continuous
 62
     7
100
AcDbLine
 10
127.6509244116089
 20
127.39008169102
 30
0.0
 11
127.6509244116089
 21
122.39008169102
 31
0.0
  0
LINE
  5
D7
330
4F
100
AcDbEntity
  8
1
  6
Continuous
 62
     7
100
AcDbLine
 10
83.2509244116089
 20
112.39008169102
 30
0.0
 11
128.0509244116089
 21
112.39008169102
 31
0.0
  0
LINE
  5
D8
330
4F
100
AcDbEntity
  8
1
  6
Continuous
 62
     7
100
AcDbLine
 10
83.6509244116089
 20
112.39008169102
 30
0.0
 11
83.6509244116089
 21
117.39008169102
 31
0.0
  0
LINE
  5
D9
330
4F
100
AcDbEntity
  8
1
  6
Continuous
 62
     7
100
AcDbLine
 10
83.2509244116089
 20
127.39008169102
 30
0.0
 11
68.65092441160891
 21
127.39008169102
 31
0.0
  0
LINE
  5
DA
330
4F
100
AcDbEntity
  8
1
  6
Continuous
 62
     7
100
AcDbLine
 10
83.6509244116089
 20
127.39008169102
 30
0.0
 11
83.6509244116089
 21
122.39008169102
 31
0.0
  0
LINE
  5
DB
330
4F
100
AcDbEntity
  8
1
  6
Continuous
 62
     7
100
AcDbLine
 10
128.0509244116089
 20
122.39008169102
 30
0.0
 11
83.2509244116089
 21
122.39008169102
 31
0.0
  0
LINE
  5
DC
330
4F
100
AcDbEntity
  8
1
  6
Continuous
 62
     7
100
AcDbLine
 10
83.2509244116089
 20
117.39008169102
 30
0.0
 11
128.0509244116089
 21
117.39008169102
 31
0.0
  0
LINE
  5
DD
330
4F
100
AcDbEntity
  8
1
  6
Continuous
 62
     7
100
AcDbLine
 10
66.65092441160891
 20
176.1421527464459
 30
0.0
 11
80.2509244116089
 21
176.1421527464459
 31
0.0
  0
LINE
  5
DE
330
4F
100
AcDbEntity
  8
1
  6
Continuous
 62
     7
100
AcDbLine
 10
83.6509244116089
 20
178.7421527464459
 30
0.0
 11
83.6509244116089
 21
187.7421527464459
 31
0.0
  0
LINE
  5
DF
330
4F
100
AcDbEntity
  8
1
  6
Continuous
 62
     7
100
AcDbLine
 10
93.1509244116089
 20
197.7421527464459
 30
0.0
 11
105.6509244116089
 21
197.7421527464459
 31
0.0
  0
LINE
  5
E0
330
4F
100
AcDbEntity
  8
1
  6
Continuous
 62
     7
100
AcDbLine
 10
131.0509244116089
 20
176.1421527464459
 30
0.0
 11
144.6509244116089
 21
176.1421527464459
 31
0.0
  0
LINE
  5
E1
330
4F
100
AcDbEntity
  8
1
  6
Continuous
 62
     7
100
AcDbLine
 10
66.65092441160891
 20
175.7421527464459
 30
0.0
 11
80.6509244116089
 21
175.7421527464459
 31
0.0
  0
LINE
  5
E2
330
4F
100
AcDbEntity
  8
1
  6
Continuous
 62
     7
100
AcDbLine
 10
130.6509244116089
 20
175.7421527464459
 30
0.0
 11
144.6509244116089
 21
175.7421527464459
 31
0.0
  0
LINE
  5
E3
330
4F
100
AcDbEntity
  8
1
  6
Continuous
 62
     7
100
AcDbLine
 10
128.0509244116089
 20
188.1421527464459
 30
0.0
 11
128.0509244116089
 21
179.1421527464459
 31
0.0
  0
LINE
  5
E4
330
4F
100
AcDbEntity
  8
1
  6
Continuous
 62
     7
100
AcDbLine
 10
92.7509244116089
 20
198.1421527464459
 30
0.0
 11
105.6509244116089
 21
198.1421527464459
 31
0.0
  0
LINE
  5
E5
330
4F
100
AcDbEntity
  8
1
  6
Continuous
 62
     7
100
AcDbLine
 10
83.2509244116089
 20
179.1421527464459
 30
0.0
 11
83.2509244116089
 21
188.1421527464459
 31
0.0
  0
LINE
  5
E6
330
4F
100
AcDbEntity
  8
1
  6
Continuous
 62
     7
100
AcDbLine
 10
127.6509244116089
 20
187.7421527464459
 30
0.0
 11
127.6509244116089
 21
178.7421527464459
 31
0.0
  0
LINE
  5
E7
330
4F
100
AcDbEntity
  8
1
  6
Continuous
 62
     7
100
AcDbLine
 10
90.1509244116089
 20
200.7421527464459
 30
0.0
 11
105.6509244116089
 21
200.7421527464459
 31
0.0
  0
LINE
  5
E8
330
4F
100
AcDbEntity
  8
1
  6
Continuous
 62
     7
100
AcDbLine
 10
130.6509244116089
 20
190.7421527464459
 30
0.0
 11
130.6509244116089
 21
176.1421527464459
 31
0.0
  0
LINE
  5
E9
330
4F
100
AcDbEntity
  8
1
  6
Continuous
 62
     7
100
AcDbLine
 10
80.6509244116089
 20
176.1421527464459
 30
0.0
 11
80.6509244116089
 21
190.7421527464459
 31
0.0
  0
LINE
  5
EA
330
4F
100
AcDbEntity
  8
1
  6
Continuous
 62
     7
100
AcDbLine
 10
66.65092441160891
 20
176.1421527464459
 30
0.0
 11
66.65092441160891
 21
175.7421527464459
 31
0.0
  0
LINE
  5
EB
330
4F
100
AcDbEntity
  8
1
  6
Continuous
 62
     7
100
AcDbLine
 10
144.6509244116089
 20
176.1421527464459
 30
0.0
 11
144.6509244116089
 21
175.7421527464459
 31
0.0
  0
LINE
  5
EC
330
4F
100
AcDbEntity
  8
1
  6
Continuous
 62
     7
100
AcDbLine
 10
105.6509244116089
 20
197.7421527464459
 30
0.0
 11
118.1509244116089
 21
197.7421527464459
 31
0.0
  0
LINE
  5
ED
330
4F
100
AcDbEntity
  8
1
  6
Continuous
 62
     7
100
AcDbLine
 10
105.6509244116089
 20
198.1421527464459
 30
0.0
 11
118.5509244116089
 21
198.1421527464459
 31
0.0
  0
LINE
  5
EE
330
4F
100
AcDbEntity
  8
1
  6
Continuous
 62
     7
100
AcDbLine
 10
105.6509244116089
 20
200.7421527464459
 30
0.0
 11
121.1509244116089
 21
200.7421527464459
 31
0.0
  0
ARC
  5
EF
330
4F
100
AcDbEntity
  8
1
  6
Continuous
 62
     7
100
AcDbCircle
 10
81.7134244116089
 20
119.89008169102
 30
0.0
 40
15.06249999999999
100
AcDbArc
 50
150.1371656437249
 51
209.8628343562751
  0
ARC
  5
F0
330
4F
100
AcDbEntity
  8
1
  6
Continuous
 62
     7
100
AcDbCircle
 10
129.5884244116089
 20
119.89008169102
 30
0.0
 40
15.0625
100
AcDbArc
 50
330.1371656437249
 51
29.86283435627511
  0
ARC
  5
F1
330
4F
100
AcDbEntity
  8
1
  6
Continuous
 62
     7
100
AcDbCircle
 10
128.1490013346858
 20
119.89008169102
 30
0.0
 40
2.501923076923077
100
AcDbArc
 50
267.7533945718493
 51
92.24660542815072
  0
ARC
  5
F2
330
4F
100
AcDbEntity
  8
1
  6
Continuous
 62
     7
100
AcDbCircle
 10
83.152847488532
 20
119.89008169102
 30
0.0
 40
2.501923076923076
100
AcDbArc
 50
87.75339457184961
 51
272.2466054281504
  0
CIRCLE
  5
F3
330
4F
100
AcDbEntity
  8
1
  6
Continuous
 62
     7
100
AcDbCircle
 10
72.1492674939621
 20
119.89008169102
 30
0.0
 40
1.999999999999886
  0
CIRCLE
  5
F4
330
4F
100
AcDbEntity
  8
1
  6
Continuous
 62
     7
100
AcDbCircle
 10
138.1493876106032
 20
119.89008169102
 30
0.0
 40
2.0
  0
ARC
  5
F5
330
4F
100
AcDbEntity
  8
1
  6
Continuous
 62
     7
100
AcDbCircle
 10
93.6509244116089
 20
187.7421527464459
 30
0.0
 40
10.0
100
AcDbArc
 50
90.0
 51
180.0
  0
ARC
  5
F6
330
4F
100
AcDbEntity
  8
1
  6
Continuous
 62
     7
100
AcDbCircle
 10
93.2509244116089
 20
188.1421527464459
 30
0.0
 40
10.0
100
AcDbArc
 50
90.0
 51
180.0
  0
ARC
  5
F7
330
4F
100
AcDbEntity
  8
1
  6
Continuous
 62
     7
100
AcDbCircle
 10
117.6509244116089
 20
187.7421527464459
 30
0.0
 40
10.0
100
AcDbArc
 50
0.0
 51
90.0
  0
ARC
  5
F8
330
4F
100
AcDbEntity
  8
1
  6
Continuous
 62
     7
100
AcDbCircle
 10
118.0509244116089
 20
188.1421527464459
 30
0.0
 40
9.999999999999986
100
AcDbArc
 50
0.0
 51
90.0
  0
ARC
  5
F9
330
4F
100
AcDbEntity
  8
1
  6
Continuous
 62
     7
100
AcDbCircle
 10
90.6509244116089
 20
190.7421527464459
 30
0.0
 40
10.0
100
AcDbArc
 50
90.0
 51
180.0
  0
ARC
  5
FA
330
4F
100
AcDbEntity
  8
1
  6
Continuous
 62
     7
100
AcDbCircle
 10
120.6509244116089
 20
190.7421527464459
 30
0.0
 40
10.00000000000001
100
AcDbArc
 50
0.0
 51
90.0
  0
ARC
  5
FB
330
4F
100
AcDbEntity
  8
1
  6
Continuous
 62
     7
100
AcDbCircle
 10
130.6509244116089
 20
178.7421527464459
 30
0.0
 40
3.000000000000014
100
AcDbArc
 50
180.0
 51
270.0
  0
ARC
  5
FC
330
4F
100
AcDbEntity
  8
1
  6
Continuous
 62
     7
100
AcDbCircle
 10
131.0509244116089
 20
179.1421527464459
 30
0.0
 40
3.0
100
AcDbArc
 50
180.0
 51
270.0
  0
ARC
  5
FD
330
4F
100
AcDbEntity
  8
1
  6
Continuous
 62
     7
100
AcDbCircle
 10
80.2509244116089
 20
179.1421527464459
 30
0.0
 40
3.0
100
AcDbArc
 50
270.0
 51
0.0
  0
ARC
  5
FE
330
4F
100
AcDbEntity
  8
1
  6
Continuous
 62
     7
100
AcDbCircle
 10
80.6509244116089
 20
178.7421527464459
 30
0.0
 40
3.0
100
AcDbArc
 50
270.0
 51
0.0
  0
ENDBLK
  5
51
330
4F
100
AcDbEntity
  8
0
100
AcDbBlockEnd
  0
BLOCK
  5
119
330
112
100
AcDbEntity
  8
0
100
AcDbBlockBegin
  2
*D4
 70
     1
 10
0.0
 20
0.0
 30
0.0
  3
*D4
  1

  0
LINE
  5
113
330
112
100
AcDbEntity
  8
1
  6
Continuous
 62
     2
100
AcDbLine
 10
83.6509244116089
 20
166.7421527464459
 30
0.0
 11
127.6509244116089
 21
166.7421527464459
 31
0.0
  0
LINE
  5
114
330
112
100
AcDbEntity
  8
1
  6
Continuous
 62
     2
100
AcDbLine
 10
127.6509244116089
 20
178.7421527464459
 30
0.0
 11
127.6509244116089
 21
165.7421527464459
 31
0.0
  0
LINE
  5
115
330
112
100
AcDbEntity
  8
1
  6
Continuous
 62
     2
100
AcDbLine
 10
83.6509244116089
 20
178.7421527464459
 30
0.0
 11
83.6509244116089
 21
165.7421527464459
 31
0.0
  0
SOLID
  5
116
330
112
100
AcDbEntity
  8
1
 62
     2
100
AcDbTrace
 10
87.1509244116089
 20
167.2029364880018
 30
0.0
 11
87.1509244116089
 21
166.28136900489
 31
0.0
 12
83.6509244116089
 22
166.7421527464459
 32
0.0
 13
83.6509244116089
 23
166.7421527464459
 33
0.0
  0
SOLID
  5
117
330
112
100
AcDbEntity
  8
1
 62
     2
100
AcDbTrace
 10
124.1509244116089
 20
166.28136900489
 30
0.0
 11
124.1509244116089
 21
167.2029364880018
 31
0.0
 12
127.6509244116089
 22
166.7421527464459
 32
0.0
 13
127.6509244116089
 23
166.7421527464459
 33
0.0
  0
MTEXT
  5
118
330
112
100
AcDbEntity
  8
1
 62
     7
100
AcDbMText
 10
102.580375778576
 20
167.7421527464459
 30
0.0
 40
3.5
 41
0.0
 71
     7
 72
     1
  1
44
  7
CONVERTER_12
 11
0.9999999999970619
 21
2.424068405545306E-6
 31
0.0
 73
     1
 44
0.60024009603842
  0
ENDBLK
  5
11A
330
112
100
AcDbEntity
  8
0
100
AcDbBlockEnd
  0
BLOCK
  5
124
330
11D
100
AcDbEntity
  8
0
100
AcDbBlockBegin
  2
*D5
 70
     1
 10
0.0
 20
0.0
 30
0.0
  3
*D5
  1

  0
LINE
  5
11E
330
11D
100
AcDbEntity
  8
1
  6
Continuous
 62
     2
100
AcDbLine
 10
144.6509244116089
 20
158.7421527464459
 30
0.0
 11
66.6509244116089
 21
158.7421527464459
 31
0.0
  0
LINE
  5
11F
330
11D
100
AcDbEntity
  8
1
  6
Continuous
 62
     2
100
AcDbLine
 10
66.6509244116089
 20
175.7421527464459
 30
0.0
 11
66.6509244116089
 21
157.7421527464459
 31
0.0
  0
LINE
  5
120
330
11D
100
AcDbEntity
  8
1
  6
Continuous
 62
     2
100
AcDbLine
 10
144.6509244116089
 20
175.7421527464459
 30
0.0
 11
144.6509244116089
 21
157.7421527464459
 31
0.0
  0
SOLID
  5
121
330
11D
100
AcDbEntity
  8
1
 62
     2
100
AcDbTrace
 10
141.1509244116089
 20
158.28136900489
 30
0.0
 11
141.1509244116089
 21
159.2029364880018
 31
0.0
 12
144.6509244116089
 22
158.7421527464459
 32
0.0
 13
144.6509244116089
 23
158.7421527464459
 33
0.0
  0
SOLID
  5
122
330
11D
100
AcDbEntity
  8
1
 62
     2
100
AcDbTrace
 10
70.1509244116089
 20
159.2029364880018
 30
0.0
 11
70.1509244116089
 21
158.28136900489
 31
0.0
 12
66.6509244116089
 22
158.7421527464459
 32
0.0
 13
66.6509244116089
 23
158.7421527464459
 33
0.0
  0
MTEXT
  5
123
330
11D
100
AcDbEntity
  8
1
 62
     7
100
AcDbMText
 10
103.424669273715
 20
159.7421527464459
 30
0.0
 40
3.5
 41
0.0
 71
     7
 72
     1
  1
78
  7
CONVERTER_12
 11
0.9999999999970619
 21
2.424068405545306E-6
 31
0.0
 73
     1
 44
0.60024009603842
  0
ENDBLK
  5
125
330
11D
100
AcDbEntity
  8
0
100
AcDbBlockEnd
  0
BLOCK
  5
12F
330
128
100
AcDbEntity
  8
0
100
AcDbBlockBegin
  2
*D6
 70
     1
 10
0.0
 20
0.0
 30
0.0
  3
*D6
  1

  0
LINE
  5
129
330
128
100
AcDbEntity
  8
1
  6
Continuous
 62
     2
100
AcDbLine
 10
169.6509244116089
 20
200.7421527464459
 30
0.0
 11
169.6509244116089
 21
175.7421527464459
 31
0.0
  0
LINE
  5
12A
330
128
100
AcDbEntity
  8
1
  6
Continuous
 62
     2
100
AcDbLine
 10
130.6509244116089
 20
175.7421527464459
 30
0.0
 11
170.6509244116089
 21
175.7421527464459
 31
0.0
  0
LINE
  5
12B
330
128
100
AcDbEntity
  8
1
  6
Continuous
 62
     2
100
AcDbLine
 10
121.1509244116089
 20
200.7421527464459
 30
0.0
 11
170.6509244116089
 21
200.7421527464459
 31
0.0
  0
SOLID
  5
12C
330
128
100
AcDbEntity
  8
1
 62
     2
100
AcDbTrace
 10
170.1117081531648
 20
197.2421527464459
 30
0.0
 11
169.190140670053
 21
197.2421527464459
 31
0.0
 12
169.6509244116089
 22
200.7421527464459
 32
0.0
 13
169.6509244116089
 23
200.7421527464459
 33
0.0
  0
SOLID
  5
12D
330
128
100
AcDbEntity
  8
1
 62
     2
100
AcDbTrace
 10
169.190140670053
 20
179.2421527464459
 30
0.0
 11
170.1117081531648
 21
179.2421527464459
 31
0.0
 12
169.6509244116089
 22
175.7421527464459
 32
0.0
 13
169.6509244116089
 23
175.7421527464459
 33
0.0
  0
MTEXT
  5
12E
330
128
100
AcDbEntity
  8
1
 62
     7
100
AcDbMText
 10
168.6509244116089
 20
184.703854012516
 30
0.0
 40
3.5
 41
0.0
 71
     7
 72
     1
  1
25
  7
CONVERTER_12
 11
0.0
 21
1.0
 31
0.0
 73
     1
 44
0.60024009603842
  0
ENDBLK
  5
130
330
128
100
AcDbEntity
  8
0
100
AcDbBlockEnd
  0
BLOCK
  5
13A
330
133
100
AcDbEntity
  8
0
100
AcDbBlockBegin
  2
*D7
 70
     1
 10
0.0
 20
0.0
 30
0.0
  3
*D7
  1

  0
LINE
  5
134
330
133
100
AcDbEntity
  8
1
  6
Continuous
 62
     2
100
AcDbLine
 10
161.6509244116089
 20
175.7421527464459
 30
0.0
 11
161.6509244116089
 21
197.7421527464459
 31
0.0
  0
LINE
  5
135
330
133
100
AcDbEntity
  8
1
  6
Continuous
 62
     2
100
AcDbLine
 10
118.1509244116089
 20
197.7421527464459
 30
0.0
 11
162.6509244116089
 21
197.7421527464459
 31
0.0
  0
LINE
  5
136
330
133
100
AcDbEntity
  8
1
  6
Continuous
 62
     2
100
AcDbLine
 10
130.6509244116089
 20
175.7421527464459
 30
0.0
 11
162.6509244116089
 21
175.7421527464459
 31
0.0
  0
SOLID
  5
137
330
133
100
AcDbEntity
  8
1
 62
     2
100
AcDbTrace
 10
161.190140670053
 20
179.2421527464459
 30
0.0
 11
162.1117081531648
 21
179.2421527464459
 31
0.0
 12
161.6509244116089
 22
175.7421527464459
 32
0.0
 13
161.6509244116089
 23
175.7421527464459
 33
0.0
  0
SOLID
  5
138
330
133
100
AcDbEntity
  8
1
 62
     2
100
AcDbTrace
 10
162.1117081531648
 20
194.2421527464459
 30
0.0
 11
161.190140670053
 21
194.2421527464459
 31
0.0
 12
161.6509244116089
 22
197.7421527464459
 32
0.0
 13
161.6509244116089
 23
197.7421527464459
 33
0.0
  0
MTEXT
  5
139
330
133
100
AcDbEntity
  8
1
 62
     7
100
AcDbMText
 10
160.6509244116089
 20
183.393169863245
 30
0.0
 40
3.5
 41
0.0
 71
     7
 72
     1
  1
22
  7
CONVERTER_12
 11
0.0
 21
1.0
 31
0.0
 73
     1
 44
0.60024009603842
  0
ENDBLK
  5
13B
330
133
100
AcDbEntity
  8
0
100
AcDbBlockEnd
  0
BLOCK
  5
147
330
13E
100
AcDbEntity
  8
0
100
AcDbBlockBegin
  2
*D8
 70
     1
 10
0.0
 20
0.0
 30
0.0
  3
*D8
  1

  0
LINE
  5
13F
330
13E
100
AcDbEntity
  8
1
  6
Continuous
 62
     2
100
AcDbLine
 10
153.6509244116089
 20
176.1421527464459
 30
0.0
 11
153.6509244116089
 21
183.1421527464459
 31
0.0
  0
LINE
  5
140
330
13E
100
AcDbEntity
  8
1
  6
Continuous
 62
     2
100
AcDbLine
 10
153.6509244116089
 20
175.7421527464459
 30
0.0
 11
153.6509244116089
 21
176.1421527464459
 31
0.0
  0
LINE
  5
141
330
13E
100
AcDbEntity
  8
1
  6
Continuous
 62
     2
100
AcDbLine
 10
153.6509244116089
 20
167.7551353282174
 30
0.0
 11
153.6509244116089
 21
175.7421527464459
 31
0.0
  0
LINE
  5
142
330
13E
100
AcDbEntity
  8
1
  6
Continuous
 62
     2
100
AcDbLine
 10
144.6509244116089
 20
176.1421527464459
 30
0.0
 11
154.6509244116089
 21
176.1421527464459
 31
0.0
  0
LINE
  5
143
330
13E
100
AcDbEntity
  8
1
  6
Continuous
 62
     2
100
AcDbLine
 10
144.6509244116089
 20
175.7421527464459
 30
0.0
 11
154.6509244116089
 21
175.7421527464459
 31
0.0
  0
SOLID
  5
144
330
13E
100
AcDbEntity
  8
1
 62
     2
100
AcDbTrace
 10
154.1117081531648
 20
172.2421527464459
 30
0.0
 11
153.190140670053
 21
172.2421527464459
 31
0.0
 12
153.6509244116089
 22
175.7421527464459
 32
0.0
 13
153.6509244116089
 23
175.7421527464459
 33
0.0
  0
SOLID
  5
145
330
13E
100
AcDbEntity
  8
1
 62
     2
100
AcDbTrace
 10
153.190140670053
 20
179.6421527464459
 30
0.0
 11
154.1117081531648
 21
179.6421527464459
 31
0.0
 12
153.6509244116089
 22
176.1421527464459
 32
0.0
 13
153.6509244116089
 23
176.1421527464459
 33
0.0
  0
MTEXT
  5
146
330
13E
100
AcDbEntity
  8
1
 62
     7
100
AcDbMText
 10
152.3009244116089
 20
167.7551353282174
 30
0.0
 40
3.5
 41
0.0
 71
     7
 72
     1
  1
0,4
  7
CONVERTER_12
 11
0.0
 21
1.0
 31
0.0
 73
     1
 44
0.60024009603842
  0
ENDBLK
  5
148
330
13E
100
AcDbEntity
  8
0
100
AcDbBlockEnd
  0
BLOCK
  5
152
330
14B
100
AcDbEntity
  8
0
100
AcDbBlockBegin
  2
*D9
 70
     1
 10
0.0
 20
0.0
 30
0.0
  3
*D9
  1

  0
LINE
  5
14C
330
14B
100
AcDbEntity
  8
1
  6
Continuous
 62
     2
100
AcDbLine
 10
161.6509244116089
 20
127.39008169102
 30
0.0
 11
161.6509244116089
 21
112.39008169102
 31
0.0
  0
LINE
  5
14D
330
14B
100
AcDbEntity
  8
1
  6
Continuous
 62
     2
100
AcDbLine
 10
142.6509244116089
 20
112.39008169102
 30
0.0
 11
162.6509244116089
 21
112.39008169102
 31
0.0
  0
LINE
  5
14E
330
14B
100
AcDbEntity
  8
1
  6
Continuous
 62
     2
100
AcDbLine
 10
142.6509244116089
 20
127.39008169102
 30
0.0
 11
162.6509244116089
 21
127.39008169102
 31
0.0
  0
SOLID
  5
14F
330
14B
100
AcDbEntity
  8
1
 62
     2
100
AcDbTrace
 10
162.1117081531648
 20
123.89008169102
 30
0.0
 11
161.190140670053
 21
123.89008169102
 31
0.0
 12
161.6509244116089
 22
127.39008169102
 32
0.0
 13
161.6509244116089
 23
127.39008169102
 33
0.0
  0
SOLID
  5
150
330
14B
100
AcDbEntity
  8
1
 62
     2
100
AcDbTrace
 10
161.190140670053
 20
115.89008169102
 30
0.0
 11
162.1117081531648
 21
115.89008169102
 31
0.0
 12
161.6509244116089
 22
112.39008169102
 32
0.0
 13
161.6509244116089
 23
112.39008169102
 33
0.0
  0
MTEXT
  5
151
330
14B
100
AcDbEntity
  8
1
 62
     7
100
AcDbMText
 10
160.6509244116089
 20
118.1346049418082
 30
0.0
 40
3.5
 41
0.0
 71
     7
 72
     1
  1
15
  7
CONVERTER_12
 11
0.0
 21
1.0
 31
0.0
 73
     1
 44
0.60024009603842
  0
ENDBLK
  5
153
330
14B
100
AcDbEntity
  8
0
100
AcDbBlockEnd
  0
BLOCK
  5
15D
330
156
100
AcDbEntity
  8
0
100
AcDbBlockBegin
  2
*D10
 70
     1
 10
0.0
 20
0.0
 30
0.0
  3
*D10
  1

  0
LINE
  5
157
330
156
100
AcDbEntity
  8
1
  6
Continuous
 62
     2
100
AcDbLine
 10
72.14926749396211
 20
103.39008169102
 30
0.0
 11
138.1493876106032
 21
103.39008169102
 31
0.0
  0
LINE
  5
158
330
156
100
AcDbEntity
  8
1
  6
Continuous
 62
     2
100
AcDbLine
 10
138.1493876106032
 20
114.89008169102
 30
0.0
 11
138.1493876106032
 21
102.39008169102
 31
0.0
  0
LINE
  5
159
330
156
100
AcDbEntity
  8
1
  6
Continuous
 62
     2
100
AcDbLine
 10
72.14926749396211
 20
114.89008169102
 30
0.0
 11
72.14926749396211
 21
102.39008169102
 31
0.0
  0
SOLID
  5
15A
330
156
100
AcDbEntity
  8
1
 62
     2
100
AcDbTrace
 10
75.64926749396211
 20
103.8508654325759
 30
0.0
 11
75.64926749396211
 21
102.9292979494641
 31
0.0
 12
72.14926749396211
 22
103.39008169102
 32
0.0
 13
72.14926749396211
 23
103.39008169102
 33
0.0
  0
SOLID
  5
15B
330
156
100
AcDbEntity
  8
1
 62
     2
100
AcDbTrace
 10
134.6493876106032
 20
102.9292979494641
 30
0.0
 11
134.6493876106032
 21
103.8508654325759
 31
0.0
 12
138.1493876106032
 22
103.39008169102
 32
0.0
 13
138.1493876106032
 23
103.39008169102
 33
0.0
  0
MTEXT
  5
15C
330
156
100
AcDbEntity
  8
1
 62
     7
100
AcDbMText
 10
104.2390047712099
 20
104.39008169102
 30
0.0
 40
3.5
 41
0.0
 71
     7
 72
     1
  1
66
  7
CONVERTER_12
 11
0.9999999999970619
 21
2.424068405545306E-6
 31
0.0
 73
     1
 44
0.60024009603842
  0
ENDBLK
  5
15E
330
156
100
AcDbEntity
  8
0
100
AcDbBlockEnd
  0
BLOCK
  5
16A
330
161
100
AcDbEntity
  8
0
100
AcDbBlockBegin
  2
*D11
 70
     1
 10
0.0
 20
0.0
 30
0.0
  3
*D11
  1

  0
LINE
  5
162
330
161
100
AcDbEntity
  8
1
  6
Continuous
 62
     2
100
AcDbLine
 10
153.6509244116089
 20
112.39008169102
 30
0.0
 11
153.6509244116089
 21
105.39008169102
 31
0.0
  0
LINE
  5
163
330
161
100
AcDbEntity
  8
1
  6
Continuous
 62
     2
100
AcDbLine
 10
153.6509244116089
 20
119.89008169102
 30
0.0
 11
153.6509244116089
 21
112.39008169102
 31
0.0
  0
LINE
  5
164
330
161
100
AcDbEntity
  8
1
  6
Continuous
 62
     2
100
AcDbLine
 10
153.6509244116089
 20
126.89008169102
 30
0.0
 11
153.6509244116089
 21
119.89008169102
 31
0.0
  0
LINE
  5
165
330
161
100
AcDbEntity
  8
1
  6
Continuous
 62
     2
100
AcDbLine
 10
142.6509244116089
 20
112.39008169102
 30
0.0
 11
154.6509244116089
 21
112.39008169102
 31
0.0
  0
LINE
  5
166
330
161
100
AcDbEntity
  8
1
  6
Continuous
 62
     2
100
AcDbLine
 10
143.1493876106032
 20
119.89008169102
 30
0.0
 11
154.6509244116089
 21
119.89008169102
 31
0.0
  0
SOLID
  5
167
330
161
100
AcDbEntity
  8
1
 62
     2
100
AcDbTrace
 10
153.190140670053
 20
123.39008169102
 30
0.0
 11
154.1117081531648
 21
123.39008169102
 31
0.0
 12
153.6509244116089
 22
119.89008169102
 32
0.0
 13
153.6509244116089
 23
119.89008169102
 33
0.0
  0
SOLID
  5
168
330
161
100
AcDbEntity
  8
1
 62
     2
100
AcDbTrace
 10
154.1117081531648
 20
108.89008169102
 30
0.0
 11
153.190140670053
 21
108.89008169102
 31
0.0
 12
153.6509244116089
 22
112.39008169102
 32
0.0
 13
153.6509244116089
 23
112.39008169102
 33
0.0
  0
MTEXT
  5
169
330
161
100
AcDbEntity
  8
1
 62
     7
100
AcDbMText
 10
152.3009244116089
 20
112.7935638795948
 30
0.0
 40
3.5
 41
0.0
 71
     7
 72
     1
  1
7,5
  7
CONVERTER_12
 11
0.0
 21
1.0
 31
0.0
 73
     1
 44
0.60024009603842
  0
ENDBLK
  5
16B
330
161
100
AcDbEntity
  8
0
100
AcDbBlockEnd
  0
BLOCK
  5
172
330
16E
100
AcDbEntity
  8
0
100
AcDbBlockBegin
  2
*D12
 70
     1
 10
0.0
 20
0.0
 30
0.0
  3
*D12
  1

  0
LINE
  5
16F
330
16E
100
AcDbEntity
  8
1
  6
Continuous
 62
     2
100
AcDbLine
 10
93.6509244116089
 20
187.7421527464459
 30
0.0
 11
87.51608255793421
 21
195.6392227999785
 31
0.0
  0
SOLID
  5
170
330
16E
100
AcDbEntity
  8
1
 62
     2
100
AcDbTrace
 10
90.02716135537993
 20
193.1579318195611
 30
0.0
 11
89.2993930580608
 21
192.5925647429231
 31
0.0
 12
87.51608255793421
 22
195.6392227999785
 32
0.0
 13
87.51608255793421
 23
195.6392227999785
 33
0.0
  0
MTEXT
  5
171
330
16E
100
AcDbEntity
  8
1
 62
     7
100
AcDbMText
 10
90.23403191729045
 20
193.7705786252434
 30
0.0
 40
3.5
 41
0.0
 71
     7
 72
     1
  1
\C7;R\C7;10
  7
CONVERTER_12
 11
0.6134841853674692
 21
-0.7897070053532593
 31
0.0
 73
     1
 44
0.60024009603842
  0
ENDBLK
  5
173
330
16E
100
AcDbEntity
  8
0
100
AcDbBlockEnd
  0
BLOCK
  5
17A
330
175
100
AcDbEntity
  8
0
100
AcDbBlockBegin
  2
*D13
 70
     1
 10
0.0
 20
0.0
 30
0.0
  3
*D13
  1

  0
LINE
  5
176
330
175
100
AcDbEntity
  8
1
  6
Continuous
 62
     2
100
AcDbLine
 10
77.72247373715103
 20
115.2530705662891
 30
0.0
 11
59.91226690055822
 21
130.0714935047849
 31
0.0
  0
SOLID
  5
177
330
175
100
AcDbEntity
  8
1
 62
     2
100
AcDbTrace
 10
67.62660629765469
 20
123.0536014649263
 30
0.0
 11
68.21602956267257
 21
123.7620270718778
 31
0.0
 12
70.61183128894453
 22
121.1692571737043
 32
0.0
 13
70.61183128894453
 23
121.1692571737043
 33
0.0
  0
SOLID
  5
178
330
175
100
AcDbEntity
  8
1
 62
     2
100
AcDbTrace
 10
76.6719286902695
 20
116.7265619171137
 30
0.0
 11
76.08250542525163
 21
116.0181363101621
 31
0.0
 12
73.68670369897967
 22
118.6109062083356
 32
0.0
 13
73.68670369897967
 23
118.6109062083356
 33
0.0
  0
MTEXT
  5
179
330
175
100
AcDbEntity
  8
1
 62
     7
100
AcDbMText
 10
61.57424971823717
 20
129.9895599113086
 30
0.0
 40
3.5
 41
0.0
 71
     7
 72
     1
  1
\C7;{\Fgdt;n}\C7;4
  7
CONVERTER_12
 11
0.7687181025088311
 21
-0.6395877413422042
 31
0.0
 73
     1
 44
0.60024009603842
  0
ENDBLK
  5
17B
330
175
100
AcDbEntity
  8
0
100
AcDbBlockEnd
  0
ENDSEC
  0
SECTION
  2
ENTITIES
  0
INSERT
  5
52
330
1F
100
AcDbEntity
  8
0
100
AcDbBlockReference
  2
開示A4枠
 10
0.00000000000111
 20
0.0
 30
0.0
  0
INSERT
  5
53
330
1F
100
AcDbEntity
  8
1
100
AcDbBlockReference
  2
R65N-1
 10
108.5
 20
90.5
 30
0.0
  0
LINE
  5
FF
330
1F
100
AcDbEntity
  8
1
  6
DASH_CENTER
 62
     2
100
AcDbLine
 10
138.1493876106032
 20
124.89008169102
 30
0.0
 11
138.1493876106032
 21
114.89008169102
 31
0.0
  0
LINE
  5
100
330
1F
100
AcDbEntity
  8
1
  6
DASH_CENTER
 62
     2
100
AcDbLine
 10
72.1492674939621
 20
124.89008169102
 30
0.0
 11
72.1492674939621
 21
114.89008169102
 31
0.0
  0
LINE
  5
101
330
1F
100
AcDbEntity
  8
1
  6
DASH_CENTER
 62
     2
100
AcDbLine
 10
105.6509244116089
 20
130.39008169102
 30
0.0
 11
105.6509244116089
 21
109.39008169102
 31
0.0
  0
LINE
  5
102
330
1F
100
AcDbEntity
  8
1
  6
DASH_CENTER
 62
     2
100
AcDbLine
 10
105.6509244116089
 20
203.2790756108007
 30
0.0
 11
105.6509244116089
 21
172.7790756108007
 31
0.0
  0
LINE
  5
103
330
1F
100
AcDbEntity
  8
1
  6
DASH_CENTER
 62
     2
100
AcDbLine
 10
133.1493876106032
 20
119.89008169102
 30
0.0
 11
143.1493876106032
 21
119.89008169102
 31
0.0
  0
LINE
  5
104
330
1F
100
AcDbEntity
  8
1
  6
DASH_CENTER
 62
     2
100
AcDbLine
 10
67.14926749396221
 20
119.89008169102
 30
0.0
 11
77.1492674939621
 21
119.89008169102
 31
0.0
  0
MTEXT
  5
106
330
1F
100
AcDbEntity
  8
1
 62
     7
100
AcDbMText
 10
157.5000000000011
 20
12.5
 30
0.0
 40
2.5
 41
0.0
 71
     5
 72
     1
  1
7
  7
CONVERTER_12
 73
     1
 44
0.7202881152461
  0
MTEXT
  5
107
330
1F
100
AcDbEntity
  8
1
 62
     7
100
AcDbMText
 10
151.7500000000011
 20
12.5
 30
0.0
 40
2.5
 41
0.0
 71
     5
 72
     1
  1
04
  7
CONVERTER_12
 73
     1
 44
0.7202881152461
  0
MTEXT
  5
108
330
1F
100
AcDbEntity
  8
1
 62
     7
100
AcDbMText
 10
140.5000000000011
 20
12.5
 30
0.0
 40
2.5
 41
0.0
 71
     5
 72
     1
  1
7
  7
CONVERTER_12
 73
     1
 44
0.7202881152461
  0
MTEXT
  5
109
330
1F
100
AcDbEntity
  8
1
 62
     7
100
AcDbMText
 10
134.7500000000011
 20
12.5
 30
0.0
 40
2.5
 41
0.0
 71
     5
 72
     1
  1
04
  7
CONVERTER_12
 73
     1
 44
0.7202881152461
  0
MTEXT
  5
10A
330
1F
100
AcDbEntity
  8
1
 62
     7
100
AcDbMText
 10
123.5000000000011
 20
12.5
 30
0.0
 40
2.5
 41
0.0
 71
     5
 72
     1
  1
7
  7
CONVERTER_12
 73
     1
 44
0.7202881152461
  0
MTEXT
  5
10B
330
1F
100
AcDbEntity
  8
1
 62
     7
100
AcDbMText
 10
117.7500000000011
 20
12.5
 30
0.0
 40
2.5
 41
0.0
 71
     5
 72
     1
  1
04
  7
CONVERTER_12
 73
     1
 44
0.7202881152461
  0
MTEXT
  5
10C
330
1F
100
AcDbEntity
  8
1
 62
     7
100
AcDbMText
 10
100.7500000000011
 20
12.5
 30
0.0
 40
2.5
 41
0.0
 71
     5
 72
     1
  1
04
  7
CONVERTER_12
 73
     1
 44
0.7202881152461
  0
MTEXT
  5
10D
330
1F
100
AcDbEntity
  8
1
 62
     7
100
AcDbMText
 10
106.5000000000011
 20
12.5
 30
0.0
 40
2.5
 41
0.0
 71
     5
 72
     1
  1
7
  7
CONVERTER_12
 73
     1
 44
0.7202881152461
  0
MTEXT
  5
10E
330
1F
100
AcDbEntity
  8
1
 62
     7
100
AcDbMText
 10
93.7500000000011
 20
17.0
 30
0.0
 40
3.5
 41
0.0
 71
     5
 72
     1
  1
1
  7
CONVERTER_12
 73
     1
 44
0.7202881152461
  0
MTEXT
  5
10F
330
1F
100
AcDbEntity
  8
1
 62
     7
100
AcDbMText
 10
57.00000000000111
 20
14.25
 30
0.0
 40
3.5
 41
0.0
 71
     5
 72
     1
  1
R65N-1-13A
  7
CONVERTER_12
 73
     1
 44
0.7202881152461
  0
MTEXT
  5
110
330
1F
100
AcDbEntity
  8
1
 62
     7
100
AcDbMText
 10
57.00000000000111
 20
22.75000000000001
 30
0.0
 40
3.5
 41
0.0
 71
     5
 72
     1
  1
ステンレスサドル
  7
CONVERTER_11
 73
     1
 44
0.54545454545455
  0
MTEXT
  5
111
330
1F
100
AcDbEntity
  8
1
 62
     7
100
AcDbMText
 10
85.2500000000011
 20
17.0
 30
0.0
 40
3.5
 41
0.0
 71
     5
 72
     1
  1
1
  7
CONVERTER_12
 73
     1
 44
0.7202881152461
  0
DIMENSION
  5
11C
330
1F
100
AcDbEntity
  8
1
100
AcDbDimension
  2
*D4
 10
83.6509244116089
 20
166.7421527464459
 30
0.0
 11
105.205375778576
 21
169.4921527464459
 31
0.0
 70
    32
  1
<>
 71
     5
 42
-1.0
 53
0.00013888888889
  3
ME10_DIM_10
100
AcDbAlignedDimension
 13
127.6509244116089
 23
178.7421527464459
 33
0.0
 14
83.6509244116089
 24
178.7421527464459
 34
0.0
100
AcDbRotatedDimension
  0
DIMENSION
  5
127
330
1F
100
AcDbEntity
  8
1
100
AcDbDimension
  2
*D5
 10
144.6509244116089
 20
158.7421527464459
 30
0.0
 11
106.049669273715
 21
161.4921527464459
 31
0.0
 70
    32
  1
<>
 71
     5
 42
-1.0
 53
0.00013888888889
  3
ME10_DIM_11
100
AcDbAlignedDimension
 13
66.65092441160891
 23
175.7421527464459
 33
0.0
 14
144.6509244116089
 24
175.7421527464459
 34
0.0
100
AcDbRotatedDimension
  0
DIMENSION
  5
132
330
1F
100
AcDbEntity
  8
1
100
AcDbDimension
  2
*D6
 10
169.6509244116089
 20
200.7421527464459
 30
0.0
 11
166.9009244116089
 21
187.328854012516
 31
0.0
 70
    32
  1
<>
 71
     5
 42
-1.0
 53
90.0
  3
ME10_DIM_12
100
AcDbAlignedDimension
 13
130.6509244116089
 23
175.7421527464459
 33
0.0
 14
121.1509244116089
 24
200.7421527464459
 34
0.0
 50
90.0
100
AcDbRotatedDimension
  0
DIMENSION
  5
13D
330
1F
100
AcDbEntity
  8
1
100
AcDbDimension
  2
*D7
 10
161.6509244116089
 20
175.7421527464459
 30
0.0
 11
158.9009244116089
 21
186.018169863245
 31
0.0
 70
    32
  1
<>
 71
     5
 42
-1.0
 53
90.0
  3
ME10_DIM_13
100
AcDbAlignedDimension
 13
118.1509244116089
 23
197.7421527464459
 33
0.0
 14
130.6509244116089
 24
175.7421527464459
 34
0.0
 50
90.0
100
AcDbRotatedDimension
  0
DIMENSION
  5
14A
330
1F
100
AcDbEntity
  8
1
100
AcDbDimension
  2
*D8
 10
153.6509244116089
 20
175.7421527464459
 30
0.0
 11
150.7259244116089
 21
170.9926353282174
 31
0.0
 70
    32
  1
<>
 71
     5
 42
-1.0
 53
90.0
  3
ME10_DIM_14
100
AcDbAlignedDimension
 13
144.6509244116089
 23
176.1421527464459
 33
0.0
 14
144.6509244116089
 24
175.7421527464459
 34
0.0
 50
90.0
100
AcDbRotatedDimension
  0
DIMENSION
  5
155
330
1F
100
AcDbEntity
  8
1
100
AcDbDimension
  2
*D9
 10
161.6509244116089
 20
127.39008169102
 30
0.0
 11
158.9009244116089
 21
120.2346049418082
 31
0.0
 70
    32
  1
<>
 71
     5
 42
-1.0
 53
90.0
  3
ME10_DIM_15
100
AcDbAlignedDimension
 13
142.6509244116089
 23
112.39008169102
 33
0.0
 14
142.6509244116089
 24
127.39008169102
 34
0.0
 50
90.0
100
AcDbRotatedDimension
  0
DIMENSION
  5
160
330
1F
100
AcDbEntity
  8
1
100
AcDbDimension
  2
*D10
 10
72.14926749396211
 20
103.39008169102
 30
0.0
 11
106.8640047712099
 21
106.14008169102
 31
0.0
 70
    32
  1
<>
 71
     5
 42
-1.0
 53
0.00013888888889
  3
ME10_DIM_16
100
AcDbAlignedDimension
 13
138.1493876106032
 23
114.89008169102
 33
0.0
 14
72.1492674939621
 24
114.89008169102
 34
0.0
100
AcDbRotatedDimension
  0
DIMENSION
  5
16D
330
1F
100
AcDbEntity
  8
1
100
AcDbDimension
  2
*D11
 10
153.6509244116089
 20
119.89008169102
 30
0.0
 11
150.7259244116089
 21
116.0310638795948
 31
0.0
 70
    32
  1
<>
 71
     5
 42
-1.0
 53
90.0
  3
ME10_DIM_17
100
AcDbAlignedDimension
 13
142.6509244116089
 23
112.39008169102
 33
0.0
 14
143.1493876106032
 24
119.89008169102
 34
0.0
 50
90.0
100
AcDbRotatedDimension
  0
INSERT
  5
174
330
1F
100
AcDbEntity
  8
1
100
AcDbBlockReference
  2
*D12
 10
0.0
 20
0.0
 30
0.0
  0
INSERT
  5
17C
330
1F
100
AcDbEntity
  8
1
100
AcDbBlockReference
  2
*D13
 10
0.0
 20
0.0
 30
0.0
  0
ENDSEC
  0
SECTION
  2
OBJECTS
  0
DICTIONARY
  5
C
330
0
100
AcDbDictionary
281
     1
  3
ACAD_GROUP
350
D
  3
ACAD_LAYOUT
350
1A
  3
ACAD_MATERIAL
350
3B
  3
ACAD_MLEADERSTYLE
350
17F
  3
ACAD_MLINESTYLE
350
17
  3
ACAD_PLOTSETTINGS
350
19
  3
ACAD_PLOTSTYLENAME
350
E
  3
ACAD_VISUALSTYLE
350
2A
  3
AcDbVariableDictionary
350
17D
  0
DICTIONARY
  5
D
102
{ACAD_REACTORS
330
C
102
}
330
C
100
AcDbDictionary
281
     1
  0
DICTIONARY
  5
1A
102
{ACAD_REACTORS
330
C
102
}
330
C
100
AcDbDictionary
281
     1
  3
Layout1
350
1E
  3
Layout2
350
26
  3
Model
350
22
  0
DICTIONARY
  5
3B
102
{ACAD_REACTORS
330
C
102
}
330
C
100
AcDbDictionary
281
     1
  3
ByBlock
350
3D
  3
ByLayer
350
3C
  3
Global
350
3E
  0
DICTIONARY
  5
17F
102
{ACAD_REACTORS
330
C
102
}
330
C
100
AcDbDictionary
281
     1
  0
DICTIONARY
  5
17
102
{ACAD_REACTORS
330
C
102
}
330
C
100
AcDbDictionary
281
     1
  3
Standard
350
18
  0
DICTIONARY
  5
19
102
{ACAD_REACTORS
330
C
102
}
330
C
100
AcDbDictionary
281
     1
  0
ACDBDICTIONARYWDFLT
  5
E
102
{ACAD_REACTORS
330
C
102
}
330
C
100
AcDbDictionary
281
     1
  3
Normal
350
F
100
AcDbDictionaryWithDefault
340
F
  0
DICTIONARY
  5
2A
102
{ACAD_REACTORS
330
C
102
}
330
C
100
AcDbDictionary
281
     1
  3
2dWireframe
350
2F
  3
3D Hidden
350
31
  3
3dWireframe
350
30
  3
Basic
350
32
  3
Brighten
350
36
  3
ColorChange
350
3A
  3
Conceptual
350
34
  3
Dim
350
35
  3
Facepattern
350
39
  3
Flat
350
2B
  3
FlatWithEdges
350
2C
  3
Gouraud
350
2D
  3
GouraudWithEdges
350
2E
  3
Linepattern
350
38
  3
Realistic
350
33
  3
Thicken
350
37
  0
DICTIONARY
  5
17D
102
{ACAD_REACTORS
330
C
102
}
330
C
100
AcDbDictionary
281
     1
  3
DIMASSOC
350
180
  3
HIDETEXT
350
181
  0
LAYOUT
  5
1E
102
{ACAD_REACTORS
330
1A
102
}
330
1A
100
AcDbPlotSettings
  1

  2
none_device
  4

  6

 40
0.0
 41
0.0
 42
0.0
 43
0.0
 44
0.0
 45
0.0
 46
0.0
 47
0.0
 48
0.0
 49
0.0
140
0.0
141
0.0
142
1.0
143
1.0
 70
   688
 72
     0
 73
     0
 74
     5
  7

 75
    16
147
1.0
148
0.0
149
0.0
100
AcDbLayout
  1
Layout1
 70
     1
 71
     1
 10
0.0
 20
0.0
 11
12.0
 21
9.0
 12
0.0
 22
0.0
 32
0.0
 14
1.00000000000000E+20
 24
1.00000000000000E+20
 34
1.00000000000000E+20
 15
-1.00000000000000E+20
 25
-1.00000000000000E+20
 35
-1.00000000000000E+20
146
0.0
 13
0.0
 23
0.0
 33
0.0
 16
1.0
 26
0.0
 36
0.0
 17
0.0
 27
1.0
 37
0.0
 76
     0
330
1B
  0
LAYOUT
  5
26
102
{ACAD_REACTORS
330
1A
102
}
330
1A
100
AcDbPlotSettings
  1

  2
none_device
  4

  6

 40
0.0
 41
0.0
 42
0.0
 43
0.0
 44
0.0
 45
0.0
 46
0.0
 47
0.0
 48
0.0
 49
0.0
140
0.0
141
0.0
142
1.0
143
1.0
 70
   688
 72
     0
 73
     0
 74
     5
  7

 75
    16
147
1.0
148
0.0
149
0.0
100
AcDbLayout
  1
Layout2
 70
     1
 71
     2
 10
0.0
 20
0.0
 11
0.0
 21
0.0
 12
0.0
 22
0.0
 32
0.0
 14
0.0
 24
0.0
 34
0.0
 15
0.0
 25
0.0
 35
0.0
146
0.0
 13
0.0
 23
0.0
 33
0.0
 16
1.0
 26
0.0
 36
0.0
 17
0.0
 27
1.0
 37
0.0
 76
     0
330
23
  0
LAYOUT
  5
22
102
{ACAD_REACTORS
330
1A
102
}
330
1A
100
AcDbPlotSettings
  1

  2
none_device
  4

  6

 40
0.0
 41
0.0
 42
0.0
 43
0.0
 44
0.0
 45
0.0
 46
0.0
 47
0.0
 48
0.0
 49
0.0
140
0.0
141
0.0
142
1.0
143
1.0
 70
  1712
 72
     0
 73
     0
 74
     0
  7

 75
     0
147
1.0
148
0.0
149
0.0
100
AcDbLayout
  1
Model
 70
     1
 71
     0
 10
0.0
 20
0.0
 11
12.0
 21
9.0
 12
0.0
 22
0.0
 32
0.0
 14
0.00000000000111
 24
0.0
 34
0.0
 15
210.0000000000011
 25
297.0
 35
0.0
146
0.0
 13
0.0
 23
0.0
 33
0.0
 16
1.0
 26
0.0
 36
0.0
 17
0.0
 27
1.0
 37
0.0
 76
     0
330
1F
331
29
  0
MATERIAL
  5
3D
102
{ACAD_REACTORS
330
3B
102
}
102
{ACAD_XDICTIONARY
360
1A4
102
}
330
3B
100
AcDbMaterial
  1
ByBlock
  0
MATERIAL
  5
3C
102
{ACAD_REACTORS
330
3B
102
}
102
{ACAD_XDICTIONARY
360
1A2
102
}
330
3B
100
AcDbMaterial
  1
ByLayer
  0
MATERIAL
  5
3E
102
{ACAD_REACTORS
330
3B
102
}
102
{ACAD_XDICTIONARY
360
1A6
102
}
330
3B
100
AcDbMaterial
  1
Global
  0
MLINESTYLE
  5
18
102
{ACAD_REACTORS
330
17
102
}
330
17
100
AcDbMlineStyle
  2
Standard
 70
     0
  3

 62
   256
 51
90.0
 52
90.0
 71
     2
 49
0.5
 62
   256
  6
BYLAYER
 49
-0.5
 62
   256
  6
BYLAYER
  0
ACDBPLACEHOLDER
  5
F
102
{ACAD_REACTORS
330
E
102
}
330
E
  0
VISUALSTYLE
  5
2F
102
{ACAD_REACTORS
330
2A
102
}
102
{ACAD_XDICTIONARY
360
18A
102
}
330
2A
100
AcDbVisualStyle
  2
2dWireframe
 70
     4
 71
     0
 72
     2
 73
     0
 90
        0
 40
-0.6
 41
-30.0
 62
     5
 63
     7
 74
     1
 91
        4
 64
     7
 65
   257
 75
     1
175
     1
 42
1.0
 92
        0
 66
   257
 43
1.0
 76
     1
 77
     6
 78
     2
 67
     7
 79
     5
170
     0
171
     0
290
     0
174
     0
 93
        1
 44
0.0
173
     0
291
     0
 45
0.0
1001
ACAD
1000
AcDbSavedByObjectVersion
1070
     0
  0
VISUALSTYLE
  5
31
102
{ACAD_REACTORS
330
2A
102
}
102
{ACAD_XDICTIONARY
360
18E
102
}
330
2A
100
AcDbVisualStyle
  2
3D Hidden
 70
     6
 71
     1
 72
     2
 73
     2
 90
        0
 40
-0.6
 41
-30.0
 62
     5
 63
     7
 74
     2
 91
        2
 64
     7
 65
   257
 75
     2
175
     1
 42
40.0
 92
        0
 66
   257
 43
1.0
 76
     1
 77
     6
 78
     2
 67
     7
 79
     3
170
     0
171
     0
290
     0
174
     0
 93
        1
 44
0.0
173
     0
291
     0
 45
0.0
1001
ACAD
1000
AcDbSavedByObjectVersion
1070
     0
  0
VISUALSTYLE
  5
30
102
{ACAD_REACTORS
330
2A
102
}
102
{ACAD_XDICTIONARY
360
18C
102
}
330
2A
100
AcDbVisualStyle
  2
3dWireframe
 70
     5
 71
     0
 72
     2
 73
     0
 90
        0
 40
-0.6
 41
-30.0
 62
     5
 63
     7
 74
     1
 91
        4
 64
     7
 65
   257
 75
     1
175
     1
 42
1.0
 92
        0
 66
   257
 43
1.0
 76
     1
 77
     6
 78
     2
 67
     7
 79
     5
170
     0
171
     0
290
     0
174
     0
 93
        1
 44
0.0
173
     0
291
     0
 45
0.0
1001
ACAD
1000
AcDbSavedByObjectVersion
1070
     0
  0
VISUALSTYLE
  5
32
102
{ACAD_REACTORS
330
2A
102
}
102
{ACAD_XDICTIONARY
360
190
102
}
330
2A
100
AcDbVisualStyle
  2
Basic
 70
     7
 71
     1
 72
     0
 73
     1
 90
        0
 40
-0.6
 41
-30.0
 62
     5
 63
     7
 74
     0
 91
        4
 64
     7
 65
   257
 75
     1
175
     1
 42
1.0
 92
        8
 66
     7
 43
1.0
 76
     1
 77
     6
 78
     2
 67
     7
 79
     5
170
     0
171
     0
290
     0
174
     0
 93
        1
 44
0.0
173
     0
291
     1
 45
0.0
1001
ACAD
1000
AcDbSavedByObjectVersion
1070
     0
  0
VISUALSTYLE
  5
36
102
{ACAD_REACTORS
330
2A
102
}
102
{ACAD_XDICTIONARY
360
198
102
}
330
2A
100
AcDbVisualStyle
  2
Brighten
 70
    12
 71
     2
 72
     2
 73
     0
 90
        0
 40
-0.6
 41
-30.0
 62
     5
 63
     7
 74
     1
 91
        4
 64
     7
 65
   257
 75
     1
175
     1
 42
1.0
 92
        8
 66
     7
 43
1.0
 76
     1
 77
     6
 78
     2
 67
     7
 79
     5
170
     0
171
     0
290
     0
174
     0
 93
        1
 44
50.0
173
     0
291
     1
 45
0.0
1001
ACAD
1000
AcDbSavedByObjectVersion
1070
     0
  0
VISUALSTYLE
  5
3A
102
{ACAD_REACTORS
330
2A
102
}
102
{ACAD_XDICTIONARY
360
1A0
102
}
330
2A
100
AcDbVisualStyle
  2
ColorChange
 70
    16
 71
     2
 72
     2
 73
     3
 90
        0
 40
-0.6
 41
-30.0
 62
     5
 63
     8
 74
     1
 91
        4
 64
     7
 65
   257
 75
     1
175
     1
 42
1.0
 92
        8
 66
     8
 43
1.0
 76
     1
 77
     6
 78
     2
 67
     7
 79
     5
170
     0
171
     0
290
     0
174
     0
 93
        1
 44
0.0
173
     0
291
     1
 45
0.0
1001
ACAD
1000
AcDbSavedByObjectVersion
1070
     0
  0
VISUALSTYLE
  5
34
102
{ACAD_REACTORS
330
2A
102
}
102
{ACAD_XDICTIONARY
360
194
102
}
330
2A
100
AcDbVisualStyle
  2
Conceptual
 70
     9
 71
     3
 72
     2
 73
     0
 90
        0
 40
-0.6
 41
-30.0
 62
     5
 63
     7
 74
     2
 91
        2
 64
     7
 65
   257
 75
     1
175
     1
 42
40.0
 92
        8
 66
     7
 43
1.0
 76
     1
 77
     6
 78
     2
 67
     7
 79
     3
170
     0
171
     0
290
     0
174
     0
 93
        1
 44
0.0
173
     0
291
     0
 45
0.0
1001
ACAD
1000
AcDbSavedByObjectVersion
1070
     0
  0
VISUALSTYLE
  5
35
102
{ACAD_REACTORS
330
2A
102
}
102
{ACAD_XDICTIONARY
360
196
102
}
330
2A
100
AcDbVisualStyle
  2
Dim
 70
    11
 71
     2
 72
     2
 73
     0
 90
        0
 40
-0.6
 41
-30.0
 62
     5
 63
     7
 74
     1
 91
        4
 64
     7
 65
   257
 75
     1
175
     1
 42
1.0
 92
        8
 66
     7
 43
1.0
 76
     1
 77
     6
 78
     2
 67
     7
 79
     5
170
     0
171
     0
290
     0
174
     0
 93
        1
 44
-50.0
173
     0
291
     1
 45
0.0
1001
ACAD
1000
AcDbSavedByObjectVersion
1070
     0
  0
VISUALSTYLE
  5
39
102
{ACAD_REACTORS
330
2A
102
}
102
{ACAD_XDICTIONARY
360
19E
102
}
330
2A
100
AcDbVisualStyle
  2
Facepattern
 70
    15
 71
     2
 72
     2
 73
     0
 90
        0
 40
-0.6
 41
-30.0
 62
     5
 63
     7
 74
     1
 91
        4
 64
     7
 65
   257
 75
     1
175
     1
 42
1.0
 92
        8
 66
     7
 43
1.0
 76
     1
 77
     6
 78
     2
 67
     7
 79
     5
170
     0
171
     0
290
     0
174
     0
 93
        1
 44
0.0
173
     0
291
     1
 45
0.0
1001
ACAD
1000
AcDbSavedByObjectVersion
1070
     0
  0
VISUALSTYLE
  5
2B
102
{ACAD_REACTORS
330
2A
102
}
102
{ACAD_XDICTIONARY
360
182
102
}
330
2A
100
AcDbVisualStyle
  2
Flat
 70
     0
 71
     2
 72
     1
 73
     1
 90
        2
 40
-0.6
 41
30.0
 62
     5
 63
     7
 74
     0
 91
        4
 64
     7
 65
   257
 75
     1
175
     1
 42
1.0
 92
        8
 66
     7
 43
1.0
 76
     1
 77
     6
 78
     2
 67
     7
 79
     5
170
     0
171
     0
290
     0
174
     0
 93
       13
 44
0.0
173
     0
291
     1
 45
0.0
1001
ACAD
1000
AcDbSavedByObjectVersion
1070
     0
  0
VISUALSTYLE
  5
2C
102
{ACAD_REACTORS
330
2A
102
}
102
{ACAD_XDICTIONARY
360
184
102
}
330
2A
100
AcDbVisualStyle
  2
FlatWithEdges
 70
     1
 71
     2
 72
     1
 73
     1
 90
        2
 40
-0.6
 41
30.0
 62
     5
 63
     7
 74
     1
 91
        4
 64
     7
 65
   257
 75
     1
175
     1
 42
1.0
 92
        0
 66
   257
 43
1.0
 76
     1
 77
     6
 78
     2
 67
     7
 79
     5
170
     0
171
     0
290
     0
174
     0
 93
       13
 44
0.0
173
     0
291
     1
 45
0.0
1001
ACAD
1000
AcDbSavedByObjectVersion
1070
     0
  0
VISUALSTYLE
  5
2D
102
{ACAD_REACTORS
330
2A
102
}
102
{ACAD_XDICTIONARY
360
186
102
}
330
2A
100
AcDbVisualStyle
  2
Gouraud
 70
     2
 71
     2
 72
     2
 73
     1
 90
        2
 40
-0.6
 41
30.0
 62
     5
 63
     7
 74
     0
 91
        4
 64
     7
 65
   257
 75
     1
175
     1
 42
1.0
 92
        0
 66
     7
 43
1.0
 76
     1
 77
     6
 78
     2
 67
     7
 79
     5
170
     0
171
     0
290
     0
174
     0
 93
       13
 44
0.0
173
     0
291
     1
 45
0.0
1001
ACAD
1000
AcDbSavedByObjectVersion
1070
     0
  0
VISUALSTYLE
  5
2E
102
{ACAD_REACTORS
330
2A
102
}
102
{ACAD_XDICTIONARY
360
188
102
}
330
2A
100
AcDbVisualStyle
  2
GouraudWithEdges
 70
     3
 71
     2
 72
     2
 73
     1
 90
        2
 40
-0.6
 41
30.0
 62
     5
 63
     7
 74
     1
 91
        4
 64
     7
 65
   257
 75
     1
175
     1
 42
1.0
 92
        0
 66
   257
 43
1.0
 76
     1
 77
     6
 78
     2
 67
     7
 79
     5
170
     0
171
     0
290
     0
174
     0
 93
       13
 44
0.0
173
     0
291
     1
 45
0.0
1001
ACAD
1000
AcDbSavedByObjectVersion
1070
     0
  0
VISUALSTYLE
  5
38
102
{ACAD_REACTORS
330
2A
102
}
102
{ACAD_XDICTIONARY
360
19C
102
}
330
2A
100
AcDbVisualStyle
  2
Linepattern
 70
    14
 71
     2
 72
     2
 73
     0
 90
        0
 40
-0.6
 41
-30.0
 62
     5
 63
     7
 74
     1
 91
        4
 64
     7
 65
   257
 75
     7
175
     7
 42
1.0
 92
        8
 66
     7
 43
1.0
 76
     1
 77
     6
 78
     2
 67
     7
 79
     5
170
     0
171
     0
290
     0
174
     0
 93
        1
 44
0.0
173
     0
291
     1
 45
0.0
1001
ACAD
1000
AcDbSavedByObjectVersion
1070
     0
  0
VISUALSTYLE
  5
33
102
{ACAD_REACTORS
330
2A
102
}
102
{ACAD_XDICTIONARY
360
192
102
}
330
2A
100
AcDbVisualStyle
  2
Realistic
 70
     8
 71
     2
 72
     2
 73
     0
 90
        0
 40
-0.6
 41
-30.0
 62
     5
 63
     7
 74
     1
 91
        0
 64
     7
 65
   257
 75
     1
175
     1
 42
1.0
 92
        8
 66
     8
 43
1.0
 76
     1
 77
     6
 78
     2
 67
     7
 79
     5
170
     0
171
     0
290
     0
174
     0
 93
       13
 44
0.0
173
     0
291
     0
 45
0.0
1001
ACAD
1000
AcDbSavedByObjectVersion
1070
     0
  0
VISUALSTYLE
  5
37
102
{ACAD_REACTORS
330
2A
102
}
102
{ACAD_XDICTIONARY
360
19A
102
}
330
2A
100
AcDbVisualStyle
  2
Thicken
 70
    13
 71
     2
 72
     2
 73
     0
 90
        0
 40
-0.6
 41
-30.0
 62
     5
 63
     7
 74
     1
 91
        4
 64
     7
 65
   257
 75
     1
175
     1
 42
1.0
 92
       12
 66
     7
 43
1.0
 76
     1
 77
     6
 78
     2
 67
     7
 79
     5
170
     0
171
     0
290
     0
174
     0
 93
        1
 44
0.0
173
     0
291
     1
 45
0.0
1001
ACAD
1000
AcDbSavedByObjectVersion
1070
     0
  0
DICTIONARYVAR
  5
180
102
{ACAD_REACTORS
330
17D
102
}
330
17D
100
DictionaryVariables
280
     0
  1
2
  0
DICTIONARYVAR
  5
181
102
{ACAD_REACTORS
330
17D
102
}
330
17D
100
DictionaryVariables
280
     0
  1
1
  0
DICTIONARY
  5
1A4
330
3D
100
AcDbDictionary
280
     1
281
     1
  3
ACAD_XREC_ROUNDTRIP
360
1A5
  0
DICTIONARY
  5
1A2
330
3C
100
AcDbDictionary
280
     1
281
     1
  3
ACAD_XREC_ROUNDTRIP
360
1A3
  0
DICTIONARY
  5
1A6
330
3E
100
AcDbDictionary
280
     1
281
     1
  3
ACAD_XREC_ROUNDTRIP
360
1A7
  0
DICTIONARY
  5
18A
330
2F
100
AcDbDictionary
280
     1
281
     1
  3
ACAD_XREC_ROUNDTRIP
360
18B
  0
DICTIONARY
  5
18E
330
31
100
AcDbDictionary
280
     1
281
     1
  3
ACAD_XREC_ROUNDTRIP
360
18F
  0
DICTIONARY
  5
18C
330
30
100
AcDbDictionary
280
     1
281
     1
  3
ACAD_XREC_ROUNDTRIP
360
18D
  0
DICTIONARY
  5
190
330
32
100
AcDbDictionary
280
     1
281
     1
  3
ACAD_XREC_ROUNDTRIP
360
191
  0
DICTIONARY
  5
198
330
36
100
AcDbDictionary
280
     1
281
     1
  3
ACAD_XREC_ROUNDTRIP
360
199
  0
DICTIONARY
  5
1A0
330
3A
100
AcDbDictionary
280
     1
281
     1
  3
ACAD_XREC_ROUNDTRIP
360
1A1
  0
DICTIONARY
  5
194
330
34
100
AcDbDictionary
280
     1
281
     1
  3
ACAD_XREC_ROUNDTRIP
360
195
  0
DICTIONARY
  5
196
330
35
100
AcDbDictionary
280
     1
281
     1
  3
ACAD_XREC_ROUNDTRIP
360
197
  0
DICTIONARY
  5
19E
330
39
100
AcDbDictionary
280
     1
281
     1
  3
ACAD_XREC_ROUNDTRIP
360
19F
  0
DICTIONARY
  5
182
330
2B
100
AcDbDictionary
280
     1
281
     1
  3
ACAD_XREC_ROUNDTRIP
360
183
  0
DICTIONARY
  5
184
330
2C
100
AcDbDictionary
280
     1
281
     1
  3
ACAD_XREC_ROUNDTRIP
360
185
  0
DICTIONARY
  5
186
330
2D
100
AcDbDictionary
280
     1
281
     1
  3
ACAD_XREC_ROUNDTRIP
360
187
  0
DICTIONARY
  5
188
330
2E
100
AcDbDictionary
280
     1
281
     1
  3
ACAD_XREC_ROUNDTRIP
360
189
  0
DICTIONARY
  5
19C
330
38
100
AcDbDictionary
280
     1
281
     1
  3
ACAD_XREC_ROUNDTRIP
360
19D
  0
DICTIONARY
  5
192
330
33
100
AcDbDictionary
280
     1
281
     1
  3
ACAD_XREC_ROUNDTRIP
360
193
  0
DICTIONARY
  5
19A
330
37
100
AcDbDictionary
280
     1
281
     1
  3
ACAD_XREC_ROUNDTRIP
360
19B
  0
XRECORD
  5
1A5
102
{ACAD_REACTORS
330
1A4
102
}
330
1A4
100
AcDbXrecord
280
     1
102
MATERIAL
148
0.0
149
0.0
149
0.0
 93
        0
 94
      127
282
     0
 72
     1
 77
     1
171
     1
175
     1
179
     1
273
     0
  0
XRECORD
  5
1A3
102
{ACAD_REACTORS
330
1A2
102
}
330
1A2
100
AcDbXrecord
280
     1
102
MATERIAL
148
0.0
149
0.0
149
0.0
 93
        0
 94
      127
282
     0
 72
     1
 77
     1
171
     1
175
     1
179
     1
273
     0
  0
XRECORD
  5
1A7
102
{ACAD_REACTORS
330
1A6
102
}
330
1A6
100
AcDbXrecord
280
     1
102
MATERIAL
148
0.0
149
0.0
149
0.0
 93
        0
 94
      127
282
     0
 72
     1
 77
     1
171
     1
175
     1
179
     1
273
     0
  0
XRECORD
  5
18B
102
{ACAD_REACTORS
330
18A
102
}
330
18A
100
AcDbXrecord
280
     1
102
RTVSPropertyOp0
 70
     1
102
RTVSPropertyOp1
 70
     1
102
RTVSPropertyOp2
 70
     1
102
RTVSPropertyOp3
 70
     1
102
RTVSPropertyOp4
 70
     1
102
RTVSPropertyOp5
 70
     1
102
RTVSPropertyOp6
 70
     1
102
RTVSPropertyOp7
 70
     1
102
RTVSPropertyOp8
 70
     1
102
RTVSPropertyOp9
 70
     1
102
RTVSPropertyOp10
 70
     1
102
RTVSPropertyOp11
 70
     1
102
RTVSPropertyOp12
 70
     1
102
RTVSPropertyOp13
 70
     1
102
RTVSPropertyOp14
 70
     1
102
RTVSPropertyOp15
 70
     1
102
RTVSPropertyOp16
 70
     1
102
RTVSPropertyOp17
 70
     1
102
RTVSPropertyOp18
 70
     1
102
RTVSPropertyOp19
 70
     1
102
RTVSPropertyOp20
 70
     1
102
RTVSPropertyOp21
 70
     1
102
RTVSPropertyOp22
 70
     1
102
RTVSPropertyOp23
 70
     1
102
RTVSPropertyOp24
 70
     1
102
RTVSPropertyOp25
 70
     1
102
RTVSPropertyOp26
 70
     1
102
RTVSPropertyOp27
 70
     1
102
RTVSPropertyOp28
 70
     1
102
RTVSPropertyOp29
 70
     1
102
RTVSPropertyOp30
 70
     1
102
RTVSPropertyOp31
 70
     1
102
RTVSPropertyOp32
 70
     1
  0
XRECORD
  5
18F
102
{ACAD_REACTORS
330
18E
102
}
330
18E
100
AcDbXrecord
280
     1
102
RTVSPropertyOp0
 70
     1
102
RTVSPropertyOp1
 70
     1
102
RTVSPropertyOp2
 70
     1
102
RTVSPropertyOp3
 70
     1
102
RTVSPropertyOp4
 70
     1
102
RTVSPropertyOp5
 70
     1
102
RTVSPropertyOp6
 70
     1
102
RTVSPropertyOp7
 70
     1
102
RTVSPropertyOp8
 70
     1
102
RTVSPropertyOp9
 70
     1
102
RTVSPropertyOp10
 70
     1
102
RTVSPropertyOp11
 70
     1
102
RTVSPropertyOp12
 70
     1
102
RTVSPropertyOp13
 70
     1
102
RTVSPropertyOp14
 70
     1
102
RTVSPropertyOp15
 70
     1
102
RTVSPropertyOp16
 70
     1
102
RTVSPropertyOp17
 70
     1
102
RTVSPropertyOp18
 70
     1
102
RTVSPropertyOp19
 70
     1
102
RTVSPropertyOp20
 70
     1
102
RTVSPropertyOp21
 70
     1
102
RTVSPropertyOp22
 70
     1
102
RTVSPropertyOp23
 70
     1
102
RTVSPropertyOp24
 70
     1
102
RTVSPropertyOp25
 70
     1
102
RTVSPropertyOp26
 70
     1
102
RTVSPropertyOp27
 70
     1
102
RTVSPropertyOp28
 70
     1
102
RTVSPropertyOp29
 70
     1
102
RTVSPropertyOp30
 70
     1
102
RTVSPropertyOp31
 70
     1
102
RTVSPropertyOp32
 70
     1
  0
XRECORD
  5
18D
102
{ACAD_REACTORS
330
18C
102
}
330
18C
100
AcDbXrecord
280
     1
102
RTVSPropertyOp0
 70
     1
102
RTVSPropertyOp1
 70
     1
102
RTVSPropertyOp2
 70
     1
102
RTVSPropertyOp3
 70
     1
102
RTVSPropertyOp4
 70
     1
102
RTVSPropertyOp5
 70
     1
102
RTVSPropertyOp6
 70
     1
102
RTVSPropertyOp7
 70
     1
102
RTVSPropertyOp8
 70
     1
102
RTVSPropertyOp9
 70
     1
102
RTVSPropertyOp10
 70
     1
102
RTVSPropertyOp11
 70
     1
102
RTVSPropertyOp12
 70
     1
102
RTVSPropertyOp13
 70
     1
102
RTVSPropertyOp14
 70
     1
102
RTVSPropertyOp15
 70
     1
102
RTVSPropertyOp16
 70
     1
102
RTVSPropertyOp17
 70
     1
102
RTVSPropertyOp18
 70
     1
102
RTVSPropertyOp19
 70
     1
102
RTVSPropertyOp20
 70
     1
102
RTVSPropertyOp21
 70
     1
102
RTVSPropertyOp22
 70
     1
102
RTVSPropertyOp23
 70
     1
102
RTVSPropertyOp24
 70
     1
102
RTVSPropertyOp25
 70
     1
102
RTVSPropertyOp26
 70
     1
102
RTVSPropertyOp27
 70
     1
102
RTVSPropertyOp28
 70
     1
102
RTVSPropertyOp29
 70
     1
102
RTVSPropertyOp30
 70
     1
102
RTVSPropertyOp31
 70
     1
102
RTVSPropertyOp32
 70
     1
  0
XRECORD
  5
191
102
{ACAD_REACTORS
330
190
102
}
330
190
100
AcDbXrecord
280
     1
102
RTVSPropertyOp0
 70
     1
102
RTVSPropertyOp1
 70
     1
102
RTVSPropertyOp2
 70
     1
102
RTVSPropertyOp3
 70
     1
102
RTVSPropertyOp4
 70
     1
102
RTVSPropertyOp5
 70
     1
102
RTVSPropertyOp6
 70
     1
102
RTVSPropertyOp7
 70
     1
102
RTVSPropertyOp8
 70
     1
102
RTVSPropertyOp9
 70
     1
102
RTVSPropertyOp10
 70
     1
102
RTVSPropertyOp11
 70
     1
102
RTVSPropertyOp12
 70
     1
102
RTVSPropertyOp13
 70
     1
102
RTVSPropertyOp14
 70
     1
102
RTVSPropertyOp15
 70
     1
102
RTVSPropertyOp16
 70
     1
102
RTVSPropertyOp17
 70
     1
102
RTVSPropertyOp18
 70
     1
102
RTVSPropertyOp19
 70
     1
102
RTVSPropertyOp20
 70
     1
102
RTVSPropertyOp21
 70
     1
102
RTVSPropertyOp22
 70
     1
102
RTVSPropertyOp23
 70
     1
102
RTVSPropertyOp24
 70
     1
102
RTVSPropertyOp25
 70
     1
102
RTVSPropertyOp26
 70
     1
102
RTVSPropertyOp27
 70
     1
102
RTVSPropertyOp28
 70
     1
102
RTVSPropertyOp29
 70
     1
102
RTVSPropertyOp30
 70
     1
102
RTVSPropertyOp31
 70
     1
102
RTVSPropertyOp32
 70
     1
  0
XRECORD
  5
199
102
{ACAD_REACTORS
330
198
102
}
330
198
100
AcDbXrecord
280
     1
102
RTVSPropertyOp0
 70
     1
102
RTVSPropertyOp1
 70
     1
102
RTVSPropertyOp2
 70
     1
102
RTVSPropertyOp3
 70
     1
102
RTVSPropertyOp4
 70
     1
102
RTVSPropertyOp5
 70
     1
102
RTVSPropertyOp6
 70
     1
102
RTVSPropertyOp7
 70
     1
102
RTVSPropertyOp8
 70
     1
102
RTVSPropertyOp9
 70
     1
102
RTVSPropertyOp10
 70
     1
102
RTVSPropertyOp11
 70
     1
102
RTVSPropertyOp12
 70
     1
102
RTVSPropertyOp13
 70
     1
102
RTVSPropertyOp14
 70
     1
102
RTVSPropertyOp15
 70
     1
102
RTVSPropertyOp16
 70
     1
102
RTVSPropertyOp17
 70
     1
102
RTVSPropertyOp18
 70
     1
102
RTVSPropertyOp19
 70
     1
102
RTVSPropertyOp20
 70
     1
102
RTVSPropertyOp21
 70
     1
102
RTVSPropertyOp22
 70
     1
102
RTVSPropertyOp23
 70
     1
102
RTVSPropertyOp24
 70
     1
102
RTVSPropertyOp25
 70
     1
102
RTVSPropertyOp26
 70
     1
102
RTVSPropertyOp27
 70
     1
102
RTVSPropertyOp28
 70
     1
102
RTVSPropertyOp29
 70
     1
102
RTVSPropertyOp30
 70
     1
102
RTVSPropertyOp31
 70
     1
102
RTVSPropertyOp32
 70
     1
  0
XRECORD
  5
1A1
102
{ACAD_REACTORS
330
1A0
102
}
330
1A0
100
AcDbXrecord
280
     1
102
RTVSPropertyOp0
 70
     1
102
RTVSPropertyOp1
 70
     1
102
RTVSPropertyOp2
 70
     1
102
RTVSPropertyOp3
 70
     1
102
RTVSPropertyOp4
 70
     1
102
RTVSPropertyOp5
 70
     1
102
RTVSPropertyOp6
 70
     1
102
RTVSPropertyOp7
 70
     1
102
RTVSPropertyOp8
 70
     1
102
RTVSPropertyOp9
 70
     1
102
RTVSPropertyOp10
 70
     1
102
RTVSPropertyOp11
 70
     1
102
RTVSPropertyOp12
 70
     1
102
RTVSPropertyOp13
 70
     1
102
RTVSPropertyOp14
 70
     1
102
RTVSPropertyOp15
 70
     1
102
RTVSPropertyOp16
 70
     1
102
RTVSPropertyOp17
 70
     1
102
RTVSPropertyOp18
 70
     1
102
RTVSPropertyOp19
 70
     1
102
RTVSPropertyOp20
 70
     1
102
RTVSPropertyOp21
 70
     1
102
RTVSPropertyOp22
 70
     1
102
RTVSPropertyOp23
 70
     1
102
RTVSPropertyOp24
 70
     1
102
RTVSPropertyOp25
 70
     1
102
RTVSPropertyOp26
 70
     1
102
RTVSPropertyOp27
 70
     1
102
RTVSPropertyOp28
 70
     1
102
RTVSPropertyOp29
 70
     1
102
RTVSPropertyOp30
 70
     1
102
RTVSPropertyOp31
 70
     1
102
RTVSPropertyOp32
 70
     1
  0
XRECORD
  5
195
102
{ACAD_REACTORS
330
194
102
}
330
194
100
AcDbXrecord
280
     1
102
RTVSPropertyOp0
 70
     1
102
RTVSPropertyOp1
 70
     1
102
RTVSPropertyOp2
 70
     1
102
RTVSPropertyOp3
 70
     1
102
RTVSPropertyOp4
 70
     1
102
RTVSPropertyOp5
 70
     1
102
RTVSPropertyOp6
 70
     1
102
RTVSPropertyOp7
 70
     1
102
RTVSPropertyOp8
 70
     1
102
RTVSPropertyOp9
 70
     1
102
RTVSPropertyOp10
 70
     1
102
RTVSPropertyOp11
 70
     1
102
RTVSPropertyOp12
 70
     1
102
RTVSPropertyOp13
 70
     1
102
RTVSPropertyOp14
 70
     1
102
RTVSPropertyOp15
 70
     1
102
RTVSPropertyOp16
 70
     1
102
RTVSPropertyOp17
 70
     1
102
RTVSPropertyOp18
 70
     1
102
RTVSPropertyOp19
 70
     1
102
RTVSPropertyOp20
 70
     1
102
RTVSPropertyOp21
 70
     1
102
RTVSPropertyOp22
 70
     1
102
RTVSPropertyOp23
 70
     1
102
RTVSPropertyOp24
 70
     1
102
RTVSPropertyOp25
 70
     1
102
RTVSPropertyOp26
 70
     1
102
RTVSPropertyOp27
 70
     1
102
RTVSPropertyOp28
 70
     1
102
RTVSPropertyOp29
 70
     1
102
RTVSPropertyOp30
 70
     1
102
RTVSPropertyOp31
 70
     1
102
RTVSPropertyOp32
 70
     1
  0
XRECORD
  5
197
102
{ACAD_REACTORS
330
196
102
}
330
196
100
AcDbXrecord
280
     1
102
RTVSPropertyOp0
 70
     1
102
RTVSPropertyOp1
 70
     1
102
RTVSPropertyOp2
 70
     1
102
RTVSPropertyOp3
 70
     1
102
RTVSPropertyOp4
 70
     1
102
RTVSPropertyOp5
 70
     1
102
RTVSPropertyOp6
 70
     1
102
RTVSPropertyOp7
 70
     1
102
RTVSPropertyOp8
 70
     1
102
RTVSPropertyOp9
 70
     1
102
RTVSPropertyOp10
 70
     1
102
RTVSPropertyOp11
 70
     1
102
RTVSPropertyOp12
 70
     1
102
RTVSPropertyOp13
 70
     1
102
RTVSPropertyOp14
 70
     1
102
RTVSPropertyOp15
 70
     1
102
RTVSPropertyOp16
 70
     1
102
RTVSPropertyOp17
 70
     1
102
RTVSPropertyOp18
 70
     1
102
RTVSPropertyOp19
 70
     1
102
RTVSPropertyOp20
 70
     1
102
RTVSPropertyOp21
 70
     1
102
RTVSPropertyOp22
 70
     1
102
RTVSPropertyOp23
 70
     1
102
RTVSPropertyOp24
 70
     1
102
RTVSPropertyOp25
 70
     1
102
RTVSPropertyOp26
 70
     1
102
RTVSPropertyOp27
 70
     1
102
RTVSPropertyOp28
 70
     1
102
RTVSPropertyOp29
 70
     1
102
RTVSPropertyOp30
 70
     1
102
RTVSPropertyOp31
 70
     1
102
RTVSPropertyOp32
 70
     1
  0
XRECORD
  5
19F
102
{ACAD_REACTORS
330
19E
102
}
330
19E
100
AcDbXrecord
280
     1
102
RTVSPropertyOp0
 70
     1
102
RTVSPropertyOp1
 70
     1
102
RTVSPropertyOp2
 70
     1
102
RTVSPropertyOp3
 70
     1
102
RTVSPropertyOp4
 70
     1
102
RTVSPropertyOp5
 70
     1
102
RTVSPropertyOp6
 70
     1
102
RTVSPropertyOp7
 70
     1
102
RTVSPropertyOp8
 70
     1
102
RTVSPropertyOp9
 70
     1
102
RTVSPropertyOp10
 70
     1
102
RTVSPropertyOp11
 70
     1
102
RTVSPropertyOp12
 70
     1
102
RTVSPropertyOp13
 70
     1
102
RTVSPropertyOp14
 70
     1
102
RTVSPropertyOp15
 70
     1
102
RTVSPropertyOp16
 70
     1
102
RTVSPropertyOp17
 70
     1
102
RTVSPropertyOp18
 70
     1
102
RTVSPropertyOp19
 70
     1
102
RTVSPropertyOp20
 70
     1
102
RTVSPropertyOp21
 70
     1
102
RTVSPropertyOp22
 70
     1
102
RTVSPropertyOp23
 70
     1
102
RTVSPropertyOp24
 70
     1
102
RTVSPropertyOp25
 70
     1
102
RTVSPropertyOp26
 70
     1
102
RTVSPropertyOp27
 70
     1
102
RTVSPropertyOp28
 70
     1
102
RTVSPropertyOp29
 70
     1
102
RTVSPropertyOp30
 70
     1
102
RTVSPropertyOp31
 70
     1
102
RTVSPropertyOp32
 70
     1
  0
XRECORD
  5
183
102
{ACAD_REACTORS
330
182
102
}
330
182
100
AcDbXrecord
280
     1
102
RTVSPropertyOp0
 70
     1
102
RTVSPropertyOp1
 70
     1
102
RTVSPropertyOp2
 70
     1
102
RTVSPropertyOp3
 70
     1
102
RTVSPropertyOp4
 70
     1
102
RTVSPropertyOp5
 70
     1
102
RTVSPropertyOp6
 70
     1
102
RTVSPropertyOp7
 70
     1
102
RTVSPropertyOp8
 70
     1
102
RTVSPropertyOp9
 70
     1
102
RTVSPropertyOp10
 70
     1
102
RTVSPropertyOp11
 70
     1
102
RTVSPropertyOp12
 70
     1
102
RTVSPropertyOp13
 70
     1
102
RTVSPropertyOp14
 70
     1
102
RTVSPropertyOp15
 70
     1
102
RTVSPropertyOp16
 70
     1
102
RTVSPropertyOp17
 70
     1
102
RTVSPropertyOp18
 70
     1
102
RTVSPropertyOp19
 70
     1
102
RTVSPropertyOp20
 70
     1
102
RTVSPropertyOp21
 70
     1
102
RTVSPropertyOp22
 70
     1
102
RTVSPropertyOp23
 70
     1
102
RTVSPropertyOp24
 70
     1
102
RTVSPropertyOp25
 70
     1
102
RTVSPropertyOp26
 70
     1
102
RTVSPropertyOp27
 70
     1
102
RTVSPropertyOp28
 70
     1
102
RTVSPropertyOp29
 70
     1
102
RTVSPropertyOp30
 70
     1
102
RTVSPropertyOp31
 70
     1
102
RTVSPropertyOp32
 70
     1
  0
XRECORD
  5
185
102
{ACAD_REACTORS
330
184
102
}
330
184
100
AcDbXrecord
280
     1
102
RTVSPropertyOp0
 70
     1
102
RTVSPropertyOp1
 70
     1
102
RTVSPropertyOp2
 70
     1
102
RTVSPropertyOp3
 70
     1
102
RTVSPropertyOp4
 70
     1
102
RTVSPropertyOp5
 70
     1
102
RTVSPropertyOp6
 70
     1
102
RTVSPropertyOp7
 70
     1
102
RTVSPropertyOp8
 70
     1
102
RTVSPropertyOp9
 70
     1
102
RTVSPropertyOp10
 70
     1
102
RTVSPropertyOp11
 70
     1
102
RTVSPropertyOp12
 70
     1
102
RTVSPropertyOp13
 70
     1
102
RTVSPropertyOp14
 70
     1
102
RTVSPropertyOp15
 70
     1
102
RTVSPropertyOp16
 70
     1
102
RTVSPropertyOp17
 70
     1
102
RTVSPropertyOp18
 70
     1
102
RTVSPropertyOp19
 70
     1
102
RTVSPropertyOp20
 70
     1
102
RTVSPropertyOp21
 70
     1
102
RTVSPropertyOp22
 70
     1
102
RTVSPropertyOp23
 70
     1
102
RTVSPropertyOp24
 70
     1
102
RTVSPropertyOp25
 70
     1
102
RTVSPropertyOp26
 70
     1
102
RTVSPropertyOp27
 70
     1
102
RTVSPropertyOp28
 70
     1
102
RTVSPropertyOp29
 70
     1
102
RTVSPropertyOp30
 70
     1
102
RTVSPropertyOp31
 70
     1
102
RTVSPropertyOp32
 70
     1
  0
XRECORD
  5
187
102
{ACAD_REACTORS
330
186
102
}
330
186
100
AcDbXrecord
280
     1
102
RTVSPropertyOp0
 70
     1
102
RTVSPropertyOp1
 70
     1
102
RTVSPropertyOp2
 70
     1
102
RTVSPropertyOp3
 70
     1
102
RTVSPropertyOp4
 70
     1
102
RTVSPropertyOp5
 70
     1
102
RTVSPropertyOp6
 70
     1
102
RTVSPropertyOp7
 70
     1
102
RTVSPropertyOp8
 70
     1
102
RTVSPropertyOp9
 70
     1
102
RTVSPropertyOp10
 70
     1
102
RTVSPropertyOp11
 70
     1
102
RTVSPropertyOp12
 70
     1
102
RTVSPropertyOp13
 70
     1
102
RTVSPropertyOp14
 70
     1
102
RTVSPropertyOp15
 70
     1
102
RTVSPropertyOp16
 70
     1
102
RTVSPropertyOp17
 70
     1
102
RTVSPropertyOp18
 70
     1
102
RTVSPropertyOp19
 70
     1
102
RTVSPropertyOp20
 70
     1
102
RTVSPropertyOp21
 70
     1
102
RTVSPropertyOp22
 70
     1
102
RTVSPropertyOp23
 70
     1
102
RTVSPropertyOp24
 70
     1
102
RTVSPropertyOp25
 70
     1
102
RTVSPropertyOp26
 70
     1
102
RTVSPropertyOp27
 70
     1
102
RTVSPropertyOp28
 70
     1
102
RTVSPropertyOp29
 70
     1
102
RTVSPropertyOp30
 70
     1
102
RTVSPropertyOp31
 70
     1
102
RTVSPropertyOp32
 70
     1
  0
XRECORD
  5
189
102
{ACAD_REACTORS
330
188
102
}
330
188
100
AcDbXrecord
280
     1
102
RTVSPropertyOp0
 70
     1
102
RTVSPropertyOp1
 70
     1
102
RTVSPropertyOp2
 70
     1
102
RTVSPropertyOp3
 70
     1
102
RTVSPropertyOp4
 70
     1
102
RTVSPropertyOp5
 70
     1
102
RTVSPropertyOp6
 70
     1
102
RTVSPropertyOp7
 70
     1
102
RTVSPropertyOp8
 70
     1
102
RTVSPropertyOp9
 70
     1
102
RTVSPropertyOp10
 70
     1
102
RTVSPropertyOp11
 70
     1
102
RTVSPropertyOp12
 70
     1
102
RTVSPropertyOp13
 70
     1
102
RTVSPropertyOp14
 70
     1
102
RTVSPropertyOp15
 70
     1
102
RTVSPropertyOp16
 70
     1
102
RTVSPropertyOp17
 70
     1
102
RTVSPropertyOp18
 70
     1
102
RTVSPropertyOp19
 70
     1
102
RTVSPropertyOp20
 70
     1
102
RTVSPropertyOp21
 70
     1
102
RTVSPropertyOp22
 70
     1
102
RTVSPropertyOp23
 70
     1
102
RTVSPropertyOp24
 70
     1
102
RTVSPropertyOp25
 70
     1
102
RTVSPropertyOp26
 70
     1
102
RTVSPropertyOp27
 70
     1
102
RTVSPropertyOp28
 70
     1
102
RTVSPropertyOp29
 70
     1
102
RTVSPropertyOp30
 70
     1
102
RTVSPropertyOp31
 70
     1
102
RTVSPropertyOp32
 70
     1
  0
XRECORD
  5
19D
102
{ACAD_REACTORS
330
19C
102
}
330
19C
100
AcDbXrecord
280
     1
102
RTVSPropertyOp0
 70
     1
102
RTVSPropertyOp1
 70
     1
102
RTVSPropertyOp2
 70
     1
102
RTVSPropertyOp3
 70
     1
102
RTVSPropertyOp4
 70
     1
102
RTVSPropertyOp5
 70
     1
102
RTVSPropertyOp6
 70
     1
102
RTVSPropertyOp7
 70
     1
102
RTVSPropertyOp8
 70
     1
102
RTVSPropertyOp9
 70
     1
102
RTVSPropertyOp10
 70
     1
102
RTVSPropertyOp11
 70
     1
102
RTVSPropertyOp12
 70
     1
102
RTVSPropertyOp13
 70
     1
102
RTVSPropertyOp14
 70
     1
102
RTVSPropertyOp15
 70
     1
102
RTVSPropertyOp16
 70
     1
102
RTVSPropertyOp17
 70
     1
102
RTVSPropertyOp18
 70
     1
102
RTVSPropertyOp19
 70
     1
102
RTVSPropertyOp20
 70
     1
102
RTVSPropertyOp21
 70
     1
102
RTVSPropertyOp22
 70
     1
102
RTVSPropertyOp23
 70
     1
102
RTVSPropertyOp24
 70
     1
102
RTVSPropertyOp25
 70
     1
102
RTVSPropertyOp26
 70
     1
102
RTVSPropertyOp27
 70
     1
102
RTVSPropertyOp28
 70
     1
102
RTVSPropertyOp29
 70
     1
102
RTVSPropertyOp30
 70
     1
102
RTVSPropertyOp31
 70
     1
102
RTVSPropertyOp32
 70
     1
  0
XRECORD
  5
193
102
{ACAD_REACTORS
330
192
102
}
330
192
100
AcDbXrecord
280
     1
102
RTVSPropertyOp0
 70
     1
102
RTVSPropertyOp1
 70
     1
102
RTVSPropertyOp2
 70
     1
102
RTVSPropertyOp3
 70
     1
102
RTVSPropertyOp4
 70
     1
102
RTVSPropertyOp5
 70
     1
102
RTVSPropertyOp6
 70
     1
102
RTVSPropertyOp7
 70
     1
102
RTVSPropertyOp8
 70
     1
102
RTVSPropertyOp9
 70
     1
102
RTVSPropertyOp10
 70
     1
102
RTVSPropertyOp11
 70
     1
102
RTVSPropertyOp12
 70
     1
102
RTVSPropertyOp13
 70
     1
102
RTVSPropertyOp14
 70
     1
102
RTVSPropertyOp15
 70
     1
102
RTVSPropertyOp16
 70
     1
102
RTVSPropertyOp17
 70
     1
102
RTVSPropertyOp18
 70
     1
102
RTVSPropertyOp19
 70
     1
102
RTVSPropertyOp20
 70
     1
102
RTVSPropertyOp21
 70
     1
102
RTVSPropertyOp22
 70
     1
102
RTVSPropertyOp23
 70
     1
102
RTVSPropertyOp24
 70
     1
102
RTVSPropertyOp25
 70
     1
102
RTVSPropertyOp26
 70
     1
102
RTVSPropertyOp27
 70
     1
102
RTVSPropertyOp28
 70
     1
102
RTVSPropertyOp29
 70
     1
102
RTVSPropertyOp30
 70
     1
102
RTVSPropertyOp31
 70
     1
102
RTVSPropertyOp32
 70
     1
  0
XRECORD
  5
19B
102
{ACAD_REACTORS
330
19A
102
}
330
19A
100
AcDbXrecord
280
     1
102
RTVSPropertyOp0
 70
     1
102
RTVSPropertyOp1
 70
     1
102
RTVSPropertyOp2
 70
     1
102
RTVSPropertyOp3
 70
     1
102
RTVSPropertyOp4
 70
     1
102
RTVSPropertyOp5
 70
     1
102
RTVSPropertyOp6
 70
     1
102
RTVSPropertyOp7
 70
     1
102
RTVSPropertyOp8
 70
     1
102
RTVSPropertyOp9
 70
     1
102
RTVSPropertyOp10
 70
     1
102
RTVSPropertyOp11
 70
     1
102
RTVSPropertyOp12
 70
     1
102
RTVSPropertyOp13
 70
     1
102
RTVSPropertyOp14
 70
     1
102
RTVSPropertyOp15
 70
     1
102
RTVSPropertyOp16
 70
     1
102
RTVSPropertyOp17
 70
     1
102
RTVSPropertyOp18
 70
     1
102
RTVSPropertyOp19
 70
     1
102
RTVSPropertyOp20
 70
     1
102
RTVSPropertyOp21
 70
     1
102
RTVSPropertyOp22
 70
     1
102
RTVSPropertyOp23
 70
     1
102
RTVSPropertyOp24
 70
     1
102
RTVSPropertyOp25
 70
     1
102
RTVSPropertyOp26
 70
     1
102
RTVSPropertyOp27
 70
     1
102
RTVSPropertyOp28
 70
     1
102
RTVSPropertyOp29
 70
     1
102
RTVSPropertyOp30
 70
     1
102
RTVSPropertyOp31
 70
     1
102
RTVSPropertyOp32
 70
     1
  0
ENDSEC
  0
EOF
