  0
SECTION
  2
HEADER
  9
$ACADVER
  1
AC1015
  9
$ACADMAINTVER
 70
     6
  9
$DWGCODEPAGE
  3
ANSI_932
  9
$INSBASE
 10
0.0
 20
0.0
 30
0.0
  9
$EXTMIN
 10
-59.22930780451208
 20
-427.137644946644
 30
0.0
  9
$EXTMAX
 10
150.770692195488
 20
-130.1376449466438
 30
0.0
  9
$LIMMIN
 10
0.0
 20
0.0
  9
$LIMMAX
 10
12.0
 20
9.0
  9
$ORTHOMODE
 70
     0
  9
$REGENMODE
 70
     1
  9
$FILLMODE
 70
     1
  9
$QTEXTMODE
 70
     0
  9
$MIRRTEXT
 70
     1
  9
$LTSCALE
 40
1.0
  9
$ATTMODE
 70
     1
  9
$TEXTSIZE
 40
0.2
  9
$TRACEWID
 40
0.05
  9
$TEXTSTYLE
  7
Standard
  9
$CLAYER
  8
0
  9
$CELTYPE
  6
ByLayer
  9
$CECOLOR
 62
   256
  9
$CELTSCALE
 40
1.0
  9
$DISPSILH
 70
     0
  9
$DIMSCALE
 40
1.0
  9
$DIMASZ
 40
0.18
  9
$DIMEXO
 40
0.0625
  9
$DIMDLI
 40
0.38
  9
$DIMRND
 40
0.0
  9
$DIMDLE
 40
0.0
  9
$DIMEXE
 40
0.18
  9
$DIMTP
 40
0.0
  9
$DIMTM
 40
0.0
  9
$DIMTXT
 40
0.18
  9
$DIMCEN
 40
0.09
  9
$DIMTSZ
 40
0.0
  9
$DIMTOL
 70
     0
  9
$DIMLIM
 70
     0
  9
$DIMTIH
 70
     1
  9
$DIMTOH
 70
     1
  9
$DIMSE1
 70
     0
  9
$DIMSE2
 70
     0
  9
$DIMTAD
 70
     0
  9
$DIMZIN
 70
     0
  9
$DIMBLK
  1

  9
$DIMASO
 70
     1
  9
$DIMSHO
 70
     1
  9
$DIMPOST
  1

  9
$DIMAPOST
  1

  9
$DIMALT
 70
     0
  9
$DIMALTD
 70
     2
  9
$DIMALTF
 40
25.4
  9
$DIMLFAC
 40
1.0
  9
$DIMTOFL
 70
     0
  9
$DIMTVP
 40
0.0
  9
$DIMTIX
 70
     0
  9
$DIMSOXD
 70
     0
  9
$DIMSAH
 70
     0
  9
$DIMBLK1
  1

  9
$DIMBLK2
  1

  9
$DIMSTYLE
  2
Standard
  9
$DIMCLRD
 70
     0
  9
$DIMCLRE
 70
     0
  9
$DIMCLRT
 70
     0
  9
$DIMTFAC
 40
1.0
  9
$DIMGAP
 40
0.09
  9
$DIMJUST
 70
     0
  9
$DIMSD1
 70
     0
  9
$DIMSD2
 70
     0
  9
$DIMTOLJ
 70
     1
  9
$DIMTZIN
 70
     0
  9
$DIMALTZ
 70
     0
  9
$DIMALTTZ
 70
     0
  9
$DIMUPT
 70
     0
  9
$DIMDEC
 70
     4
  9
$DIMTDEC
 70
     4
  9
$DIMALTU
 70
     2
  9
$DIMALTTD
 70
     2
  9
$DIMTXSTY
  7
Standard
  9
$DIMAUNIT
 70
     0
  9
$DIMADEC
 70
     0
  9
$DIMALTRND
 40
0.0
  9
$DIMAZIN
 70
     0
  9
$DIMDSEP
 70
    46
  9
$DIMATFIT
 70
     3
  9
$DIMFRAC
 70
     0
  9
$DIMLDRBLK
  1

  9
$DIMLUNIT
 70
     2
  9
$DIMLWD
 70
    -2
  9
$DIMLWE
 70
    -2
  9
$DIMTMOVE
 70
     0
  9
$LUNITS
 70
     2
  9
$LUPREC
 70
     4
  9
$SKETCHINC
 40
0.1
  9
$FILLETRAD
 40
0.5
  9
$AUNITS
 70
     0
  9
$AUPREC
 70
     0
  9
$MENU
  1
.
  9
$ELEVATION
 40
0.0
  9
$PELEVATION
 40
0.0
  9
$THICKNESS
 40
0.0
  9
$LIMCHECK
 70
     0
  9
$CHAMFERA
 40
0.5
  9
$CHAMFERB
 40
0.5
  9
$CHAMFERC
 40
1.0
  9
$CHAMFERD
 40
0.0
  9
$SKPOLY
 70
     0
  9
$TDCREATE
 40
2459135.527537396
  9
$TDUCREATE
 40
2459135.152537396
  9
$TDUPDATE
 40
2459135.527539386
  9
$TDUUPDATE
 40
2459135.152539386
  9
$TDINDWG
 40
0.0000000116
  9
$TDUSRTIMER
 40
0.0000000116
  9
$USRTIMER
 70
     1
  9
$ANGBASE
 50
0.0
  9
$ANGDIR
 70
     0
  9
$PDMODE
 70
     0
  9
$PDSIZE
 40
0.0
  9
$PLINEWID
 40
0.0
  9
$SPLFRAME
 70
     0
  9
$SPLINETYPE
 70
     6
  9
$SPLINESEGS
 70
     8
  9
$HANDSEED
  5
283
  9
$SURFTAB1
 70
     6
  9
$SURFTAB2
 70
     6
  9
$SURFTYPE
 70
     6
  9
$SURFU
 70
     6
  9
$SURFV
 70
     6
  9
$UCSBASE
  2

  9
$UCSNAME
  2

  9
$UCSORG
 10
0.0
 20
0.0
 30
0.0
  9
$UCSXDIR
 10
1.0
 20
0.0
 30
0.0
  9
$UCSYDIR
 10
0.0
 20
1.0
 30
0.0
  9
$UCSORTHOREF
  2

  9
$UCSORTHOVIEW
 70
     0
  9
$UCSORGTOP
 10
0.0
 20
0.0
 30
0.0
  9
$UCSORGBOTTOM
 10
0.0
 20
0.0
 30
0.0
  9
$UCSORGLEFT
 10
0.0
 20
0.0
 30
0.0
  9
$UCSORGRIGHT
 10
0.0
 20
0.0
 30
0.0
  9
$UCSORGFRONT
 10
0.0
 20
0.0
 30
0.0
  9
$UCSORGBACK
 10
0.0
 20
0.0
 30
0.0
  9
$PUCSBASE
  2

  9
$PUCSNAME
  2

  9
$PUCSORG
 10
0.0
 20
0.0
 30
0.0
  9
$PUCSXDIR
 10
1.0
 20
0.0
 30
0.0
  9
$PUCSYDIR
 10
0.0
 20
1.0
 30
0.0
  9
$PUCSORTHOREF
  2

  9
$PUCSORTHOVIEW
 70
     0
  9
$PUCSORGTOP
 10
0.0
 20
0.0
 30
0.0
  9
$PUCSORGBOTTOM
 10
0.0
 20
0.0
 30
0.0
  9
$PUCSORGLEFT
 10
0.0
 20
0.0
 30
0.0
  9
$PUCSORGRIGHT
 10
0.0
 20
0.0
 30
0.0
  9
$PUCSORGFRONT
 10
0.0
 20
0.0
 30
0.0
  9
$PUCSORGBACK
 10
0.0
 20
0.0
 30
0.0
  9
$USERI1
 70
     0
  9
$USERI2
 70
     0
  9
$USERI3
 70
     0
  9
$USERI4
 70
     0
  9
$USERI5
 70
     0
  9
$USERR1
 40
18.1
  9
$USERR2
 40
0.0
  9
$USERR3
 40
0.0
  9
$USERR4
 40
0.0
  9
$USERR5
 40
0.0
  9
$WORLDVIEW
 70
     1
  9
$SHADEDGE
 70
     3
  9
$SHADEDIF
 70
    70
  9
$TILEMODE
 70
     1
  9
$MAXACTVP
 70
    64
  9
$PINSBASE
 10
0.0
 20
0.0
 30
0.0
  9
$PLIMCHECK
 70
     0
  9
$PEXTMIN
 10
1.00000000000000E+20
 20
1.00000000000000E+20
 30
1.00000000000000E+20
  9
$PEXTMAX
 10
-1.00000000000000E+20
 20
-1.00000000000000E+20
 30
-1.00000000000000E+20
  9
$PLIMMIN
 10
0.0
 20
0.0
  9
$PLIMMAX
 10
12.0
 20
9.0
  9
$UNITMODE
 70
     0
  9
$VISRETAIN
 70
     1
  9
$PLINEGEN
 70
     0
  9
$PSLTSCALE
 70
     1
  9
$TREEDEPTH
 70
  3020
  9
$CMLSTYLE
  2
Standard
  9
$CMLJUST
 70
     0
  9
$CMLSCALE
 40
1.0
  9
$PROXYGRAPHICS
 70
     1
  9
$MEASUREMENT
 70
     1
  9
$CELWEIGHT
370
    -1
  9
$ENDCAPS
280
     0
  9
$JOINSTYLE
280
     0
  9
$LWDISPLAY
290
     0
  9
$INSUNITS
 70
     4
  9
$HYPERLINKBASE
  1

  9
$STYLESHEET
  1

  9
$XEDIT
290
     1
  9
$CEPSNTYPE
380
     0
  9
$PSTYLEMODE
290
     1
  9
$FINGERPRINTGUID
  2
{1403591F-3029-4E06-906E-CE719BD3A5FC}
  9
$VERSIONGUID
  2
{FAEB1C32-E019-11D5-929B-00C0DF256EC4}
  9
$EXTNAMES
290
     1
  9
$PSVPSCALE
 40
0.0
  9
$OLESTARTUP
290
     0
  0
ENDSEC
  0
SECTION
  2
CLASSES
  0
CLASS
  1
ACDBDICTIONARYWDFLT
  2
AcDbDictionaryWithDefault
  3
ObjectDBX Classes
 90
        0
280
     0
281
     0
  0
CLASS
  1
VISUALSTYLE
  2
AcDbVisualStyle
  3
ObjectDBX Classes
 90
     4095
280
     0
281
     0
  0
CLASS
  1
MATERIAL
  2
AcDbMaterial
  3
ObjectDBX Classes
 90
     1153
280
     0
281
     0
  0
CLASS
  1
DICTIONARYVAR
  2
AcDbDictionaryVar
  3
ObjectDBX Classes
 90
        0
280
     0
281
     0
  0
CLASS
  1
ACDBPLACEHOLDER
  2
AcDbPlaceHolder
  3
ObjectDBX Classes
 90
        0
280
     0
281
     0
  0
CLASS
  1
LAYOUT
  2
AcDbLayout
  3
ObjectDBX Classes
 90
        0
280
     0
281
     0
  0
ENDSEC
  0
SECTION
  2
TABLES
  0
TABLE
  2
VPORT
  5
8
330
0
100
AcDbSymbolTable
 70
     1
  0
VPORT
  5
29
330
8
100
AcDbSymbolTableRecord
100
AcDbViewportTableRecord
  2
*Active
 70
     0
 10
0.0
 20
0.0
 11
1.0
 21
1.0
 12
45.77069219548797
 22
-278.6376449466439
 13
0.0
 23
0.0
 14
0.5
 24
0.5
 15
0.5
 25
0.5
 16
0.0
 26
0.0
 36
1.0
 17
0.0
 27
0.0
 37
0.0
 40
326.7000000000003
 41
1.60267857142857
 42
50.0
 43
0.0
 44
0.0
 50
0.0
 51
0.0
 71
     0
 72
   100
 73
     1
 74
     3
 75
     0
 76
     0
 77
     0
 78
     0
281
     0
 65
     1
110
0.0
120
0.0
130
0.0
111
1.0
121
0.0
131
0.0
112
0.0
122
1.0
132
0.0
 79
     0
146
0.0
  0
ENDTAB
  0
TABLE
  2
LTYPE
  5
5
330
0
100
AcDbSymbolTable
 70
     8
  0
LTYPE
  5
14
330
5
100
AcDbSymbolTableRecord
100
AcDbLinetypeTableRecord
  2
ByBlock
 70
     0
  3

 72
    65
 73
     0
 40
0.0
  0
LTYPE
  5
15
330
5
100
AcDbSymbolTableRecord
100
AcDbLinetypeTableRecord
  2
ByLayer
 70
     0
  3

 72
    65
 73
     0
 40
0.0
  0
LTYPE
  5
16
330
5
100
AcDbSymbolTableRecord
100
AcDbLinetypeTableRecord
  2
Continuous
 70
     0
  3
Solid line
 72
    65
 73
     0
 40
0.0
  0
LTYPE
  5
3F
330
5
100
AcDbSymbolTableRecord
100
AcDbLinetypeTableRecord
  2
DASHED
 70
     0
  3
Dashed
 72
    65
 73
     2
 40
15.0
 49
7.0
 74
     0
 49
-8.0
 74
     0
  0
LTYPE
  5
40
330
5
100
AcDbSymbolTableRecord
100
AcDbLinetypeTableRecord
  2
DOTTED
 70
     0
  3
Dotted
 72
    65
 73
     2
 40
1.0
 49
0.0
 74
     0
 49
-1.0
 74
     0
  0
LTYPE
  5
41
330
5
100
AcDbSymbolTableRecord
100
AcDbLinetypeTableRecord
  2
DOT_CENTER
 70
     0
  3
Dot_Center
 72
    65
 73
     4
 40
14.0
 49
12.0
 74
     0
 49
-1.0
 74
     0
 49
0.0
 74
     0
 49
-1.0
 74
     0
  0
LTYPE
  5
42
330
5
100
AcDbSymbolTableRecord
100
AcDbLinetypeTableRecord
  2
LONG_DASHED
 70
     0
  3
Long_Dashed
 72
    65
 73
     2
 40
15.0
 49
10.0
 74
     0
 49
-5.0
 74
     0
  0
LTYPE
  5
43
330
5
100
AcDbSymbolTableRecord
100
AcDbLinetypeTableRecord
  2
DASH_CENTER
 70
     0
  3
Dash_Center
 72
    65
 73
     4
 40
14.0
 49
11.0
 74
     0
 49
-1.0
 74
     0
 49
1.0
 74
     0
 49
-1.0
 74
     0
  0
LTYPE
  5
44
330
5
100
AcDbSymbolTableRecord
100
AcDbLinetypeTableRecord
  2
PHANTOM
 70
     0
  3
Phantom
 72
    65
 73
     6
 40
13.0
 49
10.0
 74
     0
 49
-1.0
 74
     0
 49
0.0
 74
     0
 49
-1.0
 74
     0
 49
0.0
 74
     0
 49
-1.0
 74
     0
  0
LTYPE
  5
45
330
5
100
AcDbSymbolTableRecord
100
AcDbLinetypeTableRecord
  2
CENTER_DASH_DASH
 70
     0
  3
Center_Dash_Dash
 72
    65
 73
     6
 40
14.0
 49
9.0
 74
     0
 49
-1.0
 74
     0
 49
1.0
 74
     0
 49
-1.0
 74
     0
 49
1.0
 74
     0
 49
-1.0
 74
     0
  0
ENDTAB
  0
TABLE
  2
LAYER
  5
2
330
0
100
AcDbSymbolTable
 70
     2
  0
LAYER
  5
10
330
2
100
AcDbSymbolTableRecord
100
AcDbLayerTableRecord
  2
0
 70
     0
 62
     7
  6
Continuous
370
    -3
390
F
  0
LAYER
  5
46
330
2
100
AcDbSymbolTableRecord
100
AcDbLayerTableRecord
  2
1
 70
     0
 62
     7
  6
Continuous
370
    -3
390
F
  0
ENDTAB
  0
TABLE
  2
STYLE
  5
3
330
0
100
AcDbSymbolTable
 70
     3
  0
STYLE
  5
11
330
3
100
AcDbSymbolTableRecord
100
AcDbTextStyleTableRecord
  2
Standard
 70
     0
 40
0.0
 41
1.0
 50
0.0
 71
     0
 42
0.2
  3
txt
  4

  0
STYLE
  5
77
330
3
100
AcDbSymbolTableRecord
100
AcDbTextStyleTableRecord
  2
CONVERTER_11
 70
     0
 40
0.0
 41
0.89
 50
0.0
 71
     0
 42
0.2
  3
MS Mincho.ttf
  4

1001
ACAD
1000
MS Mincho
1071
    32785
  0
STYLE
  5
7A
330
3
100
AcDbSymbolTableRecord
100
AcDbTextStyleTableRecord
  2
CONVERTER_12
 70
     0
 40
0.0
 41
0.9
 50
0.0
 71
     0
 42
0.2
  3
txt.shx
  4

  0
ENDTAB
  0
TABLE
  2
VIEW
  5
6
330
0
100
AcDbSymbolTable
 70
     0
  0
ENDTAB
  0
TABLE
  2
UCS
  5
7
330
0
100
AcDbSymbolTable
 70
     0
  0
ENDTAB
  0
TABLE
  2
APPID
  5
9
330
0
100
AcDbSymbolTable
 70
     1
  0
APPID
  5
12
330
9
100
AcDbSymbolTableRecord
100
AcDbRegAppTableRecord
  2
ACAD
 70
     0
  0
ENDTAB
  0
TABLE
  2
DIMSTYLE
  5
A
330
0
100
AcDbSymbolTable
 70
     8
100
AcDbDimStyleTable
  0
DIMSTYLE
105
27
330
A
100
AcDbSymbolTableRecord
100
AcDbDimStyleTableRecord
  2
Standard
 70
     0
178
     0
340
11
  0
DIMSTYLE
105
211
102
{ACAD_REACTORS
330
212
102
}
330
A
100
AcDbSymbolTableRecord
100
AcDbDimStyleTableRecord
  2
ME10_DIM_10
 70
     0
 41
3.5
 42
0.0
 44
2.0
 73
     0
 74
     0
 77
     1
 78
     8
140
3.0
147
2.0
172
     1
173
     1
174
     1
175
     1
176
     2
177
     2
271
     2
178
     7
271
     2
340
7A
  0
DIMSTYLE
105
21C
102
{ACAD_REACTORS
330
21D
102
}
330
A
100
AcDbSymbolTableRecord
100
AcDbDimStyleTableRecord
  2
ME10_DIM_11
 70
     0
 41
3.5
 42
0.0
 44
2.0
 73
     0
 74
     0
 77
     1
 78
     8
140
3.0
147
2.0
172
     1
173
     1
174
     1
175
     1
176
     2
177
     2
271
     2
178
     7
271
     2
340
7A
  0
DIMSTYLE
105
229
102
{ACAD_REACTORS
330
22A
102
}
330
A
100
AcDbSymbolTableRecord
100
AcDbDimStyleTableRecord
  2
ME10_DIM_12
 70
     0
 41
3.5
 42
0.0
 44
2.0
 73
     0
 74
     0
 77
     1
 78
     8
140
3.0
147
2.0
172
     1
173
     1
174
     1
175
     1
176
     2
177
     2
271
     2
178
     7
271
     2
340
7A
  0
DIMSTYLE
105
234
102
{ACAD_REACTORS
330
235
102
}
330
A
100
AcDbSymbolTableRecord
100
AcDbDimStyleTableRecord
  2
ME10_DIM_13
 70
     0
 41
3.5
 42
0.0
 44
2.0
 73
     0
 74
     0
 77
     1
 78
     8
140
3.0
147
2.0
172
     1
173
     1
174
     1
175
     1
176
     2
177
     2
271
     2
178
     7
271
     2
340
7A
  0
DIMSTYLE
105
23F
102
{ACAD_REACTORS
330
240
102
}
330
A
100
AcDbSymbolTableRecord
100
AcDbDimStyleTableRecord
  2
ME10_DIM_14
 70
     0
  3
{\Fgdt;n}<>
 41
3.5
 42
0.0
 44
2.0
 73
     0
 74
     0
 77
     1
 78
     8
140
3.0
147
2.0
172
     1
173
     1
174
     1
175
     1
176
     2
177
     2
271
     2
178
     7
271
     2
340
7A
  0
DIMSTYLE
105
24B
102
{ACAD_REACTORS
330
24C
102
}
330
A
100
AcDbSymbolTableRecord
100
AcDbDimStyleTableRecord
  2
ME10_DIM_15
 70
     0
  3
{\Fgdt;n}<>
 41
3.5
 42
0.0
 44
2.0
 73
     0
 74
     0
 77
     1
 78
     8
140
3.0
147
2.0
172
     1
173
     1
174
     1
175
     1
176
     2
177
     2
271
     2
178
     7
271
     2
340
7A
  0
DIMSTYLE
105
256
102
{ACAD_REACTORS
330
257
102
}
330
A
100
AcDbSymbolTableRecord
100
AcDbDimStyleTableRecord
  2
ME10_DIM_16
 70
     0
  3
{\Fgdt;n}<>
 41
3.5
 42
0.0
 44
2.0
 73
     0
 74
     0
 77
     1
 78
     8
140
3.0
147
2.0
172
     1
173
     1
174
     1
175
     1
176
     2
177
     2
271
     2
178
     7
271
     2
340
7A
  0
ENDTAB
  0
TABLE
  2
BLOCK_RECORD
  5
1
330
0
100
AcDbSymbolTable
 70
    20
  0
BLOCK_RECORD
  5
1F
330
1
100
AcDbSymbolTableRecord
100
AcDbBlockTableRecord
  2
*Model_Space
340
22
  0
BLOCK_RECORD
  5
1B
330
1
100
AcDbSymbolTableRecord
100
AcDbBlockTableRecord
  2
*Paper_Space
340
1E
  0
BLOCK_RECORD
  5
23
330
1
100
AcDbSymbolTableRecord
100
AcDbBlockTableRecord
  2
*Paper_Space0
340
26
  0
BLOCK_RECORD
  5
47
330
1
100
AcDbSymbolTableRecord
100
AcDbBlockTableRecord
  2
PLIST
340
0
102
{BLKREFS
331
6F
102
}
  0
BLOCK_RECORD
  5
4A
330
1
100
AcDbSymbolTableRecord
100
AcDbBlockTableRecord
  2
組図HP-A4
340
0
102
{BLKREFS
331
4E
102
}
  0
BLOCK_RECORD
  5
4D
330
1
100
AcDbSymbolTableRecord
100
AcDbBlockTableRecord
  2
開示縦HP-A4
340
0
102
{BLKREFS
331
70
102
}
  0
BLOCK_RECORD
  5
51
330
1
100
AcDbSymbolTableRecord
100
AcDbBlockTableRecord
  2
85-99
340
0
102
{BLKREFS
331
71
102
}
  0
BLOCK_RECORD
  5
54
330
1
100
AcDbSymbolTableRecord
100
AcDbBlockTableRecord
  2
72-54
340
0
102
{BLKREFS
331
58
102
}
  0
BLOCK_RECORD
  5
57
330
1
100
AcDbSymbolTableRecord
100
AcDbBlockTableRecord
  2
R703__1
340
0
102
{BLKREFS
331
72
102
}
  0
BLOCK_RECORD
  5
5B
330
1
100
AcDbSymbolTableRecord
100
AcDbBlockTableRecord
  2
6
340
0
102
{BLKREFS
331
73
102
}
  0
BLOCK_RECORD
  5
5E
330
1
100
AcDbSymbolTableRecord
100
AcDbBlockTableRecord
  2
3
340
0
102
{BLKREFS
331
74
102
}
  0
BLOCK_RECORD
  5
61
330
1
100
AcDbSymbolTableRecord
100
AcDbBlockTableRecord
  2
PIN__2
340
0
102
{BLKREFS
331
68
102
}
  0
BLOCK_RECORD
  5
64
330
1
100
AcDbSymbolTableRecord
100
AcDbBlockTableRecord
  2
PIN__3
340
0
102
{BLKREFS
331
69
102
}
  0
BLOCK_RECORD
  5
67
330
1
100
AcDbSymbolTableRecord
100
AcDbBlockTableRecord
  2
55-36X
340
0
102
{BLKREFS
331
75
102
}
  0
BLOCK_RECORD
  5
6C
330
1
100
AcDbSymbolTableRecord
100
AcDbBlockTableRecord
  2
37-155
340
0
102
{BLKREFS
331
76
102
}
  0
BLOCK_RECORD
  5
206
330
1
100
AcDbSymbolTableRecord
100
AcDbBlockTableRecord
  2
*D13
340
0
  0
BLOCK_RECORD
  5
213
330
1
100
AcDbSymbolTableRecord
100
AcDbBlockTableRecord
  2
*D14
340
0
  0
BLOCK_RECORD
  5
21E
330
1
100
AcDbSymbolTableRecord
100
AcDbBlockTableRecord
  2
*D15
340
0
  0
BLOCK_RECORD
  5
22B
330
1
100
AcDbSymbolTableRecord
100
AcDbBlockTableRecord
  2
*D16
340
0
  0
BLOCK_RECORD
  5
236
330
1
100
AcDbSymbolTableRecord
100
AcDbBlockTableRecord
  2
*D17
340
0
  0
BLOCK_RECORD
  5
241
330
1
100
AcDbSymbolTableRecord
100
AcDbBlockTableRecord
  2
*D18
340
0
  0
BLOCK_RECORD
  5
24D
330
1
100
AcDbSymbolTableRecord
100
AcDbBlockTableRecord
  2
*D19
340
0
  0
ENDTAB
  0
ENDSEC
  0
SECTION
  2
BLOCKS
  0
BLOCK
  5
20
330
1F
100
AcDbEntity
  8
0
100
AcDbBlockBegin
  2
*Model_Space
 70
     0
 10
0.0
 20
0.0
 30
0.0
  3
*Model_Space
  1

  0
ENDBLK
  5
21
330
1F
100
AcDbEntity
  8
0
100
AcDbBlockEnd
  0
BLOCK
  5
1C
330
1B
100
AcDbEntity
 67
     1
  8
0
100
AcDbBlockBegin
  2
*Paper_Space
 70
     0
 10
0.0
 20
0.0
 30
0.0
  3
*Paper_Space
  1

  0
ENDBLK
  5
1D
330
1B
100
AcDbEntity
 67
     1
  8
0
100
AcDbBlockEnd
  0
BLOCK
  5
24
330
23
100
AcDbEntity
  8
0
100
AcDbBlockBegin
  2
*Paper_Space0
 70
     0
 10
0.0
 20
0.0
 30
0.0
  3
*Paper_Space0
  1

  0
ENDBLK
  5
25
330
23
100
AcDbEntity
  8
0
100
AcDbBlockEnd
  0
BLOCK
  5
48
330
47
100
AcDbEntity
  8
0
100
AcDbBlockBegin
  2
PLIST
 70
     0
 10
-25.99465898021817
 20
-414.8963782592379
 30
0.0
  3
PLIST
  1

  0
MTEXT
  5
78
330
47
100
AcDbEntity
  8
0
 62
     7
100
AcDbMText
 10
99.83052522800355
 20
-409.0660410408909
 30
0.0
 40
3.5
 41
0.0
 71
     5
 72
     1
  1
阪\P口
  7
CONVERTER_11
 73
     1
 44
0.63636363636364
  0
MTEXT
  5
79
330
47
100
AcDbEntity
  8
0
 62
     7
100
AcDbMText
 10
86.69241463475876
 20
-409.146378259237
 30
0.0
 40
3.5
 41
0.0
 71
     5
 72
     1
  1
松\P川
  7
CONVERTER_11
 73
     1
 44
0.63636363636364
  0
MTEXT
  5
7B
330
47
100
AcDbEntity
  8
0
 62
     7
100
AcDbMText
 10
49.27461020634326
 20
-413.1463782592379
 30
0.0
 40
3.5
 41
0.0
 71
     5
 72
     1
  1
1
  7
CONVERTER_12
 73
     1
 44
0.84033613445378
  0
MTEXT
  5
7C
330
47
100
AcDbEntity
  8
0
 62
     7
100
AcDbMText
 10
45.77461020634326
 20
-407.4692462431589
 30
0.0
 40
3.5
 41
0.0
 71
     5
 72
     1
  1
1
  7
CONVERTER_12
 73
     1
 44
0.84033613445378
  0
MTEXT
  5
7D
330
47
100
AcDbEntity
  8
1
 62
     7
100
AcDbMText
 10
26.27461020634326
 20
-409.4692462431589
 30
0.0
 40
3.5
 41
0.0
 71
     5
 72
     1
  1
R703
  7
CONVERTER_12
 73
     1
 44
0.84033613445378
  0
MTEXT
  5
7E
330
47
100
AcDbEntity
  8
0
 62
     7
100
AcDbMText
 10
-10.48771453577373
 20
-408.6374466250729
 30
0.0
 40
3.5
 41
0.0
 71
     5
 72
     1
  1
カウンター化粧蓋
  7
CONVERTER_11
 73
     1
 44
0.63636363636364
  0
MTEXT
  5
7F
330
47
100
AcDbEntity
  8
0
 62
     7
100
AcDbMText
 10
-1.59175327718917
 20
-396.456822747935
 30
0.0
 40
3.5
 41
0.0
 71
     5
 72
     1
  1
適合穴径{\Fgdt;n}23～{\Fgdt;n}38
  7
CONVERTER_11
 73
     1
 44
0.63636363636364
  0
ENDBLK
  5
49
330
47
100
AcDbEntity
  8
0
100
AcDbBlockEnd
  0
BLOCK
  5
4B
330
4A
100
AcDbEntity
  8
0
100
AcDbBlockBegin
  2
組図HP-A4
 70
     0
 10
672.1972145368663
 20
-415.1151213256957
 30
0.0
  3
組図HP-A4
  1

  0
LINE
  5
80
330
4A
100
AcDbEntity
  8
1
  6
Continuous
 62
     7
100
AcDbLine
 10
512.1972145368663
 20
-142.1151213256955
 30
0.0
 11
497.1972145368663
 21
-142.1151213256955
 31
0.0
  0
LINE
  5
81
330
4A
100
AcDbEntity
  8
1
  6
Continuous
 62
     2
100
AcDbLine
 10
512.1972145368663
 20
-152.1151213256955
 30
0.0
 11
527.1972145368663
 21
-152.1151213256955
 31
0.0
  0
LINE
  5
82
330
4A
100
AcDbEntity
  8
1
  6
Continuous
 62
     2
100
AcDbLine
 10
512.1972145368663
 20
-142.1151213256955
 30
0.0
 11
512.1972145368663
 21
-152.1151213256955
 31
0.0
  0
LINE
  5
83
330
4A
100
AcDbEntity
  8
1
  6
Continuous
 62
     7
100
AcDbLine
 10
527.1972145368663
 20
-142.1151213256955
 30
0.0
 11
512.1972145368663
 21
-142.1151213256955
 31
0.0
  0
LINE
  5
84
330
4A
100
AcDbEntity
  8
1
  6
Continuous
 62
     2
100
AcDbLine
 10
527.1972145368663
 20
-152.1151213256955
 30
0.0
 11
527.1972145368663
 21
-142.1151213256955
 31
0.0
  0
LINE
  5
85
330
4A
100
AcDbEntity
  8
1
  6
Continuous
 62
     7
100
AcDbLine
 10
497.1972145368663
 20
-152.1151213256955
 30
0.0
 11
497.1972145368663
 21
-142.1151213256955
 31
0.0
  0
LINE
  5
86
330
4A
100
AcDbEntity
  8
1
  6
Continuous
 62
     2
100
AcDbLine
 10
497.1972145368663
 20
-152.1151213256955
 30
0.0
 11
512.1972145368663
 21
-152.1151213256955
 31
0.0
  0
LINE
  5
87
330
4A
100
AcDbEntity
  8
0
  6
Continuous
 62
     2
100
AcDbLine
 10
635.1972145368663
 20
-401.1151213256957
 30
0.0
 11
635.1972145368663
 21
-415.1151213256957
 31
0.0
  0
LINE
  5
88
330
4A
100
AcDbEntity
  8
0
  6
Continuous
 62
     2
100
AcDbLine
 10
627.1972145368663
 20
-415.1151213256957
 30
0.0
 11
627.1972145368663
 21
-401.1151213256957
 31
0.0
  0
LINE
  5
89
330
4A
100
AcDbEntity
  8
0
  6
Continuous
 62
     2
100
AcDbLine
 10
622.1972145368663
 20
-415.1151213256957
 30
0.0
 11
622.1972145368663
 21
-401.1151213256957
 31
0.0
  0
LINE
  5
8A
330
4A
100
AcDbEntity
  8
0
  6
Continuous
 62
     2
100
AcDbLine
 10
614.1972145368663
 20
-415.1151213256957
 30
0.0
 11
614.1972145368663
 21
-401.1151213256957
 31
0.0
  0
LINE
  5
8B
330
4A
100
AcDbEntity
  8
0
  6
Continuous
 62
     2
100
AcDbLine
 10
609.1972145368663
 20
-415.1151213256957
 30
0.0
 11
609.1972145368663
 21
-401.1151213256957
 31
0.0
  0
LINE
  5
8C
330
4A
100
AcDbEntity
  8
0
  6
Continuous
 62
     2
100
AcDbLine
 10
601.1972145368663
 20
-415.1151213256957
 30
0.0
 11
601.1972145368663
 21
-401.1151213256957
 31
0.0
  0
LINE
  5
8D
330
4A
100
AcDbEntity
  8
0
  6
Continuous
 62
     2
100
AcDbLine
 10
596.1972145368663
 20
-415.1151213256957
 30
0.0
 11
596.1972145368663
 21
-401.1151213256957
 31
0.0
  0
LINE
  5
8E
330
4A
100
AcDbEntity
  8
0
  6
Continuous
 62
     2
100
AcDbLine
 10
588.1972145368663
 20
-401.1151213256957
 30
0.0
 11
588.1972145368663
 21
-415.1151213256957
 31
0.0
  0
LINE
  5
8F
330
4A
100
AcDbEntity
  8
0
  6
Continuous
 62
     2
100
AcDbLine
 10
583.1972145368663
 20
-401.1151213256957
 30
0.0
 11
583.1972145368663
 21
-415.1151213256957
 31
0.0
  0
LINE
  5
90
330
4A
100
AcDbEntity
  8
0
  6
Continuous
 62
     2
100
AcDbLine
 10
581.9594393048778
 20
-405.0405494643445
 30
0.0
 11
575.7173525040273
 21
-412.7504622656676
 31
0.0
  0
LINE
  5
91
330
4A
100
AcDbEntity
  8
0
  6
Continuous
 62
     2
100
AcDbLine
 10
574.1972145368663
 20
-415.1151213256957
 30
0.0
 11
574.1972145368663
 21
-401.1151213256957
 31
0.0
  0
LINE
  5
92
330
4A
100
AcDbEntity
  8
0
  6
Continuous
 62
     2
100
AcDbLine
 10
569.1972145368663
 20
-415.1151213256957
 30
0.0
 11
569.1972145368663
 21
-401.1151213256957
 31
0.0
  0
LINE
  5
93
330
4A
100
AcDbEntity
  8
0
  6
Continuous
 62
     2
100
AcDbLine
 10
547.1972145368663
 20
-415.1151213256957
 30
0.0
 11
547.1972145368663
 21
-401.1151213256957
 31
0.0
  0
LINE
  5
94
330
4A
100
AcDbEntity
  8
0
  6
Continuous
 62
     2
100
AcDbLine
 10
542.1972145368663
 20
-401.1151213256957
 30
0.0
 11
542.1972145368663
 21
-415.1151213256957
 31
0.0
  0
LINE
  5
95
330
4A
100
AcDbEntity
  8
0
  6
Continuous
 62
     2
100
AcDbLine
 10
502.1972145368663
 20
-387.1151213256957
 30
0.0
 11
502.1972145368663
 21
-415.1151213256957
 31
0.0
  0
LINE
  5
96
330
4A
100
AcDbEntity
  8
0
  6
Continuous
 62
     2
100
AcDbLine
 10
497.1972145368663
 20
-401.1151213256957
 30
0.0
 11
672.1972145368663
 21
-401.1151213256957
 31
0.0
  0
LINE
  5
97
330
4A
100
AcDbEntity
  8
0
  6
Continuous
 62
     7
100
AcDbLine
 10
497.1972145368663
 20
-387.1151213256957
 30
0.0
 11
502.1972145368663
 21
-387.1151213256957
 31
0.0
  0
LINE
  5
98
330
4A
100
AcDbEntity
  8
1
  6
PHANTOM
 62
     4
100
AcDbLine
 10
472.1972145368663
 20
-425.1151213256957
 30
0.0
 11
682.1972145368663
 21
-425.1151213256957
 31
0.0
  0
LINE
  5
99
330
4A
100
AcDbEntity
  8
1
  6
PHANTOM
 62
     4
100
AcDbLine
 10
472.1972145368663
 20
-128.1151213256955
 30
0.0
 11
472.1972145368663
 21
-425.1151213256957
 31
0.0
  0
LINE
  5
9A
330
4A
100
AcDbEntity
  8
1
  6
PHANTOM
 62
     4
100
AcDbLine
 10
682.1972145368663
 20
-425.1151213256957
 30
0.0
 11
682.1972145368663
 21
-128.1151213256955
 31
0.0
  0
LINE
  5
9B
330
4A
100
AcDbEntity
  8
1
  6
PHANTOM
 62
     4
100
AcDbLine
 10
682.1972145368663
 20
-128.1151213256955
 30
0.0
 11
472.1972145368663
 21
-128.1151213256955
 31
0.0
  0
LINE
  5
9C
330
4A
100
AcDbEntity
  8
1
  6
Continuous
 62
     7
100
AcDbLine
 10
672.1972145368663
 20
-415.1151213256957
 30
0.0
 11
672.1972145368663
 21
-280.6151213256956
 31
0.0
  0
LINE
  5
9D
330
4A
100
AcDbEntity
  8
1
  6
Continuous
 62
     7
100
AcDbLine
 10
672.1972145368663
 20
-142.1151213256955
 30
0.0
 11
577.1972145368663
 21
-142.1151213256955
 31
0.0
  0
LINE
  5
9E
330
4A
100
AcDbEntity
  8
1
  6
Continuous
 62
     7
100
AcDbLine
 10
497.1972145368663
 20
-415.1151213256957
 30
0.0
 11
577.1972145368663
 21
-415.1151213256957
 31
0.0
  0
LINE
  5
9F
330
4A
100
AcDbEntity
  8
1
  6
Continuous
 62
     7
100
AcDbLine
 10
497.1972145368663
 20
-415.1151213256957
 30
0.0
 11
497.1972145368663
 21
-280.6151213256956
 31
0.0
  0
LINE
  5
A0
330
4A
100
AcDbEntity
  8
1
  6
Continuous
 62
     2
100
AcDbLine
 10
577.1972145368663
 20
-142.1151213256955
 30
0.0
 11
577.1972145368663
 21
-137.1151213256955
 31
0.0
  0
LINE
  5
A1
330
4A
100
AcDbEntity
  8
1
  6
Continuous
 62
     7
100
AcDbLine
 10
577.1972145368663
 20
-142.1151213256955
 30
0.0
 11
527.1972145368663
 21
-142.1151213256955
 31
0.0
  0
LINE
  5
A2
330
4A
100
AcDbEntity
  8
1
  6
Continuous
 62
     2
100
AcDbLine
 10
672.1972145368663
 20
-280.6151213256956
 30
0.0
 11
677.1972145368663
 21
-280.6151213256956
 31
0.0
  0
LINE
  5
A3
330
4A
100
AcDbEntity
  8
1
  6
Continuous
 62
     7
100
AcDbLine
 10
672.1972145368663
 20
-280.6151213256956
 30
0.0
 11
672.1972145368663
 21
-142.1151213256955
 31
0.0
  0
LINE
  5
A4
330
4A
100
AcDbEntity
  8
1
  6
Continuous
 62
     2
100
AcDbLine
 10
497.1972145368663
 20
-280.6151213256956
 30
0.0
 11
492.1972145368663
 21
-280.6151213256956
 31
0.0
  0
LINE
  5
A5
330
4A
100
AcDbEntity
  8
1
  6
Continuous
 62
     7
100
AcDbLine
 10
497.1972145368663
 20
-280.6151213256956
 30
0.0
 11
497.1972145368663
 21
-152.1151213256955
 31
0.0
  0
LINE
  5
A6
330
4A
100
AcDbEntity
  8
1
  6
Continuous
 62
     2
100
AcDbLine
 10
577.1972145368663
 20
-415.1151213256957
 30
0.0
 11
577.1972145368663
 21
-420.1151213256957
 31
0.0
  0
LINE
  5
A7
330
4A
100
AcDbEntity
  8
1
  6
Continuous
 62
     7
100
AcDbLine
 10
577.1972145368663
 20
-415.1151213256957
 30
0.0
 11
672.1972145368663
 21
-415.1151213256957
 31
0.0
  0
LINE
  5
A8
102
{ACAD_REACTORS
330
119
102
}
330
4A
100
AcDbEntity
  8
1
  6
Continuous
 62
     7
100
AcDbLine
 10
641.1316555330136
 20
-402.9034169629364
 30
0.0
 11
640.9716174240264
 21
-403.1806110988497
 31
0.0
  0
LINE
  5
A9
102
{ACAD_REACTORS
330
119
102
}
330
4A
100
AcDbEntity
  8
1
  6
Continuous
 62
     7
100
AcDbLine
 10
641.7767382788838
 20
-404.5751213256958
 30
0.0
 11
642.0968144968581
 21
-404.5751213256958
 31
0.0
  0
LINE
  5
AA
102
{ACAD_REACTORS
330
119
102
}
330
4A
100
AcDbEntity
  8
1
  6
Continuous
 62
     7
100
AcDbLine
 10
641.0623735007111
 20
-406.3668256884552
 30
0.0
 11
640.9023353917235
 21
-406.0896315525419
 31
0.0
  0
LINE
  5
AB
102
{ACAD_REACTORS
330
119
102
}
330
4A
100
AcDbEntity
  8
1
  6
Continuous
 62
     7
100
AcDbLine
 10
639.292093682009
 20
-406.0896315525419
 30
0.0
 11
639.1320555730215
 21
-406.3668256884552
 31
0.0
  0
LINE
  5
AC
102
{ACAD_REACTORS
330
119
102
}
330
4A
100
AcDbEntity
  8
1
  6
Continuous
 62
     7
100
AcDbLine
 10
639.2228116497063
 20
-403.1806110988497
 30
0.0
 11
639.062773540719
 21
-402.9034169629364
 31
0.0
  0
LINE
  5
AD
102
{ACAD_REACTORS
330
119
102
}
330
4A
100
AcDbEntity
  8
1
  6
Continuous
 62
     7
100
AcDbLine
 10
638.0976145768745
 20
-404.5751213256958
 30
0.0
 11
638.4176907948488
 21
-404.5751213256958
 31
0.0
  0
LINE
  5
AE
102
{ACAD_REACTORS
330
119
102
}
330
4A
100
AcDbEntity
  8
1
  6
Continuous
 62
     7
100
AcDbLine
 10
639.1320555730215
 20
-402.8634169629364
 30
0.0
 11
640.0972145368664
 21
-404.5351213256957
 31
0.0
  0
LINE
  5
AF
102
{ACAD_REACTORS
330
119
102
}
330
4A
100
AcDbEntity
  8
1
  6
Continuous
 62
     7
100
AcDbLine
 10
640.0279325045638
 20
-404.5751213256958
 30
0.0
 11
639.2628235597897
 21
-403.249913760022
 31
0.0
  0
LINE
  5
B0
102
{ACAD_REACTORS
330
119
102
}
330
4A
100
AcDbEntity
  8
1
  6
Continuous
 62
     7
100
AcDbLine
 10
640.0279325045638
 20
-404.5751213256958
 30
0.0
 11
638.4977146150159
 21
-404.5751213256958
 31
0.0
  0
LINE
  5
B1
102
{ACAD_REACTORS
330
119
102
}
330
4A
100
AcDbEntity
  8
1
  6
Continuous
 62
     7
100
AcDbLine
 10
640.0279325045638
 20
-404.6551213256958
 30
0.0
 11
638.0976145768745
 21
-404.6551213256958
 31
0.0
  0
LINE
  5
B2
102
{ACAD_REACTORS
330
119
102
}
330
4A
100
AcDbEntity
  8
1
  6
Continuous
 62
     7
100
AcDbLine
 10
642.0968144968581
 20
-404.6551213256958
 30
0.0
 11
640.1664965691689
 21
-404.6551213256958
 31
0.0
  0
LINE
  5
B3
102
{ACAD_REACTORS
330
119
102
}
330
4A
100
AcDbEntity
  8
1
  6
Continuous
 62
     7
100
AcDbLine
 10
640.1664965691689
 20
-404.5751213256958
 30
0.0
 11
641.696714458717
 21
-404.5751213256958
 31
0.0
  0
LINE
  5
B4
102
{ACAD_REACTORS
330
119
102
}
330
4A
100
AcDbEntity
  8
1
  6
Continuous
 62
     7
100
AcDbLine
 10
640.1664965691689
 20
-404.5751213256958
 30
0.0
 11
640.9316055139432
 21
-403.249913760022
 31
0.0
  0
LINE
  5
B5
102
{ACAD_REACTORS
330
119
102
}
330
4A
100
AcDbEntity
  8
1
  6
Continuous
 62
     7
100
AcDbLine
 10
640.0972145368664
 20
-404.5351213256957
 30
0.0
 11
641.0623735007111
 21
-402.8634169629364
 31
0.0
  0
LINE
  5
B6
102
{ACAD_REACTORS
330
119
102
}
330
4A
100
AcDbEntity
  8
1
  6
Continuous
 62
     7
100
AcDbLine
 10
640.1664965691689
 20
-404.6551213256958
 30
0.0
 11
641.1316555330136
 21
-406.3268256884551
 31
0.0
  0
LINE
  5
B7
102
{ACAD_REACTORS
330
119
102
}
330
4A
100
AcDbEntity
  8
1
  6
Continuous
 62
     7
100
AcDbLine
 10
640.0972145368664
 20
-404.6951213256958
 30
0.0
 11
640.8623234816403
 21
-406.0203288913696
 31
0.0
  0
LINE
  5
B8
102
{ACAD_REACTORS
330
119
102
}
330
4A
100
AcDbEntity
  8
1
  6
Continuous
 62
     7
100
AcDbLine
 10
640.0972145368664
 20
-404.6951213256958
 30
0.0
 11
639.3321055920924
 21
-406.0203288913696
 31
0.0
  0
LINE
  5
B9
102
{ACAD_REACTORS
330
119
102
}
330
4A
100
AcDbEntity
  8
1
  6
Continuous
 62
     7
100
AcDbLine
 10
639.062773540719
 20
-406.3268256884551
 30
0.0
 11
640.0279325045638
 21
-404.6551213256958
 31
0.0
  0
LINE
  5
BA
102
{ACAD_REACTORS
330
11A
102
}
330
4A
100
AcDbEntity
  8
1
  6
Continuous
 62
     7
100
AcDbLine
 10
652.4012145368663
 20
-403.0151213256958
 30
0.0
 11
652.4012145368663
 21
-405.7351213256958
 31
0.0
  0
LINE
  5
BB
102
{ACAD_REACTORS
330
11A
102
}
330
4A
100
AcDbEntity
  8
1
  6
Continuous
 62
     7
100
AcDbLine
 10
651.9212145368665
 20
-403.0151213256958
 30
0.0
 11
652.4012145368663
 21
-403.0151213256958
 31
0.0
  0
LINE
  5
BC
102
{ACAD_REACTORS
330
11A
102
}
330
4A
100
AcDbEntity
  8
1
  6
Continuous
 62
     7
100
AcDbLine
 10
651.9212145368665
 20
-405.7351213256958
 30
0.0
 11
651.9212145368665
 21
-403.0151213256958
 31
0.0
  0
LINE
  5
BD
102
{ACAD_REACTORS
330
11A
102
}
330
4A
100
AcDbEntity
  8
1
  6
Continuous
 62
     7
100
AcDbLine
 10
650.0012145368662
 20
-406.2151213256958
 30
0.0
 11
650.0012145368662
 21
-403.4951213256958
 31
0.0
  0
LINE
  5
BE
102
{ACAD_REACTORS
330
11A
102
}
330
4A
100
AcDbEntity
  8
1
  6
Continuous
 62
     7
100
AcDbLine
 10
650.4812145368664
 20
-406.2151213256958
 30
0.0
 11
650.0012145368662
 21
-406.2151213256958
 31
0.0
  0
LINE
  5
BF
102
{ACAD_REACTORS
330
11A
102
}
330
4A
100
AcDbEntity
  8
1
  6
Continuous
 62
     7
100
AcDbLine
 10
650.4812145368664
 20
-403.4951213256958
 30
0.0
 11
650.4812145368664
 21
-406.2151213256958
 31
0.0
  0
LINE
  5
C0
102
{ACAD_REACTORS
330
11A
102
}
330
4A
100
AcDbEntity
  8
1
  6
Continuous
 62
     7
100
AcDbLine
 10
650.4812145368664
 20
-403.4951213256958
 30
0.0
 11
651.4772753987654
 21
-405.9176536287607
 31
0.0
  0
LINE
  5
C1
102
{ACAD_REACTORS
330
11A
102
}
330
4A
100
AcDbEntity
  8
1
  6
Continuous
 62
     7
100
AcDbLine
 10
651.9212145368665
 20
-405.7351213256958
 30
0.0
 11
650.9251536749673
 21
-403.3125890226309
 31
0.0
  0
LINE
  5
C2
102
{ACAD_REACTORS
330
11B
102
}
330
4A
100
AcDbEntity
  8
0
  6
Continuous
 62
     7
100
AcDbLine
 10
644.6172145368662
 20
-403.4951213256958
 30
0.0
 11
645.9372145368663
 21
-403.4951213256958
 31
0.0
  0
LINE
  5
C3
102
{ACAD_REACTORS
330
11B
102
}
330
4A
100
AcDbEntity
  8
0
  6
Continuous
 62
     7
100
AcDbLine
 10
645.1772145368664
 20
-404.3751213256958
 30
0.0
 11
644.6172145368662
 21
-404.3751213256958
 31
0.0
  0
LINE
  5
C4
102
{ACAD_REACTORS
330
11B
102
}
330
4A
100
AcDbEntity
  8
0
  6
Continuous
 62
     7
100
AcDbLine
 10
643.6972145368663
 20
-406.2151213256958
 30
0.0
 11
645.1772145368664
 21
-406.2151213256958
 31
0.0
  0
LINE
  5
C5
102
{ACAD_REACTORS
330
11B
102
}
330
4A
100
AcDbEntity
  8
0
  6
Continuous
 62
     7
100
AcDbLine
 10
643.6972145368663
 20
-405.7351213256958
 30
0.0
 11
643.6972145368663
 21
-406.2151213256958
 31
0.0
  0
LINE
  5
C6
102
{ACAD_REACTORS
330
11B
102
}
330
4A
100
AcDbEntity
  8
0
  6
Continuous
 62
     7
100
AcDbLine
 10
645.1772145368664
 20
-405.7351213256958
 30
0.0
 11
643.6972145368663
 21
-405.7351213256958
 31
0.0
  0
LINE
  5
C7
102
{ACAD_REACTORS
330
11B
102
}
330
4A
100
AcDbEntity
  8
0
  6
Continuous
 62
     7
100
AcDbLine
 10
644.6172145368662
 20
-404.8551213256957
 30
0.0
 11
645.1772145368664
 21
-404.8551213256957
 31
0.0
  0
LINE
  5
C8
102
{ACAD_REACTORS
330
11B
102
}
330
4A
100
AcDbEntity
  8
0
  6
Continuous
 62
     7
100
AcDbLine
 10
645.9372145368663
 20
-403.0151213256958
 30
0.0
 11
644.6172145368662
 21
-403.0151213256958
 31
0.0
  0
LINE
  5
C9
102
{ACAD_REACTORS
330
11B
102
}
330
4A
100
AcDbEntity
  8
0
  6
Continuous
 62
     7
100
AcDbLine
 10
645.9372145368663
 20
-403.4951213256958
 30
0.0
 11
645.9372145368663
 21
-403.0151213256958
 31
0.0
  0
LINE
  5
CA
102
{ACAD_REACTORS
330
11C
102
}
330
4A
100
AcDbEntity
  8
0
  6
Continuous
 62
     7
100
AcDbLine
 10
648.7692145368665
 20
-405.5751213256958
 30
0.0
 11
648.7692145368665
 21
-406.2151213256958
 31
0.0
  0
LINE
  5
CB
102
{ACAD_REACTORS
330
11C
102
}
330
4A
100
AcDbEntity
  8
0
  6
Continuous
 62
     7
100
AcDbLine
 10
647.3292145368662
 20
-405.5751213256958
 30
0.0
 11
648.7692145368665
 21
-405.5751213256958
 31
0.0
  0
LINE
  5
CC
102
{ACAD_REACTORS
330
11C
102
}
330
4A
100
AcDbEntity
  8
0
  6
Continuous
 62
     7
100
AcDbLine
 10
647.3292145368662
 20
-405.0951213256957
 30
0.0
 11
647.3292145368662
 21
-404.2151213256958
 31
0.0
  0
LINE
  5
CD
102
{ACAD_REACTORS
330
11C
102
}
330
4A
100
AcDbEntity
  8
0
  6
Continuous
 62
     7
100
AcDbLine
 10
647.3292145368662
 20
-405.0951213256957
 30
0.0
 11
648.7692145368665
 21
-405.0951213256957
 31
0.0
  0
LINE
  5
CE
102
{ACAD_REACTORS
330
11C
102
}
330
4A
100
AcDbEntity
  8
0
  6
Continuous
 62
     7
100
AcDbLine
 10
646.8492145368662
 20
-406.2151213256958
 30
0.0
 11
647.3292145368662
 21
-406.2151213256958
 31
0.0
  0
LINE
  5
CF
102
{ACAD_REACTORS
330
11C
102
}
330
4A
100
AcDbEntity
  8
0
  6
Continuous
 62
     7
100
AcDbLine
 10
646.8492145368662
 20
-404.2151213256958
 30
0.0
 11
646.8492145368662
 21
-406.2151213256958
 31
0.0
  0
LINE
  5
D0
102
{ACAD_REACTORS
330
11C
102
}
330
4A
100
AcDbEntity
  8
0
  6
Continuous
 62
     7
100
AcDbLine
 10
649.2492145368662
 20
-406.2151213256958
 30
0.0
 11
649.2492145368662
 21
-404.2151213256958
 31
0.0
  0
LINE
  5
D1
102
{ACAD_REACTORS
330
11C
102
}
330
4A
100
AcDbEntity
  8
0
  6
Continuous
 62
     7
100
AcDbLine
 10
648.7692145368665
 20
-406.2151213256958
 30
0.0
 11
649.2492145368662
 21
-406.2151213256958
 31
0.0
  0
LINE
  5
D2
102
{ACAD_REACTORS
330
11C
102
}
330
4A
100
AcDbEntity
  8
0
  6
Continuous
 62
     7
100
AcDbLine
 10
648.7692145368665
 20
-404.2151213256958
 30
0.0
 11
648.7692145368665
 21
-405.0951213256957
 31
0.0
  0
LINE
  5
D3
102
{ACAD_REACTORS
330
11C
102
}
330
4A
100
AcDbEntity
  8
0
  6
Continuous
 62
     7
100
AcDbLine
 10
647.3292145368662
 20
-406.2151213256958
 30
0.0
 11
647.3292145368662
 21
-405.5751213256958
 31
0.0
  0
LINE
  5
D4
102
{ACAD_REACTORS
330
11D
102
}
330
4A
100
AcDbEntity
  8
0
  6
Continuous
 62
     7
100
AcDbLine
 10
653.1532145368665
 20
-404.3351213256958
 30
0.0
 11
653.1532145368665
 21
-404.8951213256958
 31
0.0
  0
LINE
  5
D5
102
{ACAD_REACTORS
330
11D
102
}
330
4A
100
AcDbEntity
  8
0
  6
Continuous
 62
     7
100
AcDbLine
 10
654.7532145368662
 20
-404.3351213256958
 30
0.0
 11
653.1532145368665
 21
-404.3351213256958
 31
0.0
  0
LINE
  5
D6
102
{ACAD_REACTORS
330
11D
102
}
330
4A
100
AcDbEntity
  8
0
  6
Continuous
 62
     7
100
AcDbLine
 10
654.7532145368662
 20
-404.8951213256958
 30
0.0
 11
654.7532145368662
 21
-404.3351213256958
 31
0.0
  0
LINE
  5
D7
102
{ACAD_REACTORS
330
11D
102
}
330
4A
100
AcDbEntity
  8
0
  6
Continuous
 62
     7
100
AcDbLine
 10
653.1532145368665
 20
-404.8951213256958
 30
0.0
 11
654.7532145368662
 21
-404.8951213256958
 31
0.0
  0
LINE
  5
D8
102
{ACAD_REACTORS
330
118
102
}
330
4A
100
AcDbEntity
  8
0
  6
Continuous
 62
     7
100
AcDbLine
 10
657.9052145368662
 20
-406.2151213256958
 30
0.0
 11
655.9052145368662
 21
-406.2151213256958
 31
0.0
  0
LINE
  5
D9
102
{ACAD_REACTORS
330
118
102
}
330
4A
100
AcDbEntity
  8
0
  6
Continuous
 62
     7
100
AcDbLine
 10
655.5052145368663
 20
-405.8151213256958
 30
0.0
 11
655.5052145368663
 21
-403.4151213256957
 31
0.0
  0
LINE
  5
DA
102
{ACAD_REACTORS
330
118
102
}
330
4A
100
AcDbEntity
  8
0
  6
Continuous
 62
     7
100
AcDbLine
 10
657.9052145368662
 20
-403.0151213256958
 30
0.0
 11
655.9052145368662
 21
-403.0151213256958
 31
0.0
  0
LINE
  5
DB
102
{ACAD_REACTORS
330
118
102
}
330
4A
100
AcDbEntity
  8
0
  6
Continuous
 62
     7
100
AcDbLine
 10
657.9052145368662
 20
-403.4951213256958
 30
0.0
 11
657.9052145368662
 21
-403.0151213256958
 31
0.0
  0
LINE
  5
DC
102
{ACAD_REACTORS
330
118
102
}
330
4A
100
AcDbEntity
  8
0
  6
Continuous
 62
     7
100
AcDbLine
 10
657.9052145368662
 20
-403.4951213256958
 30
0.0
 11
656.1452145368664
 21
-403.4951213256958
 31
0.0
  0
LINE
  5
DD
102
{ACAD_REACTORS
330
118
102
}
330
4A
100
AcDbEntity
  8
0
  6
Continuous
 62
     7
100
AcDbLine
 10
655.9852145368664
 20
-403.6551213256958
 30
0.0
 11
655.9852145368664
 21
-404.3751213256958
 31
0.0
  0
LINE
  5
DE
102
{ACAD_REACTORS
330
118
102
}
330
4A
100
AcDbEntity
  8
0
  6
Continuous
 62
     7
100
AcDbLine
 10
657.9052145368662
 20
-404.3751213256958
 30
0.0
 11
655.9852145368664
 21
-404.3751213256958
 31
0.0
  0
LINE
  5
DF
102
{ACAD_REACTORS
330
118
102
}
330
4A
100
AcDbEntity
  8
0
  6
Continuous
 62
     7
100
AcDbLine
 10
657.9052145368662
 20
-404.8551213256957
 30
0.0
 11
657.9052145368662
 21
-404.3751213256958
 31
0.0
  0
LINE
  5
E0
102
{ACAD_REACTORS
330
118
102
}
330
4A
100
AcDbEntity
  8
0
  6
Continuous
 62
     7
100
AcDbLine
 10
657.9052145368662
 20
-404.8551213256957
 30
0.0
 11
655.9852145368664
 21
-404.8551213256957
 31
0.0
  0
LINE
  5
E1
102
{ACAD_REACTORS
330
118
102
}
330
4A
100
AcDbEntity
  8
0
  6
Continuous
 62
     7
100
AcDbLine
 10
655.9852145368664
 20
-404.8551213256957
 30
0.0
 11
655.9852145368664
 21
-405.5751213256958
 31
0.0
  0
LINE
  5
E2
102
{ACAD_REACTORS
330
118
102
}
330
4A
100
AcDbEntity
  8
0
  6
Continuous
 62
     7
100
AcDbLine
 10
657.9052145368662
 20
-405.7351213256958
 30
0.0
 11
656.1452145368664
 21
-405.7351213256958
 31
0.0
  0
LINE
  5
E3
102
{ACAD_REACTORS
330
118
102
}
330
4A
100
AcDbEntity
  8
0
  6
Continuous
 62
     7
100
AcDbLine
 10
657.9052145368662
 20
-406.2151213256958
 30
0.0
 11
657.9052145368662
 21
-405.7351213256958
 31
0.0
  0
LINE
  5
E4
102
{ACAD_REACTORS
330
11E
102
}
330
4A
100
AcDbEntity
  8
0
  6
Continuous
 62
     7
100
AcDbLine
 10
658.6572145368661
 20
-403.0151213256958
 30
0.0
 11
658.6572145368661
 21
-406.2151213256958
 31
0.0
  0
LINE
  5
E5
102
{ACAD_REACTORS
330
11E
102
}
330
4A
100
AcDbEntity
  8
0
  6
Continuous
 62
     7
100
AcDbLine
 10
659.2972145368662
 20
-403.0151213256958
 30
0.0
 11
658.6572145368661
 21
-403.0151213256958
 31
0.0
  0
LINE
  5
E6
102
{ACAD_REACTORS
330
11E
102
}
330
4A
100
AcDbEntity
  8
0
  6
Continuous
 62
     7
100
AcDbLine
 10
659.2972145368662
 20
-406.2151213256958
 30
0.0
 11
659.2972145368662
 21
-403.0151213256958
 31
0.0
  0
LINE
  5
E7
102
{ACAD_REACTORS
330
11E
102
}
330
4A
100
AcDbEntity
  8
0
  6
Continuous
 62
     7
100
AcDbLine
 10
658.6572145368661
 20
-406.2151213256958
 30
0.0
 11
659.2972145368662
 21
-406.2151213256958
 31
0.0
  0
LINE
  5
E8
330
4A
100
AcDbEntity
  8
0
  6
Continuous
 62
     7
100
AcDbLine
 10
502.1972145368663
 20
-387.1151213256957
 30
0.0
 11
672.1972145368663
 21
-387.1151213256957
 31
0.0
  0
ARC
  5
E9
102
{ACAD_REACTORS
330
119
102
}
330
4A
100
AcDbEntity
  8
1
  6
Continuous
 62
     7
100
AcDbCircle
 10
640.0972145368664
 20
-404.6151213256957
 30
0.0
 40
1.999999999999834
100
AcDbArc
 50
301.1459919983845
 51
358.854008001609
  0
ARC
  5
EA
102
{ACAD_REACTORS
330
119
102
}
330
4A
100
AcDbEntity
  8
1
  6
Continuous
 62
     7
100
AcDbCircle
 10
640.0972145368664
 20
-404.6151213256957
 30
0.0
 40
1.999999999999887
100
AcDbArc
 50
181.1459919983909
 51
238.8540080016099
  0
ARC
  5
EB
102
{ACAD_REACTORS
330
119
102
}
330
4A
100
AcDbEntity
  8
1
  6
Continuous
 62
     7
100
AcDbCircle
 10
640.0972145368664
 20
-404.6151213256957
 30
0.0
 40
1.999999999999953
100
AcDbArc
 50
61.1459919983848
 51
118.8540080016209
  0
ARC
  5
EC
102
{ACAD_REACTORS
330
119
102
}
330
4A
100
AcDbEntity
  8
1
  6
Continuous
 62
     7
100
AcDbCircle
 10
640.0972145368664
 20
-404.6151213256957
 30
0.0
 40
1.599999999999931
100
AcDbArc
 50
121.432543737571
 51
178.5674562624368
  0
ARC
  5
ED
102
{ACAD_REACTORS
330
119
102
}
330
4A
100
AcDbEntity
  8
1
  6
Continuous
 62
     7
100
AcDbCircle
 10
640.0972145368664
 20
-404.6151213256957
 30
0.0
 40
1.679999999999973
100
AcDbArc
 50
121.3643141506704
 51
178.6356858493376
  0
ARC
  5
EE
102
{ACAD_REACTORS
330
119
102
}
330
4A
100
AcDbEntity
  8
1
  6
Continuous
 62
     7
100
AcDbCircle
 10
640.0972145368664
 20
-404.6151213256957
 30
0.0
 40
1.999999999999951
100
AcDbArc
 50
121.1459919983901
 51
178.854008001614
  0
ARC
  5
EF
102
{ACAD_REACTORS
330
119
102
}
330
4A
100
AcDbEntity
  8
1
  6
Continuous
 62
     7
100
AcDbCircle
 10
640.0972145368664
 20
-404.6151213256957
 30
0.0
 40
1.599999999999987
100
AcDbArc
 50
1.43254373756318
 51
58.56745626242902
  0
ARC
  5
F0
102
{ACAD_REACTORS
330
119
102
}
330
4A
100
AcDbEntity
  8
1
  6
Continuous
 62
     7
100
AcDbCircle
 10
640.0972145368664
 20
-404.6151213256957
 30
0.0
 40
1.680000000000045
100
AcDbArc
 50
1.36431415066261
 51
58.63568584933621
  0
ARC
  5
F1
102
{ACAD_REACTORS
330
119
102
}
330
4A
100
AcDbEntity
  8
1
  6
Continuous
 62
     7
100
AcDbCircle
 10
640.0972145368664
 20
-404.6151213256957
 30
0.0
 40
1.999999999999656
100
AcDbArc
 50
1.14599199838612
 51
58.8540080016155
  0
ARC
  5
F2
102
{ACAD_REACTORS
330
119
102
}
330
4A
100
AcDbEntity
  8
1
  6
Continuous
 62
     7
100
AcDbCircle
 10
640.0972145368664
 20
-404.6151213256957
 30
0.0
 40
2.000000000000212
100
AcDbArc
 50
241.1459919983814
 51
298.8540080016128
  0
ARC
  5
F3
102
{ACAD_REACTORS
330
119
102
}
330
4A
100
AcDbEntity
  8
1
  6
Continuous
 62
     7
100
AcDbCircle
 10
640.0972145368664
 20
-404.6151213256957
 30
0.0
 40
1.68000000000012
100
AcDbArc
 50
241.3643141506612
 51
298.6356858493251
  0
ARC
  5
F4
102
{ACAD_REACTORS
330
119
102
}
330
4A
100
AcDbEntity
  8
1
  6
Continuous
 62
     7
100
AcDbCircle
 10
640.0972145368664
 20
-404.6151213256957
 30
0.0
 40
1.600000000000128
100
AcDbArc
 50
241.4325437375631
 51
298.5674562624298
  0
ARC
  5
F5
102
{ACAD_REACTORS
330
11A
102
}
330
4A
100
AcDbEntity
  8
1
  6
Continuous
 62
     7
100
AcDbCircle
 10
651.9212145368665
 20
-405.7351213256958
 30
0.0
 40
0.4800000000001287
100
AcDbArc
 50
202.3507569419077
 51
0.0
  0
ARC
  5
F6
102
{ACAD_REACTORS
330
11A
102
}
330
4A
100
AcDbEntity
  8
1
  6
Continuous
 62
     7
100
AcDbCircle
 10
650.4812145368664
 20
-403.4951213256958
 30
0.0
 40
0.4799999999998967
100
AcDbArc
 50
22.35075694191173
 51
180.0
  0
ARC
  5
F7
102
{ACAD_REACTORS
330
11B
102
}
330
4A
100
AcDbEntity
  8
0
  6
Continuous
 62
     7
100
AcDbCircle
 10
644.6172145368662
 20
-403.9351213256957
 30
0.0
 40
0.4399999999999409
100
AcDbArc
 50
90.0
 51
270.0
  0
ARC
  5
F8
102
{ACAD_REACTORS
330
11B
102
}
330
4A
100
AcDbEntity
  8
0
  6
Continuous
 62
     7
100
AcDbCircle
 10
645.1772145368664
 20
-405.2951213256956
 30
0.0
 40
0.9200000000001864
100
AcDbArc
 50
270.0
 51
90.0
  0
ARC
  5
F9
102
{ACAD_REACTORS
330
11B
102
}
330
4A
100
AcDbEntity
  8
0
  6
Continuous
 62
     7
100
AcDbCircle
 10
645.1772145368664
 20
-405.2951213256956
 30
0.0
 40
0.4400000000001683
100
AcDbArc
 50
270.0
 51
90.0
  0
ARC
  5
FA
102
{ACAD_REACTORS
330
11B
102
}
330
4A
100
AcDbEntity
  8
0
  6
Continuous
 62
     7
100
AcDbCircle
 10
644.6172145368662
 20
-403.9351213256957
 30
0.0
 40
0.9199999999999022
100
AcDbArc
 50
90.0
 51
270.0
  0
ARC
  5
FB
102
{ACAD_REACTORS
330
11C
102
}
330
4A
100
AcDbEntity
  8
0
  6
Continuous
 62
     7
100
AcDbCircle
 10
648.0492145368662
 20
-404.2151213256958
 30
0.0
 40
1.200000000000045
100
AcDbArc
 50
0.0
 51
180.0
  0
ARC
  5
FC
102
{ACAD_REACTORS
330
11C
102
}
330
4A
100
AcDbEntity
  8
0
  6
Continuous
 62
     7
100
AcDbCircle
 10
648.0492145368662
 20
-404.2151213256958
 30
0.0
 40
0.7200000000002547
100
AcDbArc
 50
0.0
 51
180.0
  0
CIRCLE
  5
FD
102
{ACAD_REACTORS
330
117
102
}
330
4A
100
AcDbEntity
  8
1
  6
Continuous
 62
     7
100
AcDbCircle
 10
640.0972145368664
 20
-404.6151213256957
 30
0.0
 40
2.479999999999905
  0
CIRCLE
  5
FE
102
{ACAD_REACTORS
330
117
102
}
330
4A
100
AcDbEntity
  8
1
  6
Continuous
 62
     7
100
AcDbCircle
 10
640.0972145368664
 20
-404.6151213256957
 30
0.0
 40
2.39999999999992
  0
CIRCLE
  5
FF
102
{ACAD_REACTORS
330
119
102
}
330
4A
100
AcDbEntity
  8
1
  6
Continuous
 62
     7
100
AcDbCircle
 10
640.0972145368664
 20
-404.6151213256957
 30
0.0
 40
2.080000000000041
  0
ARC
  5
100
102
{ACAD_REACTORS
330
118
102
}
330
4A
100
AcDbEntity
  8
1
  6
Continuous
 62
     7
100
AcDbCircle
 10
656.1452145368664
 20
-403.6551213256958
 30
0.0
 40
0.160000000000025
100
AcDbArc
 50
90.0
 51
180.0
  0
ARC
  5
101
102
{ACAD_REACTORS
330
118
102
}
330
4A
100
AcDbEntity
  8
1
  6
Continuous
 62
     7
100
AcDbCircle
 10
656.1452145368664
 20
-405.5751213256958
 30
0.0
 40
0.1600000000000819
100
AcDbArc
 50
180.0
 51
270.0
  0
ARC
  5
102
102
{ACAD_REACTORS
330
118
102
}
330
4A
100
AcDbEntity
  8
1
  6
Continuous
 62
     7
100
AcDbCircle
 10
655.9052145368662
 20
-405.8151213256958
 30
0.0
 40
0.3999999999998636
100
AcDbArc
 50
180.0
 51
270.0
  0
ARC
  5
103
102
{ACAD_REACTORS
330
118
102
}
330
4A
100
AcDbEntity
  8
1
  6
Continuous
 62
     7
100
AcDbCircle
 10
655.9052145368662
 20
-403.4151213256957
 30
0.0
 40
0.3999999999998636
100
AcDbArc
 50
90.0
 51
180.0
  0
MTEXT
  5
104
330
4A
100
AcDbEntity
  8
1
 62
     2
100
AcDbMText
 10
504.6972145368663
 20
-147.1151213256955
 30
0.0
 40
4.5
 41
0.0
 71
     5
 72
     1
  1
図番
  7
CONVERTER_11
 73
     1
 44
0.54545454545455
  0
MTEXT
  5
105
330
4A
100
AcDbEntity
  8
1
 62
     2
100
AcDbMText
 10
658.3385889629656
 20
-411.6151213256957
 30
0.0
 40
3.0
 41
0.0
 71
     5
 72
     1
  1
三栄水栓製作所
  7
CONVERTER_11
 73
     1
 44
1.0
  0
MTEXT
  5
106
330
4A
100
AcDbEntity
  8
1
 62
     2
100
AcDbMText
 10
641.0558401107669
 20
-411.6151213256957
 30
0.0
 40
2.5
 41
0.0
 71
     5
 72
     1
  1
株式会社
  7
CONVERTER_11
 73
     1
 44
1.0
  0
MTEXT
  5
107
330
4A
100
AcDbEntity
  8
1
 62
     2
100
AcDbMText
 10
624.6972145368663
 20
-411.6151213256957
 30
0.0
 40
4.0
 41
0.0
 71
     5
 72
     1
  1
計
  7
CONVERTER_11
 73
     1
 44
1.0
  0
MTEXT
  5
108
330
4A
100
AcDbEntity
  8
1
 62
     2
100
AcDbMText
 10
624.6972145368663
 20
-404.6151213256957
 30
0.0
 40
4.0
 41
0.0
 71
     5
 72
     1
  1
設
  7
CONVERTER_11
 73
     1
 44
1.0
  0
MTEXT
  5
109
330
4A
100
AcDbEntity
  8
1
 62
     2
100
AcDbMText
 10
611.6972145368663
 20
-411.6151213256957
 30
0.0
 40
4.0
 41
0.0
 71
     5
 72
     1
  1
図
  7
CONVERTER_11
 73
     1
 44
1.0
  0
MTEXT
  5
10A
330
4A
100
AcDbEntity
  8
1
 62
     2
100
AcDbMText
 10
611.6972145368663
 20
-404.6151213256957
 30
0.0
 40
4.0
 41
0.0
 71
     5
 72
     1
  1
製
  7
CONVERTER_11
 73
     1
 44
1.0
  0
MTEXT
  5
10B
330
4A
100
AcDbEntity
  8
1
 62
     2
100
AcDbMText
 10
598.6972145368663
 20
-411.6151213256957
 30
0.0
 40
4.0
 41
0.0
 71
     5
 72
     1
  1
図
  7
CONVERTER_11
 73
     1
 44
1.0
  0
MTEXT
  5
10C
330
4A
100
AcDbEntity
  8
1
 62
     2
100
AcDbMText
 10
598.6972145368663
 20
-404.6151213256957
 30
0.0
 40
4.0
 41
0.0
 71
     5
 72
     1
  1
検
  7
CONVERTER_11
 73
     1
 44
1.0
  0
MTEXT
  5
10D
330
4A
100
AcDbEntity
  8
1
 62
     2
100
AcDbMText
 10
585.6972145368663
 20
-411.6151213256957
 30
0.0
 40
4.0
 41
0.0
 71
     5
 72
     1
  1
認
  7
CONVERTER_11
 73
     1
 44
1.0
  0
MTEXT
  5
10E
330
4A
100
AcDbEntity
  8
1
 62
     2
100
AcDbMText
 10
585.6972145368663
 20
-404.6151213256957
 30
0.0
 40
4.0
 41
0.0
 71
     5
 72
     1
  1
承
  7
CONVERTER_11
 73
     1
 44
1.0
  0
MTEXT
  5
10F
330
4A
100
AcDbEntity
  8
1
 62
     2
100
AcDbMText
 10
571.6972145368663
 20
-411.6151213256957
 30
0.0
 40
4.0
 41
0.0
 71
     5
 72
     1
  1
度
  7
CONVERTER_11
 73
     1
 44
1.0
  0
MTEXT
  5
110
330
4A
100
AcDbEntity
  8
1
 62
     2
100
AcDbMText
 10
571.6972145368663
 20
-404.6151213256957
 30
0.0
 40
4.0
 41
0.0
 71
     5
 72
     1
  1
尺
  7
CONVERTER_11
 73
     1
 44
1.0
  0
MTEXT
  5
111
330
4A
100
AcDbEntity
  8
1
 62
     2
100
AcDbMText
 10
544.6972145368663
 20
-411.6151213256957
 30
0.0
 40
4.0
 41
0.0
 71
     5
 72
     1
  1
番
  7
CONVERTER_11
 73
     1
 44
1.0
  0
MTEXT
  5
112
330
4A
100
AcDbEntity
  8
1
 62
     2
100
AcDbMText
 10
544.6972145368663
 20
-404.6151213256957
 30
0.0
 40
4.0
 41
0.0
 71
     5
 72
     1
  1
品
  7
CONVERTER_11
 73
     1
 44
1.0
  0
MTEXT
  5
113
330
4A
100
AcDbEntity
  8
1
 62
     2
100
AcDbMText
 10
499.6972145368663
 20
-411.6151213256957
 30
0.0
 40
4.0
 41
0.0
 71
     5
 72
     1
  1
名
  7
CONVERTER_11
 73
     1
 44
1.0
  0
MTEXT
  5
114
330
4A
100
AcDbEntity
  8
1
 62
     2
100
AcDbMText
 10
499.6972145368663
 20
-404.6151213256957
 30
0.0
 40
4.0
 41
0.0
 71
     5
 72
     1
  1
品
  7
CONVERTER_11
 73
     1
 44
1.0
  0
MTEXT
  5
115
330
4A
100
AcDbEntity
  8
1
 62
     2
100
AcDbMText
 10
499.6972145368663
 20
-390.6151213256957
 30
0.0
 40
4.0
 41
0.0
 71
     5
 72
     1
  1
備
  7
CONVERTER_11
 73
     1
 44
1.0
  0
MTEXT
  5
116
330
4A
100
AcDbEntity
  8
1
 62
     2
100
AcDbMText
 10
499.6972145368663
 20
-397.6151213256957
 30
0.0
 40
4.0
 41
0.0
 71
     5
 72
     1
  1
考
  7
CONVERTER_11
 73
     1
 44
1.0
  0
HATCH
  5
117
330
4A
100
AcDbEntity
  8
1
  6
Continuous
 62
     2
100
AcDbHatch
 10
0.0
 20
0.0
 30
0.0
210
0.0
220
0.0
230
1.0
  2
_USER
 70
     0
 71
     1
 91
        2
 92
        1
 93
        1
 72
     2
 10
640.0972145368664
 20
-404.6151213256957
 40
2.479999999999905
 50
0.0
 51
360.0
 73
     1
 97
        1
330
FD
 92
       16
 93
        1
 72
     2
 10
640.0972145368664
 20
-404.6151213256957
 40
2.39999999999992
 50
0.0
 51
360.0
 73
     1
 97
        1
330
FE
 75
     1
 76
     0
 52
45.0
 41
0.2
 77
     0
 78
     1
 53
45.0
 43
0.0
 44
0.0
 45
-0.1414213562373095
 46
0.1414213562373095
 79
     0
 98
        1
 10
0.0
 20
0.0
  0
HATCH
  5
118
330
4A
100
AcDbEntity
  8
0
  6
Continuous
 62
     2
100
AcDbHatch
 10
0.0
 20
0.0
 30
0.0
210
0.0
220
0.0
230
1.0
  2
_USER
 70
     0
 71
     1
 91
        1
 92
        1
 93
       16
 72
     1
 10
657.9052145368662
 20
-403.0151213256958
 11
655.9052145368662
 21
-403.0151213256958
 72
     2
 10
655.9052145368662
 20
-403.4151213256957
 40
0.3999999999998636
 50
90.0
 51
180.0
 73
     1
 72
     1
 10
655.5052145368663
 20
-403.4151213256957
 11
655.5052145368663
 21
-405.8151213256958
 72
     2
 10
655.9052145368662
 20
-405.8151213256958
 40
0.3999999999998636
 50
180.0
 51
270.0
 73
     1
 72
     1
 10
655.9052145368662
 20
-406.2151213256958
 11
657.9052145368662
 21
-406.2151213256958
 72
     1
 10
657.9052145368662
 20
-406.2151213256958
 11
657.9052145368662
 21
-405.7351213256958
 72
     1
 10
657.9052145368662
 20
-405.7351213256958
 11
656.1452145368664
 21
-405.7351213256958
 72
     2
 10
656.1452145368664
 20
-405.5751213256958
 40
0.1600000000000819
 50
90.0
 51
180.0
 73
     0
 72
     1
 10
655.9852145368664
 20
-405.5751213256958
 11
655.9852145368664
 21
-404.8551213256957
 72
     1
 10
655.9852145368664
 20
-404.8551213256957
 11
657.9052145368662
 21
-404.8551213256957
 72
     1
 10
657.9052145368662
 20
-404.8551213256957
 11
657.9052145368662
 21
-404.3751213256958
 72
     1
 10
657.9052145368662
 20
-404.3751213256958
 11
655.9852145368664
 21
-404.3751213256958
 72
     1
 10
655.9852145368664
 20
-404.3751213256958
 11
655.9852145368664
 21
-403.6551213256958
 72
     2
 10
656.1452145368664
 20
-403.6551213256958
 40
0.160000000000025
 50
180.0
 51
270.0
 73
     0
 72
     1
 10
656.1452145368664
 20
-403.4951213256958
 11
657.9052145368662
 21
-403.4951213256958
 72
     1
 10
657.9052145368662
 20
-403.4951213256958
 11
657.9052145368662
 21
-403.0151213256958
 97
       16
330
DA
330
103
330
D9
330
102
330
D8
330
E3
330
E2
330
101
330
E1
330
E0
330
DF
330
DE
330
DD
330
100
330
DC
330
DB
 75
     1
 76
     0
 52
45.0
 41
0.2
 77
     0
 78
     1
 53
45.0
 43
0.0
 44
0.0
 45
-0.1414213562373095
 46
0.1414213562373095
 79
     0
 98
        1
 10
0.0
 20
0.0
  0
HATCH
  5
119
330
4A
100
AcDbEntity
  8
1
  6
Continuous
 62
     2
100
AcDbHatch
 10
0.0
 20
0.0
 30
0.0
210
0.0
220
0.0
230
1.0
  2
_USER
 70
     0
 71
     1
 91
       10
 92
        1
 93
        1
 72
     2
 10
640.0972145368664
 20
-404.6151213256957
 40
2.080000000000041
 50
0.0
 51
360.0
 73
     1
 97
        1
330
FF
 92
       16
 93
        3
 72
     2
 10
640.0972145368664
 20
-404.6151213256957
 40
1.999999999999834
 50
301.1459919983845
 51
358.854008001609
 73
     1
 72
     1
 10
642.0968144968581
 20
-404.6551213256958
 11
640.1664965691689
 21
-404.6551213256958
 72
     1
 10
640.1664965691689
 20
-404.6551213256958
 11
641.1316555330136
 21
-406.3268256884551
 97
        3
330
E9
330
B2
330
B6
 92
       16
 93
        3
 72
     2
 10
640.0972145368664
 20
-404.6151213256957
 40
1.999999999999887
 50
181.1459919983909
 51
238.8540080016099
 73
     1
 72
     1
 10
639.062773540719
 20
-406.3268256884551
 11
640.0279325045638
 21
-404.6551213256958
 72
     1
 10
640.0279325045638
 20
-404.6551213256958
 11
638.0976145768745
 21
-404.6551213256958
 97
        3
330
EA
330
B9
330
B1
 92
       16
 93
        3
 72
     2
 10
640.0972145368664
 20
-404.6151213256957
 40
1.999999999999953
 50
61.1459919983848
 51
118.8540080016209
 73
     1
 72
     1
 10
639.1320555730215
 20
-402.8634169629364
 11
640.0972145368664
 21
-404.5351213256957
 72
     1
 10
640.0972145368664
 20
-404.5351213256957
 11
641.0623735007111
 21
-402.8634169629364
 97
        3
330
EB
330
AE
330
B5
 92
       16
 93
        3
 72
     2
 10
640.0972145368664
 20
-404.6151213256957
 40
1.599999999999931
 50
121.432543737571
 51
178.5674562624368
 73
     1
 72
     1
 10
638.4977146150159
 20
-404.5751213256958
 11
640.0279325045638
 21
-404.5751213256958
 72
     1
 10
640.0279325045638
 20
-404.5751213256958
 11
639.2628235597897
 21
-403.249913760022
 97
        3
330
EC
330
B0
330
AF
 92
       16
 93
        4
 72
     2
 10
640.0972145368664
 20
-404.6151213256957
 40
1.999999999999951
 50
121.1459919983901
 51
178.854008001614
 73
     1
 72
     1
 10
638.0976145768745
 20
-404.5751213256958
 11
638.4176907948488
 21
-404.5751213256958
 72
     2
 10
640.0972145368664
 20
-404.6151213256957
 40
1.679999999999973
 50
181.3643141506624
 51
238.6356858493296
 73
     0
 72
     1
 10
639.2228116497063
 20
-403.1806110988497
 11
639.062773540719
 21
-402.9034169629364
 97
        4
330
EE
330
AD
330
ED
330
AC
 92
       16
 93
        3
 72
     2
 10
640.0972145368664
 20
-404.6151213256957
 40
1.599999999999987
 50
1.43254373756318
 51
58.56745626242902
 73
     1
 72
     1
 10
640.9316055139432
 20
-403.249913760022
 11
640.1664965691689
 21
-404.5751213256958
 72
     1
 10
640.1664965691689
 20
-404.5751213256958
 11
641.696714458717
 21
-404.5751213256958
 97
        3
330
EF
330
B4
330
B3
 92
       16
 93
        4
 72
     2
 10
640.0972145368664
 20
-404.6151213256957
 40
1.999999999999656
 50
1.145991998386118
 51
58.8540080016155
 73
     1
 72
     1
 10
641.1316555330136
 20
-402.9034169629364
 11
640.9716174240264
 21
-403.1806110988497
 72
     2
 10
640.0972145368664
 20
-404.6151213256957
 40
1.680000000000045
 50
301.3643141506638
 51
358.6356858493374
 73
     0
 72
     1
 10
641.7767382788838
 20
-404.5751213256958
 11
642.0968144968581
 21
-404.5751213256958
 97
        4
330
F1
330
A8
330
F0
330
A9
 92
       16
 93
        4
 72
     2
 10
640.0972145368664
 20
-404.6151213256957
 40
1.68000000000012
 50
241.3643141506612
 51
298.6356858493251
 73
     1
 72
     1
 10
640.9023353917235
 20
-406.0896315525419
 11
641.0623735007111
 21
-406.3668256884552
 72
     2
 10
640.0972145368664
 20
-404.6151213256957
 40
2.000000000000212
 50
61.14599199838717
 51
118.8540080016185
 73
     0
 72
     1
 10
639.1320555730215
 20
-406.3668256884552
 11
639.292093682009
 21
-406.0896315525419
 97
        4
330
F3
330
AA
330
F2
330
AB
 92
       16
 93
        3
 72
     2
 10
640.0972145368664
 20
-404.6151213256957
 40
1.600000000000128
 50
241.4325437375631
 51
298.5674562624298
 73
     1
 72
     1
 10
640.8623234816403
 20
-406.0203288913696
 11
640.0972145368664
 21
-404.6951213256958
 72
     1
 10
640.0972145368664
 20
-404.6951213256958
 11
639.3321055920924
 21
-406.0203288913696
 97
        3
330
F4
330
B7
330
B8
 75
     1
 76
     0
 52
45.0
 41
0.2
 77
     0
 78
     1
 53
45.0
 43
0.0
 44
0.0
 45
-0.1414213562373095
 46
0.1414213562373095
 79
     0
 98
        1
 10
0.0
 20
0.0
  0
HATCH
  5
11A
330
4A
100
AcDbEntity
  8
1
  6
Continuous
 62
     2
100
AcDbHatch
 10
0.0
 20
0.0
 30
0.0
210
0.0
220
0.0
230
1.0
  2
_USER
 70
     0
 71
     1
 91
        1
 92
        1
 93
       10
 72
     2
 10
650.4812145368664
 20
-403.4951213256958
 40
0.4799999999998967
 50
22.35075694191173
 51
180.0
 73
     1
 72
     1
 10
650.0012145368662
 20
-403.4951213256958
 11
650.0012145368662
 21
-406.2151213256958
 72
     1
 10
650.0012145368662
 20
-406.2151213256958
 11
650.4812145368664
 21
-406.2151213256958
 72
     1
 10
650.4812145368664
 20
-406.2151213256958
 11
650.4812145368664
 21
-403.4951213256958
 72
     1
 10
650.4812145368664
 20
-403.4951213256958
 11
651.4772753987654
 21
-405.9176536287607
 72
     2
 10
651.9212145368665
 20
-405.7351213256958
 40
0.4800000000001287
 50
202.3507569419077
 51
360.0
 73
     1
 72
     1
 10
652.4012145368663
 20
-405.7351213256958
 11
652.4012145368663
 21
-403.0151213256958
 72
     1
 10
652.4012145368663
 20
-403.0151213256958
 11
651.9212145368665
 21
-403.0151213256958
 72
     1
 10
651.9212145368665
 20
-403.0151213256958
 11
651.9212145368665
 21
-405.7351213256958
 72
     1
 10
651.9212145368665
 20
-405.7351213256958
 11
650.9251536749673
 21
-403.3125890226309
 97
       10
330
F6
330
BD
330
BE
330
BF
330
C0
330
F5
330
BA
330
BB
330
BC
330
C1
 75
     1
 76
     0
 52
45.0
 41
0.2
 77
     0
 78
     1
 53
45.0
 43
0.0
 44
0.0
 45
-0.1414213562373095
 46
0.1414213562373095
 79
     0
 98
        1
 10
0.0
 20
0.0
  0
HATCH
  5
11B
330
4A
100
AcDbEntity
  8
0
  6
Continuous
 62
     2
100
AcDbHatch
 10
0.0
 20
0.0
 30
0.0
210
0.0
220
0.0
230
1.0
  2
_USER
 70
     0
 71
     1
 91
        1
 92
        1
 93
       12
 72
     2
 10
644.6172145368662
 20
-403.9351213256957
 40
0.9199999999999022
 50
90.0
 51
270.0
 73
     1
 72
     1
 10
644.6172145368662
 20
-404.8551213256957
 11
645.1772145368664
 21
-404.8551213256957
 72
     2
 10
645.1772145368664
 20
-405.2951213256956
 40
0.4400000000001683
 50
270.0
 51
450.0
 73
     0
 72
     1
 10
645.1772145368664
 20
-405.7351213256958
 11
643.6972145368663
 21
-405.7351213256958
 72
     1
 10
643.6972145368663
 20
-405.7351213256958
 11
643.6972145368663
 21
-406.2151213256958
 72
     1
 10
643.6972145368663
 20
-406.2151213256958
 11
645.1772145368664
 21
-406.2151213256958
 72
     2
 10
645.1772145368664
 20
-405.2951213256956
 40
0.9200000000001864
 50
270.0
 51
450.0
 73
     1
 72
     1
 10
645.1772145368664
 20
-404.3751213256958
 11
644.6172145368662
 21
-404.3751213256958
 72
     2
 10
644.6172145368662
 20
-403.9351213256957
 40
0.4399999999999409
 50
90.0
 51
270.0
 73
     0
 72
     1
 10
644.6172145368662
 20
-403.4951213256958
 11
645.9372145368663
 21
-403.4951213256958
 72
     1
 10
645.9372145368663
 20
-403.4951213256958
 11
645.9372145368663
 21
-403.0151213256958
 72
     1
 10
645.9372145368663
 20
-403.0151213256958
 11
644.6172145368662
 21
-403.0151213256958
 97
       12
330
FA
330
C7
330
F9
330
C6
330
C5
330
C4
330
F8
330
C3
330
F7
330
C2
330
C9
330
C8
 75
     1
 76
     0
 52
45.0
 41
0.2
 77
     0
 78
     1
 53
45.0
 43
0.0
 44
0.0
 45
-0.1414213562373095
 46
0.1414213562373095
 79
     0
 98
        1
 10
0.0
 20
0.0
  0
HATCH
  5
11C
330
4A
100
AcDbEntity
  8
0
  6
Continuous
 62
     2
100
AcDbHatch
 10
0.0
 20
0.0
 30
0.0
210
0.0
220
0.0
230
1.0
  2
_USER
 70
     0
 71
     1
 91
        2
 92
        1
 93
        8
 72
     2
 10
648.0492145368662
 20
-404.2151213256958
 40
1.200000000000045
 50
0.0
 51
180.0
 73
     1
 72
     1
 10
646.8492145368662
 20
-404.2151213256958
 11
646.8492145368662
 21
-406.2151213256958
 72
     1
 10
646.8492145368662
 20
-406.2151213256958
 11
647.3292145368662
 21
-406.2151213256958
 72
     1
 10
647.3292145368662
 20
-406.2151213256958
 11
647.3292145368662
 21
-405.5751213256958
 72
     1
 10
647.3292145368662
 20
-405.5751213256958
 11
648.7692145368665
 21
-405.5751213256958
 72
     1
 10
648.7692145368665
 20
-405.5751213256958
 11
648.7692145368665
 21
-406.2151213256958
 72
     1
 10
648.7692145368665
 20
-406.2151213256958
 11
649.2492145368662
 21
-406.2151213256958
 72
     1
 10
649.2492145368662
 20
-406.2151213256958
 11
649.2492145368662
 21
-404.2151213256958
 97
        8
330
FB
330
CF
330
CE
330
D3
330
CB
330
CA
330
D1
330
D0
 92
       16
 93
        4
 72
     2
 10
648.0492145368662
 20
-404.2151213256958
 40
0.7200000000002547
 50
0.0
 51
180.0
 73
     1
 72
     1
 10
647.3292145368662
 20
-404.2151213256958
 11
647.3292145368662
 21
-405.0951213256957
 72
     1
 10
647.3292145368662
 20
-405.0951213256957
 11
648.7692145368665
 21
-405.0951213256957
 72
     1
 10
648.7692145368665
 20
-405.0951213256957
 11
648.7692145368665
 21
-404.2151213256958
 97
        4
330
FC
330
CC
330
CD
330
D2
 75
     1
 76
     0
 52
45.0
 41
0.2
 77
     0
 78
     1
 53
45.0
 43
0.0
 44
0.0
 45
-0.1414213562373095
 46
0.1414213562373095
 79
     0
 98
        1
 10
0.0
 20
0.0
  0
HATCH
  5
11D
330
4A
100
AcDbEntity
  8
0
  6
Continuous
 62
     2
100
AcDbHatch
 10
0.0
 20
0.0
 30
0.0
210
0.0
220
0.0
230
1.0
  2
_USER
 70
     0
 71
     1
 91
        1
 92
        1
 93
        4
 72
     1
 10
654.7532145368662
 20
-404.3351213256958
 11
653.1532145368665
 21
-404.3351213256958
 72
     1
 10
653.1532145368665
 20
-404.3351213256958
 11
653.1532145368665
 21
-404.8951213256958
 72
     1
 10
653.1532145368665
 20
-404.8951213256958
 11
654.7532145368662
 21
-404.8951213256958
 72
     1
 10
654.7532145368662
 20
-404.8951213256958
 11
654.7532145368662
 21
-404.3351213256958
 97
        4
330
D5
330
D4
330
D7
330
D6
 75
     1
 76
     0
 52
45.0
 41
0.2
 77
     0
 78
     1
 53
45.0
 43
0.0
 44
0.0
 45
-0.1414213562373095
 46
0.1414213562373095
 79
     0
 98
        1
 10
0.0
 20
0.0
  0
HATCH
  5
11E
330
4A
100
AcDbEntity
  8
0
  6
Continuous
 62
     2
100
AcDbHatch
 10
0.0
 20
0.0
 30
0.0
210
0.0
220
0.0
230
1.0
  2
_USER
 70
     0
 71
     1
 91
        1
 92
        1
 93
        4
 72
     1
 10
659.2972145368662
 20
-403.0151213256958
 11
658.6572145368661
 21
-403.0151213256958
 72
     1
 10
658.6572145368661
 20
-403.0151213256958
 11
658.6572145368661
 21
-406.2151213256958
 72
     1
 10
658.6572145368661
 20
-406.2151213256958
 11
659.2972145368662
 21
-406.2151213256958
 72
     1
 10
659.2972145368662
 20
-406.2151213256958
 11
659.2972145368662
 21
-403.0151213256958
 97
        4
330
E5
330
E4
330
E7
330
E6
 75
     1
 76
     0
 52
45.0
 41
0.2
 77
     0
 78
     1
 53
45.0
 43
0.0
 44
0.0
 45
-0.1414213562373095
 46
0.1414213562373095
 79
     0
 98
        1
 10
0.0
 20
0.0
  0
ENDBLK
  5
4C
330
4A
100
AcDbEntity
  8
0
100
AcDbBlockEnd
  0
BLOCK
  5
4F
330
4D
100
AcDbEntity
  8
0
100
AcDbBlockBegin
  2
開示縦HP-A4
 70
     0
 10
-62.7059013470507
 20
-509.3222993245242
 30
0.0
  3
開示縦HP-A4
  1

  0
INSERT
  5
4E
330
4D
100
AcDbEntity
  8
1
100
AcDbBlockReference
  2
組図HP-A4
 10
140.770692195488
 20
-417.137644946644
 30
0.0
  0
ENDBLK
  5
50
330
4D
100
AcDbEntity
  8
0
100
AcDbBlockEnd
  0
BLOCK
  5
52
330
51
100
AcDbEntity
  8
0
100
AcDbBlockBegin
  2
85-99
 70
     0
 10
403.785110095025
 20
-283.253715060939
 30
0.0
  3
85-99
  1

  0
LINE
  5
11F
330
51
100
AcDbEntity
  8
1
  6
Continuous
 62
     7
100
AcDbLine
 10
26.02001698080454
 20
-298.3202043352991
 30
0.0
 11
18.91821532521748
 21
-298.3202043352991
 31
0.0
  0
LINE
  5
120
330
51
100
AcDbEntity
  8
1
  6
Continuous
 62
     7
100
AcDbLine
 10
38.02001698080454
 20
-298.3202043352991
 30
0.0
 11
38.02001698080454
 21
-298.3302339419894
 31
0.0
  0
LINE
  5
121
330
51
100
AcDbEntity
  8
1
  6
Continuous
 62
     7
100
AcDbLine
 10
38.02001698080454
 20
-298.3202043352991
 30
0.0
 11
34.02001698080454
 21
-298.3202043352991
 31
0.0
  0
LINE
  5
122
330
51
100
AcDbEntity
  8
1
  6
Continuous
 62
     2
100
AcDbLine
 10
91.23864417907069
 20
-298.3202043352991
 30
0.0
 11
107.7613558209289
 21
-292.3202043352991
 31
0.0
  0
LINE
  5
123
330
51
100
AcDbEntity
  8
1
  6
Continuous
 62
     2
100
AcDbLine
 10
91.23864417907069
 20
-292.3202043352991
 30
0.0
 11
107.7613558209289
 21
-298.3202043352991
 31
0.0
  0
LINE
  5
124
330
51
100
AcDbEntity
  8
1
  6
Continuous
 62
     7
100
AcDbLine
 10
91.23864417907069
 20
-292.3202043352991
 30
0.0
 11
107.7613558209289
 21
-292.3202043352991
 31
0.0
  0
LINE
  5
125
330
51
100
AcDbEntity
  8
1
  6
Continuous
 62
     7
100
AcDbLine
 10
91.23864417907069
 20
-294.0234364737654
 30
0.0
 11
91.23864417907069
 21
-292.3202043352991
 31
0.0
  0
LINE
  5
126
330
51
100
AcDbEntity
  8
1
  6
Continuous
 62
     7
100
AcDbLine
 10
91.23864417907069
 20
-298.3202043352991
 30
0.0
 11
107.7613558209289
 21
-298.3202043352991
 31
0.0
  0
LINE
  5
127
330
51
100
AcDbEntity
  8
1
  6
Continuous
 62
     7
100
AcDbLine
 10
91.23864417907069
 20
-298.3202043352991
 30
0.0
 11
91.23864417907069
 21
-296.6169721968328
 31
0.0
  0
LINE
  5
128
330
51
100
AcDbEntity
  8
1
  6
Continuous
 62
     7
100
AcDbLine
 10
107.7613558209289
 20
-298.3202043352991
 30
0.0
 11
109.8628765816233
 21
-298.3202043352991
 31
0.0
  0
LINE
  5
129
330
51
100
AcDbEntity
  8
1
  6
Continuous
 62
     7
100
AcDbLine
 10
107.7613558209289
 20
-296.4902287426742
 30
0.0
 11
107.7613558209289
 21
-298.3202043352991
 31
0.0
  0
LINE
  5
12A
330
51
100
AcDbEntity
  8
1
  6
Continuous
 62
     7
100
AcDbLine
 10
107.7613558209289
 20
-292.3202043352991
 30
0.0
 11
109.8636675566145
 21
-292.3202043352991
 31
0.0
  0
LINE
  5
12B
330
51
100
AcDbEntity
  8
1
  6
Continuous
 62
     7
100
AcDbLine
 10
107.7613558209289
 20
-292.3202043352991
 30
0.0
 11
107.7613558209289
 21
-294.1501799279239
 31
0.0
  0
LINE
  5
12C
330
51
100
AcDbEntity
  8
1
  6
DASH_CENTER
 62
     2
100
AcDbLine
 10
83.81865823457287
 20
-295.3202043352991
 30
0.0
 11
93.49256268480809
 21
-295.3202043352991
 31
0.0
  0
LINE
  5
12D
330
51
100
AcDbEntity
  8
1
  6
DASH_CENTER
 62
     2
100
AcDbLine
 10
108.3925626848081
 20
-295.3202043352991
 30
0.0
 11
113.7636277431978
 21
-295.3202043352991
 31
0.0
  0
LINE
  5
12E
330
51
100
AcDbEntity
  8
1
  6
Continuous
 62
     7
100
AcDbLine
 10
88.02001698080454
 20
-292.3202043352991
 30
0.0
 11
88.02001698080454
 21
-287.3202043352991
 31
0.0
  0
LINE
  5
12F
330
51
100
AcDbEntity
  8
1
  6
Continuous
 62
     7
100
AcDbLine
 10
111.0200169808045
 20
-292.3202043352991
 30
0.0
 11
111.0200169808045
 21
-287.3202043352991
 31
0.0
  0
LINE
  5
130
330
51
100
AcDbEntity
  8
1
  6
Continuous
 62
     7
100
AcDbLine
 10
38.02001698080454
 20
-292.3202043352991
 30
0.0
 11
38.02001698080454
 21
-298.3202043352991
 31
0.0
  0
LINE
  5
131
330
51
100
AcDbEntity
  8
1
  6
Continuous
 62
     7
100
AcDbLine
 10
41.52001698080454
 20
-292.3202043352991
 30
0.0
 11
41.52001698080454
 21
-287.334846068428
 31
0.0
  0
LINE
  5
132
330
51
100
AcDbEntity
  8
1
  6
Continuous
 62
     7
100
AcDbLine
 10
41.52001698080454
 20
-292.3202043352991
 30
0.0
 11
18.91821532521748
 21
-292.3202043352991
 31
0.0
  0
LINE
  5
133
330
51
100
AcDbEntity
  8
1
  6
DASH_CENTER
 62
     2
100
AcDbLine
 10
93.49256268480809
 20
-295.3202043352991
 30
0.0
 11
108.3925626848081
 21
-295.3202043352991
 31
0.0
  0
LINE
  5
134
330
51
100
AcDbEntity
  8
1
  6
Continuous
 62
     7
100
AcDbLine
 10
89.15056140441533
 20
-298.3202043352991
 30
0.0
 11
91.23864417907069
 21
-298.3202043352991
 31
0.0
  0
LINE
  5
135
330
51
100
AcDbEntity
  8
1
  6
Continuous
 62
     7
100
AcDbLine
 10
18.91821532521748
 20
-292.3202043352991
 30
0.0
 11
18.91821532521748
 21
-298.3202043352991
 31
0.0
  0
LINE
  5
136
330
51
100
AcDbEntity
  8
1
  6
Continuous
 62
     7
100
AcDbLine
 10
18.52001698080454
 20
-292.3202043352991
 30
0.0
 11
18.91821532521748
 21
-292.3202043352991
 31
0.0
  0
LINE
  5
137
330
51
100
AcDbEntity
  8
1
  6
Continuous
 62
     7
100
AcDbLine
 10
89.15056140441533
 20
-292.3202043352991
 30
0.0
 11
88.02001698080454
 21
-292.3202043352991
 31
0.0
  0
LINE
  5
138
330
51
100
AcDbEntity
  8
1
  6
Continuous
 62
     7
100
AcDbLine
 10
89.15056140441533
 20
-298.3202043352991
 30
0.0
 11
89.15056140441533
 21
-292.3202043352991
 31
0.0
  0
LINE
  5
139
330
51
100
AcDbEntity
  8
1
  6
Continuous
 62
     7
100
AcDbLine
 10
109.8636675566145
 20
-292.3202043352991
 30
0.0
 11
111.0200169808045
 21
-292.3202043352991
 31
0.0
  0
LINE
  5
13A
330
51
100
AcDbEntity
  8
1
  6
Continuous
 62
     7
100
AcDbLine
 10
109.8628765816233
 20
-293.8202043352991
 30
0.0
 11
109.8636675566145
 21
-292.3202043352991
 31
0.0
  0
LINE
  5
13B
330
51
100
AcDbEntity
  8
1
  6
Continuous
 62
     7
100
AcDbLine
 10
109.8628765816233
 20
-293.8202043352991
 30
0.0
 11
109.8628765816233
 21
-298.3202043352991
 31
0.0
  0
LINE
  5
13C
330
51
100
AcDbEntity
  8
1
  6
Continuous
 62
     7
100
AcDbLine
 10
10.52001698080454
 20
-281.3202043352991
 30
0.0
 11
49.52001698080454
 21
-281.3202043352991
 31
0.0
  0
LINE
  5
13D
330
51
100
AcDbEntity
  8
1
  6
Continuous
 62
     7
100
AcDbLine
 10
80.02001698080454
 20
-281.3202043352991
 30
0.0
 11
119.0200169808045
 21
-281.3202043352991
 31
0.0
  0
LINE
  5
13E
330
51
100
AcDbEntity
  8
1
  6
Continuous
 62
     7
100
AcDbLine
 10
122.0200169808045
 20
-286.3202043352991
 30
0.0
 11
77.02001698080454
 21
-286.3202043352991
 31
0.0
  0
LINE
  5
13F
330
51
100
AcDbEntity
  8
1
  6
Continuous
 62
     7
100
AcDbLine
 10
122.0200169808045
 20
-284.3202043352991
 30
0.0
 11
122.0200169808045
 21
-286.3202043352991
 31
0.0
  0
LINE
  5
140
330
51
100
AcDbEntity
  8
1
  6
Continuous
 62
     7
100
AcDbLine
 10
77.02001698080454
 20
-284.3202043352991
 30
0.0
 11
77.02001698080454
 21
-286.3202043352991
 31
0.0
  0
LINE
  5
141
330
51
100
AcDbEntity
  8
1
  6
Continuous
 62
     7
100
AcDbLine
 10
52.52001698080454
 20
-286.3202043352991
 30
0.0
 11
9.52001698080453
 21
-286.3202043352991
 31
0.0
  0
LINE
  5
142
330
51
100
AcDbEntity
  8
1
  6
Continuous
 62
     7
100
AcDbLine
 10
52.52001698080454
 20
-284.3202043352991
 30
0.0
 11
52.52001698080454
 21
-286.3202043352991
 31
0.0
  0
LINE
  5
143
330
51
100
AcDbEntity
  8
1
  6
Continuous
 62
     7
100
AcDbLine
 10
7.52001698080454
 20
-286.3202043352991
 30
0.0
 11
9.52001698080453
 21
-286.3202043352991
 31
0.0
  0
LINE
  5
144
330
51
100
AcDbEntity
  8
1
  6
Continuous
 62
     7
100
AcDbLine
 10
7.52001698080454
 20
-284.3202043352991
 30
0.0
 11
7.52001698080454
 21
-286.3202043352991
 31
0.0
  0
LINE
  5
145
330
51
100
AcDbEntity
  8
1
  6
Continuous
 62
     7
100
AcDbLine
 10
24.02001698080454
 20
-230.384480725393
 30
0.0
 11
36.02001698080454
 21
-230.384480725393
 31
0.0
  0
LINE
  5
146
330
51
100
AcDbEntity
  8
1
  6
Continuous
 62
     7
100
AcDbLine
 10
36.02001698080454
 20
-230.384480725393
 30
0.0
 11
36.02001698080454
 21
-232.384480725393
 31
0.0
  0
LINE
  5
147
330
51
100
AcDbEntity
  8
1
  6
Continuous
 62
     7
100
AcDbLine
 10
36.02001698080454
 20
-232.384480725393
 30
0.0
 11
24.3836166735998
 21
-232.384480725393
 31
0.0
  0
LINE
  5
148
330
51
100
AcDbEntity
  8
1
  6
Continuous
 62
     7
100
AcDbLine
 10
24.3836166735998
 20
-232.384480725393
 30
0.0
 11
24.02001698080454
 21
-232.384480725393
 31
0.0
  0
LINE
  5
149
330
51
100
AcDbEntity
  8
1
  6
Continuous
 62
     7
100
AcDbLine
 10
24.02001698080454
 20
-232.384480725393
 30
0.0
 11
24.02001698080454
 21
-230.384480725393
 31
0.0
  0
LINE
  5
14A
330
51
100
AcDbEntity
  8
1
  6
Continuous
 62
     7
100
AcDbLine
 10
89.15056140441533
 20
-292.3202043352991
 30
0.0
 11
91.23864417907069
 21
-292.3202043352991
 31
0.0
  0
LINE
  5
14B
330
51
100
AcDbEntity
  8
1
  6
Continuous
 62
     7
100
AcDbLine
 10
18.52001698080454
 20
-287.334846068428
 30
0.0
 11
18.52001698080454
 21
-292.3202043352991
 31
0.0
  0
ARC
  5
14C
330
51
100
AcDbEntity
  8
1
  6
Continuous
 62
     7
100
AcDbCircle
 10
91.99256268480809
 20
-295.3202043352991
 30
0.0
 40
1.5
100
AcDbArc
 50
0.0
 51
120.1729818584677
  0
ARC
  5
14D
330
51
100
AcDbEntity
  8
1
  6
Continuous
 62
     7
100
AcDbCircle
 10
91.99256268480809
 20
-295.3202043352991
 30
0.0
 40
1.500000000000034
100
AcDbArc
 50
239.8270181415334
 51
0.0
  0
ARC
  5
14E
330
51
100
AcDbEntity
  8
1
  6
Continuous
 62
     7
100
AcDbCircle
 10
91.99256268480809
 20
-295.3202043352991
 30
0.0
 40
1.499999999999985
100
AcDbArc
 50
120.1729818584677
 51
239.8270181415334
  0
ARC
  5
14F
330
51
100
AcDbEntity
  8
1
  6
Continuous
 62
     7
100
AcDbCircle
 10
106.9925626848081
 20
-295.3202043352991
 30
0.0
 40
1.400000000000042
100
AcDbArc
 50
56.69210688119151
 51
303.3078931188098
  0
ARC
  5
150
330
51
100
AcDbEntity
  8
1
  6
Continuous
 62
     7
100
AcDbCircle
 10
106.9925626848081
 20
-295.3202043352991
 30
0.0
 40
1.399999999999994
100
AcDbArc
 50
303.3078931188098
 51
0.0
  0
ARC
  5
151
330
51
100
AcDbEntity
  8
1
  6
Continuous
 62
     7
100
AcDbCircle
 10
106.9925626848081
 20
-295.3202043352991
 30
0.0
 40
1.399999999999991
100
AcDbArc
 50
0.0
 51
56.69210688119151
  0
ARC
  5
152
330
51
100
AcDbEntity
  8
1
  6
Continuous
 62
     7
100
AcDbCircle
 10
30.02001698080454
 20
-231.384480725393
 30
0.0
 40
4.000000000000006
100
AcDbArc
 50
194.4775121859299
 51
345.52248781407
  0
ARC
  5
153
330
51
100
AcDbEntity
  8
1
  6
Continuous
 62
     7
100
AcDbCircle
 10
30.02001698080454
 20
-231.384480725393
 30
0.0
 40
3.999999999999989
100
AcDbArc
 50
14.47751218592997
 51
165.5224878140701
  0
CIRCLE
  5
154
330
51
100
AcDbEntity
  8
1
  6
Continuous
 62
     7
100
AcDbCircle
 10
30.02001698080454
 20
-231.384480725393
 30
0.0
 40
22.5
  0
CIRCLE
  5
155
330
51
100
AcDbEntity
  8
1
  6
Continuous
 62
     7
100
AcDbCircle
 10
30.02001698080454
 20
-231.384480725393
 30
0.0
 40
8.0
  0
ARC
  5
156
330
51
100
AcDbEntity
  8
1
  6
Continuous
 62
     7
100
AcDbCircle
 10
119.0200169808045
 20
-284.3202043352991
 30
0.0
 40
3.0
100
AcDbArc
 50
0.0
 51
90.0
  0
ARC
  5
157
330
51
100
AcDbEntity
  8
1
  6
Continuous
 62
     7
100
AcDbCircle
 10
80.02001698080454
 20
-284.3202043352991
 30
0.0
 40
3.0
100
AcDbArc
 50
90.0
 51
180.0
  0
ARC
  5
158
330
51
100
AcDbEntity
  8
1
  6
Continuous
 62
     7
100
AcDbCircle
 10
49.52001698080454
 20
-284.3202043352991
 30
0.0
 40
3.0
100
AcDbArc
 50
0.0
 51
90.0
  0
ARC
  5
159
330
51
100
AcDbEntity
  8
1
  6
Continuous
 62
     7
100
AcDbCircle
 10
10.52001698080454
 20
-284.3202043352991
 30
0.0
 40
3.0
100
AcDbArc
 50
90.0
 51
180.0
  0
ENDBLK
  5
53
330
51
100
AcDbEntity
  8
0
100
AcDbBlockEnd
  0
BLOCK
  5
55
330
54
100
AcDbEntity
  8
0
100
AcDbBlockBegin
  2
72-54
 70
     0
 10
314.9159421722756
 20
-17.33654110008254
 30
0.0
  3
72-54
  1

  0
LINE
  5
15A
330
54
100
AcDbEntity
  8
1
  6
DASH_CENTER
 62
     2
100
AcDbLine
 10
21.52001698080454
 20
-295.3202043352991
 30
0.0
 11
21.52001698080454
 21
-330.200280010312
 31
0.0
  0
LINE
  5
15B
330
54
100
AcDbEntity
  8
1
  6
Continuous
 62
     7
100
AcDbLine
 10
18.77001698080454
 20
-326.200280010312
 30
0.0
 11
18.77001698080454
 21
-324.900280010312
 31
0.0
  0
LINE
  5
15C
330
54
100
AcDbEntity
  8
1
  6
Continuous
 62
     7
100
AcDbLine
 10
21.52001698080454
 20
-327.200280010312
 30
0.0
 11
20.02001698080454
 21
-327.200280010312
 31
0.0
  0
LINE
  5
15D
330
54
100
AcDbEntity
  8
1
  6
Continuous
 62
     7
100
AcDbLine
 10
21.52001698080454
 20
-324.900280010312
 30
0.0
 11
18.77001698080454
 21
-324.900280010312
 31
0.0
  0
LINE
  5
15E
330
54
100
AcDbEntity
  8
1
  6
Continuous
 62
     7
100
AcDbLine
 10
24.27001698080454
 20
-324.900280010312
 30
0.0
 11
24.27001698080454
 21
-326.200280010312
 31
0.0
  0
LINE
  5
15F
330
54
100
AcDbEntity
  8
1
  6
Continuous
 62
     7
100
AcDbLine
 10
23.02001698080454
 20
-327.200280010312
 30
0.0
 11
21.52001698080454
 21
-327.200280010312
 31
0.0
  0
LINE
  5
160
330
54
100
AcDbEntity
  8
1
  6
Continuous
 62
     7
100
AcDbLine
 10
24.27001698080454
 20
-324.900280010312
 30
0.0
 11
21.52001698080454
 21
-324.900280010312
 31
0.0
  0
LINE
  5
161
330
54
100
AcDbEntity
  8
1
  6
Continuous
 62
     2
100
AcDbLine
 10
22.74951698080448
 20
-311.9539205582444
 30
0.0
 11
22.74951698080448
 21
-298.3202043352991
 31
0.0
  0
LINE
  5
162
330
54
100
AcDbEntity
  8
1
  6
Continuous
 62
     7
100
AcDbLine
 10
20.02001698080451
 20
-318.9539205582444
 30
0.0
 11
20.02001698080449
 21
-298.3202043352991
 31
0.0
  0
LINE
  5
163
330
54
100
AcDbEntity
  8
1
  6
Continuous
 62
     2
100
AcDbLine
 10
20.29051698080459
 20
-317.9539205582444
 30
0.0
 11
20.29051698080459
 21
-319.629780010312
 31
0.0
  0
LINE
  5
164
330
54
100
AcDbEntity
  8
1
  6
Continuous
 62
     7
100
AcDbLine
 10
23.02001698080454
 20
-317.9539205582444
 30
0.0
 11
23.02001698080455
 21
-318.900280010312
 31
0.0
  0
LINE
  5
165
330
54
100
AcDbEntity
  8
1
  6
Continuous
 62
     2
100
AcDbLine
 10
22.74951698080448
 20
-318.900280010312
 30
0.0
 11
22.74951698080448
 21
-311.9539205582444
 31
0.0
  0
LINE
  5
166
330
54
100
AcDbEntity
  8
1
  6
Continuous
 62
     7
100
AcDbLine
 10
20.02001698080451
 20
-319.900280010312
 30
0.0
 11
20.02001698080454
 21
-317.9539205582444
 31
0.0
  0
LINE
  5
167
330
54
100
AcDbEntity
  8
1
  6
Continuous
 62
     2
100
AcDbLine
 10
20.29051698080459
 20
-298.3202043352991
 30
0.0
 11
20.29051698080459
 21
-317.9539205582444
 31
0.0
  0
LINE
  5
168
330
54
100
AcDbEntity
  8
1
  6
Continuous
 62
     7
100
AcDbLine
 10
23.02001698080456
 20
-298.3202043352991
 30
0.0
 11
23.02001698080454
 21
-317.9539205582444
 31
0.0
  0
ARC
  5
169
330
54
100
AcDbEntity
  8
1
  6
Continuous
 62
     7
100
AcDbCircle
 10
19.89501698080454
 20
-326.075280010312
 30
0.0
 40
1.131923142267177
100
AcDbArc
 50
186.3401917459099
 51
276.3401917459099
  0
ARC
  5
16A
330
54
100
AcDbEntity
  8
1
  6
Continuous
 62
     7
100
AcDbCircle
 10
23.14501698080454
 20
-326.075280010312
 30
0.0
 40
1.131923142267177
100
AcDbArc
 50
263.6598082540901
 51
353.6598082540901
  0
ENDBLK
  5
56
330
54
100
AcDbEntity
  8
0
100
AcDbBlockEnd
  0
BLOCK
  5
59
330
57
100
AcDbEntity
  8
0
100
AcDbBlockBegin
  2
R703__1
 70
     0
 10
459.839978910857
 20
-142.383879774817
 30
0.0
  3
R703__1
  1

  0
INSERT
  5
58
330
57
100
AcDbEntity
  8
1
100
AcDbBlockReference
  2
72-54
 10
314.9159421722756
 20
-17.33654110008254
 30
0.0
  0
ENDBLK
  5
5A
330
57
100
AcDbEntity
  8
0
100
AcDbBlockEnd
  0
BLOCK
  5
5C
330
5B
100
AcDbEntity
  8
0
100
AcDbBlockBegin
  2
6
 70
     0
 10
51.99999999999999
 20
55.0
 30
0.0
  3
6
  1

  0
LINE
  5
16B
330
5B
100
AcDbEntity
  8
1
  6
Continuous
 62
     7
100
AcDbLine
 10
9.52001698080453
 20
-286.331960629198
 30
0.0
 11
9.52001698080453
 21
-286.3202043352991
 31
0.0
  0
LINE
  5
16C
330
5B
100
AcDbEntity
  8
1
  6
Continuous
 62
     7
100
AcDbLine
 10
9.52001698080453
 20
-286.489897323992
 30
0.0
 11
9.52001698080453
 21
-286.331960629198
 31
0.0
  0
LINE
  5
16D
330
5B
100
AcDbEntity
  8
1
  6
Continuous
 62
     7
100
AcDbLine
 10
42.52001698080454
 20
-287.3202043352991
 30
0.0
 11
30.02001698080454
 21
-287.5032259994108
 31
0.0
  0
LINE
  5
16E
330
5B
100
AcDbEntity
  8
1
  6
Continuous
 62
     7
100
AcDbLine
 10
17.52001698080454
 20
-287.3202043352991
 30
0.0
 11
30.02001698080454
 21
-287.5032259994108
 31
0.0
  0
LINE
  5
16F
330
5B
100
AcDbEntity
  8
1
  6
Continuous
 62
     7
100
AcDbLine
 10
50.52001698080454
 20
-286.3202043352991
 30
0.0
 11
50.52001698080454
 21
-287.3202043352991
 31
0.0
  0
LINE
  5
170
330
5B
100
AcDbEntity
  8
1
  6
Continuous
 62
     7
100
AcDbLine
 10
50.52001698080454
 20
-287.3202043352991
 30
0.0
 11
42.52001698080454
 21
-287.3202043352991
 31
0.0
  0
LINE
  5
171
330
5B
100
AcDbEntity
  8
1
  6
Continuous
 62
     7
100
AcDbLine
 10
9.52001698080453
 20
-287.3202043352991
 30
0.0
 11
9.52001698080453
 21
-286.489897323992
 31
0.0
  0
LINE
  5
172
330
5B
100
AcDbEntity
  8
1
  6
Continuous
 62
     7
100
AcDbLine
 10
17.52001698080454
 20
-287.3202043352991
 30
0.0
 11
9.52001698080453
 21
-287.3202043352991
 31
0.0
  0
LINE
  5
173
330
5B
100
AcDbEntity
  8
1
  6
Continuous
 62
     7
100
AcDbLine
 10
120.0200169808045
 20
-286.3202043352991
 30
0.0
 11
120.0200169808045
 21
-287.3202043352991
 31
0.0
  0
LINE
  5
174
330
5B
100
AcDbEntity
  8
1
  6
Continuous
 62
     7
100
AcDbLine
 10
120.0200169808045
 20
-287.3202043352991
 30
0.0
 11
111.0200169808045
 21
-287.3202043352991
 31
0.0
  0
LINE
  5
175
330
5B
100
AcDbEntity
  8
1
  6
Continuous
 62
     7
100
AcDbLine
 10
79.02001698080454
 20
-286.3202043352991
 30
0.0
 11
79.0
 21
-287.3202043352991
 31
0.0
  0
LINE
  5
176
330
5B
100
AcDbEntity
  8
1
  6
Continuous
 62
     7
100
AcDbLine
 10
79.0
 20
-287.3202043352991
 30
0.0
 11
111.0200169808045
 21
-287.3202043352991
 31
0.0
  0
ENDBLK
  5
5D
330
5B
100
AcDbEntity
  8
0
100
AcDbBlockEnd
  0
BLOCK
  5
5F
330
5E
100
AcDbEntity
  8
0
100
AcDbBlockBegin
  2
3
 70
     0
 10
64.5
 20
12.5
 30
0.0
  3
3
  1

  0
LINE
  5
177
330
5E
100
AcDbEntity
  8
1
  6
Continuous
 62
     7
100
AcDbLine
 10
27.02001698080454
 20
-324.900280010312
 30
0.0
 11
27.02001698080454
 21
-326.323859055441
 31
0.0
  0
LINE
  5
178
330
5E
100
AcDbEntity
  8
1
  6
Continuous
 62
     2
100
AcDbLine
 10
34.02001698080454
 20
-324.900280037243
 30
0.0
 11
34.02001698080454
 21
-324.900280306083
 31
0.0
  0
LINE
  5
179
330
5E
100
AcDbEntity
  8
1
  6
Continuous
 62
     2
100
AcDbLine
 10
34.02001698080454
 20
-324.900279984356
 30
0.0
 11
34.02001698080454
 21
-324.900280037243
 31
0.0
  0
LINE
  5
17A
330
5E
100
AcDbEntity
  8
1
  6
Continuous
 62
     2
100
AcDbLine
 10
34.02001698080454
 20
-324.900280306083
 30
0.0
 11
34.02001698080454
 21
-324.900329830673
 31
0.0
  0
LINE
  5
17B
330
5E
100
AcDbEntity
  8
1
  6
Continuous
 62
     2
100
AcDbLine
 10
34.02001698080454
 20
-324.900329830673
 30
0.0
 11
34.02001698080454
 21
-324.900749990123
 31
0.0
  0
LINE
  5
17C
330
5E
100
AcDbEntity
  8
1
  6
Continuous
 62
     2
100
AcDbLine
 10
34.02001698080454
 20
-324.900749990123
 30
0.0
 11
34.02001698080454
 21
-324.902204832218
 31
0.0
  0
LINE
  5
17D
330
5E
100
AcDbEntity
  8
1
  6
Continuous
 62
     2
100
AcDbLine
 10
34.02001698080454
 20
-324.902204832218
 30
0.0
 11
34.02001698080454
 21
-324.921146959324
 31
0.0
  0
LINE
  5
17E
330
5E
100
AcDbEntity
  8
1
  6
Continuous
 62
     2
100
AcDbLine
 10
34.02001698080454
 20
-324.921146959324
 30
0.0
 11
34.02001698080454
 21
-324.983105744156
 31
0.0
  0
LINE
  5
17F
330
5E
100
AcDbEntity
  8
1
  6
Continuous
 62
     2
100
AcDbLine
 10
34.02001698080454
 20
-324.983105744156
 30
0.0
 11
34.02001698080454
 21
-325.323859055441
 31
0.0
  0
LINE
  5
180
330
5E
100
AcDbEntity
  8
1
  6
Continuous
 62
     7
100
AcDbLine
 10
35.02001698080454
 20
-324.919073372147
 30
0.0
 11
35.02001698080454
 21
-325.011223586269
 31
0.0
  0
LINE
  5
181
330
5E
100
AcDbEntity
  8
1
  6
Continuous
 62
     7
100
AcDbLine
 10
35.02001698080454
 20
-325.011223586269
 30
0.0
 11
35.02001698080454
 21
-325.323859055441
 31
0.0
  0
LINE
  5
182
330
5E
100
AcDbEntity
  8
1
  6
Continuous
 62
     7
100
AcDbLine
 10
25.02001698080454
 20
-318.900280010312
 30
0.0
 11
25.02001698080454
 21
-318.320204335299
 31
0.0
  0
LINE
  5
183
330
5E
100
AcDbEntity
  8
1
  6
Continuous
 62
     2
100
AcDbLine
 10
34.02001698080454
 20
-298.3202043352991
 30
0.0
 11
34.02001698080454
 21
-298.321233633063
 31
0.0
  0
LINE
  5
184
330
5E
100
AcDbEntity
  8
1
  6
Continuous
 62
     2
100
AcDbLine
 10
34.02001698080454
 20
-298.321233633063
 30
0.0
 11
34.02001698080454
 21
-298.336431650568
 31
0.0
  0
LINE
  5
185
330
5E
100
AcDbEntity
  8
1
  6
Continuous
 62
     2
100
AcDbLine
 10
34.02001698080454
 20
-298.336431650568
 30
0.0
 11
34.02001698080454
 21
-298.380050285829
 31
0.0
  0
LINE
  5
186
330
5E
100
AcDbEntity
  8
1
  6
Continuous
 62
     7
100
AcDbLine
 10
35.02001698080454
 20
-298.3202043352991
 30
0.0
 11
35.02001698080454
 21
-315.8202043352991
 31
0.0
  0
LINE
  5
187
330
5E
100
AcDbEntity
  8
1
  6
Continuous
 62
     7
100
AcDbLine
 10
27.02001698080454
 20
-326.323859055441
 30
0.0
 11
30.02001698080454
 21
-326.323859055441
 31
0.0
  0
LINE
  5
188
330
5E
100
AcDbEntity
  8
1
  6
Continuous
 62
     2
100
AcDbLine
 10
26.02001698080454
 20
-326.323859055441
 30
0.0
 11
26.02001698080454
 21
-325.323859055441
 31
0.0
  0
LINE
  5
189
330
5E
100
AcDbEntity
  8
1
  6
Continuous
 62
     7
100
AcDbLine
 10
26.02001698080454
 20
-325.323859055441
 30
0.0
 11
25.02001698080454
 21
-325.323859055441
 31
0.0
  0
LINE
  5
18A
330
5E
100
AcDbEntity
  8
1
  6
Continuous
 62
     7
100
AcDbLine
 10
26.02001698080454
 20
-326.323859055441
 30
0.0
 11
27.02001698080454
 21
-326.323859055441
 31
0.0
  0
LINE
  5
18B
330
5E
100
AcDbEntity
  8
1
  6
Continuous
 62
     7
100
AcDbLine
 10
25.02001698080454
 20
-318.320204335299
 30
0.0
 11
25.02001698080454
 21
-318.900280010312
 31
0.0
  0
LINE
  5
18C
330
5E
100
AcDbEntity
  8
1
  6
Continuous
 62
     7
100
AcDbLine
 10
25.02001698080454
 20
-325.323859055441
 30
0.0
 11
26.02001698080454
 21
-326.323859055441
 31
0.0
  0
LINE
  5
18D
330
5E
100
AcDbEntity
  8
1
  6
Continuous
 62
     7
100
AcDbLine
 10
25.02001698080454
 20
-325.323859055441
 30
0.0
 11
25.02001698080454
 21
-324.900280010312
 31
0.0
  0
LINE
  5
18E
330
5E
100
AcDbEntity
  8
1
  6
Continuous
 62
     7
100
AcDbLine
 10
25.02001698080454
 20
-325.323859055441
 30
0.0
 11
25.02001698080454
 21
-324.900280010312
 31
0.0
  0
LINE
  5
18F
330
5E
100
AcDbEntity
  8
1
  6
Continuous
 62
     7
100
AcDbLine
 10
25.02001698080454
 20
-318.320204335299
 30
0.0
 11
25.02001698080454
 21
-298.3202043352991
 31
0.0
  0
LINE
  5
190
330
5E
100
AcDbEntity
  8
1
  6
Continuous
 62
     2
100
AcDbLine
 10
26.02001698080454
 20
-325.323859055441
 30
0.0
 11
26.02001698080454
 21
-324.900280010312
 31
0.0
  0
LINE
  5
191
330
5E
100
AcDbEntity
  8
1
  6
Continuous
 62
     7
100
AcDbLine
 10
30.02001698080454
 20
-326.323859055441
 30
0.0
 11
33.02001698080454
 21
-326.323859055441
 31
0.0
  0
LINE
  5
192
330
5E
100
AcDbEntity
  8
1
  6
Continuous
 62
     2
100
AcDbLine
 10
34.02001698080454
 20
-325.323859055441
 30
0.0
 11
34.02001698080454
 21
-326.323859055441
 31
0.0
  0
LINE
  5
193
330
5E
100
AcDbEntity
  8
1
  6
Continuous
 62
     7
100
AcDbLine
 10
35.02001698080454
 20
-325.323859055441
 30
0.0
 11
26.02001698080454
 21
-325.323859055441
 31
0.0
  0
LINE
  5
194
330
5E
100
AcDbEntity
  8
1
  6
Continuous
 62
     2
100
AcDbLine
 10
103.492562684808
 20
-325.8113865107612
 30
0.0
 11
103.4931290529299
 21
-324.9002800103119
 31
0.0
  0
LINE
  5
195
330
5E
100
AcDbEntity
  8
1
  6
Continuous
 62
     2
100
AcDbLine
 10
95.49256268480809
 20
-325.8113865107609
 30
0.0
 11
95.49312905292996
 21
-324.900280010312
 31
0.0
  0
LINE
  5
196
330
5E
100
AcDbEntity
  8
1
  6
Continuous
 62
     7
100
AcDbLine
 10
94.49256268480809
 20
-325.3113865107607
 30
0.0
 11
104.4925626848081
 21
-325.3113865107607
 31
0.0
  0
LINE
  5
197
330
5E
100
AcDbEntity
  8
1
  6
Continuous
 62
     7
100
AcDbLine
 10
95.49256268480809
 20
-326.3113865107609
 30
0.0
 11
94.49256268480809
 21
-325.3113865107607
 31
0.0
  0
LINE
  5
198
330
5E
100
AcDbEntity
  8
1
  6
Continuous
 62
     7
100
AcDbLine
 10
103.4925626848081
 20
-326.3113865107609
 30
0.0
 11
104.4925626848081
 21
-325.3113865107607
 31
0.0
  0
LINE
  5
199
330
5E
100
AcDbEntity
  8
1
  6
Continuous
 62
     7
100
AcDbLine
 10
103.4925626848081
 20
-326.3113865107609
 30
0.0
 11
95.49256268480809
 21
-326.3113865107609
 31
0.0
  0
LINE
  5
19A
330
5E
100
AcDbEntity
  8
1
  6
Continuous
 62
     2
100
AcDbLine
 10
103.492562684808
 20
-325.8113865107612
 30
0.0
 11
103.4925626848081
 21
-326.3113865107609
 31
0.0
  0
LINE
  5
19B
330
5E
100
AcDbEntity
  8
1
  6
Continuous
 62
     2
100
AcDbLine
 10
95.49256268480809
 20
-325.8113865107609
 30
0.0
 11
95.49256268480809
 21
-326.3113865107609
 31
0.0
  0
LINE
  5
19C
330
5E
100
AcDbEntity
  8
1
  6
Continuous
 62
     7
100
AcDbLine
 10
33.02001698080454
 20
-326.323859055441
 30
0.0
 11
34.02001698080454
 21
-326.323859055441
 31
0.0
  0
LINE
  5
19D
330
5E
100
AcDbEntity
  8
1
  6
Continuous
 62
     7
100
AcDbLine
 10
33.02001698080454
 20
-326.323859055441
 30
0.0
 11
33.02001698080454
 21
-324.900280010312
 31
0.0
  0
LINE
  5
19E
330
5E
100
AcDbEntity
  8
1
  6
Continuous
 62
     7
100
AcDbLine
 10
34.02001698080454
 20
-326.323859055441
 30
0.0
 11
35.02001698080454
 21
-325.323859055441
 31
0.0
  0
LINE
  5
19F
330
5E
100
AcDbEntity
  8
1
  6
Continuous
 62
     7
100
AcDbLine
 10
35.02001698080454
 20
-318.320204335299
 30
0.0
 11
35.02001698080454
 21
-318.900280010312
 31
0.0
  0
LINE
  5
1A0
330
5E
100
AcDbEntity
  8
1
  6
Continuous
 62
     7
100
AcDbLine
 10
35.02001698080454
 20
-315.8202043352991
 30
0.0
 11
35.02001698080454
 21
-318.900280010312
 31
0.0
  0
LINE
  5
1A1
330
5E
100
AcDbEntity
  8
1
  6
Continuous
 62
     7
100
AcDbLine
 10
94.49256268480809
 20
-325.3113865107607
 30
0.0
 11
94.49256268480809
 21
-324.900280010312
 31
0.0
  0
LINE
  5
1A2
330
5E
100
AcDbEntity
  8
1
  6
Continuous
 62
     7
100
AcDbLine
 10
104.4925626848081
 20
-325.3113865107607
 30
0.0
 11
104.4925626848081
 21
-324.900280010312
 31
0.0
  0
LINE
  5
1A3
330
5E
100
AcDbEntity
  8
1
  6
Continuous
 62
     2
100
AcDbLine
 10
103.4925626848081
 20
-298.3202043352991
 30
0.0
 11
103.4925626848081
 21
-318.900280010312
 31
0.0
  0
LINE
  5
1A4
330
5E
100
AcDbEntity
  8
1
  6
Continuous
 62
     2
100
AcDbLine
 10
95.49256268480809
 20
-298.3202043352991
 30
0.0
 11
95.49256268480809
 21
-318.9002800103119
 31
0.0
  0
LINE
  5
1A5
330
5E
100
AcDbEntity
  8
1
  6
Continuous
 62
     7
100
AcDbLine
 10
94.49256268480809
 20
-298.3202043352991
 30
0.0
 11
94.49256268480809
 21
-318.9002800103119
 31
0.0
  0
LINE
  5
1A6
330
5E
100
AcDbEntity
  8
1
  6
Continuous
 62
     7
100
AcDbLine
 10
104.4925626848081
 20
-298.3202043352991
 30
0.0
 11
104.4925626848081
 21
-318.9002800103119
 31
0.0
  0
ENDBLK
  5
60
330
5E
100
AcDbEntity
  8
0
100
AcDbBlockEnd
  0
BLOCK
  5
62
330
61
100
AcDbEntity
  8
0
100
AcDbBlockBegin
  2
PIN__2
 70
     0
 10
117.9925626848081
 20
-219.2702043352992
 30
0.0
  3
PIN__2
  1

  0
CIRCLE
  5
1A7
330
61
100
AcDbEntity
  8
1
  6
Continuous
 62
     7
100
AcDbCircle
 10
106.9925626848081
 20
-295.3202043352991
 30
0.0
 40
1.0
  0
ENDBLK
  5
63
330
61
100
AcDbEntity
  8
0
100
AcDbBlockEnd
  0
BLOCK
  5
65
330
64
100
AcDbEntity
  8
0
100
AcDbBlockBegin
  2
PIN__3
 70
     0
 10
100.9925626848081
 20
-219.2702043352992
 30
0.0
  3
PIN__3
  1

  0
CIRCLE
  5
1A8
330
64
100
AcDbEntity
  8
1
  6
Continuous
 62
     7
100
AcDbCircle
 10
91.99256268480809
 20
-295.3202043352991
 30
0.0
 40
1.0
  0
ENDBLK
  5
66
330
64
100
AcDbEntity
  8
0
100
AcDbBlockEnd
  0
BLOCK
  5
6A
330
67
100
AcDbEntity
  8
0
100
AcDbBlockBegin
  2
55-36X
 70
     0
 10
103.7495822285455
 20
31.5999291857984
 30
0.0
  3
55-36X
  1

  0
INSERT
  5
68
330
67
100
AcDbEntity
  8
1
100
AcDbBlockReference
  2
PIN__2
 10
117.9925626848081
 20
-219.2702043352992
 30
0.0
  0
INSERT
  5
69
330
67
100
AcDbEntity
  8
1
100
AcDbBlockReference
  2
PIN__3
 10
100.9925626848081
 20
-219.2702043352992
 30
0.0
  0
LINE
  5
1A9
330
67
100
AcDbEntity
  8
1
  6
Continuous
 62
     7
100
AcDbLine
 10
26.02001698080454
 20
-293.8202043352991
 30
0.0
 11
34.02001698080454
 21
-293.8202043352991
 31
0.0
  0
LINE
  5
1AA
330
67
100
AcDbEntity
  8
1
  6
Continuous
 62
     7
100
AcDbLine
 10
34.02001698080454
 20
-293.880050285829
 30
0.0
 11
34.02001698080454
 21
-319.2595441635192
 31
0.0
  0
LINE
  5
1AB
330
67
100
AcDbEntity
  8
1
  6
Continuous
 62
     7
100
AcDbLine
 10
26.02001698080454
 20
-319.2595441635192
 30
0.0
 11
26.02001698080454
 21
-293.8202043352991
 31
0.0
  0
LINE
  5
1AC
330
67
100
AcDbEntity
  8
1
  6
Continuous
 62
     7
100
AcDbLine
 10
26.02001698080454
 20
-319.2595441635192
 30
0.0
 11
26.02001698080454
 21
-320.3202043352991
 31
0.0
  0
LINE
  5
1AD
330
67
100
AcDbEntity
  8
1
  6
Continuous
 62
     7
100
AcDbLine
 10
34.02001698080454
 20
-319.2595441635192
 30
0.0
 11
26.02001698080454
 21
-319.2595441635192
 31
0.0
  0
LINE
  5
1AE
330
67
100
AcDbEntity
  8
1
  6
Continuous
 62
     7
100
AcDbLine
 10
34.02001698080454
 20
-320.3202043352991
 30
0.0
 11
34.02001698080454
 21
-319.2595441635192
 31
0.0
  0
LINE
  5
1AF
330
67
100
AcDbEntity
  8
1
  6
Continuous
 62
     7
100
AcDbLine
 10
26.02001698080454
 20
-320.3202043352991
 30
0.0
 11
34.02001698080454
 21
-320.3202043352991
 31
0.0
  0
LINE
  5
1B0
330
67
100
AcDbEntity
  8
1
  6
Continuous
 62
     7
100
AcDbLine
 10
105.9925626848081
 20
-298.524843989536
 30
0.0
 11
105.9925626848081
 21
-301.0202043352991
 31
0.0
  0
LINE
  5
1B1
330
67
100
AcDbEntity
  8
1
  6
Continuous
 62
     7
100
AcDbLine
 10
89.0938893381227
 20
-320.3202043352991
 30
0.0
 11
91.26115122770068
 21
-318.1529424457211
 31
0.0
  0
LINE
  5
1B2
330
67
100
AcDbEntity
  8
1
  6
Continuous
 62
     7
100
AcDbLine
 10
91.99256268480809
 20
-296.3202043352991
 30
0.0
 11
91.99256268480809
 21
-297.8202043352991
 31
0.0
  0
LINE
  5
1B3
330
67
100
AcDbEntity
  8
1
  6
Continuous
 62
     7
100
AcDbLine
 10
88.03322916634289
 20
-319.2595441635192
 30
0.0
 11
90.20049105592088
 21
-317.0922822739412
 31
0.0
  0
LINE
  5
1B4
330
67
100
AcDbEntity
  8
1
  6
Continuous
 62
     7
100
AcDbLine
 10
89.0938893381227
 20
-320.3202043352991
 30
0.0
 11
88.03322916634289
 21
-319.2595441635192
 31
0.0
  0
LINE
  5
1B5
330
67
100
AcDbEntity
  8
1
  6
Continuous
 62
     7
100
AcDbLine
 10
94.49256268480809
 20
-299.6052701925302
 30
0.0
 11
94.47018081958586
 21
-309.1536686836149
 31
0.0
  0
LINE
  5
1B6
330
67
100
AcDbEntity
  8
1
  6
DASH_CENTER
 62
     2
100
AcDbLine
 10
97.69256268480811
 20
-295.3202043352991
 30
0.0
 11
86.29256268480809
 21
-295.3202043352991
 31
0.0
  0
LINE
  5
1B7
330
67
100
AcDbEntity
  8
1
  6
DASH_CENTER
 62
     2
100
AcDbLine
 10
91.99256268480809
 20
-298.1297368119408
 30
0.0
 11
91.99256268480809
 21
-301.0446709547097
 31
0.0
  0
LINE
  5
1B8
330
67
100
AcDbEntity
  8
1
  6
Continuous
 62
     7
100
AcDbLine
 10
92.99256268480809
 20
-301.0202043352991
 30
0.0
 11
92.99256268480809
 21
-298.3202043352991
 31
0.0
  0
LINE
  5
1B9
330
67
100
AcDbEntity
  8
1
  6
DASH_CENTER
 62
     2
100
AcDbLine
 10
91.99256268480809
 20
-289.6202043352991
 30
0.0
 11
91.99256268480809
 21
-298.1052701925302
 31
0.0
  0
LINE
  5
1BA
330
67
100
AcDbEntity
  8
1
  6
Continuous
 62
     7
100
AcDbLine
 10
92.97018081958586
 20
-309.1536686836149
 30
0.0
 11
92.99256268480809
 21
-301.0202043352991
 31
0.0
  0
LINE
  5
1BB
330
67
100
AcDbEntity
  8
1
  6
Continuous
 62
     7
100
AcDbLine
 10
107.7239741419155
 20
-318.1529424457211
 30
0.0
 11
109.8912360314935
 21
-320.3202043352991
 31
0.0
  0
LINE
  5
1BC
330
67
100
AcDbEntity
  8
1
  6
Continuous
 62
     7
100
AcDbLine
 10
106.9925626848081
 20
-297.8202043352991
 30
0.0
 11
106.9925626848081
 21
-296.3202043352991
 31
0.0
  0
LINE
  5
1BD
330
67
100
AcDbEntity
  8
1
  6
Continuous
 62
     7
100
AcDbLine
 10
108.7846343136953
 20
-317.0922822739412
 30
0.0
 11
110.9518962032733
 21
-319.2595441635192
 31
0.0
  0
LINE
  5
1BE
330
67
100
AcDbEntity
  8
1
  6
Continuous
 62
     7
100
AcDbLine
 10
110.9518962032733
 20
-319.2595441635192
 30
0.0
 11
109.8912360314935
 21
-320.3202043352991
 31
0.0
  0
LINE
  5
1BF
330
67
100
AcDbEntity
  8
1
  6
Continuous
 62
     7
100
AcDbLine
 10
104.5149445500304
 20
-309.1536686836149
 30
0.0
 11
104.4925626848081
 21
-299.6052701925302
 31
0.0
  0
LINE
  5
1C0
330
67
100
AcDbEntity
  8
1
  6
DASH_CENTER
 62
     2
100
AcDbLine
 10
112.6925626848081
 20
-295.3202043352991
 30
0.0
 11
101.2925626848081
 21
-295.3202043352991
 31
0.0
  0
LINE
  5
1C1
330
67
100
AcDbEntity
  8
1
  6
DASH_CENTER
 62
     2
100
AcDbLine
 10
106.9925626848081
 20
-301.0446709547097
 30
0.0
 11
106.9925626848081
 21
-298.1297368119408
 31
0.0
  0
LINE
  5
1C2
330
67
100
AcDbEntity
  8
1
  6
Continuous
 62
     7
100
AcDbLine
 10
104.4925626848081
 20
-299.6052701925302
 30
0.0
 11
104.4925626848081
 21
-298.3202043352991
 31
0.0
  0
LINE
  5
1C3
330
67
100
AcDbEntity
  8
1
  6
Continuous
 62
     7
100
AcDbLine
 10
105.9925626848081
 20
-299.619597210074
 30
0.0
 11
105.9925626848081
 21
-301.0202043352991
 31
0.0
  0
LINE
  5
1C4
330
67
100
AcDbEntity
  8
1
  6
DASH_CENTER
 62
     2
100
AcDbLine
 10
106.9925626848081
 20
-298.1052701925302
 30
0.0
 11
106.9925626848081
 21
-289.6202043352991
 31
0.0
  0
LINE
  5
1C5
330
67
100
AcDbEntity
  8
1
  6
Continuous
 62
     7
100
AcDbLine
 10
105.9925626848081
 20
-298.1052701925302
 30
0.0
 11
105.9925626848081
 21
-298.524843989536
 31
0.0
  0
LINE
  5
1C6
330
67
100
AcDbEntity
  8
1
  6
Continuous
 62
     7
100
AcDbLine
 10
105.9925626848081
 20
-301.0202043352991
 30
0.0
 11
106.0149445500304
 21
-309.1536686836149
 31
0.0
  0
LINE
  5
1C7
330
67
100
AcDbEntity
  8
1
  6
Continuous
 62
     7
100
AcDbLine
 10
94.49256268480809
 20
-298.3202043352991
 30
0.0
 11
94.49256268480809
 21
-299.6052701925302
 31
0.0
  0
ARC
  5
1C8
330
67
100
AcDbEntity
  8
1
  6
Continuous
 62
     7
100
AcDbCircle
 10
82.00258163965057
 20
-309.7796641832751
 30
0.0
 40
12.48330483794727
100
AcDbArc
 50
317.8743950373357
 51
2.87439503733524
  0
ARC
  5
1C9
330
67
100
AcDbEntity
  8
1
  6
Continuous
 62
     7
100
AcDbCircle
 10
82.00258163965057
 20
-309.7796641832751
 30
0.0
 40
10.98544956464278
100
AcDbArc
 50
318.2667156129365
 51
3.26671561293554
  0
ARC
  5
1CA
330
67
100
AcDbEntity
  8
1
  6
Continuous
 62
     7
100
AcDbCircle
 10
116.9825437299656
 20
-309.7796641832751
 30
0.0
 40
12.48330483794718
100
AcDbArc
 50
177.1256049626647
 51
222.1256049626644
  0
ARC
  5
1CB
330
67
100
AcDbEntity
  8
1
  6
Continuous
 62
     7
100
AcDbCircle
 10
116.9825437299656
 20
-309.7796641832751
 30
0.0
 40
10.98544956464276
100
AcDbArc
 50
176.7332843870645
 51
221.7332843870635
  0
ENDBLK
  5
6B
330
67
100
AcDbEntity
  8
0
100
AcDbBlockEnd
  0
BLOCK
  5
6D
330
6C
100
AcDbEntity
  8
0
100
AcDbBlockBegin
  2
37-155
 70
     0
 10
650.434465419252
 20
-380.3006019983239
 30
0.0
  3
37-155
  1

  0
LINE
  5
1CC
330
6C
100
AcDbEntity
  8
1
  6
Continuous
 62
     7
100
AcDbLine
 10
20.02001698080451
 20
-321.400280010312
 30
0.0
 11
41.51913611376203
 21
-321.400280010312
 31
0.0
  0
LINE
  5
1CD
330
6C
100
AcDbEntity
  8
1
  6
Continuous
 62
     7
100
AcDbLine
 10
18.51913611376203
 20
-321.400280010312
 30
0.0
 11
20.02001698080451
 21
-321.400280010312
 31
0.0
  0
LINE
  5
1CE
330
6C
100
AcDbEntity
  8
1
  6
Continuous
 62
     7
100
AcDbLine
 10
88.0
 20
-321.400280010312
 30
0.0
 11
111.0
 21
-321.400280010312
 31
0.0
  0
LINE
  5
1CF
330
6C
100
AcDbEntity
  8
1
  6
Continuous
 62
     7
100
AcDbLine
 10
88.0
 20
-321.400280010312
 30
0.0
 11
90.5
 21
-318.900280010312
 31
0.0
  0
LINE
  5
1D0
330
6C
100
AcDbEntity
  8
1
  6
Continuous
 62
     7
100
AcDbLine
 10
94.5
 20
-324.900280010312
 30
0.0
 11
94.0
 21
-324.900280010312
 31
0.0
  0
LINE
  5
1D1
330
6C
100
AcDbEntity
  8
1
  6
Continuous
 62
     7
100
AcDbLine
 10
94.5
 20
-318.900280010312
 30
0.0
 11
106.5
 21
-318.900280010312
 31
0.0
  0
LINE
  5
1D2
330
6C
100
AcDbEntity
  8
1
  6
Continuous
 62
     7
100
AcDbLine
 10
94.5
 20
-324.900280010312
 30
0.0
 11
94.0
 21
-324.900280010312
 31
0.0
  0
LINE
  5
1D3
330
6C
100
AcDbEntity
  8
1
  6
Continuous
 62
     7
100
AcDbLine
 10
94.5
 20
-318.900280010312
 30
0.0
 11
96.0
 21
-318.900280010312
 31
0.0
  0
LINE
  5
1D4
330
6C
100
AcDbEntity
  8
1
  6
Continuous
 62
     7
100
AcDbLine
 10
108.25
 20
-324.900280010312
 30
0.0
 11
94.5
 21
-324.900280010312
 31
0.0
  0
LINE
  5
1D5
330
6C
100
AcDbEntity
  8
1
  6
Continuous
 62
     7
100
AcDbLine
 10
90.5
 20
-318.900280010312
 30
0.0
 11
91.0
 21
-318.900280010312
 31
0.0
  0
LINE
  5
1D6
330
6C
100
AcDbEntity
  8
1
  6
Continuous
 62
     7
100
AcDbLine
 10
94.0
 20
-318.900280010312
 30
0.0
 11
94.5
 21
-318.900280010312
 31
0.0
  0
LINE
  5
1D7
330
6C
100
AcDbEntity
  8
1
  6
Continuous
 62
     7
100
AcDbLine
 10
96.0
 20
-324.900280010312
 30
0.0
 11
94.5
 21
-324.900280010312
 31
0.0
  0
LINE
  5
1D8
330
6C
100
AcDbEntity
  8
1
  6
Continuous
 62
     7
100
AcDbLine
 10
94.0
 20
-318.900280010312
 30
0.0
 11
94.5
 21
-318.900280010312
 31
0.0
  0
LINE
  5
1D9
330
6C
100
AcDbEntity
  8
0
  6
Continuous
 62
     7
100
AcDbLine
 10
94.0
 20
-324.900280010312
 30
0.0
 11
91.77049999999997
 21
-324.900280010312
 31
0.0
  0
LINE
  5
1DA
330
6C
100
AcDbEntity
  8
0
  6
Continuous
 62
     7
100
AcDbLine
 10
91.5
 20
-324.900280010312
 30
0.0
 11
88.0
 21
-324.900280010312
 31
0.0
  0
LINE
  5
1DB
330
6C
100
AcDbEntity
  8
0
  6
Continuous
 62
     7
100
AcDbLine
 10
108.5
 20
-324.900280010312
 30
0.0
 11
108.25
 21
-324.900280010312
 31
0.0
  0
LINE
  5
1DC
330
6C
100
AcDbEntity
  8
1
  6
Continuous
 62
     7
100
AcDbLine
 10
108.25
 20
-318.900280010312
 30
0.0
 11
108.5
 21
-318.900280010312
 31
0.0
  0
LINE
  5
1DD
330
6C
100
AcDbEntity
  8
1
  6
Continuous
 62
     7
100
AcDbLine
 10
111.0
 20
-321.400280010312
 30
0.0
 11
111.0
 21
-324.900280010312
 31
0.0
  0
LINE
  5
1DE
330
6C
100
AcDbEntity
  8
1
  6
Continuous
 62
     7
100
AcDbLine
 10
108.5
 20
-318.900280010312
 30
0.0
 11
111.0
 21
-321.400280010312
 31
0.0
  0
LINE
  5
1DF
330
6C
100
AcDbEntity
  8
1
  6
Continuous
 62
     7
100
AcDbLine
 10
88.0
 20
-324.900280010312
 30
0.0
 11
88.0
 21
-321.400280010312
 31
0.0
  0
LINE
  5
1E0
330
6C
100
AcDbEntity
  8
1
  6
Continuous
 62
     7
100
AcDbLine
 10
106.5
 20
-318.900280010312
 30
0.0
 11
108.25
 21
-318.900280010312
 31
0.0
  0
LINE
  5
1E1
330
6C
100
AcDbEntity
  8
0
  6
Continuous
 62
     7
100
AcDbLine
 10
111.0
 20
-324.900280010312
 30
0.0
 11
108.5
 21
-324.900280010312
 31
0.0
  0
LINE
  5
1E2
330
6C
100
AcDbEntity
  8
1
  6
Continuous
 62
     7
100
AcDbLine
 10
91.0
 20
-318.900280010312
 30
0.0
 11
91.77049999999997
 21
-318.900280010312
 31
0.0
  0
LINE
  5
1E3
330
6C
100
AcDbEntity
  8
0
  6
Continuous
 62
     7
100
AcDbLine
 10
91.77049999999997
 20
-324.900280010312
 30
0.0
 11
91.5
 21
-324.900280010312
 31
0.0
  0
LINE
  5
1E4
330
6C
100
AcDbEntity
  8
1
  6
Continuous
 62
     7
100
AcDbLine
 10
91.77049999999997
 20
-318.900280010312
 30
0.0
 11
94.0
 21
-318.900280010312
 31
0.0
  0
LINE
  5
1E5
330
6C
100
AcDbEntity
  8
1
  6
Continuous
 62
     7
100
AcDbLine
 10
18.52001698080454
 20
-321.400280010312
 30
0.0
 11
21.02001698080454
 21
-318.900280010312
 31
0.0
  0
LINE
  5
1E6
330
6C
100
AcDbEntity
  8
1
  6
Continuous
 62
     7
100
AcDbLine
 10
25.02001698080454
 20
-324.900280010312
 30
0.0
 11
23.27001698080454
 21
-324.900280010312
 31
0.0
  0
LINE
  5
1E7
330
6C
100
AcDbEntity
  8
1
  6
Continuous
 62
     7
100
AcDbLine
 10
25.02001698080454
 20
-324.900280010312
 30
0.0
 11
20.02001698080454
 21
-324.900280010312
 31
0.0
  0
LINE
  5
1E8
330
6C
100
AcDbEntity
  8
1
  6
Continuous
 62
     7
100
AcDbLine
 10
35.02001698080454
 20
-318.900280010312
 30
0.0
 11
37.02001698080454
 21
-318.900280010312
 31
0.0
  0
LINE
  5
1E9
330
6C
100
AcDbEntity
  8
1
  6
Continuous
 62
     7
100
AcDbLine
 10
38.77001698080454
 20
-324.900280010312
 30
0.0
 11
35.02001698080454
 21
-324.900280010312
 31
0.0
  0
LINE
  5
1EA
330
6C
100
AcDbEntity
  8
1
  6
Continuous
 62
     7
100
AcDbLine
 10
24.52001698080454
 20
-318.900280010312
 30
0.0
 11
26.02001698080454
 21
-318.9002800103119
 31
0.0
  0
LINE
  5
1EB
330
6C
100
AcDbEntity
  8
1
  6
Continuous
 62
     7
100
AcDbLine
 10
24.52001698080454
 20
-318.900280010312
 30
0.0
 11
26.02001698080454
 21
-318.9002800103119
 31
0.0
  0
LINE
  5
1EC
330
6C
100
AcDbEntity
  8
0
  6
Continuous
 62
     7
100
AcDbLine
 10
20.02001698080454
 20
-324.900280010312
 30
0.0
 11
18.52001698080454
 21
-324.900280010312
 31
0.0
  0
LINE
  5
1ED
330
6C
100
AcDbEntity
  8
0
  6
Continuous
 62
     7
100
AcDbLine
 10
39.02001698080454
 20
-324.900280010312
 30
0.0
 11
38.77001698080454
 21
-324.900280010312
 31
0.0
  0
LINE
  5
1EE
330
6C
100
AcDbEntity
  8
1
  6
Continuous
 62
     7
100
AcDbLine
 10
38.77001698080454
 20
-318.900280010312
 30
0.0
 11
39.02001698080454
 21
-318.900280010312
 31
0.0
  0
LINE
  5
1EF
330
6C
100
AcDbEntity
  8
1
  6
DASH_CENTER
 62
     2
100
AcDbLine
 10
30.02001698080454
 20
-327.900280010312
 30
0.0
 11
30.02001698080454
 21
-315.900280010312
 31
0.0
  0
LINE
  5
1F0
330
6C
100
AcDbEntity
  8
1
  6
Continuous
 62
     7
100
AcDbLine
 10
41.52001698080454
 20
-321.400280010312
 30
0.0
 11
41.52001698080454
 21
-324.900280010312
 31
0.0
  0
LINE
  5
1F1
330
6C
100
AcDbEntity
  8
1
  6
Continuous
 62
     7
100
AcDbLine
 10
39.02001698080454
 20
-318.900280010312
 30
0.0
 11
41.52001698080454
 21
-321.400280010312
 31
0.0
  0
LINE
  5
1F2
330
6C
100
AcDbEntity
  8
1
  6
Continuous
 62
     7
100
AcDbLine
 10
18.52001698080454
 20
-324.900280010312
 30
0.0
 11
18.52001698080454
 21
-321.400280010312
 31
0.0
  0
LINE
  5
1F3
330
6C
100
AcDbEntity
  8
1
  6
Continuous
 62
     7
100
AcDbLine
 10
37.02001698080454
 20
-318.900280010312
 30
0.0
 11
38.77001698080454
 21
-318.900280010312
 31
0.0
  0
LINE
  5
1F4
330
6C
100
AcDbEntity
  8
0
  6
Continuous
 62
     7
100
AcDbLine
 10
41.52001698080454
 20
-324.900280010312
 30
0.0
 11
39.02001698080454
 21
-324.900280010312
 31
0.0
  0
LINE
  5
1F5
330
6C
100
AcDbEntity
  8
1
  6
DASH_CENTER
 62
     2
100
AcDbLine
 10
21.52001698080454
 20
-316.3202043352991
 30
0.0
 11
21.52001698080454
 21
-328.3202043352991
 31
0.0
  0
LINE
  5
1F6
330
6C
100
AcDbEntity
  8
1
  6
Continuous
 62
     7
100
AcDbLine
 10
21.02001698080454
 20
-318.900280010312
 30
0.0
 11
24.52001698080454
 21
-318.900280010312
 31
0.0
  0
LINE
  5
1F7
330
6C
100
AcDbEntity
  8
1
  6
Continuous
 62
     7
100
AcDbLine
 10
23.27001698080454
 20
-324.900280010312
 30
0.0
 11
23.02001698080454
 21
-324.900280010312
 31
0.0
  0
LINE
  5
1F8
330
6C
100
AcDbEntity
  8
1
  6
Continuous
 62
     7
100
AcDbLine
 10
23.27001698080454
 20
-324.900280010312
 30
0.0
 11
23.02001698080454
 21
-324.900280010312
 31
0.0
  0
LINE
  5
1F9
330
6C
100
AcDbEntity
  8
1
  6
Continuous
 62
     7
100
AcDbLine
 10
35.02001698080454
 20
-318.900280010312
 30
0.0
 11
34.02001698080454
 21
-318.900280010312
 31
0.0
  0
LINE
  5
1FA
330
6C
100
AcDbEntity
  8
1
  6
Continuous
 62
     7
100
AcDbLine
 10
35.02001698080454
 20
-324.900280010312
 30
0.0
 11
26.02001698080454
 21
-324.900280010312
 31
0.0
  0
LINE
  5
1FB
330
6C
100
AcDbEntity
  8
1
  6
Continuous
 62
     7
100
AcDbLine
 10
25.02001698080454
 20
-324.900280010312
 30
0.0
 11
26.02001698080454
 21
-324.900280010312
 31
0.0
  0
ENDBLK
  5
6E
330
6C
100
AcDbEntity
  8
0
100
AcDbBlockEnd
  0
BLOCK
  5
20F
330
206
100
AcDbEntity
  8
0
100
AcDbBlockBegin
  2
*D13
 70
     1
 10
0.0
 20
0.0
 30
0.0
  3
*D13
  1

  0
LINE
  5
207
330
206
100
AcDbEntity
  8
1
  6
Continuous
 62
     2
100
AcDbLine
 10
62.41141453606493
 20
-230.384480725393
 30
0.0
 11
62.41141453606493
 21
-223.384480725393
 31
0.0
  0
LINE
  5
208
330
206
100
AcDbEntity
  8
1
  6
Continuous
 62
     2
100
AcDbLine
 10
62.41141453606493
 20
-232.384480725393
 30
0.0
 11
62.41141453606493
 21
-230.384480725393
 31
0.0
  0
LINE
  5
209
330
206
100
AcDbEntity
  8
1
  6
Continuous
 62
     2
100
AcDbLine
 10
62.41141453606493
 20
-239.384480725393
 30
0.0
 11
62.41141453606493
 21
-232.384480725393
 31
0.0
  0
LINE
  5
20A
330
206
100
AcDbEntity
  8
1
  6
Continuous
 62
     2
100
AcDbLine
 10
36.02001698080454
 20
-230.384480725393
 30
0.0
 11
64.41141453606494
 21
-230.384480725393
 31
0.0
  0
LINE
  5
20B
330
206
100
AcDbEntity
  8
1
  6
Continuous
 62
     2
100
AcDbLine
 10
36.02001698080454
 20
-232.384480725393
 30
0.0
 11
64.41141453606494
 21
-232.384480725393
 31
0.0
  0
SOLID
  5
20C
330
206
100
AcDbEntity
  8
1
 62
     2
100
AcDbTrace
 10
61.95063079450905
 20
-226.884480725393
 30
0.0
 11
62.87219827762082
 21
-226.884480725393
 31
0.0
 12
62.41141453606493
 22
-230.384480725393
 32
0.0
 13
62.41141453606493
 23
-230.384480725393
 33
0.0
  0
SOLID
  5
20D
330
206
100
AcDbEntity
  8
1
 62
     2
100
AcDbTrace
 10
62.87219827762082
 20
-235.884480725393
 30
0.0
 11
61.95063079450905
 21
-235.884480725393
 31
0.0
 12
62.41141453606493
 22
-232.384480725393
 32
0.0
 13
62.41141453606493
 23
-232.384480725393
 33
0.0
  0
MTEXT
  5
20E
330
206
100
AcDbEntity
  8
1
 62
     7
100
AcDbMText
 10
60.41141453606493
 20
-227.791001952556
 30
0.0
 40
3.0
 41
0.0
 71
     7
 72
     1
  1
2
  7
CONVERTER_12
 11
0.0
 21
1.0
 31
0.0
 73
     1
 44
0.60024009603842
  0
ENDBLK
  5
210
330
206
100
AcDbEntity
  8
0
100
AcDbBlockEnd
  0
BLOCK
  5
21A
330
213
100
AcDbEntity
  8
0
100
AcDbBlockBegin
  2
*D14
 70
     1
 10
0.0
 20
0.0
 30
0.0
  3
*D14
  1

  0
LINE
  5
214
330
213
100
AcDbEntity
  8
1
  6
Continuous
 62
     2
100
AcDbLine
 10
-18.47998301919547
 20
-327.200280010312
 30
0.0
 11
-18.47998301919547
 21
-281.3202043352991
 31
0.0
  0
LINE
  5
215
330
213
100
AcDbEntity
  8
1
  6
Continuous
 62
     2
100
AcDbLine
 10
10.52001698080453
 20
-281.3202043352991
 30
0.0
 11
-20.47998301919547
 21
-281.3202043352991
 31
0.0
  0
LINE
  5
216
330
213
100
AcDbEntity
  8
1
  6
Continuous
 62
     2
100
AcDbLine
 10
20.02001698080453
 20
-327.200280010312
 30
0.0
 11
-20.47998301919547
 21
-327.200280010312
 31
0.0
  0
SOLID
  5
217
330
213
100
AcDbEntity
  8
1
 62
     2
100
AcDbTrace
 10
-18.01919927763959
 20
-284.8202043352991
 30
0.0
 11
-18.94076676075136
 21
-284.8202043352991
 31
0.0
 12
-18.47998301919547
 22
-281.3202043352991
 32
0.0
 13
-18.47998301919547
 23
-281.3202043352991
 33
0.0
  0
SOLID
  5
218
330
213
100
AcDbEntity
  8
1
 62
     2
100
AcDbTrace
 10
-18.94076676075136
 20
-323.700280010312
 30
0.0
 11
-18.01919927763958
 21
-323.700280010312
 31
0.0
 12
-18.47998301919547
 22
-327.200280010312
 32
0.0
 13
-18.47998301919547
 23
-327.200280010312
 33
0.0
  0
MTEXT
  5
219
330
213
100
AcDbEntity
  8
1
 62
     7
100
AcDbMText
 10
-20.47998301919547
 20
-307.446159055246
 30
0.0
 40
3.0
 41
0.0
 71
     7
 72
     1
  1
46
  7
CONVERTER_12
 11
0.0
 21
1.0
 31
0.0
 73
     1
 44
0.60024009603842
  0
ENDBLK
  5
21B
330
213
100
AcDbEntity
  8
0
100
AcDbBlockEnd
  0
BLOCK
  5
227
330
21E
100
AcDbEntity
  8
0
100
AcDbBlockBegin
  2
*D15
 70
     1
 10
0.0
 20
0.0
 30
0.0
  3
*D15
  1

  0
LINE
  5
21F
330
21E
100
AcDbEntity
  8
1
  6
Continuous
 62
     2
100
AcDbLine
 10
-2.47998301919547
 20
-281.3202043352991
 30
0.0
 11
-2.47998301919547
 21
-274.3202043352991
 31
0.0
  0
LINE
  5
220
330
21E
100
AcDbEntity
  8
1
  6
Continuous
 62
     2
100
AcDbLine
 10
-2.47998301919547
 20
-286.3202043352991
 30
0.0
 11
-2.47998301919547
 21
-293.3202043352991
 31
0.0
  0
LINE
  5
221
330
21E
100
AcDbEntity
  8
1
  6
Continuous
 62
     2
100
AcDbLine
 10
-2.47998301919547
 20
-286.3202043352991
 30
0.0
 11
-2.47998301919547
 21
-281.3202043352991
 31
0.0
  0
LINE
  5
222
330
21E
100
AcDbEntity
  8
1
  6
Continuous
 62
     2
100
AcDbLine
 10
10.52001698080453
 20
-281.3202043352991
 30
0.0
 11
-4.47998301919547
 21
-281.3202043352991
 31
0.0
  0
LINE
  5
223
330
21E
100
AcDbEntity
  8
1
  6
Continuous
 62
     2
100
AcDbLine
 10
7.52001698080453
 20
-286.3202043352991
 30
0.0
 11
-4.47998301919547
 21
-286.3202043352991
 31
0.0
  0
SOLID
  5
224
330
21E
100
AcDbEntity
  8
1
 62
     2
100
AcDbTrace
 10
-2.01919927763958
 20
-289.8202043352991
 30
0.0
 11
-2.94076676075135
 21
-289.8202043352991
 31
0.0
 12
-2.47998301919547
 22
-286.3202043352991
 32
0.0
 13
-2.47998301919547
 23
-286.3202043352991
 33
0.0
  0
SOLID
  5
225
330
21E
100
AcDbEntity
  8
1
 62
     2
100
AcDbTrace
 10
-2.94076676075135
 20
-277.8202043352991
 30
0.0
 11
-2.01919927763958
 21
-277.8202043352991
 31
0.0
 12
-2.47998301919547
 22
-281.3202043352991
 32
0.0
 13
-2.47998301919547
 23
-281.3202043352991
 33
0.0
  0
MTEXT
  5
226
330
21E
100
AcDbEntity
  8
1
 62
     7
100
AcDbMText
 10
-4.47998301919547
 20
-285.29817629683
 30
0.0
 40
3.0
 41
0.0
 71
     7
 72
     1
  1
5
  7
CONVERTER_12
 11
0.0
 21
1.0
 31
0.0
 73
     1
 44
0.60024009603842
  0
ENDBLK
  5
228
330
21E
100
AcDbEntity
  8
0
100
AcDbBlockEnd
  0
BLOCK
  5
232
330
22B
100
AcDbEntity
  8
0
100
AcDbBlockBegin
  2
*D16
 70
     1
 10
0.0
 20
0.0
 30
0.0
  3
*D16
  1

  0
LINE
  5
22C
330
22B
100
AcDbEntity
  8
1
  6
Continuous
 62
     2
100
AcDbLine
 10
-10.47998301919547
 20
-326.323859055441
 30
0.0
 11
-10.47998301919547
 21
-281.3202043352991
 31
0.0
  0
LINE
  5
22D
330
22B
100
AcDbEntity
  8
1
  6
Continuous
 62
     2
100
AcDbLine
 10
10.52001698080453
 20
-281.3202043352991
 30
0.0
 11
-12.47998301919547
 21
-281.3202043352991
 31
0.0
  0
LINE
  5
22E
330
22B
100
AcDbEntity
  8
1
  6
Continuous
 62
     2
100
AcDbLine
 10
26.02001698080453
 20
-326.323859055441
 30
0.0
 11
-12.47998301919547
 21
-326.323859055441
 31
0.0
  0
SOLID
  5
22F
330
22B
100
AcDbEntity
  8
1
 62
     2
100
AcDbTrace
 10
-10.94076676075136
 20
-322.823859055441
 30
0.0
 11
-10.01919927763958
 21
-322.823859055441
 31
0.0
 12
-10.47998301919547
 22
-326.323859055441
 32
0.0
 13
-10.47998301919547
 23
-326.323859055441
 33
0.0
  0
SOLID
  5
230
330
22B
100
AcDbEntity
  8
1
 62
     2
100
AcDbTrace
 10
-10.01919927763959
 20
-284.8202043352991
 30
0.0
 11
-10.94076676075136
 21
-284.8202043352991
 31
0.0
 12
-10.47998301919547
 22
-281.3202043352991
 32
0.0
 13
-10.47998301919547
 23
-281.3202043352991
 33
0.0
  0
MTEXT
  5
231
330
22B
100
AcDbEntity
  8
1
 62
     7
100
AcDbMText
 10
-12.47998301919547
 20
-303.07609571317
 30
0.0
 40
3.0
 41
0.0
 71
     7
 72
     1
  1
45
  7
CONVERTER_12
 11
0.0
 21
1.0
 31
0.0
 73
     1
 44
0.60024009603842
  0
ENDBLK
  5
233
330
22B
100
AcDbEntity
  8
0
100
AcDbBlockEnd
  0
BLOCK
  5
23D
330
236
100
AcDbEntity
  8
0
100
AcDbBlockBegin
  2
*D17
 70
     1
 10
0.0
 20
0.0
 30
0.0
  3
*D17
  1

  0
LINE
  5
237
330
236
100
AcDbEntity
  8
1
  6
Continuous
 62
     2
100
AcDbLine
 10
7.52001698080453
 20
-271.3202043352991
 30
0.0
 11
52.52001698080453
 21
-271.3202043352991
 31
0.0
  0
LINE
  5
238
330
236
100
AcDbEntity
  8
1
  6
Continuous
 62
     2
100
AcDbLine
 10
52.52001698080453
 20
-284.3202043352991
 30
0.0
 11
52.52001698080453
 21
-269.3202043352991
 31
0.0
  0
LINE
  5
239
330
236
100
AcDbEntity
  8
1
  6
Continuous
 62
     2
100
AcDbLine
 10
7.52001698080453
 20
-284.3202043352991
 30
0.0
 11
7.52001698080453
 21
-269.3202043352991
 31
0.0
  0
SOLID
  5
23A
330
236
100
AcDbEntity
  8
1
 62
     2
100
AcDbTrace
 10
11.02001698080453
 20
-270.8594205937432
 30
0.0
 11
11.02001698080453
 21
-271.780988076855
 31
0.0
 12
7.52001698080453
 22
-271.3202043352991
 32
0.0
 13
7.52001698080453
 23
-271.3202043352991
 33
0.0
  0
SOLID
  5
23B
330
236
100
AcDbEntity
  8
1
 62
     2
100
AcDbTrace
 10
49.02001698080453
 20
-271.780988076855
 30
0.0
 11
49.02001698080453
 21
-270.8594205937432
 31
0.0
 12
52.52001698080453
 22
-271.3202043352991
 32
0.0
 13
52.52001698080453
 23
-271.3202043352991
 33
0.0
  0
MTEXT
  5
23C
330
236
100
AcDbEntity
  8
1
 62
     7
100
AcDbMText
 10
27.58355303452816
 20
-269.3202102985073
 30
0.0
 40
3.0
 41
0.0
 71
     7
 72
     1
  1
\C7;{\Fgdt;n}\C7;45
  7
CONVERTER_12
 11
0.9999999999970619
 21
2.424068405545306E-6
 31
0.0
 73
     1
 44
0.60024009603842
  0
ENDBLK
  5
23E
330
236
100
AcDbEntity
  8
0
100
AcDbBlockEnd
  0
BLOCK
  5
249
330
241
100
AcDbEntity
  8
0
100
AcDbBlockBegin
  2
*D18
 70
     1
 10
0.0
 20
0.0
 30
0.0
  3
*D18
  1

  0
LINE
  5
242
330
241
100
AcDbEntity
  8
1
  6
Continuous
 62
     2
100
AcDbLine
 10
9.98410057773331
 20
-302.119486967708
 30
0.0
 11
32.9841005777333
 21
-302.119486967708
 31
0.0
  0
LINE
  5
243
330
241
100
AcDbEntity
  8
1
  6
Continuous
 62
     2
100
AcDbLine
 10
9.98410057773331
 20
-302.119486967708
 30
0.0
 11
0.41891935449806
 21
-302.119486967708
 31
0.0
  0
LINE
  5
244
330
241
100
AcDbEntity
  8
1
  6
Continuous
 62
     2
100
AcDbLine
 10
18.52001698080454
 20
-287.334846068428
 30
0.0
 11
8.98410057773331
 21
-303.8515377752769
 31
0.0
  0
LINE
  5
245
330
241
100
AcDbEntity
  8
1
  6
Continuous
 62
     2
100
AcDbLine
 10
41.52001698080454
 20
-287.334846068428
 30
0.0
 11
31.9841005777333
 21
-303.8515377752769
 31
0.0
  0
SOLID
  5
246
330
241
100
AcDbEntity
  8
1
 62
     2
100
AcDbTrace
 10
13.48410057773331
 20
-301.6587032261521
 30
0.0
 11
13.48410057773331
 21
-302.5802707092639
 31
0.0
 12
9.98410057773331
 22
-302.119486967708
 32
0.0
 13
9.98410057773331
 23
-302.119486967708
 33
0.0
  0
SOLID
  5
247
330
241
100
AcDbEntity
  8
1
 62
     2
100
AcDbTrace
 10
29.4841005777333
 20
-302.5802707092639
 30
0.0
 11
29.4841005777333
 21
-301.6587032261521
 31
0.0
 12
32.9841005777333
 22
-302.119486967708
 32
0.0
 13
32.9841005777333
 23
-302.119486967708
 33
0.0
  0
MTEXT
  5
248
330
241
100
AcDbEntity
  8
1
 62
     7
100
AcDbMText
 10
1.55891935450529
 20
-300.1194929309162
 30
0.0
 40
3.0
 41
0.0
 71
     7
 72
     1
  1
\C7;{\Fgdt;n}\C7;23
  7
CONVERTER_12
 11
0.9999999999970619
 21
2.424068405545306E-6
 31
0.0
 73
     1
 44
0.60024009603842
  0
ENDBLK
  5
24A
330
241
100
AcDbEntity
  8
0
100
AcDbBlockEnd
  0
BLOCK
  5
254
330
24D
100
AcDbEntity
  8
0
100
AcDbBlockBegin
  2
*D19
 70
     1
 10
0.0
 20
0.0
 30
0.0
  3
*D19
  1

  0
LINE
  5
24E
330
24D
100
AcDbEntity
  8
1
  6
Continuous
 62
     2
100
AcDbLine
 10
18.52001698080454
 20
-337.200280010312
 30
0.0
 11
41.52001698080454
 21
-337.200280010312
 31
0.0
  0
LINE
  5
24F
330
24D
100
AcDbEntity
  8
1
  6
Continuous
 62
     2
100
AcDbLine
 10
18.52001698080454
 20
-324.900280010312
 30
0.0
 11
18.52001698080454
 21
-339.200280010312
 31
0.0
  0
LINE
  5
250
330
24D
100
AcDbEntity
  8
1
  6
Continuous
 62
     2
100
AcDbLine
 10
41.52001698080454
 20
-324.900280010312
 30
0.0
 11
41.52001698080454
 21
-339.200280010312
 31
0.0
  0
SOLID
  5
251
330
24D
100
AcDbEntity
  8
1
 62
     2
100
AcDbTrace
 10
22.02001698080454
 20
-336.7394962687561
 30
0.0
 11
22.02001698080454
 21
-337.6610637518679
 31
0.0
 12
18.52001698080454
 22
-337.200280010312
 32
0.0
 13
18.52001698080454
 23
-337.200280010312
 33
0.0
  0
SOLID
  5
252
330
24D
100
AcDbEntity
  8
1
 62
     2
100
AcDbTrace
 10
38.02001698080454
 20
-337.6610637518679
 30
0.0
 11
38.02001698080454
 21
-336.7394962687561
 31
0.0
 12
41.52001698080454
 22
-337.200280010312
 32
0.0
 13
41.52001698080454
 23
-337.200280010312
 33
0.0
  0
MTEXT
  5
253
330
24D
100
AcDbEntity
  8
1
 62
     7
100
AcDbMText
 10
27.21120059428273
 20
-335.2002859735202
 30
0.0
 40
3.0
 41
0.0
 71
     7
 72
     1
  1
\C7;{\Fgdt;n}\C7;23
  7
CONVERTER_12
 11
0.9999999999970619
 21
2.424068405545306E-6
 31
0.0
 73
     1
 44
0.60024009603842
  0
ENDBLK
  5
255
330
24D
100
AcDbEntity
  8
0
100
AcDbBlockEnd
  0
ENDSEC
  0
SECTION
  2
ENTITIES
  0
INSERT
  5
6F
330
1F
100
AcDbEntity
  8
1
100
AcDbBlockReference
  2
PLIST
 10
-25.99465898021817
 20
-414.8963782592379
 30
0.0
  0
INSERT
  5
70
330
1F
100
AcDbEntity
  8
0
100
AcDbBlockReference
  2
開示縦HP-A4
 10
-62.7059013470507
 20
-509.3222993245242
 30
0.0
  0
INSERT
  5
71
330
1F
100
AcDbEntity
  8
0
100
AcDbBlockReference
  2
85-99
 10
403.785110095025
 20
-283.253715060939
 30
0.0
  0
INSERT
  5
72
330
1F
100
AcDbEntity
  8
0
100
AcDbBlockReference
  2
R703__1
 10
459.839978910857
 20
-142.383879774817
 30
0.0
  0
INSERT
  5
73
330
1F
100
AcDbEntity
  8
1
100
AcDbBlockReference
  2
6
 10
51.99999999999999
 20
55.0
 30
0.0
  0
INSERT
  5
74
330
1F
100
AcDbEntity
  8
1
100
AcDbBlockReference
  2
3
 10
64.5
 20
12.5
 30
0.0
  0
INSERT
  5
75
330
1F
100
AcDbEntity
  8
1
100
AcDbBlockReference
  2
55-36X
 10
103.7495822285455
 20
31.5999291857984
 30
0.0
  0
INSERT
  5
76
330
1F
100
AcDbEntity
  8
0
100
AcDbBlockReference
  2
37-155
 10
650.434465419252
 20
-380.3006019983239
 30
0.0
  0
LINE
  5
1FC
330
1F
100
AcDbEntity
  8
1
  6
DASH_CENTER
 62
     2
100
AcDbLine
 10
30.02001698080454
 20
-278.3202043352991
 30
0.0
 11
30.02001698080454
 21
-329.3113865107609
 31
0.0
  0
LINE
  5
1FD
330
1F
100
AcDbEntity
  8
1
  6
DASH_CENTER
 62
     2
100
AcDbLine
 10
99.50021412870564
 20
-278.3202043352991
 30
0.0
 11
99.4934951356862
 21
-329.3113865107609
 31
0.0
  0
LINE
  5
1FE
330
1F
100
AcDbEntity
  8
1
  6
DASH_CENTER
 62
     2
100
AcDbLine
 10
30.02001698080454
 20
-205.8932346619689
 30
0.0
 11
30.02001698080454
 21
-256.884480725393
 31
0.0
  0
LINE
  5
1FF
330
1F
100
AcDbEntity
  8
1
  6
DASH_CENTER
 62
     2
100
AcDbLine
 10
4.52001698080454
 20
-231.384480725393
 30
0.0
 11
55.52001698080454
 21
-231.384480725393
 31
0.0
  0
SOLID
  5
200
330
1F
100
AcDbEntity
  8
1
 62
     2
100
AcDbTrace
 10
18.20716897913242
 20
-312.4294554392555
 30
0.0
 11
17.48493198488571
 21
-311.8570392007801
 31
0.0
 12
20.02001698080454
 22
-309.400280010312
 32
0.0
 13
20.02001698080454
 23
-309.400280010312
 33
0.0
  0
LEADER
  5
201
330
1F
100
AcDbEntity
  8
1
  6
Continuous
 62
     2
100
AcDbLeader
  3
Standard
 71
     0
 76
     3
 10
20.02001698080454
 20
-309.400280010312
 30
0.0
 10
10.85513996245864
 20
-320.963916373948
 30
0.0
 10
-5.76168580917237
 20
-320.963916373948
 30
0.0
  0
SOLID
  5
202
330
1F
100
AcDbEntity
  8
1
 62
     2
100
AcDbTrace
 10
37.16906740664281
 20
-312.1849766505796
 30
0.0
 11
36.37096655496633
 21
-312.6457603921355
 31
0.0
 12
35.02001698080454
 22
-309.384279608112
 32
0.0
 13
35.02001698080454
 23
-309.384279608112
 33
0.0
  0
LEADER
  5
203
330
1F
100
AcDbEntity
  8
1
  6
Continuous
 62
     2
100
AcDbLeader
  3
Standard
 71
     0
 76
     3
 10
35.02001698080454
 20
-309.384279608112
 30
0.0
 10
38.69447284022635
 20
-315.7486238467998
 30
0.0
 10
58.5038328693624
 20
-315.7486238467998
 30
0.0
  0
MTEXT
  5
204
330
1F
100
AcDbEntity
  8
1
 62
     7
100
AcDbMText
 10
49.24648675198151
 20
-312.5886657785302
 30
0.0
 40
3.0
 41
0.0
 71
     5
 72
     1
  1
M10X1,25
  7
CONVERTER_12
 73
     1
 44
0.7202881152461
  0
MTEXT
  5
205
330
1F
100
AcDbEntity
  8
1
 62
     7
100
AcDbMText
 10
1.96059450791332
 20
-317.787552737585
 30
0.0
 40
3.0
 41
0.0
 71
     5
 72
     1
  1
M3X0,5
  7
CONVERTER_12
 73
     1
 44
0.7202881152461
  0
DIMENSION
  5
212
330
1F
100
AcDbEntity
  8
1
100
AcDbDimension
  2
*D13
 10
62.41141453606493
 20
-230.384480725393
 30
0.0
 11
58.91141453606493
 21
-226.891001952556
 31
0.0
 70
    33
  1
<>
 71
     5
 42
-1.0
 53
90.0
  3
ME10_DIM_10
100
AcDbAlignedDimension
 13
36.02001698080454
 23
-232.384480725393
 33
0.0
 14
36.02001698080454
 24
-230.384480725393
 34
0.0
  0
DIMENSION
  5
21D
330
1F
100
AcDbEntity
  8
1
100
AcDbDimension
  2
*D14
 10
-18.47998301919547
 20
-281.3202043352991
 30
0.0
 11
-21.97998301919547
 21
-305.196159055246
 31
0.0
 70
    32
  1
46
 71
     5
 42
-1.0
 53
90.0
  3
ME10_DIM_11
100
AcDbAlignedDimension
 13
20.02001698080454
 23
-327.200280010312
 33
0.0
 14
10.52001698080454
 24
-281.3202043352991
 34
0.0
 50
90.0
100
AcDbRotatedDimension
  0
DIMENSION
  5
22A
330
1F
100
AcDbEntity
  8
1
100
AcDbDimension
  2
*D15
 10
-2.47998301919547
 20
-286.3202043352991
 30
0.0
 11
-5.97998301919547
 21
-284.39817629683
 31
0.0
 70
    32
  1
<>
 71
     5
 42
-1.0
 53
90.0
  3
ME10_DIM_12
100
AcDbAlignedDimension
 13
10.52001698080454
 23
-281.3202043352991
 33
0.0
 14
7.52001698080454
 24
-286.3202043352991
 34
0.0
 50
90.0
100
AcDbRotatedDimension
  0
DIMENSION
  5
235
330
1F
100
AcDbEntity
  8
1
100
AcDbDimension
  2
*D16
 10
-10.47998301919547
 20
-326.323859055441
 30
0.0
 11
-13.97998301919547
 21
-300.82609571317
 31
0.0
 70
    32
  1
<>
 71
     5
 42
-1.0
 53
90.0
  3
ME10_DIM_13
100
AcDbAlignedDimension
 13
10.52001698080454
 23
-281.3202043352991
 33
0.0
 14
26.02001698080454
 24
-326.323859055441
 34
0.0
 50
90.0
100
AcDbRotatedDimension
  0
DIMENSION
  5
240
330
1F
100
AcDbEntity
  8
1
100
AcDbDimension
  2
*D17
 10
7.52001698080453
 20
-271.3202043352991
 30
0.0
 11
30.49355303452093
 21
-267.8202043352991
 31
0.0
 70
    33
  1
<>
 71
     5
 42
-1.0
 53
0.00013888888889
  3
ME10_DIM_14
100
AcDbAlignedDimension
 13
52.52001698080454
 23
-284.3202043352991
 33
0.0
 14
7.52001698080454
 24
-284.3202043352991
 34
0.0
  0
DIMENSION
  5
24C
330
1F
100
AcDbEntity
  8
1
100
AcDbDimension
  2
*D18
 10
9.98410057773331
 20
-302.119486967708
 30
0.0
 11
4.46891935449806
 21
-298.619486967708
 31
0.0
 70
    33
  1
<>
 71
     5
 42
-1.0
 52
60.00000000000001
 53
0.00013888888889
  3
ME10_DIM_15
100
AcDbAlignedDimension
 13
41.52001698080454
 23
-287.334846068428
 33
0.0
 14
18.52001698080454
 24
-287.334846068428
 34
0.0
  0
DIMENSION
  5
257
330
1F
100
AcDbEntity
  8
1
100
AcDbDimension
  2
*D19
 10
18.52001698080454
 20
-337.200280010312
 30
0.0
 11
30.1212005942755
 21
-333.700280010312
 31
0.0
 70
    33
  1
<>
 71
     5
 42
-1.0
 53
0.00013888888889
  3
ME10_DIM_16
100
AcDbAlignedDimension
 13
41.52001698080454
 23
-324.900280010312
 33
0.0
 14
18.52001698080454
 24
-324.900280010312
 34
0.0
  0
ENDSEC
  0
SECTION
  2
OBJECTS
  0
DICTIONARY
  5
C
330
0
100
AcDbDictionary
281
     1
  3
ACAD_GROUP
350
D
  3
ACAD_LAYOUT
350
1A
  3
ACAD_MATERIAL
350
3B
  3
ACAD_MLEADERSTYLE
350
25A
  3
ACAD_MLINESTYLE
350
17
  3
ACAD_PLOTSETTINGS
350
19
  3
ACAD_PLOTSTYLENAME
350
E
  3
ACAD_VISUALSTYLE
350
2A
  3
AcDbVariableDictionary
350
258
  0
DICTIONARY
  5
D
102
{ACAD_REACTORS
330
C
102
}
330
C
100
AcDbDictionary
281
     1
  0
DICTIONARY
  5
1A
102
{ACAD_REACTORS
330
C
102
}
330
C
100
AcDbDictionary
281
     1
  3
Layout1
350
1E
  3
Layout2
350
26
  3
Model
350
22
  0
DICTIONARY
  5
3B
102
{ACAD_REACTORS
330
C
102
}
330
C
100
AcDbDictionary
281
     1
  3
ByBlock
350
3D
  3
ByLayer
350
3C
  3
Global
350
3E
  0
DICTIONARY
  5
25A
102
{ACAD_REACTORS
330
C
102
}
330
C
100
AcDbDictionary
281
     1
  0
DICTIONARY
  5
17
102
{ACAD_REACTORS
330
C
102
}
330
C
100
AcDbDictionary
281
     1
  3
Standard
350
18
  0
DICTIONARY
  5
19
102
{ACAD_REACTORS
330
C
102
}
330
C
100
AcDbDictionary
281
     1
  0
ACDBDICTIONARYWDFLT
  5
E
102
{ACAD_REACTORS
330
C
102
}
330
C
100
AcDbDictionary
281
     1
  3
Normal
350
F
100
AcDbDictionaryWithDefault
340
F
  0
DICTIONARY
  5
2A
102
{ACAD_REACTORS
330
C
102
}
330
C
100
AcDbDictionary
281
     1
  3
2dWireframe
350
2F
  3
3D Hidden
350
31
  3
3dWireframe
350
30
  3
Basic
350
32
  3
Brighten
350
36
  3
ColorChange
350
3A
  3
Conceptual
350
34
  3
Dim
350
35
  3
Facepattern
350
39
  3
Flat
350
2B
  3
FlatWithEdges
350
2C
  3
Gouraud
350
2D
  3
GouraudWithEdges
350
2E
  3
Linepattern
350
38
  3
Realistic
350
33
  3
Thicken
350
37
  0
DICTIONARY
  5
258
102
{ACAD_REACTORS
330
C
102
}
330
C
100
AcDbDictionary
281
     1
  3
DIMASSOC
350
25B
  3
HIDETEXT
350
25C
  0
LAYOUT
  5
1E
102
{ACAD_REACTORS
330
1A
102
}
330
1A
100
AcDbPlotSettings
  1

  2
none_device
  4

  6

 40
0.0
 41
0.0
 42
0.0
 43
0.0
 44
0.0
 45
0.0
 46
0.0
 47
0.0
 48
0.0
 49
0.0
140
0.0
141
0.0
142
1.0
143
1.0
 70
   688
 72
     0
 73
     0
 74
     5
  7

 75
    16
147
1.0
148
0.0
149
0.0
100
AcDbLayout
  1
Layout1
 70
     1
 71
     1
 10
0.0
 20
0.0
 11
12.0
 21
9.0
 12
0.0
 22
0.0
 32
0.0
 14
1.00000000000000E+20
 24
1.00000000000000E+20
 34
1.00000000000000E+20
 15
-1.00000000000000E+20
 25
-1.00000000000000E+20
 35
-1.00000000000000E+20
146
0.0
 13
0.0
 23
0.0
 33
0.0
 16
1.0
 26
0.0
 36
0.0
 17
0.0
 27
1.0
 37
0.0
 76
     0
330
1B
  0
LAYOUT
  5
26
102
{ACAD_REACTORS
330
1A
102
}
330
1A
100
AcDbPlotSettings
  1

  2
none_device
  4

  6

 40
0.0
 41
0.0
 42
0.0
 43
0.0
 44
0.0
 45
0.0
 46
0.0
 47
0.0
 48
0.0
 49
0.0
140
0.0
141
0.0
142
1.0
143
1.0
 70
   688
 72
     0
 73
     0
 74
     5
  7

 75
    16
147
1.0
148
0.0
149
0.0
100
AcDbLayout
  1
Layout2
 70
     1
 71
     2
 10
0.0
 20
0.0
 11
0.0
 21
0.0
 12
0.0
 22
0.0
 32
0.0
 14
0.0
 24
0.0
 34
0.0
 15
0.0
 25
0.0
 35
0.0
146
0.0
 13
0.0
 23
0.0
 33
0.0
 16
1.0
 26
0.0
 36
0.0
 17
0.0
 27
1.0
 37
0.0
 76
     0
330
23
  0
LAYOUT
  5
22
102
{ACAD_REACTORS
330
1A
102
}
330
1A
100
AcDbPlotSettings
  1

  2
none_device
  4

  6

 40
0.0
 41
0.0
 42
0.0
 43
0.0
 44
0.0
 45
0.0
 46
0.0
 47
0.0
 48
0.0
 49
0.0
140
0.0
141
0.0
142
1.0
143
1.0
 70
  1712
 72
     0
 73
     0
 74
     0
  7

 75
     0
147
1.0
148
0.0
149
0.0
100
AcDbLayout
  1
Model
 70
     1
 71
     0
 10
0.0
 20
0.0
 11
12.0
 21
9.0
 12
0.0
 22
0.0
 32
0.0
 14
-59.22930780451208
 24
-427.137644946644
 34
0.0
 15
150.770692195488
 25
-130.1376449466438
 35
0.0
146
0.0
 13
0.0
 23
0.0
 33
0.0
 16
1.0
 26
0.0
 36
0.0
 17
0.0
 27
1.0
 37
0.0
 76
     0
330
1F
331
29
  0
MATERIAL
  5
3D
102
{ACAD_REACTORS
330
3B
102
}
102
{ACAD_XDICTIONARY
360
27F
102
}
330
3B
100
AcDbMaterial
  1
ByBlock
  0
MATERIAL
  5
3C
102
{ACAD_REACTORS
330
3B
102
}
102
{ACAD_XDICTIONARY
360
27D
102
}
330
3B
100
AcDbMaterial
  1
ByLayer
  0
MATERIAL
  5
3E
102
{ACAD_REACTORS
330
3B
102
}
102
{ACAD_XDICTIONARY
360
281
102
}
330
3B
100
AcDbMaterial
  1
Global
  0
MLINESTYLE
  5
18
102
{ACAD_REACTORS
330
17
102
}
330
17
100
AcDbMlineStyle
  2
Standard
 70
     0
  3

 62
   256
 51
90.0
 52
90.0
 71
     2
 49
0.5
 62
   256
  6
BYLAYER
 49
-0.5
 62
   256
  6
BYLAYER
  0
ACDBPLACEHOLDER
  5
F
102
{ACAD_REACTORS
330
E
102
}
330
E
  0
VISUALSTYLE
  5
2F
102
{ACAD_REACTORS
330
2A
102
}
102
{ACAD_XDICTIONARY
360
265
102
}
330
2A
100
AcDbVisualStyle
  2
2dWireframe
 70
     4
 71
     0
 72
     2
 73
     0
 90
        0
 40
-0.6
 41
-30.0
 62
     5
 63
     7
 74
     1
 91
        4
 64
     7
 65
   257
 75
     1
175
     1
 42
1.0
 92
        0
 66
   257
 43
1.0
 76
     1
 77
     6
 78
     2
 67
     7
 79
     5
170
     0
171
     0
290
     0
174
     0
 93
        1
 44
0.0
173
     0
291
     0
 45
0.0
1001
ACAD
1000
AcDbSavedByObjectVersion
1070
     0
  0
VISUALSTYLE
  5
31
102
{ACAD_REACTORS
330
2A
102
}
102
{ACAD_XDICTIONARY
360
269
102
}
330
2A
100
AcDbVisualStyle
  2
3D Hidden
 70
     6
 71
     1
 72
     2
 73
     2
 90
        0
 40
-0.6
 41
-30.0
 62
     5
 63
     7
 74
     2
 91
        2
 64
     7
 65
   257
 75
     2
175
     1
 42
40.0
 92
        0
 66
   257
 43
1.0
 76
     1
 77
     6
 78
     2
 67
     7
 79
     3
170
     0
171
     0
290
     0
174
     0
 93
        1
 44
0.0
173
     0
291
     0
 45
0.0
1001
ACAD
1000
AcDbSavedByObjectVersion
1070
     0
  0
VISUALSTYLE
  5
30
102
{ACAD_REACTORS
330
2A
102
}
102
{ACAD_XDICTIONARY
360
267
102
}
330
2A
100
AcDbVisualStyle
  2
3dWireframe
 70
     5
 71
     0
 72
     2
 73
     0
 90
        0
 40
-0.6
 41
-30.0
 62
     5
 63
     7
 74
     1
 91
        4
 64
     7
 65
   257
 75
     1
175
     1
 42
1.0
 92
        0
 66
   257
 43
1.0
 76
     1
 77
     6
 78
     2
 67
     7
 79
     5
170
     0
171
     0
290
     0
174
     0
 93
        1
 44
0.0
173
     0
291
     0
 45
0.0
1001
ACAD
1000
AcDbSavedByObjectVersion
1070
     0
  0
VISUALSTYLE
  5
32
102
{ACAD_REACTORS
330
2A
102
}
102
{ACAD_XDICTIONARY
360
26B
102
}
330
2A
100
AcDbVisualStyle
  2
Basic
 70
     7
 71
     1
 72
     0
 73
     1
 90
        0
 40
-0.6
 41
-30.0
 62
     5
 63
     7
 74
     0
 91
        4
 64
     7
 65
   257
 75
     1
175
     1
 42
1.0
 92
        8
 66
     7
 43
1.0
 76
     1
 77
     6
 78
     2
 67
     7
 79
     5
170
     0
171
     0
290
     0
174
     0
 93
        1
 44
0.0
173
     0
291
     1
 45
0.0
1001
ACAD
1000
AcDbSavedByObjectVersion
1070
     0
  0
VISUALSTYLE
  5
36
102
{ACAD_REACTORS
330
2A
102
}
102
{ACAD_XDICTIONARY
360
273
102
}
330
2A
100
AcDbVisualStyle
  2
Brighten
 70
    12
 71
     2
 72
     2
 73
     0
 90
        0
 40
-0.6
 41
-30.0
 62
     5
 63
     7
 74
     1
 91
        4
 64
     7
 65
   257
 75
     1
175
     1
 42
1.0
 92
        8
 66
     7
 43
1.0
 76
     1
 77
     6
 78
     2
 67
     7
 79
     5
170
     0
171
     0
290
     0
174
     0
 93
        1
 44
50.0
173
     0
291
     1
 45
0.0
1001
ACAD
1000
AcDbSavedByObjectVersion
1070
     0
  0
VISUALSTYLE
  5
3A
102
{ACAD_REACTORS
330
2A
102
}
102
{ACAD_XDICTIONARY
360
27B
102
}
330
2A
100
AcDbVisualStyle
  2
ColorChange
 70
    16
 71
     2
 72
     2
 73
     3
 90
        0
 40
-0.6
 41
-30.0
 62
     5
 63
     8
 74
     1
 91
        4
 64
     7
 65
   257
 75
     1
175
     1
 42
1.0
 92
        8
 66
     8
 43
1.0
 76
     1
 77
     6
 78
     2
 67
     7
 79
     5
170
     0
171
     0
290
     0
174
     0
 93
        1
 44
0.0
173
     0
291
     1
 45
0.0
1001
ACAD
1000
AcDbSavedByObjectVersion
1070
     0
  0
VISUALSTYLE
  5
34
102
{ACAD_REACTORS
330
2A
102
}
102
{ACAD_XDICTIONARY
360
26F
102
}
330
2A
100
AcDbVisualStyle
  2
Conceptual
 70
     9
 71
     3
 72
     2
 73
     0
 90
        0
 40
-0.6
 41
-30.0
 62
     5
 63
     7
 74
     2
 91
        2
 64
     7
 65
   257
 75
     1
175
     1
 42
40.0
 92
        8
 66
     7
 43
1.0
 76
     1
 77
     6
 78
     2
 67
     7
 79
     3
170
     0
171
     0
290
     0
174
     0
 93
        1
 44
0.0
173
     0
291
     0
 45
0.0
1001
ACAD
1000
AcDbSavedByObjectVersion
1070
     0
  0
VISUALSTYLE
  5
35
102
{ACAD_REACTORS
330
2A
102
}
102
{ACAD_XDICTIONARY
360
271
102
}
330
2A
100
AcDbVisualStyle
  2
Dim
 70
    11
 71
     2
 72
     2
 73
     0
 90
        0
 40
-0.6
 41
-30.0
 62
     5
 63
     7
 74
     1
 91
        4
 64
     7
 65
   257
 75
     1
175
     1
 42
1.0
 92
        8
 66
     7
 43
1.0
 76
     1
 77
     6
 78
     2
 67
     7
 79
     5
170
     0
171
     0
290
     0
174
     0
 93
        1
 44
-50.0
173
     0
291
     1
 45
0.0
1001
ACAD
1000
AcDbSavedByObjectVersion
1070
     0
  0
VISUALSTYLE
  5
39
102
{ACAD_REACTORS
330
2A
102
}
102
{ACAD_XDICTIONARY
360
279
102
}
330
2A
100
AcDbVisualStyle
  2
Facepattern
 70
    15
 71
     2
 72
     2
 73
     0
 90
        0
 40
-0.6
 41
-30.0
 62
     5
 63
     7
 74
     1
 91
        4
 64
     7
 65
   257
 75
     1
175
     1
 42
1.0
 92
        8
 66
     7
 43
1.0
 76
     1
 77
     6
 78
     2
 67
     7
 79
     5
170
     0
171
     0
290
     0
174
     0
 93
        1
 44
0.0
173
     0
291
     1
 45
0.0
1001
ACAD
1000
AcDbSavedByObjectVersion
1070
     0
  0
VISUALSTYLE
  5
2B
102
{ACAD_REACTORS
330
2A
102
}
102
{ACAD_XDICTIONARY
360
25D
102
}
330
2A
100
AcDbVisualStyle
  2
Flat
 70
     0
 71
     2
 72
     1
 73
     1
 90
        2
 40
-0.6
 41
30.0
 62
     5
 63
     7
 74
     0
 91
        4
 64
     7
 65
   257
 75
     1
175
     1
 42
1.0
 92
        8
 66
     7
 43
1.0
 76
     1
 77
     6
 78
     2
 67
     7
 79
     5
170
     0
171
     0
290
     0
174
     0
 93
       13
 44
0.0
173
     0
291
     1
 45
0.0
1001
ACAD
1000
AcDbSavedByObjectVersion
1070
     0
  0
VISUALSTYLE
  5
2C
102
{ACAD_REACTORS
330
2A
102
}
102
{ACAD_XDICTIONARY
360
25F
102
}
330
2A
100
AcDbVisualStyle
  2
FlatWithEdges
 70
     1
 71
     2
 72
     1
 73
     1
 90
        2
 40
-0.6
 41
30.0
 62
     5
 63
     7
 74
     1
 91
        4
 64
     7
 65
   257
 75
     1
175
     1
 42
1.0
 92
        0
 66
   257
 43
1.0
 76
     1
 77
     6
 78
     2
 67
     7
 79
     5
170
     0
171
     0
290
     0
174
     0
 93
       13
 44
0.0
173
     0
291
     1
 45
0.0
1001
ACAD
1000
AcDbSavedByObjectVersion
1070
     0
  0
VISUALSTYLE
  5
2D
102
{ACAD_REACTORS
330
2A
102
}
102
{ACAD_XDICTIONARY
360
261
102
}
330
2A
100
AcDbVisualStyle
  2
Gouraud
 70
     2
 71
     2
 72
     2
 73
     1
 90
        2
 40
-0.6
 41
30.0
 62
     5
 63
     7
 74
     0
 91
        4
 64
     7
 65
   257
 75
     1
175
     1
 42
1.0
 92
        0
 66
     7
 43
1.0
 76
     1
 77
     6
 78
     2
 67
     7
 79
     5
170
     0
171
     0
290
     0
174
     0
 93
       13
 44
0.0
173
     0
291
     1
 45
0.0
1001
ACAD
1000
AcDbSavedByObjectVersion
1070
     0
  0
VISUALSTYLE
  5
2E
102
{ACAD_REACTORS
330
2A
102
}
102
{ACAD_XDICTIONARY
360
263
102
}
330
2A
100
AcDbVisualStyle
  2
GouraudWithEdges
 70
     3
 71
     2
 72
     2
 73
     1
 90
        2
 40
-0.6
 41
30.0
 62
     5
 63
     7
 74
     1
 91
        4
 64
     7
 65
   257
 75
     1
175
     1
 42
1.0
 92
        0
 66
   257
 43
1.0
 76
     1
 77
     6
 78
     2
 67
     7
 79
     5
170
     0
171
     0
290
     0
174
     0
 93
       13
 44
0.0
173
     0
291
     1
 45
0.0
1001
ACAD
1000
AcDbSavedByObjectVersion
1070
     0
  0
VISUALSTYLE
  5
38
102
{ACAD_REACTORS
330
2A
102
}
102
{ACAD_XDICTIONARY
360
277
102
}
330
2A
100
AcDbVisualStyle
  2
Linepattern
 70
    14
 71
     2
 72
     2
 73
     0
 90
        0
 40
-0.6
 41
-30.0
 62
     5
 63
     7
 74
     1
 91
        4
 64
     7
 65
   257
 75
     7
175
     7
 42
1.0
 92
        8
 66
     7
 43
1.0
 76
     1
 77
     6
 78
     2
 67
     7
 79
     5
170
     0
171
     0
290
     0
174
     0
 93
        1
 44
0.0
173
     0
291
     1
 45
0.0
1001
ACAD
1000
AcDbSavedByObjectVersion
1070
     0
  0
VISUALSTYLE
  5
33
102
{ACAD_REACTORS
330
2A
102
}
102
{ACAD_XDICTIONARY
360
26D
102
}
330
2A
100
AcDbVisualStyle
  2
Realistic
 70
     8
 71
     2
 72
     2
 73
     0
 90
        0
 40
-0.6
 41
-30.0
 62
     5
 63
     7
 74
     1
 91
        0
 64
     7
 65
   257
 75
     1
175
     1
 42
1.0
 92
        8
 66
     8
 43
1.0
 76
     1
 77
     6
 78
     2
 67
     7
 79
     5
170
     0
171
     0
290
     0
174
     0
 93
       13
 44
0.0
173
     0
291
     0
 45
0.0
1001
ACAD
1000
AcDbSavedByObjectVersion
1070
     0
  0
VISUALSTYLE
  5
37
102
{ACAD_REACTORS
330
2A
102
}
102
{ACAD_XDICTIONARY
360
275
102
}
330
2A
100
AcDbVisualStyle
  2
Thicken
 70
    13
 71
     2
 72
     2
 73
     0
 90
        0
 40
-0.6
 41
-30.0
 62
     5
 63
     7
 74
     1
 91
        4
 64
     7
 65
   257
 75
     1
175
     1
 42
1.0
 92
       12
 66
     7
 43
1.0
 76
     1
 77
     6
 78
     2
 67
     7
 79
     5
170
     0
171
     0
290
     0
174
     0
 93
        1
 44
0.0
173
     0
291
     1
 45
0.0
1001
ACAD
1000
AcDbSavedByObjectVersion
1070
     0
  0
DICTIONARYVAR
  5
25B
102
{ACAD_REACTORS
330
258
102
}
330
258
100
DictionaryVariables
280
     0
  1
2
  0
DICTIONARYVAR
  5
25C
102
{ACAD_REACTORS
330
258
102
}
330
258
100
DictionaryVariables
280
     0
  1
1
  0
DICTIONARY
  5
27F
330
3D
100
AcDbDictionary
280
     1
281
     1
  3
ACAD_XREC_ROUNDTRIP
360
280
  0
DICTIONARY
  5
27D
330
3C
100
AcDbDictionary
280
     1
281
     1
  3
ACAD_XREC_ROUNDTRIP
360
27E
  0
DICTIONARY
  5
281
330
3E
100
AcDbDictionary
280
     1
281
     1
  3
ACAD_XREC_ROUNDTRIP
360
282
  0
DICTIONARY
  5
265
330
2F
100
AcDbDictionary
280
     1
281
     1
  3
ACAD_XREC_ROUNDTRIP
360
266
  0
DICTIONARY
  5
269
330
31
100
AcDbDictionary
280
     1
281
     1
  3
ACAD_XREC_ROUNDTRIP
360
26A
  0
DICTIONARY
  5
267
330
30
100
AcDbDictionary
280
     1
281
     1
  3
ACAD_XREC_ROUNDTRIP
360
268
  0
DICTIONARY
  5
26B
330
32
100
AcDbDictionary
280
     1
281
     1
  3
ACAD_XREC_ROUNDTRIP
360
26C
  0
DICTIONARY
  5
273
330
36
100
AcDbDictionary
280
     1
281
     1
  3
ACAD_XREC_ROUNDTRIP
360
274
  0
DICTIONARY
  5
27B
330
3A
100
AcDbDictionary
280
     1
281
     1
  3
ACAD_XREC_ROUNDTRIP
360
27C
  0
DICTIONARY
  5
26F
330
34
100
AcDbDictionary
280
     1
281
     1
  3
ACAD_XREC_ROUNDTRIP
360
270
  0
DICTIONARY
  5
271
330
35
100
AcDbDictionary
280
     1
281
     1
  3
ACAD_XREC_ROUNDTRIP
360
272
  0
DICTIONARY
  5
279
330
39
100
AcDbDictionary
280
     1
281
     1
  3
ACAD_XREC_ROUNDTRIP
360
27A
  0
DICTIONARY
  5
25D
330
2B
100
AcDbDictionary
280
     1
281
     1
  3
ACAD_XREC_ROUNDTRIP
360
25E
  0
DICTIONARY
  5
25F
330
2C
100
AcDbDictionary
280
     1
281
     1
  3
ACAD_XREC_ROUNDTRIP
360
260
  0
DICTIONARY
  5
261
330
2D
100
AcDbDictionary
280
     1
281
     1
  3
ACAD_XREC_ROUNDTRIP
360
262
  0
DICTIONARY
  5
263
330
2E
100
AcDbDictionary
280
     1
281
     1
  3
ACAD_XREC_ROUNDTRIP
360
264
  0
DICTIONARY
  5
277
330
38
100
AcDbDictionary
280
     1
281
     1
  3
ACAD_XREC_ROUNDTRIP
360
278
  0
DICTIONARY
  5
26D
330
33
100
AcDbDictionary
280
     1
281
     1
  3
ACAD_XREC_ROUNDTRIP
360
26E
  0
DICTIONARY
  5
275
330
37
100
AcDbDictionary
280
     1
281
     1
  3
ACAD_XREC_ROUNDTRIP
360
276
  0
XRECORD
  5
280
102
{ACAD_REACTORS
330
27F
102
}
330
27F
100
AcDbXrecord
280
     1
102
MATERIAL
148
0.0
149
0.0
149
0.0
 93
        0
 94
      127
282
     0
 72
     1
 77
     1
171
     1
175
     1
179
     1
273
     0
  0
XRECORD
  5
27E
102
{ACAD_REACTORS
330
27D
102
}
330
27D
100
AcDbXrecord
280
     1
102
MATERIAL
148
0.0
149
0.0
149
0.0
 93
        0
 94
      127
282
     0
 72
     1
 77
     1
171
     1
175
     1
179
     1
273
     0
  0
XRECORD
  5
282
102
{ACAD_REACTORS
330
281
102
}
330
281
100
AcDbXrecord
280
     1
102
MATERIAL
148
0.0
149
0.0
149
0.0
 93
        0
 94
      127
282
     0
 72
     1
 77
     1
171
     1
175
     1
179
     1
273
     0
  0
XRECORD
  5
266
102
{ACAD_REACTORS
330
265
102
}
330
265
100
AcDbXrecord
280
     1
102
RTVSPropertyOp0
 70
     1
102
RTVSPropertyOp1
 70
     1
102
RTVSPropertyOp2
 70
     1
102
RTVSPropertyOp3
 70
     1
102
RTVSPropertyOp4
 70
     1
102
RTVSPropertyOp5
 70
     1
102
RTVSPropertyOp6
 70
     1
102
RTVSPropertyOp7
 70
     1
102
RTVSPropertyOp8
 70
     1
102
RTVSPropertyOp9
 70
     1
102
RTVSPropertyOp10
 70
     1
102
RTVSPropertyOp11
 70
     1
102
RTVSPropertyOp12
 70
     1
102
RTVSPropertyOp13
 70
     1
102
RTVSPropertyOp14
 70
     1
102
RTVSPropertyOp15
 70
     1
102
RTVSPropertyOp16
 70
     1
102
RTVSPropertyOp17
 70
     1
102
RTVSPropertyOp18
 70
     1
102
RTVSPropertyOp19
 70
     1
102
RTVSPropertyOp20
 70
     1
102
RTVSPropertyOp21
 70
     1
102
RTVSPropertyOp22
 70
     1
102
RTVSPropertyOp23
 70
     1
102
RTVSPropertyOp24
 70
     1
102
RTVSPropertyOp25
 70
     1
102
RTVSPropertyOp26
 70
     1
102
RTVSPropertyOp27
 70
     1
102
RTVSPropertyOp28
 70
     1
102
RTVSPropertyOp29
 70
     1
102
RTVSPropertyOp30
 70
     1
102
RTVSPropertyOp31
 70
     1
102
RTVSPropertyOp32
 70
     1
  0
XRECORD
  5
26A
102
{ACAD_REACTORS
330
269
102
}
330
269
100
AcDbXrecord
280
     1
102
RTVSPropertyOp0
 70
     1
102
RTVSPropertyOp1
 70
     1
102
RTVSPropertyOp2
 70
     1
102
RTVSPropertyOp3
 70
     1
102
RTVSPropertyOp4
 70
     1
102
RTVSPropertyOp5
 70
     1
102
RTVSPropertyOp6
 70
     1
102
RTVSPropertyOp7
 70
     1
102
RTVSPropertyOp8
 70
     1
102
RTVSPropertyOp9
 70
     1
102
RTVSPropertyOp10
 70
     1
102
RTVSPropertyOp11
 70
     1
102
RTVSPropertyOp12
 70
     1
102
RTVSPropertyOp13
 70
     1
102
RTVSPropertyOp14
 70
     1
102
RTVSPropertyOp15
 70
     1
102
RTVSPropertyOp16
 70
     1
102
RTVSPropertyOp17
 70
     1
102
RTVSPropertyOp18
 70
     1
102
RTVSPropertyOp19
 70
     1
102
RTVSPropertyOp20
 70
     1
102
RTVSPropertyOp21
 70
     1
102
RTVSPropertyOp22
 70
     1
102
RTVSPropertyOp23
 70
     1
102
RTVSPropertyOp24
 70
     1
102
RTVSPropertyOp25
 70
     1
102
RTVSPropertyOp26
 70
     1
102
RTVSPropertyOp27
 70
     1
102
RTVSPropertyOp28
 70
     1
102
RTVSPropertyOp29
 70
     1
102
RTVSPropertyOp30
 70
     1
102
RTVSPropertyOp31
 70
     1
102
RTVSPropertyOp32
 70
     1
  0
XRECORD
  5
268
102
{ACAD_REACTORS
330
267
102
}
330
267
100
AcDbXrecord
280
     1
102
RTVSPropertyOp0
 70
     1
102
RTVSPropertyOp1
 70
     1
102
RTVSPropertyOp2
 70
     1
102
RTVSPropertyOp3
 70
     1
102
RTVSPropertyOp4
 70
     1
102
RTVSPropertyOp5
 70
     1
102
RTVSPropertyOp6
 70
     1
102
RTVSPropertyOp7
 70
     1
102
RTVSPropertyOp8
 70
     1
102
RTVSPropertyOp9
 70
     1
102
RTVSPropertyOp10
 70
     1
102
RTVSPropertyOp11
 70
     1
102
RTVSPropertyOp12
 70
     1
102
RTVSPropertyOp13
 70
     1
102
RTVSPropertyOp14
 70
     1
102
RTVSPropertyOp15
 70
     1
102
RTVSPropertyOp16
 70
     1
102
RTVSPropertyOp17
 70
     1
102
RTVSPropertyOp18
 70
     1
102
RTVSPropertyOp19
 70
     1
102
RTVSPropertyOp20
 70
     1
102
RTVSPropertyOp21
 70
     1
102
RTVSPropertyOp22
 70
     1
102
RTVSPropertyOp23
 70
     1
102
RTVSPropertyOp24
 70
     1
102
RTVSPropertyOp25
 70
     1
102
RTVSPropertyOp26
 70
     1
102
RTVSPropertyOp27
 70
     1
102
RTVSPropertyOp28
 70
     1
102
RTVSPropertyOp29
 70
     1
102
RTVSPropertyOp30
 70
     1
102
RTVSPropertyOp31
 70
     1
102
RTVSPropertyOp32
 70
     1
  0
XRECORD
  5
26C
102
{ACAD_REACTORS
330
26B
102
}
330
26B
100
AcDbXrecord
280
     1
102
RTVSPropertyOp0
 70
     1
102
RTVSPropertyOp1
 70
     1
102
RTVSPropertyOp2
 70
     1
102
RTVSPropertyOp3
 70
     1
102
RTVSPropertyOp4
 70
     1
102
RTVSPropertyOp5
 70
     1
102
RTVSPropertyOp6
 70
     1
102
RTVSPropertyOp7
 70
     1
102
RTVSPropertyOp8
 70
     1
102
RTVSPropertyOp9
 70
     1
102
RTVSPropertyOp10
 70
     1
102
RTVSPropertyOp11
 70
     1
102
RTVSPropertyOp12
 70
     1
102
RTVSPropertyOp13
 70
     1
102
RTVSPropertyOp14
 70
     1
102
RTVSPropertyOp15
 70
     1
102
RTVSPropertyOp16
 70
     1
102
RTVSPropertyOp17
 70
     1
102
RTVSPropertyOp18
 70
     1
102
RTVSPropertyOp19
 70
     1
102
RTVSPropertyOp20
 70
     1
102
RTVSPropertyOp21
 70
     1
102
RTVSPropertyOp22
 70
     1
102
RTVSPropertyOp23
 70
     1
102
RTVSPropertyOp24
 70
     1
102
RTVSPropertyOp25
 70
     1
102
RTVSPropertyOp26
 70
     1
102
RTVSPropertyOp27
 70
     1
102
RTVSPropertyOp28
 70
     1
102
RTVSPropertyOp29
 70
     1
102
RTVSPropertyOp30
 70
     1
102
RTVSPropertyOp31
 70
     1
102
RTVSPropertyOp32
 70
     1
  0
XRECORD
  5
274
102
{ACAD_REACTORS
330
273
102
}
330
273
100
AcDbXrecord
280
     1
102
RTVSPropertyOp0
 70
     1
102
RTVSPropertyOp1
 70
     1
102
RTVSPropertyOp2
 70
     1
102
RTVSPropertyOp3
 70
     1
102
RTVSPropertyOp4
 70
     1
102
RTVSPropertyOp5
 70
     1
102
RTVSPropertyOp6
 70
     1
102
RTVSPropertyOp7
 70
     1
102
RTVSPropertyOp8
 70
     1
102
RTVSPropertyOp9
 70
     1
102
RTVSPropertyOp10
 70
     1
102
RTVSPropertyOp11
 70
     1
102
RTVSPropertyOp12
 70
     1
102
RTVSPropertyOp13
 70
     1
102
RTVSPropertyOp14
 70
     1
102
RTVSPropertyOp15
 70
     1
102
RTVSPropertyOp16
 70
     1
102
RTVSPropertyOp17
 70
     1
102
RTVSPropertyOp18
 70
     1
102
RTVSPropertyOp19
 70
     1
102
RTVSPropertyOp20
 70
     1
102
RTVSPropertyOp21
 70
     1
102
RTVSPropertyOp22
 70
     1
102
RTVSPropertyOp23
 70
     1
102
RTVSPropertyOp24
 70
     1
102
RTVSPropertyOp25
 70
     1
102
RTVSPropertyOp26
 70
     1
102
RTVSPropertyOp27
 70
     1
102
RTVSPropertyOp28
 70
     1
102
RTVSPropertyOp29
 70
     1
102
RTVSPropertyOp30
 70
     1
102
RTVSPropertyOp31
 70
     1
102
RTVSPropertyOp32
 70
     1
  0
XRECORD
  5
27C
102
{ACAD_REACTORS
330
27B
102
}
330
27B
100
AcDbXrecord
280
     1
102
RTVSPropertyOp0
 70
     1
102
RTVSPropertyOp1
 70
     1
102
RTVSPropertyOp2
 70
     1
102
RTVSPropertyOp3
 70
     1
102
RTVSPropertyOp4
 70
     1
102
RTVSPropertyOp5
 70
     1
102
RTVSPropertyOp6
 70
     1
102
RTVSPropertyOp7
 70
     1
102
RTVSPropertyOp8
 70
     1
102
RTVSPropertyOp9
 70
     1
102
RTVSPropertyOp10
 70
     1
102
RTVSPropertyOp11
 70
     1
102
RTVSPropertyOp12
 70
     1
102
RTVSPropertyOp13
 70
     1
102
RTVSPropertyOp14
 70
     1
102
RTVSPropertyOp15
 70
     1
102
RTVSPropertyOp16
 70
     1
102
RTVSPropertyOp17
 70
     1
102
RTVSPropertyOp18
 70
     1
102
RTVSPropertyOp19
 70
     1
102
RTVSPropertyOp20
 70
     1
102
RTVSPropertyOp21
 70
     1
102
RTVSPropertyOp22
 70
     1
102
RTVSPropertyOp23
 70
     1
102
RTVSPropertyOp24
 70
     1
102
RTVSPropertyOp25
 70
     1
102
RTVSPropertyOp26
 70
     1
102
RTVSPropertyOp27
 70
     1
102
RTVSPropertyOp28
 70
     1
102
RTVSPropertyOp29
 70
     1
102
RTVSPropertyOp30
 70
     1
102
RTVSPropertyOp31
 70
     1
102
RTVSPropertyOp32
 70
     1
  0
XRECORD
  5
270
102
{ACAD_REACTORS
330
26F
102
}
330
26F
100
AcDbXrecord
280
     1
102
RTVSPropertyOp0
 70
     1
102
RTVSPropertyOp1
 70
     1
102
RTVSPropertyOp2
 70
     1
102
RTVSPropertyOp3
 70
     1
102
RTVSPropertyOp4
 70
     1
102
RTVSPropertyOp5
 70
     1
102
RTVSPropertyOp6
 70
     1
102
RTVSPropertyOp7
 70
     1
102
RTVSPropertyOp8
 70
     1
102
RTVSPropertyOp9
 70
     1
102
RTVSPropertyOp10
 70
     1
102
RTVSPropertyOp11
 70
     1
102
RTVSPropertyOp12
 70
     1
102
RTVSPropertyOp13
 70
     1
102
RTVSPropertyOp14
 70
     1
102
RTVSPropertyOp15
 70
     1
102
RTVSPropertyOp16
 70
     1
102
RTVSPropertyOp17
 70
     1
102
RTVSPropertyOp18
 70
     1
102
RTVSPropertyOp19
 70
     1
102
RTVSPropertyOp20
 70
     1
102
RTVSPropertyOp21
 70
     1
102
RTVSPropertyOp22
 70
     1
102
RTVSPropertyOp23
 70
     1
102
RTVSPropertyOp24
 70
     1
102
RTVSPropertyOp25
 70
     1
102
RTVSPropertyOp26
 70
     1
102
RTVSPropertyOp27
 70
     1
102
RTVSPropertyOp28
 70
     1
102
RTVSPropertyOp29
 70
     1
102
RTVSPropertyOp30
 70
     1
102
RTVSPropertyOp31
 70
     1
102
RTVSPropertyOp32
 70
     1
  0
XRECORD
  5
272
102
{ACAD_REACTORS
330
271
102
}
330
271
100
AcDbXrecord
280
     1
102
RTVSPropertyOp0
 70
     1
102
RTVSPropertyOp1
 70
     1
102
RTVSPropertyOp2
 70
     1
102
RTVSPropertyOp3
 70
     1
102
RTVSPropertyOp4
 70
     1
102
RTVSPropertyOp5
 70
     1
102
RTVSPropertyOp6
 70
     1
102
RTVSPropertyOp7
 70
     1
102
RTVSPropertyOp8
 70
     1
102
RTVSPropertyOp9
 70
     1
102
RTVSPropertyOp10
 70
     1
102
RTVSPropertyOp11
 70
     1
102
RTVSPropertyOp12
 70
     1
102
RTVSPropertyOp13
 70
     1
102
RTVSPropertyOp14
 70
     1
102
RTVSPropertyOp15
 70
     1
102
RTVSPropertyOp16
 70
     1
102
RTVSPropertyOp17
 70
     1
102
RTVSPropertyOp18
 70
     1
102
RTVSPropertyOp19
 70
     1
102
RTVSPropertyOp20
 70
     1
102
RTVSPropertyOp21
 70
     1
102
RTVSPropertyOp22
 70
     1
102
RTVSPropertyOp23
 70
     1
102
RTVSPropertyOp24
 70
     1
102
RTVSPropertyOp25
 70
     1
102
RTVSPropertyOp26
 70
     1
102
RTVSPropertyOp27
 70
     1
102
RTVSPropertyOp28
 70
     1
102
RTVSPropertyOp29
 70
     1
102
RTVSPropertyOp30
 70
     1
102
RTVSPropertyOp31
 70
     1
102
RTVSPropertyOp32
 70
     1
  0
XRECORD
  5
27A
102
{ACAD_REACTORS
330
279
102
}
330
279
100
AcDbXrecord
280
     1
102
RTVSPropertyOp0
 70
     1
102
RTVSPropertyOp1
 70
     1
102
RTVSPropertyOp2
 70
     1
102
RTVSPropertyOp3
 70
     1
102
RTVSPropertyOp4
 70
     1
102
RTVSPropertyOp5
 70
     1
102
RTVSPropertyOp6
 70
     1
102
RTVSPropertyOp7
 70
     1
102
RTVSPropertyOp8
 70
     1
102
RTVSPropertyOp9
 70
     1
102
RTVSPropertyOp10
 70
     1
102
RTVSPropertyOp11
 70
     1
102
RTVSPropertyOp12
 70
     1
102
RTVSPropertyOp13
 70
     1
102
RTVSPropertyOp14
 70
     1
102
RTVSPropertyOp15
 70
     1
102
RTVSPropertyOp16
 70
     1
102
RTVSPropertyOp17
 70
     1
102
RTVSPropertyOp18
 70
     1
102
RTVSPropertyOp19
 70
     1
102
RTVSPropertyOp20
 70
     1
102
RTVSPropertyOp21
 70
     1
102
RTVSPropertyOp22
 70
     1
102
RTVSPropertyOp23
 70
     1
102
RTVSPropertyOp24
 70
     1
102
RTVSPropertyOp25
 70
     1
102
RTVSPropertyOp26
 70
     1
102
RTVSPropertyOp27
 70
     1
102
RTVSPropertyOp28
 70
     1
102
RTVSPropertyOp29
 70
     1
102
RTVSPropertyOp30
 70
     1
102
RTVSPropertyOp31
 70
     1
102
RTVSPropertyOp32
 70
     1
  0
XRECORD
  5
25E
102
{ACAD_REACTORS
330
25D
102
}
330
25D
100
AcDbXrecord
280
     1
102
RTVSPropertyOp0
 70
     1
102
RTVSPropertyOp1
 70
     1
102
RTVSPropertyOp2
 70
     1
102
RTVSPropertyOp3
 70
     1
102
RTVSPropertyOp4
 70
     1
102
RTVSPropertyOp5
 70
     1
102
RTVSPropertyOp6
 70
     1
102
RTVSPropertyOp7
 70
     1
102
RTVSPropertyOp8
 70
     1
102
RTVSPropertyOp9
 70
     1
102
RTVSPropertyOp10
 70
     1
102
RTVSPropertyOp11
 70
     1
102
RTVSPropertyOp12
 70
     1
102
RTVSPropertyOp13
 70
     1
102
RTVSPropertyOp14
 70
     1
102
RTVSPropertyOp15
 70
     1
102
RTVSPropertyOp16
 70
     1
102
RTVSPropertyOp17
 70
     1
102
RTVSPropertyOp18
 70
     1
102
RTVSPropertyOp19
 70
     1
102
RTVSPropertyOp20
 70
     1
102
RTVSPropertyOp21
 70
     1
102
RTVSPropertyOp22
 70
     1
102
RTVSPropertyOp23
 70
     1
102
RTVSPropertyOp24
 70
     1
102
RTVSPropertyOp25
 70
     1
102
RTVSPropertyOp26
 70
     1
102
RTVSPropertyOp27
 70
     1
102
RTVSPropertyOp28
 70
     1
102
RTVSPropertyOp29
 70
     1
102
RTVSPropertyOp30
 70
     1
102
RTVSPropertyOp31
 70
     1
102
RTVSPropertyOp32
 70
     1
  0
XRECORD
  5
260
102
{ACAD_REACTORS
330
25F
102
}
330
25F
100
AcDbXrecord
280
     1
102
RTVSPropertyOp0
 70
     1
102
RTVSPropertyOp1
 70
     1
102
RTVSPropertyOp2
 70
     1
102
RTVSPropertyOp3
 70
     1
102
RTVSPropertyOp4
 70
     1
102
RTVSPropertyOp5
 70
     1
102
RTVSPropertyOp6
 70
     1
102
RTVSPropertyOp7
 70
     1
102
RTVSPropertyOp8
 70
     1
102
RTVSPropertyOp9
 70
     1
102
RTVSPropertyOp10
 70
     1
102
RTVSPropertyOp11
 70
     1
102
RTVSPropertyOp12
 70
     1
102
RTVSPropertyOp13
 70
     1
102
RTVSPropertyOp14
 70
     1
102
RTVSPropertyOp15
 70
     1
102
RTVSPropertyOp16
 70
     1
102
RTVSPropertyOp17
 70
     1
102
RTVSPropertyOp18
 70
     1
102
RTVSPropertyOp19
 70
     1
102
RTVSPropertyOp20
 70
     1
102
RTVSPropertyOp21
 70
     1
102
RTVSPropertyOp22
 70
     1
102
RTVSPropertyOp23
 70
     1
102
RTVSPropertyOp24
 70
     1
102
RTVSPropertyOp25
 70
     1
102
RTVSPropertyOp26
 70
     1
102
RTVSPropertyOp27
 70
     1
102
RTVSPropertyOp28
 70
     1
102
RTVSPropertyOp29
 70
     1
102
RTVSPropertyOp30
 70
     1
102
RTVSPropertyOp31
 70
     1
102
RTVSPropertyOp32
 70
     1
  0
XRECORD
  5
262
102
{ACAD_REACTORS
330
261
102
}
330
261
100
AcDbXrecord
280
     1
102
RTVSPropertyOp0
 70
     1
102
RTVSPropertyOp1
 70
     1
102
RTVSPropertyOp2
 70
     1
102
RTVSPropertyOp3
 70
     1
102
RTVSPropertyOp4
 70
     1
102
RTVSPropertyOp5
 70
     1
102
RTVSPropertyOp6
 70
     1
102
RTVSPropertyOp7
 70
     1
102
RTVSPropertyOp8
 70
     1
102
RTVSPropertyOp9
 70
     1
102
RTVSPropertyOp10
 70
     1
102
RTVSPropertyOp11
 70
     1
102
RTVSPropertyOp12
 70
     1
102
RTVSPropertyOp13
 70
     1
102
RTVSPropertyOp14
 70
     1
102
RTVSPropertyOp15
 70
     1
102
RTVSPropertyOp16
 70
     1
102
RTVSPropertyOp17
 70
     1
102
RTVSPropertyOp18
 70
     1
102
RTVSPropertyOp19
 70
     1
102
RTVSPropertyOp20
 70
     1
102
RTVSPropertyOp21
 70
     1
102
RTVSPropertyOp22
 70
     1
102
RTVSPropertyOp23
 70
     1
102
RTVSPropertyOp24
 70
     1
102
RTVSPropertyOp25
 70
     1
102
RTVSPropertyOp26
 70
     1
102
RTVSPropertyOp27
 70
     1
102
RTVSPropertyOp28
 70
     1
102
RTVSPropertyOp29
 70
     1
102
RTVSPropertyOp30
 70
     1
102
RTVSPropertyOp31
 70
     1
102
RTVSPropertyOp32
 70
     1
  0
XRECORD
  5
264
102
{ACAD_REACTORS
330
263
102
}
330
263
100
AcDbXrecord
280
     1
102
RTVSPropertyOp0
 70
     1
102
RTVSPropertyOp1
 70
     1
102
RTVSPropertyOp2
 70
     1
102
RTVSPropertyOp3
 70
     1
102
RTVSPropertyOp4
 70
     1
102
RTVSPropertyOp5
 70
     1
102
RTVSPropertyOp6
 70
     1
102
RTVSPropertyOp7
 70
     1
102
RTVSPropertyOp8
 70
     1
102
RTVSPropertyOp9
 70
     1
102
RTVSPropertyOp10
 70
     1
102
RTVSPropertyOp11
 70
     1
102
RTVSPropertyOp12
 70
     1
102
RTVSPropertyOp13
 70
     1
102
RTVSPropertyOp14
 70
     1
102
RTVSPropertyOp15
 70
     1
102
RTVSPropertyOp16
 70
     1
102
RTVSPropertyOp17
 70
     1
102
RTVSPropertyOp18
 70
     1
102
RTVSPropertyOp19
 70
     1
102
RTVSPropertyOp20
 70
     1
102
RTVSPropertyOp21
 70
     1
102
RTVSPropertyOp22
 70
     1
102
RTVSPropertyOp23
 70
     1
102
RTVSPropertyOp24
 70
     1
102
RTVSPropertyOp25
 70
     1
102
RTVSPropertyOp26
 70
     1
102
RTVSPropertyOp27
 70
     1
102
RTVSPropertyOp28
 70
     1
102
RTVSPropertyOp29
 70
     1
102
RTVSPropertyOp30
 70
     1
102
RTVSPropertyOp31
 70
     1
102
RTVSPropertyOp32
 70
     1
  0
XRECORD
  5
278
102
{ACAD_REACTORS
330
277
102
}
330
277
100
AcDbXrecord
280
     1
102
RTVSPropertyOp0
 70
     1
102
RTVSPropertyOp1
 70
     1
102
RTVSPropertyOp2
 70
     1
102
RTVSPropertyOp3
 70
     1
102
RTVSPropertyOp4
 70
     1
102
RTVSPropertyOp5
 70
     1
102
RTVSPropertyOp6
 70
     1
102
RTVSPropertyOp7
 70
     1
102
RTVSPropertyOp8
 70
     1
102
RTVSPropertyOp9
 70
     1
102
RTVSPropertyOp10
 70
     1
102
RTVSPropertyOp11
 70
     1
102
RTVSPropertyOp12
 70
     1
102
RTVSPropertyOp13
 70
     1
102
RTVSPropertyOp14
 70
     1
102
RTVSPropertyOp15
 70
     1
102
RTVSPropertyOp16
 70
     1
102
RTVSPropertyOp17
 70
     1
102
RTVSPropertyOp18
 70
     1
102
RTVSPropertyOp19
 70
     1
102
RTVSPropertyOp20
 70
     1
102
RTVSPropertyOp21
 70
     1
102
RTVSPropertyOp22
 70
     1
102
RTVSPropertyOp23
 70
     1
102
RTVSPropertyOp24
 70
     1
102
RTVSPropertyOp25
 70
     1
102
RTVSPropertyOp26
 70
     1
102
RTVSPropertyOp27
 70
     1
102
RTVSPropertyOp28
 70
     1
102
RTVSPropertyOp29
 70
     1
102
RTVSPropertyOp30
 70
     1
102
RTVSPropertyOp31
 70
     1
102
RTVSPropertyOp32
 70
     1
  0
XRECORD
  5
26E
102
{ACAD_REACTORS
330
26D
102
}
330
26D
100
AcDbXrecord
280
     1
102
RTVSPropertyOp0
 70
     1
102
RTVSPropertyOp1
 70
     1
102
RTVSPropertyOp2
 70
     1
102
RTVSPropertyOp3
 70
     1
102
RTVSPropertyOp4
 70
     1
102
RTVSPropertyOp5
 70
     1
102
RTVSPropertyOp6
 70
     1
102
RTVSPropertyOp7
 70
     1
102
RTVSPropertyOp8
 70
     1
102
RTVSPropertyOp9
 70
     1
102
RTVSPropertyOp10
 70
     1
102
RTVSPropertyOp11
 70
     1
102
RTVSPropertyOp12
 70
     1
102
RTVSPropertyOp13
 70
     1
102
RTVSPropertyOp14
 70
     1
102
RTVSPropertyOp15
 70
     1
102
RTVSPropertyOp16
 70
     1
102
RTVSPropertyOp17
 70
     1
102
RTVSPropertyOp18
 70
     1
102
RTVSPropertyOp19
 70
     1
102
RTVSPropertyOp20
 70
     1
102
RTVSPropertyOp21
 70
     1
102
RTVSPropertyOp22
 70
     1
102
RTVSPropertyOp23
 70
     1
102
RTVSPropertyOp24
 70
     1
102
RTVSPropertyOp25
 70
     1
102
RTVSPropertyOp26
 70
     1
102
RTVSPropertyOp27
 70
     1
102
RTVSPropertyOp28
 70
     1
102
RTVSPropertyOp29
 70
     1
102
RTVSPropertyOp30
 70
     1
102
RTVSPropertyOp31
 70
     1
102
RTVSPropertyOp32
 70
     1
  0
XRECORD
  5
276
102
{ACAD_REACTORS
330
275
102
}
330
275
100
AcDbXrecord
280
     1
102
RTVSPropertyOp0
 70
     1
102
RTVSPropertyOp1
 70
     1
102
RTVSPropertyOp2
 70
     1
102
RTVSPropertyOp3
 70
     1
102
RTVSPropertyOp4
 70
     1
102
RTVSPropertyOp5
 70
     1
102
RTVSPropertyOp6
 70
     1
102
RTVSPropertyOp7
 70
     1
102
RTVSPropertyOp8
 70
     1
102
RTVSPropertyOp9
 70
     1
102
RTVSPropertyOp10
 70
     1
102
RTVSPropertyOp11
 70
     1
102
RTVSPropertyOp12
 70
     1
102
RTVSPropertyOp13
 70
     1
102
RTVSPropertyOp14
 70
     1
102
RTVSPropertyOp15
 70
     1
102
RTVSPropertyOp16
 70
     1
102
RTVSPropertyOp17
 70
     1
102
RTVSPropertyOp18
 70
     1
102
RTVSPropertyOp19
 70
     1
102
RTVSPropertyOp20
 70
     1
102
RTVSPropertyOp21
 70
     1
102
RTVSPropertyOp22
 70
     1
102
RTVSPropertyOp23
 70
     1
102
RTVSPropertyOp24
 70
     1
102
RTVSPropertyOp25
 70
     1
102
RTVSPropertyOp26
 70
     1
102
RTVSPropertyOp27
 70
     1
102
RTVSPropertyOp28
 70
     1
102
RTVSPropertyOp29
 70
     1
102
RTVSPropertyOp30
 70
     1
102
RTVSPropertyOp31
 70
     1
102
RTVSPropertyOp32
 70
     1
  0
ENDSEC
  0
EOF
