  0
SECTION
  2
HEADER
  9
$ACADVER
  1
AC1015
  9
$ACADMAINTVER
 70
     6
  9
$DWGCODEPAGE
  3
ANSI_932
  9
$INSBASE
 10
0.0
 20
0.0
 30
0.0
  9
$EXTMIN
 10
0.0
 20
0.0
 30
0.0
  9
$EXTMAX
 10
630.0
 20
891.0
 30
0.0
  9
$LIMMIN
 10
0.0
 20
0.0
  9
$LIMMAX
 10
12.0
 20
9.0
  9
$ORTHOMODE
 70
     0
  9
$REGENMODE
 70
     1
  9
$FILLMODE
 70
     1
  9
$QTEXTMODE
 70
     0
  9
$MIRRTEXT
 70
     1
  9
$LTSCALE
 40
1.0
  9
$ATTMODE
 70
     1
  9
$TEXTSIZE
 40
0.2
  9
$TRACEWID
 40
0.05
  9
$TEXTSTYLE
  7
Standard
  9
$CLAYER
  8
0
  9
$CELTYPE
  6
ByLayer
  9
$CECOLOR
 62
   256
  9
$CELTSCALE
 40
1.0
  9
$DISPSILH
 70
     0
  9
$DIMSCALE
 40
1.0
  9
$DIMASZ
 40
0.18
  9
$DIMEXO
 40
0.0625
  9
$DIMDLI
 40
0.38
  9
$DIMRND
 40
0.0
  9
$DIMDLE
 40
0.0
  9
$DIMEXE
 40
0.18
  9
$DIMTP
 40
0.0
  9
$DIMTM
 40
0.0
  9
$DIMTXT
 40
0.18
  9
$DIMCEN
 40
0.09
  9
$DIMTSZ
 40
0.0
  9
$DIMTOL
 70
     0
  9
$DIMLIM
 70
     0
  9
$DIMTIH
 70
     1
  9
$DIMTOH
 70
     1
  9
$DIMSE1
 70
     0
  9
$DIMSE2
 70
     0
  9
$DIMTAD
 70
     0
  9
$DIMZIN
 70
     0
  9
$DIMBLK
  1

  9
$DIMASO
 70
     1
  9
$DIMSHO
 70
     1
  9
$DIMPOST
  1

  9
$DIMAPOST
  1

  9
$DIMALT
 70
     0
  9
$DIMALTD
 70
     2
  9
$DIMALTF
 40
25.4
  9
$DIMLFAC
 40
1.0
  9
$DIMTOFL
 70
     0
  9
$DIMTVP
 40
0.0
  9
$DIMTIX
 70
     0
  9
$DIMSOXD
 70
     0
  9
$DIMSAH
 70
     0
  9
$DIMBLK1
  1

  9
$DIMBLK2
  1

  9
$DIMSTYLE
  2
Standard
  9
$DIMCLRD
 70
     0
  9
$DIMCLRE
 70
     0
  9
$DIMCLRT
 70
     0
  9
$DIMTFAC
 40
1.0
  9
$DIMGAP
 40
0.09
  9
$DIMJUST
 70
     0
  9
$DIMSD1
 70
     0
  9
$DIMSD2
 70
     0
  9
$DIMTOLJ
 70
     1
  9
$DIMTZIN
 70
     0
  9
$DIMALTZ
 70
     0
  9
$DIMALTTZ
 70
     0
  9
$DIMUPT
 70
     0
  9
$DIMDEC
 70
     4
  9
$DIMTDEC
 70
     4
  9
$DIMALTU
 70
     2
  9
$DIMALTTD
 70
     2
  9
$DIMTXSTY
  7
Standard
  9
$DIMAUNIT
 70
     0
  9
$DIMADEC
 70
     0
  9
$DIMALTRND
 40
0.0
  9
$DIMAZIN
 70
     0
  9
$DIMDSEP
 70
    46
  9
$DIMATFIT
 70
     3
  9
$DIMFRAC
 70
     0
  9
$DIMLDRBLK
  1

  9
$DIMLUNIT
 70
     2
  9
$DIMLWD
 70
    -2
  9
$DIMLWE
 70
    -2
  9
$DIMTMOVE
 70
     0
  9
$LUNITS
 70
     2
  9
$LUPREC
 70
     4
  9
$SKETCHINC
 40
0.1
  9
$FILLETRAD
 40
0.5
  9
$AUNITS
 70
     0
  9
$AUPREC
 70
     0
  9
$MENU
  1
.
  9
$ELEVATION
 40
0.0
  9
$PELEVATION
 40
0.0
  9
$THICKNESS
 40
0.0
  9
$LIMCHECK
 70
     0
  9
$CHAMFERA
 40
0.5
  9
$CHAMFERB
 40
0.5
  9
$CHAMFERC
 40
1.0
  9
$CHAMFERD
 40
0.0
  9
$SKPOLY
 70
     0
  9
$TDCREATE
 40
2457658.459599016
  9
$TDUCREATE
 40
2457658.084599016
  9
$TDUPDATE
 40
2457658.459600104
  9
$TDUUPDATE
 40
2457658.084600104
  9
$TDINDWG
 40
0.0000000116
  9
$TDUSRTIMER
 40
0.0000000116
  9
$USRTIMER
 70
     1
  9
$ANGBASE
 50
0.0
  9
$ANGDIR
 70
     0
  9
$PDMODE
 70
     0
  9
$PDSIZE
 40
0.0
  9
$PLINEWID
 40
0.0
  9
$SPLFRAME
 70
     0
  9
$SPLINETYPE
 70
     6
  9
$SPLINESEGS
 70
     8
  9
$HANDSEED
  5
20B
  9
$SURFTAB1
 70
     6
  9
$SURFTAB2
 70
     6
  9
$SURFTYPE
 70
     6
  9
$SURFU
 70
     6
  9
$SURFV
 70
     6
  9
$UCSBASE
  2

  9
$UCSNAME
  2

  9
$UCSORG
 10
0.0
 20
0.0
 30
0.0
  9
$UCSXDIR
 10
1.0
 20
0.0
 30
0.0
  9
$UCSYDIR
 10
0.0
 20
1.0
 30
0.0
  9
$UCSORTHOREF
  2

  9
$UCSORTHOVIEW
 70
     0
  9
$UCSORGTOP
 10
0.0
 20
0.0
 30
0.0
  9
$UCSORGBOTTOM
 10
0.0
 20
0.0
 30
0.0
  9
$UCSORGLEFT
 10
0.0
 20
0.0
 30
0.0
  9
$UCSORGRIGHT
 10
0.0
 20
0.0
 30
0.0
  9
$UCSORGFRONT
 10
0.0
 20
0.0
 30
0.0
  9
$UCSORGBACK
 10
0.0
 20
0.0
 30
0.0
  9
$PUCSBASE
  2

  9
$PUCSNAME
  2

  9
$PUCSORG
 10
0.0
 20
0.0
 30
0.0
  9
$PUCSXDIR
 10
1.0
 20
0.0
 30
0.0
  9
$PUCSYDIR
 10
0.0
 20
1.0
 30
0.0
  9
$PUCSORTHOREF
  2

  9
$PUCSORTHOVIEW
 70
     0
  9
$PUCSORGTOP
 10
0.0
 20
0.0
 30
0.0
  9
$PUCSORGBOTTOM
 10
0.0
 20
0.0
 30
0.0
  9
$PUCSORGLEFT
 10
0.0
 20
0.0
 30
0.0
  9
$PUCSORGRIGHT
 10
0.0
 20
0.0
 30
0.0
  9
$PUCSORGFRONT
 10
0.0
 20
0.0
 30
0.0
  9
$PUCSORGBACK
 10
0.0
 20
0.0
 30
0.0
  9
$USERI1
 70
     0
  9
$USERI2
 70
     0
  9
$USERI3
 70
     0
  9
$USERI4
 70
     0
  9
$USERI5
 70
     0
  9
$USERR1
 40
18.1
  9
$USERR2
 40
0.0
  9
$USERR3
 40
0.0
  9
$USERR4
 40
0.0
  9
$USERR5
 40
0.0
  9
$WORLDVIEW
 70
     1
  9
$SHADEDGE
 70
     3
  9
$SHADEDIF
 70
    70
  9
$TILEMODE
 70
     1
  9
$MAXACTVP
 70
    64
  9
$PINSBASE
 10
0.0
 20
0.0
 30
0.0
  9
$PLIMCHECK
 70
     0
  9
$PEXTMIN
 10
1.00000000000000E+20
 20
1.00000000000000E+20
 30
1.00000000000000E+20
  9
$PEXTMAX
 10
-1.00000000000000E+20
 20
-1.00000000000000E+20
 30
-1.00000000000000E+20
  9
$PLIMMIN
 10
0.0
 20
0.0
  9
$PLIMMAX
 10
12.0
 20
9.0
  9
$UNITMODE
 70
     0
  9
$VISRETAIN
 70
     1
  9
$PLINEGEN
 70
     0
  9
$PSLTSCALE
 70
     1
  9
$TREEDEPTH
 70
  3020
  9
$CMLSTYLE
  2
Standard
  9
$CMLJUST
 70
     0
  9
$CMLSCALE
 40
1.0
  9
$PROXYGRAPHICS
 70
     1
  9
$MEASUREMENT
 70
     1
  9
$CELWEIGHT
370
    -1
  9
$ENDCAPS
280
     0
  9
$JOINSTYLE
280
     0
  9
$LWDISPLAY
290
     0
  9
$INSUNITS
 70
     4
  9
$HYPERLINKBASE
  1

  9
$STYLESHEET
  1

  9
$XEDIT
290
     1
  9
$CEPSNTYPE
380
     0
  9
$PSTYLEMODE
290
     1
  9
$FINGERPRINTGUID
  2
{EA8725EB-EEE9-4A37-82D2-F09BDF2D3F2F}
  9
$VERSIONGUID
  2
{FAEB1C32-E019-11D5-929B-00C0DF256EC4}
  9
$EXTNAMES
290
     1
  9
$PSVPSCALE
 40
0.0
  9
$OLESTARTUP
290
     0
  0
ENDSEC
  0
SECTION
  2
CLASSES
  0
CLASS
  1
ACDBDICTIONARYWDFLT
  2
AcDbDictionaryWithDefault
  3
ObjectDBX Classes
 90
        0
280
     0
281
     0
  0
CLASS
  1
VISUALSTYLE
  2
AcDbVisualStyle
  3
ObjectDBX Classes
 90
     4095
280
     0
281
     0
  0
CLASS
  1
MATERIAL
  2
AcDbMaterial
  3
ObjectDBX Classes
 90
     1153
280
     0
281
     0
  0
CLASS
  1
DICTIONARYVAR
  2
AcDbDictionaryVar
  3
ObjectDBX Classes
 90
        0
280
     0
281
     0
  0
CLASS
  1
ACDBPLACEHOLDER
  2
AcDbPlaceHolder
  3
ObjectDBX Classes
 90
        0
280
     0
281
     0
  0
CLASS
  1
LAYOUT
  2
AcDbLayout
  3
ObjectDBX Classes
 90
        0
280
     0
281
     0
  0
ENDSEC
  0
SECTION
  2
TABLES
  0
TABLE
  2
VPORT
  5
8
330
0
100
AcDbSymbolTable
 70
     1
  0
VPORT
  5
29
330
8
100
AcDbSymbolTableRecord
100
AcDbViewportTableRecord
  2
*Active
 70
     0
 10
0.0
 20
0.0
 11
1.0
 21
1.0
 12
315.0
 22
445.5
 13
0.0
 23
0.0
 14
0.5
 24
0.5
 15
0.5
 25
0.5
 16
0.0
 26
0.0
 36
1.0
 17
0.0
 27
0.0
 37
0.0
 40
980.1
 41
1.60267857142857
 42
50.0
 43
0.0
 44
0.0
 50
0.0
 51
0.0
 71
     0
 72
   100
 73
     1
 74
     3
 75
     0
 76
     0
 77
     0
 78
     0
281
     0
 65
     1
110
0.0
120
0.0
130
0.0
111
1.0
121
0.0
131
0.0
112
0.0
122
1.0
132
0.0
 79
     0
146
0.0
  0
ENDTAB
  0
TABLE
  2
LTYPE
  5
5
330
0
100
AcDbSymbolTable
 70
     8
  0
LTYPE
  5
14
330
5
100
AcDbSymbolTableRecord
100
AcDbLinetypeTableRecord
  2
ByBlock
 70
     0
  3

 72
    65
 73
     0
 40
0.0
  0
LTYPE
  5
15
330
5
100
AcDbSymbolTableRecord
100
AcDbLinetypeTableRecord
  2
ByLayer
 70
     0
  3

 72
    65
 73
     0
 40
0.0
  0
LTYPE
  5
16
330
5
100
AcDbSymbolTableRecord
100
AcDbLinetypeTableRecord
  2
Continuous
 70
     0
  3
Solid line
 72
    65
 73
     0
 40
0.0
  0
LTYPE
  5
3F
330
5
100
AcDbSymbolTableRecord
100
AcDbLinetypeTableRecord
  2
DASHED
 70
     0
  3
Dashed
 72
    65
 73
     2
 40
15.0
 49
7.0
 74
     0
 49
-8.0
 74
     0
  0
LTYPE
  5
40
330
5
100
AcDbSymbolTableRecord
100
AcDbLinetypeTableRecord
  2
DOTTED
 70
     0
  3
Dotted
 72
    65
 73
     2
 40
1.0
 49
0.0
 74
     0
 49
-1.0
 74
     0
  0
LTYPE
  5
41
330
5
100
AcDbSymbolTableRecord
100
AcDbLinetypeTableRecord
  2
DOT_CENTER
 70
     0
  3
Dot_Center
 72
    65
 73
     4
 40
14.0
 49
12.0
 74
     0
 49
-1.0
 74
     0
 49
0.0
 74
     0
 49
-1.0
 74
     0
  0
LTYPE
  5
42
330
5
100
AcDbSymbolTableRecord
100
AcDbLinetypeTableRecord
  2
LONG_DASHED
 70
     0
  3
Long_Dashed
 72
    65
 73
     2
 40
15.0
 49
10.0
 74
     0
 49
-5.0
 74
     0
  0
LTYPE
  5
43
330
5
100
AcDbSymbolTableRecord
100
AcDbLinetypeTableRecord
  2
DASH_CENTER
 70
     0
  3
Dash_Center
 72
    65
 73
     4
 40
14.0
 49
11.0
 74
     0
 49
-1.0
 74
     0
 49
1.0
 74
     0
 49
-1.0
 74
     0
  0
LTYPE
  5
44
330
5
100
AcDbSymbolTableRecord
100
AcDbLinetypeTableRecord
  2
PHANTOM
 70
     0
  3
Phantom
 72
    65
 73
     6
 40
13.0
 49
10.0
 74
     0
 49
-1.0
 74
     0
 49
0.0
 74
     0
 49
-1.0
 74
     0
 49
0.0
 74
     0
 49
-1.0
 74
     0
  0
LTYPE
  5
45
330
5
100
AcDbSymbolTableRecord
100
AcDbLinetypeTableRecord
  2
CENTER_DASH_DASH
 70
     0
  3
Center_Dash_Dash
 72
    65
 73
     6
 40
14.0
 49
9.0
 74
     0
 49
-1.0
 74
     0
 49
1.0
 74
     0
 49
-1.0
 74
     0
 49
1.0
 74
     0
 49
-1.0
 74
     0
  0
ENDTAB
  0
TABLE
  2
LAYER
  5
2
330
0
100
AcDbSymbolTable
 70
     2
  0
LAYER
  5
10
330
2
100
AcDbSymbolTableRecord
100
AcDbLayerTableRecord
  2
0
 70
     0
 62
     7
  6
Continuous
370
    -3
390
F
  0
LAYER
  5
46
330
2
100
AcDbSymbolTableRecord
100
AcDbLayerTableRecord
  2
1
 70
     0
 62
     7
  6
Continuous
370
    -3
390
F
  0
ENDTAB
  0
TABLE
  2
STYLE
  5
3
330
0
100
AcDbSymbolTable
 70
     3
  0
STYLE
  5
11
330
3
100
AcDbSymbolTableRecord
100
AcDbTextStyleTableRecord
  2
Standard
 70
     0
 40
0.0
 41
1.0
 50
0.0
 71
     0
 42
0.2
  3
txt
  4

  0
STYLE
  5
8B
330
3
100
AcDbSymbolTableRecord
100
AcDbTextStyleTableRecord
  2
CONVERTER_11
 70
     0
 40
0.0
 41
0.89
 50
0.0
 71
     0
 42
0.2
  3
MS Mincho.ttf
  4

1001
ACAD
1000
MS Mincho
1071
    32785
  0
STYLE
  5
1A4
330
3
100
AcDbSymbolTableRecord
100
AcDbTextStyleTableRecord
  2
CONVERTER_12
 70
     0
 40
0.0
 41
0.9
 50
0.0
 71
     0
 42
0.2
  3
txt.shx
  4

  0
ENDTAB
  0
TABLE
  2
VIEW
  5
6
330
0
100
AcDbSymbolTable
 70
     0
  0
ENDTAB
  0
TABLE
  2
UCS
  5
7
330
0
100
AcDbSymbolTable
 70
     0
  0
ENDTAB
  0
TABLE
  2
APPID
  5
9
330
0
100
AcDbSymbolTable
 70
     1
  0
APPID
  5
12
330
9
100
AcDbSymbolTableRecord
100
AcDbRegAppTableRecord
  2
ACAD
 70
     0
  0
ENDTAB
  0
TABLE
  2
DIMSTYLE
  5
A
330
0
100
AcDbSymbolTable
 70
     6
100
AcDbDimStyleTable
  0
DIMSTYLE
105
27
330
A
100
AcDbSymbolTableRecord
100
AcDbDimStyleTableRecord
  2
Standard
 70
     0
178
     0
340
11
  0
DIMSTYLE
105
1B2
102
{ACAD_REACTORS
330
1B3
102
}
330
A
100
AcDbSymbolTableRecord
100
AcDbDimStyleTableRecord
  2
ME10_DIM_10
 70
     0
 41
10.5
 42
0.0
 44
3.0
 73
     0
 74
     0
 77
     1
 78
     8
140
10.5
147
3.0
172
     1
173
     1
174
     1
175
     1
176
     2
177
     2
271
     2
178
     7
271
     2
340
1A4
  0
DIMSTYLE
105
1BD
102
{ACAD_REACTORS
330
1BE
102
}
330
A
100
AcDbSymbolTableRecord
100
AcDbDimStyleTableRecord
  2
ME10_DIM_11
 70
     0
 41
10.5
 42
0.0
 44
3.0
 73
     0
 74
     0
 77
     1
 78
     8
140
10.5
147
3.0
172
     1
173
     1
174
     1
175
     1
176
     2
177
     2
271
     2
178
     7
271
     2
340
1A4
  0
DIMSTYLE
105
1C8
102
{ACAD_REACTORS
330
1C9
102
}
330
A
100
AcDbSymbolTableRecord
100
AcDbDimStyleTableRecord
  2
ME10_DIM_12
 70
     0
 41
10.5
 42
0.0
 44
3.0
 73
     0
 74
     0
 77
     1
 78
     8
140
10.5
147
3.0
172
     1
173
     1
174
     1
175
     1
176
     2
177
     2
271
     2
178
     7
271
     2
340
1A4
  0
DIMSTYLE
105
1D3
102
{ACAD_REACTORS
330
1D4
102
}
330
A
100
AcDbSymbolTableRecord
100
AcDbDimStyleTableRecord
  2
ME10_DIM_13
 70
     0
 41
10.5
 42
0.0
 44
3.0
 73
     0
 74
     0
 77
     1
 78
     8
140
10.5
147
3.0
172
     1
173
     1
174
     1
175
     1
176
     2
177
     2
271
     2
178
     7
271
     2
340
1A4
  0
DIMSTYLE
105
1DE
102
{ACAD_REACTORS
330
1DF
102
}
330
A
100
AcDbSymbolTableRecord
100
AcDbDimStyleTableRecord
  2
ME10_DIM_14
 70
     0
 41
10.5
 42
0.0
 44
3.0
 73
     0
 74
     0
 77
     1
 78
     8
140
10.5
147
3.0
172
     1
173
     1
174
     1
175
     1
176
     2
177
     2
271
     2
178
     7
271
     2
340
1A4
  0
ENDTAB
  0
TABLE
  2
BLOCK_RECORD
  5
1
330
0
100
AcDbSymbolTable
 70
    19
  0
BLOCK_RECORD
  5
1F
330
1
100
AcDbSymbolTableRecord
100
AcDbBlockTableRecord
  2
*Model_Space
340
22
  0
BLOCK_RECORD
  5
1B
330
1
100
AcDbSymbolTableRecord
100
AcDbBlockTableRecord
  2
*Paper_Space
340
1E
  0
BLOCK_RECORD
  5
23
330
1
100
AcDbSymbolTableRecord
100
AcDbBlockTableRecord
  2
*Paper_Space0
340
26
  0
BLOCK_RECORD
  5
47
330
1
100
AcDbSymbolTableRecord
100
AcDbBlockTableRecord
  2
R81-6-6
340
0
102
{BLKREFS
331
71
102
}
  0
BLOCK_RECORD
  5
4A
330
1
100
AcDbSymbolTableRecord
100
AcDbBlockTableRecord
  2
R81-6-2
340
0
102
{BLKREFS
331
72
102
}
  0
BLOCK_RECORD
  5
4D
330
1
100
AcDbSymbolTableRecord
100
AcDbBlockTableRecord
  2
R81-6-1__1
340
0
102
{BLKREFS
331
73
102
}
  0
BLOCK_RECORD
  5
50
330
1
100
AcDbSymbolTableRecord
100
AcDbBlockTableRecord
  2
R81-6-1__2
340
0
102
{BLKREFS
331
74
102
}
  0
BLOCK_RECORD
  5
53
330
1
100
AcDbSymbolTableRecord
100
AcDbBlockTableRecord
  2
R81-6-3
340
0
102
{BLKREFS
331
75
102
}
  0
BLOCK_RECORD
  5
56
330
1
100
AcDbSymbolTableRecord
100
AcDbBlockTableRecord
  2
R81-6-8__3
340
0
102
{BLKREFS
331
76
102
}
  0
BLOCK_RECORD
  5
59
330
1
100
AcDbSymbolTableRecord
100
AcDbBlockTableRecord
  2
R81-6-8__4
340
0
102
{BLKREFS
331
77
102
}
  0
BLOCK_RECORD
  5
5C
330
1
100
AcDbSymbolTableRecord
100
AcDbBlockTableRecord
  2
KEY
340
0
102
{BLKREFS
331
78
102
}
  0
BLOCK_RECORD
  5
5F
330
1
100
AcDbSymbolTableRecord
100
AcDbBlockTableRecord
  2
R81-6-7
340
0
102
{BLKREFS
331
6A
102
}
  0
BLOCK_RECORD
  5
62
330
1
100
AcDbSymbolTableRecord
100
AcDbBlockTableRecord
  2
_1
340
0
102
{BLKREFS
331
66
102
}
  0
BLOCK_RECORD
  5
65
330
1
100
AcDbSymbolTableRecord
100
AcDbBlockTableRecord
  2
R81-6-9
340
0
102
{BLKREFS
331
6B
102
}
  0
BLOCK_RECORD
  5
69
330
1
100
AcDbSymbolTableRecord
100
AcDbBlockTableRecord
  2
R81-6
340
0
102
{BLKREFS
331
79
102
}
  0
BLOCK_RECORD
  5
6E
330
1
100
AcDbSymbolTableRecord
100
AcDbBlockTableRecord
  2
開示A4
340
0
102
{BLKREFS
331
7A
102
}
  0
BLOCK_RECORD
  5
1A9
330
1
100
AcDbSymbolTableRecord
100
AcDbBlockTableRecord
  2
*D14
340
0
  0
BLOCK_RECORD
  5
1B4
330
1
100
AcDbSymbolTableRecord
100
AcDbBlockTableRecord
  2
*D15
340
0
  0
BLOCK_RECORD
  5
1BF
330
1
100
AcDbSymbolTableRecord
100
AcDbBlockTableRecord
  2
*D16
340
0
  0
BLOCK_RECORD
  5
1CA
330
1
100
AcDbSymbolTableRecord
100
AcDbBlockTableRecord
  2
*D17
340
0
  0
BLOCK_RECORD
  5
1D5
330
1
100
AcDbSymbolTableRecord
100
AcDbBlockTableRecord
  2
*D18
340
0
  0
ENDTAB
  0
ENDSEC
  0
SECTION
  2
BLOCKS
  0
BLOCK
  5
20
330
1F
100
AcDbEntity
  8
0
100
AcDbBlockBegin
  2
*Model_Space
 70
     0
 10
0.0
 20
0.0
 30
0.0
  3
*Model_Space
  1

  0
ENDBLK
  5
21
330
1F
100
AcDbEntity
  8
0
100
AcDbBlockEnd
  0
BLOCK
  5
1C
330
1B
100
AcDbEntity
 67
     1
  8
0
100
AcDbBlockBegin
  2
*Paper_Space
 70
     0
 10
0.0
 20
0.0
 30
0.0
  3
*Paper_Space
  1

  0
ENDBLK
  5
1D
330
1B
100
AcDbEntity
 67
     1
  8
0
100
AcDbBlockEnd
  0
BLOCK
  5
24
330
23
100
AcDbEntity
  8
0
100
AcDbBlockBegin
  2
*Paper_Space0
 70
     0
 10
0.0
 20
0.0
 30
0.0
  3
*Paper_Space0
  1

  0
ENDBLK
  5
25
330
23
100
AcDbEntity
  8
0
100
AcDbBlockEnd
  0
BLOCK
  5
48
330
47
100
AcDbEntity
  8
0
100
AcDbBlockBegin
  2
R81-6-6
 70
     0
 10
105.5363133722304
 20
456.4139786258766
 30
0.0
  3
R81-6-6
  1

  0
LINE
  5
7B
330
47
100
AcDbEntity
  8
1
  6
Continuous
 62
     7
100
AcDbLine
 10
233.5363133722304
 20
501.7607290512656
 30
0.0
 11
233.5363133722304
 21
494.4139786258766
 31
0.0
  0
LINE
  5
7C
330
47
100
AcDbEntity
  8
1
  6
Continuous
 62
     7
100
AcDbLine
 10
213.0363133722304
 20
457.4139786258766
 30
0.0
 11
317.5363133722286
 21
457.4139786258766
 31
0.0
  0
LINE
  5
7D
330
47
100
AcDbEntity
  8
1
  6
Continuous
 62
     7
100
AcDbLine
 10
108.5363133722319
 20
457.4139786258766
 30
0.0
 11
213.0363133722304
 21
457.4139786258766
 31
0.0
  0
LINE
  5
7E
330
47
100
AcDbEntity
  8
1
  6
Continuous
 62
     7
100
AcDbLine
 10
192.5363133722304
 20
494.4139786258766
 30
0.0
 11
192.5363133722304
 21
505.4139786258766
 31
0.0
  0
LINE
  5
7F
330
47
100
AcDbEntity
  8
1
  6
Continuous
 62
     7
100
AcDbLine
 10
196.0363133722304
 20
505.4139786258766
 30
0.0
 11
196.0363133722304
 21
494.4139786258766
 31
0.0
  0
LINE
  5
80
330
47
100
AcDbEntity
  8
1
  6
Continuous
 62
     7
100
AcDbLine
 10
213.0363133722304
 20
624.4139786258766
 30
0.0
 11
108.5363133722304
 21
624.4139786258766
 31
0.0
  0
LINE
  5
81
330
47
100
AcDbEntity
  8
1
  6
Continuous
 62
     7
100
AcDbLine
 10
319.5363133722286
 20
459.4139786258766
 30
0.0
 11
319.5363133722286
 21
622.4139786258766
 31
0.0
  0
LINE
  5
82
330
47
100
AcDbEntity
  8
1
  6
Continuous
 62
     7
100
AcDbLine
 10
106.5363133722304
 20
622.4139786258766
 30
0.0
 11
106.5363133722304
 21
541.4139786258767
 31
0.0
  0
LINE
  5
83
330
47
100
AcDbEntity
  8
1
  6
Continuous
 62
     7
100
AcDbLine
 10
317.5363133722286
 20
624.4139786258766
 30
0.0
 11
213.0363133722304
 21
624.4139786258766
 31
0.0
  0
LINE
  5
84
330
47
100
AcDbEntity
  8
1
  6
Continuous
 62
     7
100
AcDbLine
 10
106.5363133722304
 20
541.4139786258767
 30
0.0
 11
106.5363133722304
 21
459.4139786258766
 31
0.0
  0
LINE
  5
85
330
47
100
AcDbEntity
  8
1
  6
Continuous
 62
     7
100
AcDbLine
 10
230.0363133722305
 20
494.4139786258766
 30
0.0
 11
230.0363133722305
 21
496.2008571172596
 31
0.0
  0
CIRCLE
  5
86
330
47
100
AcDbEntity
  8
1
  6
Continuous
 62
     7
100
AcDbCircle
 10
213.0363133722304
 20
499.9139786258766
 30
0.0
 40
27.5
  0
ARC
  5
87
330
47
100
AcDbEntity
  8
1
  6
Continuous
 62
     7
100
AcDbCircle
 10
317.5363133722286
 20
459.4139786258766
 30
0.0
 40
2.0
100
AcDbArc
 50
270.0
 51
0.0
  0
ARC
  5
88
330
47
100
AcDbEntity
  8
1
  6
Continuous
 62
     7
100
AcDbCircle
 10
108.5363133722304
 20
622.4139786258766
 30
0.0
 40
2.0
100
AcDbArc
 50
90.0
 51
180.0
  0
ARC
  5
89
330
47
100
AcDbEntity
  8
1
  6
Continuous
 62
     7
100
AcDbCircle
 10
317.5363133722286
 20
622.4139786258766
 30
0.0
 40
2.0
100
AcDbArc
 50
0.0
 51
90.0
  0
ARC
  5
8A
330
47
100
AcDbEntity
  8
1
  6
Continuous
 62
     7
100
AcDbCircle
 10
108.5363133722319
 20
459.4139786258766
 30
0.0
 40
2.0
100
AcDbArc
 50
180.0
 51
270.0
  0
MTEXT
  5
8C
330
47
100
AcDbEntity
  8
1
 62
     7
100
AcDbMText
 10
258.0363133722302
 20
582.9139786258767
 30
0.0
 40
30.0
 41
0.0
 71
     5
 72
     1
  1
栓
  7
CONVERTER_11
 73
     1
 44
1.0
  0
MTEXT
  5
8D
330
47
100
AcDbEntity
  8
1
 62
     7
100
AcDbMText
 10
168.0363133722304
 20
582.9139786258767
 30
0.0
 40
30.0
 41
0.0
 71
     5
 72
     1
  1
散
  7
CONVERTER_11
 73
     1
 44
1.0
  0
MTEXT
  5
8E
330
47
100
AcDbEntity
  8
1
 62
     7
100
AcDbMText
 10
213.0363133722304
 20
582.9139786258767
 30
0.0
 40
30.0
 41
0.0
 71
     5
 72
     1
  1
水
  7
CONVERTER_11
 73
     1
 44
1.0
  0
ENDBLK
  5
49
330
47
100
AcDbEntity
  8
0
100
AcDbBlockEnd
  0
BLOCK
  5
4B
330
4A
100
AcDbEntity
  8
0
100
AcDbBlockBegin
  2
R81-6-2
 70
     0
 10
106.0363133722302
 20
333.0689733408936
 30
0.0
  3
R81-6-2
  1

  0
LINE
  5
8F
330
4A
100
AcDbEntity
  8
1
  6
DASH_CENTER
 62
     2
100
AcDbLine
 10
552.0894825615427
 20
373.2689733408936
 30
0.0
 11
552.0894825615427
 21
368.8689733408937
 31
0.0
  0
LINE
  5
90
330
4A
100
AcDbEntity
  8
1
  6
DASH_CENTER
 62
     2
100
AcDbLine
 10
554.2894825615427
 20
371.0689733408937
 30
0.0
 11
549.8894825615426
 21
371.0689733408937
 31
0.0
  0
LINE
  5
91
330
4A
100
AcDbEntity
  8
1
  6
Continuous
 62
     7
100
AcDbLine
 10
562.7894825615427
 20
283.7689733408938
 30
0.0
 11
562.7894825615427
 21
283.0689733408938
 31
0.0
  0
LINE
  5
92
330
4A
100
AcDbEntity
  8
1
  6
Continuous
 62
     7
100
AcDbLine
 10
485.0894825615428
 20
283.7689733408938
 30
0.0
 11
570.4894825615428
 21
283.7689733408938
 31
0.0
  0
LINE
  5
93
330
4A
100
AcDbEntity
  8
1
  6
Continuous
 62
     7
100
AcDbLine
 10
320.9363133722303
 20
283.0689733408936
 30
0.0
 11
326.5363133722302
 21
283.0689733408936
 31
0.0
  0
LINE
  5
94
330
4A
100
AcDbEntity
  8
1
  6
Continuous
 62
     7
100
AcDbLine
 10
320.2363133722303
 20
284.4689733408936
 30
0.0
 11
320.2363133722303
 21
367.0689733408936
 31
0.0
  0
LINE
  5
95
330
4A
100
AcDbEntity
  8
1
  6
Continuous
 62
     7
100
AcDbLine
 10
326.5363133722302
 20
283.7689733408936
 30
0.0
 11
320.9363133722304
 21
283.7689733408936
 31
0.0
  0
LINE
  5
96
330
4A
100
AcDbEntity
  8
1
  6
Continuous
 62
     7
100
AcDbLine
 10
326.5363133722302
 20
283.7689733408936
 30
0.0
 11
326.5363133722302
 21
283.0689733408936
 31
0.0
  0
LINE
  5
97
330
4A
100
AcDbEntity
  8
1
  6
Continuous
 62
     7
100
AcDbLine
 10
329.9505269346029
 20
446.9997650635031
 30
0.0
 11
320.5363133722302
 21
456.4139786258766
 31
0.0
  0
LINE
  5
98
330
4A
100
AcDbEntity
  8
1
  6
Continuous
 62
     7
100
AcDbLine
 10
485.0894825615428
 20
283.0689733408936
 30
0.0
 11
570.4894825615428
 21
283.0689733408938
 31
0.0
  0
LINE
  5
99
330
4A
100
AcDbEntity
  8
1
  6
Continuous
 62
     7
100
AcDbLine
 10
570.4894825615428
 20
283.0689733408938
 30
0.0
 11
570.4894825615428
 21
367.0689733408937
 31
0.0
  0
LINE
  5
9A
330
4A
100
AcDbEntity
  8
1
  6
Continuous
 62
     7
100
AcDbLine
 10
485.0894825615428
 20
367.0689733408938
 30
0.0
 11
580.0894825615427
 21
367.0689733408937
 31
0.0
  0
LINE
  5
9B
330
4A
100
AcDbEntity
  8
1
  6
Continuous
 62
     7
100
AcDbLine
 10
580.0894825615427
 20
367.0689733408937
 30
0.0
 11
580.0894825615427
 21
376.0689733408937
 31
0.0
  0
LINE
  5
9C
330
4A
100
AcDbEntity
  8
1
  6
Continuous
 62
     7
100
AcDbLine
 10
578.0894825615427
 20
378.0689733408937
 30
0.0
 11
485.0894825615428
 21
378.0689733408938
 31
0.0
  0
LINE
  5
9D
330
4A
100
AcDbEntity
  8
1
  6
Continuous
 62
     7
100
AcDbLine
 10
330.5363133722302
 20
448.4139786258766
 30
0.0
 11
330.5363133722302
 21
634.4139786258766
 31
0.0
  0
LINE
  5
9E
330
4A
100
AcDbEntity
  8
1
  6
Continuous
 62
     7
100
AcDbLine
 10
320.5363133722302
 20
456.4139786258766
 30
0.0
 11
320.5363133722296
 21
626.4139786258766
 31
0.0
  0
LINE
  5
9F
330
4A
100
AcDbEntity
  8
1
  6
Continuous
 62
     7
100
AcDbLine
 10
407.3894825615429
 20
283.0689733408938
 30
0.0
 11
407.3894825615429
 21
283.7689733408938
 31
0.0
  0
LINE
  5
A0
330
4A
100
AcDbEntity
  8
1
  6
Continuous
 62
     7
100
AcDbLine
 10
399.6894825615428
 20
283.7689733408938
 30
0.0
 11
485.0894825615428
 21
283.7689733408938
 31
0.0
  0
LINE
  5
A1
330
4A
100
AcDbEntity
  8
1
  6
Continuous
 62
     7
100
AcDbLine
 10
399.6894825615428
 20
283.0689733408938
 30
0.0
 11
485.0894825615428
 21
283.0689733408936
 31
0.0
  0
LINE
  5
A2
330
4A
100
AcDbEntity
  8
1
  6
Continuous
 62
     7
100
AcDbLine
 10
399.6894825615428
 20
367.0689733408937
 30
0.0
 11
399.6894825615428
 21
283.0689733408938
 31
0.0
  0
LINE
  5
A3
330
4A
100
AcDbEntity
  8
1
  6
Continuous
 62
     7
100
AcDbLine
 10
390.0894825615427
 20
367.0689733408937
 30
0.0
 11
485.0894825615428
 21
367.0689733408938
 31
0.0
  0
LINE
  5
A4
330
4A
100
AcDbEntity
  8
1
  6
Continuous
 62
     7
100
AcDbLine
 10
390.0894825615428
 20
376.0689733408936
 30
0.0
 11
390.0894825615427
 21
367.0689733408937
 31
0.0
  0
LINE
  5
A5
330
4A
100
AcDbEntity
  8
1
  6
Continuous
 62
     7
100
AcDbLine
 10
485.0894825615428
 20
378.0689733408938
 30
0.0
 11
392.0894825615428
 21
378.0689733408936
 31
0.0
  0
LINE
  5
A6
330
4A
100
AcDbEntity
  8
1
  6
Continuous
 62
     7
100
AcDbLine
 10
309.7363133722301
 20
367.0689733408936
 30
0.0
 11
309.7363133722301
 21
294.2689733408936
 31
0.0
  0
LINE
  5
A7
330
4A
100
AcDbEntity
  8
1
  6
Continuous
 62
     7
100
AcDbLine
 10
309.7363133722301
 20
294.2689733408936
 30
0.0
 11
319.5363133722302
 21
284.4689733408936
 31
0.0
  0
ARC
  5
A8
330
4A
100
AcDbEntity
  8
1
  6
Continuous
 62
     7
100
AcDbCircle
 10
320.9363133722304
 20
284.4689733408936
 30
0.0
 40
1.400000000000205
100
AcDbArc
 50
180.0
 51
269.9999999999953
  0
ARC
  5
A9
330
4A
100
AcDbEntity
  8
1
  6
Continuous
 62
     7
100
AcDbCircle
 10
320.9363133722304
 20
284.4689733408936
 30
0.0
 40
0.7000000000001023
100
AcDbArc
 50
180.0
 51
270.0
  0
ARC
  5
AA
330
4A
100
AcDbEntity
  8
1
  6
Continuous
 62
     7
100
AcDbCircle
 10
328.5363133722302
 20
448.4139786258766
 30
0.0
 40
2.000000000000016
100
AcDbArc
 50
314.9999999999839
 51
0.0
  0
ARC
  5
AB
330
4A
100
AcDbEntity
  8
1
  6
Continuous
 62
     7
100
AcDbCircle
 10
578.0894825615427
 20
376.0689733408937
 30
0.0
 40
2.0
100
AcDbArc
 50
0.0
 51
90.0
  0
ARC
  5
AC
330
4A
100
AcDbEntity
  8
1
  6
Continuous
 62
     7
100
AcDbCircle
 10
328.5363133722302
 20
634.4139786258766
 30
0.0
 40
2.0
100
AcDbArc
 50
0.0
 51
45.00000000000922
  0
ARC
  5
AD
330
4A
100
AcDbEntity
  8
1
  6
Continuous
 62
     7
100
AcDbCircle
 10
392.0894825615428
 20
376.0689733408936
 30
0.0
 40
2.0
100
AcDbArc
 50
90.0
 51
180.0
  0
ENDBLK
  5
4C
330
4A
100
AcDbEntity
  8
0
100
AcDbBlockEnd
  0
BLOCK
  5
4E
330
4D
100
AcDbEntity
  8
0
100
AcDbBlockBegin
  2
R81-6-1__1
 70
     0
 10
95.53631337223038
 20
421.5689733408936
 30
0.0
  3
R81-6-1__1
  1

  0
LINE
  5
AE
330
4D
100
AcDbEntity
  8
1
  6
Continuous
 62
     7
100
AcDbLine
 10
320.5363133722302
 20
626.4139786258766
 30
0.0
 11
329.9505269346031
 21
635.8281921882499
 31
0.0
  0
LINE
  5
AF
330
4D
100
AcDbEntity
  8
1
  6
Continuous
 62
     7
100
AcDbLine
 10
328.5363133722302
 20
636.4139786258766
 30
0.0
 11
97.53631337223038
 21
636.4139786258766
 31
0.0
  0
LINE
  5
B0
330
4D
100
AcDbEntity
  8
1
  6
Continuous
 62
     7
100
AcDbLine
 10
320.5363133722302
 20
626.4139786258766
 30
0.0
 11
105.5363133722311
 21
626.4139786258766
 31
0.0
  0
LINE
  5
B1
330
4D
100
AcDbEntity
  8
1
  6
Continuous
 62
     7
100
AcDbLine
 10
576.0894825615429
 20
283.7689733408937
 30
0.0
 11
570.489482561543
 21
283.7689733408937
 31
0.0
  0
LINE
  5
B2
330
4D
100
AcDbEntity
  8
1
  6
Continuous
 62
     7
100
AcDbLine
 10
576.0894825615429
 20
283.7689733408937
 30
0.0
 11
576.0894825615429
 21
283.0689733408938
 31
0.0
  0
LINE
  5
B3
330
4D
100
AcDbEntity
  8
1
  6
Continuous
 62
     7
100
AcDbLine
 10
570.4894825615428
 20
283.0689733408938
 30
0.0
 11
576.0894825615429
 21
283.0689733408938
 31
0.0
  0
ARC
  5
B4
330
4D
100
AcDbEntity
  8
1
  6
Continuous
 62
     7
100
AcDbCircle
 10
328.5363133722302
 20
634.4139786258766
 30
0.0
 40
2.000000000000016
100
AcDbArc
 50
45.00000000000922
 51
90.0
  0
ARC
  5
B5
330
4D
100
AcDbEntity
  8
1
  6
Continuous
 62
     7
100
AcDbCircle
 10
97.53631337223038
 20
634.4139786258766
 30
0.0
 40
2.0
100
AcDbArc
 50
90.0
 51
134.999999999985
  0
ENDBLK
  5
4F
330
4D
100
AcDbEntity
  8
0
100
AcDbBlockEnd
  0
BLOCK
  5
51
330
50
100
AcDbEntity
  8
0
100
AcDbBlockBegin
  2
R81-6-1__2
 70
     0
 10
95.53631337223055
 20
397.0689733408936
 30
0.0
  3
R81-6-1__2
  1

  0
LINE
  5
B6
330
50
100
AcDbEntity
  8
1
  6
Continuous
 62
     7
100
AcDbLine
 10
105.5363133722311
 20
456.4139786258766
 30
0.0
 11
96.12209980985756
 21
446.9997650635031
 31
0.0
  0
LINE
  5
B7
330
50
100
AcDbEntity
  8
1
  6
Continuous
 62
     7
100
AcDbLine
 10
97.53631337223038
 20
446.4139786258766
 30
0.0
 11
164.5733773014838
 21
446.4139786258766
 31
0.0
  0
LINE
  5
B8
330
50
100
AcDbEntity
  8
1
  6
Continuous
 62
     7
100
AcDbLine
 10
164.5733773014838
 20
446.4139786258766
 30
0.0
 11
328.5363133722302
 21
446.4139786258766
 31
0.0
  0
LINE
  5
B9
330
50
100
AcDbEntity
  8
1
  6
Continuous
 62
     7
100
AcDbLine
 10
105.5363133722311
 20
456.4139786258766
 30
0.0
 11
320.5363133722303
 21
456.4139786258766
 31
0.0
  0
LINE
  5
BA
330
50
100
AcDbEntity
  8
1
  6
Continuous
 62
     7
100
AcDbLine
 10
170.5077016162258
 20
283.7689733408936
 30
0.0
 11
112.836313372231
 21
283.7689733408936
 31
0.0
  0
LINE
  5
BB
330
50
100
AcDbEntity
  8
1
  6
Continuous
 62
     7
100
AcDbLine
 10
112.836313372231
 20
283.7689733408936
 30
0.0
 11
106.536313372231
 21
283.7689733408936
 31
0.0
  0
LINE
  5
BC
330
50
100
AcDbEntity
  8
1
  6
Continuous
 62
     7
100
AcDbLine
 10
112.836313372231
 20
283.0689733408936
 30
0.0
 11
106.536313372231
 21
283.0689733408936
 31
0.0
  0
LINE
  5
BD
330
50
100
AcDbEntity
  8
1
  6
Continuous
 62
     7
100
AcDbLine
 10
112.836313372231
 20
283.0689733408936
 30
0.0
 11
112.836313372231
 21
283.7689733408936
 31
0.0
  0
LINE
  5
BE
330
50
100
AcDbEntity
  8
1
  6
Continuous
 62
     7
100
AcDbLine
 10
106.536313372231
 20
283.0689733408936
 30
0.0
 11
106.536313372231
 21
284.3990844574906
 31
0.0
  0
LINE
  5
BF
330
50
100
AcDbEntity
  8
1
  6
Continuous
 62
     7
100
AcDbLine
 10
255.3670934384189
 20
283.0689733408936
 30
0.0
 11
112.836313372231
 21
283.0689733408936
 31
0.0
  0
LINE
  5
C0
330
50
100
AcDbEntity
  8
1
  6
Continuous
 62
     7
100
AcDbLine
 10
160.9714012051718
 20
378.0689733408936
 30
0.0
 11
97.53631337223055
 21
378.0689733408936
 31
0.0
  0
LINE
  5
C1
330
50
100
AcDbEntity
  8
1
  6
Continuous
 62
     7
100
AcDbLine
 10
399.0894825615429
 20
283.0689733408938
 30
0.0
 11
399.6894825615428
 21
283.0689733408938
 31
0.0
  0
LINE
  5
C2
330
50
100
AcDbEntity
  8
1
  6
Continuous
 62
     7
100
AcDbLine
 10
394.0894825615429
 20
283.0689733408938
 30
0.0
 11
399.6894825615428
 21
283.0689733408938
 31
0.0
  0
LINE
  5
C3
330
50
100
AcDbEntity
  8
1
  6
Continuous
 62
     7
100
AcDbLine
 10
399.6894825615428
 20
283.7689733408938
 30
0.0
 11
394.0894825615429
 21
283.7689733408939
 31
0.0
  0
LINE
  5
C4
330
50
100
AcDbEntity
  8
1
  6
Continuous
 62
     7
100
AcDbLine
 10
394.0894825615429
 20
283.0689733408938
 30
0.0
 11
394.0894825615429
 21
283.7689733408939
 31
0.0
  0
LINE
  5
C5
330
50
100
AcDbEntity
  8
1
  6
Continuous
 62
     7
100
AcDbLine
 10
95.53631337223055
 20
367.0689733408936
 30
0.0
 11
264.6733139768151
 21
367.0689733408936
 31
0.0
  0
LINE
  5
C6
330
50
100
AcDbEntity
  8
1
  6
Continuous
 62
     7
100
AcDbLine
 10
95.53631337223055
 20
376.0689733408936
 30
0.0
 11
95.53631337223055
 21
367.0689733408936
 31
0.0
  0
LINE
  5
C7
330
50
100
AcDbEntity
  8
1
  6
Continuous
 62
     7
100
AcDbLine
 10
328.53631337223
 20
378.0689733408936
 30
0.0
 11
160.9714012051718
 21
378.0689733408936
 31
0.0
  0
LINE
  5
C8
330
50
100
AcDbEntity
  8
1
  6
Continuous
 62
     7
100
AcDbLine
 10
264.6733139768151
 20
367.0689733408936
 30
0.0
 11
330.53631337223
 21
367.0689733408936
 31
0.0
  0
LINE
  5
C9
330
50
100
AcDbEntity
  8
1
  6
Continuous
 62
     7
100
AcDbLine
 10
330.53631337223
 20
367.0689733408936
 30
0.0
 11
330.53631337223
 21
376.0689733408936
 31
0.0
  0
LINE
  5
CA
330
50
100
AcDbEntity
  8
1
  6
Continuous
 62
     7
100
AcDbLine
 10
313.2363133722296
 20
283.7689733408936
 30
0.0
 11
170.5077016162258
 21
283.7689733408936
 31
0.0
  0
LINE
  5
CB
330
50
100
AcDbEntity
  8
1
  6
Continuous
 62
     7
100
AcDbLine
 10
319.5363133722296
 20
283.7689733408936
 30
0.0
 11
313.2363133722296
 21
283.7689733408936
 31
0.0
  0
LINE
  5
CC
330
50
100
AcDbEntity
  8
1
  6
Continuous
 62
     7
100
AcDbLine
 10
319.5363133722296
 20
283.0689733408936
 30
0.0
 11
313.2363133722296
 21
283.0689733408936
 31
0.0
  0
LINE
  5
CD
330
50
100
AcDbEntity
  8
1
  6
Continuous
 62
     7
100
AcDbLine
 10
313.2363133722296
 20
283.7689733408936
 30
0.0
 11
313.2363133722296
 21
283.0689733408936
 31
0.0
  0
LINE
  5
CE
330
50
100
AcDbEntity
  8
1
  6
Continuous
 62
     7
100
AcDbLine
 10
319.5363133722296
 20
284.3990844574906
 30
0.0
 11
319.5363133722296
 21
283.0689733408936
 31
0.0
  0
LINE
  5
CF
330
50
100
AcDbEntity
  8
1
  6
Continuous
 62
     7
100
AcDbLine
 10
313.2363133722296
 20
283.0689733408936
 30
0.0
 11
255.3670934384189
 21
283.0689733408936
 31
0.0
  0
ARC
  5
D0
330
50
100
AcDbEntity
  8
1
  6
Continuous
 62
     7
100
AcDbCircle
 10
328.5363133722302
 20
448.4139786258766
 30
0.0
 40
2.0
100
AcDbArc
 50
270.0
 51
314.999999999992
  0
ARC
  5
D1
330
50
100
AcDbEntity
  8
1
  6
Continuous
 62
     7
100
AcDbCircle
 10
97.53631337223038
 20
448.4139786258766
 30
0.0
 40
2.000000000000096
100
AcDbArc
 50
225.0000000000138
 51
270.0
  0
ARC
  5
D2
330
50
100
AcDbEntity
  8
1
  6
Continuous
 62
     7
100
AcDbCircle
 10
97.53631337223055
 20
376.0689733408936
 30
0.0
 40
2.0
100
AcDbArc
 50
90.0
 51
180.0
  0
ARC
  5
D3
330
50
100
AcDbEntity
  8
1
  6
Continuous
 62
     7
100
AcDbCircle
 10
328.53631337223
 20
376.0689733408936
 30
0.0
 40
2.0
100
AcDbArc
 50
0.0
 51
90.0
  0
ENDBLK
  5
52
330
50
100
AcDbEntity
  8
0
100
AcDbBlockEnd
  0
BLOCK
  5
54
330
53
100
AcDbEntity
  8
0
100
AcDbBlockBegin
  2
R81-6-3
 70
     0
 10
95.52431337223038
 20
313.0689733408936
 30
0.0
  3
R81-6-3
  1

  0
LINE
  5
D4
330
53
100
AcDbEntity
  8
1
  6
Continuous
 62
     7
100
AcDbLine
 10
105.5363133722311
 20
626.4139786258766
 30
0.0
 11
96.12209980985756
 21
635.8281921882501
 31
0.0
  0
LINE
  5
D5
330
53
100
AcDbEntity
  8
1
  6
Continuous
 62
     7
100
AcDbLine
 10
105.5363133722311
 20
626.4139786258766
 30
0.0
 11
105.5363133722311
 21
456.3871305066607
 31
0.0
  0
LINE
  5
D6
330
53
100
AcDbEntity
  8
1
  6
Continuous
 62
     7
100
AcDbLine
 10
95.53631337223038
 20
634.4139786258766
 30
0.0
 11
95.53631337223038
 21
499.3304082108525
 31
0.0
  0
LINE
  5
D7
330
53
100
AcDbEntity
  8
1
  6
Continuous
 62
     7
100
AcDbLine
 10
106.5363133722304
 20
284.4689733408936
 30
0.0
 11
116.3363133722305
 21
294.2689733408936
 31
0.0
  0
LINE
  5
D8
330
53
100
AcDbEntity
  8
1
  6
Continuous
 62
     7
100
AcDbLine
 10
116.3363133722305
 20
294.2689733408936
 30
0.0
 11
116.3363133722305
 21
367.0689733408936
 31
0.0
  0
LINE
  5
D9
330
53
100
AcDbEntity
  8
1
  6
Continuous
 62
     7
100
AcDbLine
 10
99.53631337223055
 20
283.0689733408936
 30
0.0
 11
105.1363133722305
 21
283.0689733408936
 31
0.0
  0
LINE
  5
DA
330
53
100
AcDbEntity
  8
1
  6
Continuous
 62
     7
100
AcDbLine
 10
105.8363133722305
 20
367.0689733408936
 30
0.0
 11
105.8363133722305
 21
284.4689733408936
 31
0.0
  0
LINE
  5
DB
330
53
100
AcDbEntity
  8
1
  6
Continuous
 62
     7
100
AcDbLine
 10
105.1363133722305
 20
283.7689733408936
 30
0.0
 11
99.53631337223055
 21
283.7689733408936
 31
0.0
  0
LINE
  5
DC
330
53
100
AcDbEntity
  8
1
  6
Continuous
 62
     7
100
AcDbLine
 10
99.53631337223055
 20
283.0689733408936
 30
0.0
 11
99.53631337223055
 21
283.7689733408936
 31
0.0
  0
LINE
  5
DD
330
53
100
AcDbEntity
  8
1
  6
Continuous
 62
     7
100
AcDbLine
 10
95.53631337223038
 20
499.3304082108525
 30
0.0
 11
95.53631337223038
 21
448.4139786258766
 31
0.0
  0
ARC
  5
DE
330
53
100
AcDbEntity
  8
1
  6
Continuous
 62
     7
100
AcDbCircle
 10
105.1363133722303
 20
284.4689733408936
 30
0.0
 40
1.400000000000034
100
AcDbArc
 50
270.0000000000081
 51
0.0
  0
ARC
  5
DF
330
53
100
AcDbEntity
  8
1
  6
Continuous
 62
     7
100
AcDbCircle
 10
105.1363133722303
 20
284.4689733408936
 30
0.0
 40
0.7000000000000455
100
AcDbArc
 50
270.0000000000163
 51
0.0
  0
ARC
  5
E0
330
53
100
AcDbEntity
  8
1
  6
CENTER_DASH_DASH
 62
     7
100
AcDbCircle
 10
97.53631337223038
 20
448.4139786258766
 30
0.0
 40
2.0
100
AcDbArc
 50
180.0
 51
225.0000000000138
  0
ARC
  5
E1
330
53
100
AcDbEntity
  8
1
  6
Continuous
 62
     7
100
AcDbCircle
 10
97.53631337223038
 20
634.4139786258766
 30
0.0
 40
2.000000000000137
100
AcDbArc
 50
134.999999999985
 51
180.0
  0
ENDBLK
  5
55
330
53
100
AcDbEntity
  8
0
100
AcDbBlockEnd
  0
BLOCK
  5
57
330
56
100
AcDbEntity
  8
0
100
AcDbBlockBegin
  2
R81-6-8__3
 70
     0
 10
315.0363133722302
 20
397.0689733408937
 30
0.0
  3
R81-6-8__3
  1

  0
LINE
  5
E2
330
56
100
AcDbEntity
  8
1
  6
Continuous
 62
     7
100
AcDbLine
 10
330.5363133722302
 20
610.4139786258767
 30
0.0
 11
332.0363133722302
 21
610.4139786258767
 31
0.0
  0
LINE
  5
E3
330
56
100
AcDbEntity
  8
1
  6
Continuous
 62
     2
100
AcDbLine
 10
330.5363133722302
 20
367.5689733408937
 30
0.0
 11
332.0363133722302
 21
369.0689733408937
 31
0.0
  0
LINE
  5
E4
330
56
100
AcDbEntity
  8
1
  6
Continuous
 62
     2
100
AcDbLine
 10
332.0363133722302
 20
373.0689733408937
 30
0.0
 11
330.5363133722302
 21
374.5689733408937
 31
0.0
  0
LINE
  5
E5
330
56
100
AcDbEntity
  8
1
  6
Continuous
 62
     7
100
AcDbLine
 10
332.0363133722302
 20
371.0689733408937
 30
0.0
 11
332.0363133722302
 21
369.0689733408937
 31
0.0
  0
LINE
  5
E6
330
56
100
AcDbEntity
  8
1
  6
Continuous
 62
     7
100
AcDbLine
 10
332.0363133722302
 20
369.0689733408937
 30
0.0
 11
330.5363133722302
 21
369.0689733408937
 31
0.0
  0
LINE
  5
E7
330
56
100
AcDbEntity
  8
1
  6
Continuous
 62
     7
100
AcDbLine
 10
332.0363133722302
 20
373.0689733408937
 30
0.0
 11
332.0363133722302
 21
371.0689733408937
 31
0.0
  0
LINE
  5
E8
330
56
100
AcDbEntity
  8
1
  6
Continuous
 62
     2
100
AcDbLine
 10
330.5363133722302
 20
604.9139786258767
 30
0.0
 11
332.0363133722302
 21
606.4139786258767
 31
0.0
  0
LINE
  5
E9
330
56
100
AcDbEntity
  8
1
  6
Continuous
 62
     2
100
AcDbLine
 10
332.0363133722302
 20
610.4139786258767
 30
0.0
 11
330.5363133722302
 21
611.9139786258767
 31
0.0
  0
LINE
  5
EA
330
56
100
AcDbEntity
  8
1
  6
Continuous
 62
     7
100
AcDbLine
 10
332.0363133722302
 20
608.4139786258767
 30
0.0
 11
332.0363133722302
 21
606.4139786258767
 31
0.0
  0
LINE
  5
EB
330
56
100
AcDbEntity
  8
1
  6
Continuous
 62
     7
100
AcDbLine
 10
332.0363133722302
 20
606.4139786258767
 30
0.0
 11
330.5363133722302
 21
606.4139786258767
 31
0.0
  0
LINE
  5
EC
330
56
100
AcDbEntity
  8
1
  6
Continuous
 62
     7
100
AcDbLine
 10
332.0363133722302
 20
610.4139786258767
 30
0.0
 11
332.0363133722302
 21
608.4139786258767
 31
0.0
  0
LINE
  5
ED
330
56
100
AcDbEntity
  8
1
  6
Continuous
 62
     7
100
AcDbLine
 10
319.5363133722286
 20
610.4139786258767
 30
0.0
 11
320.5363133722298
 21
610.4139786258767
 31
0.0
  0
LINE
  5
EE
330
56
100
AcDbEntity
  8
1
  6
Continuous
 62
     7
100
AcDbLine
 10
319.5363133722286
 20
606.4139786258767
 30
0.0
 11
320.5363133722298
 21
606.4139786258767
 31
0.0
  0
LINE
  5
EF
330
56
100
AcDbEntity
  8
1
  6
Continuous
 62
     7
100
AcDbLine
 10
330.5363133722302
 20
373.0689733408937
 30
0.0
 11
332.0363133722302
 21
373.0689733408937
 31
0.0
  0
CIRCLE
  5
F0
330
56
100
AcDbEntity
  8
1
  6
Continuous
 62
     7
100
AcDbCircle
 10
552.0894825615427
 20
371.0689733408937
 30
0.0
 40
2.0
  0
HATCH
  5
F5
330
56
100
AcDbEntity
  8
1
  6
Continuous
 62
     2
100
AcDbHatch
 10
0.0
 20
0.0
 30
0.0
210
0.0
220
0.0
230
1.0
  2
_USER
 70
     0
 71
     0
 91
        1
 92
        1
 93
        3
 72
     1
 10
330.5363133722302
 20
374.5689733408937
 11
330.5363133722302
 21
373.0689733408937
 72
     1
 10
330.5363133722302
 20
373.0689733408937
 11
332.0363133722302
 21
373.0689733408937
 72
     1
 10
332.0363133722302
 20
373.0689733408937
 11
330.5363133722302
 21
374.5689733408937
 97
        0
 75
     1
 76
     0
 52
45.0
 41
0.3
 77
     0
 78
     1
 53
45.0
 43
0.0
 44
0.0
 45
-0.2121320343559642
 46
0.2121320343559643
 79
     0
 98
        1
 10
0.0
 20
0.0
  0
HATCH
  5
F6
330
56
100
AcDbEntity
  8
1
  6
Continuous
 62
     2
100
AcDbHatch
 10
0.0
 20
0.0
 30
0.0
210
0.0
220
0.0
230
1.0
  2
_USER
 70
     0
 71
     0
 91
        1
 92
        1
 93
        3
 72
     1
 10
330.5363133722302
 20
367.5689733408937
 11
330.5363133722302
 21
369.0689733408937
 72
     1
 10
330.5363133722302
 20
369.0689733408937
 11
332.0363133722302
 21
369.0689733408937
 72
     1
 10
332.0363133722302
 20
369.0689733408937
 11
330.5363133722302
 21
367.5689733408937
 97
        0
 75
     1
 76
     0
 52
45.0
 41
0.3
 77
     0
 78
     1
 53
45.0
 43
0.0
 44
0.0
 45
-0.2121320343559642
 46
0.2121320343559643
 79
     0
 98
        1
 10
0.0
 20
0.0
  0
HATCH
  5
F7
330
56
100
AcDbEntity
  8
1
  6
Continuous
 62
     2
100
AcDbHatch
 10
0.0
 20
0.0
 30
0.0
210
0.0
220
0.0
230
1.0
  2
_USER
 70
     0
 71
     0
 91
        1
 92
        1
 93
        3
 72
     1
 10
330.5363133722302
 20
604.9139786258767
 11
330.5363133722302
 21
606.4139786258767
 72
     1
 10
330.5363133722302
 20
606.4139786258767
 11
332.0363133722302
 21
606.4139786258767
 72
     1
 10
332.0363133722302
 20
606.4139786258767
 11
330.5363133722302
 21
604.9139786258767
 97
        0
 75
     1
 76
     0
 52
45.0
 41
0.3
 77
     0
 78
     1
 53
45.0
 43
0.0
 44
0.0
 45
-0.2121320343559642
 46
0.2121320343559643
 79
     0
 98
        1
 10
0.0
 20
0.0
  0
HATCH
  5
F8
330
56
100
AcDbEntity
  8
1
  6
Continuous
 62
     2
100
AcDbHatch
 10
0.0
 20
0.0
 30
0.0
210
0.0
220
0.0
230
1.0
  2
_USER
 70
     0
 71
     0
 91
        1
 92
        1
 93
        3
 72
     1
 10
330.5363133722302
 20
611.9139786258767
 11
330.5363133722302
 21
610.4139786258767
 72
     1
 10
330.5363133722302
 20
610.4139786258767
 11
332.0363133722302
 21
610.4139786258767
 72
     1
 10
332.0363133722302
 20
610.4139786258767
 11
330.5363133722302
 21
611.9139786258767
 97
        0
 75
     1
 76
     0
 52
45.0
 41
0.3
 77
     0
 78
     1
 53
45.0
 43
0.0
 44
0.0
 45
-0.2121320343559642
 46
0.2121320343559643
 79
     0
 98
        1
 10
0.0
 20
0.0
  0
ENDBLK
  5
58
330
56
100
AcDbEntity
  8
0
100
AcDbBlockEnd
  0
BLOCK
  5
5A
330
59
100
AcDbEntity
  8
0
100
AcDbBlockBegin
  2
R81-6-8__4
 70
     0
 10
94.03631337223038
 20
397.5689733408937
 30
0.0
  3
R81-6-8__4
  1

  0
LINE
  5
F9
330
59
100
AcDbEntity
  8
1
  6
Continuous
 62
     7
100
AcDbLine
 10
94.03631337223038
 20
610.4139786258767
 30
0.0
 11
95.53631337223038
 21
610.4139786258767
 31
0.0
  0
LINE
  5
FA
330
59
100
AcDbEntity
  8
1
  6
Continuous
 62
     2
100
AcDbLine
 10
94.03631337223038
 20
606.4139786258767
 30
0.0
 11
95.53631337223038
 21
604.9139786258767
 31
0.0
  0
LINE
  5
FB
330
59
100
AcDbEntity
  8
1
  6
Continuous
 62
     2
100
AcDbLine
 10
95.53631337223038
 20
611.9139786258767
 30
0.0
 11
94.03631337223038
 21
610.4139786258767
 31
0.0
  0
LINE
  5
FC
330
59
100
AcDbEntity
  8
1
  6
Continuous
 62
     7
100
AcDbLine
 10
94.03631337223038
 20
606.4139786258767
 30
0.0
 11
94.03631337223038
 21
608.4139786258767
 31
0.0
  0
LINE
  5
FD
330
59
100
AcDbEntity
  8
1
  6
Continuous
 62
     7
100
AcDbLine
 10
95.53631337223038
 20
606.4139786258767
 30
0.0
 11
94.03631337223038
 21
606.4139786258767
 31
0.0
  0
LINE
  5
FE
330
59
100
AcDbEntity
  8
1
  6
Continuous
 62
     7
100
AcDbLine
 10
94.03631337223038
 20
608.4139786258767
 30
0.0
 11
94.03631337223038
 21
610.4139786258767
 31
0.0
  0
LINE
  5
FF
330
59
100
AcDbEntity
  8
1
  6
Continuous
 62
     7
100
AcDbLine
 10
95.53631337223038
 20
369.0689733408937
 30
0.0
 11
94.03631337223038
 21
369.0689733408937
 31
0.0
  0
LINE
  5
100
330
59
100
AcDbEntity
  8
1
  6
Continuous
 62
     2
100
AcDbLine
 10
94.03631337223038
 20
369.0689733408937
 30
0.0
 11
95.53631337223038
 21
367.5689733408937
 31
0.0
  0
LINE
  5
101
330
59
100
AcDbEntity
  8
1
  6
Continuous
 62
     2
100
AcDbLine
 10
95.53631337223038
 20
374.5689733408937
 30
0.0
 11
94.03631337223038
 21
373.0689733408937
 31
0.0
  0
LINE
  5
102
330
59
100
AcDbEntity
  8
1
  6
Continuous
 62
     7
100
AcDbLine
 10
94.03631337223038
 20
369.0689733408937
 30
0.0
 11
94.03631337223038
 21
371.0689733408937
 31
0.0
  0
LINE
  5
103
330
59
100
AcDbEntity
  8
1
  6
Continuous
 62
     7
100
AcDbLine
 10
94.03631337223038
 20
371.0689733408937
 30
0.0
 11
94.03631337223038
 21
373.0689733408937
 31
0.0
  0
LINE
  5
104
330
59
100
AcDbEntity
  8
1
  6
Continuous
 62
     7
100
AcDbLine
 10
94.03631337223038
 20
373.0689733408937
 30
0.0
 11
95.53631337223038
 21
373.0689733408937
 31
0.0
  0
LINE
  5
105
330
59
100
AcDbEntity
  8
1
  6
Continuous
 62
     7
100
AcDbLine
 10
105.5363133722311
 20
610.4139786258767
 30
0.0
 11
106.5363133722311
 21
610.4139786258767
 31
0.0
  0
LINE
  5
106
330
59
100
AcDbEntity
  8
1
  6
Continuous
 62
     7
100
AcDbLine
 10
105.5363133722311
 20
606.4139786258767
 30
0.0
 11
106.5363133722311
 21
606.4139786258767
 31
0.0
  0
HATCH
  5
10B
330
59
100
AcDbEntity
  8
1
  6
Continuous
 62
     2
100
AcDbHatch
 10
0.0
 20
0.0
 30
0.0
210
0.0
220
0.0
230
1.0
  2
_USER
 70
     0
 71
     0
 91
        1
 92
        1
 93
        3
 72
     1
 10
95.53631337223038
 20
604.9139786258767
 11
95.53631337223038
 21
606.4139786258767
 72
     1
 10
95.53631337223038
 20
606.4139786258767
 11
94.03631337223038
 21
606.4139786258767
 72
     1
 10
94.03631337223038
 20
606.4139786258767
 11
95.53631337223038
 21
604.9139786258767
 97
        0
 75
     1
 76
     0
 52
45.0
 41
0.3
 77
     0
 78
     1
 53
45.0
 43
0.0
 44
0.0
 45
-0.2121320343559642
 46
0.2121320343559643
 79
     0
 98
        1
 10
0.0
 20
0.0
  0
HATCH
  5
10C
330
59
100
AcDbEntity
  8
1
  6
Continuous
 62
     2
100
AcDbHatch
 10
0.0
 20
0.0
 30
0.0
210
0.0
220
0.0
230
1.0
  2
_USER
 70
     0
 71
     0
 91
        1
 92
        1
 93
        3
 72
     1
 10
95.53631337223038
 20
611.9139786258767
 11
95.53631337223038
 21
610.4139786258767
 72
     1
 10
95.53631337223038
 20
610.4139786258767
 11
94.03631337223038
 21
610.4139786258767
 72
     1
 10
94.03631337223038
 20
610.4139786258767
 11
95.53631337223038
 21
611.9139786258767
 97
        0
 75
     1
 76
     0
 52
45.0
 41
0.3
 77
     0
 78
     1
 53
45.0
 43
0.0
 44
0.0
 45
-0.2121320343559642
 46
0.2121320343559643
 79
     0
 98
        1
 10
0.0
 20
0.0
  0
HATCH
  5
10D
330
59
100
AcDbEntity
  8
1
  6
Continuous
 62
     2
100
AcDbHatch
 10
0.0
 20
0.0
 30
0.0
210
0.0
220
0.0
230
1.0
  2
_USER
 70
     0
 71
     0
 91
        1
 92
        1
 93
        3
 72
     1
 10
95.53631337223038
 20
367.5689733408937
 11
95.53631337223038
 21
369.0689733408937
 72
     1
 10
95.53631337223038
 20
369.0689733408937
 11
94.03631337223038
 21
369.0689733408937
 72
     1
 10
94.03631337223038
 20
369.0689733408937
 11
95.53631337223038
 21
367.5689733408937
 97
        0
 75
     1
 76
     0
 52
45.0
 41
0.3
 77
     0
 78
     1
 53
45.0
 43
0.0
 44
0.0
 45
-0.2121320343559642
 46
0.2121320343559643
 79
     0
 98
        1
 10
0.0
 20
0.0
  0
HATCH
  5
10E
330
59
100
AcDbEntity
  8
1
  6
Continuous
 62
     2
100
AcDbHatch
 10
0.0
 20
0.0
 30
0.0
210
0.0
220
0.0
230
1.0
  2
_USER
 70
     0
 71
     0
 91
        1
 92
        1
 93
        3
 72
     1
 10
95.53631337223038
 20
374.5689733408937
 11
95.53631337223038
 21
373.0689733408937
 72
     1
 10
95.53631337223038
 20
373.0689733408937
 11
94.03631337223038
 21
373.0689733408937
 72
     1
 10
94.03631337223038
 20
373.0689733408937
 11
95.53631337223038
 21
374.5689733408937
 97
        0
 75
     1
 76
     0
 52
45.0
 41
0.3
 77
     0
 78
     1
 53
45.0
 43
0.0
 44
0.0
 45
-0.2121320343559642
 46
0.2121320343559643
 79
     0
 98
        1
 10
0.0
 20
0.0
  0
ENDBLK
  5
5B
330
59
100
AcDbEntity
  8
0
100
AcDbBlockEnd
  0
BLOCK
  5
5D
330
5C
100
AcDbEntity
  8
0
100
AcDbBlockBegin
  2
KEY
 70
     0
 10
553.4879331380905
 20
363.7890951120693
 30
0.0
  3
KEY
  1

  0
LINE
  5
10F
330
5C
100
AcDbEntity
  8
0
  6
Continuous
 62
     7
100
AcDbLine
 10
489.4879331380905
 20
531.5689733408936
 30
0.0
 11
489.4879331380905
 21
549.0689733408936
 31
0.0
  0
LINE
  5
110
330
5C
100
AcDbEntity
  8
0
  6
Continuous
 62
     7
100
AcDbLine
 10
487.9879331380905
 20
549.0689733408936
 30
0.0
 11
487.9879331380905
 21
549.5689733408936
 31
0.0
  0
LINE
  5
111
330
5C
100
AcDbEntity
  8
0
  6
Continuous
 62
     7
100
AcDbLine
 10
491.9879331380905
 20
555.0689733408936
 30
0.0
 11
484.8991931462505
 21
555.0689733408936
 31
0.0
  0
LINE
  5
112
330
5C
100
AcDbEntity
  8
0
  6
Continuous
 62
     7
100
AcDbLine
 10
484.8991931462505
 20
555.0689733408936
 30
0.0
 11
483.4286049109564
 21
565.0689733408936
 31
0.0
  0
LINE
  5
113
330
5C
100
AcDbEntity
  8
0
  6
Continuous
 62
     7
100
AcDbLine
 10
483.4286049109564
 20
565.0689733408936
 30
0.0
 11
491.9879331380905
 21
565.0689733408936
 31
0.0
  0
LINE
  5
114
330
5C
100
AcDbEntity
  8
0
  6
Continuous
 62
     7
100
AcDbLine
 10
491.9879331380905
 20
567.0689733408936
 30
0.0
 11
485.4680353077274
 21
567.0689733408936
 31
0.0
  0
LINE
  5
115
330
5C
100
AcDbEntity
  8
0
  6
Continuous
 62
     7
100
AcDbLine
 10
485.180687422161
 20
569.0267996261148
 30
0.0
 11
491.9879331380905
 21
571.0689733408936
 31
0.0
  0
LINE
  5
116
330
5C
100
AcDbEntity
  8
0
  6
Continuous
 62
     7
100
AcDbLine
 10
491.9879331380905
 20
529.0689733408936
 30
0.0
 11
489.4879331380905
 21
531.5689733408936
 31
0.0
  0
LINE
  5
117
330
5C
100
AcDbEntity
  8
0
  6
Continuous
 62
     7
100
AcDbLine
 10
489.4879331380905
 20
549.0689733408936
 30
0.0
 11
487.9879331380905
 21
549.0689733408936
 31
0.0
  0
LINE
  5
118
330
5C
100
AcDbEntity
  8
0
  6
Continuous
 62
     7
100
AcDbLine
 10
484.4879331380905
 20
553.0689733408936
 30
0.0
 11
482.239402687605
 21
568.3589804041951
 31
0.0
  0
LINE
  5
119
330
5C
100
AcDbEntity
  8
0
  6
Continuous
 62
     7
100
AcDbLine
 10
483.643425187202
 20
570.5656209556271
 30
0.0
 11
491.9879331380905
 21
573.0689733408936
 31
0.0
  0
LINE
  5
11A
330
5C
100
AcDbEntity
  8
1
  6
PHANTOM
 62
     4
100
AcDbLine
 10
491.9879331380905
 20
576.4630179265962
 30
0.0
 11
491.9879331380905
 21
524.7890951120693
 31
0.0
  0
LINE
  5
11B
330
5C
100
AcDbEntity
  8
0
  6
Continuous
 62
     7
100
AcDbLine
 10
499.0745220678431
 20
555.0689733408936
 30
0.0
 11
491.9879331380905
 21
555.0689733408936
 31
0.0
  0
LINE
  5
11C
330
5C
100
AcDbEntity
  8
0
  6
Continuous
 62
     7
100
AcDbLine
 10
500.5451103031371
 20
565.0689733408936
 30
0.0
 11
499.0745220678431
 21
555.0689733408936
 31
0.0
  0
LINE
  5
11D
330
5C
100
AcDbEntity
  8
0
  6
Continuous
 62
     7
100
AcDbLine
 10
491.9879331380905
 20
565.0689733408936
 30
0.0
 11
500.5451103031371
 21
565.0689733408936
 31
0.0
  0
LINE
  5
11E
330
5C
100
AcDbEntity
  8
0
  6
Continuous
 62
     7
100
AcDbLine
 10
498.5078309684536
 20
567.0689733408936
 30
0.0
 11
491.9879331380905
 21
567.0689733408936
 31
0.0
  0
LINE
  5
11F
330
5C
100
AcDbEntity
  8
0
  6
Continuous
 62
     7
100
AcDbLine
 10
491.9879331380905
 20
571.0689733408936
 30
0.0
 11
498.7951788540202
 21
569.0267996261148
 31
0.0
  0
LINE
  5
120
330
5C
100
AcDbEntity
  8
0
  6
Continuous
 62
     7
100
AcDbLine
 10
495.9879331380905
 20
533.0689733408936
 30
0.0
 11
491.9879331380905
 21
529.0689733408936
 31
0.0
  0
LINE
  5
121
330
5C
100
AcDbEntity
  8
0
  6
Continuous
 62
     7
100
AcDbLine
 10
495.9879331380905
 20
549.5689733408936
 30
0.0
 11
495.9879331380905
 21
533.0689733408936
 31
0.0
  0
LINE
  5
122
330
5C
100
AcDbEntity
  8
0
  6
Continuous
 62
     7
100
AcDbLine
 10
501.736463588576
 20
568.3589804041951
 30
0.0
 11
499.4879331380905
 21
553.0689733408936
 31
0.0
  0
LINE
  5
123
330
5C
100
AcDbEntity
  8
0
  6
Continuous
 62
     7
100
AcDbLine
 10
491.9879331380905
 20
573.0689733408936
 30
0.0
 11
500.3324410889791
 21
570.5656209556271
 31
0.0
  0
ARC
  5
124
330
5C
100
AcDbEntity
  8
0
  6
Continuous
 62
     7
100
AcDbCircle
 10
485.4680353077274
 20
568.0689733408936
 30
0.0
 40
1.000000000000002
100
AcDbArc
 50
106.699244233998
 51
270.0
  0
ARC
  5
125
330
5C
100
AcDbEntity
  8
0
  6
Continuous
 62
     7
100
AcDbCircle
 10
498.5078309684536
 20
568.0689733408936
 30
0.0
 40
1.0
100
AcDbArc
 50
270.0
 51
73.30075576599266
  0
ARC
  5
126
330
5C
100
AcDbEntity
  8
0
  6
Continuous
 62
     7
100
AcDbCircle
 10
484.4879331380905
 20
549.5689733408936
 30
0.0
 40
3.5
100
AcDbArc
 50
0.0
 51
90.0
  0
ARC
  5
127
330
5C
100
AcDbEntity
  8
0
  6
Continuous
 62
     7
100
AcDbCircle
 10
499.4879331380905
 20
549.5689733408936
 30
0.0
 40
3.5
100
AcDbArc
 50
90.0
 51
180.0
  0
ARC
  5
128
330
5C
100
AcDbEntity
  8
0
  6
Continuous
 62
     7
100
AcDbCircle
 10
499.7577453178463
 20
568.6499683851848
 30
0.0
 40
2.000000000000001
100
AcDbArc
 50
351.634113875966
 51
73.30075576600201
  0
ARC
  5
129
330
5C
100
AcDbEntity
  8
0
  6
Continuous
 62
     7
100
AcDbCircle
 10
484.2181209583347
 20
568.6499683851848
 30
0.0
 40
1.999999999999954
100
AcDbArc
 50
106.6992442339933
 51
188.365886124034
  0
ENDBLK
  5
5E
330
5C
100
AcDbEntity
  8
0
100
AcDbBlockEnd
  0
BLOCK
  5
60
330
5F
100
AcDbEntity
  8
0
100
AcDbBlockBegin
  2
R81-6-7
 70
     0
 10
946.2207826999086
 20
366.5921873233695
 30
0.0
  3
R81-6-7
  1

  0
ARC
  5
12A
330
5F
100
AcDbEntity
  8
1
  6
Continuous
 62
     7
100
AcDbCircle
 10
213.0363133722305
 20
499.9139786258766
 30
0.0
 40
21.99999999999983
100
AcDbArc
 50
79.85501603809391
 51
172.9952735909237
  0
ARC
  5
12B
330
5F
100
AcDbEntity
  8
1
  6
Continuous
 62
     7
100
AcDbCircle
 10
213.0363133722305
 20
499.9139786258766
 30
0.0
 40
23.99999999999999
100
AcDbArc
 50
59.68071424543513
 51
172.9952735909236
  0
ARC
  5
12C
330
5F
100
AcDbEntity
  8
1
  6
Continuous
 62
     7
100
AcDbCircle
 10
213.0363133722305
 20
499.9139786258766
 30
0.0
 40
21.99999999999975
100
AcDbArc
 50
7.00472640907644
 51
14.4743499400598
  0
ARC
  5
12D
330
5F
100
AcDbEntity
  8
1
  6
Continuous
 62
     7
100
AcDbCircle
 10
213.0363133722305
 20
499.9139786258766
 30
0.0
 40
23.99999999999973
100
AcDbArc
 50
7.00472640907645
 51
34.64865173271818
  0
ARC
  5
12E
330
5F
100
AcDbEntity
  8
1
  6
Continuous
 62
     7
100
AcDbCircle
 10
233.3833033216063
 20
502.4139786258766
 30
0.0
 40
3.500000000000029
100
AcDbArc
 50
272.5056071545796
 51
7.00472640907703
  0
ARC
  5
12F
330
5F
100
AcDbEntity
  8
1
  6
Continuous
 62
     7
100
AcDbCircle
 10
233.3833033216063
 20
502.4139786258766
 30
0.0
 40
1.500000000000172
100
AcDbArc
 50
275.8547369590502
 51
7.00472640907766
  0
ARC
  5
130
330
5F
100
AcDbEntity
  8
1
  6
Continuous
 62
     7
100
AcDbCircle
 10
192.6893234228546
 20
502.4139786258766
 30
0.0
 40
1.499999999999954
100
AcDbArc
 50
172.9952735909233
 51
264.1452630409531
  0
ARC
  5
131
330
5F
100
AcDbEntity
  8
1
  6
Continuous
 62
     7
100
AcDbCircle
 10
192.6893234228546
 20
502.4139786258766
 30
0.0
 40
3.499999999999855
100
AcDbArc
 50
172.9952735909232
 51
267.4943928454218
  0
ENDBLK
  5
61
330
5F
100
AcDbEntity
  8
0
100
AcDbBlockEnd
  0
BLOCK
  5
63
330
62
100
AcDbEntity
  8
0
100
AcDbBlockBegin
  2
_1
 70
     0
 10
955.2207826999086
 20
369.5921873233695
 30
0.0
  3
_1
  1

  0
LINE
  5
132
330
62
100
AcDbEntity
  8
1
  6
Continuous
 62
     7
100
AcDbLine
 10
219.3431362758872
 20
507.4166815415852
 30
0.0
 11
222.5822549182489
 21
512.0812405154545
 31
0.0
  0
LINE
  5
133
330
62
100
AcDbEntity
  8
1
  6
Continuous
 62
     7
100
AcDbLine
 10
220.0390162879389
 20
506.7208015295336
 30
0.0
 11
224.7035752618083
 21
509.959920171895
 31
0.0
  0
LINE
  5
134
330
62
100
AcDbEntity
  8
1
  6
Continuous
 62
     7
100
AcDbLine
 10
231.0143700342917
 20
516.2707149443784
 30
0.0
 11
224.7035752618083
 21
509.959920171895
 31
0.0
  0
LINE
  5
135
330
62
100
AcDbEntity
  8
1
  6
Continuous
 62
     7
100
AcDbLine
 10
222.5822549182489
 20
512.0812405154545
 30
0.0
 11
228.8930496907323
 21
518.392035287938
 31
0.0
  0
LINE
  5
136
330
62
100
AcDbEntity
  8
1
  6
DASH_CENTER
 62
     2
100
AcDbLine
 10
210.8513862785976
 20
498.2290515322438
 30
0.0
 11
232.670976233602
 21
520.0486414872481
 31
0.0
  0
ARC
  5
137
330
62
100
AcDbEntity
  8
1
  6
Continuous
 62
     7
100
AcDbCircle
 10
219.7538277935027
 20
507.1314930471488
 30
0.0
 40
0.500000000000225
100
AcDbArc
 50
145.2234814813423
 51
304.7765185186594
  0
CIRCLE
  5
138
330
62
100
AcDbEntity
  8
1
  6
Continuous
 62
     7
100
AcDbCircle
 10
219.4002744029092
 20
506.7779396565556
 30
0.0
 40
15.00000000000006
  0
ENDBLK
  5
64
330
62
100
AcDbEntity
  8
0
100
AcDbBlockEnd
  0
BLOCK
  5
67
330
65
100
AcDbEntity
  8
0
100
AcDbBlockBegin
  2
R81-6-9
 70
     0
 10
952.0088286566736
 20
264.1589861997395
 30
0.0
  3
R81-6-9
  1

  0
INSERT
  5
66
330
65
100
AcDbEntity
  8
1
100
AcDbBlockReference
  2
_1
 10
955.2207826999086
 20
369.5921873233695
 30
0.0
  0
LINE
  5
139
330
65
100
AcDbEntity
  8
1
  6
DASH_CENTER
 62
     2
100
AcDbLine
 10
208.3509787690803
 20
500.4139786258766
 30
0.0
 11
218.4097145884514
 21
500.4139786258766
 31
0.0
  0
LINE
  5
13A
330
65
100
AcDbEntity
  8
1
  6
Continuous
 62
     7
100
AcDbLine
 10
212.0363133722305
 20
491.6639786258766
 30
0.0
 11
214.0363133722305
 21
491.6639786258766
 31
0.0
  0
LINE
  5
13B
330
65
100
AcDbEntity
  8
1
  6
Continuous
 62
     7
100
AcDbLine
 10
214.0363133722305
 20
491.6639786258766
 30
0.0
 11
214.0363133722305
 21
485.1639786258766
 31
0.0
  0
LINE
  5
13C
330
65
100
AcDbEntity
  8
1
  6
Continuous
 62
     7
100
AcDbLine
 10
214.0363133722305
 20
485.1639786258766
 30
0.0
 11
212.0363133722305
 21
485.1639786258766
 31
0.0
  0
LINE
  5
13D
330
65
100
AcDbEntity
  8
1
  6
Continuous
 62
     7
100
AcDbLine
 10
212.0363133722305
 20
485.1639786258766
 30
0.0
 11
212.0363133722305
 21
491.6639786258766
 31
0.0
  0
LINE
  5
13E
330
65
100
AcDbEntity
  8
1
  6
DASH_CENTER
 62
     2
100
AcDbLine
 10
201.6169111732443
 20
488.4139786258766
 30
0.0
 11
224.8830951483664
 21
488.4139786258766
 31
0.0
  0
ARC
  5
13F
330
65
100
AcDbEntity
  8
1
  6
Continuous
 62
     7
100
AcDbCircle
 10
213.0363133722305
 20
491.4139786258766
 30
0.0
 40
15.0
100
AcDbArc
 50
179.9999999999996
 51
11.16442224807117
  0
ARC
  5
140
330
65
100
AcDbEntity
  8
1
  6
Continuous
 62
     7
100
AcDbCircle
 10
213.0363133722305
 20
491.4139786258766
 30
0.0
 40
15.00000000000017
100
AcDbArc
 50
123.8355777519291
 51
179.9999999999996
  0
ARC
  5
141
330
65
100
AcDbEntity
  8
1
  6
Continuous
 62
     7
100
AcDbCircle
 10
213.0363133722305
 20
488.4139786258766
 30
0.0
 40
8.0
100
AcDbArc
 50
0.0
 51
25.07103204355235
  0
ARC
  5
142
330
65
100
AcDbEntity
  8
1
  6
Continuous
 62
     7
100
AcDbCircle
 10
213.0363133722305
 20
488.4139786258766
 30
0.0
 40
8.000000000000158
100
AcDbArc
 50
116.7018385529738
 51
0.0
  0
ENDBLK
  5
68
330
65
100
AcDbEntity
  8
0
100
AcDbBlockEnd
  0
BLOCK
  5
6C
330
69
100
AcDbEntity
  8
0
100
AcDbBlockBegin
  2
R81-6
 70
     0
 10
774.4288220742014
 20
227.7355814287036
 30
0.0
  3
R81-6
  1

  0
INSERT
  5
6A
330
69
100
AcDbEntity
  8
1
100
AcDbBlockReference
  2
R81-6-7
 10
946.2207826999086
 20
366.5921873233695
 30
0.0
  0
INSERT
  5
6B
330
69
100
AcDbEntity
  8
1
100
AcDbBlockReference
  2
R81-6-9
 10
952.0088286566736
 20
264.1589861997395
 30
0.0
  0
ENDBLK
  5
6D
330
69
100
AcDbEntity
  8
0
100
AcDbBlockEnd
  0
BLOCK
  5
6F
330
6E
100
AcDbEntity
  8
0
100
AcDbBlockBegin
  2
開示A4
 70
     0
 10
0.0
 20
0.0
 30
0.0
  3
開示A4
  1

  0
POINT
  5
143
330
6E
100
AcDbEntity
  8
1
 62
     4
100
AcDbPoint
 10
34.0
 20
34.00000000000001
 30
0.0
  0
POINT
  5
144
330
6E
100
AcDbEntity
  8
1
 62
     4
100
AcDbPoint
 10
57.0
 20
12.25
 30
0.0
  0
POINT
  5
145
330
6E
100
AcDbEntity
  8
1
 62
     4
100
AcDbPoint
 10
57.0
 20
20.75000000000001
 30
0.0
  0
POINT
  5
146
330
6E
100
AcDbEntity
  8
1
 62
     4
100
AcDbPoint
 10
57.0
 20
24.75000000000001
 30
0.0
  0
POINT
  5
147
330
6E
100
AcDbEntity
  8
1
 62
     4
100
AcDbPoint
 10
57.0
 20
16.25
 30
0.0
  0
POINT
  5
148
330
6E
100
AcDbEntity
  8
1
 62
     4
100
AcDbPoint
 10
157.5
 20
19.00000000000001
 30
0.0
  0
POINT
  5
149
330
6E
100
AcDbEntity
  8
1
 62
     4
100
AcDbPoint
 10
47.5
 20
282.0000000000003
 30
0.0
  0
POINT
  5
14A
330
6E
100
AcDbEntity
  8
1
 62
     4
100
AcDbPoint
 10
57.0
 20
22.75000000000001
 30
0.0
  0
POINT
  5
14B
330
6E
100
AcDbEntity
  8
1
 62
     4
100
AcDbPoint
 10
57.0
 20
14.25
 30
0.0
  0
POINT
  5
14C
330
6E
100
AcDbEntity
  8
1
 62
     4
100
AcDbPoint
 10
157.5
 20
12.5
 30
0.0
  0
POINT
  5
14D
330
6E
100
AcDbEntity
  8
1
 62
     4
100
AcDbPoint
 10
163.25
 20
12.5
 30
0.0
  0
POINT
  5
14E
330
6E
100
AcDbEntity
  8
1
 62
     4
100
AcDbPoint
 10
151.75
 20
12.5
 30
0.0
  0
POINT
  5
14F
330
6E
100
AcDbEntity
  8
1
 62
     4
100
AcDbPoint
 10
134.75
 20
12.5
 30
0.0
  0
POINT
  5
150
330
6E
100
AcDbEntity
  8
1
 62
     4
100
AcDbPoint
 10
146.25
 20
12.5
 30
0.0
  0
POINT
  5
151
330
6E
100
AcDbEntity
  8
1
 62
     4
100
AcDbPoint
 10
140.5
 20
12.5
 30
0.0
  0
POINT
  5
152
330
6E
100
AcDbEntity
  8
1
 62
     4
100
AcDbPoint
 10
140.5
 20
19.00000000000001
 30
0.0
  0
POINT
  5
153
330
6E
100
AcDbEntity
  8
1
 62
     4
100
AcDbPoint
 10
117.75
 20
12.5
 30
0.0
  0
POINT
  5
154
330
6E
100
AcDbEntity
  8
1
 62
     4
100
AcDbPoint
 10
129.25
 20
12.5
 30
0.0
  0
POINT
  5
155
330
6E
100
AcDbEntity
  8
1
 62
     4
100
AcDbPoint
 10
123.5
 20
12.5
 30
0.0
  0
POINT
  5
156
330
6E
100
AcDbEntity
  8
1
 62
     4
100
AcDbPoint
 10
123.5
 20
19.00000000000001
 30
0.0
  0
POINT
  5
157
330
6E
100
AcDbEntity
  8
1
 62
     4
100
AcDbPoint
 10
100.75
 20
12.5
 30
0.0
  0
POINT
  5
158
330
6E
100
AcDbEntity
  8
1
 62
     4
100
AcDbPoint
 10
112.25
 20
12.5
 30
0.0
  0
POINT
  5
159
330
6E
100
AcDbEntity
  8
1
 62
     4
100
AcDbPoint
 10
106.5
 20
12.5
 30
0.0
  0
POINT
  5
15A
330
6E
100
AcDbEntity
  8
1
 62
     4
100
AcDbPoint
 10
106.5
 20
19.00000000000001
 30
0.0
  0
POINT
  5
15B
330
6E
100
AcDbEntity
  8
1
 62
     4
100
AcDbPoint
 10
85.25
 20
17.0
 30
0.0
  0
POINT
  5
15C
330
6E
100
AcDbEntity
  8
1
 62
     4
100
AcDbPoint
 10
93.75
 20
17.0
 30
0.0
  0
LINE
  5
15D
330
6E
100
AcDbEntity
  8
1
  6
Continuous
 62
     2
100
AcDbLine
 10
81.0
 20
27.00000000000001
 30
0.0
 11
81.0
 21
10.0
 31
0.0
  0
LINE
  5
15E
330
6E
100
AcDbEntity
  8
1
  6
DOT_CENTER
 62
     2
100
AcDbLine
 10
187.0
 20
26.50000000000001
 30
0.0
 11
187.0
 21
20.50000000000001
 31
0.0
  0
LINE
  5
15F
330
6E
100
AcDbEntity
  8
1
  6
DOT_CENTER
 62
     2
100
AcDbLine
 10
184.0
 20
23.50000000000001
 30
0.0
 11
197.0
 21
23.50000000000001
 31
0.0
  0
LINE
  5
160
330
6E
100
AcDbEntity
  8
1
  6
Continuous
 62
     7
100
AcDbLine
 10
196.0
 20
21.50000000000001
 30
0.0
 11
191.0
 21
22.30000000000001
 31
0.0
  0
LINE
  5
161
330
6E
100
AcDbEntity
  8
1
  6
Continuous
 62
     7
100
AcDbLine
 10
196.0
 20
25.50000000000001
 30
0.0
 11
196.0
 21
21.50000000000001
 31
0.0
  0
LINE
  5
162
330
6E
100
AcDbEntity
  8
1
  6
Continuous
 62
     7
100
AcDbLine
 10
191.0
 20
24.70000000000001
 30
0.0
 11
196.0
 21
25.50000000000001
 31
0.0
  0
LINE
  5
163
330
6E
100
AcDbEntity
  8
1
  6
Continuous
 62
     7
100
AcDbLine
 10
191.0
 20
24.70000000000001
 30
0.0
 11
191.0
 21
22.30000000000001
 31
0.0
  0
LINE
  5
164
330
6E
100
AcDbEntity
  8
1
  6
Continuous
 62
     2
100
AcDbLine
 10
33.0
 20
27.0
 30
0.0
 11
33.0
 21
10.0
 31
0.0
  0
LINE
  5
165
330
6E
100
AcDbEntity
  8
1
  6
Continuous
 62
     2
100
AcDbLine
 10
25.0
 20
18.50000000000001
 30
0.0
 11
81.0
 21
18.50000000000001
 31
0.0
  0
LINE
  5
166
330
6E
100
AcDbEntity
  8
1
  6
Continuous
 62
     7
100
AcDbLine
 10
200.0
 20
287.0000000000003
 30
0.0
 11
105.0
 21
287.0000000000003
 31
0.0
  0
LINE
  5
167
330
6E
100
AcDbEntity
  8
1
  6
Continuous
 62
     7
100
AcDbLine
 10
200.0
 20
10.0
 30
0.0
 11
200.0
 21
148.5
 31
0.0
  0
LINE
  5
168
330
6E
100
AcDbEntity
  8
1
  6
Continuous
 62
     7
100
AcDbLine
 10
25.0
 20
10.0
 30
0.0
 11
105.0
 21
10.0
 31
0.0
  0
LINE
  5
169
330
6E
100
AcDbEntity
  8
1
  6
PHANTOM
 62
     4
100
AcDbLine
 10
0.0
 20
297.0
 30
0.0
 11
0.0
 21
0.0
 31
0.0
  0
LINE
  5
16A
330
6E
100
AcDbEntity
  8
1
  6
PHANTOM
 62
     4
100
AcDbLine
 10
210.0
 20
297.0
 30
0.0
 11
0.0
 21
297.0
 31
0.0
  0
LINE
  5
16B
330
6E
100
AcDbEntity
  8
1
  6
PHANTOM
 62
     4
100
AcDbLine
 10
210.0
 20
0.0
 30
0.0
 11
210.0
 21
297.0
 31
0.0
  0
LINE
  5
16C
330
6E
100
AcDbEntity
  8
1
  6
PHANTOM
 62
     4
100
AcDbLine
 10
0.0
 20
0.0
 30
0.0
 11
210.0
 21
0.0
 31
0.0
  0
LINE
  5
16D
330
6E
100
AcDbEntity
  8
1
  6
Continuous
 62
     7
100
AcDbLine
 10
25.0
 20
41.0
 30
0.0
 11
200.0
 21
41.0
 31
0.0
  0
LINE
  5
16E
330
6E
100
AcDbEntity
  8
1
  6
Continuous
 62
     7
100
AcDbLine
 10
200.0
 20
27.00000000000001
 30
0.0
 11
25.0
 21
27.00000000000001
 31
0.0
  0
LINE
  5
16F
330
6E
100
AcDbEntity
  8
1
  6
Continuous
 62
     2
100
AcDbLine
 10
33.0
 20
41.00000000000001
 30
0.0
 11
33.0
 21
27.0
 31
0.0
  0
LINE
  5
170
330
6E
100
AcDbEntity
  8
1
  6
Continuous
 62
     2
100
AcDbLine
 10
55.0
 20
287.0000000000003
 30
0.0
 11
55.0
 21
277.0000000000003
 31
0.0
  0
LINE
  5
171
330
6E
100
AcDbEntity
  8
1
  6
Continuous
 62
     2
100
AcDbLine
 10
40.0
 20
287.0000000000003
 30
0.0
 11
40.0
 21
277.0000000000003
 31
0.0
  0
LINE
  5
172
330
6E
100
AcDbEntity
  8
1
  6
Continuous
 62
     7
100
AcDbLine
 10
25.0
 20
10.0
 30
0.0
 11
25.0
 21
148.5
 31
0.0
  0
LINE
  5
173
330
6E
100
AcDbEntity
  8
1
  6
Continuous
 62
     2
100
AcDbLine
 10
55.0
 20
277.0000000000003
 30
0.0
 11
25.0
 21
277.0000000000003
 31
0.0
  0
LINE
  5
174
330
6E
100
AcDbEntity
  8
1
  6
Continuous
 62
     2
100
AcDbLine
 10
166.0
 20
27.00000000000001
 30
0.0
 11
166.0
 21
10.0
 31
0.0
  0
LINE
  5
175
330
6E
100
AcDbEntity
  8
1
  6
Continuous
 62
     2
100
AcDbLine
 10
132.0
 20
27.00000000000001
 30
0.0
 11
132.0
 21
9.99999999999999
 31
0.0
  0
LINE
  5
176
330
6E
100
AcDbEntity
  8
1
  6
Continuous
 62
     2
100
AcDbLine
 10
149.0
 20
27.00000000000001
 30
0.0
 11
149.0
 21
10.0
 31
0.0
  0
LINE
  5
177
330
6E
100
AcDbEntity
  8
1
  6
Continuous
 62
     2
100
AcDbLine
 10
115.0
 20
27.00000000000001
 30
0.0
 11
115.0
 21
9.99999999999999
 31
0.0
  0
LINE
  5
178
330
6E
100
AcDbEntity
  8
1
  6
Continuous
 62
     2
100
AcDbLine
 10
98.0
 20
27.00000000000001
 30
0.0
 11
98.0
 21
9.99999999999999
 31
0.0
  0
LINE
  5
179
330
6E
100
AcDbEntity
  8
1
  6
Continuous
 62
     2
100
AcDbLine
 10
166.0
 20
20.00000000000001
 30
0.0
 11
200.0
 21
20.00000000000001
 31
0.0
  0
LINE
  5
17A
330
6E
100
AcDbEntity
  8
1
  6
Continuous
 62
     2
100
AcDbLine
 10
105.0
 20
287.0000000000003
 30
0.0
 11
105.0
 21
292.0000000000003
 31
0.0
  0
LINE
  5
17B
330
6E
100
AcDbEntity
  8
1
  6
Continuous
 62
     7
100
AcDbLine
 10
105.0
 20
287.0000000000003
 30
0.0
 11
25.0
 21
287.0000000000003
 31
0.0
  0
LINE
  5
17C
330
6E
100
AcDbEntity
  8
1
  6
Continuous
 62
     2
100
AcDbLine
 10
25.0
 20
148.5
 30
0.0
 11
20.0
 21
148.5
 31
0.0
  0
LINE
  5
17D
330
6E
100
AcDbEntity
  8
1
  6
Continuous
 62
     7
100
AcDbLine
 10
25.0
 20
148.5
 30
0.0
 11
25.0
 21
287.0000000000003
 31
0.0
  0
LINE
  5
17E
330
6E
100
AcDbEntity
  8
1
  6
Continuous
 62
     2
100
AcDbLine
 10
200.0
 20
148.5
 30
0.0
 11
205.0
 21
148.5
 31
0.0
  0
LINE
  5
17F
330
6E
100
AcDbEntity
  8
1
  6
Continuous
 62
     7
100
AcDbLine
 10
200.0
 20
148.5
 30
0.0
 11
200.0
 21
287.0000000000003
 31
0.0
  0
LINE
  5
180
330
6E
100
AcDbEntity
  8
1
  6
Continuous
 62
     2
100
AcDbLine
 10
105.0
 20
10.0
 30
0.0
 11
105.0
 21
5.0
 31
0.0
  0
LINE
  5
181
330
6E
100
AcDbEntity
  8
1
  6
Continuous
 62
     7
100
AcDbLine
 10
105.0
 20
10.0
 30
0.0
 11
200.0
 21
10.0
 31
0.0
  0
CIRCLE
  5
182
330
6E
100
AcDbEntity
  8
1
  6
DOT_CENTER
 62
     7
100
AcDbCircle
 10
89.5
 20
18.0
 30
0.0
 40
0.1000000000000227
  0
CIRCLE
  5
183
330
6E
100
AcDbEntity
  8
1
  6
DOT_CENTER
 62
     7
100
AcDbCircle
 10
89.5
 20
16.0
 30
0.0
 40
0.1000000000000227
  0
CIRCLE
  5
184
330
6E
100
AcDbEntity
  8
1
  6
Continuous
 62
     7
100
AcDbCircle
 10
187.0
 20
23.50000000000001
 30
0.0
 40
2.0
  0
CIRCLE
  5
185
330
6E
100
AcDbEntity
  8
1
  6
Continuous
 62
     7
100
AcDbCircle
 10
187.0
 20
23.50000000000001
 30
0.0
 40
1.200000000000102
  0
CIRCLE
  5
186
330
6E
100
AcDbEntity
  8
1
  6
Continuous
 62
     7
100
AcDbCircle
 10
154.5
 20
12.5
 30
0.0
 40
0.3000000000000114
  0
CIRCLE
  5
187
330
6E
100
AcDbEntity
  8
1
  6
Continuous
 62
     7
100
AcDbCircle
 10
160.5
 20
12.5
 30
0.0
 40
0.3000000000000114
  0
CIRCLE
  5
188
330
6E
100
AcDbEntity
  8
1
  6
Continuous
 62
     7
100
AcDbCircle
 10
143.5
 20
12.5
 30
0.0
 40
0.3000000000000114
  0
CIRCLE
  5
189
330
6E
100
AcDbEntity
  8
1
  6
Continuous
 62
     7
100
AcDbCircle
 10
137.5
 20
12.5
 30
0.0
 40
0.3000000000000114
  0
CIRCLE
  5
18A
330
6E
100
AcDbEntity
  8
1
  6
Continuous
 62
     7
100
AcDbCircle
 10
126.5
 20
12.5
 30
0.0
 40
0.2999999999999972
  0
CIRCLE
  5
18B
330
6E
100
AcDbEntity
  8
1
  6
Continuous
 62
     7
100
AcDbCircle
 10
120.5
 20
12.5
 30
0.0
 40
0.2999999999999972
  0
CIRCLE
  5
18C
330
6E
100
AcDbEntity
  8
1
  6
Continuous
 62
     7
100
AcDbCircle
 10
109.5
 20
12.5
 30
0.0
 40
0.2999999999999972
  0
CIRCLE
  5
18D
330
6E
100
AcDbEntity
  8
1
  6
Continuous
 62
     7
100
AcDbCircle
 10
103.5
 20
12.5
 30
0.0
 40
0.2999999999999972
  0
MTEXT
  5
18E
330
6E
100
AcDbEntity
  8
1
 62
   250
100
AcDbMText
 10
25.0
 20
5.0
 30
0.0
 40
3.5
 41
0.0
 71
     4
 72
     1
  1
備考欄の文字列 原点位置=4
  7
CONVERTER_11
 73
     1
 44
0.54545454545455
  0
MTEXT
  5
18F
330
6E
100
AcDbEntity
  8
1
 62
     2
100
AcDbMText
 10
89.5
 20
24.00000000000001
 30
0.0
 40
3.5
 41
0.0
 71
     5
 72
     1
  1
尺度
  7
CONVERTER_11
 73
     1
 44
0.54545454545455
  0
MTEXT
  5
190
330
6E
100
AcDbEntity
  8
1
 62
     2
100
AcDbMText
 10
135.5
 20
25.00000000000001
 30
0.0
 40
3.0
 41
0.0
 71
     5
 72
     1
  1
製図
  7
CONVERTER_11
 73
     1
 44
0.59090909090909
  0
MTEXT
  5
191
330
6E
100
AcDbEntity
  8
1
 62
     2
100
AcDbMText
 10
152.5
 20
25.00000000000001
 30
0.0
 40
3.0
 41
0.0
 71
     5
 72
     1
  1
設計
  7
CONVERTER_11
 73
     1
 44
0.59090909090909
  0
MTEXT
  5
192
330
6E
100
AcDbEntity
  8
1
 62
     2
100
AcDbMText
 10
118.5
 20
25.00000000000001
 30
0.0
 40
3.0
 41
0.0
 71
     5
 72
     1
  1
検図
  7
CONVERTER_11
 73
     1
 44
0.59090909090909
  0
MTEXT
  5
193
330
6E
100
AcDbEntity
  8
1
 62
     2
100
AcDbMText
 10
175.0
 20
23.50000000000001
 30
0.0
 40
3.5
 41
0.0
 71
     5
 72
     1
  1
第三角法
  7
CONVERTER_11
 73
     1
 44
0.54545454545455
  0
MTEXT
  5
194
330
6E
100
AcDbEntity
  8
1
 62
     2
100
AcDbMText
 10
101.5
 20
25.00000000000001
 30
0.0
 40
3.0
 41
0.0
 71
     5
 72
     1
  1
承認
  7
CONVERTER_11
 73
     1
 44
0.59090909090909
  0
MTEXT
  5
195
330
6E
100
AcDbEntity
  8
1
 62
     2
100
AcDbMText
 10
29.0
 20
14.25
 30
0.0
 40
3.5
 41
0.0
 71
     5
 72
     1
  1
品番
  7
CONVERTER_11
 73
     1
 44
0.72727272727273
  0
MTEXT
  5
196
330
6E
100
AcDbEntity
  8
1
 62
     2
100
AcDbMText
 10
29.0
 20
22.75
 30
0.0
 40
3.5
 41
0.0
 71
     5
 72
     1
  1
品名
  7
CONVERTER_11
 73
     1
 44
0.72727272727273
  0
MTEXT
  5
197
330
6E
100
AcDbEntity
  8
1
 62
     2
100
AcDbMText
 10
29.0
 20
34.00000000000001
 30
0.0
 40
3.5
 41
0.0
 71
     5
 72
     1
  1
備考
  7
CONVERTER_11
 73
     1
 44
0.45454545454545
  0
MTEXT
  5
198
330
6E
100
AcDbEntity
  8
1
 62
     2
100
AcDbMText
 10
32.5
 20
282.0000000000003
 30
0.0
 40
5.0
 41
0.0
 71
     5
 72
     1
  1
図番
  7
CONVERTER_11
 73
     1
 44
0.45454545454545
  0
MTEXT
  5
199
330
6E
100
AcDbEntity
  8
1
 62
     7
100
AcDbMText
 10
171.5
 20
15.0
 30
0.0
 40
2.5
 41
0.0
 71
     5
 72
     1
  1
株式会社
  7
CONVERTER_11
 73
     1
 44
1.0
  0
MTEXT
  5
19A
330
6E
100
AcDbEntity
  8
1
 62
     7
100
AcDbMText
 10
188.5
 20
15.0
 30
0.0
 40
3.0
 41
0.0
 71
     5
 72
     1
  1
三栄水栓製作所
  7
CONVERTER_11
 73
     1
 44
1.0
  0
ENDBLK
  5
70
330
6E
100
AcDbEntity
  8
0
100
AcDbBlockEnd
  0
BLOCK
  5
1B0
330
1A9
100
AcDbEntity
  8
0
100
AcDbBlockBegin
  2
*D14
 70
     1
 10
0.0
 20
0.0
 30
0.0
  3
*D14
  1

  0
LINE
  5
1AA
330
1A9
100
AcDbEntity
  8
1
  6
Continuous
 62
     2
100
AcDbLine
 10
106.5363133722304
 20
666.4139786258766
 30
0.0
 11
319.5363133722286
 21
666.4139786258766
 31
0.0
  0
LINE
  5
1AB
330
1A9
100
AcDbEntity
  8
1
  6
Continuous
 62
     2
100
AcDbLine
 10
319.5363133722286
 20
622.4139786258766
 30
0.0
 11
319.5363133722286
 21
669.4139786258766
 31
0.0
  0
LINE
  5
1AC
330
1A9
100
AcDbEntity
  8
1
  6
Continuous
 62
     2
100
AcDbLine
 10
106.5363133722304
 20
622.4139786258766
 30
0.0
 11
106.5363133722304
 21
669.4139786258766
 31
0.0
  0
SOLID
  5
1AD
330
1A9
100
AcDbEntity
  8
1
 62
     2
100
AcDbTrace
 10
117.0363133722304
 20
667.7963298505442
 30
0.0
 11
117.0363133722304
 21
665.0316274012089
 31
0.0
 12
106.5363133722304
 22
666.4139786258766
 32
0.0
 13
106.5363133722304
 23
666.4139786258766
 33
0.0
  0
SOLID
  5
1AE
330
1A9
100
AcDbEntity
  8
1
 62
     2
100
AcDbTrace
 10
309.0363133722286
 20
665.0316274012089
 30
0.0
 11
309.0363133722286
 21
667.7963298505442
 31
0.0
 12
319.5363133722286
 22
666.4139786258766
 32
0.0
 13
319.5363133722286
 23
666.4139786258766
 33
0.0
  0
MTEXT
  5
1AF
330
1A9
100
AcDbEntity
  8
1
 62
     7
100
AcDbMText
 10
202.0113133722304
 20
669.4139786258766
 30
0.0
 40
10.5
 41
0.0
 71
     7
 72
     1
  1
213
  7
CONVERTER_12
 11
0.9999999999970619
 21
2.424068405545306E-6
 31
0.0
 73
     1
 44
0.60024009603842
  0
ENDBLK
  5
1B1
330
1A9
100
AcDbEntity
  8
0
100
AcDbBlockEnd
  0
BLOCK
  5
1BB
330
1B4
100
AcDbEntity
  8
0
100
AcDbBlockBegin
  2
*D15
 70
     1
 10
0.0
 20
0.0
 30
0.0
  3
*D15
  1

  0
LINE
  5
1B5
330
1B4
100
AcDbEntity
  8
1
  6
Continuous
 62
     2
100
AcDbLine
 10
384.5363133722302
 20
446.4139786258766
 30
0.0
 11
384.5363133722302
 21
636.4139786258766
 31
0.0
  0
LINE
  5
1B6
330
1B4
100
AcDbEntity
  8
1
  6
Continuous
 62
     2
100
AcDbLine
 10
328.5363133722303
 20
636.4139786258766
 30
0.0
 11
387.5363133722302
 21
636.4139786258766
 31
0.0
  0
LINE
  5
1B7
330
1B4
100
AcDbEntity
  8
1
  6
Continuous
 62
     2
100
AcDbLine
 10
328.5363133722303
 20
446.4139786258766
 30
0.0
 11
387.5363133722302
 21
446.4139786258766
 31
0.0
  0
SOLID
  5
1B8
330
1B4
100
AcDbEntity
  8
1
 62
     2
100
AcDbTrace
 10
383.1539621475625
 20
456.9139786258766
 30
0.0
 11
385.9186645968979
 21
456.9139786258766
 31
0.0
 12
384.5363133722302
 22
446.4139786258766
 32
0.0
 13
384.5363133722302
 23
446.4139786258766
 33
0.0
  0
SOLID
  5
1B9
330
1B4
100
AcDbEntity
  8
1
 62
     2
100
AcDbTrace
 10
385.9186645968979
 20
625.9139786258766
 30
0.0
 11
383.1539621475625
 21
625.9139786258766
 31
0.0
 12
384.5363133722302
 22
636.4139786258766
 32
0.0
 13
384.5363133722302
 23
636.4139786258766
 33
0.0
  0
MTEXT
  5
1BA
330
1B4
100
AcDbEntity
  8
1
 62
     7
100
AcDbMText
 10
381.5363133722302
 20
530.3889786258767
 30
0.0
 40
10.5
 41
0.0
 71
     7
 72
     1
  1
190
  7
CONVERTER_12
 11
0.0
 21
1.0
 31
0.0
 73
     1
 44
0.60024009603842
  0
ENDBLK
  5
1BC
330
1B4
100
AcDbEntity
  8
0
100
AcDbBlockEnd
  0
BLOCK
  5
1C6
330
1BF
100
AcDbEntity
  8
0
100
AcDbBlockBegin
  2
*D16
 70
     1
 10
0.0
 20
0.0
 30
0.0
  3
*D16
  1

  0
LINE
  5
1C0
330
1BF
100
AcDbEntity
  8
1
  6
Continuous
 62
     2
100
AcDbLine
 10
95.53631337223041
 20
690.4139786258766
 30
0.0
 11
330.5363133722303
 21
690.4139786258766
 31
0.0
  0
LINE
  5
1C1
330
1BF
100
AcDbEntity
  8
1
  6
Continuous
 62
     2
100
AcDbLine
 10
330.5363133722303
 20
634.4139786258766
 30
0.0
 11
330.5363133722303
 21
693.4139786258766
 31
0.0
  0
LINE
  5
1C2
330
1BF
100
AcDbEntity
  8
1
  6
Continuous
 62
     2
100
AcDbLine
 10
95.53631337223041
 20
634.4139786258766
 30
0.0
 11
95.53631337223041
 21
693.4139786258766
 31
0.0
  0
SOLID
  5
1C3
330
1BF
100
AcDbEntity
  8
1
 62
     2
100
AcDbTrace
 10
106.0363133722304
 20
691.7963298505442
 30
0.0
 11
106.0363133722304
 21
689.0316274012089
 31
0.0
 12
95.53631337223041
 22
690.4139786258766
 32
0.0
 13
95.53631337223041
 23
690.4139786258766
 33
0.0
  0
SOLID
  5
1C4
330
1BF
100
AcDbEntity
  8
1
 62
     2
100
AcDbTrace
 10
320.0363133722303
 20
689.0316274012089
 30
0.0
 11
320.0363133722303
 21
691.7963298505442
 31
0.0
 12
330.5363133722303
 22
690.4139786258766
 32
0.0
 13
330.5363133722303
 23
690.4139786258766
 33
0.0
  0
MTEXT
  5
1C5
330
1BF
100
AcDbEntity
  8
1
 62
     7
100
AcDbMText
 10
200.4363133722304
 20
693.4139786258766
 30
0.0
 40
10.5
 41
0.0
 71
     7
 72
     1
  1
235
  7
CONVERTER_12
 11
0.9999999999970619
 21
2.424068405545306E-6
 31
0.0
 73
     1
 44
0.60024009603842
  0
ENDBLK
  5
1C7
330
1BF
100
AcDbEntity
  8
0
100
AcDbBlockEnd
  0
BLOCK
  5
1D1
330
1CA
100
AcDbEntity
  8
0
100
AcDbBlockBegin
  2
*D17
 70
     1
 10
0.0
 20
0.0
 30
0.0
  3
*D17
  1

  0
LINE
  5
1CB
330
1CA
100
AcDbEntity
  8
1
  6
Continuous
 62
     2
100
AcDbLine
 10
360.0894825615422
 20
378.0689733408936
 30
0.0
 11
360.0894825615422
 21
283.0689733408939
 31
0.0
  0
LINE
  5
1CC
330
1CA
100
AcDbEntity
  8
1
  6
Continuous
 62
     2
100
AcDbLine
 10
394.0894825615429
 20
283.0689733408939
 30
0.0
 11
357.0894825615422
 21
283.0689733408939
 31
0.0
  0
LINE
  5
1CD
330
1CA
100
AcDbEntity
  8
1
  6
Continuous
 62
     2
100
AcDbLine
 10
392.0894825615428
 20
378.0689733408936
 30
0.0
 11
357.0894825615422
 21
378.0689733408936
 31
0.0
  0
SOLID
  5
1CE
330
1CA
100
AcDbEntity
  8
1
 62
     2
100
AcDbTrace
 10
361.4718337862099
 20
367.5689733408936
 30
0.0
 11
358.7071313368745
 21
367.5689733408936
 31
0.0
 12
360.0894825615422
 22
378.0689733408936
 32
0.0
 13
360.0894825615422
 23
378.0689733408936
 33
0.0
  0
SOLID
  5
1CF
330
1CA
100
AcDbEntity
  8
1
 62
     2
100
AcDbTrace
 10
358.7071313368745
 20
293.5689733408939
 30
0.0
 11
361.4718337862099
 21
293.5689733408939
 31
0.0
 12
360.0894825615422
 22
283.0689733408939
 32
0.0
 13
360.0894825615422
 23
283.0689733408939
 33
0.0
  0
MTEXT
  5
1D0
330
1CA
100
AcDbEntity
  8
1
 62
     7
100
AcDbMText
 10
357.0894825615422
 20
322.6939733408937
 30
0.0
 40
10.5
 41
0.0
 71
     7
 72
     1
  1
95
  7
CONVERTER_12
 11
0.0
 21
1.0
 31
0.0
 73
     1
 44
0.60024009603842
  0
ENDBLK
  5
1D2
330
1CA
100
AcDbEntity
  8
0
100
AcDbBlockEnd
  0
BLOCK
  5
1DC
330
1D5
100
AcDbEntity
  8
0
100
AcDbBlockBegin
  2
*D18
 70
     1
 10
0.0
 20
0.0
 30
0.0
  3
*D18
  1

  0
LINE
  5
1D6
330
1D5
100
AcDbEntity
  8
1
  6
Continuous
 62
     2
100
AcDbLine
 10
360.5363133722302
 20
624.4139786258766
 30
0.0
 11
360.5363133722302
 21
457.4139786258766
 31
0.0
  0
LINE
  5
1D7
330
1D5
100
AcDbEntity
  8
1
  6
Continuous
 62
     2
100
AcDbLine
 10
317.5363133722286
 20
624.4139786258766
 30
0.0
 11
363.5363133722302
 21
624.4139786258766
 31
0.0
  0
LINE
  5
1D8
330
1D5
100
AcDbEntity
  8
1
  6
Continuous
 62
     2
100
AcDbLine
 10
317.5363133722286
 20
457.4139786258766
 30
0.0
 11
363.5363133722302
 21
457.4139786258766
 31
0.0
  0
SOLID
  5
1D9
330
1D5
100
AcDbEntity
  8
1
 62
     2
100
AcDbTrace
 10
361.9186645968979
 20
613.9139786258766
 30
0.0
 11
359.1539621475625
 21
613.9139786258766
 31
0.0
 12
360.5363133722302
 22
624.4139786258766
 32
0.0
 13
360.5363133722302
 23
624.4139786258766
 33
0.0
  0
SOLID
  5
1DA
330
1D5
100
AcDbEntity
  8
1
 62
     2
100
AcDbTrace
 10
359.1539621475625
 20
467.9139786258766
 30
0.0
 11
361.9186645968979
 21
467.9139786258766
 31
0.0
 12
360.5363133722302
 22
457.4139786258766
 32
0.0
 13
360.5363133722302
 23
457.4139786258766
 33
0.0
  0
MTEXT
  5
1DB
330
1D5
100
AcDbEntity
  8
1
 62
     7
100
AcDbMText
 10
357.5363133722302
 20
530.3889786258767
 30
0.0
 40
10.5
 41
0.0
 71
     7
 72
     1
  1
168
  7
CONVERTER_12
 11
0.0
 21
1.0
 31
0.0
 73
     1
 44
0.60024009603842
  0
ENDBLK
  5
1DD
330
1D5
100
AcDbEntity
  8
0
100
AcDbBlockEnd
  0
ENDSEC
  0
SECTION
  2
ENTITIES
  0
INSERT
  5
71
330
1F
100
AcDbEntity
  8
1
100
AcDbBlockReference
  2
R81-6-6
 10
105.5363133722304
 20
456.4139786258766
 30
0.0
  0
INSERT
  5
72
330
1F
100
AcDbEntity
  8
1
100
AcDbBlockReference
  2
R81-6-2
 10
106.0363133722302
 20
333.0689733408936
 30
0.0
  0
INSERT
  5
73
330
1F
100
AcDbEntity
  8
1
100
AcDbBlockReference
  2
R81-6-1__1
 10
95.53631337223038
 20
421.5689733408936
 30
0.0
  0
INSERT
  5
74
330
1F
100
AcDbEntity
  8
1
100
AcDbBlockReference
  2
R81-6-1__2
 10
95.53631337223055
 20
397.0689733408936
 30
0.0
  0
INSERT
  5
75
330
1F
100
AcDbEntity
  8
1
100
AcDbBlockReference
  2
R81-6-3
 10
95.52431337223038
 20
313.0689733408936
 30
0.0
  0
INSERT
  5
76
330
1F
100
AcDbEntity
  8
1
100
AcDbBlockReference
  2
R81-6-8__3
 10
315.0363133722302
 20
397.0689733408937
 30
0.0
  0
INSERT
  5
77
330
1F
100
AcDbEntity
  8
1
100
AcDbBlockReference
  2
R81-6-8__4
 10
94.03631337223038
 20
397.5689733408937
 30
0.0
  0
INSERT
  5
78
330
1F
100
AcDbEntity
  8
0
100
AcDbBlockReference
  2
KEY
 10
553.4879331380905
 20
363.7890951120693
 30
0.0
  0
INSERT
  5
79
330
1F
100
AcDbEntity
  8
0
100
AcDbBlockReference
  2
R81-6
 10
774.4288220742014
 20
227.7355814287036
 30
0.0
  0
INSERT
  5
7A
330
1F
100
AcDbEntity
  8
1
100
AcDbBlockReference
  2
開示A4
 10
0.0
 20
0.0
 30
0.0
 41
3.0
 42
3.0
 43
3.0
  0
LINE
  5
19B
330
1F
100
AcDbEntity
  8
1
  6
DASH_CENTER
 62
     2
100
AcDbLine
 10
491.9879331380905
 20
582.0689733408936
 30
0.0
 11
491.9879331380905
 21
520.0689733408936
 31
0.0
  0
LINE
  5
19C
330
1F
100
AcDbEntity
  8
0
  6
Continuous
 62
     2
100
AcDbLine
 10
412.0
 20
491.7006917840074
 30
0.0
 11
578.0
 21
491.7006917840074
 31
0.0
  0
LINE
  5
19D
330
1F
100
AcDbEntity
  8
1
  6
DASH_CENTER
 62
     2
100
AcDbLine
 10
213.0363133722304
 20
645.4139786258766
 30
0.0
 11
213.0363133722304
 21
437.4139786258766
 31
0.0
  0
LINE
  5
19E
330
1F
100
AcDbEntity
  8
1
  6
DASH_CENTER
 62
     2
100
AcDbLine
 10
213.0363133722304
 20
387.0689733408936
 30
0.0
 11
213.0363133722304
 21
274.0689733408936
 31
0.0
  0
LINE
  5
19F
330
1F
100
AcDbEntity
  8
1
  6
DASH_CENTER
 62
     2
100
AcDbLine
 10
485.0894825615428
 20
274.0689733408936
 30
0.0
 11
485.0894825615428
 21
387.0689733408936
 31
0.0
  0
LINE
  5
1A0
330
1F
100
AcDbEntity
  8
1
  6
DASH_CENTER
 62
     2
100
AcDbLine
 10
86.53631337223038
 20
541.4139786258767
 30
0.0
 11
340.0363133722303
 21
541.4139786258767
 31
0.0
  0
LINE
  5
1A1
330
1F
100
AcDbEntity
  8
1
  6
DASH_CENTER
 62
     2
100
AcDbLine
 10
176.7527917242926
 20
499.9139786258766
 30
0.0
 11
249.3198350201681
 21
499.9139786258766
 31
0.0
  0
MTEXT
  5
1A2
330
1F
100
AcDbEntity
  8
1
 62
     7
100
AcDbMText
 10
171.0
 20
74.25000000000003
 30
0.0
 40
10.5
 41
0.0
 71
     5
 72
     1
  1
カギ付散水栓ボックス
  7
CONVERTER_11
 73
     1
 44
0.63636363636364
  0
MTEXT
  5
1A3
330
1F
100
AcDbEntity
  8
1
 62
     7
100
AcDbMText
 10
171.0
 20
62.25000000000003
 30
0.0
 40
10.5
 41
0.0
 71
     5
 72
     1
  1
(床面用)
  7
CONVERTER_11
 73
     1
 44
0.63636363636364
  0
MTEXT
  5
1A5
330
1F
100
AcDbEntity
  8
1
 62
     7
100
AcDbMText
 10
281.25
 20
51.0
 30
0.0
 40
10.5
 41
0.0
 71
     5
 72
     1
  1
3
  7
CONVERTER_12
 73
     1
 44
0.84033613445378
  0
MTEXT
  5
1A6
330
1F
100
AcDbEntity
  8
1
 62
     7
100
AcDbMText
 10
255.75
 20
51.00000000000001
 30
0.0
 40
10.5
 41
0.0
 71
     5
 72
     1
  1
1
  7
CONVERTER_12
 73
     1
 44
0.84033613445378
  0
MTEXT
  5
1A7
330
1F
100
AcDbEntity
  8
1
 62
     7
100
AcDbMText
 10
171.0
 20
42.75000000000001
 30
0.0
 40
10.5
 41
0.0
 71
     5
 72
     1
  1
R81-6
  7
CONVERTER_12
 73
     1
 44
0.84033613445378
  0
MTEXT
  5
1A8
330
1F
100
AcDbEntity
  8
0
 62
     7
100
AcDbMText
 10
493.2682823644368
 20
502.2006917840074
 30
0.0
 40
15.0
 41
0.0
 71
     5
 72
     1
  1
添付品 (カギ： 2ケ)
  7
CONVERTER_11
 73
     1
 44
1.0
  0
DIMENSION
  5
1B3
330
1F
100
AcDbEntity
  8
1
100
AcDbDimension
  2
*D14
 10
106.5363133722304
 20
666.4139786258766
 30
0.0
 11
213.0363133722304
 21
674.6639786258766
 31
0.0
 70
    32
  1
213
 71
     5
 42
-1.0
 53
0.00013888888889
  3
ME10_DIM_10
100
AcDbAlignedDimension
 13
319.5363133722286
 23
622.4139786258766
 33
0.0
 14
106.5363133722304
 24
622.4139786258766
 34
0.0
100
AcDbRotatedDimension
  0
DIMENSION
  5
1BE
330
1F
100
AcDbEntity
  8
1
100
AcDbDimension
  2
*D15
 10
384.5363133722302
 20
446.4139786258766
 30
0.0
 11
376.2863133722302
 21
541.4139786258767
 31
0.0
 70
    32
  1
<>
 71
     5
 42
-1.0
 53
90.0
  3
ME10_DIM_11
100
AcDbAlignedDimension
 13
328.5363133722302
 23
636.4139786258766
 33
0.0
 14
328.5363133722302
 24
446.4139786258766
 34
0.0
 50
90.0
100
AcDbRotatedDimension
  0
DIMENSION
  5
1C9
330
1F
100
AcDbEntity
  8
1
100
AcDbDimension
  2
*D16
 10
95.53631337223041
 20
690.4139786258766
 30
0.0
 11
213.0363133722304
 21
698.6639786258766
 31
0.0
 70
    32
  1
<>
 71
     5
 42
-1.0
 53
0.00013888888889
  3
ME10_DIM_12
100
AcDbAlignedDimension
 13
330.5363133722302
 23
634.4139786258766
 33
0.0
 14
95.53631337223038
 24
634.4139786258766
 34
0.0
100
AcDbRotatedDimension
  0
DIMENSION
  5
1D4
330
1F
100
AcDbEntity
  8
1
100
AcDbDimension
  2
*D17
 10
360.0894825615422
 20
378.0689733408936
 30
0.0
 11
351.8394825615422
 21
330.5689733408937
 31
0.0
 70
    32
  1
<>
 71
     5
 42
-1.0
 53
90.0
  3
ME10_DIM_13
100
AcDbAlignedDimension
 13
394.0894825615429
 23
283.0689733408938
 33
0.0
 14
392.0894825615428
 24
378.0689733408936
 34
0.0
 50
90.0
100
AcDbRotatedDimension
  0
DIMENSION
  5
1DF
330
1F
100
AcDbEntity
  8
1
100
AcDbDimension
  2
*D18
 10
360.5363133722302
 20
624.4139786258766
 30
0.0
 11
352.2863133722302
 21
541.4139786258767
 31
0.0
 70
    33
  1
168
 71
     5
 42
-1.0
 53
90.0
  3
ME10_DIM_14
100
AcDbAlignedDimension
 13
317.5363133722286
 23
457.4139786258766
 33
0.0
 14
317.5363133722286
 24
624.4139786258766
 34
0.0
  0
ENDSEC
  0
SECTION
  2
OBJECTS
  0
DICTIONARY
  5
C
330
0
100
AcDbDictionary
281
     1
  3
ACAD_GROUP
350
D
  3
ACAD_LAYOUT
350
1A
  3
ACAD_MATERIAL
350
3B
  3
ACAD_MLEADERSTYLE
350
1E2
  3
ACAD_MLINESTYLE
350
17
  3
ACAD_PLOTSETTINGS
350
19
  3
ACAD_PLOTSTYLENAME
350
E
  3
ACAD_VISUALSTYLE
350
2A
  3
AcDbVariableDictionary
350
1E0
  0
DICTIONARY
  5
D
102
{ACAD_REACTORS
330
C
102
}
330
C
100
AcDbDictionary
281
     1
  0
DICTIONARY
  5
1A
102
{ACAD_REACTORS
330
C
102
}
330
C
100
AcDbDictionary
281
     1
  3
Layout1
350
1E
  3
Layout2
350
26
  3
Model
350
22
  0
DICTIONARY
  5
3B
102
{ACAD_REACTORS
330
C
102
}
330
C
100
AcDbDictionary
281
     1
  3
ByBlock
350
3D
  3
ByLayer
350
3C
  3
Global
350
3E
  0
DICTIONARY
  5
1E2
102
{ACAD_REACTORS
330
C
102
}
330
C
100
AcDbDictionary
281
     1
  0
DICTIONARY
  5
17
102
{ACAD_REACTORS
330
C
102
}
330
C
100
AcDbDictionary
281
     1
  3
Standard
350
18
  0
DICTIONARY
  5
19
102
{ACAD_REACTORS
330
C
102
}
330
C
100
AcDbDictionary
281
     1
  0
ACDBDICTIONARYWDFLT
  5
E
102
{ACAD_REACTORS
330
C
102
}
330
C
100
AcDbDictionary
281
     1
  3
Normal
350
F
100
AcDbDictionaryWithDefault
340
F
  0
DICTIONARY
  5
2A
102
{ACAD_REACTORS
330
C
102
}
330
C
100
AcDbDictionary
281
     1
  3
2dWireframe
350
2F
  3
3D Hidden
350
31
  3
3dWireframe
350
30
  3
Basic
350
32
  3
Brighten
350
36
  3
ColorChange
350
3A
  3
Conceptual
350
34
  3
Dim
350
35
  3
Facepattern
350
39
  3
Flat
350
2B
  3
FlatWithEdges
350
2C
  3
Gouraud
350
2D
  3
GouraudWithEdges
350
2E
  3
Linepattern
350
38
  3
Realistic
350
33
  3
Thicken
350
37
  0
DICTIONARY
  5
1E0
102
{ACAD_REACTORS
330
C
102
}
330
C
100
AcDbDictionary
281
     1
  3
DIMASSOC
350
1E3
  3
HIDETEXT
350
1E4
  0
LAYOUT
  5
1E
102
{ACAD_REACTORS
330
1A
102
}
330
1A
100
AcDbPlotSettings
  1

  2
none_device
  4

  6

 40
0.0
 41
0.0
 42
0.0
 43
0.0
 44
0.0
 45
0.0
 46
0.0
 47
0.0
 48
0.0
 49
0.0
140
0.0
141
0.0
142
1.0
143
1.0
 70
   688
 72
     0
 73
     0
 74
     5
  7

 75
    16
147
1.0
148
0.0
149
0.0
100
AcDbLayout
  1
Layout1
 70
     1
 71
     1
 10
0.0
 20
0.0
 11
12.0
 21
9.0
 12
0.0
 22
0.0
 32
0.0
 14
1.00000000000000E+20
 24
1.00000000000000E+20
 34
1.00000000000000E+20
 15
-1.00000000000000E+20
 25
-1.00000000000000E+20
 35
-1.00000000000000E+20
146
0.0
 13
0.0
 23
0.0
 33
0.0
 16
1.0
 26
0.0
 36
0.0
 17
0.0
 27
1.0
 37
0.0
 76
     0
330
1B
  0
LAYOUT
  5
26
102
{ACAD_REACTORS
330
1A
102
}
330
1A
100
AcDbPlotSettings
  1

  2
none_device
  4

  6

 40
0.0
 41
0.0
 42
0.0
 43
0.0
 44
0.0
 45
0.0
 46
0.0
 47
0.0
 48
0.0
 49
0.0
140
0.0
141
0.0
142
1.0
143
1.0
 70
   688
 72
     0
 73
     0
 74
     5
  7

 75
    16
147
1.0
148
0.0
149
0.0
100
AcDbLayout
  1
Layout2
 70
     1
 71
     2
 10
0.0
 20
0.0
 11
0.0
 21
0.0
 12
0.0
 22
0.0
 32
0.0
 14
0.0
 24
0.0
 34
0.0
 15
0.0
 25
0.0
 35
0.0
146
0.0
 13
0.0
 23
0.0
 33
0.0
 16
1.0
 26
0.0
 36
0.0
 17
0.0
 27
1.0
 37
0.0
 76
     0
330
23
  0
LAYOUT
  5
22
102
{ACAD_REACTORS
330
1A
102
}
330
1A
100
AcDbPlotSettings
  1

  2
none_device
  4

  6

 40
0.0
 41
0.0
 42
0.0
 43
0.0
 44
0.0
 45
0.0
 46
0.0
 47
0.0
 48
0.0
 49
0.0
140
0.0
141
0.0
142
1.0
143
1.0
 70
  1712
 72
     0
 73
     0
 74
     0
  7

 75
     0
147
1.0
148
0.0
149
0.0
100
AcDbLayout
  1
Model
 70
     1
 71
     0
 10
0.0
 20
0.0
 11
12.0
 21
9.0
 12
0.0
 22
0.0
 32
0.0
 14
0.0
 24
0.0
 34
0.0
 15
630.0
 25
891.0
 35
0.0
146
0.0
 13
0.0
 23
0.0
 33
0.0
 16
1.0
 26
0.0
 36
0.0
 17
0.0
 27
1.0
 37
0.0
 76
     0
330
1F
331
29
  0
MATERIAL
  5
3D
102
{ACAD_REACTORS
330
3B
102
}
102
{ACAD_XDICTIONARY
360
207
102
}
330
3B
100
AcDbMaterial
  1
ByBlock
  0
MATERIAL
  5
3C
102
{ACAD_REACTORS
330
3B
102
}
102
{ACAD_XDICTIONARY
360
205
102
}
330
3B
100
AcDbMaterial
  1
ByLayer
  0
MATERIAL
  5
3E
102
{ACAD_REACTORS
330
3B
102
}
102
{ACAD_XDICTIONARY
360
209
102
}
330
3B
100
AcDbMaterial
  1
Global
  0
MLINESTYLE
  5
18
102
{ACAD_REACTORS
330
17
102
}
330
17
100
AcDbMlineStyle
  2
Standard
 70
     0
  3

 62
   256
 51
90.0
 52
90.0
 71
     2
 49
0.5
 62
   256
  6
BYLAYER
 49
-0.5
 62
   256
  6
BYLAYER
  0
ACDBPLACEHOLDER
  5
F
102
{ACAD_REACTORS
330
E
102
}
330
E
  0
VISUALSTYLE
  5
2F
102
{ACAD_REACTORS
330
2A
102
}
102
{ACAD_XDICTIONARY
360
1ED
102
}
330
2A
100
AcDbVisualStyle
  2
2dWireframe
 70
     4
 71
     0
 72
     2
 73
     0
 90
        0
 40
-0.6
 41
-30.0
 62
     5
 63
     7
 74
     1
 91
        4
 64
     7
 65
   257
 75
     1
175
     1
 42
1.0
 92
        0
 66
   257
 43
1.0
 76
     1
 77
     6
 78
     2
 67
     7
 79
     5
170
     0
171
     0
290
     0
174
     0
 93
        1
 44
0.0
173
     0
291
     0
 45
0.0
1001
ACAD
1000
AcDbSavedByObjectVersion
1070
     0
  0
VISUALSTYLE
  5
31
102
{ACAD_REACTORS
330
2A
102
}
102
{ACAD_XDICTIONARY
360
1F1
102
}
330
2A
100
AcDbVisualStyle
  2
3D Hidden
 70
     6
 71
     1
 72
     2
 73
     2
 90
        0
 40
-0.6
 41
-30.0
 62
     5
 63
     7
 74
     2
 91
        2
 64
     7
 65
   257
 75
     2
175
     1
 42
40.0
 92
        0
 66
   257
 43
1.0
 76
     1
 77
     6
 78
     2
 67
     7
 79
     3
170
     0
171
     0
290
     0
174
     0
 93
        1
 44
0.0
173
     0
291
     0
 45
0.0
1001
ACAD
1000
AcDbSavedByObjectVersion
1070
     0
  0
VISUALSTYLE
  5
30
102
{ACAD_REACTORS
330
2A
102
}
102
{ACAD_XDICTIONARY
360
1EF
102
}
330
2A
100
AcDbVisualStyle
  2
3dWireframe
 70
     5
 71
     0
 72
     2
 73
     0
 90
        0
 40
-0.6
 41
-30.0
 62
     5
 63
     7
 74
     1
 91
        4
 64
     7
 65
   257
 75
     1
175
     1
 42
1.0
 92
        0
 66
   257
 43
1.0
 76
     1
 77
     6
 78
     2
 67
     7
 79
     5
170
     0
171
     0
290
     0
174
     0
 93
        1
 44
0.0
173
     0
291
     0
 45
0.0
1001
ACAD
1000
AcDbSavedByObjectVersion
1070
     0
  0
VISUALSTYLE
  5
32
102
{ACAD_REACTORS
330
2A
102
}
102
{ACAD_XDICTIONARY
360
1F3
102
}
330
2A
100
AcDbVisualStyle
  2
Basic
 70
     7
 71
     1
 72
     0
 73
     1
 90
        0
 40
-0.6
 41
-30.0
 62
     5
 63
     7
 74
     0
 91
        4
 64
     7
 65
   257
 75
     1
175
     1
 42
1.0
 92
        8
 66
     7
 43
1.0
 76
     1
 77
     6
 78
     2
 67
     7
 79
     5
170
     0
171
     0
290
     0
174
     0
 93
        1
 44
0.0
173
     0
291
     1
 45
0.0
1001
ACAD
1000
AcDbSavedByObjectVersion
1070
     0
  0
VISUALSTYLE
  5
36
102
{ACAD_REACTORS
330
2A
102
}
102
{ACAD_XDICTIONARY
360
1FB
102
}
330
2A
100
AcDbVisualStyle
  2
Brighten
 70
    12
 71
     2
 72
     2
 73
     0
 90
        0
 40
-0.6
 41
-30.0
 62
     5
 63
     7
 74
     1
 91
        4
 64
     7
 65
   257
 75
     1
175
     1
 42
1.0
 92
        8
 66
     7
 43
1.0
 76
     1
 77
     6
 78
     2
 67
     7
 79
     5
170
     0
171
     0
290
     0
174
     0
 93
        1
 44
50.0
173
     0
291
     1
 45
0.0
1001
ACAD
1000
AcDbSavedByObjectVersion
1070
     0
  0
VISUALSTYLE
  5
3A
102
{ACAD_REACTORS
330
2A
102
}
102
{ACAD_XDICTIONARY
360
203
102
}
330
2A
100
AcDbVisualStyle
  2
ColorChange
 70
    16
 71
     2
 72
     2
 73
     3
 90
        0
 40
-0.6
 41
-30.0
 62
     5
 63
     8
 74
     1
 91
        4
 64
     7
 65
   257
 75
     1
175
     1
 42
1.0
 92
        8
 66
     8
 43
1.0
 76
     1
 77
     6
 78
     2
 67
     7
 79
     5
170
     0
171
     0
290
     0
174
     0
 93
        1
 44
0.0
173
     0
291
     1
 45
0.0
1001
ACAD
1000
AcDbSavedByObjectVersion
1070
     0
  0
VISUALSTYLE
  5
34
102
{ACAD_REACTORS
330
2A
102
}
102
{ACAD_XDICTIONARY
360
1F7
102
}
330
2A
100
AcDbVisualStyle
  2
Conceptual
 70
     9
 71
     3
 72
     2
 73
     0
 90
        0
 40
-0.6
 41
-30.0
 62
     5
 63
     7
 74
     2
 91
        2
 64
     7
 65
   257
 75
     1
175
     1
 42
40.0
 92
        8
 66
     7
 43
1.0
 76
     1
 77
     6
 78
     2
 67
     7
 79
     3
170
     0
171
     0
290
     0
174
     0
 93
        1
 44
0.0
173
     0
291
     0
 45
0.0
1001
ACAD
1000
AcDbSavedByObjectVersion
1070
     0
  0
VISUALSTYLE
  5
35
102
{ACAD_REACTORS
330
2A
102
}
102
{ACAD_XDICTIONARY
360
1F9
102
}
330
2A
100
AcDbVisualStyle
  2
Dim
 70
    11
 71
     2
 72
     2
 73
     0
 90
        0
 40
-0.6
 41
-30.0
 62
     5
 63
     7
 74
     1
 91
        4
 64
     7
 65
   257
 75
     1
175
     1
 42
1.0
 92
        8
 66
     7
 43
1.0
 76
     1
 77
     6
 78
     2
 67
     7
 79
     5
170
     0
171
     0
290
     0
174
     0
 93
        1
 44
-50.0
173
     0
291
     1
 45
0.0
1001
ACAD
1000
AcDbSavedByObjectVersion
1070
     0
  0
VISUALSTYLE
  5
39
102
{ACAD_REACTORS
330
2A
102
}
102
{ACAD_XDICTIONARY
360
201
102
}
330
2A
100
AcDbVisualStyle
  2
Facepattern
 70
    15
 71
     2
 72
     2
 73
     0
 90
        0
 40
-0.6
 41
-30.0
 62
     5
 63
     7
 74
     1
 91
        4
 64
     7
 65
   257
 75
     1
175
     1
 42
1.0
 92
        8
 66
     7
 43
1.0
 76
     1
 77
     6
 78
     2
 67
     7
 79
     5
170
     0
171
     0
290
     0
174
     0
 93
        1
 44
0.0
173
     0
291
     1
 45
0.0
1001
ACAD
1000
AcDbSavedByObjectVersion
1070
     0
  0
VISUALSTYLE
  5
2B
102
{ACAD_REACTORS
330
2A
102
}
102
{ACAD_XDICTIONARY
360
1E5
102
}
330
2A
100
AcDbVisualStyle
  2
Flat
 70
     0
 71
     2
 72
     1
 73
     1
 90
        2
 40
-0.6
 41
30.0
 62
     5
 63
     7
 74
     0
 91
        4
 64
     7
 65
   257
 75
     1
175
     1
 42
1.0
 92
        8
 66
     7
 43
1.0
 76
     1
 77
     6
 78
     2
 67
     7
 79
     5
170
     0
171
     0
290
     0
174
     0
 93
       13
 44
0.0
173
     0
291
     1
 45
0.0
1001
ACAD
1000
AcDbSavedByObjectVersion
1070
     0
  0
VISUALSTYLE
  5
2C
102
{ACAD_REACTORS
330
2A
102
}
102
{ACAD_XDICTIONARY
360
1E7
102
}
330
2A
100
AcDbVisualStyle
  2
FlatWithEdges
 70
     1
 71
     2
 72
     1
 73
     1
 90
        2
 40
-0.6
 41
30.0
 62
     5
 63
     7
 74
     1
 91
        4
 64
     7
 65
   257
 75
     1
175
     1
 42
1.0
 92
        0
 66
   257
 43
1.0
 76
     1
 77
     6
 78
     2
 67
     7
 79
     5
170
     0
171
     0
290
     0
174
     0
 93
       13
 44
0.0
173
     0
291
     1
 45
0.0
1001
ACAD
1000
AcDbSavedByObjectVersion
1070
     0
  0
VISUALSTYLE
  5
2D
102
{ACAD_REACTORS
330
2A
102
}
102
{ACAD_XDICTIONARY
360
1E9
102
}
330
2A
100
AcDbVisualStyle
  2
Gouraud
 70
     2
 71
     2
 72
     2
 73
     1
 90
        2
 40
-0.6
 41
30.0
 62
     5
 63
     7
 74
     0
 91
        4
 64
     7
 65
   257
 75
     1
175
     1
 42
1.0
 92
        0
 66
     7
 43
1.0
 76
     1
 77
     6
 78
     2
 67
     7
 79
     5
170
     0
171
     0
290
     0
174
     0
 93
       13
 44
0.0
173
     0
291
     1
 45
0.0
1001
ACAD
1000
AcDbSavedByObjectVersion
1070
     0
  0
VISUALSTYLE
  5
2E
102
{ACAD_REACTORS
330
2A
102
}
102
{ACAD_XDICTIONARY
360
1EB
102
}
330
2A
100
AcDbVisualStyle
  2
GouraudWithEdges
 70
     3
 71
     2
 72
     2
 73
     1
 90
        2
 40
-0.6
 41
30.0
 62
     5
 63
     7
 74
     1
 91
        4
 64
     7
 65
   257
 75
     1
175
     1
 42
1.0
 92
        0
 66
   257
 43
1.0
 76
     1
 77
     6
 78
     2
 67
     7
 79
     5
170
     0
171
     0
290
     0
174
     0
 93
       13
 44
0.0
173
     0
291
     1
 45
0.0
1001
ACAD
1000
AcDbSavedByObjectVersion
1070
     0
  0
VISUALSTYLE
  5
38
102
{ACAD_REACTORS
330
2A
102
}
102
{ACAD_XDICTIONARY
360
1FF
102
}
330
2A
100
AcDbVisualStyle
  2
Linepattern
 70
    14
 71
     2
 72
     2
 73
     0
 90
        0
 40
-0.6
 41
-30.0
 62
     5
 63
     7
 74
     1
 91
        4
 64
     7
 65
   257
 75
     7
175
     7
 42
1.0
 92
        8
 66
     7
 43
1.0
 76
     1
 77
     6
 78
     2
 67
     7
 79
     5
170
     0
171
     0
290
     0
174
     0
 93
        1
 44
0.0
173
     0
291
     1
 45
0.0
1001
ACAD
1000
AcDbSavedByObjectVersion
1070
     0
  0
VISUALSTYLE
  5
33
102
{ACAD_REACTORS
330
2A
102
}
102
{ACAD_XDICTIONARY
360
1F5
102
}
330
2A
100
AcDbVisualStyle
  2
Realistic
 70
     8
 71
     2
 72
     2
 73
     0
 90
        0
 40
-0.6
 41
-30.0
 62
     5
 63
     7
 74
     1
 91
        0
 64
     7
 65
   257
 75
     1
175
     1
 42
1.0
 92
        8
 66
     8
 43
1.0
 76
     1
 77
     6
 78
     2
 67
     7
 79
     5
170
     0
171
     0
290
     0
174
     0
 93
       13
 44
0.0
173
     0
291
     0
 45
0.0
1001
ACAD
1000
AcDbSavedByObjectVersion
1070
     0
  0
VISUALSTYLE
  5
37
102
{ACAD_REACTORS
330
2A
102
}
102
{ACAD_XDICTIONARY
360
1FD
102
}
330
2A
100
AcDbVisualStyle
  2
Thicken
 70
    13
 71
     2
 72
     2
 73
     0
 90
        0
 40
-0.6
 41
-30.0
 62
     5
 63
     7
 74
     1
 91
        4
 64
     7
 65
   257
 75
     1
175
     1
 42
1.0
 92
       12
 66
     7
 43
1.0
 76
     1
 77
     6
 78
     2
 67
     7
 79
     5
170
     0
171
     0
290
     0
174
     0
 93
        1
 44
0.0
173
     0
291
     1
 45
0.0
1001
ACAD
1000
AcDbSavedByObjectVersion
1070
     0
  0
DICTIONARYVAR
  5
1E3
102
{ACAD_REACTORS
330
1E0
102
}
330
1E0
100
DictionaryVariables
280
     0
  1
2
  0
DICTIONARYVAR
  5
1E4
102
{ACAD_REACTORS
330
1E0
102
}
330
1E0
100
DictionaryVariables
280
     0
  1
1
  0
DICTIONARY
  5
207
330
3D
100
AcDbDictionary
280
     1
281
     1
  3
ACAD_XREC_ROUNDTRIP
360
208
  0
DICTIONARY
  5
205
330
3C
100
AcDbDictionary
280
     1
281
     1
  3
ACAD_XREC_ROUNDTRIP
360
206
  0
DICTIONARY
  5
209
330
3E
100
AcDbDictionary
280
     1
281
     1
  3
ACAD_XREC_ROUNDTRIP
360
20A
  0
DICTIONARY
  5
1ED
330
2F
100
AcDbDictionary
280
     1
281
     1
  3
ACAD_XREC_ROUNDTRIP
360
1EE
  0
DICTIONARY
  5
1F1
330
31
100
AcDbDictionary
280
     1
281
     1
  3
ACAD_XREC_ROUNDTRIP
360
1F2
  0
DICTIONARY
  5
1EF
330
30
100
AcDbDictionary
280
     1
281
     1
  3
ACAD_XREC_ROUNDTRIP
360
1F0
  0
DICTIONARY
  5
1F3
330
32
100
AcDbDictionary
280
     1
281
     1
  3
ACAD_XREC_ROUNDTRIP
360
1F4
  0
DICTIONARY
  5
1FB
330
36
100
AcDbDictionary
280
     1
281
     1
  3
ACAD_XREC_ROUNDTRIP
360
1FC
  0
DICTIONARY
  5
203
330
3A
100
AcDbDictionary
280
     1
281
     1
  3
ACAD_XREC_ROUNDTRIP
360
204
  0
DICTIONARY
  5
1F7
330
34
100
AcDbDictionary
280
     1
281
     1
  3
ACAD_XREC_ROUNDTRIP
360
1F8
  0
DICTIONARY
  5
1F9
330
35
100
AcDbDictionary
280
     1
281
     1
  3
ACAD_XREC_ROUNDTRIP
360
1FA
  0
DICTIONARY
  5
201
330
39
100
AcDbDictionary
280
     1
281
     1
  3
ACAD_XREC_ROUNDTRIP
360
202
  0
DICTIONARY
  5
1E5
330
2B
100
AcDbDictionary
280
     1
281
     1
  3
ACAD_XREC_ROUNDTRIP
360
1E6
  0
DICTIONARY
  5
1E7
330
2C
100
AcDbDictionary
280
     1
281
     1
  3
ACAD_XREC_ROUNDTRIP
360
1E8
  0
DICTIONARY
  5
1E9
330
2D
100
AcDbDictionary
280
     1
281
     1
  3
ACAD_XREC_ROUNDTRIP
360
1EA
  0
DICTIONARY
  5
1EB
330
2E
100
AcDbDictionary
280
     1
281
     1
  3
ACAD_XREC_ROUNDTRIP
360
1EC
  0
DICTIONARY
  5
1FF
330
38
100
AcDbDictionary
280
     1
281
     1
  3
ACAD_XREC_ROUNDTRIP
360
200
  0
DICTIONARY
  5
1F5
330
33
100
AcDbDictionary
280
     1
281
     1
  3
ACAD_XREC_ROUNDTRIP
360
1F6
  0
DICTIONARY
  5
1FD
330
37
100
AcDbDictionary
280
     1
281
     1
  3
ACAD_XREC_ROUNDTRIP
360
1FE
  0
XRECORD
  5
208
102
{ACAD_REACTORS
330
207
102
}
330
207
100
AcDbXrecord
280
     1
102
MATERIAL
148
0.0
149
0.0
149
0.0
 93
        0
 94
      127
282
     0
 72
     1
 77
     1
171
     1
175
     1
179
     1
273
     0
  0
XRECORD
  5
206
102
{ACAD_REACTORS
330
205
102
}
330
205
100
AcDbXrecord
280
     1
102
MATERIAL
148
0.0
149
0.0
149
0.0
 93
        0
 94
      127
282
     0
 72
     1
 77
     1
171
     1
175
     1
179
     1
273
     0
  0
XRECORD
  5
20A
102
{ACAD_REACTORS
330
209
102
}
330
209
100
AcDbXrecord
280
     1
102
MATERIAL
148
0.0
149
0.0
149
0.0
 93
        0
 94
      127
282
     0
 72
     1
 77
     1
171
     1
175
     1
179
     1
273
     0
  0
XRECORD
  5
1EE
102
{ACAD_REACTORS
330
1ED
102
}
330
1ED
100
AcDbXrecord
280
     1
102
RTVSPropertyOp0
 70
     1
102
RTVSPropertyOp1
 70
     1
102
RTVSPropertyOp2
 70
     1
102
RTVSPropertyOp3
 70
     1
102
RTVSPropertyOp4
 70
     1
102
RTVSPropertyOp5
 70
     1
102
RTVSPropertyOp6
 70
     1
102
RTVSPropertyOp7
 70
     1
102
RTVSPropertyOp8
 70
     1
102
RTVSPropertyOp9
 70
     1
102
RTVSPropertyOp10
 70
     1
102
RTVSPropertyOp11
 70
     1
102
RTVSPropertyOp12
 70
     1
102
RTVSPropertyOp13
 70
     1
102
RTVSPropertyOp14
 70
     1
102
RTVSPropertyOp15
 70
     1
102
RTVSPropertyOp16
 70
     1
102
RTVSPropertyOp17
 70
     1
102
RTVSPropertyOp18
 70
     1
102
RTVSPropertyOp19
 70
     1
102
RTVSPropertyOp20
 70
     1
102
RTVSPropertyOp21
 70
     1
102
RTVSPropertyOp22
 70
     1
102
RTVSPropertyOp23
 70
     1
102
RTVSPropertyOp24
 70
     1
102
RTVSPropertyOp25
 70
     1
102
RTVSPropertyOp26
 70
     1
102
RTVSPropertyOp27
 70
     1
102
RTVSPropertyOp28
 70
     1
102
RTVSPropertyOp29
 70
     1
102
RTVSPropertyOp30
 70
     1
102
RTVSPropertyOp31
 70
     1
102
RTVSPropertyOp32
 70
     1
  0
XRECORD
  5
1F2
102
{ACAD_REACTORS
330
1F1
102
}
330
1F1
100
AcDbXrecord
280
     1
102
RTVSPropertyOp0
 70
     1
102
RTVSPropertyOp1
 70
     1
102
RTVSPropertyOp2
 70
     1
102
RTVSPropertyOp3
 70
     1
102
RTVSPropertyOp4
 70
     1
102
RTVSPropertyOp5
 70
     1
102
RTVSPropertyOp6
 70
     1
102
RTVSPropertyOp7
 70
     1
102
RTVSPropertyOp8
 70
     1
102
RTVSPropertyOp9
 70
     1
102
RTVSPropertyOp10
 70
     1
102
RTVSPropertyOp11
 70
     1
102
RTVSPropertyOp12
 70
     1
102
RTVSPropertyOp13
 70
     1
102
RTVSPropertyOp14
 70
     1
102
RTVSPropertyOp15
 70
     1
102
RTVSPropertyOp16
 70
     1
102
RTVSPropertyOp17
 70
     1
102
RTVSPropertyOp18
 70
     1
102
RTVSPropertyOp19
 70
     1
102
RTVSPropertyOp20
 70
     1
102
RTVSPropertyOp21
 70
     1
102
RTVSPropertyOp22
 70
     1
102
RTVSPropertyOp23
 70
     1
102
RTVSPropertyOp24
 70
     1
102
RTVSPropertyOp25
 70
     1
102
RTVSPropertyOp26
 70
     1
102
RTVSPropertyOp27
 70
     1
102
RTVSPropertyOp28
 70
     1
102
RTVSPropertyOp29
 70
     1
102
RTVSPropertyOp30
 70
     1
102
RTVSPropertyOp31
 70
     1
102
RTVSPropertyOp32
 70
     1
  0
XRECORD
  5
1F0
102
{ACAD_REACTORS
330
1EF
102
}
330
1EF
100
AcDbXrecord
280
     1
102
RTVSPropertyOp0
 70
     1
102
RTVSPropertyOp1
 70
     1
102
RTVSPropertyOp2
 70
     1
102
RTVSPropertyOp3
 70
     1
102
RTVSPropertyOp4
 70
     1
102
RTVSPropertyOp5
 70
     1
102
RTVSPropertyOp6
 70
     1
102
RTVSPropertyOp7
 70
     1
102
RTVSPropertyOp8
 70
     1
102
RTVSPropertyOp9
 70
     1
102
RTVSPropertyOp10
 70
     1
102
RTVSPropertyOp11
 70
     1
102
RTVSPropertyOp12
 70
     1
102
RTVSPropertyOp13
 70
     1
102
RTVSPropertyOp14
 70
     1
102
RTVSPropertyOp15
 70
     1
102
RTVSPropertyOp16
 70
     1
102
RTVSPropertyOp17
 70
     1
102
RTVSPropertyOp18
 70
     1
102
RTVSPropertyOp19
 70
     1
102
RTVSPropertyOp20
 70
     1
102
RTVSPropertyOp21
 70
     1
102
RTVSPropertyOp22
 70
     1
102
RTVSPropertyOp23
 70
     1
102
RTVSPropertyOp24
 70
     1
102
RTVSPropertyOp25
 70
     1
102
RTVSPropertyOp26
 70
     1
102
RTVSPropertyOp27
 70
     1
102
RTVSPropertyOp28
 70
     1
102
RTVSPropertyOp29
 70
     1
102
RTVSPropertyOp30
 70
     1
102
RTVSPropertyOp31
 70
     1
102
RTVSPropertyOp32
 70
     1
  0
XRECORD
  5
1F4
102
{ACAD_REACTORS
330
1F3
102
}
330
1F3
100
AcDbXrecord
280
     1
102
RTVSPropertyOp0
 70
     1
102
RTVSPropertyOp1
 70
     1
102
RTVSPropertyOp2
 70
     1
102
RTVSPropertyOp3
 70
     1
102
RTVSPropertyOp4
 70
     1
102
RTVSPropertyOp5
 70
     1
102
RTVSPropertyOp6
 70
     1
102
RTVSPropertyOp7
 70
     1
102
RTVSPropertyOp8
 70
     1
102
RTVSPropertyOp9
 70
     1
102
RTVSPropertyOp10
 70
     1
102
RTVSPropertyOp11
 70
     1
102
RTVSPropertyOp12
 70
     1
102
RTVSPropertyOp13
 70
     1
102
RTVSPropertyOp14
 70
     1
102
RTVSPropertyOp15
 70
     1
102
RTVSPropertyOp16
 70
     1
102
RTVSPropertyOp17
 70
     1
102
RTVSPropertyOp18
 70
     1
102
RTVSPropertyOp19
 70
     1
102
RTVSPropertyOp20
 70
     1
102
RTVSPropertyOp21
 70
     1
102
RTVSPropertyOp22
 70
     1
102
RTVSPropertyOp23
 70
     1
102
RTVSPropertyOp24
 70
     1
102
RTVSPropertyOp25
 70
     1
102
RTVSPropertyOp26
 70
     1
102
RTVSPropertyOp27
 70
     1
102
RTVSPropertyOp28
 70
     1
102
RTVSPropertyOp29
 70
     1
102
RTVSPropertyOp30
 70
     1
102
RTVSPropertyOp31
 70
     1
102
RTVSPropertyOp32
 70
     1
  0
XRECORD
  5
1FC
102
{ACAD_REACTORS
330
1FB
102
}
330
1FB
100
AcDbXrecord
280
     1
102
RTVSPropertyOp0
 70
     1
102
RTVSPropertyOp1
 70
     1
102
RTVSPropertyOp2
 70
     1
102
RTVSPropertyOp3
 70
     1
102
RTVSPropertyOp4
 70
     1
102
RTVSPropertyOp5
 70
     1
102
RTVSPropertyOp6
 70
     1
102
RTVSPropertyOp7
 70
     1
102
RTVSPropertyOp8
 70
     1
102
RTVSPropertyOp9
 70
     1
102
RTVSPropertyOp10
 70
     1
102
RTVSPropertyOp11
 70
     1
102
RTVSPropertyOp12
 70
     1
102
RTVSPropertyOp13
 70
     1
102
RTVSPropertyOp14
 70
     1
102
RTVSPropertyOp15
 70
     1
102
RTVSPropertyOp16
 70
     1
102
RTVSPropertyOp17
 70
     1
102
RTVSPropertyOp18
 70
     1
102
RTVSPropertyOp19
 70
     1
102
RTVSPropertyOp20
 70
     1
102
RTVSPropertyOp21
 70
     1
102
RTVSPropertyOp22
 70
     1
102
RTVSPropertyOp23
 70
     1
102
RTVSPropertyOp24
 70
     1
102
RTVSPropertyOp25
 70
     1
102
RTVSPropertyOp26
 70
     1
102
RTVSPropertyOp27
 70
     1
102
RTVSPropertyOp28
 70
     1
102
RTVSPropertyOp29
 70
     1
102
RTVSPropertyOp30
 70
     1
102
RTVSPropertyOp31
 70
     1
102
RTVSPropertyOp32
 70
     1
  0
XRECORD
  5
204
102
{ACAD_REACTORS
330
203
102
}
330
203
100
AcDbXrecord
280
     1
102
RTVSPropertyOp0
 70
     1
102
RTVSPropertyOp1
 70
     1
102
RTVSPropertyOp2
 70
     1
102
RTVSPropertyOp3
 70
     1
102
RTVSPropertyOp4
 70
     1
102
RTVSPropertyOp5
 70
     1
102
RTVSPropertyOp6
 70
     1
102
RTVSPropertyOp7
 70
     1
102
RTVSPropertyOp8
 70
     1
102
RTVSPropertyOp9
 70
     1
102
RTVSPropertyOp10
 70
     1
102
RTVSPropertyOp11
 70
     1
102
RTVSPropertyOp12
 70
     1
102
RTVSPropertyOp13
 70
     1
102
RTVSPropertyOp14
 70
     1
102
RTVSPropertyOp15
 70
     1
102
RTVSPropertyOp16
 70
     1
102
RTVSPropertyOp17
 70
     1
102
RTVSPropertyOp18
 70
     1
102
RTVSPropertyOp19
 70
     1
102
RTVSPropertyOp20
 70
     1
102
RTVSPropertyOp21
 70
     1
102
RTVSPropertyOp22
 70
     1
102
RTVSPropertyOp23
 70
     1
102
RTVSPropertyOp24
 70
     1
102
RTVSPropertyOp25
 70
     1
102
RTVSPropertyOp26
 70
     1
102
RTVSPropertyOp27
 70
     1
102
RTVSPropertyOp28
 70
     1
102
RTVSPropertyOp29
 70
     1
102
RTVSPropertyOp30
 70
     1
102
RTVSPropertyOp31
 70
     1
102
RTVSPropertyOp32
 70
     1
  0
XRECORD
  5
1F8
102
{ACAD_REACTORS
330
1F7
102
}
330
1F7
100
AcDbXrecord
280
     1
102
RTVSPropertyOp0
 70
     1
102
RTVSPropertyOp1
 70
     1
102
RTVSPropertyOp2
 70
     1
102
RTVSPropertyOp3
 70
     1
102
RTVSPropertyOp4
 70
     1
102
RTVSPropertyOp5
 70
     1
102
RTVSPropertyOp6
 70
     1
102
RTVSPropertyOp7
 70
     1
102
RTVSPropertyOp8
 70
     1
102
RTVSPropertyOp9
 70
     1
102
RTVSPropertyOp10
 70
     1
102
RTVSPropertyOp11
 70
     1
102
RTVSPropertyOp12
 70
     1
102
RTVSPropertyOp13
 70
     1
102
RTVSPropertyOp14
 70
     1
102
RTVSPropertyOp15
 70
     1
102
RTVSPropertyOp16
 70
     1
102
RTVSPropertyOp17
 70
     1
102
RTVSPropertyOp18
 70
     1
102
RTVSPropertyOp19
 70
     1
102
RTVSPropertyOp20
 70
     1
102
RTVSPropertyOp21
 70
     1
102
RTVSPropertyOp22
 70
     1
102
RTVSPropertyOp23
 70
     1
102
RTVSPropertyOp24
 70
     1
102
RTVSPropertyOp25
 70
     1
102
RTVSPropertyOp26
 70
     1
102
RTVSPropertyOp27
 70
     1
102
RTVSPropertyOp28
 70
     1
102
RTVSPropertyOp29
 70
     1
102
RTVSPropertyOp30
 70
     1
102
RTVSPropertyOp31
 70
     1
102
RTVSPropertyOp32
 70
     1
  0
XRECORD
  5
1FA
102
{ACAD_REACTORS
330
1F9
102
}
330
1F9
100
AcDbXrecord
280
     1
102
RTVSPropertyOp0
 70
     1
102
RTVSPropertyOp1
 70
     1
102
RTVSPropertyOp2
 70
     1
102
RTVSPropertyOp3
 70
     1
102
RTVSPropertyOp4
 70
     1
102
RTVSPropertyOp5
 70
     1
102
RTVSPropertyOp6
 70
     1
102
RTVSPropertyOp7
 70
     1
102
RTVSPropertyOp8
 70
     1
102
RTVSPropertyOp9
 70
     1
102
RTVSPropertyOp10
 70
     1
102
RTVSPropertyOp11
 70
     1
102
RTVSPropertyOp12
 70
     1
102
RTVSPropertyOp13
 70
     1
102
RTVSPropertyOp14
 70
     1
102
RTVSPropertyOp15
 70
     1
102
RTVSPropertyOp16
 70
     1
102
RTVSPropertyOp17
 70
     1
102
RTVSPropertyOp18
 70
     1
102
RTVSPropertyOp19
 70
     1
102
RTVSPropertyOp20
 70
     1
102
RTVSPropertyOp21
 70
     1
102
RTVSPropertyOp22
 70
     1
102
RTVSPropertyOp23
 70
     1
102
RTVSPropertyOp24
 70
     1
102
RTVSPropertyOp25
 70
     1
102
RTVSPropertyOp26
 70
     1
102
RTVSPropertyOp27
 70
     1
102
RTVSPropertyOp28
 70
     1
102
RTVSPropertyOp29
 70
     1
102
RTVSPropertyOp30
 70
     1
102
RTVSPropertyOp31
 70
     1
102
RTVSPropertyOp32
 70
     1
  0
XRECORD
  5
202
102
{ACAD_REACTORS
330
201
102
}
330
201
100
AcDbXrecord
280
     1
102
RTVSPropertyOp0
 70
     1
102
RTVSPropertyOp1
 70
     1
102
RTVSPropertyOp2
 70
     1
102
RTVSPropertyOp3
 70
     1
102
RTVSPropertyOp4
 70
     1
102
RTVSPropertyOp5
 70
     1
102
RTVSPropertyOp6
 70
     1
102
RTVSPropertyOp7
 70
     1
102
RTVSPropertyOp8
 70
     1
102
RTVSPropertyOp9
 70
     1
102
RTVSPropertyOp10
 70
     1
102
RTVSPropertyOp11
 70
     1
102
RTVSPropertyOp12
 70
     1
102
RTVSPropertyOp13
 70
     1
102
RTVSPropertyOp14
 70
     1
102
RTVSPropertyOp15
 70
     1
102
RTVSPropertyOp16
 70
     1
102
RTVSPropertyOp17
 70
     1
102
RTVSPropertyOp18
 70
     1
102
RTVSPropertyOp19
 70
     1
102
RTVSPropertyOp20
 70
     1
102
RTVSPropertyOp21
 70
     1
102
RTVSPropertyOp22
 70
     1
102
RTVSPropertyOp23
 70
     1
102
RTVSPropertyOp24
 70
     1
102
RTVSPropertyOp25
 70
     1
102
RTVSPropertyOp26
 70
     1
102
RTVSPropertyOp27
 70
     1
102
RTVSPropertyOp28
 70
     1
102
RTVSPropertyOp29
 70
     1
102
RTVSPropertyOp30
 70
     1
102
RTVSPropertyOp31
 70
     1
102
RTVSPropertyOp32
 70
     1
  0
XRECORD
  5
1E6
102
{ACAD_REACTORS
330
1E5
102
}
330
1E5
100
AcDbXrecord
280
     1
102
RTVSPropertyOp0
 70
     1
102
RTVSPropertyOp1
 70
     1
102
RTVSPropertyOp2
 70
     1
102
RTVSPropertyOp3
 70
     1
102
RTVSPropertyOp4
 70
     1
102
RTVSPropertyOp5
 70
     1
102
RTVSPropertyOp6
 70
     1
102
RTVSPropertyOp7
 70
     1
102
RTVSPropertyOp8
 70
     1
102
RTVSPropertyOp9
 70
     1
102
RTVSPropertyOp10
 70
     1
102
RTVSPropertyOp11
 70
     1
102
RTVSPropertyOp12
 70
     1
102
RTVSPropertyOp13
 70
     1
102
RTVSPropertyOp14
 70
     1
102
RTVSPropertyOp15
 70
     1
102
RTVSPropertyOp16
 70
     1
102
RTVSPropertyOp17
 70
     1
102
RTVSPropertyOp18
 70
     1
102
RTVSPropertyOp19
 70
     1
102
RTVSPropertyOp20
 70
     1
102
RTVSPropertyOp21
 70
     1
102
RTVSPropertyOp22
 70
     1
102
RTVSPropertyOp23
 70
     1
102
RTVSPropertyOp24
 70
     1
102
RTVSPropertyOp25
 70
     1
102
RTVSPropertyOp26
 70
     1
102
RTVSPropertyOp27
 70
     1
102
RTVSPropertyOp28
 70
     1
102
RTVSPropertyOp29
 70
     1
102
RTVSPropertyOp30
 70
     1
102
RTVSPropertyOp31
 70
     1
102
RTVSPropertyOp32
 70
     1
  0
XRECORD
  5
1E8
102
{ACAD_REACTORS
330
1E7
102
}
330
1E7
100
AcDbXrecord
280
     1
102
RTVSPropertyOp0
 70
     1
102
RTVSPropertyOp1
 70
     1
102
RTVSPropertyOp2
 70
     1
102
RTVSPropertyOp3
 70
     1
102
RTVSPropertyOp4
 70
     1
102
RTVSPropertyOp5
 70
     1
102
RTVSPropertyOp6
 70
     1
102
RTVSPropertyOp7
 70
     1
102
RTVSPropertyOp8
 70
     1
102
RTVSPropertyOp9
 70
     1
102
RTVSPropertyOp10
 70
     1
102
RTVSPropertyOp11
 70
     1
102
RTVSPropertyOp12
 70
     1
102
RTVSPropertyOp13
 70
     1
102
RTVSPropertyOp14
 70
     1
102
RTVSPropertyOp15
 70
     1
102
RTVSPropertyOp16
 70
     1
102
RTVSPropertyOp17
 70
     1
102
RTVSPropertyOp18
 70
     1
102
RTVSPropertyOp19
 70
     1
102
RTVSPropertyOp20
 70
     1
102
RTVSPropertyOp21
 70
     1
102
RTVSPropertyOp22
 70
     1
102
RTVSPropertyOp23
 70
     1
102
RTVSPropertyOp24
 70
     1
102
RTVSPropertyOp25
 70
     1
102
RTVSPropertyOp26
 70
     1
102
RTVSPropertyOp27
 70
     1
102
RTVSPropertyOp28
 70
     1
102
RTVSPropertyOp29
 70
     1
102
RTVSPropertyOp30
 70
     1
102
RTVSPropertyOp31
 70
     1
102
RTVSPropertyOp32
 70
     1
  0
XRECORD
  5
1EA
102
{ACAD_REACTORS
330
1E9
102
}
330
1E9
100
AcDbXrecord
280
     1
102
RTVSPropertyOp0
 70
     1
102
RTVSPropertyOp1
 70
     1
102
RTVSPropertyOp2
 70
     1
102
RTVSPropertyOp3
 70
     1
102
RTVSPropertyOp4
 70
     1
102
RTVSPropertyOp5
 70
     1
102
RTVSPropertyOp6
 70
     1
102
RTVSPropertyOp7
 70
     1
102
RTVSPropertyOp8
 70
     1
102
RTVSPropertyOp9
 70
     1
102
RTVSPropertyOp10
 70
     1
102
RTVSPropertyOp11
 70
     1
102
RTVSPropertyOp12
 70
     1
102
RTVSPropertyOp13
 70
     1
102
RTVSPropertyOp14
 70
     1
102
RTVSPropertyOp15
 70
     1
102
RTVSPropertyOp16
 70
     1
102
RTVSPropertyOp17
 70
     1
102
RTVSPropertyOp18
 70
     1
102
RTVSPropertyOp19
 70
     1
102
RTVSPropertyOp20
 70
     1
102
RTVSPropertyOp21
 70
     1
102
RTVSPropertyOp22
 70
     1
102
RTVSPropertyOp23
 70
     1
102
RTVSPropertyOp24
 70
     1
102
RTVSPropertyOp25
 70
     1
102
RTVSPropertyOp26
 70
     1
102
RTVSPropertyOp27
 70
     1
102
RTVSPropertyOp28
 70
     1
102
RTVSPropertyOp29
 70
     1
102
RTVSPropertyOp30
 70
     1
102
RTVSPropertyOp31
 70
     1
102
RTVSPropertyOp32
 70
     1
  0
XRECORD
  5
1EC
102
{ACAD_REACTORS
330
1EB
102
}
330
1EB
100
AcDbXrecord
280
     1
102
RTVSPropertyOp0
 70
     1
102
RTVSPropertyOp1
 70
     1
102
RTVSPropertyOp2
 70
     1
102
RTVSPropertyOp3
 70
     1
102
RTVSPropertyOp4
 70
     1
102
RTVSPropertyOp5
 70
     1
102
RTVSPropertyOp6
 70
     1
102
RTVSPropertyOp7
 70
     1
102
RTVSPropertyOp8
 70
     1
102
RTVSPropertyOp9
 70
     1
102
RTVSPropertyOp10
 70
     1
102
RTVSPropertyOp11
 70
     1
102
RTVSPropertyOp12
 70
     1
102
RTVSPropertyOp13
 70
     1
102
RTVSPropertyOp14
 70
     1
102
RTVSPropertyOp15
 70
     1
102
RTVSPropertyOp16
 70
     1
102
RTVSPropertyOp17
 70
     1
102
RTVSPropertyOp18
 70
     1
102
RTVSPropertyOp19
 70
     1
102
RTVSPropertyOp20
 70
     1
102
RTVSPropertyOp21
 70
     1
102
RTVSPropertyOp22
 70
     1
102
RTVSPropertyOp23
 70
     1
102
RTVSPropertyOp24
 70
     1
102
RTVSPropertyOp25
 70
     1
102
RTVSPropertyOp26
 70
     1
102
RTVSPropertyOp27
 70
     1
102
RTVSPropertyOp28
 70
     1
102
RTVSPropertyOp29
 70
     1
102
RTVSPropertyOp30
 70
     1
102
RTVSPropertyOp31
 70
     1
102
RTVSPropertyOp32
 70
     1
  0
XRECORD
  5
200
102
{ACAD_REACTORS
330
1FF
102
}
330
1FF
100
AcDbXrecord
280
     1
102
RTVSPropertyOp0
 70
     1
102
RTVSPropertyOp1
 70
     1
102
RTVSPropertyOp2
 70
     1
102
RTVSPropertyOp3
 70
     1
102
RTVSPropertyOp4
 70
     1
102
RTVSPropertyOp5
 70
     1
102
RTVSPropertyOp6
 70
     1
102
RTVSPropertyOp7
 70
     1
102
RTVSPropertyOp8
 70
     1
102
RTVSPropertyOp9
 70
     1
102
RTVSPropertyOp10
 70
     1
102
RTVSPropertyOp11
 70
     1
102
RTVSPropertyOp12
 70
     1
102
RTVSPropertyOp13
 70
     1
102
RTVSPropertyOp14
 70
     1
102
RTVSPropertyOp15
 70
     1
102
RTVSPropertyOp16
 70
     1
102
RTVSPropertyOp17
 70
     1
102
RTVSPropertyOp18
 70
     1
102
RTVSPropertyOp19
 70
     1
102
RTVSPropertyOp20
 70
     1
102
RTVSPropertyOp21
 70
     1
102
RTVSPropertyOp22
 70
     1
102
RTVSPropertyOp23
 70
     1
102
RTVSPropertyOp24
 70
     1
102
RTVSPropertyOp25
 70
     1
102
RTVSPropertyOp26
 70
     1
102
RTVSPropertyOp27
 70
     1
102
RTVSPropertyOp28
 70
     1
102
RTVSPropertyOp29
 70
     1
102
RTVSPropertyOp30
 70
     1
102
RTVSPropertyOp31
 70
     1
102
RTVSPropertyOp32
 70
     1
  0
XRECORD
  5
1F6
102
{ACAD_REACTORS
330
1F5
102
}
330
1F5
100
AcDbXrecord
280
     1
102
RTVSPropertyOp0
 70
     1
102
RTVSPropertyOp1
 70
     1
102
RTVSPropertyOp2
 70
     1
102
RTVSPropertyOp3
 70
     1
102
RTVSPropertyOp4
 70
     1
102
RTVSPropertyOp5
 70
     1
102
RTVSPropertyOp6
 70
     1
102
RTVSPropertyOp7
 70
     1
102
RTVSPropertyOp8
 70
     1
102
RTVSPropertyOp9
 70
     1
102
RTVSPropertyOp10
 70
     1
102
RTVSPropertyOp11
 70
     1
102
RTVSPropertyOp12
 70
     1
102
RTVSPropertyOp13
 70
     1
102
RTVSPropertyOp14
 70
     1
102
RTVSPropertyOp15
 70
     1
102
RTVSPropertyOp16
 70
     1
102
RTVSPropertyOp17
 70
     1
102
RTVSPropertyOp18
 70
     1
102
RTVSPropertyOp19
 70
     1
102
RTVSPropertyOp20
 70
     1
102
RTVSPropertyOp21
 70
     1
102
RTVSPropertyOp22
 70
     1
102
RTVSPropertyOp23
 70
     1
102
RTVSPropertyOp24
 70
     1
102
RTVSPropertyOp25
 70
     1
102
RTVSPropertyOp26
 70
     1
102
RTVSPropertyOp27
 70
     1
102
RTVSPropertyOp28
 70
     1
102
RTVSPropertyOp29
 70
     1
102
RTVSPropertyOp30
 70
     1
102
RTVSPropertyOp31
 70
     1
102
RTVSPropertyOp32
 70
     1
  0
XRECORD
  5
1FE
102
{ACAD_REACTORS
330
1FD
102
}
330
1FD
100
AcDbXrecord
280
     1
102
RTVSPropertyOp0
 70
     1
102
RTVSPropertyOp1
 70
     1
102
RTVSPropertyOp2
 70
     1
102
RTVSPropertyOp3
 70
     1
102
RTVSPropertyOp4
 70
     1
102
RTVSPropertyOp5
 70
     1
102
RTVSPropertyOp6
 70
     1
102
RTVSPropertyOp7
 70
     1
102
RTVSPropertyOp8
 70
     1
102
RTVSPropertyOp9
 70
     1
102
RTVSPropertyOp10
 70
     1
102
RTVSPropertyOp11
 70
     1
102
RTVSPropertyOp12
 70
     1
102
RTVSPropertyOp13
 70
     1
102
RTVSPropertyOp14
 70
     1
102
RTVSPropertyOp15
 70
     1
102
RTVSPropertyOp16
 70
     1
102
RTVSPropertyOp17
 70
     1
102
RTVSPropertyOp18
 70
     1
102
RTVSPropertyOp19
 70
     1
102
RTVSPropertyOp20
 70
     1
102
RTVSPropertyOp21
 70
     1
102
RTVSPropertyOp22
 70
     1
102
RTVSPropertyOp23
 70
     1
102
RTVSPropertyOp24
 70
     1
102
RTVSPropertyOp25
 70
     1
102
RTVSPropertyOp26
 70
     1
102
RTVSPropertyOp27
 70
     1
102
RTVSPropertyOp28
 70
     1
102
RTVSPropertyOp29
 70
     1
102
RTVSPropertyOp30
 70
     1
102
RTVSPropertyOp31
 70
     1
102
RTVSPropertyOp32
 70
     1
  0
ENDSEC
  0
EOF
