  0
SECTION
  2
HEADER
  9
$ACADVER
  1
AC1015
  9
$ACADMAINTVER
 70
     6
  9
$DWGCODEPAGE
  3
ANSI_932
  9
$INSBASE
 10
0.0
 20
0.0
 30
0.0
  9
$EXTMIN
 10
0.0
 20
0.0
 30
0.0
  9
$EXTMAX
 10
840.0
 20
1188.0
 30
0.0
  9
$LIMMIN
 10
0.0
 20
0.0
  9
$LIMMAX
 10
12.0
 20
9.0
  9
$ORTHOMODE
 70
     0
  9
$REGENMODE
 70
     1
  9
$FILLMODE
 70
     1
  9
$QTEXTMODE
 70
     0
  9
$MIRRTEXT
 70
     1
  9
$LTSCALE
 40
1.0
  9
$ATTMODE
 70
     1
  9
$TEXTSIZE
 40
0.2
  9
$TRACEWID
 40
0.05
  9
$TEXTSTYLE
  7
Standard
  9
$CLAYER
  8
0
  9
$CELTYPE
  6
ByLayer
  9
$CECOLOR
 62
   256
  9
$CELTSCALE
 40
1.0
  9
$DISPSILH
 70
     0
  9
$DIMSCALE
 40
1.0
  9
$DIMASZ
 40
0.18
  9
$DIMEXO
 40
0.0625
  9
$DIMDLI
 40
0.38
  9
$DIMRND
 40
0.0
  9
$DIMDLE
 40
0.0
  9
$DIMEXE
 40
0.18
  9
$DIMTP
 40
0.0
  9
$DIMTM
 40
0.0
  9
$DIMTXT
 40
0.18
  9
$DIMCEN
 40
0.09
  9
$DIMTSZ
 40
0.0
  9
$DIMTOL
 70
     0
  9
$DIMLIM
 70
     0
  9
$DIMTIH
 70
     1
  9
$DIMTOH
 70
     1
  9
$DIMSE1
 70
     0
  9
$DIMSE2
 70
     0
  9
$DIMTAD
 70
     0
  9
$DIMZIN
 70
     0
  9
$DIMBLK
  1

  9
$DIMASO
 70
     1
  9
$DIMSHO
 70
     1
  9
$DIMPOST
  1

  9
$DIMAPOST
  1

  9
$DIMALT
 70
     0
  9
$DIMALTD
 70
     2
  9
$DIMALTF
 40
25.4
  9
$DIMLFAC
 40
1.0
  9
$DIMTOFL
 70
     0
  9
$DIMTVP
 40
0.0
  9
$DIMTIX
 70
     0
  9
$DIMSOXD
 70
     0
  9
$DIMSAH
 70
     0
  9
$DIMBLK1
  1

  9
$DIMBLK2
  1

  9
$DIMSTYLE
  2
Standard
  9
$DIMCLRD
 70
     0
  9
$DIMCLRE
 70
     0
  9
$DIMCLRT
 70
     0
  9
$DIMTFAC
 40
1.0
  9
$DIMGAP
 40
0.09
  9
$DIMJUST
 70
     0
  9
$DIMSD1
 70
     0
  9
$DIMSD2
 70
     0
  9
$DIMTOLJ
 70
     1
  9
$DIMTZIN
 70
     0
  9
$DIMALTZ
 70
     0
  9
$DIMALTTZ
 70
     0
  9
$DIMUPT
 70
     0
  9
$DIMDEC
 70
     4
  9
$DIMTDEC
 70
     4
  9
$DIMALTU
 70
     2
  9
$DIMALTTD
 70
     2
  9
$DIMTXSTY
  7
Standard
  9
$DIMAUNIT
 70
     0
  9
$DIMADEC
 70
     0
  9
$DIMALTRND
 40
0.0
  9
$DIMAZIN
 70
     0
  9
$DIMDSEP
 70
    46
  9
$DIMATFIT
 70
     3
  9
$DIMFRAC
 70
     0
  9
$DIMLDRBLK
  1

  9
$DIMLUNIT
 70
     2
  9
$DIMLWD
 70
    -2
  9
$DIMLWE
 70
    -2
  9
$DIMTMOVE
 70
     0
  9
$LUNITS
 70
     2
  9
$LUPREC
 70
     4
  9
$SKETCHINC
 40
0.1
  9
$FILLETRAD
 40
0.5
  9
$AUNITS
 70
     0
  9
$AUPREC
 70
     0
  9
$MENU
  1
.
  9
$ELEVATION
 40
0.0
  9
$PELEVATION
 40
0.0
  9
$THICKNESS
 40
0.0
  9
$LIMCHECK
 70
     0
  9
$CHAMFERA
 40
0.5
  9
$CHAMFERB
 40
0.5
  9
$CHAMFERC
 40
1.0
  9
$CHAMFERD
 40
0.0
  9
$SKPOLY
 70
     0
  9
$TDCREATE
 40
2456500.570290637
  9
$TDUCREATE
 40
2456500.195290637
  9
$TDUPDATE
 40
2456500.570291539
  9
$TDUUPDATE
 40
2456500.195291539
  9
$TDINDWG
 40
0.0000000116
  9
$TDUSRTIMER
 40
0.0000000116
  9
$USRTIMER
 70
     1
  9
$ANGBASE
 50
0.0
  9
$ANGDIR
 70
     0
  9
$PDMODE
 70
     0
  9
$PDSIZE
 40
0.0
  9
$PLINEWID
 40
0.0
  9
$SPLFRAME
 70
     0
  9
$SPLINETYPE
 70
     6
  9
$SPLINESEGS
 70
     8
  9
$HANDSEED
  5
6C5
  9
$SURFTAB1
 70
     6
  9
$SURFTAB2
 70
     6
  9
$SURFTYPE
 70
     6
  9
$SURFU
 70
     6
  9
$SURFV
 70
     6
  9
$UCSBASE
  2

  9
$UCSNAME
  2

  9
$UCSORG
 10
0.0
 20
0.0
 30
0.0
  9
$UCSXDIR
 10
1.0
 20
0.0
 30
0.0
  9
$UCSYDIR
 10
0.0
 20
1.0
 30
0.0
  9
$UCSORTHOREF
  2

  9
$UCSORTHOVIEW
 70
     0
  9
$UCSORGTOP
 10
0.0
 20
0.0
 30
0.0
  9
$UCSORGBOTTOM
 10
0.0
 20
0.0
 30
0.0
  9
$UCSORGLEFT
 10
0.0
 20
0.0
 30
0.0
  9
$UCSORGRIGHT
 10
0.0
 20
0.0
 30
0.0
  9
$UCSORGFRONT
 10
0.0
 20
0.0
 30
0.0
  9
$UCSORGBACK
 10
0.0
 20
0.0
 30
0.0
  9
$PUCSBASE
  2

  9
$PUCSNAME
  2

  9
$PUCSORG
 10
0.0
 20
0.0
 30
0.0
  9
$PUCSXDIR
 10
1.0
 20
0.0
 30
0.0
  9
$PUCSYDIR
 10
0.0
 20
1.0
 30
0.0
  9
$PUCSORTHOREF
  2

  9
$PUCSORTHOVIEW
 70
     0
  9
$PUCSORGTOP
 10
0.0
 20
0.0
 30
0.0
  9
$PUCSORGBOTTOM
 10
0.0
 20
0.0
 30
0.0
  9
$PUCSORGLEFT
 10
0.0
 20
0.0
 30
0.0
  9
$PUCSORGRIGHT
 10
0.0
 20
0.0
 30
0.0
  9
$PUCSORGFRONT
 10
0.0
 20
0.0
 30
0.0
  9
$PUCSORGBACK
 10
0.0
 20
0.0
 30
0.0
  9
$USERI1
 70
     0
  9
$USERI2
 70
     0
  9
$USERI3
 70
     0
  9
$USERI4
 70
     0
  9
$USERI5
 70
     0
  9
$USERR1
 40
18.1
  9
$USERR2
 40
0.0
  9
$USERR3
 40
0.0
  9
$USERR4
 40
0.0
  9
$USERR5
 40
0.0
  9
$WORLDVIEW
 70
     1
  9
$SHADEDGE
 70
     3
  9
$SHADEDIF
 70
    70
  9
$TILEMODE
 70
     1
  9
$MAXACTVP
 70
    64
  9
$PINSBASE
 10
0.0
 20
0.0
 30
0.0
  9
$PLIMCHECK
 70
     0
  9
$PEXTMIN
 10
1.00000000000000E+20
 20
1.00000000000000E+20
 30
1.00000000000000E+20
  9
$PEXTMAX
 10
-1.00000000000000E+20
 20
-1.00000000000000E+20
 30
-1.00000000000000E+20
  9
$PLIMMIN
 10
0.0
 20
0.0
  9
$PLIMMAX
 10
12.0
 20
9.0
  9
$UNITMODE
 70
     0
  9
$VISRETAIN
 70
     1
  9
$PLINEGEN
 70
     0
  9
$PSLTSCALE
 70
     1
  9
$TREEDEPTH
 70
  3020
  9
$CMLSTYLE
  2
Standard
  9
$CMLJUST
 70
     0
  9
$CMLSCALE
 40
1.0
  9
$PROXYGRAPHICS
 70
     1
  9
$MEASUREMENT
 70
     1
  9
$CELWEIGHT
370
    -1
  9
$ENDCAPS
280
     0
  9
$JOINSTYLE
280
     0
  9
$LWDISPLAY
290
     0
  9
$INSUNITS
 70
     4
  9
$HYPERLINKBASE
  1

  9
$STYLESHEET
  1

  9
$XEDIT
290
     1
  9
$CEPSNTYPE
380
     0
  9
$PSTYLEMODE
290
     1
  9
$FINGERPRINTGUID
  2
{37059B98-DA3F-4F8E-BF4C-CC00093CD75C}
  9
$VERSIONGUID
  2
{FAEB1C32-E019-11D5-929B-00C0DF256EC4}
  9
$EXTNAMES
290
     1
  9
$PSVPSCALE
 40
0.0
  9
$OLESTARTUP
290
     0
  0
ENDSEC
  0
SECTION
  2
CLASSES
  0
CLASS
  1
ACDBDICTIONARYWDFLT
  2
AcDbDictionaryWithDefault
  3
ObjectDBX Classes
 90
        0
280
     0
281
     0
  0
CLASS
  1
VISUALSTYLE
  2
AcDbVisualStyle
  3
ObjectDBX Classes
 90
     4095
280
     0
281
     0
  0
CLASS
  1
MATERIAL
  2
AcDbMaterial
  3
ObjectDBX Classes
 90
     1153
280
     0
281
     0
  0
CLASS
  1
DICTIONARYVAR
  2
AcDbDictionaryVar
  3
ObjectDBX Classes
 90
        0
280
     0
281
     0
  0
CLASS
  1
ACDBPLACEHOLDER
  2
AcDbPlaceHolder
  3
ObjectDBX Classes
 90
        0
280
     0
281
     0
  0
CLASS
  1
LAYOUT
  2
AcDbLayout
  3
ObjectDBX Classes
 90
        0
280
     0
281
     0
  0
ENDSEC
  0
SECTION
  2
TABLES
  0
TABLE
  2
VPORT
  5
8
330
0
100
AcDbSymbolTable
 70
     1
  0
VPORT
  5
29
330
8
100
AcDbSymbolTableRecord
100
AcDbViewportTableRecord
  2
*Active
 70
     0
 10
0.0
 20
0.0
 11
1.0
 21
1.0
 12
420.0
 22
594.0
 13
0.0
 23
0.0
 14
0.5
 24
0.5
 15
0.5
 25
0.5
 16
0.0
 26
0.0
 36
1.0
 17
0.0
 27
0.0
 37
0.0
 40
1306.8
 41
1.60267857142857
 42
50.0
 43
0.0
 44
0.0
 50
0.0
 51
0.0
 71
     0
 72
   100
 73
     1
 74
     3
 75
     0
 76
     0
 77
     0
 78
     0
281
     0
 65
     1
110
0.0
120
0.0
130
0.0
111
1.0
121
0.0
131
0.0
112
0.0
122
1.0
132
0.0
 79
     0
146
0.0
  0
ENDTAB
  0
TABLE
  2
LTYPE
  5
5
330
0
100
AcDbSymbolTable
 70
     8
  0
LTYPE
  5
14
330
5
100
AcDbSymbolTableRecord
100
AcDbLinetypeTableRecord
  2
ByBlock
 70
     0
  3

 72
    65
 73
     0
 40
0.0
  0
LTYPE
  5
15
330
5
100
AcDbSymbolTableRecord
100
AcDbLinetypeTableRecord
  2
ByLayer
 70
     0
  3

 72
    65
 73
     0
 40
0.0
  0
LTYPE
  5
16
330
5
100
AcDbSymbolTableRecord
100
AcDbLinetypeTableRecord
  2
Continuous
 70
     0
  3
Solid line
 72
    65
 73
     0
 40
0.0
  0
LTYPE
  5
3F
330
5
100
AcDbSymbolTableRecord
100
AcDbLinetypeTableRecord
  2
DASHED
 70
     0
  3
Dashed
 72
    65
 73
     2
 40
15.0
 49
7.0
 74
     0
 49
-8.0
 74
     0
  0
LTYPE
  5
40
330
5
100
AcDbSymbolTableRecord
100
AcDbLinetypeTableRecord
  2
DOTTED
 70
     0
  3
Dotted
 72
    65
 73
     2
 40
1.0
 49
0.0
 74
     0
 49
-1.0
 74
     0
  0
LTYPE
  5
41
330
5
100
AcDbSymbolTableRecord
100
AcDbLinetypeTableRecord
  2
DOT_CENTER
 70
     0
  3
Dot_Center
 72
    65
 73
     4
 40
14.0
 49
12.0
 74
     0
 49
-1.0
 74
     0
 49
0.0
 74
     0
 49
-1.0
 74
     0
  0
LTYPE
  5
42
330
5
100
AcDbSymbolTableRecord
100
AcDbLinetypeTableRecord
  2
LONG_DASHED
 70
     0
  3
Long_Dashed
 72
    65
 73
     2
 40
15.0
 49
10.0
 74
     0
 49
-5.0
 74
     0
  0
LTYPE
  5
43
330
5
100
AcDbSymbolTableRecord
100
AcDbLinetypeTableRecord
  2
DASH_CENTER
 70
     0
  3
Dash_Center
 72
    65
 73
     4
 40
14.0
 49
11.0
 74
     0
 49
-1.0
 74
     0
 49
1.0
 74
     0
 49
-1.0
 74
     0
  0
LTYPE
  5
44
330
5
100
AcDbSymbolTableRecord
100
AcDbLinetypeTableRecord
  2
PHANTOM
 70
     0
  3
Phantom
 72
    65
 73
     6
 40
13.0
 49
10.0
 74
     0
 49
-1.0
 74
     0
 49
0.0
 74
     0
 49
-1.0
 74
     0
 49
0.0
 74
     0
 49
-1.0
 74
     0
  0
LTYPE
  5
45
330
5
100
AcDbSymbolTableRecord
100
AcDbLinetypeTableRecord
  2
CENTER_DASH_DASH
 70
     0
  3
Center_Dash_Dash
 72
    65
 73
     6
 40
14.0
 49
9.0
 74
     0
 49
-1.0
 74
     0
 49
1.0
 74
     0
 49
-1.0
 74
     0
 49
1.0
 74
     0
 49
-1.0
 74
     0
  0
ENDTAB
  0
TABLE
  2
LAYER
  5
2
330
0
100
AcDbSymbolTable
 70
     2
  0
LAYER
  5
10
330
2
100
AcDbSymbolTableRecord
100
AcDbLayerTableRecord
  2
0
 70
     0
 62
     7
  6
Continuous
370
    -3
390
F
  0
LAYER
  5
46
330
2
100
AcDbSymbolTableRecord
100
AcDbLayerTableRecord
  2
1
 70
     0
 62
     7
  6
Continuous
370
    -3
390
F
  0
ENDTAB
  0
TABLE
  2
STYLE
  5
3
330
0
100
AcDbSymbolTable
 70
     3
  0
STYLE
  5
11
330
3
100
AcDbSymbolTableRecord
100
AcDbTextStyleTableRecord
  2
Standard
 70
     0
 40
0.0
 41
1.0
 50
0.0
 71
     0
 42
0.2
  3
txt
  4

  0
STYLE
  5
9E
330
3
100
AcDbSymbolTableRecord
100
AcDbTextStyleTableRecord
  2
CONVERTER_11
 70
     0
 40
0.0
 41
0.89
 50
0.0
 71
     0
 42
0.2
  3
MS Mincho.ttf
  4

1001
ACAD
1000
MS Mincho
1071
    32785
  0
STYLE
  5
63B
330
3
100
AcDbSymbolTableRecord
100
AcDbTextStyleTableRecord
  2
CONVERTER_12
 70
     0
 40
0.0
 41
0.9
 50
0.0
 71
     0
 42
0.2
  3
txt.shx
  4

  0
ENDTAB
  0
TABLE
  2
VIEW
  5
6
330
0
100
AcDbSymbolTable
 70
     0
  0
ENDTAB
  0
TABLE
  2
UCS
  5
7
330
0
100
AcDbSymbolTable
 70
     0
  0
ENDTAB
  0
TABLE
  2
APPID
  5
9
330
0
100
AcDbSymbolTable
 70
     1
  0
APPID
  5
12
330
9
100
AcDbSymbolTableRecord
100
AcDbRegAppTableRecord
  2
ACAD
 70
     0
  0
ENDTAB
  0
TABLE
  2
DIMSTYLE
  5
A
330
0
100
AcDbSymbolTable
 70
     8
100
AcDbDimStyleTable
  0
DIMSTYLE
105
27
330
A
100
AcDbSymbolTableRecord
100
AcDbDimStyleTableRecord
  2
Standard
 70
     0
178
     0
340
11
  0
DIMSTYLE
105
64D
102
{ACAD_REACTORS
330
64E
102
}
330
A
100
AcDbSymbolTableRecord
100
AcDbDimStyleTableRecord
  2
ME10_DIM_10
 70
     0
 41
14.0
 42
0.0
 44
4.0
 73
     0
 74
     0
 77
     1
 78
     8
140
14.0
147
4.0
172
     1
173
     1
174
     1
175
     1
176
     2
177
     2
271
     2
178
     7
271
     2
340
63B
  0
DIMSTYLE
105
658
102
{ACAD_REACTORS
330
659
102
}
330
A
100
AcDbSymbolTableRecord
100
AcDbDimStyleTableRecord
  2
ME10_DIM_11
 70
     0
 41
14.0
 42
0.0
 44
4.0
 73
     0
 74
     0
 77
     1
 78
     8
140
14.0
147
4.0
172
     1
173
     1
174
     1
175
     1
176
     2
177
     2
271
     2
178
     7
271
     2
340
63B
  0
DIMSTYLE
105
663
102
{ACAD_REACTORS
330
664
102
}
330
A
100
AcDbSymbolTableRecord
100
AcDbDimStyleTableRecord
  2
ME10_DIM_12
 70
     0
 41
14.0
 42
0.0
 44
4.0
 73
     0
 74
     0
 77
     1
 78
     8
140
14.0
147
4.0
172
     1
173
     1
174
     1
175
     1
176
     2
177
     2
271
     2
178
     7
271
     2
340
63B
  0
DIMSTYLE
105
66E
102
{ACAD_REACTORS
330
66F
102
}
330
A
100
AcDbSymbolTableRecord
100
AcDbDimStyleTableRecord
  2
ME10_DIM_13
 70
     0
 41
14.0
 42
0.0
 44
4.0
 73
     0
 74
     0
 77
     1
 78
     8
140
14.0
147
4.0
172
     1
173
     1
174
     1
175
     1
176
     2
177
     2
271
     2
178
     7
271
     2
340
63B
  0
DIMSTYLE
105
679
102
{ACAD_REACTORS
330
67A
102
}
330
A
100
AcDbSymbolTableRecord
100
AcDbDimStyleTableRecord
  2
ME10_DIM_14
 70
     0
 41
14.0
 42
0.0
 44
4.0
 73
     0
 74
     0
 77
     1
 78
     8
140
14.0
147
4.0
172
     1
173
     1
174
     1
175
     1
176
     2
177
     2
271
     2
178
     7
271
     2
340
63B
  0
DIMSTYLE
105
684
102
{ACAD_REACTORS
330
685
102
}
330
A
100
AcDbSymbolTableRecord
100
AcDbDimStyleTableRecord
  2
ME10_DIM_15
 70
     0
 41
14.0
 42
0.0
 44
4.0
 73
     0
 74
     0
 77
     1
 78
     8
140
14.0
147
4.0
172
     1
173
     1
174
     1
175
     1
176
     2
177
     2
271
     2
178
     7
271
     2
340
63B
  0
DIMSTYLE
105
68F
102
{ACAD_REACTORS
330
690
102
}
330
A
100
AcDbSymbolTableRecord
100
AcDbDimStyleTableRecord
  2
ME10_DIM_16
 70
     0
 41
14.0
 42
0.0
 44
4.0
 73
     0
 74
     0
 77
     1
 78
     8
140
14.0
147
4.0
172
     1
173
     1
174
     1
175
     1
176
     2
177
     2
271
     2
178
     7
271
     2
340
63B
  0
ENDTAB
  0
TABLE
  2
BLOCK_RECORD
  5
1
330
0
100
AcDbSymbolTable
 70
    12
  0
BLOCK_RECORD
  5
1F
330
1
100
AcDbSymbolTableRecord
100
AcDbBlockTableRecord
  2
*Model_Space
340
22
  0
BLOCK_RECORD
  5
1B
330
1
100
AcDbSymbolTableRecord
100
AcDbBlockTableRecord
  2
*Paper_Space
340
1E
  0
BLOCK_RECORD
  5
23
330
1
100
AcDbSymbolTableRecord
100
AcDbBlockTableRecord
  2
*Paper_Space0
340
26
  0
BLOCK_RECORD
  5
47
330
1
100
AcDbSymbolTableRecord
100
AcDbBlockTableRecord
  2
開示A4
340
0
102
{BLKREFS
331
50
102
}
  0
BLOCK_RECORD
  5
4A
330
1
100
AcDbSymbolTableRecord
100
AcDbBlockTableRecord
  2
R81-8-2
340
0
102
{BLKREFS
331
51
102
}
  0
BLOCK_RECORD
  5
4D
330
1
100
AcDbSymbolTableRecord
100
AcDbBlockTableRecord
  2
R81-8-1
340
0
102
{BLKREFS
331
52
102
}
  0
BLOCK_RECORD
  5
644
330
1
100
AcDbSymbolTableRecord
100
AcDbBlockTableRecord
  2
*D4
340
0
  0
BLOCK_RECORD
  5
64F
330
1
100
AcDbSymbolTableRecord
100
AcDbBlockTableRecord
  2
*D5
340
0
  0
BLOCK_RECORD
  5
65A
330
1
100
AcDbSymbolTableRecord
100
AcDbBlockTableRecord
  2
*D6
340
0
  0
BLOCK_RECORD
  5
665
330
1
100
AcDbSymbolTableRecord
100
AcDbBlockTableRecord
  2
*D7
340
0
  0
BLOCK_RECORD
  5
670
330
1
100
AcDbSymbolTableRecord
100
AcDbBlockTableRecord
  2
*D8
340
0
  0
BLOCK_RECORD
  5
67B
330
1
100
AcDbSymbolTableRecord
100
AcDbBlockTableRecord
  2
*D9
340
0
  0
BLOCK_RECORD
  5
686
330
1
100
AcDbSymbolTableRecord
100
AcDbBlockTableRecord
  2
*D10
340
0
  0
BLOCK_RECORD
  5
691
330
1
100
AcDbSymbolTableRecord
100
AcDbBlockTableRecord
  2
*D11
340
0
102
{BLKREFS
331
699
102
}
  0
ENDTAB
  0
ENDSEC
  0
SECTION
  2
BLOCKS
  0
BLOCK
  5
20
330
1F
100
AcDbEntity
  8
0
100
AcDbBlockBegin
  2
*Model_Space
 70
     0
 10
0.0
 20
0.0
 30
0.0
  3
*Model_Space
  1

  0
ENDBLK
  5
21
330
1F
100
AcDbEntity
  8
0
100
AcDbBlockEnd
  0
BLOCK
  5
1C
330
1B
100
AcDbEntity
 67
     1
  8
0
100
AcDbBlockBegin
  2
*Paper_Space
 70
     0
 10
0.0
 20
0.0
 30
0.0
  3
*Paper_Space
  1

  0
ENDBLK
  5
1D
330
1B
100
AcDbEntity
 67
     1
  8
0
100
AcDbBlockEnd
  0
BLOCK
  5
24
330
23
100
AcDbEntity
  8
0
100
AcDbBlockBegin
  2
*Paper_Space0
 70
     0
 10
0.0
 20
0.0
 30
0.0
  3
*Paper_Space0
  1

  0
ENDBLK
  5
25
330
23
100
AcDbEntity
  8
0
100
AcDbBlockEnd
  0
BLOCK
  5
48
330
47
100
AcDbEntity
  8
0
100
AcDbBlockBegin
  2
開示A4
 70
     0
 10
0.0
 20
0.0
 30
0.0
  3
開示A4
  1

  0
POINT
  5
53
330
47
100
AcDbEntity
  8
1
 62
     4
100
AcDbPoint
 10
93.75
 20
17.0
 30
0.0
  0
POINT
  5
54
330
47
100
AcDbEntity
  8
1
 62
     4
100
AcDbPoint
 10
85.25
 20
17.0
 30
0.0
  0
POINT
  5
55
330
47
100
AcDbEntity
  8
1
 62
     4
100
AcDbPoint
 10
106.5
 20
19.00000000000001
 30
0.0
  0
POINT
  5
56
330
47
100
AcDbEntity
  8
1
 62
     4
100
AcDbPoint
 10
106.5
 20
12.5
 30
0.0
  0
POINT
  5
57
330
47
100
AcDbEntity
  8
1
 62
     4
100
AcDbPoint
 10
112.25
 20
12.5
 30
0.0
  0
POINT
  5
58
330
47
100
AcDbEntity
  8
1
 62
     4
100
AcDbPoint
 10
100.75
 20
12.5
 30
0.0
  0
POINT
  5
59
330
47
100
AcDbEntity
  8
1
 62
     4
100
AcDbPoint
 10
123.5
 20
19.00000000000001
 30
0.0
  0
POINT
  5
5A
330
47
100
AcDbEntity
  8
1
 62
     4
100
AcDbPoint
 10
123.5
 20
12.5
 30
0.0
  0
POINT
  5
5B
330
47
100
AcDbEntity
  8
1
 62
     4
100
AcDbPoint
 10
129.25
 20
12.5
 30
0.0
  0
POINT
  5
5C
330
47
100
AcDbEntity
  8
1
 62
     4
100
AcDbPoint
 10
117.75
 20
12.5
 30
0.0
  0
POINT
  5
5D
330
47
100
AcDbEntity
  8
1
 62
     4
100
AcDbPoint
 10
140.5
 20
19.00000000000001
 30
0.0
  0
POINT
  5
5E
330
47
100
AcDbEntity
  8
1
 62
     4
100
AcDbPoint
 10
140.5
 20
12.5
 30
0.0
  0
POINT
  5
5F
330
47
100
AcDbEntity
  8
1
 62
     4
100
AcDbPoint
 10
146.25
 20
12.5
 30
0.0
  0
POINT
  5
60
330
47
100
AcDbEntity
  8
1
 62
     4
100
AcDbPoint
 10
134.75
 20
12.5
 30
0.0
  0
POINT
  5
61
330
47
100
AcDbEntity
  8
1
 62
     4
100
AcDbPoint
 10
151.75
 20
12.5
 30
0.0
  0
POINT
  5
62
330
47
100
AcDbEntity
  8
1
 62
     4
100
AcDbPoint
 10
163.25
 20
12.5
 30
0.0
  0
POINT
  5
63
330
47
100
AcDbEntity
  8
1
 62
     4
100
AcDbPoint
 10
157.5
 20
12.5
 30
0.0
  0
POINT
  5
64
330
47
100
AcDbEntity
  8
1
 62
     4
100
AcDbPoint
 10
57.0
 20
14.25
 30
0.0
  0
POINT
  5
65
330
47
100
AcDbEntity
  8
1
 62
     4
100
AcDbPoint
 10
57.0
 20
22.75000000000001
 30
0.0
  0
POINT
  5
66
330
47
100
AcDbEntity
  8
1
 62
     4
100
AcDbPoint
 10
47.5
 20
282.0000000000003
 30
0.0
  0
POINT
  5
67
330
47
100
AcDbEntity
  8
1
 62
     4
100
AcDbPoint
 10
157.5
 20
19.00000000000001
 30
0.0
  0
POINT
  5
68
330
47
100
AcDbEntity
  8
1
 62
     4
100
AcDbPoint
 10
57.0
 20
16.25
 30
0.0
  0
POINT
  5
69
330
47
100
AcDbEntity
  8
1
 62
     4
100
AcDbPoint
 10
57.0
 20
24.75000000000001
 30
0.0
  0
POINT
  5
6A
330
47
100
AcDbEntity
  8
1
 62
     4
100
AcDbPoint
 10
57.0
 20
20.75000000000001
 30
0.0
  0
POINT
  5
6B
330
47
100
AcDbEntity
  8
1
 62
     4
100
AcDbPoint
 10
57.0
 20
12.25
 30
0.0
  0
POINT
  5
6C
330
47
100
AcDbEntity
  8
1
 62
     4
100
AcDbPoint
 10
34.0
 20
34.00000000000001
 30
0.0
  0
LINE
  5
6D
330
47
100
AcDbEntity
  8
1
  6
Continuous
 62
     7
100
AcDbLine
 10
105.0
 20
10.0
 30
0.0
 11
200.0
 21
10.0
 31
0.0
  0
LINE
  5
6E
330
47
100
AcDbEntity
  8
1
  6
Continuous
 62
     2
100
AcDbLine
 10
105.0
 20
10.0
 30
0.0
 11
105.0
 21
5.0
 31
0.0
  0
LINE
  5
6F
330
47
100
AcDbEntity
  8
1
  6
Continuous
 62
     7
100
AcDbLine
 10
200.0
 20
148.5
 30
0.0
 11
200.0
 21
287.0000000000003
 31
0.0
  0
LINE
  5
70
330
47
100
AcDbEntity
  8
1
  6
Continuous
 62
     2
100
AcDbLine
 10
200.0
 20
148.5
 30
0.0
 11
205.0
 21
148.5
 31
0.0
  0
LINE
  5
71
330
47
100
AcDbEntity
  8
1
  6
Continuous
 62
     7
100
AcDbLine
 10
25.0
 20
148.5
 30
0.0
 11
25.0
 21
287.0000000000003
 31
0.0
  0
LINE
  5
72
330
47
100
AcDbEntity
  8
1
  6
Continuous
 62
     2
100
AcDbLine
 10
25.0
 20
148.5
 30
0.0
 11
20.0
 21
148.5
 31
0.0
  0
LINE
  5
73
330
47
100
AcDbEntity
  8
1
  6
Continuous
 62
     7
100
AcDbLine
 10
105.0
 20
287.0000000000003
 30
0.0
 11
25.0
 21
287.0000000000003
 31
0.0
  0
LINE
  5
74
330
47
100
AcDbEntity
  8
1
  6
Continuous
 62
     2
100
AcDbLine
 10
105.0
 20
287.0000000000003
 30
0.0
 11
105.0
 21
292.0000000000003
 31
0.0
  0
LINE
  5
75
330
47
100
AcDbEntity
  8
1
  6
Continuous
 62
     2
100
AcDbLine
 10
166.0
 20
20.00000000000001
 30
0.0
 11
200.0
 21
20.00000000000001
 31
0.0
  0
LINE
  5
76
330
47
100
AcDbEntity
  8
1
  6
Continuous
 62
     2
100
AcDbLine
 10
98.0
 20
27.00000000000001
 30
0.0
 11
98.0
 21
9.99999999999999
 31
0.0
  0
LINE
  5
77
330
47
100
AcDbEntity
  8
1
  6
Continuous
 62
     2
100
AcDbLine
 10
115.0
 20
27.00000000000001
 30
0.0
 11
115.0
 21
9.99999999999999
 31
0.0
  0
LINE
  5
78
330
47
100
AcDbEntity
  8
1
  6
Continuous
 62
     2
100
AcDbLine
 10
149.0
 20
27.00000000000001
 30
0.0
 11
149.0
 21
10.0
 31
0.0
  0
LINE
  5
79
330
47
100
AcDbEntity
  8
1
  6
Continuous
 62
     2
100
AcDbLine
 10
132.0
 20
27.00000000000001
 30
0.0
 11
132.0
 21
9.99999999999999
 31
0.0
  0
LINE
  5
7A
330
47
100
AcDbEntity
  8
1
  6
Continuous
 62
     2
100
AcDbLine
 10
166.0
 20
27.00000000000001
 30
0.0
 11
166.0
 21
10.0
 31
0.0
  0
LINE
  5
7B
330
47
100
AcDbEntity
  8
1
  6
Continuous
 62
     2
100
AcDbLine
 10
55.0
 20
277.0000000000003
 30
0.0
 11
25.0
 21
277.0000000000003
 31
0.0
  0
LINE
  5
7C
330
47
100
AcDbEntity
  8
1
  6
Continuous
 62
     7
100
AcDbLine
 10
25.0
 20
10.0
 30
0.0
 11
25.0
 21
148.5
 31
0.0
  0
LINE
  5
7D
330
47
100
AcDbEntity
  8
1
  6
Continuous
 62
     2
100
AcDbLine
 10
40.0
 20
287.0000000000003
 30
0.0
 11
40.0
 21
277.0000000000003
 31
0.0
  0
LINE
  5
7E
330
47
100
AcDbEntity
  8
1
  6
Continuous
 62
     2
100
AcDbLine
 10
55.0
 20
287.0000000000003
 30
0.0
 11
55.0
 21
277.0000000000003
 31
0.0
  0
LINE
  5
7F
330
47
100
AcDbEntity
  8
1
  6
Continuous
 62
     2
100
AcDbLine
 10
33.0
 20
41.00000000000001
 30
0.0
 11
33.0
 21
27.0
 31
0.0
  0
LINE
  5
80
330
47
100
AcDbEntity
  8
1
  6
Continuous
 62
     7
100
AcDbLine
 10
200.0
 20
27.00000000000001
 30
0.0
 11
25.0
 21
27.00000000000001
 31
0.0
  0
LINE
  5
81
330
47
100
AcDbEntity
  8
1
  6
Continuous
 62
     7
100
AcDbLine
 10
25.0
 20
41.0
 30
0.0
 11
200.0
 21
41.0
 31
0.0
  0
LINE
  5
82
330
47
100
AcDbEntity
  8
1
  6
PHANTOM
 62
     4
100
AcDbLine
 10
0.0
 20
0.0
 30
0.0
 11
210.0
 21
0.0
 31
0.0
  0
LINE
  5
83
330
47
100
AcDbEntity
  8
1
  6
PHANTOM
 62
     4
100
AcDbLine
 10
210.0
 20
0.0
 30
0.0
 11
210.0
 21
297.0
 31
0.0
  0
LINE
  5
84
330
47
100
AcDbEntity
  8
1
  6
PHANTOM
 62
     4
100
AcDbLine
 10
210.0
 20
297.0
 30
0.0
 11
0.0
 21
297.0
 31
0.0
  0
LINE
  5
85
330
47
100
AcDbEntity
  8
1
  6
PHANTOM
 62
     4
100
AcDbLine
 10
0.0
 20
297.0
 30
0.0
 11
0.0
 21
0.0
 31
0.0
  0
LINE
  5
86
330
47
100
AcDbEntity
  8
1
  6
Continuous
 62
     7
100
AcDbLine
 10
25.0
 20
10.0
 30
0.0
 11
105.0
 21
10.0
 31
0.0
  0
LINE
  5
87
330
47
100
AcDbEntity
  8
1
  6
Continuous
 62
     7
100
AcDbLine
 10
200.0
 20
10.0
 30
0.0
 11
200.0
 21
148.5
 31
0.0
  0
LINE
  5
88
330
47
100
AcDbEntity
  8
1
  6
Continuous
 62
     7
100
AcDbLine
 10
200.0
 20
287.0000000000003
 30
0.0
 11
105.0
 21
287.0000000000003
 31
0.0
  0
LINE
  5
89
330
47
100
AcDbEntity
  8
1
  6
Continuous
 62
     2
100
AcDbLine
 10
25.0
 20
18.50000000000001
 30
0.0
 11
81.0
 21
18.50000000000001
 31
0.0
  0
LINE
  5
8A
330
47
100
AcDbEntity
  8
1
  6
Continuous
 62
     2
100
AcDbLine
 10
33.0
 20
27.0
 30
0.0
 11
33.0
 21
10.0
 31
0.0
  0
LINE
  5
8B
330
47
100
AcDbEntity
  8
1
  6
Continuous
 62
     7
100
AcDbLine
 10
191.0
 20
24.70000000000001
 30
0.0
 11
191.0
 21
22.30000000000001
 31
0.0
  0
LINE
  5
8C
330
47
100
AcDbEntity
  8
1
  6
Continuous
 62
     7
100
AcDbLine
 10
191.0
 20
24.70000000000001
 30
0.0
 11
196.0
 21
25.50000000000001
 31
0.0
  0
LINE
  5
8D
330
47
100
AcDbEntity
  8
1
  6
Continuous
 62
     7
100
AcDbLine
 10
196.0
 20
25.50000000000001
 30
0.0
 11
196.0
 21
21.50000000000001
 31
0.0
  0
LINE
  5
8E
330
47
100
AcDbEntity
  8
1
  6
Continuous
 62
     7
100
AcDbLine
 10
196.0
 20
21.50000000000001
 30
0.0
 11
191.0
 21
22.30000000000001
 31
0.0
  0
LINE
  5
8F
330
47
100
AcDbEntity
  8
1
  6
DOT_CENTER
 62
     2
100
AcDbLine
 10
184.0
 20
23.50000000000001
 30
0.0
 11
197.0
 21
23.50000000000001
 31
0.0
  0
LINE
  5
90
330
47
100
AcDbEntity
  8
1
  6
DOT_CENTER
 62
     2
100
AcDbLine
 10
187.0
 20
26.50000000000001
 30
0.0
 11
187.0
 21
20.50000000000001
 31
0.0
  0
LINE
  5
91
330
47
100
AcDbEntity
  8
1
  6
Continuous
 62
     2
100
AcDbLine
 10
81.0
 20
27.00000000000001
 30
0.0
 11
81.0
 21
10.0
 31
0.0
  0
CIRCLE
  5
92
330
47
100
AcDbEntity
  8
1
  6
Continuous
 62
     7
100
AcDbCircle
 10
103.5
 20
12.5
 30
0.0
 40
0.2999999999999972
  0
CIRCLE
  5
93
330
47
100
AcDbEntity
  8
1
  6
Continuous
 62
     7
100
AcDbCircle
 10
109.5
 20
12.5
 30
0.0
 40
0.2999999999999972
  0
CIRCLE
  5
94
330
47
100
AcDbEntity
  8
1
  6
Continuous
 62
     7
100
AcDbCircle
 10
120.5
 20
12.5
 30
0.0
 40
0.2999999999999972
  0
CIRCLE
  5
95
330
47
100
AcDbEntity
  8
1
  6
Continuous
 62
     7
100
AcDbCircle
 10
126.5
 20
12.5
 30
0.0
 40
0.2999999999999972
  0
CIRCLE
  5
96
330
47
100
AcDbEntity
  8
1
  6
Continuous
 62
     7
100
AcDbCircle
 10
137.5
 20
12.5
 30
0.0
 40
0.3000000000000114
  0
CIRCLE
  5
97
330
47
100
AcDbEntity
  8
1
  6
Continuous
 62
     7
100
AcDbCircle
 10
143.5
 20
12.5
 30
0.0
 40
0.3000000000000114
  0
CIRCLE
  5
98
330
47
100
AcDbEntity
  8
1
  6
Continuous
 62
     7
100
AcDbCircle
 10
160.5
 20
12.5
 30
0.0
 40
0.3000000000000114
  0
CIRCLE
  5
99
330
47
100
AcDbEntity
  8
1
  6
Continuous
 62
     7
100
AcDbCircle
 10
154.5
 20
12.5
 30
0.0
 40
0.3000000000000114
  0
CIRCLE
  5
9A
330
47
100
AcDbEntity
  8
1
  6
Continuous
 62
     7
100
AcDbCircle
 10
187.0
 20
23.50000000000001
 30
0.0
 40
1.200000000000102
  0
CIRCLE
  5
9B
330
47
100
AcDbEntity
  8
1
  6
Continuous
 62
     7
100
AcDbCircle
 10
187.0
 20
23.50000000000001
 30
0.0
 40
2.0
  0
CIRCLE
  5
9C
330
47
100
AcDbEntity
  8
1
  6
DOT_CENTER
 62
     7
100
AcDbCircle
 10
89.5
 20
16.0
 30
0.0
 40
0.1000000000000227
  0
CIRCLE
  5
9D
330
47
100
AcDbEntity
  8
1
  6
DOT_CENTER
 62
     7
100
AcDbCircle
 10
89.5
 20
18.0
 30
0.0
 40
0.1000000000000227
  0
MTEXT
  5
9F
330
47
100
AcDbEntity
  8
1
 62
     7
100
AcDbMText
 10
188.5
 20
15.0
 30
0.0
 40
3.0
 41
0.0
 71
     5
 72
     1
  1
三栄水栓製作所
  7
CONVERTER_11
 73
     1
 44
1.0
  0
MTEXT
  5
A0
330
47
100
AcDbEntity
  8
1
 62
     7
100
AcDbMText
 10
171.5
 20
15.0
 30
0.0
 40
2.5
 41
0.0
 71
     5
 72
     1
  1
株式会社
  7
CONVERTER_11
 73
     1
 44
1.0
  0
MTEXT
  5
A1
330
47
100
AcDbEntity
  8
1
 62
     2
100
AcDbMText
 10
32.5
 20
282.0000000000003
 30
0.0
 40
5.0
 41
0.0
 71
     5
 72
     1
  1
図番
  7
CONVERTER_11
 73
     1
 44
0.45454545454545
  0
MTEXT
  5
A2
330
47
100
AcDbEntity
  8
1
 62
     2
100
AcDbMText
 10
29.0
 20
34.00000000000001
 30
0.0
 40
3.5
 41
0.0
 71
     5
 72
     1
  1
備考
  7
CONVERTER_11
 73
     1
 44
0.45454545454545
  0
MTEXT
  5
A3
330
47
100
AcDbEntity
  8
1
 62
     2
100
AcDbMText
 10
29.0
 20
22.75
 30
0.0
 40
3.5
 41
0.0
 71
     5
 72
     1
  1
品名
  7
CONVERTER_11
 73
     1
 44
0.72727272727273
  0
MTEXT
  5
A4
330
47
100
AcDbEntity
  8
1
 62
     2
100
AcDbMText
 10
29.0
 20
14.25
 30
0.0
 40
3.5
 41
0.0
 71
     5
 72
     1
  1
品番
  7
CONVERTER_11
 73
     1
 44
0.72727272727273
  0
MTEXT
  5
A5
330
47
100
AcDbEntity
  8
1
 62
     2
100
AcDbMText
 10
101.5
 20
25.00000000000001
 30
0.0
 40
3.0
 41
0.0
 71
     5
 72
     1
  1
承認
  7
CONVERTER_11
 73
     1
 44
0.59090909090909
  0
MTEXT
  5
A6
330
47
100
AcDbEntity
  8
1
 62
     2
100
AcDbMText
 10
175.0
 20
23.50000000000001
 30
0.0
 40
3.5
 41
0.0
 71
     5
 72
     1
  1
第三角法
  7
CONVERTER_11
 73
     1
 44
0.54545454545455
  0
MTEXT
  5
A7
330
47
100
AcDbEntity
  8
1
 62
     2
100
AcDbMText
 10
118.5
 20
25.00000000000001
 30
0.0
 40
3.0
 41
0.0
 71
     5
 72
     1
  1
検図
  7
CONVERTER_11
 73
     1
 44
0.59090909090909
  0
MTEXT
  5
A8
330
47
100
AcDbEntity
  8
1
 62
     2
100
AcDbMText
 10
152.5
 20
25.00000000000001
 30
0.0
 40
3.0
 41
0.0
 71
     5
 72
     1
  1
設計
  7
CONVERTER_11
 73
     1
 44
0.59090909090909
  0
MTEXT
  5
A9
330
47
100
AcDbEntity
  8
1
 62
     2
100
AcDbMText
 10
135.5
 20
25.00000000000001
 30
0.0
 40
3.0
 41
0.0
 71
     5
 72
     1
  1
製図
  7
CONVERTER_11
 73
     1
 44
0.59090909090909
  0
MTEXT
  5
AA
330
47
100
AcDbEntity
  8
1
 62
     2
100
AcDbMText
 10
89.5
 20
24.00000000000001
 30
0.0
 40
3.5
 41
0.0
 71
     5
 72
     1
  1
尺度
  7
CONVERTER_11
 73
     1
 44
0.54545454545455
  0
MTEXT
  5
AB
330
47
100
AcDbEntity
  8
1
 62
   250
100
AcDbMText
 10
25.0
 20
5.0
 30
0.0
 40
3.5
 41
0.0
 71
     4
 72
     1
  1
備考欄の文字列 原点位置=4
  7
CONVERTER_11
 73
     1
 44
0.54545454545455
  0
ENDBLK
  5
49
330
47
100
AcDbEntity
  8
0
100
AcDbBlockEnd
  0
BLOCK
  5
4B
330
4A
100
AcDbEntity
  8
0
100
AcDbBlockBegin
  2
R81-8-2
 70
     0
 10
200.1406690670862
 20
636.7391659172874
 30
0.0
  3
R81-8-2
  1

  0
LINE
  5
AC
330
4A
100
AcDbEntity
  8
0
  6
Continuous
 62
     7
100
AcDbLine
 10
327.6406690670863
 20
702.7391659172874
 30
0.0
 11
435.1406690670863
 21
702.7391659172874
 31
0.0
  0
LINE
  5
AD
330
4A
100
AcDbEntity
  8
0
  6
Continuous
 62
     2
100
AcDbLine
 10
327.6406690670863
 20
712.7391659172874
 30
0.0
 11
426.1406690670862
 21
712.7391659172874
 31
0.0
  0
LINE
  5
AE
330
4A
100
AcDbEntity
  8
0
  6
Continuous
 62
     2
100
AcDbLine
 10
319.3026984496655
 20
717.7391659172874
 30
0.0
 11
321.3026984496655
 21
719.7391659172874
 31
0.0
  0
LINE
  5
AF
330
4A
100
AcDbEntity
  8
0
  6
Continuous
 62
     2
100
AcDbLine
 10
322.6406690670863
 20
717.7391659172874
 30
0.0
 11
327.6406690670863
 21
712.7391659172874
 31
0.0
  0
LINE
  5
B0
330
4A
100
AcDbEntity
  8
0
  6
Continuous
 62
     2
100
AcDbLine
 10
318.1406690670863
 20
717.7391659172874
 30
0.0
 11
322.6406690670863
 21
717.7391659172874
 31
0.0
  0
LINE
  5
B1
330
4A
100
AcDbEntity
  8
0
  6
Continuous
 62
     2
100
AcDbLine
 10
313.6406690670863
 20
717.7391659172874
 30
0.0
 11
318.1406690670863
 21
717.7391659172874
 31
0.0
  0
LINE
  5
B2
330
4A
100
AcDbEntity
  8
0
  6
Continuous
 62
     2
100
AcDbLine
 10
308.6406690670863
 20
712.7391659172874
 30
0.0
 11
313.6406690670863
 21
717.7391659172874
 31
0.0
  0
LINE
  5
B3
330
4A
100
AcDbEntity
  8
0
  6
Continuous
 62
     7
100
AcDbLine
 10
318.1406690670863
 20
714.7391659172874
 30
0.0
 11
314.8833097542056
 21
714.7391659172874
 31
0.0
  0
LINE
  5
B4
330
4A
100
AcDbEntity
  8
0
  6
Continuous
 62
     7
100
AcDbLine
 10
314.8833097542056
 20
714.7391659172874
 30
0.0
 11
308.6406690670863
 21
708.4965252301681
 31
0.0
  0
LINE
  5
B5
330
4A
100
AcDbEntity
  8
0
  6
Continuous
 62
     7
100
AcDbLine
 10
308.6406690670863
 20
708.4965252301681
 30
0.0
 11
308.6406690670863
 21
702.7391659172874
 31
0.0
  0
LINE
  5
B6
330
4A
100
AcDbEntity
  8
0
  6
Continuous
 62
     7
100
AcDbLine
 10
321.398028379967
 20
714.7391659172874
 30
0.0
 11
318.1406690670863
 21
714.7391659172874
 31
0.0
  0
LINE
  5
B7
330
4A
100
AcDbEntity
  8
0
  6
Continuous
 62
     7
100
AcDbLine
 10
327.6406690670863
 20
708.4965252301681
 30
0.0
 11
321.398028379967
 21
714.7391659172874
 31
0.0
  0
LINE
  5
B8
330
4A
100
AcDbEntity
  8
0
  6
Continuous
 62
     7
100
AcDbLine
 10
327.6406690670863
 20
702.7391659172874
 30
0.0
 11
327.6406690670863
 21
708.4965252301681
 31
0.0
  0
LINE
  5
B9
330
4A
100
AcDbEntity
  8
0
  6
Continuous
 62
     2
100
AcDbLine
 10
310.3589071416196
 20
830.7391659172874
 30
0.0
 11
312.2956725670448
 21
830.7391659172874
 31
0.0
  0
LINE
  5
BA
330
4A
100
AcDbEntity
  8
0
  6
Continuous
 62
     2
100
AcDbLine
 10
310.3589071416196
 20
846.7391659172873
 30
0.0
 11
312.2956725670448
 21
846.7391659172873
 31
0.0
  0
LINE
  5
BB
330
4A
100
AcDbEntity
  8
0
  6
Continuous
 62
     2
100
AcDbLine
 10
323.9856655671277
 20
830.7391659172874
 30
0.0
 11
325.9224309925529
 21
830.7391659172874
 31
0.0
  0
LINE
  5
BC
330
4A
100
AcDbEntity
  8
0
  6
Continuous
 62
     2
100
AcDbLine
 10
323.9856655671277
 20
846.7391659172873
 30
0.0
 11
325.9224309925529
 21
846.7391659172873
 31
0.0
  0
LINE
  5
BD
330
4A
100
AcDbEntity
  8
0
  6
Continuous
 62
     2
100
AcDbLine
 10
316.6406690670863
 20
850.2391659172873
 30
0.0
 11
316.6406690670863
 21
827.2391659172874
 31
0.0
  0
LINE
  5
BE
330
4A
100
AcDbEntity
  8
0
  6
Continuous
 62
     2
100
AcDbLine
 10
319.1406690670863
 20
850.7391659172873
 30
0.0
 11
317.1406690670863
 21
850.7391659172873
 31
0.0
  0
LINE
  5
BF
330
4A
100
AcDbEntity
  8
0
  6
Continuous
 62
     2
100
AcDbLine
 10
319.6406690670863
 20
827.2391659172874
 30
0.0
 11
319.6406690670863
 21
850.2391659172873
 31
0.0
  0
LINE
  5
C0
330
4A
100
AcDbEntity
  8
0
  6
Continuous
 62
     2
100
AcDbLine
 10
317.1406690670863
 20
826.7391659172874
 30
0.0
 11
319.1406690670863
 21
826.7391659172874
 31
0.0
  0
LINE
  5
C1
330
4A
100
AcDbEntity
  8
0
  6
Continuous
 62
     2
100
AcDbLine
 10
313.9605543205664
 20
860.8474593997325
 30
0.0
 11
314.8014328544759
 21
861.6883379336421
 31
0.0
  0
LINE
  5
C2
330
4A
100
AcDbEntity
  8
0
  6
Continuous
 62
     2
100
AcDbLine
 10
304.0819030807273
 20
856.3062117400999
 30
0.0
 11
300.4675438401516
 21
859.9205709806757
 31
0.0
  0
LINE
  5
C3
330
4A
100
AcDbEntity
  8
0
  6
Continuous
 62
     2
100
AcDbLine
 10
297.3832094207603
 20
850.4387833387092
 30
0.0
 11
298.3600636687205
 21
849.4619290907491
 31
0.0
  0
LINE
  5
C4
330
4A
100
AcDbEntity
  8
0
  6
Continuous
 62
     2
100
AcDbLine
 10
296.0323755846408
 20
842.919280663806
 30
0.0
 11
292.4167158565064
 21
839.3036209356724
 31
0.0
  0
LINE
  5
C5
330
4A
100
AcDbEntity
  8
0
  6
Continuous
 62
     2
100
AcDbLine
 10
295.642106321399
 20
838.9934774946321
 30
0.0
 11
294.1844828094728
 21
837.535853982706
 31
0.0
  0
LINE
  5
C6
330
4A
100
AcDbEntity
  8
0
  6
Continuous
 62
     2
100
AcDbLine
 10
296.917559718397
 20
831.2672431678491
 30
0.0
 11
292.4167158565062
 21
835.7680870297395
 31
0.0
  0
LINE
  5
C7
330
4A
100
AcDbEntity
  8
0
  6
Continuous
 62
     2
100
AcDbLine
 10
299.2566112648807
 20
826.5063264708236
 30
0.0
 11
294.1844828094728
 21
821.4341980154154
 31
0.0
  0
LINE
  5
C8
330
4A
100
AcDbEntity
  8
0
  6
Continuous
 62
     2
100
AcDbLine
 10
310.6687463176481
 20
817.5160565685978
 30
0.0
 11
314.8014328544759
 21
813.38337003177
 31
0.0
  0
LINE
  5
C9
330
4A
100
AcDbEntity
  8
0
  6
Continuous
 62
     2
100
AcDbLine
 10
315.3012953579663
 20
816.4190414342124
 30
0.0
 11
316.5691998074423
 21
815.1511369847365
 31
0.0
  0
LINE
  5
CA
330
4A
100
AcDbEntity
  8
0
  6
Continuous
 62
     2
100
AcDbLine
 10
326.4548235306539
 20
817.8316353228834
 30
0.0
 11
330.9030888217675
 21
813.3833700317707
 31
0.0
  0
LINE
  5
CB
330
4A
100
AcDbEntity
  8
0
  6
Continuous
 62
     2
100
AcDbLine
 10
328.8634322405479
 20
818.9585605189217
 30
0.0
 11
332.6708557747329
 21
815.1511369847367
 31
0.0
  0
LINE
  5
CC
330
4A
100
AcDbEntity
  8
0
  6
Continuous
 62
     2
100
AcDbLine
 10
337.177767590033
 20
826.7458811367271
 30
0.0
 11
340.7216837583784
 21
823.2019649683818
 31
0.0
  0
LINE
  5
CD
330
4A
100
AcDbEntity
  8
0
  6
Continuous
 62
     2
100
AcDbLine
 10
338.0579024607141
 20
849.2059616993666
 30
0.0
 11
340.7216837583783
 21
851.8697429970304
 31
0.0
  0
LINE
  5
CE
330
4A
100
AcDbEntity
  8
0
  6
Continuous
 62
     2
100
AcDbLine
 10
336.7307303801963
 20
851.4143235247811
 30
0.0
 11
338.9539168054121
 21
853.6375099499967
 31
0.0
  0
LINE
  5
CF
330
4A
100
AcDbEntity
  8
0
  6
Continuous
 62
     2
100
AcDbLine
 10
328.1198680178275
 20
858.9051171297028
 30
0.0
 11
330.9030888217667
 21
861.6883379336421
 31
0.0
  0
LINE
  5
D0
330
4A
100
AcDbEntity
  8
0
  6
Continuous
 62
     2
100
AcDbLine
 10
354.7656690670863
 20
727.4891659172874
 30
0.0
 11
351.8906690670863
 21
727.4891659172874
 31
0.0
  0
LINE
  5
D1
330
4A
100
AcDbEntity
  8
0
  6
Continuous
 62
     2
100
AcDbLine
 10
356.5156690670863
 20
733.2391659172874
 30
0.0
 11
358.3906690670863
 21
733.2391659172874
 31
0.0
  0
LINE
  5
D2
330
4A
100
AcDbEntity
  8
0
  6
Continuous
 62
     2
100
AcDbLine
 10
354.7656690670863
 20
734.7391659172874
 30
0.0
 11
352.8906690670863
 21
734.7391659172874
 31
0.0
  0
LINE
  5
D3
330
4A
100
AcDbEntity
  8
0
  6
Continuous
 62
     2
100
AcDbLine
 10
352.137505761488
 20
740.4891659172874
 30
0.0
 11
351.8083789474022
 21
739.7749050043498
 31
0.0
  0
LINE
  5
D4
330
4A
100
AcDbEntity
  8
0
  6
Continuous
 62
     2
100
AcDbLine
 10
358.454939924162
 20
741.9891659172874
 30
0.0
 11
355.6406690670863
 21
748.0916234313498
 31
0.0
  0
LINE
  5
D5
330
4A
100
AcDbEntity
  8
0
  6
Continuous
 62
     2
100
AcDbLine
 10
356.5156690670863
 20
727.4891659172874
 30
0.0
 11
356.5156690670863
 21
733.2391659172874
 31
0.0
  0
LINE
  5
D6
330
4A
100
AcDbEntity
  8
0
  6
Continuous
 62
     2
100
AcDbLine
 10
354.7656690670863
 20
733.2391659172874
 30
0.0
 11
354.7656690670863
 21
727.4891659172874
 31
0.0
  0
LINE
  5
D7
330
4A
100
AcDbEntity
  8
0
  6
Continuous
 62
     2
100
AcDbLine
 10
356.5156690670863
 20
740.4891659172874
 30
0.0
 11
359.146695053286
 21
740.4891659172874
 31
0.0
  0
LINE
  5
D8
330
4A
100
AcDbEntity
  8
0
  6
Continuous
 62
     2
100
AcDbLine
 10
356.5156690670863
 20
734.7391659172874
 30
0.0
 11
356.5156690670863
 21
740.4891659172874
 31
0.0
  0
LINE
  5
D9
330
4A
100
AcDbEntity
  8
0
  6
Continuous
 62
     2
100
AcDbLine
 10
354.7656690670863
 20
740.4891659172874
 30
0.0
 11
354.7656690670863
 21
734.7391659172874
 31
0.0
  0
LINE
  5
DA
330
4A
100
AcDbEntity
  8
0
  6
Continuous
 62
     2
100
AcDbLine
 10
352.1373685379102
 20
740.4891659172874
 30
0.0
 11
354.7656690670863
 21
740.4891659172874
 31
0.0
  0
LINE
  5
DB
330
4A
100
AcDbEntity
  8
0
  6
Continuous
 62
     2
100
AcDbLine
 10
352.8286960705002
 20
741.9891659172874
 30
0.0
 11
358.454939924162
 21
741.9891659172874
 31
0.0
  0
LINE
  5
DC
330
4A
100
AcDbEntity
  8
0
  6
Continuous
 62
     2
100
AcDbLine
 10
359.3906690670863
 20
727.4891659172874
 30
0.0
 11
356.5156690670863
 21
727.4891659172874
 31
0.0
  0
LINE
  5
DD
330
4A
100
AcDbEntity
  8
0
  6
Continuous
 62
     2
100
AcDbLine
 10
351.8906690670863
 20
725.9891659172874
 30
0.0
 11
359.3906690670863
 21
725.9891659172874
 31
0.0
  0
LINE
  5
DE
330
4A
100
AcDbEntity
  8
0
  6
Continuous
 62
     2
100
AcDbLine
 10
358.3906690670863
 20
734.7391659172874
 30
0.0
 11
356.5156690670863
 21
734.7391659172874
 31
0.0
  0
LINE
  5
DF
330
4A
100
AcDbEntity
  8
0
  6
Continuous
 62
     2
100
AcDbLine
 10
352.8906690670863
 20
733.2391659172874
 30
0.0
 11
354.7656690670863
 21
733.2391659172874
 31
0.0
  0
LINE
  5
E0
330
4A
100
AcDbEntity
  8
0
  6
Continuous
 62
     2
100
AcDbLine
 10
351.1375585541523
 20
739.5512982065998
 30
0.0
 11
350.9170198206989
 21
739.6615675733265
 31
0.0
  0
LINE
  5
E1
330
4A
100
AcDbEntity
  8
0
  6
Continuous
 62
     2
100
AcDbLine
 10
355.6406690670863
 20
748.0916234313498
 30
0.0
 11
352.8286960705002
 21
741.9891659172874
 31
0.0
  0
LINE
  5
E2
330
4A
100
AcDbEntity
  8
0
  6
Continuous
 62
     2
100
AcDbLine
 10
359.4760908199908
 20
739.7749050043498
 30
0.0
 11
359.146695053286
 21
740.4891659172874
 31
0.0
  0
LINE
  5
E3
330
4A
100
AcDbEntity
  8
0
  6
Continuous
 62
     2
100
AcDbLine
 10
360.3674499466941
 20
739.6615675733265
 30
0.0
 11
360.1469112132407
 21
739.5512982065998
 31
0.0
  0
LINE
  5
E4
330
4A
100
AcDbEntity
  8
0
  6
Continuous
 62
     2
100
AcDbLine
 10
356.4394371999658
 20
749.1474898074828
 30
0.0
 11
360.5895175220873
 21
740.3354402809828
 31
0.0
  0
LINE
  5
E5
330
4A
100
AcDbEntity
  8
0
  6
Continuous
 62
     2
100
AcDbLine
 10
355.3989939006355
 20
749.4891659172874
 30
0.0
 11
355.882344233537
 21
749.4891659172874
 31
0.0
  0
LINE
  5
E6
330
4A
100
AcDbEntity
  8
0
  6
Continuous
 62
     2
100
AcDbLine
 10
350.6949522453058
 20
740.3354402809828
 30
0.0
 11
354.8419009342066
 21
749.1474898074828
 31
0.0
  0
LINE
  5
E7
330
4A
100
AcDbEntity
  8
0
  6
Continuous
 62
     2
100
AcDbLine
 10
344.6406690670863
 20
744.4891659172874
 30
0.0
 11
341.3906690670863
 21
744.4891659172874
 31
0.0
  0
LINE
  5
E8
330
4A
100
AcDbEntity
  8
0
  6
Continuous
 62
     2
100
AcDbLine
 10
344.6406690670863
 20
739.3229426731261
 30
0.0
 11
344.6406690670863
 21
726.7391659172874
 31
0.0
  0
LINE
  5
E9
330
4A
100
AcDbEntity
  8
0
  6
Continuous
 62
     2
100
AcDbLine
 10
346.8274090944907
 20
742.7391659172874
 30
0.0
 11
348.8906690670863
 21
742.7391659172874
 31
0.0
  0
LINE
  5
EA
330
4A
100
AcDbEntity
  8
0
  6
Continuous
 62
     2
100
AcDbLine
 10
346.3906690670863
 20
744.4891659172874
 30
0.0
 11
346.3906690670863
 21
748.7391659172874
 31
0.0
  0
LINE
  5
EB
330
4A
100
AcDbEntity
  8
0
  6
Continuous
 62
     2
100
AcDbLine
 10
342.2993785881062
 20
732.1527405812498
 30
0.0
 11
344.6406690670863
 21
739.3229426731261
 31
0.0
  0
LINE
  5
EC
330
4A
100
AcDbEntity
  8
0
  6
Continuous
 62
     2
100
AcDbLine
 10
344.1782288240948
 20
742.7391659172874
 30
0.0
 11
340.8734704033698
 21
732.6183432538168
 31
0.0
  0
LINE
  5
ED
330
4A
100
AcDbEntity
  8
0
  6
Continuous
 62
     2
100
AcDbLine
 10
348.0496788094165
 20
738.0194960031772
 30
0.0
 11
346.3906690670863
 21
740.6785057455074
 31
0.0
  0
LINE
  5
EE
330
4A
100
AcDbEntity
  8
0
  6
Continuous
 62
     2
100
AcDbLine
 10
346.8274090944907
 20
742.7391659172874
 30
0.0
 11
349.1103389811963
 21
739.080156174957
 31
0.0
  0
LINE
  5
EF
330
4A
100
AcDbEntity
  8
0
  6
Continuous
 62
     2
100
AcDbLine
 10
340.6406690670863
 20
743.7391659172874
 30
0.0
 11
340.6406690670863
 21
743.4891659172874
 31
0.0
  0
LINE
  5
F0
330
4A
100
AcDbEntity
  8
0
  6
Continuous
 62
     2
100
AcDbLine
 10
348.8906690670863
 20
744.4891659172874
 30
0.0
 11
346.4167572331272
 21
744.4891659172874
 31
0.0
  0
LINE
  5
F1
330
4A
100
AcDbEntity
  8
0
  6
Continuous
 62
     2
100
AcDbLine
 10
349.6406690670863
 20
743.4891659172874
 30
0.0
 11
349.6406690670863
 21
743.7391659172874
 31
0.0
  0
LINE
  5
F2
330
4A
100
AcDbEntity
  8
0
  6
Continuous
 62
     2
100
AcDbLine
 10
341.3906690670863
 20
742.7391659172874
 30
0.0
 11
344.1782288240948
 21
742.7391659172874
 31
0.0
  0
LINE
  5
F3
330
4A
100
AcDbEntity
  8
0
  6
Continuous
 62
     2
100
AcDbLine
 10
344.6406690670863
 20
748.7391659172874
 30
0.0
 11
344.6406690670863
 21
744.4891659172874
 31
0.0
  0
LINE
  5
F4
330
4A
100
AcDbEntity
  8
0
  6
Continuous
 62
     2
100
AcDbLine
 10
345.6406690670863
 20
749.4891659172874
 30
0.0
 11
345.3906690670863
 21
749.4891659172874
 31
0.0
  0
LINE
  5
F5
330
4A
100
AcDbEntity
  8
0
  6
Continuous
 62
     2
100
AcDbLine
 10
346.3906690670863
 20
726.7391659172874
 30
0.0
 11
346.3906690670863
 21
740.6785057455074
 31
0.0
  0
LINE
  5
F6
330
4A
100
AcDbEntity
  8
0
  6
Continuous
 62
     2
100
AcDbLine
 10
345.3906690670863
 20
725.9891659172874
 30
0.0
 11
345.6406690670863
 21
725.9891659172874
 31
0.0
  0
LINE
  5
F7
330
4A
100
AcDbEntity
  8
0
  6
Continuous
 62
     2
100
AcDbLine
 10
289.0024559320666
 20
742.6049448262676
 30
0.0
 11
288.5247125629381
 21
741.7774690379579
 31
0.0
  0
LINE
  5
F8
330
4A
100
AcDbEntity
  8
0
  6
Continuous
 62
     2
100
AcDbLine
 10
294.8906690670863
 20
742.6049448262677
 30
0.0
 11
289.0024559320666
 21
742.6049448262676
 31
0.0
  0
LINE
  5
F9
330
4A
100
AcDbEntity
  8
0
  6
Continuous
 62
     2
100
AcDbLine
 10
295.6406690670863
 20
743.8549448262676
 30
0.0
 11
295.6406690670863
 21
743.3549448262676
 31
0.0
  0
LINE
  5
FA
330
4A
100
AcDbEntity
  8
0
  6
Continuous
 62
     2
100
AcDbLine
 10
290.1571564704459
 20
744.6049448262676
 30
0.0
 11
294.8906690670863
 21
744.6049448262676
 31
0.0
  0
LINE
  5
FB
330
4A
100
AcDbEntity
  8
0
  6
Continuous
 62
     2
100
AcDbLine
 10
286.7926617553693
 20
742.7774690379579
 30
0.0
 11
290.2926617553693
 21
748.8396468644489
 31
0.0
  0
LINE
  5
FC
330
4A
100
AcDbEntity
  8
0
  6
Continuous
 62
     2
100
AcDbLine
 10
287.5001935100997
 20
741.5029499851196
 30
0.0
 11
287.0671808082075
 21
741.7529499851196
 31
0.0
  0
LINE
  5
FD
330
4A
100
AcDbEntity
  8
0
  6
Continuous
 62
     2
100
AcDbLine
 10
292.0247125629381
 20
747.8396468644489
 30
0.0
 11
290.1571564704459
 21
744.6049448262676
 31
0.0
  0
LINE
  5
FE
330
4A
100
AcDbEntity
  8
0
  6
Continuous
 62
     2
100
AcDbLine
 10
291.3171808082075
 20
749.1141659172874
 30
0.0
 11
291.7501935100997
 21
748.8641659172874
 31
0.0
  0
LINE
  5
FF
330
4A
100
AcDbEntity
  8
0
  6
Continuous
 62
     2
100
AcDbLine
 10
278.6406690670863
 20
733.4891659172874
 30
0.0
 11
278.6406690670863
 21
730.7391659172874
 31
0.0
  0
LINE
  5
100
330
4A
100
AcDbEntity
  8
0
  6
Continuous
 62
     2
100
AcDbLine
 10
282.6406690670863
 20
733.4891659172874
 30
0.0
 11
278.6406690670863
 21
733.4891659172874
 31
0.0
  0
LINE
  5
101
330
4A
100
AcDbEntity
  8
0
  6
Continuous
 62
     2
100
AcDbLine
 10
282.6406690670863
 20
730.7391659172874
 30
0.0
 11
282.6406690670863
 21
733.4891659172874
 31
0.0
  0
LINE
  5
102
330
4A
100
AcDbEntity
  8
0
  6
Continuous
 62
     2
100
AcDbLine
 10
278.6406690670863
 20
730.7391659172874
 30
0.0
 11
282.6406690670863
 21
730.7391659172874
 31
0.0
  0
LINE
  5
103
330
4A
100
AcDbEntity
  8
0
  6
Continuous
 62
     2
100
AcDbLine
 10
278.6406690670863
 20
737.7391659172874
 30
0.0
 11
278.6406690670863
 21
734.7391659172874
 31
0.0
  0
LINE
  5
104
330
4A
100
AcDbEntity
  8
0
  6
Continuous
 62
     2
100
AcDbLine
 10
282.6406690670863
 20
737.7391659172874
 30
0.0
 11
278.6406690670863
 21
737.7391659172874
 31
0.0
  0
LINE
  5
105
330
4A
100
AcDbEntity
  8
0
  6
Continuous
 62
     2
100
AcDbLine
 10
282.6406690670863
 20
734.7391659172874
 30
0.0
 11
282.6406690670863
 21
737.7391659172874
 31
0.0
  0
LINE
  5
106
330
4A
100
AcDbEntity
  8
0
  6
Continuous
 62
     2
100
AcDbLine
 10
278.6406690670863
 20
734.7391659172874
 30
0.0
 11
282.6406690670863
 21
734.7391659172874
 31
0.0
  0
LINE
  5
107
330
4A
100
AcDbEntity
  8
0
  6
Continuous
 62
     2
100
AcDbLine
 10
278.1406690670863
 20
725.9891659172874
 30
0.0
 11
277.8906690670863
 21
725.9891659172874
 31
0.0
  0
LINE
  5
108
330
4A
100
AcDbEntity
  8
0
  6
Continuous
 62
     2
100
AcDbLine
 10
278.6406690670863
 20
729.4891659172874
 30
0.0
 11
278.6406690670863
 21
726.4891659172874
 31
0.0
  0
LINE
  5
109
330
4A
100
AcDbEntity
  8
0
  6
Continuous
 62
     2
100
AcDbLine
 10
282.6406690670863
 20
729.4891659172874
 30
0.0
 11
278.6406690670863
 21
729.4891659172874
 31
0.0
  0
LINE
  5
10A
330
4A
100
AcDbEntity
  8
0
  6
Continuous
 62
     2
100
AcDbLine
 10
282.6406690670863
 20
726.4891659172874
 30
0.0
 11
282.6406690670863
 21
729.4891659172874
 31
0.0
  0
LINE
  5
10B
330
4A
100
AcDbEntity
  8
0
  6
Continuous
 62
     2
100
AcDbLine
 10
283.3906690670863
 20
725.9891659172874
 30
0.0
 11
283.1406690670863
 21
725.9891659172874
 31
0.0
  0
LINE
  5
10C
330
4A
100
AcDbEntity
  8
0
  6
Continuous
 62
     2
100
AcDbLine
 10
283.8906690670863
 20
738.4891659172874
 30
0.0
 11
283.8906690670863
 21
726.4891659172874
 31
0.0
  0
LINE
  5
10D
330
4A
100
AcDbEntity
  8
0
  6
Continuous
 62
     2
100
AcDbLine
 10
277.8906690670863
 20
738.9891659172874
 30
0.0
 11
283.3906690670863
 21
738.9891659172874
 31
0.0
  0
LINE
  5
10E
330
4A
100
AcDbEntity
  8
0
  6
Continuous
 62
     2
100
AcDbLine
 10
277.3906690670863
 20
726.4891659172874
 30
0.0
 11
277.3906690670863
 21
738.4891659172874
 31
0.0
  0
LINE
  5
10F
330
4A
100
AcDbEntity
  8
0
  6
Continuous
 62
     2
100
AcDbLine
 10
279.1406690670863
 20
745.9891659172874
 30
0.0
 11
279.1406690670863
 21
741.9891659172874
 31
0.0
  0
LINE
  5
110
330
4A
100
AcDbEntity
  8
0
  6
Continuous
 62
     2
100
AcDbLine
 10
282.1406690670863
 20
745.9891659172874
 30
0.0
 11
279.1406690670863
 21
745.9891659172874
 31
0.0
  0
LINE
  5
111
330
4A
100
AcDbEntity
  8
0
  6
Continuous
 62
     2
100
AcDbLine
 10
282.1406690670863
 20
741.9891659172874
 30
0.0
 11
282.1406690670863
 21
745.9891659172874
 31
0.0
  0
LINE
  5
112
330
4A
100
AcDbEntity
  8
0
  6
Continuous
 62
     2
100
AcDbLine
 10
279.1406690670863
 20
741.9891659172874
 30
0.0
 11
282.1406690670863
 21
741.9891659172874
 31
0.0
  0
LINE
  5
113
330
4A
100
AcDbEntity
  8
0
  6
Continuous
 62
     2
100
AcDbLine
 10
276.3406690670862
 20
747.4891659172874
 30
0.0
 11
277.8906690670863
 21
747.4891659172874
 31
0.0
  0
LINE
  5
114
330
4A
100
AcDbEntity
  8
0
  6
Continuous
 62
     2
100
AcDbLine
 10
275.6406690670863
 20
746.6891659172874
 30
0.0
 11
275.6406690670863
 21
746.7891659172874
 31
0.0
  0
LINE
  5
115
330
4A
100
AcDbEntity
  8
0
  6
Continuous
 62
     2
100
AcDbLine
 10
277.8906690670863
 20
745.9891659172874
 30
0.0
 11
276.3406690670862
 21
745.9891659172874
 31
0.0
  0
LINE
  5
116
330
4A
100
AcDbEntity
  8
0
  6
Continuous
 62
     2
100
AcDbLine
 10
277.8906690670863
 20
741.9891659172874
 30
0.0
 11
277.8906690670863
 21
745.9891659172874
 31
0.0
  0
LINE
  5
117
330
4A
100
AcDbEntity
  8
0
  6
Continuous
 62
     2
100
AcDbLine
 10
276.3406690670862
 20
741.9891659172874
 30
0.0
 11
277.8906690670863
 21
741.9891659172874
 31
0.0
  0
LINE
  5
118
330
4A
100
AcDbEntity
  8
0
  6
Continuous
 62
     2
100
AcDbLine
 10
275.6406690670863
 20
741.1891659172874
 30
0.0
 11
275.6406690670863
 21
741.2891659172874
 31
0.0
  0
LINE
  5
119
330
4A
100
AcDbEntity
  8
0
  6
Continuous
 62
     2
100
AcDbLine
 10
284.9406690670862
 20
740.4891659172874
 30
0.0
 11
276.3406690670862
 21
740.4891659172874
 31
0.0
  0
LINE
  5
11A
330
4A
100
AcDbEntity
  8
0
  6
Continuous
 62
     2
100
AcDbLine
 10
285.6406690670863
 20
741.2891659172874
 30
0.0
 11
285.6406690670863
 21
741.1891659172874
 31
0.0
  0
LINE
  5
11B
330
4A
100
AcDbEntity
  8
0
  6
Continuous
 62
     2
100
AcDbLine
 10
283.3906690670863
 20
741.9891659172874
 30
0.0
 11
284.9406690670862
 21
741.9891659172874
 31
0.0
  0
LINE
  5
11C
330
4A
100
AcDbEntity
  8
0
  6
Continuous
 62
     2
100
AcDbLine
 10
283.3906690670863
 20
745.9891659172874
 30
0.0
 11
283.3906690670863
 21
741.9891659172874
 31
0.0
  0
LINE
  5
11D
330
4A
100
AcDbEntity
  8
0
  6
Continuous
 62
     2
100
AcDbLine
 10
284.9406690670862
 20
745.9891659172874
 30
0.0
 11
283.3906690670863
 21
745.9891659172874
 31
0.0
  0
LINE
  5
11E
330
4A
100
AcDbEntity
  8
0
  6
Continuous
 62
     2
100
AcDbLine
 10
285.6406690670863
 20
746.7891659172874
 30
0.0
 11
285.6406690670863
 21
746.6891659172874
 31
0.0
  0
LINE
  5
11F
330
4A
100
AcDbEntity
  8
0
  6
Continuous
 62
     2
100
AcDbLine
 10
283.3906690670863
 20
747.4891659172874
 30
0.0
 11
284.9406690670862
 21
747.4891659172874
 31
0.0
  0
LINE
  5
120
330
4A
100
AcDbEntity
  8
0
  6
Continuous
 62
     2
100
AcDbLine
 10
283.3906690670863
 20
748.9891659172874
 30
0.0
 11
283.3906690670863
 21
747.4891659172874
 31
0.0
  0
LINE
  5
121
330
4A
100
AcDbEntity
  8
0
  6
Continuous
 62
     2
100
AcDbLine
 10
282.6406690670863
 20
749.4891659172874
 30
0.0
 11
282.8906690670863
 21
749.4891659172874
 31
0.0
  0
LINE
  5
122
330
4A
100
AcDbEntity
  8
0
  6
Continuous
 62
     2
100
AcDbLine
 10
282.1406690670863
 20
747.4891659172874
 30
0.0
 11
282.1406690670863
 21
748.9891659172874
 31
0.0
  0
LINE
  5
123
330
4A
100
AcDbEntity
  8
0
  6
Continuous
 62
     2
100
AcDbLine
 10
279.1406690670863
 20
747.4891659172874
 30
0.0
 11
282.1406690670863
 21
747.4891659172874
 31
0.0
  0
LINE
  5
124
330
4A
100
AcDbEntity
  8
0
  6
Continuous
 62
     2
100
AcDbLine
 10
279.1406690670863
 20
748.9891659172874
 30
0.0
 11
279.1406690670863
 21
747.4891659172874
 31
0.0
  0
LINE
  5
125
330
4A
100
AcDbEntity
  8
0
  6
Continuous
 62
     2
100
AcDbLine
 10
278.3906690670863
 20
749.4891659172874
 30
0.0
 11
278.6406690670863
 21
749.4891659172874
 31
0.0
  0
LINE
  5
126
330
4A
100
AcDbEntity
  8
0
  6
Continuous
 62
     2
100
AcDbLine
 10
277.8906690670863
 20
747.4891659172874
 30
0.0
 11
277.8906690670863
 21
748.9891659172874
 31
0.0
  0
LINE
  5
127
330
4A
100
AcDbEntity
  8
0
  6
Continuous
 62
     2
100
AcDbLine
 10
327.1406690670863
 20
740.9891659172874
 30
0.0
 11
324.0085348715431
 21
740.9891659172874
 31
0.0
  0
LINE
  5
128
330
4A
100
AcDbEntity
  8
0
  6
Continuous
 62
     2
100
AcDbLine
 10
328.1406690670863
 20
742.4891659172874
 30
0.0
 11
328.1406690670863
 21
741.9891659172874
 31
0.0
  0
LINE
  5
129
330
4A
100
AcDbEntity
  8
0
  6
Continuous
 62
     2
100
AcDbLine
 10
321.8011505861789
 20
743.4891659172874
 30
0.0
 11
327.1406690670863
 21
743.4891659172874
 31
0.0
  0
LINE
  5
12A
330
4A
100
AcDbEntity
  8
0
  6
Continuous
 62
     2
100
AcDbLine
 10
312.2728032626294
 20
740.9891659172874
 30
0.0
 11
309.1406690670863
 21
740.9891659172874
 31
0.0
  0
LINE
  5
12B
330
4A
100
AcDbEntity
  8
0
  6
Continuous
 62
     2
100
AcDbLine
 10
308.1406690670863
 20
741.9891659172874
 30
0.0
 11
308.1406690670863
 21
742.4891659172874
 31
0.0
  0
LINE
  5
12C
330
4A
100
AcDbEntity
  8
0
  6
Continuous
 62
     2
100
AcDbLine
 10
309.1406690670863
 20
743.4891659172874
 30
0.0
 11
314.4801875479938
 21
743.4891659172874
 31
0.0
  0
LINE
  5
12D
330
4A
100
AcDbEntity
  8
0
  6
Continuous
 62
     2
100
AcDbLine
 10
316.8906690670863
 20
748.4891659172874
 30
0.0
 11
316.8906690670863
 21
726.9891659172874
 31
0.0
  0
LINE
  5
12E
330
4A
100
AcDbEntity
  8
0
  6
Continuous
 62
     2
100
AcDbLine
 10
318.3906690670863
 20
749.4891659172874
 30
0.0
 11
317.8906690670863
 21
749.4891659172874
 31
0.0
  0
LINE
  5
12F
330
4A
100
AcDbEntity
  8
0
  6
Continuous
 62
     2
100
AcDbLine
 10
319.3906690670863
 20
726.9891659172874
 30
0.0
 11
319.3906690670863
 21
748.4891659172874
 31
0.0
  0
LINE
  5
130
330
4A
100
AcDbEntity
  8
0
  6
Continuous
 62
     2
100
AcDbLine
 10
317.8906690670863
 20
725.9891659172874
 30
0.0
 11
318.3906690670863
 21
725.9891659172874
 31
0.0
  0
LINE
  5
131
330
4A
100
AcDbEntity
  8
0
  6
Continuous
 62
     2
100
AcDbLine
 10
370.1406690670863
 20
739.9093585060591
 30
0.0
 11
370.1406690670863
 21
741.9424778518737
 31
0.0
  0
LINE
  5
132
330
4A
100
AcDbEntity
  8
0
  6
Continuous
 62
     2
100
AcDbLine
 10
370.1406690670863
 20
745.4780117578064
 30
0.0
 11
370.1406690670863
 21
752.4754805674163
 31
0.0
  0
LINE
  5
133
330
4A
100
AcDbEntity
  8
0
  6
Continuous
 62
     2
100
AcDbLine
 10
359.8795149076043
 20
755.7391659172874
 30
0.0
 11
369.8688205110251
 21
755.7391659172874
 31
0.0
  0
LINE
  5
134
330
4A
100
AcDbEntity
  8
0
  6
Continuous
 62
     2
100
AcDbLine
 10
370.1406690670863
 20
739.9093585060591
 30
0.0
 11
371.1572287399937
 21
740.9259181789664
 31
0.0
  0
LINE
  5
135
330
4A
100
AcDbEntity
  8
0
  6
Continuous
 62
     2
100
AcDbLine
 10
371.1572287399937
 20
740.9259181789664
 30
0.0
 11
370.1406690670863
 21
741.9424778518737
 31
0.0
  0
LINE
  5
136
330
4A
100
AcDbEntity
  8
0
  6
Continuous
 62
     2
100
AcDbLine
 10
372.92499569296
 20
739.158151226
 30
0.0
 11
370.1406690670863
 21
736.3738246001262
 31
0.0
  0
LINE
  5
137
330
4A
100
AcDbEntity
  8
0
  6
Continuous
 62
     2
100
AcDbLine
 10
372.9249956929599
 20
742.6936851319327
 30
0.0
 11
370.1406690670863
 21
745.4780117578064
 31
0.0
  0
LINE
  5
138
330
4A
100
AcDbEntity
  8
0
  6
Continuous
 62
     2
100
AcDbLine
 10
353.5060103842466
 20
719.7391659172874
 30
0.0
 11
360.1406690670924
 21
719.7391659172874
 31
0.0
  0
LINE
  5
139
330
4A
100
AcDbEntity
  8
0
  6
Continuous
 62
     2
100
AcDbLine
 10
347.5745470057335
 20
719.7391659172874
 30
0.0
 11
349.9704764783143
 21
719.7391659172874
 31
0.0
  0
LINE
  5
13A
330
4A
100
AcDbEntity
  8
0
  6
Continuous
 62
     2
100
AcDbLine
 10
337.4043544169554
 20
719.7391659172874
 30
0.0
 11
344.0390130998011
 21
719.7391659172874
 31
0.0
  0
LINE
  5
13B
330
4A
100
AcDbEntity
  8
0
  6
Continuous
 62
     2
100
AcDbLine
 10
331.4728910384428
 20
719.7391659172874
 30
0.0
 11
333.8688205110232
 21
719.7391659172874
 31
0.0
  0
LINE
  5
13C
330
4A
100
AcDbEntity
  8
0
  6
Continuous
 62
     2
100
AcDbLine
 10
321.3026984496655
 20
719.7391659172874
 30
0.0
 11
327.9373571325108
 21
719.7391659172874
 31
0.0
  0
LINE
  5
13D
330
4A
100
AcDbEntity
  8
0
  6
Continuous
 62
     2
100
AcDbLine
 10
315.371235071152
 20
719.7391659172874
 30
0.0
 11
317.7671645437328
 21
719.7391659172874
 31
0.0
  0
LINE
  5
13E
330
4A
100
AcDbEntity
  8
0
  6
Continuous
 62
     2
100
AcDbLine
 10
305.2010424823739
 20
719.7391659172874
 30
0.0
 11
311.8357011652191
 21
719.7391659172874
 31
0.0
  0
LINE
  5
13F
330
4A
100
AcDbEntity
  8
0
  6
Continuous
 62
     2
100
AcDbLine
 10
299.2695791038616
 20
719.7391659172874
 30
0.0
 11
301.665508576442
 21
719.7391659172874
 31
0.0
  0
LINE
  5
140
330
4A
100
AcDbEntity
  8
0
  6
Continuous
 62
     2
100
AcDbLine
 10
289.0993865150836
 20
719.7391659172874
 30
0.0
 11
295.7340451979294
 21
719.7391659172874
 31
0.0
  0
LINE
  5
141
330
4A
100
AcDbEntity
  8
0
  6
Continuous
 62
     2
100
AcDbLine
 10
283.1679231365705
 20
719.7391659172874
 30
0.0
 11
285.5638526091512
 21
719.7391659172874
 31
0.0
  0
LINE
  5
142
330
4A
100
AcDbEntity
  8
0
  6
Continuous
 62
     2
100
AcDbLine
 10
272.9977305477923
 20
719.7391659172874
 30
0.0
 11
279.6323892306382
 21
719.7391659172874
 31
0.0
  0
LINE
  5
143
330
4A
100
AcDbEntity
  8
0
  6
Continuous
 62
     2
100
AcDbLine
 10
267.0662671692797
 20
719.7391659172874
 30
0.0
 11
269.4621966418602
 21
719.7391659172874
 31
0.0
  0
LINE
  5
144
330
4A
100
AcDbEntity
  8
0
  6
Continuous
 62
     2
100
AcDbLine
 10
266.1406690670862
 20
728.983760403871
 30
0.0
 11
266.1406690670862
 21
720.6647640194808
 31
0.0
  0
LINE
  5
145
330
4A
100
AcDbEntity
  8
0
  6
Continuous
 62
     2
100
AcDbLine
 10
266.1406690670862
 20
733.2308860808387
 30
0.0
 11
266.1406690670862
 21
732.5192943098037
 31
0.0
  0
LINE
  5
146
330
4A
100
AcDbEntity
  8
0
  6
Continuous
 62
     2
100
AcDbLine
 10
266.1406690670862
 20
745.0854163711615
 30
0.0
 11
266.1406690670862
 21
736.7664199867713
 31
0.0
  0
LINE
  5
147
330
4A
100
AcDbEntity
  8
0
  6
Continuous
 62
     2
100
AcDbLine
 10
266.1406690670862
 20
749.3325420481294
 30
0.0
 11
266.1406690670862
 21
748.6209502770928
 31
0.0
  0
LINE
  5
148
330
4A
100
AcDbEntity
  8
0
  6
Continuous
 62
     2
100
AcDbLine
 10
266.1406690670862
 20
733.2308860808387
 30
0.0
 11
260.2134039219247
 21
739.158151226
 31
0.0
  0
LINE
  5
149
330
4A
100
AcDbEntity
  8
0
  6
Continuous
 62
     2
100
AcDbLine
 10
266.1406690670862
 20
728.983760403871
 30
0.0
 11
261.9811708748914
 21
724.8242622116759
 31
0.0
  0
LINE
  5
14A
330
4A
100
AcDbEntity
  8
0
  6
Continuous
 62
     2
100
AcDbLine
 10
267.0662671692797
 20
719.7391659172874
 30
0.0
 11
268.26423190557
 21
718.5412011809972
 31
0.0
  0
LINE
  5
14B
330
4A
100
AcDbEntity
  8
0
  6
Continuous
 62
     2
100
AcDbLine
 10
279.6323892306382
 20
719.7391659172874
 30
0.0
 11
282.5981209198943
 21
716.7734342280318
 31
0.0
  0
LINE
  5
14C
330
4A
100
AcDbEntity
  8
0
  6
Continuous
 62
     2
100
AcDbLine
 10
283.1679231365705
 20
719.7391659172874
 30
0.0
 11
284.3658878728609
 21
718.541201180997
 31
0.0
  0
LINE
  5
14D
330
4A
100
AcDbEntity
  8
0
  6
Continuous
 62
     2
100
AcDbLine
 10
295.7340451979294
 20
719.7391659172874
 30
0.0
 11
298.6997768871861
 21
716.7734342280312
 31
0.0
  0
LINE
  5
14E
330
4A
100
AcDbEntity
  8
0
  6
Continuous
 62
     2
100
AcDbLine
 10
299.2695791038616
 20
719.7391659172874
 30
0.0
 11
300.4675438401517
 21
718.5412011809972
 31
0.0
  0
LINE
  5
14F
330
4A
100
AcDbEntity
  8
0
  6
Continuous
 62
     2
100
AcDbLine
 10
311.8357011652191
 20
719.7391659172874
 30
0.0
 11
313.8357011652191
 21
717.7391659172874
 31
0.0
  0
LINE
  5
150
330
4A
100
AcDbEntity
  8
0
  6
Continuous
 62
     2
100
AcDbLine
 10
315.371235071152
 20
719.7391659172874
 30
0.0
 11
316.5691998074423
 21
718.541201180997
 31
0.0
  0
LINE
  5
151
330
4A
100
AcDbEntity
  8
0
  6
Continuous
 62
     2
100
AcDbLine
 10
327.9373571325108
 20
719.7391659172874
 30
0.0
 11
330.9030888217675
 21
716.7734342280312
 31
0.0
  0
LINE
  5
152
330
4A
100
AcDbEntity
  8
0
  6
Continuous
 62
     2
100
AcDbLine
 10
331.4728910384428
 20
719.7391659172874
 30
0.0
 11
332.6708557747329
 21
718.5412011809972
 31
0.0
  0
LINE
  5
153
330
4A
100
AcDbEntity
  8
0
  6
Continuous
 62
     2
100
AcDbLine
 10
370.1406690670863
 20
720.2721686328364
 30
0.0
 11
372.9249956929599
 21
723.0564952587096
 31
0.0
  0
LINE
  5
154
330
4A
100
AcDbEntity
  8
0
  6
Continuous
 62
     2
100
AcDbLine
 10
363.6762029730246
 20
719.7391659172874
 30
0.0
 11
366.072132445605
 21
719.7391659172874
 31
0.0
  0
LINE
  5
155
330
4A
100
AcDbEntity
  8
0
  6
Continuous
 62
     2
100
AcDbLine
 10
369.607666351537
 20
719.7391659172874
 30
0.0
 11
370.1406690670863
 21
719.7391659172874
 31
0.0
  0
LINE
  5
156
330
4A
100
AcDbEntity
  8
0
  6
Continuous
 62
     2
100
AcDbLine
 10
344.0390130998011
 20
719.7391659172874
 30
0.0
 11
347.0047447890572
 21
716.7734342280318
 31
0.0
  0
LINE
  5
157
330
4A
100
AcDbEntity
  8
0
  6
Continuous
 62
     2
100
AcDbLine
 10
347.5745470057335
 20
719.7391659172874
 30
0.0
 11
348.7725117420238
 21
718.541201180997
 31
0.0
  0
LINE
  5
158
330
4A
100
AcDbEntity
  8
0
  6
Continuous
 62
     2
100
AcDbLine
 10
360.1406690670924
 20
719.7391659172874
 30
0.0
 11
363.1064007563491
 21
716.7734342280312
 31
0.0
  0
LINE
  5
159
330
4A
100
AcDbEntity
  8
0
  6
Continuous
 62
     2
100
AcDbLine
 10
363.6762029730246
 20
719.7391659172874
 30
0.0
 11
364.8741677093149
 21
718.5412011809972
 31
0.0
  0
LINE
  5
15A
330
4A
100
AcDbEntity
  8
0
  6
Continuous
 62
     2
100
AcDbLine
 10
370.1406690670863
 20
723.8077025387686
 30
0.0
 11
370.4773617562319
 21
724.1443952279142
 31
0.0
  0
LINE
  5
15B
330
4A
100
AcDbEntity
  8
0
  6
Continuous
 62
     2
100
AcDbLine
 10
370.1406690670863
 20
729.3763557905161
 30
0.0
 11
370.1406690670863
 21
736.3738246001262
 31
0.0
  0
LINE
  5
15C
330
4A
100
AcDbEntity
  8
0
  6
Continuous
 62
     2
100
AcDbLine
 10
370.1406690670863
 20
723.8077025387686
 30
0.0
 11
370.1406690670863
 21
725.4647528711737
 31
0.0
  0
LINE
  5
15D
330
4A
100
AcDbEntity
  8
0
  6
Continuous
 62
     2
100
AcDbLine
 10
370.4773617562319
 20
724.1443952279142
 30
0.0
 11
371.1572287399937
 21
724.8242622116759
 31
0.0
  0
LINE
  5
15E
330
4A
100
AcDbEntity
  8
0
  6
Continuous
 62
     2
100
AcDbLine
 10
370.1406690670863
 20
725.4647528711737
 30
0.0
 11
370.1406690670863
 21
725.8408218845834
 31
0.0
  0
LINE
  5
15F
330
4A
100
AcDbEntity
  8
0
  6
Continuous
 62
     2
100
AcDbLine
 10
370.1406690670863
 20
729.3763557905161
 30
0.0
 11
372.92499569296
 21
726.5920291646423
 31
0.0
  0
LINE
  5
160
330
4A
100
AcDbEntity
  8
0
  6
Continuous
 62
     2
100
AcDbLine
 10
353.7671645437345
 20
755.7391659172874
 30
0.0
 11
355.0555727727029
 21
757.0275741462558
 31
0.0
  0
LINE
  5
161
330
4A
100
AcDbEntity
  8
0
  6
Continuous
 62
     2
100
AcDbLine
 10
353.7671645437345
 20
755.7391659172874
 30
0.0
 11
343.7778589403133
 21
755.7391659172874
 31
0.0
  0
LINE
  5
162
330
4A
100
AcDbEntity
  8
0
  6
Continuous
 62
     2
100
AcDbLine
 10
370.1406690670863
 20
752.4754805674163
 30
0.0
 11
372.9249956929599
 21
755.2598071932895
 31
0.0
  0
LINE
  5
163
330
4A
100
AcDbEntity
  8
0
  6
Continuous
 62
     2
100
AcDbLine
 10
369.8688205110251
 20
755.7391659172874
 30
0.0
 11
371.1572287399937
 21
757.0275741462558
 31
0.0
  0
LINE
  5
164
330
4A
100
AcDbEntity
  8
0
  6
Continuous
 62
     2
100
AcDbLine
 10
337.6655085764434
 20
755.7391659172874
 30
0.0
 11
327.6762029730227
 21
755.7391659172874
 31
0.0
  0
LINE
  5
165
330
4A
100
AcDbEntity
  8
0
  6
Continuous
 62
     2
100
AcDbLine
 10
337.6655085764434
 20
755.7391659172874
 30
0.0
 11
338.9539168054121
 21
757.0275741462558
 31
0.0
  0
LINE
  5
166
330
4A
100
AcDbEntity
  8
0
  6
Continuous
 62
     2
100
AcDbLine
 10
321.5638526091528
 20
755.7391659172874
 30
0.0
 11
311.5745470057319
 21
755.7391659172874
 31
0.0
  0
LINE
  5
167
330
4A
100
AcDbEntity
  8
0
  6
Continuous
 62
     2
100
AcDbLine
 10
321.5638526091528
 20
755.7391659172874
 30
0.0
 11
322.8522608381213
 21
757.0275741462558
 31
0.0
  0
LINE
  5
168
330
4A
100
AcDbEntity
  8
0
  6
Continuous
 62
     2
100
AcDbLine
 10
305.462196641862
 20
755.7391659172874
 30
0.0
 11
295.4728910384412
 21
755.7391659172874
 31
0.0
  0
LINE
  5
169
330
4A
100
AcDbEntity
  8
0
  6
Continuous
 62
     2
100
AcDbLine
 10
289.3605406745713
 20
755.7391659172874
 30
0.0
 11
279.3712350711503
 21
755.7391659172874
 31
0.0
  0
LINE
  5
16A
330
4A
100
AcDbEntity
  8
0
  6
Continuous
 62
     2
100
AcDbLine
 10
273.2588847072805
 20
755.7391659172874
 30
0.0
 11
266.1406690670862
 21
755.7391659172874
 31
0.0
  0
LINE
  5
16B
330
4A
100
AcDbEntity
  8
0
  6
Continuous
 62
     2
100
AcDbLine
 10
305.462196641862
 20
755.7391659172874
 30
0.0
 11
306.7506048708306
 21
757.0275741462558
 31
0.0
  0
LINE
  5
16C
330
4A
100
AcDbEntity
  8
0
  6
Continuous
 62
     2
100
AcDbLine
 10
289.3605406745713
 20
755.7391659172874
 30
0.0
 11
290.6489489035398
 21
757.0275741462558
 31
0.0
  0
LINE
  5
16D
330
4A
100
AcDbEntity
  8
0
  6
Continuous
 62
     2
100
AcDbLine
 10
266.1406690670862
 20
745.0854163711615
 30
0.0
 11
261.9811708748914
 21
740.9259181789664
 31
0.0
  0
LINE
  5
16E
330
4A
100
AcDbEntity
  8
0
  6
Continuous
 62
     2
100
AcDbLine
 10
266.1406690670862
 20
748.6209502770928
 30
0.0
 11
260.2134039219249
 21
742.6936851319327
 31
0.0
  0
LINE
  5
16F
330
4A
100
AcDbEntity
  8
0
  6
Continuous
 62
     2
100
AcDbLine
 10
273.2588847072805
 20
755.7391659172874
 30
0.0
 11
274.5472929362491
 21
757.0275741462558
 31
0.0
  0
LINE
  5
170
330
4A
100
AcDbEntity
  8
0
  6
Continuous
 62
     2
100
AcDbLine
 10
418.9811708748982
 20
712.7391659172874
 30
0.0
 11
414.9469025641537
 21
716.7734342280318
 31
0.0
  0
LINE
  5
171
330
4A
100
AcDbEntity
  8
0
  6
Continuous
 62
     2
100
AcDbLine
 10
415.4456369689654
 20
712.7391659172874
 30
0.0
 11
413.1791356111871
 21
715.0056672750655
 31
0.0
  0
LINE
  5
172
330
4A
100
AcDbEntity
  8
0
  6
Continuous
 62
     2
100
AcDbLine
 10
402.8795149076066
 20
712.7391659172874
 30
0.0
 11
398.8452465968618
 21
716.7734342280312
 31
0.0
  0
LINE
  5
173
330
4A
100
AcDbEntity
  8
0
  6
Continuous
 62
     2
100
AcDbLine
 10
399.3439810016743
 20
712.7391659172874
 30
0.0
 11
397.0774796438961
 21
715.0056672750654
 31
0.0
  0
LINE
  5
174
330
4A
100
AcDbEntity
  8
0
  6
Continuous
 62
     2
100
AcDbLine
 10
386.7778589403165
 20
712.7391659172874
 30
0.0
 11
382.7435906295719
 21
716.7734342280319
 31
0.0
  0
LINE
  5
175
330
4A
100
AcDbEntity
  8
0
  6
Continuous
 62
     2
100
AcDbLine
 10
383.2423250343836
 20
712.7391659172874
 30
0.0
 11
380.9758236766054
 21
715.0056672750655
 31
0.0
  0
LINE
  5
176
330
4A
100
AcDbEntity
  8
0
  6
Continuous
 62
     2
100
AcDbLine
 10
370.6762029730251
 20
712.7391659172874
 30
0.0
 11
366.6419346622802
 21
716.7734342280312
 31
0.0
  0
LINE
  5
177
330
4A
100
AcDbEntity
  8
0
  6
Continuous
 62
     2
100
AcDbLine
 10
367.1406690670929
 20
712.7391659172874
 30
0.0
 11
364.8741677093149
 21
715.0056672750654
 31
0.0
  0
LINE
  5
178
330
4A
100
AcDbEntity
  8
0
  6
Continuous
 62
     2
100
AcDbLine
 10
354.5745470057277
 20
712.7391659172874
 30
0.0
 11
350.5402786949906
 21
716.7734342280318
 31
0.0
  0
LINE
  5
179
330
4A
100
AcDbEntity
  8
0
  6
Continuous
 62
     2
100
AcDbLine
 10
351.0390130998021
 20
712.7391659172874
 30
0.0
 11
348.7725117420238
 21
715.0056672750655
 31
0.0
  0
LINE
  5
17A
330
4A
100
AcDbEntity
  8
0
  6
Continuous
 62
     2
100
AcDbLine
 10
338.4728910384434
 20
712.7391659172874
 30
0.0
 11
334.4386227276987
 21
716.7734342280312
 31
0.0
  0
LINE
  5
17B
330
4A
100
AcDbEntity
  8
0
  6
Continuous
 62
     2
100
AcDbLine
 10
334.9373571325111
 20
712.7391659172874
 30
0.0
 11
332.6708557747329
 21
715.0056672750654
 31
0.0
  0
LINE
  5
17C
330
4A
100
AcDbEntity
  8
0
  6
Continuous
 62
     2
100
AcDbLine
 10
306.2695791038619
 20
712.7391659172874
 30
0.0
 11
302.2353107931172
 21
716.7734342280312
 31
0.0
  0
LINE
  5
17D
330
4A
100
AcDbEntity
  8
0
  6
Continuous
 62
     2
100
AcDbLine
 10
302.7340451979299
 20
712.7391659172874
 30
0.0
 11
300.4675438401517
 21
715.0056672750654
 31
0.0
  0
LINE
  5
17E
330
4A
100
AcDbEntity
  8
0
  6
Continuous
 62
     2
100
AcDbLine
 10
290.1679231365719
 20
712.7391659172874
 30
0.0
 11
286.1336548258274
 21
716.7734342280318
 31
0.0
  0
LINE
  5
17F
330
4A
100
AcDbEntity
  8
0
  6
Continuous
 62
     2
100
AcDbLine
 10
286.6323892306391
 20
712.7391659172874
 30
0.0
 11
284.3658878728609
 21
715.0056672750655
 31
0.0
  0
LINE
  5
180
330
4A
100
AcDbEntity
  8
0
  6
Continuous
 62
     2
100
AcDbLine
 10
274.0662671692805
 20
712.7391659172874
 30
0.0
 11
270.0319988585356
 21
716.7734342280312
 31
0.0
  0
LINE
  5
181
330
4A
100
AcDbEntity
  8
0
  6
Continuous
 62
     2
100
AcDbLine
 10
270.5307332633481
 20
712.7391659172874
 30
0.0
 11
268.26423190557
 21
715.0056672750654
 31
0.0
  0
LINE
  5
182
330
4A
100
AcDbEntity
  8
0
  6
Continuous
 62
     2
100
AcDbLine
 10
257.9646112019904
 20
712.7391659172874
 30
0.0
 11
253.9303428912458
 21
716.7734342280319
 31
0.0
  0
LINE
  5
183
330
4A
100
AcDbEntity
  8
0
  6
Continuous
 62
     2
100
AcDbLine
 10
254.4290772960577
 20
712.7391659172874
 30
0.0
 11
252.1625759382794
 21
715.0056672750655
 31
0.0
  0
LINE
  5
184
330
4A
100
AcDbEntity
  8
0
  6
Continuous
 62
     2
100
AcDbLine
 10
241.862955234699
 20
712.7391659172874
 30
0.0
 11
237.8286869239543
 21
716.7734342280312
 31
0.0
  0
LINE
  5
185
330
4A
100
AcDbEntity
  8
0
  6
Continuous
 62
     2
100
AcDbLine
 10
238.3274213287668
 20
712.7391659172874
 30
0.0
 11
236.0609199709888
 21
715.0056672750654
 31
0.0
  0
LINE
  5
186
330
4A
100
AcDbEntity
  8
0
  6
Continuous
 62
     2
100
AcDbLine
 10
225.761299267409
 20
712.7391659172874
 30
0.0
 11
221.7270309566645
 21
716.7734342280318
 31
0.0
  0
LINE
  5
187
330
4A
100
AcDbEntity
  8
0
  6
Continuous
 62
     2
100
AcDbLine
 10
222.2257653614761
 20
712.7391659172874
 30
0.0
 11
219.9592640036979
 21
715.0056672750655
 31
0.0
  0
LINE
  5
188
330
4A
100
AcDbEntity
  8
0
  6
Continuous
 62
     2
100
AcDbLine
 10
426.1406690670862
 20
715.4010786696055
 30
0.0
 11
423.4787563147675
 21
712.7391659172874
 31
0.0
  0
LINE
  5
189
330
4A
100
AcDbEntity
  8
0
  6
Continuous
 62
     2
100
AcDbLine
 10
397.0774796438961
 20
715.0056672750654
 30
0.0
 11
394.810978286118
 21
712.7391659172874
 31
0.0
  0
LINE
  5
18A
330
4A
100
AcDbEntity
  8
0
  6
Continuous
 62
     2
100
AcDbLine
 10
395.3097126909307
 20
716.7734342280312
 30
0.0
 11
391.2754443801858
 21
712.7391659172874
 31
0.0
  0
LINE
  5
18B
330
4A
100
AcDbEntity
  8
0
  6
Continuous
 62
     2
100
AcDbLine
 10
411.4113686582205
 20
716.7734342280318
 30
0.0
 11
407.3771003474759
 21
712.7391659172874
 31
0.0
  0
LINE
  5
18C
330
4A
100
AcDbEntity
  8
0
  6
Continuous
 62
     2
100
AcDbLine
 10
413.1791356111871
 20
715.0056672750655
 30
0.0
 11
410.9126342534088
 21
712.7391659172874
 31
0.0
  0
LINE
  5
18D
330
4A
100
AcDbEntity
  8
0
  6
Continuous
 62
     2
100
AcDbLine
 10
379.2080567236391
 20
716.7734342280319
 30
0.0
 11
375.1737884128943
 21
712.7391659172874
 31
0.0
  0
LINE
  5
18E
330
4A
100
AcDbEntity
  8
0
  6
Continuous
 62
     2
100
AcDbLine
 10
380.9758236766054
 20
715.0056672750655
 30
0.0
 11
378.7093223188272
 21
712.7391659172874
 31
0.0
  0
LINE
  5
18F
330
4A
100
AcDbEntity
  8
0
  6
Continuous
 62
     2
100
AcDbLine
 10
364.8741677093149
 20
715.0056672750654
 30
0.0
 11
362.6076663515368
 21
712.7391659172874
 31
0.0
  0
LINE
  5
190
330
4A
100
AcDbEntity
  8
0
  6
Continuous
 62
     2
100
AcDbLine
 10
363.1064007563491
 20
716.7734342280312
 30
0.0
 11
359.0721324456043
 21
712.7391659172874
 31
0.0
  0
LINE
  5
191
330
4A
100
AcDbEntity
  8
0
  6
Continuous
 62
     2
100
AcDbLine
 10
332.6708557747329
 20
715.0056672750654
 30
0.0
 11
330.4043544169549
 21
712.7391659172874
 31
0.0
  0
LINE
  5
192
330
4A
100
AcDbEntity
  8
0
  6
Continuous
 62
     2
100
AcDbLine
 10
330.9030888217675
 20
716.7734342280312
 30
0.0
 11
327.2547447890545
 21
713.125090195319
 31
0.0
  0
LINE
  5
193
330
4A
100
AcDbEntity
  8
0
  6
Continuous
 62
     2
100
AcDbLine
 10
347.0047447890572
 20
716.7734342280318
 30
0.0
 11
342.9704764783127
 21
712.7391659172874
 31
0.0
  0
LINE
  5
194
330
4A
100
AcDbEntity
  8
0
  6
Continuous
 62
     2
100
AcDbLine
 10
348.7725117420238
 20
715.0056672750655
 30
0.0
 11
346.5060103842457
 21
712.7391659172874
 31
0.0
  0
LINE
  5
195
330
4A
100
AcDbEntity
  8
0
  6
Continuous
 62
     2
100
AcDbLine
 10
300.4675438401517
 20
715.0056672750654
 30
0.0
 11
298.2010424823736
 21
712.7391659172874
 31
0.0
  0
LINE
  5
196
330
4A
100
AcDbEntity
  8
0
  6
Continuous
 62
     2
100
AcDbLine
 10
298.6997768871861
 20
716.7734342280312
 30
0.0
 11
294.6655085764412
 21
712.7391659172874
 31
0.0
  0
LINE
  5
197
330
4A
100
AcDbEntity
  8
0
  6
Continuous
 62
     2
100
AcDbLine
 10
268.26423190557
 20
715.0056672750654
 30
0.0
 11
265.997730547792
 21
712.7391659172874
 31
0.0
  0
LINE
  5
198
330
4A
100
AcDbEntity
  8
0
  6
Continuous
 62
     2
100
AcDbLine
 10
266.4964649526046
 20
716.7734342280312
 30
0.0
 11
262.4621966418598
 21
712.7391659172874
 31
0.0
  0
LINE
  5
199
330
4A
100
AcDbEntity
  8
0
  6
Continuous
 62
     2
100
AcDbLine
 10
282.5981209198943
 20
716.7734342280318
 30
0.0
 11
278.5638526091498
 21
712.7391659172874
 31
0.0
  0
LINE
  5
19A
330
4A
100
AcDbEntity
  8
0
  6
Continuous
 62
     2
100
AcDbLine
 10
284.3658878728609
 20
715.0056672750655
 30
0.0
 11
282.0993865150826
 21
712.7391659172874
 31
0.0
  0
LINE
  5
19B
330
4A
100
AcDbEntity
  8
0
  6
Continuous
 62
     2
100
AcDbLine
 10
250.3948089853128
 20
716.7734342280318
 30
0.0
 11
246.3605406745683
 21
712.7391659172874
 31
0.0
  0
LINE
  5
19C
330
4A
100
AcDbEntity
  8
0
  6
Continuous
 62
     2
100
AcDbLine
 10
252.1625759382794
 20
715.0056672750655
 30
0.0
 11
249.8960745805011
 21
712.7391659172874
 31
0.0
  0
LINE
  5
19D
330
4A
100
AcDbEntity
  8
0
  6
Continuous
 62
     2
100
AcDbLine
 10
236.0609199709888
 20
715.0056672750654
 30
0.0
 11
233.7944186132107
 21
712.7391659172874
 31
0.0
  0
LINE
  5
19E
330
4A
100
AcDbEntity
  8
0
  6
Continuous
 62
     2
100
AcDbLine
 10
234.2931530180233
 20
716.7734342280312
 30
0.0
 11
230.2588847072784
 21
712.7391659172874
 31
0.0
  0
LINE
  5
19F
330
4A
100
AcDbEntity
  8
0
  6
Continuous
 62
     2
100
AcDbLine
 10
218.1914970507316
 20
716.7734342280319
 30
0.0
 11
214.1572287399872
 21
712.7391659172874
 31
0.0
  0
LINE
  5
1A0
330
4A
100
AcDbEntity
  8
0
  6
Continuous
 62
     2
100
AcDbLine
 10
219.9592640036979
 20
715.0056672750655
 30
0.0
 11
217.6927626459197
 21
712.7391659172874
 31
0.0
  0
LINE
  5
1A1
330
4A
100
AcDbEntity
  8
0
  6
Continuous
 62
     2
100
AcDbLine
 10
426.1406690670862
 20
727.9672007309632
 30
0.0
 11
422.9977305477991
 21
724.8242622116759
 31
0.0
  0
LINE
  5
1A2
330
4A
100
AcDbEntity
  8
0
  6
Continuous
 62
     2
100
AcDbLine
 10
414.9469025641537
 20
716.7734342280318
 30
0.0
 11
421.2299635948327
 21
723.0564952587096
 31
0.0
  0
LINE
  5
1A3
330
4A
100
AcDbEntity
  8
0
  6
Continuous
 62
     2
100
AcDbLine
 10
422.9977305477991
 20
724.8242622116759
 30
0.0
 11
426.1406690670862
 21
721.6813236923888
 31
0.0
  0
LINE
  5
1A4
330
4A
100
AcDbEntity
  8
0
  6
Continuous
 62
     2
100
AcDbLine
 10
421.2299635948327
 20
723.0564952587096
 30
0.0
 11
426.1406690670862
 21
718.145789786457
 31
0.0
  0
LINE
  5
1A5
330
4A
100
AcDbEntity
  8
0
  6
Continuous
 62
     2
100
AcDbLine
 10
421.2299635948326
 20
726.5920291646423
 30
0.0
 11
426.1406690670862
 21
731.5027346368961
 31
0.0
  0
LINE
  5
1A6
330
4A
100
AcDbEntity
  8
0
  6
Continuous
 62
     2
100
AcDbLine
 10
413.1791356111871
 20
718.541201180997
 30
0.0
 11
419.4621966418661
 21
724.8242622116759
 31
0.0
  0
LINE
  5
1A7
330
4A
100
AcDbEntity
  8
0
  6
Continuous
 62
     2
100
AcDbLine
 10
414.9469025641536
 20
732.875090195321
 30
0.0
 11
421.2299635948326
 21
726.5920291646423
 31
0.0
  0
LINE
  5
1A8
330
4A
100
AcDbEntity
  8
0
  6
Continuous
 62
     2
100
AcDbLine
 10
419.4621966418661
 20
724.8242622116759
 30
0.0
 11
413.1791356111871
 21
731.1073232423548
 31
0.0
  0
LINE
  5
1A9
330
4A
100
AcDbEntity
  8
0
  6
Continuous
 62
     2
100
AcDbLine
 10
382.7435906295719
 20
716.7734342280305
 30
0.0
 11
389.026651660251
 21
723.0564952587096
 31
0.0
  0
LINE
  5
1AA
330
4A
100
AcDbEntity
  8
0
  6
Continuous
 62
     2
100
AcDbLine
 10
390.7944186132173
 20
724.8242622116759
 30
0.0
 11
397.0774796438961
 21
718.5412011809972
 31
0.0
  0
LINE
  5
1AB
330
4A
100
AcDbEntity
  8
0
  6
Continuous
 62
     2
100
AcDbLine
 10
389.026651660251
 20
723.0564952587096
 30
0.0
 11
395.3097126909307
 21
716.7734342280312
 31
0.0
  0
LINE
  5
1AC
330
4A
100
AcDbEntity
  8
0
  6
Continuous
 62
     2
100
AcDbLine
 10
397.0774796438964
 20
731.1073232423549
 30
0.0
 11
390.7944186132173
 21
724.8242622116759
 31
0.0
  0
LINE
  5
1AD
330
4A
100
AcDbEntity
  8
0
  6
Continuous
 62
     2
100
AcDbLine
 10
389.0266516602508
 20
726.5920291646423
 30
0.0
 11
395.3097126909298
 21
732.8750901953213
 31
0.0
  0
LINE
  5
1AE
330
4A
100
AcDbEntity
  8
0
  6
Continuous
 62
     2
100
AcDbLine
 10
380.9758236766054
 20
718.541201180997
 30
0.0
 11
387.2588847072844
 21
724.8242622116759
 31
0.0
  0
LINE
  5
1AF
330
4A
100
AcDbEntity
  8
0
  6
Continuous
 62
     2
100
AcDbLine
 10
382.7435906295719
 20
732.875090195321
 30
0.0
 11
389.0266516602508
 21
726.5920291646423
 31
0.0
  0
LINE
  5
1B0
330
4A
100
AcDbEntity
  8
0
  6
Continuous
 62
     2
100
AcDbLine
 10
387.2588847072844
 20
724.8242622116759
 30
0.0
 11
380.9758236766054
 21
731.1073232423548
 31
0.0
  0
LINE
  5
1B1
330
4A
100
AcDbEntity
  8
0
  6
Continuous
 62
     2
100
AcDbLine
 10
405.1283076275415
 20
723.0564952587096
 30
0.0
 11
411.4113686582205
 21
716.7734342280318
 31
0.0
  0
LINE
  5
1B2
330
4A
100
AcDbEntity
  8
0
  6
Continuous
 62
     2
100
AcDbLine
 10
397.0774796438961
 20
718.5412011809972
 30
0.0
 11
403.3605406745751
 21
724.8242622116759
 31
0.0
  0
LINE
  5
1B3
330
4A
100
AcDbEntity
  8
0
  6
Continuous
 62
     2
100
AcDbLine
 10
398.8452465968618
 20
716.7734342280312
 30
0.0
 11
405.1283076275415
 21
723.0564952587096
 31
0.0
  0
LINE
  5
1B4
330
4A
100
AcDbEntity
  8
0
  6
Continuous
 62
     2
100
AcDbLine
 10
403.3605406745751
 20
724.8242622116759
 30
0.0
 11
397.0774796438964
 21
731.1073232423549
 31
0.0
  0
LINE
  5
1B5
330
4A
100
AcDbEntity
  8
0
  6
Continuous
 62
     2
100
AcDbLine
 10
398.8452465968626
 20
732.8750901953213
 30
0.0
 11
405.1283076275416
 21
726.5920291646423
 31
0.0
  0
LINE
  5
1B6
330
4A
100
AcDbEntity
  8
0
  6
Continuous
 62
     2
100
AcDbLine
 10
406.896074580508
 20
724.8242622116759
 30
0.0
 11
413.1791356111871
 21
718.541201180997
 31
0.0
  0
LINE
  5
1B7
330
4A
100
AcDbEntity
  8
0
  6
Continuous
 62
     2
100
AcDbLine
 10
405.1283076275416
 20
726.5920291646423
 30
0.0
 11
411.4113686582205
 21
732.875090195321
 31
0.0
  0
LINE
  5
1B8
330
4A
100
AcDbEntity
  8
0
  6
Continuous
 62
     2
100
AcDbLine
 10
413.1791356111871
 20
731.1073232423548
 30
0.0
 11
406.896074580508
 21
724.8242622116759
 31
0.0
  0
LINE
  5
1B9
330
4A
100
AcDbEntity
  8
0
  6
Continuous
 62
     2
100
AcDbLine
 10
372.9249956929599
 20
723.0564952587096
 30
0.0
 11
379.2080567236391
 21
716.7734342280305
 31
0.0
  0
LINE
  5
1BA
330
4A
100
AcDbEntity
  8
0
  6
Continuous
 62
     2
100
AcDbLine
 10
364.8741677093149
 20
718.5412011809972
 30
0.0
 11
366.072132445605
 21
719.7391659172874
 31
0.0
  0
LINE
  5
1BB
330
4A
100
AcDbEntity
  8
0
  6
Continuous
 62
     2
100
AcDbLine
 10
366.6419346622802
 20
716.7734342280312
 30
0.0
 11
369.607666351537
 21
719.7391659172874
 31
0.0
  0
LINE
  5
1BC
330
4A
100
AcDbEntity
  8
0
  6
Continuous
 62
     2
100
AcDbLine
 10
371.1572287399937
 20
724.8242622116759
 30
0.0
 11
370.1406690670863
 21
725.8408218845834
 31
0.0
  0
LINE
  5
1BD
330
4A
100
AcDbEntity
  8
0
  6
Continuous
 62
     2
100
AcDbLine
 10
374.6927626459266
 20
724.8242622116759
 30
0.0
 11
380.9758236766054
 21
718.541201180997
 31
0.0
  0
LINE
  5
1BE
330
4A
100
AcDbEntity
  8
0
  6
Continuous
 62
     2
100
AcDbLine
 10
372.92499569296
 20
726.5920291646423
 30
0.0
 11
379.2080567236391
 21
732.875090195321
 31
0.0
  0
LINE
  5
1BF
330
4A
100
AcDbEntity
  8
0
  6
Continuous
 62
     2
100
AcDbLine
 10
380.9758236766054
 20
731.1073232423548
 30
0.0
 11
374.6927626459266
 21
724.8242622116759
 31
0.0
  0
LINE
  5
1C0
330
4A
100
AcDbEntity
  8
0
  6
Continuous
 62
     2
100
AcDbLine
 10
350.5402786949906
 20
716.7734342280318
 30
0.0
 11
353.3876700964552
 21
719.6208256294958
 31
0.0
  0
LINE
  5
1C1
330
4A
100
AcDbEntity
  8
0
  6
Continuous
 62
     2
100
AcDbLine
 10
348.7725117420238
 20
718.541201180997
 30
0.0
 11
349.9704764783143
 21
719.7391659172874
 31
0.0
  0
LINE
  5
1C2
330
4A
100
AcDbEntity
  8
0
  6
Continuous
 62
     2
100
AcDbLine
 10
316.5691998074423
 20
718.541201180997
 30
0.0
 11
317.7671645437328
 21
719.7391659172874
 31
0.0
  0
LINE
  5
1C3
330
4A
100
AcDbEntity
  8
0
  6
Continuous
 62
     2
100
AcDbLine
 10
332.6708557747329
 20
718.5412011809972
 30
0.0
 11
333.8688205110232
 21
719.7391659172874
 31
0.0
  0
LINE
  5
1C4
330
4A
100
AcDbEntity
  8
0
  6
Continuous
 62
     2
100
AcDbLine
 10
334.4386227276987
 20
716.7734342280312
 30
0.0
 11
337.4043544169554
 21
719.7391659172874
 31
0.0
  0
LINE
  5
1C5
330
4A
100
AcDbEntity
  8
0
  6
Continuous
 62
     2
100
AcDbLine
 10
300.4675438401517
 20
718.5412011809972
 30
0.0
 11
301.665508576442
 21
719.7391659172874
 31
0.0
  0
LINE
  5
1C6
330
4A
100
AcDbEntity
  8
0
  6
Continuous
 62
     2
100
AcDbLine
 10
302.2353107931172
 20
716.7734342280312
 30
0.0
 11
305.2010424823739
 21
719.7391659172874
 31
0.0
  0
LINE
  5
1C7
330
4A
100
AcDbEntity
  8
0
  6
Continuous
 62
     2
100
AcDbLine
 10
286.1336548258274
 20
716.7734342280318
 30
0.0
 11
289.0993865150836
 21
719.7391659172874
 31
0.0
  0
LINE
  5
1C8
330
4A
100
AcDbEntity
  8
0
  6
Continuous
 62
     2
100
AcDbLine
 10
284.3658878728609
 20
718.541201180997
 30
0.0
 11
285.5638526091512
 21
719.7391659172874
 31
0.0
  0
LINE
  5
1C9
330
4A
100
AcDbEntity
  8
0
  6
Continuous
 62
     2
100
AcDbLine
 10
253.9303428912458
 20
716.7734342280305
 30
0.0
 11
260.2134039219249
 21
723.0564952587096
 31
0.0
  0
LINE
  5
1CA
330
4A
100
AcDbEntity
  8
0
  6
Continuous
 62
     2
100
AcDbLine
 10
261.9811708748914
 20
724.8242622116759
 30
0.0
 11
266.1406690670862
 21
720.6647640194808
 31
0.0
  0
LINE
  5
1CB
330
4A
100
AcDbEntity
  8
0
  6
Continuous
 62
     2
100
AcDbLine
 10
260.2134039219249
 20
723.0564952587096
 30
0.0
 11
266.4964649526046
 21
716.7734342280312
 31
0.0
  0
LINE
  5
1CC
330
4A
100
AcDbEntity
  8
0
  6
Continuous
 62
     2
100
AcDbLine
 10
260.2134039219247
 20
726.5920291646423
 30
0.0
 11
266.1406690670862
 21
732.5192943098037
 31
0.0
  0
LINE
  5
1CD
330
4A
100
AcDbEntity
  8
0
  6
Continuous
 62
     2
100
AcDbLine
 10
252.1625759382794
 20
718.541201180997
 30
0.0
 11
258.4456369689584
 21
724.8242622116759
 31
0.0
  0
LINE
  5
1CE
330
4A
100
AcDbEntity
  8
0
  6
Continuous
 62
     2
100
AcDbLine
 10
253.9303428912458
 20
732.875090195321
 30
0.0
 11
260.2134039219247
 21
726.5920291646423
 31
0.0
  0
LINE
  5
1CF
330
4A
100
AcDbEntity
  8
0
  6
Continuous
 62
     2
100
AcDbLine
 10
258.4456369689584
 20
724.8242622116759
 30
0.0
 11
252.1625759382794
 21
731.1073232423548
 31
0.0
  0
LINE
  5
1D0
330
4A
100
AcDbEntity
  8
0
  6
Continuous
 62
     2
100
AcDbLine
 10
268.26423190557
 20
718.5412011809972
 30
0.0
 11
269.4621966418602
 21
719.7391659172874
 31
0.0
  0
LINE
  5
1D1
330
4A
100
AcDbEntity
  8
0
  6
Continuous
 62
     2
100
AcDbLine
 10
270.0319988585356
 20
716.7734342280312
 30
0.0
 11
272.9977305477923
 21
719.7391659172874
 31
0.0
  0
LINE
  5
1D2
330
4A
100
AcDbEntity
  8
0
  6
Continuous
 62
     2
100
AcDbLine
 10
244.111747954634
 20
723.0564952587096
 30
0.0
 11
250.3948089853128
 21
716.7734342280318
 31
0.0
  0
LINE
  5
1D3
330
4A
100
AcDbEntity
  8
0
  6
Continuous
 62
     2
100
AcDbLine
 10
236.0609199709888
 20
718.5412011809972
 30
0.0
 11
242.3439810016675
 21
724.8242622116759
 31
0.0
  0
LINE
  5
1D4
330
4A
100
AcDbEntity
  8
0
  6
Continuous
 62
     2
100
AcDbLine
 10
237.8286869239543
 20
716.7734342280312
 30
0.0
 11
244.111747954634
 21
723.0564952587096
 31
0.0
  0
LINE
  5
1D5
330
4A
100
AcDbEntity
  8
0
  6
Continuous
 62
     2
100
AcDbLine
 10
242.3439810016675
 20
724.8242622116759
 30
0.0
 11
236.0609199709886
 21
731.1073232423549
 31
0.0
  0
LINE
  5
1D6
330
4A
100
AcDbEntity
  8
0
  6
Continuous
 62
     2
100
AcDbLine
 10
237.8286869239551
 20
732.8750901953213
 30
0.0
 11
244.1117479546342
 21
726.5920291646423
 31
0.0
  0
LINE
  5
1D7
330
4A
100
AcDbEntity
  8
0
  6
Continuous
 62
     2
100
AcDbLine
 10
245.8795149076004
 20
724.8242622116759
 30
0.0
 11
252.1625759382794
 21
718.541201180997
 31
0.0
  0
LINE
  5
1D8
330
4A
100
AcDbEntity
  8
0
  6
Continuous
 62
     2
100
AcDbLine
 10
244.1117479546342
 20
726.5920291646423
 30
0.0
 11
250.3948089853129
 21
732.875090195321
 31
0.0
  0
LINE
  5
1D9
330
4A
100
AcDbEntity
  8
0
  6
Continuous
 62
     2
100
AcDbLine
 10
252.1625759382794
 20
731.1073232423548
 30
0.0
 11
245.8795149076004
 21
724.8242622116759
 31
0.0
  0
LINE
  5
1DA
330
4A
100
AcDbEntity
  8
0
  6
Continuous
 62
     2
100
AcDbLine
 10
221.7270309566645
 20
716.7734342280318
 30
0.0
 11
228.0100919873434
 21
723.0564952587096
 31
0.0
  0
LINE
  5
1DB
330
4A
100
AcDbEntity
  8
0
  6
Continuous
 62
     2
100
AcDbLine
 10
229.7778589403098
 20
724.8242622116759
 30
0.0
 11
236.0609199709888
 21
718.5412011809972
 31
0.0
  0
LINE
  5
1DC
330
4A
100
AcDbEntity
  8
0
  6
Continuous
 62
     2
100
AcDbLine
 10
228.0100919873434
 20
723.0564952587096
 30
0.0
 11
234.2931530180233
 21
716.7734342280312
 31
0.0
  0
LINE
  5
1DD
330
4A
100
AcDbEntity
  8
0
  6
Continuous
 62
     2
100
AcDbLine
 10
236.0609199709886
 20
731.1073232423549
 30
0.0
 11
229.7778589403098
 21
724.8242622116759
 31
0.0
  0
LINE
  5
1DE
330
4A
100
AcDbEntity
  8
0
  6
Continuous
 62
     2
100
AcDbLine
 10
228.0100919873433
 20
726.5920291646423
 30
0.0
 11
234.2931530180222
 21
732.8750901953213
 31
0.0
  0
LINE
  5
1DF
330
4A
100
AcDbEntity
  8
0
  6
Continuous
 62
     2
100
AcDbLine
 10
210.1406690670862
 20
724.8242622116759
 30
0.0
 11
218.1914970507316
 21
716.7734342280305
 31
0.0
  0
LINE
  5
1E0
330
4A
100
AcDbEntity
  8
0
  6
Continuous
 62
     2
100
AcDbLine
 10
219.9592640036979
 20
718.541201180997
 30
0.0
 11
226.2423250343769
 21
724.8242622116759
 31
0.0
  0
LINE
  5
1E1
330
4A
100
AcDbEntity
  8
0
  6
Continuous
 62
     2
100
AcDbLine
 10
213.6762029730191
 20
724.8242622116759
 30
0.0
 11
219.9592640036979
 21
718.541201180997
 31
0.0
  0
LINE
  5
1E2
330
4A
100
AcDbEntity
  8
0
  6
Continuous
 62
     2
100
AcDbLine
 10
218.1914970507316
 20
732.8750901953211
 30
0.0
 11
210.1406690670862
 21
724.8242622116759
 31
0.0
  0
LINE
  5
1E3
330
4A
100
AcDbEntity
  8
0
  6
Continuous
 62
     2
100
AcDbLine
 10
221.7270309566644
 20
732.875090195321
 30
0.0
 11
228.0100919873433
 21
726.5920291646423
 31
0.0
  0
LINE
  5
1E4
330
4A
100
AcDbEntity
  8
0
  6
Continuous
 62
     2
100
AcDbLine
 10
226.2423250343769
 20
724.8242622116759
 30
0.0
 11
219.9592640036979
 21
731.1073232423548
 31
0.0
  0
LINE
  5
1E5
330
4A
100
AcDbEntity
  8
0
  6
Continuous
 62
     2
100
AcDbLine
 10
219.9592640036979
 20
731.1073232423548
 30
0.0
 11
213.6762029730191
 21
724.8242622116759
 31
0.0
  0
LINE
  5
1E6
330
4A
100
AcDbEntity
  8
0
  6
Continuous
 62
     2
100
AcDbLine
 10
422.9977305477991
 20
740.9259181789664
 30
0.0
 11
426.1406690670862
 21
737.7829796596791
 31
0.0
  0
LINE
  5
1E7
330
4A
100
AcDbEntity
  8
0
  6
Continuous
 62
     2
100
AcDbLine
 10
421.2299635948327
 20
742.6936851319327
 30
0.0
 11
414.9469025641537
 21
748.9767461626107
 31
0.0
  0
LINE
  5
1E8
330
4A
100
AcDbEntity
  8
0
  6
Continuous
 62
     2
100
AcDbLine
 10
426.1406690670862
 20
744.0688566982535
 30
0.0
 11
422.9977305477991
 21
740.9259181789664
 31
0.0
  0
LINE
  5
1E9
330
4A
100
AcDbEntity
  8
0
  6
Continuous
 62
     2
100
AcDbLine
 10
426.1406690670862
 20
747.6043906041854
 30
0.0
 11
421.2299635948327
 21
742.6936851319327
 31
0.0
  0
LINE
  5
1EA
330
4A
100
AcDbEntity
  8
0
  6
Continuous
 62
     2
100
AcDbLine
 10
426.1406690670862
 20
734.2474457537464
 30
0.0
 11
421.2299635948326
 21
739.158151226
 31
0.0
  0
LINE
  5
1EB
330
4A
100
AcDbEntity
  8
0
  6
Continuous
 62
     2
100
AcDbLine
 10
419.4621966418661
 20
740.9259181789664
 30
0.0
 11
413.1791356111871
 21
747.2089792096455
 31
0.0
  0
LINE
  5
1EC
330
4A
100
AcDbEntity
  8
0
  6
Continuous
 62
     2
100
AcDbLine
 10
421.2299635948326
 20
739.158151226
 30
0.0
 11
414.9469025641536
 21
732.875090195321
 31
0.0
  0
LINE
  5
1ED
330
4A
100
AcDbEntity
  8
0
  6
Continuous
 62
     2
100
AcDbLine
 10
413.1791356111871
 20
734.6428571482875
 30
0.0
 11
419.4621966418661
 21
740.9259181789664
 31
0.0
  0
LINE
  5
1EE
330
4A
100
AcDbEntity
  8
0
  6
Continuous
 62
     2
100
AcDbLine
 10
389.026651660251
 20
742.6936851319327
 30
0.0
 11
382.7435906295719
 21
748.9767461626118
 31
0.0
  0
LINE
  5
1EF
330
4A
100
AcDbEntity
  8
0
  6
Continuous
 62
     2
100
AcDbLine
 10
397.0774796438961
 20
747.2089792096452
 30
0.0
 11
390.7944186132173
 21
740.9259181789664
 31
0.0
  0
LINE
  5
1F0
330
4A
100
AcDbEntity
  8
0
  6
Continuous
 62
     2
100
AcDbLine
 10
395.3097126909307
 20
748.9767461626111
 30
0.0
 11
389.026651660251
 21
742.6936851319327
 31
0.0
  0
LINE
  5
1F1
330
4A
100
AcDbEntity
  8
0
  6
Continuous
 62
     2
100
AcDbLine
 10
390.7944186132173
 20
740.9259181789664
 30
0.0
 11
397.0774796438964
 21
734.6428571482874
 31
0.0
  0
LINE
  5
1F2
330
4A
100
AcDbEntity
  8
0
  6
Continuous
 62
     2
100
AcDbLine
 10
395.3097126909298
 20
732.8750901953213
 30
0.0
 11
389.0266516602508
 21
739.158151226
 31
0.0
  0
LINE
  5
1F3
330
4A
100
AcDbEntity
  8
0
  6
Continuous
 62
     2
100
AcDbLine
 10
387.2588847072844
 20
740.9259181789664
 30
0.0
 11
380.9758236766054
 21
747.2089792096455
 31
0.0
  0
LINE
  5
1F4
330
4A
100
AcDbEntity
  8
0
  6
Continuous
 62
     2
100
AcDbLine
 10
389.0266516602508
 20
739.158151226
 30
0.0
 11
382.7435906295719
 21
732.875090195321
 31
0.0
  0
LINE
  5
1F5
330
4A
100
AcDbEntity
  8
0
  6
Continuous
 62
     2
100
AcDbLine
 10
380.9758236766054
 20
734.6428571482875
 30
0.0
 11
387.2588847072844
 21
740.9259181789664
 31
0.0
  0
LINE
  5
1F6
330
4A
100
AcDbEntity
  8
0
  6
Continuous
 62
     2
100
AcDbLine
 10
411.4113686582205
 20
748.9767461626107
 30
0.0
 11
405.1283076275415
 21
742.6936851319327
 31
0.0
  0
LINE
  5
1F7
330
4A
100
AcDbEntity
  8
0
  6
Continuous
 62
     2
100
AcDbLine
 10
403.3605406745751
 20
740.9259181789664
 30
0.0
 11
397.0774796438961
 21
747.2089792096452
 31
0.0
  0
LINE
  5
1F8
330
4A
100
AcDbEntity
  8
0
  6
Continuous
 62
     2
100
AcDbLine
 10
405.1283076275415
 20
742.6936851319327
 30
0.0
 11
398.8452465968618
 21
748.9767461626111
 31
0.0
  0
LINE
  5
1F9
330
4A
100
AcDbEntity
  8
0
  6
Continuous
 62
     2
100
AcDbLine
 10
397.0774796438964
 20
734.6428571482874
 30
0.0
 11
403.3605406745751
 21
740.9259181789664
 31
0.0
  0
LINE
  5
1FA
330
4A
100
AcDbEntity
  8
0
  6
Continuous
 62
     2
100
AcDbLine
 10
405.1283076275416
 20
739.158151226
 30
0.0
 11
398.8452465968626
 21
732.8750901953213
 31
0.0
  0
LINE
  5
1FB
330
4A
100
AcDbEntity
  8
0
  6
Continuous
 62
     2
100
AcDbLine
 10
413.1791356111871
 20
747.2089792096455
 30
0.0
 11
406.896074580508
 21
740.9259181789664
 31
0.0
  0
LINE
  5
1FC
330
4A
100
AcDbEntity
  8
0
  6
Continuous
 62
     2
100
AcDbLine
 10
411.4113686582205
 20
732.875090195321
 30
0.0
 11
405.1283076275416
 21
739.158151226
 31
0.0
  0
LINE
  5
1FD
330
4A
100
AcDbEntity
  8
0
  6
Continuous
 62
     2
100
AcDbLine
 10
406.896074580508
 20
740.9259181789664
 30
0.0
 11
413.1791356111871
 21
734.6428571482875
 31
0.0
  0
LINE
  5
1FE
330
4A
100
AcDbEntity
  8
0
  6
Continuous
 62
     2
100
AcDbLine
 10
379.2080567236391
 20
748.9767461626118
 30
0.0
 11
372.9249956929599
 21
742.6936851319327
 31
0.0
  0
LINE
  5
1FF
330
4A
100
AcDbEntity
  8
0
  6
Continuous
 62
     2
100
AcDbLine
 10
380.9758236766054
 20
747.2089792096455
 30
0.0
 11
374.6927626459266
 21
740.9259181789664
 31
0.0
  0
LINE
  5
200
330
4A
100
AcDbEntity
  8
0
  6
Continuous
 62
     2
100
AcDbLine
 10
379.2080567236391
 20
732.875090195321
 30
0.0
 11
372.92499569296
 21
739.158151226
 31
0.0
  0
LINE
  5
201
330
4A
100
AcDbEntity
  8
0
  6
Continuous
 62
     2
100
AcDbLine
 10
374.6927626459266
 20
740.9259181789664
 30
0.0
 11
380.9758236766054
 21
734.6428571482875
 31
0.0
  0
LINE
  5
202
330
4A
100
AcDbEntity
  8
0
  6
Continuous
 62
     2
100
AcDbLine
 10
260.2134039219249
 20
742.6936851319327
 30
0.0
 11
253.9303428912458
 21
748.9767461626118
 31
0.0
  0
LINE
  5
203
330
4A
100
AcDbEntity
  8
0
  6
Continuous
 62
     2
100
AcDbLine
 10
261.9811708748914
 20
740.9259181789664
 30
0.0
 11
266.1406690670862
 21
736.7664199867713
 31
0.0
  0
LINE
  5
204
330
4A
100
AcDbEntity
  8
0
  6
Continuous
 62
     2
100
AcDbLine
 10
258.4456369689584
 20
740.9259181789664
 30
0.0
 11
252.1625759382794
 21
747.2089792096455
 31
0.0
  0
LINE
  5
205
330
4A
100
AcDbEntity
  8
0
  6
Continuous
 62
     2
100
AcDbLine
 10
260.2134039219247
 20
739.158151226
 30
0.0
 11
253.9303428912458
 21
732.875090195321
 31
0.0
  0
LINE
  5
206
330
4A
100
AcDbEntity
  8
0
  6
Continuous
 62
     2
100
AcDbLine
 10
252.1625759382794
 20
734.6428571482875
 30
0.0
 11
258.4456369689584
 21
740.9259181789664
 31
0.0
  0
LINE
  5
207
330
4A
100
AcDbEntity
  8
0
  6
Continuous
 62
     2
100
AcDbLine
 10
250.3948089853128
 20
748.9767461626107
 30
0.0
 11
244.111747954634
 21
742.6936851319327
 31
0.0
  0
LINE
  5
208
330
4A
100
AcDbEntity
  8
0
  6
Continuous
 62
     2
100
AcDbLine
 10
242.3439810016675
 20
740.9259181789664
 30
0.0
 11
236.0609199709888
 21
747.2089792096452
 31
0.0
  0
LINE
  5
209
330
4A
100
AcDbEntity
  8
0
  6
Continuous
 62
     2
100
AcDbLine
 10
244.111747954634
 20
742.6936851319327
 30
0.0
 11
237.8286869239543
 21
748.9767461626111
 31
0.0
  0
LINE
  5
20A
330
4A
100
AcDbEntity
  8
0
  6
Continuous
 62
     2
100
AcDbLine
 10
236.0609199709886
 20
734.6428571482874
 30
0.0
 11
242.3439810016675
 21
740.9259181789664
 31
0.0
  0
LINE
  5
20B
330
4A
100
AcDbEntity
  8
0
  6
Continuous
 62
     2
100
AcDbLine
 10
244.1117479546342
 20
739.158151226
 30
0.0
 11
237.8286869239551
 21
732.8750901953213
 31
0.0
  0
LINE
  5
20C
330
4A
100
AcDbEntity
  8
0
  6
Continuous
 62
     2
100
AcDbLine
 10
252.1625759382794
 20
747.2089792096455
 30
0.0
 11
245.8795149076004
 21
740.9259181789664
 31
0.0
  0
LINE
  5
20D
330
4A
100
AcDbEntity
  8
0
  6
Continuous
 62
     2
100
AcDbLine
 10
250.3948089853129
 20
732.875090195321
 30
0.0
 11
244.1117479546342
 21
739.158151226
 31
0.0
  0
LINE
  5
20E
330
4A
100
AcDbEntity
  8
0
  6
Continuous
 62
     2
100
AcDbLine
 10
245.8795149076004
 20
740.9259181789664
 30
0.0
 11
252.1625759382794
 21
734.6428571482875
 31
0.0
  0
LINE
  5
20F
330
4A
100
AcDbEntity
  8
0
  6
Continuous
 62
     2
100
AcDbLine
 10
228.0100919873434
 20
742.6936851319327
 30
0.0
 11
221.7270309566645
 21
748.9767461626107
 31
0.0
  0
LINE
  5
210
330
4A
100
AcDbEntity
  8
0
  6
Continuous
 62
     2
100
AcDbLine
 10
236.0609199709888
 20
747.2089792096452
 30
0.0
 11
229.7778589403098
 21
740.9259181789664
 31
0.0
  0
LINE
  5
211
330
4A
100
AcDbEntity
  8
0
  6
Continuous
 62
     2
100
AcDbLine
 10
234.2931530180233
 20
748.9767461626111
 30
0.0
 11
228.0100919873434
 21
742.6936851319327
 31
0.0
  0
LINE
  5
212
330
4A
100
AcDbEntity
  8
0
  6
Continuous
 62
     2
100
AcDbLine
 10
229.7778589403098
 20
740.9259181789664
 30
0.0
 11
236.0609199709886
 21
734.6428571482874
 31
0.0
  0
LINE
  5
213
330
4A
100
AcDbEntity
  8
0
  6
Continuous
 62
     2
100
AcDbLine
 10
234.2931530180222
 20
732.8750901953213
 30
0.0
 11
228.0100919873433
 21
739.158151226
 31
0.0
  0
LINE
  5
214
330
4A
100
AcDbEntity
  8
0
  6
Continuous
 62
     2
100
AcDbLine
 10
218.1914970507316
 20
748.9767461626118
 30
0.0
 11
210.1406690670862
 21
740.9259181789664
 31
0.0
  0
LINE
  5
215
330
4A
100
AcDbEntity
  8
0
  6
Continuous
 62
     2
100
AcDbLine
 10
226.2423250343769
 20
740.9259181789664
 30
0.0
 11
219.9592640036979
 21
747.2089792096455
 31
0.0
  0
LINE
  5
216
330
4A
100
AcDbEntity
  8
0
  6
Continuous
 62
     2
100
AcDbLine
 10
219.9592640036979
 20
747.2089792096455
 30
0.0
 11
213.6762029730191
 21
740.9259181789664
 31
0.0
  0
LINE
  5
217
330
4A
100
AcDbEntity
  8
0
  6
Continuous
 62
     2
100
AcDbLine
 10
210.1406690670862
 20
740.9259181789664
 30
0.0
 11
218.1914970507316
 21
732.8750901953211
 31
0.0
  0
LINE
  5
218
330
4A
100
AcDbEntity
  8
0
  6
Continuous
 62
     2
100
AcDbLine
 10
228.0100919873433
 20
739.158151226
 30
0.0
 11
221.7270309566644
 21
732.875090195321
 31
0.0
  0
LINE
  5
219
330
4A
100
AcDbEntity
  8
0
  6
Continuous
 62
     2
100
AcDbLine
 10
219.9592640036979
 20
734.6428571482875
 30
0.0
 11
226.2423250343769
 21
740.9259181789664
 31
0.0
  0
LINE
  5
21A
330
4A
100
AcDbEntity
  8
0
  6
Continuous
 62
     2
100
AcDbLine
 10
213.6762029730191
 20
740.9259181789664
 30
0.0
 11
219.9592640036979
 21
734.6428571482875
 31
0.0
  0
LINE
  5
21B
330
4A
100
AcDbEntity
  8
0
  6
Continuous
 62
     2
100
AcDbLine
 10
426.1406690670862
 20
760.1705126655431
 30
0.0
 11
422.9977305477991
 21
757.0275741462558
 31
0.0
  0
LINE
  5
21C
330
4A
100
AcDbEntity
  8
0
  6
Continuous
 62
     2
100
AcDbLine
 10
414.9469025641537
 20
748.9767461626107
 30
0.0
 11
421.2299635948327
 21
755.2598071932895
 31
0.0
  0
LINE
  5
21D
330
4A
100
AcDbEntity
  8
0
  6
Continuous
 62
     2
100
AcDbLine
 10
422.9977305477991
 20
757.0275741462558
 30
0.0
 11
426.1406690670862
 21
753.8846356269687
 31
0.0
  0
LINE
  5
21E
330
4A
100
AcDbEntity
  8
0
  6
Continuous
 62
     2
100
AcDbLine
 10
421.2299635948327
 20
755.2598071932895
 30
0.0
 11
426.1406690670862
 21
750.349101721037
 31
0.0
  0
LINE
  5
21F
330
4A
100
AcDbEntity
  8
0
  6
Continuous
 62
     2
100
AcDbLine
 10
421.2299635948326
 20
758.7953410992221
 30
0.0
 11
426.1406690670862
 21
763.7060465714758
 31
0.0
  0
LINE
  5
220
330
4A
100
AcDbEntity
  8
0
  6
Continuous
 62
     2
100
AcDbLine
 10
413.1791356111871
 20
750.7445131155769
 30
0.0
 11
419.4621966418661
 21
757.0275741462558
 31
0.0
  0
LINE
  5
221
330
4A
100
AcDbEntity
  8
0
  6
Continuous
 62
     2
100
AcDbLine
 10
414.9469025641536
 20
765.0784021299011
 30
0.0
 11
421.2299635948326
 21
758.7953410992221
 31
0.0
  0
LINE
  5
222
330
4A
100
AcDbEntity
  8
0
  6
Continuous
 62
     2
100
AcDbLine
 10
419.4621966418661
 20
757.0275741462558
 30
0.0
 11
413.1791356111871
 21
763.3106351769347
 31
0.0
  0
LINE
  5
223
330
4A
100
AcDbEntity
  8
0
  6
Continuous
 62
     2
100
AcDbLine
 10
382.7435906295719
 20
748.9767461626104
 30
0.0
 11
389.026651660251
 21
755.2598071932895
 31
0.0
  0
LINE
  5
224
330
4A
100
AcDbEntity
  8
0
  6
Continuous
 62
     2
100
AcDbLine
 10
390.7944186132173
 20
757.0275741462558
 30
0.0
 11
397.0774796438961
 21
750.744513115577
 31
0.0
  0
LINE
  5
225
330
4A
100
AcDbEntity
  8
0
  6
Continuous
 62
     2
100
AcDbLine
 10
389.026651660251
 20
755.2598071932895
 30
0.0
 11
395.3097126909307
 21
748.9767461626111
 31
0.0
  0
LINE
  5
226
330
4A
100
AcDbEntity
  8
0
  6
Continuous
 62
     2
100
AcDbLine
 10
397.0774796438964
 20
763.3106351769349
 30
0.0
 11
390.7944186132173
 21
757.0275741462558
 31
0.0
  0
LINE
  5
227
330
4A
100
AcDbEntity
  8
0
  6
Continuous
 62
     2
100
AcDbLine
 10
389.0266516602508
 20
758.7953410992221
 30
0.0
 11
395.3097126909298
 21
765.0784021299011
 31
0.0
  0
LINE
  5
228
330
4A
100
AcDbEntity
  8
0
  6
Continuous
 62
     2
100
AcDbLine
 10
380.9758236766054
 20
750.7445131155769
 30
0.0
 11
387.2588847072844
 21
757.0275741462558
 31
0.0
  0
LINE
  5
229
330
4A
100
AcDbEntity
  8
0
  6
Continuous
 62
     2
100
AcDbLine
 10
382.7435906295719
 20
765.0784021299011
 30
0.0
 11
389.0266516602508
 21
758.7953410992221
 31
0.0
  0
LINE
  5
22A
330
4A
100
AcDbEntity
  8
0
  6
Continuous
 62
     2
100
AcDbLine
 10
387.2588847072844
 20
757.0275741462558
 30
0.0
 11
380.9758236766054
 21
763.3106351769347
 31
0.0
  0
LINE
  5
22B
330
4A
100
AcDbEntity
  8
0
  6
Continuous
 62
     2
100
AcDbLine
 10
405.1283076275415
 20
755.2598071932895
 30
0.0
 11
411.4113686582205
 21
748.9767461626107
 31
0.0
  0
LINE
  5
22C
330
4A
100
AcDbEntity
  8
0
  6
Continuous
 62
     2
100
AcDbLine
 10
397.0774796438961
 20
750.744513115577
 30
0.0
 11
403.3605406745751
 21
757.0275741462558
 31
0.0
  0
LINE
  5
22D
330
4A
100
AcDbEntity
  8
0
  6
Continuous
 62
     2
100
AcDbLine
 10
398.8452465968618
 20
748.9767461626111
 30
0.0
 11
405.1283076275415
 21
755.2598071932895
 31
0.0
  0
LINE
  5
22E
330
4A
100
AcDbEntity
  8
0
  6
Continuous
 62
     2
100
AcDbLine
 10
403.3605406745751
 20
757.0275741462558
 30
0.0
 11
397.0774796438964
 21
763.3106351769349
 31
0.0
  0
LINE
  5
22F
330
4A
100
AcDbEntity
  8
0
  6
Continuous
 62
     2
100
AcDbLine
 10
398.8452465968626
 20
765.0784021299011
 30
0.0
 11
405.1283076275416
 21
758.7953410992221
 31
0.0
  0
LINE
  5
230
330
4A
100
AcDbEntity
  8
0
  6
Continuous
 62
     2
100
AcDbLine
 10
406.896074580508
 20
757.0275741462558
 30
0.0
 11
413.1791356111871
 21
750.7445131155769
 31
0.0
  0
LINE
  5
231
330
4A
100
AcDbEntity
  8
0
  6
Continuous
 62
     2
100
AcDbLine
 10
405.1283076275416
 20
758.7953410992221
 30
0.0
 11
411.4113686582205
 21
765.0784021299011
 31
0.0
  0
LINE
  5
232
330
4A
100
AcDbEntity
  8
0
  6
Continuous
 62
     2
100
AcDbLine
 10
413.1791356111871
 20
763.3106351769347
 30
0.0
 11
406.896074580508
 21
757.0275741462558
 31
0.0
  0
LINE
  5
233
330
4A
100
AcDbEntity
  8
0
  6
Continuous
 62
     2
100
AcDbLine
 10
372.9249956929599
 20
755.2598071932895
 30
0.0
 11
379.2080567236391
 21
748.9767461626104
 31
0.0
  0
LINE
  5
234
330
4A
100
AcDbEntity
  8
0
  6
Continuous
 62
     2
100
AcDbLine
 10
371.1572287399937
 20
757.0275741462558
 30
0.0
 11
364.8741677093148
 21
763.3106351769349
 31
0.0
  0
LINE
  5
235
330
4A
100
AcDbEntity
  8
0
  6
Continuous
 62
     2
100
AcDbLine
 10
366.6419346622811
 20
765.0784021299011
 30
0.0
 11
372.92499569296
 21
758.7953410992221
 31
0.0
  0
LINE
  5
236
330
4A
100
AcDbEntity
  8
0
  6
Continuous
 62
     2
100
AcDbLine
 10
374.6927626459266
 20
757.0275741462558
 30
0.0
 11
380.9758236766054
 21
750.7445131155769
 31
0.0
  0
LINE
  5
237
330
4A
100
AcDbEntity
  8
0
  6
Continuous
 62
     2
100
AcDbLine
 10
372.92499569296
 20
758.7953410992221
 30
0.0
 11
379.2080567236391
 21
765.0784021299011
 31
0.0
  0
LINE
  5
238
330
4A
100
AcDbEntity
  8
0
  6
Continuous
 62
     2
100
AcDbLine
 10
380.9758236766054
 20
763.3106351769347
 30
0.0
 11
374.6927626459266
 21
757.0275741462558
 31
0.0
  0
LINE
  5
239
330
4A
100
AcDbEntity
  8
0
  6
Continuous
 62
     2
100
AcDbLine
 10
358.5911066786358
 20
757.0275741462558
 30
0.0
 11
359.8795149076043
 21
755.7391659172874
 31
0.0
  0
LINE
  5
23A
330
4A
100
AcDbEntity
  8
0
  6
Continuous
 62
     2
100
AcDbLine
 10
364.8741677093148
 20
763.3106351769349
 30
0.0
 11
358.5911066786358
 21
757.0275741462558
 31
0.0
  0
LINE
  5
23B
330
4A
100
AcDbEntity
  8
0
  6
Continuous
 62
     2
100
AcDbLine
 10
356.8233397256693
 20
758.7953410992221
 30
0.0
 11
363.1064007563483
 21
765.0784021299011
 31
0.0
  0
LINE
  5
23C
330
4A
100
AcDbEntity
  8
0
  6
Continuous
 62
     2
100
AcDbLine
 10
350.5402786949904
 20
765.0784021299011
 30
0.0
 11
356.8233397256693
 21
758.7953410992221
 31
0.0
  0
LINE
  5
23D
330
4A
100
AcDbEntity
  8
0
  6
Continuous
 62
     2
100
AcDbLine
 10
355.0555727727029
 20
757.0275741462558
 30
0.0
 11
348.7725117420238
 21
763.3106351769347
 31
0.0
  0
LINE
  5
23E
330
4A
100
AcDbEntity
  8
0
  6
Continuous
 62
     2
100
AcDbLine
 10
326.3877947440543
 20
757.0275741462558
 30
0.0
 11
327.6762029730227
 21
755.7391659172874
 31
0.0
  0
LINE
  5
23F
330
4A
100
AcDbEntity
  8
0
  6
Continuous
 62
     2
100
AcDbLine
 10
332.6708557747331
 20
763.3106351769349
 30
0.0
 11
326.3877947440543
 21
757.0275741462558
 31
0.0
  0
LINE
  5
240
330
4A
100
AcDbEntity
  8
0
  6
Continuous
 62
     2
100
AcDbLine
 10
324.6200277910878
 20
758.7953410992221
 30
0.0
 11
330.9030888217667
 21
765.0784021299011
 31
0.0
  0
LINE
  5
241
330
4A
100
AcDbEntity
  8
0
  6
Continuous
 62
     2
100
AcDbLine
 10
318.3369667604088
 20
765.0784021299011
 30
0.0
 11
324.6200277910878
 21
758.7953410992221
 31
0.0
  0
LINE
  5
242
330
4A
100
AcDbEntity
  8
0
  6
Continuous
 62
     2
100
AcDbLine
 10
322.8522608381213
 20
757.0275741462558
 30
0.0
 11
316.5691998074423
 21
763.3106351769347
 31
0.0
  0
LINE
  5
243
330
4A
100
AcDbEntity
  8
0
  6
Continuous
 62
     2
100
AcDbLine
 10
338.9539168054121
 20
757.0275741462558
 30
0.0
 11
332.6708557747331
 21
763.3106351769349
 31
0.0
  0
LINE
  5
244
330
4A
100
AcDbEntity
  8
0
  6
Continuous
 62
     2
100
AcDbLine
 10
334.4386227276996
 20
765.0784021299011
 30
0.0
 11
340.7216837583784
 21
758.7953410992221
 31
0.0
  0
LINE
  5
245
330
4A
100
AcDbEntity
  8
0
  6
Continuous
 62
     2
100
AcDbLine
 10
342.4894507113449
 20
757.0275741462558
 30
0.0
 11
343.7778589403133
 21
755.7391659172874
 31
0.0
  0
LINE
  5
246
330
4A
100
AcDbEntity
  8
0
  6
Continuous
 62
     2
100
AcDbLine
 10
340.7216837583784
 20
758.7953410992221
 30
0.0
 11
347.0047447890573
 21
765.0784021299011
 31
0.0
  0
LINE
  5
247
330
4A
100
AcDbEntity
  8
0
  6
Continuous
 62
     2
100
AcDbLine
 10
348.7725117420238
 20
763.3106351769347
 30
0.0
 11
342.4894507113449
 21
757.0275741462558
 31
0.0
  0
LINE
  5
248
330
4A
100
AcDbEntity
  8
0
  6
Continuous
 62
     2
100
AcDbLine
 10
306.7506048708306
 20
757.0275741462558
 30
0.0
 11
300.4675438401516
 21
763.3106351769349
 31
0.0
  0
LINE
  5
249
330
4A
100
AcDbEntity
  8
0
  6
Continuous
 62
     2
100
AcDbLine
 10
302.2353107931181
 20
765.0784021299011
 30
0.0
 11
308.518371823797
 21
758.7953410992221
 31
0.0
  0
LINE
  5
24A
330
4A
100
AcDbEntity
  8
0
  6
Continuous
 62
     2
100
AcDbLine
 10
310.2861387767634
 20
757.0275741462558
 30
0.0
 11
311.5745470057319
 21
755.7391659172874
 31
0.0
  0
LINE
  5
24B
330
4A
100
AcDbEntity
  8
0
  6
Continuous
 62
     2
100
AcDbLine
 10
308.518371823797
 20
758.7953410992221
 30
0.0
 11
314.8014328544759
 21
765.0784021299011
 31
0.0
  0
LINE
  5
24C
330
4A
100
AcDbEntity
  8
0
  6
Continuous
 62
     2
100
AcDbLine
 10
316.5691998074423
 20
763.3106351769347
 30
0.0
 11
310.2861387767634
 21
757.0275741462558
 31
0.0
  0
LINE
  5
24D
330
4A
100
AcDbEntity
  8
0
  6
Continuous
 62
     2
100
AcDbLine
 10
294.1844828094728
 20
757.0275741462558
 30
0.0
 11
295.4728910384412
 21
755.7391659172874
 31
0.0
  0
LINE
  5
24E
330
4A
100
AcDbEntity
  8
0
  6
Continuous
 62
     2
100
AcDbLine
 10
300.4675438401516
 20
763.3106351769349
 30
0.0
 11
294.1844828094728
 21
757.0275741462558
 31
0.0
  0
LINE
  5
24F
330
4A
100
AcDbEntity
  8
0
  6
Continuous
 62
     2
100
AcDbLine
 10
292.4167158565062
 20
758.7953410992221
 30
0.0
 11
298.6997768871853
 21
765.0784021299011
 31
0.0
  0
LINE
  5
250
330
4A
100
AcDbEntity
  8
0
  6
Continuous
 62
     2
100
AcDbLine
 10
286.1336548258273
 20
765.0784021299011
 30
0.0
 11
292.4167158565062
 21
758.7953410992221
 31
0.0
  0
LINE
  5
251
330
4A
100
AcDbEntity
  8
0
  6
Continuous
 62
     2
100
AcDbLine
 10
290.6489489035398
 20
757.0275741462558
 30
0.0
 11
284.3658878728609
 21
763.3106351769347
 31
0.0
  0
LINE
  5
252
330
4A
100
AcDbEntity
  8
0
  6
Continuous
 62
     2
100
AcDbLine
 10
253.9303428912458
 20
748.9767461626104
 30
0.0
 11
260.2134039219249
 21
755.2598071932895
 31
0.0
  0
LINE
  5
253
330
4A
100
AcDbEntity
  8
0
  6
Continuous
 62
     2
100
AcDbLine
 10
261.9811708748914
 20
757.0275741462558
 30
0.0
 11
266.1406690670862
 21
752.8680759540607
 31
0.0
  0
LINE
  5
254
330
4A
100
AcDbEntity
  8
0
  6
Continuous
 62
     2
100
AcDbLine
 10
260.2134039219249
 20
755.2598071932895
 30
0.0
 11
266.1406690670862
 21
749.3325420481294
 31
0.0
  0
LINE
  5
255
330
4A
100
AcDbEntity
  8
0
  6
Continuous
 62
     2
100
AcDbLine
 10
268.2642319055701
 20
763.3106351769349
 30
0.0
 11
261.9811708748914
 21
757.0275741462558
 31
0.0
  0
LINE
  5
256
330
4A
100
AcDbEntity
  8
0
  6
Continuous
 62
     2
100
AcDbLine
 10
260.2134039219247
 20
758.7953410992221
 30
0.0
 11
266.4964649526038
 21
765.0784021299011
 31
0.0
  0
LINE
  5
257
330
4A
100
AcDbEntity
  8
0
  6
Continuous
 62
     2
100
AcDbLine
 10
252.1625759382794
 20
750.7445131155769
 30
0.0
 11
258.4456369689584
 21
757.0275741462558
 31
0.0
  0
LINE
  5
258
330
4A
100
AcDbEntity
  8
0
  6
Continuous
 62
     2
100
AcDbLine
 10
253.9303428912458
 20
765.0784021299011
 30
0.0
 11
260.2134039219247
 21
758.7953410992221
 31
0.0
  0
LINE
  5
259
330
4A
100
AcDbEntity
  8
0
  6
Continuous
 62
     2
100
AcDbLine
 10
258.4456369689584
 20
757.0275741462558
 30
0.0
 11
252.1625759382794
 21
763.3106351769347
 31
0.0
  0
LINE
  5
25A
330
4A
100
AcDbEntity
  8
0
  6
Continuous
 62
     2
100
AcDbLine
 10
274.5472929362491
 20
757.0275741462558
 30
0.0
 11
268.2642319055701
 21
763.3106351769349
 31
0.0
  0
LINE
  5
25B
330
4A
100
AcDbEntity
  8
0
  6
Continuous
 62
     2
100
AcDbLine
 10
270.0319988585366
 20
765.0784021299011
 30
0.0
 11
276.3150598892155
 21
758.7953410992221
 31
0.0
  0
LINE
  5
25C
330
4A
100
AcDbEntity
  8
0
  6
Continuous
 62
     2
100
AcDbLine
 10
278.0828268421819
 20
757.0275741462558
 30
0.0
 11
279.3712350711503
 21
755.7391659172874
 31
0.0
  0
LINE
  5
25D
330
4A
100
AcDbEntity
  8
0
  6
Continuous
 62
     2
100
AcDbLine
 10
276.3150598892155
 20
758.7953410992221
 30
0.0
 11
282.5981209198944
 21
765.0784021299011
 31
0.0
  0
LINE
  5
25E
330
4A
100
AcDbEntity
  8
0
  6
Continuous
 62
     2
100
AcDbLine
 10
284.3658878728609
 20
763.3106351769347
 30
0.0
 11
278.0828268421819
 21
757.0275741462558
 31
0.0
  0
LINE
  5
25F
330
4A
100
AcDbEntity
  8
0
  6
Continuous
 62
     2
100
AcDbLine
 10
244.111747954634
 20
755.2598071932895
 30
0.0
 11
250.3948089853128
 21
748.9767461626107
 31
0.0
  0
LINE
  5
260
330
4A
100
AcDbEntity
  8
0
  6
Continuous
 62
     2
100
AcDbLine
 10
236.0609199709888
 20
750.744513115577
 30
0.0
 11
242.3439810016675
 21
757.0275741462558
 31
0.0
  0
LINE
  5
261
330
4A
100
AcDbEntity
  8
0
  6
Continuous
 62
     2
100
AcDbLine
 10
237.8286869239543
 20
748.9767461626111
 30
0.0
 11
244.111747954634
 21
755.2598071932895
 31
0.0
  0
LINE
  5
262
330
4A
100
AcDbEntity
  8
0
  6
Continuous
 62
     2
100
AcDbLine
 10
242.3439810016675
 20
757.0275741462558
 30
0.0
 11
236.0609199709886
 21
763.3106351769349
 31
0.0
  0
LINE
  5
263
330
4A
100
AcDbEntity
  8
0
  6
Continuous
 62
     2
100
AcDbLine
 10
237.8286869239551
 20
765.0784021299011
 30
0.0
 11
244.1117479546342
 21
758.7953410992221
 31
0.0
  0
LINE
  5
264
330
4A
100
AcDbEntity
  8
0
  6
Continuous
 62
     2
100
AcDbLine
 10
245.8795149076004
 20
757.0275741462558
 30
0.0
 11
252.1625759382794
 21
750.7445131155769
 31
0.0
  0
LINE
  5
265
330
4A
100
AcDbEntity
  8
0
  6
Continuous
 62
     2
100
AcDbLine
 10
244.1117479546342
 20
758.7953410992221
 30
0.0
 11
250.3948089853129
 21
765.0784021299011
 31
0.0
  0
LINE
  5
266
330
4A
100
AcDbEntity
  8
0
  6
Continuous
 62
     2
100
AcDbLine
 10
252.1625759382794
 20
763.3106351769347
 30
0.0
 11
245.8795149076004
 21
757.0275741462558
 31
0.0
  0
LINE
  5
267
330
4A
100
AcDbEntity
  8
0
  6
Continuous
 62
     2
100
AcDbLine
 10
221.7270309566645
 20
748.9767461626107
 30
0.0
 11
228.0100919873434
 21
755.2598071932895
 31
0.0
  0
LINE
  5
268
330
4A
100
AcDbEntity
  8
0
  6
Continuous
 62
     2
100
AcDbLine
 10
229.7778589403098
 20
757.0275741462558
 30
0.0
 11
236.0609199709888
 21
750.744513115577
 31
0.0
  0
LINE
  5
269
330
4A
100
AcDbEntity
  8
0
  6
Continuous
 62
     2
100
AcDbLine
 10
228.0100919873434
 20
755.2598071932895
 30
0.0
 11
234.2931530180233
 21
748.9767461626111
 31
0.0
  0
LINE
  5
26A
330
4A
100
AcDbEntity
  8
0
  6
Continuous
 62
     2
100
AcDbLine
 10
236.0609199709886
 20
763.3106351769349
 30
0.0
 11
229.7778589403098
 21
757.0275741462558
 31
0.0
  0
LINE
  5
26B
330
4A
100
AcDbEntity
  8
0
  6
Continuous
 62
     2
100
AcDbLine
 10
228.0100919873433
 20
758.7953410992221
 30
0.0
 11
234.2931530180222
 21
765.0784021299011
 31
0.0
  0
LINE
  5
26C
330
4A
100
AcDbEntity
  8
0
  6
Continuous
 62
     2
100
AcDbLine
 10
210.1406690670862
 20
757.0275741462558
 30
0.0
 11
218.1914970507316
 21
748.9767461626104
 31
0.0
  0
LINE
  5
26D
330
4A
100
AcDbEntity
  8
0
  6
Continuous
 62
     2
100
AcDbLine
 10
219.9592640036979
 20
750.7445131155769
 30
0.0
 11
226.2423250343769
 21
757.0275741462558
 31
0.0
  0
LINE
  5
26E
330
4A
100
AcDbEntity
  8
0
  6
Continuous
 62
     2
100
AcDbLine
 10
213.6762029730191
 20
757.0275741462558
 30
0.0
 11
219.9592640036979
 21
750.7445131155769
 31
0.0
  0
LINE
  5
26F
330
4A
100
AcDbEntity
  8
0
  6
Continuous
 62
     2
100
AcDbLine
 10
218.1914970507316
 20
765.0784021299011
 30
0.0
 11
210.1406690670862
 21
757.0275741462558
 31
0.0
  0
LINE
  5
270
330
4A
100
AcDbEntity
  8
0
  6
Continuous
 62
     2
100
AcDbLine
 10
221.7270309566644
 20
765.0784021299011
 30
0.0
 11
228.0100919873433
 21
758.7953410992221
 31
0.0
  0
LINE
  5
271
330
4A
100
AcDbEntity
  8
0
  6
Continuous
 62
     2
100
AcDbLine
 10
226.2423250343769
 20
757.0275741462558
 30
0.0
 11
219.9592640036979
 21
763.3106351769347
 31
0.0
  0
LINE
  5
272
330
4A
100
AcDbEntity
  8
0
  6
Continuous
 62
     2
100
AcDbLine
 10
219.9592640036979
 20
763.3106351769347
 30
0.0
 11
213.6762029730191
 21
757.0275741462558
 31
0.0
  0
LINE
  5
273
330
4A
100
AcDbEntity
  8
0
  6
Continuous
 62
     2
100
AcDbLine
 10
422.9977305477991
 20
773.1292301135463
 30
0.0
 11
426.1406690670862
 21
769.9862915942588
 31
0.0
  0
LINE
  5
274
330
4A
100
AcDbEntity
  8
0
  6
Continuous
 62
     2
100
AcDbLine
 10
421.2299635948327
 20
774.8969970665125
 30
0.0
 11
414.9469025641537
 21
781.1800580971914
 31
0.0
  0
LINE
  5
275
330
4A
100
AcDbEntity
  8
0
  6
Continuous
 62
     2
100
AcDbLine
 10
426.1406690670862
 20
776.2721686328334
 30
0.0
 11
422.9977305477991
 21
773.1292301135463
 31
0.0
  0
LINE
  5
276
330
4A
100
AcDbEntity
  8
0
  6
Continuous
 62
     2
100
AcDbLine
 10
426.1406690670862
 20
779.8077025387652
 30
0.0
 11
421.2299635948327
 21
774.8969970665125
 31
0.0
  0
LINE
  5
277
330
4A
100
AcDbEntity
  8
0
  6
Continuous
 62
     2
100
AcDbLine
 10
426.1406690670862
 20
766.4507576883261
 30
0.0
 11
421.2299635948326
 21
771.3614631605799
 31
0.0
  0
LINE
  5
278
330
4A
100
AcDbEntity
  8
0
  6
Continuous
 62
     2
100
AcDbLine
 10
419.4621966418661
 20
773.1292301135463
 30
0.0
 11
413.1791356111871
 21
779.4122911442253
 31
0.0
  0
LINE
  5
279
330
4A
100
AcDbEntity
  8
0
  6
Continuous
 62
     2
100
AcDbLine
 10
421.2299635948326
 20
771.3614631605799
 30
0.0
 11
414.9469025641536
 21
765.0784021299011
 31
0.0
  0
LINE
  5
27A
330
4A
100
AcDbEntity
  8
0
  6
Continuous
 62
     2
100
AcDbLine
 10
413.1791356111871
 20
766.8461690828673
 30
0.0
 11
419.4621966418661
 21
773.1292301135463
 31
0.0
  0
LINE
  5
27B
330
4A
100
AcDbEntity
  8
0
  6
Continuous
 62
     2
100
AcDbLine
 10
389.026651660251
 20
774.8969970665125
 30
0.0
 11
382.7435906295719
 21
781.1800580971915
 31
0.0
  0
LINE
  5
27C
330
4A
100
AcDbEntity
  8
0
  6
Continuous
 62
     2
100
AcDbLine
 10
397.0774796438961
 20
779.412291144225
 30
0.0
 11
390.7944186132173
 21
773.1292301135463
 31
0.0
  0
LINE
  5
27D
330
4A
100
AcDbEntity
  8
0
  6
Continuous
 62
     2
100
AcDbLine
 10
395.3097126909307
 20
781.180058097191
 30
0.0
 11
389.026651660251
 21
774.8969970665125
 31
0.0
  0
LINE
  5
27E
330
4A
100
AcDbEntity
  8
0
  6
Continuous
 62
     2
100
AcDbLine
 10
390.7944186132173
 20
773.1292301135463
 30
0.0
 11
397.0774796438964
 21
766.8461690828672
 31
0.0
  0
LINE
  5
27F
330
4A
100
AcDbEntity
  8
0
  6
Continuous
 62
     2
100
AcDbLine
 10
395.3097126909298
 20
765.0784021299011
 30
0.0
 11
389.0266516602508
 21
771.3614631605799
 31
0.0
  0
LINE
  5
280
330
4A
100
AcDbEntity
  8
0
  6
Continuous
 62
     2
100
AcDbLine
 10
387.2588847072844
 20
773.1292301135463
 30
0.0
 11
380.9758236766054
 21
779.4122911442253
 31
0.0
  0
LINE
  5
281
330
4A
100
AcDbEntity
  8
0
  6
Continuous
 62
     2
100
AcDbLine
 10
389.0266516602508
 20
771.3614631605799
 30
0.0
 11
382.7435906295719
 21
765.0784021299011
 31
0.0
  0
LINE
  5
282
330
4A
100
AcDbEntity
  8
0
  6
Continuous
 62
     2
100
AcDbLine
 10
380.9758236766054
 20
766.8461690828673
 30
0.0
 11
387.2588847072844
 21
773.1292301135463
 31
0.0
  0
LINE
  5
283
330
4A
100
AcDbEntity
  8
0
  6
Continuous
 62
     2
100
AcDbLine
 10
411.4113686582205
 20
781.1800580971914
 30
0.0
 11
405.1283076275415
 21
774.8969970665125
 31
0.0
  0
LINE
  5
284
330
4A
100
AcDbEntity
  8
0
  6
Continuous
 62
     2
100
AcDbLine
 10
403.3605406745751
 20
773.1292301135463
 30
0.0
 11
397.0774796438961
 21
779.412291144225
 31
0.0
  0
LINE
  5
285
330
4A
100
AcDbEntity
  8
0
  6
Continuous
 62
     2
100
AcDbLine
 10
405.1283076275415
 20
774.8969970665125
 30
0.0
 11
398.8452465968618
 21
781.180058097191
 31
0.0
  0
LINE
  5
286
330
4A
100
AcDbEntity
  8
0
  6
Continuous
 62
     2
100
AcDbLine
 10
397.0774796438964
 20
766.8461690828672
 30
0.0
 11
403.3605406745751
 21
773.1292301135463
 31
0.0
  0
LINE
  5
287
330
4A
100
AcDbEntity
  8
0
  6
Continuous
 62
     2
100
AcDbLine
 10
405.1283076275416
 20
771.3614631605799
 30
0.0
 11
398.8452465968626
 21
765.0784021299011
 31
0.0
  0
LINE
  5
288
330
4A
100
AcDbEntity
  8
0
  6
Continuous
 62
     2
100
AcDbLine
 10
413.1791356111871
 20
779.4122911442253
 30
0.0
 11
406.896074580508
 21
773.1292301135463
 31
0.0
  0
LINE
  5
289
330
4A
100
AcDbEntity
  8
0
  6
Continuous
 62
     2
100
AcDbLine
 10
411.4113686582205
 20
765.0784021299011
 30
0.0
 11
405.1283076275416
 21
771.3614631605799
 31
0.0
  0
LINE
  5
28A
330
4A
100
AcDbEntity
  8
0
  6
Continuous
 62
     2
100
AcDbLine
 10
406.896074580508
 20
773.1292301135463
 30
0.0
 11
413.1791356111871
 21
766.8461690828673
 31
0.0
  0
LINE
  5
28B
330
4A
100
AcDbEntity
  8
0
  6
Continuous
 62
     2
100
AcDbLine
 10
379.2080567236391
 20
781.1800580971915
 30
0.0
 11
372.9249956929599
 21
774.8969970665125
 31
0.0
  0
LINE
  5
28C
330
4A
100
AcDbEntity
  8
0
  6
Continuous
 62
     2
100
AcDbLine
 10
371.1572287399937
 20
773.1292301135463
 30
0.0
 11
364.8741677093149
 21
779.412291144225
 31
0.0
  0
LINE
  5
28D
330
4A
100
AcDbEntity
  8
0
  6
Continuous
 62
     2
100
AcDbLine
 10
372.9249956929599
 20
774.8969970665125
 30
0.0
 11
366.6419346622802
 21
781.180058097191
 31
0.0
  0
LINE
  5
28E
330
4A
100
AcDbEntity
  8
0
  6
Continuous
 62
     2
100
AcDbLine
 10
364.8741677093148
 20
766.8461690828672
 30
0.0
 11
371.1572287399937
 21
773.1292301135463
 31
0.0
  0
LINE
  5
28F
330
4A
100
AcDbEntity
  8
0
  6
Continuous
 62
     2
100
AcDbLine
 10
372.92499569296
 20
771.3614631605799
 30
0.0
 11
366.6419346622811
 21
765.0784021299011
 31
0.0
  0
LINE
  5
290
330
4A
100
AcDbEntity
  8
0
  6
Continuous
 62
     2
100
AcDbLine
 10
380.9758236766054
 20
779.4122911442253
 30
0.0
 11
374.6927626459266
 21
773.1292301135463
 31
0.0
  0
LINE
  5
291
330
4A
100
AcDbEntity
  8
0
  6
Continuous
 62
     2
100
AcDbLine
 10
379.2080567236391
 20
765.0784021299011
 30
0.0
 11
372.92499569296
 21
771.3614631605799
 31
0.0
  0
LINE
  5
292
330
4A
100
AcDbEntity
  8
0
  6
Continuous
 62
     2
100
AcDbLine
 10
374.6927626459266
 20
773.1292301135463
 30
0.0
 11
380.9758236766054
 21
766.8461690828673
 31
0.0
  0
LINE
  5
293
330
4A
100
AcDbEntity
  8
0
  6
Continuous
 62
     2
100
AcDbLine
 10
356.8233397256694
 20
774.8969970665125
 30
0.0
 11
350.5402786949906
 21
781.1800580971914
 31
0.0
  0
LINE
  5
294
330
4A
100
AcDbEntity
  8
0
  6
Continuous
 62
     2
100
AcDbLine
 10
364.8741677093149
 20
779.412291144225
 30
0.0
 11
358.5911066786358
 21
773.1292301135463
 31
0.0
  0
LINE
  5
295
330
4A
100
AcDbEntity
  8
0
  6
Continuous
 62
     2
100
AcDbLine
 10
363.1064007563491
 20
781.180058097191
 30
0.0
 11
356.8233397256694
 21
774.8969970665125
 31
0.0
  0
LINE
  5
296
330
4A
100
AcDbEntity
  8
0
  6
Continuous
 62
     2
100
AcDbLine
 10
358.5911066786358
 20
773.1292301135463
 30
0.0
 11
364.8741677093148
 21
766.8461690828672
 31
0.0
  0
LINE
  5
297
330
4A
100
AcDbEntity
  8
0
  6
Continuous
 62
     2
100
AcDbLine
 10
363.1064007563483
 20
765.0784021299011
 30
0.0
 11
356.8233397256693
 21
771.3614631605799
 31
0.0
  0
LINE
  5
298
330
4A
100
AcDbEntity
  8
0
  6
Continuous
 62
     2
100
AcDbLine
 10
355.0555727727029
 20
773.1292301135463
 30
0.0
 11
348.7725117420238
 21
779.4122911442253
 31
0.0
  0
LINE
  5
299
330
4A
100
AcDbEntity
  8
0
  6
Continuous
 62
     2
100
AcDbLine
 10
356.8233397256693
 20
771.3614631605799
 30
0.0
 11
350.5402786949904
 21
765.0784021299011
 31
0.0
  0
LINE
  5
29A
330
4A
100
AcDbEntity
  8
0
  6
Continuous
 62
     2
100
AcDbLine
 10
348.7725117420238
 20
766.8461690828673
 30
0.0
 11
355.0555727727029
 21
773.1292301135463
 31
0.0
  0
LINE
  5
29B
330
4A
100
AcDbEntity
  8
0
  6
Continuous
 62
     2
100
AcDbLine
 10
324.6200277910879
 20
774.8969970665125
 30
0.0
 11
318.3369667604087
 21
781.1800580971915
 31
0.0
  0
LINE
  5
29C
330
4A
100
AcDbEntity
  8
0
  6
Continuous
 62
     2
100
AcDbLine
 10
332.6708557747329
 20
779.412291144225
 30
0.0
 11
326.3877947440543
 21
773.1292301135463
 31
0.0
  0
LINE
  5
29D
330
4A
100
AcDbEntity
  8
0
  6
Continuous
 62
     2
100
AcDbLine
 10
330.9030888217675
 20
781.180058097191
 30
0.0
 11
324.6200277910879
 21
774.8969970665125
 31
0.0
  0
LINE
  5
29E
330
4A
100
AcDbEntity
  8
0
  6
Continuous
 62
     2
100
AcDbLine
 10
326.3877947440543
 20
773.1292301135463
 30
0.0
 11
332.6708557747331
 21
766.8461690828672
 31
0.0
  0
LINE
  5
29F
330
4A
100
AcDbEntity
  8
0
  6
Continuous
 62
     2
100
AcDbLine
 10
330.9030888217667
 20
765.0784021299011
 30
0.0
 11
324.6200277910878
 21
771.3614631605799
 31
0.0
  0
LINE
  5
2A0
330
4A
100
AcDbEntity
  8
0
  6
Continuous
 62
     2
100
AcDbLine
 10
322.8522608381213
 20
773.1292301135463
 30
0.0
 11
316.5691998074423
 21
779.4122911442253
 31
0.0
  0
LINE
  5
2A1
330
4A
100
AcDbEntity
  8
0
  6
Continuous
 62
     2
100
AcDbLine
 10
324.6200277910878
 20
771.3614631605799
 30
0.0
 11
318.3369667604088
 21
765.0784021299011
 31
0.0
  0
LINE
  5
2A2
330
4A
100
AcDbEntity
  8
0
  6
Continuous
 62
     2
100
AcDbLine
 10
316.5691998074423
 20
766.8461690828673
 30
0.0
 11
322.8522608381213
 21
773.1292301135463
 31
0.0
  0
LINE
  5
2A3
330
4A
100
AcDbEntity
  8
0
  6
Continuous
 62
     2
100
AcDbLine
 10
347.0047447890572
 20
781.1800580971914
 30
0.0
 11
340.7216837583783
 21
774.8969970665125
 31
0.0
  0
LINE
  5
2A4
330
4A
100
AcDbEntity
  8
0
  6
Continuous
 62
     2
100
AcDbLine
 10
338.9539168054121
 20
773.1292301135463
 30
0.0
 11
332.6708557747329
 21
779.412291144225
 31
0.0
  0
LINE
  5
2A5
330
4A
100
AcDbEntity
  8
0
  6
Continuous
 62
     2
100
AcDbLine
 10
340.7216837583783
 20
774.8969970665125
 30
0.0
 11
334.4386227276987
 21
781.180058097191
 31
0.0
  0
LINE
  5
2A6
330
4A
100
AcDbEntity
  8
0
  6
Continuous
 62
     2
100
AcDbLine
 10
332.6708557747331
 20
766.8461690828672
 30
0.0
 11
338.9539168054121
 21
773.1292301135463
 31
0.0
  0
LINE
  5
2A7
330
4A
100
AcDbEntity
  8
0
  6
Continuous
 62
     2
100
AcDbLine
 10
340.7216837583784
 20
771.3614631605799
 30
0.0
 11
334.4386227276996
 21
765.0784021299011
 31
0.0
  0
LINE
  5
2A8
330
4A
100
AcDbEntity
  8
0
  6
Continuous
 62
     2
100
AcDbLine
 10
348.7725117420238
 20
779.4122911442253
 30
0.0
 11
342.4894507113449
 21
773.1292301135463
 31
0.0
  0
LINE
  5
2A9
330
4A
100
AcDbEntity
  8
0
  6
Continuous
 62
     2
100
AcDbLine
 10
347.0047447890573
 20
765.0784021299011
 30
0.0
 11
340.7216837583784
 21
771.3614631605799
 31
0.0
  0
LINE
  5
2AA
330
4A
100
AcDbEntity
  8
0
  6
Continuous
 62
     2
100
AcDbLine
 10
342.4894507113449
 20
773.1292301135463
 30
0.0
 11
348.7725117420238
 21
766.8461690828673
 31
0.0
  0
LINE
  5
2AB
330
4A
100
AcDbEntity
  8
0
  6
Continuous
 62
     2
100
AcDbLine
 10
314.8014328544759
 20
781.1800580971915
 30
0.0
 11
308.5183718237969
 21
774.8969970665125
 31
0.0
  0
LINE
  5
2AC
330
4A
100
AcDbEntity
  8
0
  6
Continuous
 62
     2
100
AcDbLine
 10
306.7506048708306
 20
773.1292301135463
 30
0.0
 11
300.4675438401517
 21
779.412291144225
 31
0.0
  0
LINE
  5
2AD
330
4A
100
AcDbEntity
  8
0
  6
Continuous
 62
     2
100
AcDbLine
 10
308.5183718237969
 20
774.8969970665125
 30
0.0
 11
302.2353107931172
 21
781.180058097191
 31
0.0
  0
LINE
  5
2AE
330
4A
100
AcDbEntity
  8
0
  6
Continuous
 62
     2
100
AcDbLine
 10
300.4675438401516
 20
766.8461690828672
 30
0.0
 11
306.7506048708306
 21
773.1292301135463
 31
0.0
  0
LINE
  5
2AF
330
4A
100
AcDbEntity
  8
0
  6
Continuous
 62
     2
100
AcDbLine
 10
308.518371823797
 20
771.3614631605799
 30
0.0
 11
302.2353107931181
 21
765.0784021299011
 31
0.0
  0
LINE
  5
2B0
330
4A
100
AcDbEntity
  8
0
  6
Continuous
 62
     2
100
AcDbLine
 10
316.5691998074423
 20
779.4122911442253
 30
0.0
 11
310.2861387767634
 21
773.1292301135463
 31
0.0
  0
LINE
  5
2B1
330
4A
100
AcDbEntity
  8
0
  6
Continuous
 62
     2
100
AcDbLine
 10
314.8014328544759
 20
765.0784021299011
 30
0.0
 11
308.518371823797
 21
771.3614631605799
 31
0.0
  0
LINE
  5
2B2
330
4A
100
AcDbEntity
  8
0
  6
Continuous
 62
     2
100
AcDbLine
 10
310.2861387767634
 20
773.1292301135463
 30
0.0
 11
316.5691998074423
 21
766.8461690828673
 31
0.0
  0
LINE
  5
2B3
330
4A
100
AcDbEntity
  8
0
  6
Continuous
 62
     2
100
AcDbLine
 10
292.4167158565064
 20
774.8969970665125
 30
0.0
 11
286.1336548258274
 21
781.1800580971914
 31
0.0
  0
LINE
  5
2B4
330
4A
100
AcDbEntity
  8
0
  6
Continuous
 62
     2
100
AcDbLine
 10
300.4675438401517
 20
779.412291144225
 30
0.0
 11
294.1844828094728
 21
773.1292301135463
 31
0.0
  0
LINE
  5
2B5
330
4A
100
AcDbEntity
  8
0
  6
Continuous
 62
     2
100
AcDbLine
 10
298.6997768871861
 20
781.180058097191
 30
0.0
 11
292.4167158565064
 21
774.8969970665125
 31
0.0
  0
LINE
  5
2B6
330
4A
100
AcDbEntity
  8
0
  6
Continuous
 62
     2
100
AcDbLine
 10
294.1844828094728
 20
773.1292301135463
 30
0.0
 11
300.4675438401516
 21
766.8461690828672
 31
0.0
  0
LINE
  5
2B7
330
4A
100
AcDbEntity
  8
0
  6
Continuous
 62
     2
100
AcDbLine
 10
298.6997768871853
 20
765.0784021299011
 30
0.0
 11
292.4167158565062
 21
771.3614631605799
 31
0.0
  0
LINE
  5
2B8
330
4A
100
AcDbEntity
  8
0
  6
Continuous
 62
     2
100
AcDbLine
 10
290.6489489035398
 20
773.1292301135463
 30
0.0
 11
284.3658878728609
 21
779.4122911442253
 31
0.0
  0
LINE
  5
2B9
330
4A
100
AcDbEntity
  8
0
  6
Continuous
 62
     2
100
AcDbLine
 10
292.4167158565062
 20
771.3614631605799
 30
0.0
 11
286.1336548258273
 21
765.0784021299011
 31
0.0
  0
LINE
  5
2BA
330
4A
100
AcDbEntity
  8
0
  6
Continuous
 62
     2
100
AcDbLine
 10
284.3658878728609
 20
766.8461690828673
 30
0.0
 11
290.6489489035398
 21
773.1292301135463
 31
0.0
  0
LINE
  5
2BB
330
4A
100
AcDbEntity
  8
0
  6
Continuous
 62
     2
100
AcDbLine
 10
260.2134039219249
 20
774.8969970665125
 30
0.0
 11
253.9303428912458
 21
781.1800580971915
 31
0.0
  0
LINE
  5
2BC
330
4A
100
AcDbEntity
  8
0
  6
Continuous
 62
     2
100
AcDbLine
 10
268.26423190557
 20
779.412291144225
 30
0.0
 11
261.9811708748914
 21
773.1292301135463
 31
0.0
  0
LINE
  5
2BD
330
4A
100
AcDbEntity
  8
0
  6
Continuous
 62
     2
100
AcDbLine
 10
266.4964649526046
 20
781.180058097191
 30
0.0
 11
260.2134039219249
 21
774.8969970665125
 31
0.0
  0
LINE
  5
2BE
330
4A
100
AcDbEntity
  8
0
  6
Continuous
 62
     2
100
AcDbLine
 10
261.9811708748914
 20
773.1292301135463
 30
0.0
 11
268.2642319055701
 21
766.8461690828672
 31
0.0
  0
LINE
  5
2BF
330
4A
100
AcDbEntity
  8
0
  6
Continuous
 62
     2
100
AcDbLine
 10
266.4964649526038
 20
765.0784021299011
 30
0.0
 11
260.2134039219247
 21
771.3614631605799
 31
0.0
  0
LINE
  5
2C0
330
4A
100
AcDbEntity
  8
0
  6
Continuous
 62
     2
100
AcDbLine
 10
258.4456369689584
 20
773.1292301135463
 30
0.0
 11
252.1625759382794
 21
779.4122911442253
 31
0.0
  0
LINE
  5
2C1
330
4A
100
AcDbEntity
  8
0
  6
Continuous
 62
     2
100
AcDbLine
 10
260.2134039219247
 20
771.3614631605799
 30
0.0
 11
253.9303428912458
 21
765.0784021299011
 31
0.0
  0
LINE
  5
2C2
330
4A
100
AcDbEntity
  8
0
  6
Continuous
 62
     2
100
AcDbLine
 10
252.1625759382794
 20
766.8461690828673
 30
0.0
 11
258.4456369689584
 21
773.1292301135463
 31
0.0
  0
LINE
  5
2C3
330
4A
100
AcDbEntity
  8
0
  6
Continuous
 62
     2
100
AcDbLine
 10
282.5981209198943
 20
781.1800580971914
 30
0.0
 11
276.3150598892153
 21
774.8969970665125
 31
0.0
  0
LINE
  5
2C4
330
4A
100
AcDbEntity
  8
0
  6
Continuous
 62
     2
100
AcDbLine
 10
274.5472929362491
 20
773.1292301135463
 30
0.0
 11
268.26423190557
 21
779.412291144225
 31
0.0
  0
LINE
  5
2C5
330
4A
100
AcDbEntity
  8
0
  6
Continuous
 62
     2
100
AcDbLine
 10
276.3150598892153
 20
774.8969970665125
 30
0.0
 11
270.0319988585356
 21
781.180058097191
 31
0.0
  0
LINE
  5
2C6
330
4A
100
AcDbEntity
  8
0
  6
Continuous
 62
     2
100
AcDbLine
 10
268.2642319055701
 20
766.8461690828672
 30
0.0
 11
274.5472929362491
 21
773.1292301135463
 31
0.0
  0
LINE
  5
2C7
330
4A
100
AcDbEntity
  8
0
  6
Continuous
 62
     2
100
AcDbLine
 10
276.3150598892155
 20
771.3614631605799
 30
0.0
 11
270.0319988585366
 21
765.0784021299011
 31
0.0
  0
LINE
  5
2C8
330
4A
100
AcDbEntity
  8
0
  6
Continuous
 62
     2
100
AcDbLine
 10
284.3658878728609
 20
779.4122911442253
 30
0.0
 11
278.0828268421819
 21
773.1292301135463
 31
0.0
  0
LINE
  5
2C9
330
4A
100
AcDbEntity
  8
0
  6
Continuous
 62
     2
100
AcDbLine
 10
282.5981209198944
 20
765.0784021299011
 30
0.0
 11
276.3150598892155
 21
771.3614631605799
 31
0.0
  0
LINE
  5
2CA
330
4A
100
AcDbEntity
  8
0
  6
Continuous
 62
     2
100
AcDbLine
 10
278.0828268421819
 20
773.1292301135463
 30
0.0
 11
284.3658878728609
 21
766.8461690828673
 31
0.0
  0
LINE
  5
2CB
330
4A
100
AcDbEntity
  8
0
  6
Continuous
 62
     2
100
AcDbLine
 10
250.3948089853128
 20
781.1800580971914
 30
0.0
 11
244.111747954634
 21
774.8969970665125
 31
0.0
  0
LINE
  5
2CC
330
4A
100
AcDbEntity
  8
0
  6
Continuous
 62
     2
100
AcDbLine
 10
242.3439810016675
 20
773.1292301135463
 30
0.0
 11
236.0609199709888
 21
779.412291144225
 31
0.0
  0
LINE
  5
2CD
330
4A
100
AcDbEntity
  8
0
  6
Continuous
 62
     2
100
AcDbLine
 10
244.111747954634
 20
774.8969970665125
 30
0.0
 11
237.8286869239543
 21
781.180058097191
 31
0.0
  0
LINE
  5
2CE
330
4A
100
AcDbEntity
  8
0
  6
Continuous
 62
     2
100
AcDbLine
 10
236.0609199709886
 20
766.8461690828672
 30
0.0
 11
242.3439810016675
 21
773.1292301135463
 31
0.0
  0
LINE
  5
2CF
330
4A
100
AcDbEntity
  8
0
  6
Continuous
 62
     2
100
AcDbLine
 10
244.1117479546342
 20
771.3614631605799
 30
0.0
 11
237.8286869239551
 21
765.0784021299011
 31
0.0
  0
LINE
  5
2D0
330
4A
100
AcDbEntity
  8
0
  6
Continuous
 62
     2
100
AcDbLine
 10
252.1625759382794
 20
779.4122911442253
 30
0.0
 11
245.8795149076004
 21
773.1292301135463
 31
0.0
  0
LINE
  5
2D1
330
4A
100
AcDbEntity
  8
0
  6
Continuous
 62
     2
100
AcDbLine
 10
250.3948089853129
 20
765.0784021299011
 30
0.0
 11
244.1117479546342
 21
771.3614631605799
 31
0.0
  0
LINE
  5
2D2
330
4A
100
AcDbEntity
  8
0
  6
Continuous
 62
     2
100
AcDbLine
 10
245.8795149076004
 20
773.1292301135463
 30
0.0
 11
252.1625759382794
 21
766.8461690828673
 31
0.0
  0
LINE
  5
2D3
330
4A
100
AcDbEntity
  8
0
  6
Continuous
 62
     2
100
AcDbLine
 10
228.0100919873434
 20
774.8969970665125
 30
0.0
 11
221.7270309566645
 21
781.1800580971914
 31
0.0
  0
LINE
  5
2D4
330
4A
100
AcDbEntity
  8
0
  6
Continuous
 62
     2
100
AcDbLine
 10
236.0609199709888
 20
779.412291144225
 30
0.0
 11
229.7778589403098
 21
773.1292301135463
 31
0.0
  0
LINE
  5
2D5
330
4A
100
AcDbEntity
  8
0
  6
Continuous
 62
     2
100
AcDbLine
 10
234.2931530180233
 20
781.180058097191
 30
0.0
 11
228.0100919873434
 21
774.8969970665125
 31
0.0
  0
LINE
  5
2D6
330
4A
100
AcDbEntity
  8
0
  6
Continuous
 62
     2
100
AcDbLine
 10
229.7778589403098
 20
773.1292301135463
 30
0.0
 11
236.0609199709886
 21
766.8461690828672
 31
0.0
  0
LINE
  5
2D7
330
4A
100
AcDbEntity
  8
0
  6
Continuous
 62
     2
100
AcDbLine
 10
234.2931530180222
 20
765.0784021299011
 30
0.0
 11
228.0100919873433
 21
771.3614631605799
 31
0.0
  0
LINE
  5
2D8
330
4A
100
AcDbEntity
  8
0
  6
Continuous
 62
     2
100
AcDbLine
 10
218.1914970507316
 20
781.1800580971915
 30
0.0
 11
210.1406690670862
 21
773.1292301135463
 31
0.0
  0
LINE
  5
2D9
330
4A
100
AcDbEntity
  8
0
  6
Continuous
 62
     2
100
AcDbLine
 10
226.2423250343769
 20
773.1292301135463
 30
0.0
 11
219.9592640036979
 21
779.4122911442253
 31
0.0
  0
LINE
  5
2DA
330
4A
100
AcDbEntity
  8
0
  6
Continuous
 62
     2
100
AcDbLine
 10
219.9592640036979
 20
779.4122911442253
 30
0.0
 11
213.6762029730191
 21
773.1292301135463
 31
0.0
  0
LINE
  5
2DB
330
4A
100
AcDbEntity
  8
0
  6
Continuous
 62
     2
100
AcDbLine
 10
210.1406690670862
 20
773.1292301135463
 30
0.0
 11
218.1914970507316
 21
765.0784021299011
 31
0.0
  0
LINE
  5
2DC
330
4A
100
AcDbEntity
  8
0
  6
Continuous
 62
     2
100
AcDbLine
 10
228.0100919873433
 20
771.3614631605799
 30
0.0
 11
221.7270309566644
 21
765.0784021299011
 31
0.0
  0
LINE
  5
2DD
330
4A
100
AcDbEntity
  8
0
  6
Continuous
 62
     2
100
AcDbLine
 10
219.9592640036979
 20
766.8461690828673
 30
0.0
 11
226.2423250343769
 21
773.1292301135463
 31
0.0
  0
LINE
  5
2DE
330
4A
100
AcDbEntity
  8
0
  6
Continuous
 62
     2
100
AcDbLine
 10
213.6762029730191
 20
773.1292301135463
 30
0.0
 11
219.9592640036979
 21
766.8461690828673
 31
0.0
  0
LINE
  5
2DF
330
4A
100
AcDbEntity
  8
0
  6
Continuous
 62
     2
100
AcDbLine
 10
426.1406690670862
 20
792.3738246001229
 30
0.0
 11
422.9977305477991
 21
789.2308860808357
 31
0.0
  0
LINE
  5
2E0
330
4A
100
AcDbEntity
  8
0
  6
Continuous
 62
     2
100
AcDbLine
 10
414.9469025641537
 20
781.1800580971914
 30
0.0
 11
421.2299635948327
 21
787.4631191278693
 31
0.0
  0
LINE
  5
2E1
330
4A
100
AcDbEntity
  8
0
  6
Continuous
 62
     2
100
AcDbLine
 10
422.9977305477991
 20
789.2308860808357
 30
0.0
 11
426.1406690670862
 21
786.0879475615486
 31
0.0
  0
LINE
  5
2E2
330
4A
100
AcDbEntity
  8
0
  6
Continuous
 62
     2
100
AcDbLine
 10
421.2299635948327
 20
787.4631191278693
 30
0.0
 11
426.1406690670862
 21
782.5524136556168
 31
0.0
  0
LINE
  5
2E3
330
4A
100
AcDbEntity
  8
0
  6
Continuous
 62
     2
100
AcDbLine
 10
421.2299635948326
 20
790.998653033802
 30
0.0
 11
426.1406690670862
 21
795.9093585060557
 31
0.0
  0
LINE
  5
2E4
330
4A
100
AcDbEntity
  8
0
  6
Continuous
 62
     2
100
AcDbLine
 10
413.1791356111871
 20
782.9478250501567
 30
0.0
 11
419.4621966418661
 21
789.2308860808357
 31
0.0
  0
LINE
  5
2E5
330
4A
100
AcDbEntity
  8
0
  6
Continuous
 62
     2
100
AcDbLine
 10
414.9469025641536
 20
797.2817140644808
 30
0.0
 11
421.2299635948326
 21
790.998653033802
 31
0.0
  0
LINE
  5
2E6
330
4A
100
AcDbEntity
  8
0
  6
Continuous
 62
     2
100
AcDbLine
 10
419.4621966418661
 20
789.2308860808357
 30
0.0
 11
413.1791356111871
 21
795.5139471115145
 31
0.0
  0
LINE
  5
2E7
330
4A
100
AcDbEntity
  8
0
  6
Continuous
 62
     2
100
AcDbLine
 10
382.7435906295719
 20
781.1800580971902
 30
0.0
 11
389.026651660251
 21
787.4631191278693
 31
0.0
  0
LINE
  5
2E8
330
4A
100
AcDbEntity
  8
0
  6
Continuous
 62
     2
100
AcDbLine
 10
390.7944186132173
 20
789.2308860808357
 30
0.0
 11
397.0774796438961
 21
782.9478250501568
 31
0.0
  0
LINE
  5
2E9
330
4A
100
AcDbEntity
  8
0
  6
Continuous
 62
     2
100
AcDbLine
 10
389.026651660251
 20
787.4631191278693
 30
0.0
 11
395.3097126909307
 21
781.180058097191
 31
0.0
  0
LINE
  5
2EA
330
4A
100
AcDbEntity
  8
0
  6
Continuous
 62
     2
100
AcDbLine
 10
397.0774796438964
 20
795.5139471115148
 30
0.0
 11
390.7944186132173
 21
789.2308860808357
 31
0.0
  0
LINE
  5
2EB
330
4A
100
AcDbEntity
  8
0
  6
Continuous
 62
     2
100
AcDbLine
 10
389.0266516602508
 20
790.998653033802
 30
0.0
 11
395.3097126909298
 21
797.2817140644809
 31
0.0
  0
LINE
  5
2EC
330
4A
100
AcDbEntity
  8
0
  6
Continuous
 62
     2
100
AcDbLine
 10
380.9758236766054
 20
782.9478250501567
 30
0.0
 11
387.2588847072844
 21
789.2308860808357
 31
0.0
  0
LINE
  5
2ED
330
4A
100
AcDbEntity
  8
0
  6
Continuous
 62
     2
100
AcDbLine
 10
382.7435906295719
 20
797.2817140644808
 30
0.0
 11
389.0266516602508
 21
790.998653033802
 31
0.0
  0
LINE
  5
2EE
330
4A
100
AcDbEntity
  8
0
  6
Continuous
 62
     2
100
AcDbLine
 10
387.2588847072844
 20
789.2308860808357
 30
0.0
 11
380.9758236766054
 21
795.5139471115145
 31
0.0
  0
LINE
  5
2EF
330
4A
100
AcDbEntity
  8
0
  6
Continuous
 62
     2
100
AcDbLine
 10
405.1283076275415
 20
787.4631191278693
 30
0.0
 11
411.4113686582205
 21
781.1800580971914
 31
0.0
  0
LINE
  5
2F0
330
4A
100
AcDbEntity
  8
0
  6
Continuous
 62
     2
100
AcDbLine
 10
397.0774796438961
 20
782.9478250501568
 30
0.0
 11
403.3605406745751
 21
789.2308860808357
 31
0.0
  0
LINE
  5
2F1
330
4A
100
AcDbEntity
  8
0
  6
Continuous
 62
     2
100
AcDbLine
 10
398.8452465968618
 20
781.180058097191
 30
0.0
 11
405.1283076275415
 21
787.4631191278693
 31
0.0
  0
LINE
  5
2F2
330
4A
100
AcDbEntity
  8
0
  6
Continuous
 62
     2
100
AcDbLine
 10
403.3605406745751
 20
789.2308860808357
 30
0.0
 11
397.0774796438964
 21
795.5139471115148
 31
0.0
  0
LINE
  5
2F3
330
4A
100
AcDbEntity
  8
0
  6
Continuous
 62
     2
100
AcDbLine
 10
398.8452465968626
 20
797.2817140644809
 30
0.0
 11
405.1283076275416
 21
790.998653033802
 31
0.0
  0
LINE
  5
2F4
330
4A
100
AcDbEntity
  8
0
  6
Continuous
 62
     2
100
AcDbLine
 10
406.896074580508
 20
789.2308860808357
 30
0.0
 11
413.1791356111871
 21
782.9478250501567
 31
0.0
  0
LINE
  5
2F5
330
4A
100
AcDbEntity
  8
0
  6
Continuous
 62
     2
100
AcDbLine
 10
405.1283076275416
 20
790.998653033802
 30
0.0
 11
411.4113686582205
 21
797.2817140644808
 31
0.0
  0
LINE
  5
2F6
330
4A
100
AcDbEntity
  8
0
  6
Continuous
 62
     2
100
AcDbLine
 10
413.1791356111871
 20
795.5139471115145
 30
0.0
 11
406.896074580508
 21
789.2308860808357
 31
0.0
  0
LINE
  5
2F7
330
4A
100
AcDbEntity
  8
0
  6
Continuous
 62
     2
100
AcDbLine
 10
372.9249956929599
 20
787.4631191278693
 30
0.0
 11
379.2080567236391
 21
781.1800580971902
 31
0.0
  0
LINE
  5
2F8
330
4A
100
AcDbEntity
  8
0
  6
Continuous
 62
     2
100
AcDbLine
 10
364.8741677093149
 20
782.9478250501568
 30
0.0
 11
371.1572287399937
 21
789.2308860808357
 31
0.0
  0
LINE
  5
2F9
330
4A
100
AcDbEntity
  8
0
  6
Continuous
 62
     2
100
AcDbLine
 10
366.6419346622802
 20
781.180058097191
 30
0.0
 11
372.9249956929599
 21
787.4631191278693
 31
0.0
  0
LINE
  5
2FA
330
4A
100
AcDbEntity
  8
0
  6
Continuous
 62
     2
100
AcDbLine
 10
371.1572287399937
 20
789.2308860808357
 30
0.0
 11
364.8741677093148
 21
795.5139471115148
 31
0.0
  0
LINE
  5
2FB
330
4A
100
AcDbEntity
  8
0
  6
Continuous
 62
     2
100
AcDbLine
 10
366.6419346622811
 20
797.2817140644809
 30
0.0
 11
372.92499569296
 21
790.998653033802
 31
0.0
  0
LINE
  5
2FC
330
4A
100
AcDbEntity
  8
0
  6
Continuous
 62
     2
100
AcDbLine
 10
374.6927626459266
 20
789.2308860808357
 30
0.0
 11
380.9758236766054
 21
782.9478250501567
 31
0.0
  0
LINE
  5
2FD
330
4A
100
AcDbEntity
  8
0
  6
Continuous
 62
     2
100
AcDbLine
 10
372.92499569296
 20
790.998653033802
 30
0.0
 11
379.2080567236391
 21
797.2817140644808
 31
0.0
  0
LINE
  5
2FE
330
4A
100
AcDbEntity
  8
0
  6
Continuous
 62
     2
100
AcDbLine
 10
380.9758236766054
 20
795.5139471115145
 30
0.0
 11
374.6927626459266
 21
789.2308860808357
 31
0.0
  0
LINE
  5
2FF
330
4A
100
AcDbEntity
  8
0
  6
Continuous
 62
     2
100
AcDbLine
 10
350.5402786949906
 20
781.1800580971914
 30
0.0
 11
356.8233397256694
 21
787.4631191278693
 31
0.0
  0
LINE
  5
300
330
4A
100
AcDbEntity
  8
0
  6
Continuous
 62
     2
100
AcDbLine
 10
358.5911066786358
 20
789.2308860808357
 30
0.0
 11
364.8741677093149
 21
782.9478250501568
 31
0.0
  0
LINE
  5
301
330
4A
100
AcDbEntity
  8
0
  6
Continuous
 62
     2
100
AcDbLine
 10
356.8233397256694
 20
787.4631191278693
 30
0.0
 11
363.1064007563491
 21
781.180058097191
 31
0.0
  0
LINE
  5
302
330
4A
100
AcDbEntity
  8
0
  6
Continuous
 62
     2
100
AcDbLine
 10
364.8741677093148
 20
795.5139471115148
 30
0.0
 11
358.5911066786358
 21
789.2308860808357
 31
0.0
  0
LINE
  5
303
330
4A
100
AcDbEntity
  8
0
  6
Continuous
 62
     2
100
AcDbLine
 10
356.8233397256693
 20
790.998653033802
 30
0.0
 11
363.1064007563483
 21
797.2817140644809
 31
0.0
  0
LINE
  5
304
330
4A
100
AcDbEntity
  8
0
  6
Continuous
 62
     2
100
AcDbLine
 10
348.7725117420238
 20
782.9478250501567
 30
0.0
 11
355.0555727727029
 21
789.2308860808357
 31
0.0
  0
LINE
  5
305
330
4A
100
AcDbEntity
  8
0
  6
Continuous
 62
     2
100
AcDbLine
 10
350.5402786949904
 20
797.2817140644808
 30
0.0
 11
356.8233397256693
 21
790.998653033802
 31
0.0
  0
LINE
  5
306
330
4A
100
AcDbEntity
  8
0
  6
Continuous
 62
     2
100
AcDbLine
 10
355.0555727727029
 20
789.2308860808357
 30
0.0
 11
348.7725117420238
 21
795.5139471115145
 31
0.0
  0
LINE
  5
307
330
4A
100
AcDbEntity
  8
0
  6
Continuous
 62
     2
100
AcDbLine
 10
318.3369667604087
 20
781.1800580971902
 30
0.0
 11
324.6200277910879
 21
787.4631191278693
 31
0.0
  0
LINE
  5
308
330
4A
100
AcDbEntity
  8
0
  6
Continuous
 62
     2
100
AcDbLine
 10
326.3877947440543
 20
789.2308860808357
 30
0.0
 11
332.6708557747329
 21
782.9478250501568
 31
0.0
  0
LINE
  5
309
330
4A
100
AcDbEntity
  8
0
  6
Continuous
 62
     2
100
AcDbLine
 10
324.6200277910879
 20
787.4631191278693
 30
0.0
 11
330.9030888217675
 21
781.180058097191
 31
0.0
  0
LINE
  5
30A
330
4A
100
AcDbEntity
  8
0
  6
Continuous
 62
     2
100
AcDbLine
 10
332.6708557747331
 20
795.5139471115148
 30
0.0
 11
326.3877947440543
 21
789.2308860808357
 31
0.0
  0
LINE
  5
30B
330
4A
100
AcDbEntity
  8
0
  6
Continuous
 62
     2
100
AcDbLine
 10
324.6200277910878
 20
790.998653033802
 30
0.0
 11
330.9030888217667
 21
797.2817140644809
 31
0.0
  0
LINE
  5
30C
330
4A
100
AcDbEntity
  8
0
  6
Continuous
 62
     2
100
AcDbLine
 10
316.5691998074423
 20
782.9478250501567
 30
0.0
 11
322.8522608381213
 21
789.2308860808357
 31
0.0
  0
LINE
  5
30D
330
4A
100
AcDbEntity
  8
0
  6
Continuous
 62
     2
100
AcDbLine
 10
318.3369667604088
 20
797.2817140644808
 30
0.0
 11
324.6200277910878
 21
790.998653033802
 31
0.0
  0
LINE
  5
30E
330
4A
100
AcDbEntity
  8
0
  6
Continuous
 62
     2
100
AcDbLine
 10
322.8522608381213
 20
789.2308860808357
 30
0.0
 11
316.5691998074423
 21
795.5139471115145
 31
0.0
  0
LINE
  5
30F
330
4A
100
AcDbEntity
  8
0
  6
Continuous
 62
     2
100
AcDbLine
 10
340.7216837583783
 20
787.4631191278693
 30
0.0
 11
347.0047447890572
 21
781.1800580971914
 31
0.0
  0
LINE
  5
310
330
4A
100
AcDbEntity
  8
0
  6
Continuous
 62
     2
100
AcDbLine
 10
332.6708557747329
 20
782.9478250501568
 30
0.0
 11
338.9539168054121
 21
789.2308860808357
 31
0.0
  0
LINE
  5
311
330
4A
100
AcDbEntity
  8
0
  6
Continuous
 62
     2
100
AcDbLine
 10
334.4386227276987
 20
781.180058097191
 30
0.0
 11
340.7216837583783
 21
787.4631191278693
 31
0.0
  0
LINE
  5
312
330
4A
100
AcDbEntity
  8
0
  6
Continuous
 62
     2
100
AcDbLine
 10
338.9539168054121
 20
789.2308860808357
 30
0.0
 11
332.6708557747331
 21
795.5139471115148
 31
0.0
  0
LINE
  5
313
330
4A
100
AcDbEntity
  8
0
  6
Continuous
 62
     2
100
AcDbLine
 10
334.4386227276996
 20
797.2817140644809
 30
0.0
 11
340.7216837583784
 21
790.998653033802
 31
0.0
  0
LINE
  5
314
330
4A
100
AcDbEntity
  8
0
  6
Continuous
 62
     2
100
AcDbLine
 10
342.4894507113449
 20
789.2308860808357
 30
0.0
 11
348.7725117420238
 21
782.9478250501567
 31
0.0
  0
LINE
  5
315
330
4A
100
AcDbEntity
  8
0
  6
Continuous
 62
     2
100
AcDbLine
 10
340.7216837583784
 20
790.998653033802
 30
0.0
 11
347.0047447890573
 21
797.2817140644808
 31
0.0
  0
LINE
  5
316
330
4A
100
AcDbEntity
  8
0
  6
Continuous
 62
     2
100
AcDbLine
 10
348.7725117420238
 20
795.5139471115145
 30
0.0
 11
342.4894507113449
 21
789.2308860808357
 31
0.0
  0
LINE
  5
317
330
4A
100
AcDbEntity
  8
0
  6
Continuous
 62
     2
100
AcDbLine
 10
308.5183718237969
 20
787.4631191278693
 30
0.0
 11
314.8014328544759
 21
781.1800580971902
 31
0.0
  0
LINE
  5
318
330
4A
100
AcDbEntity
  8
0
  6
Continuous
 62
     2
100
AcDbLine
 10
300.4675438401517
 20
782.9478250501568
 30
0.0
 11
306.7506048708306
 21
789.2308860808357
 31
0.0
  0
LINE
  5
319
330
4A
100
AcDbEntity
  8
0
  6
Continuous
 62
     2
100
AcDbLine
 10
302.2353107931172
 20
781.180058097191
 30
0.0
 11
308.5183718237969
 21
787.4631191278693
 31
0.0
  0
LINE
  5
31A
330
4A
100
AcDbEntity
  8
0
  6
Continuous
 62
     2
100
AcDbLine
 10
306.7506048708306
 20
789.2308860808357
 30
0.0
 11
300.4675438401516
 21
795.5139471115148
 31
0.0
  0
LINE
  5
31B
330
4A
100
AcDbEntity
  8
0
  6
Continuous
 62
     2
100
AcDbLine
 10
302.2353107931181
 20
797.2817140644809
 30
0.0
 11
308.518371823797
 21
790.998653033802
 31
0.0
  0
LINE
  5
31C
330
4A
100
AcDbEntity
  8
0
  6
Continuous
 62
     2
100
AcDbLine
 10
310.2861387767634
 20
789.2308860808357
 30
0.0
 11
316.5691998074423
 21
782.9478250501567
 31
0.0
  0
LINE
  5
31D
330
4A
100
AcDbEntity
  8
0
  6
Continuous
 62
     2
100
AcDbLine
 10
308.518371823797
 20
790.998653033802
 30
0.0
 11
314.8014328544759
 21
797.2817140644808
 31
0.0
  0
LINE
  5
31E
330
4A
100
AcDbEntity
  8
0
  6
Continuous
 62
     2
100
AcDbLine
 10
316.5691998074423
 20
795.5139471115145
 30
0.0
 11
310.2861387767634
 21
789.2308860808357
 31
0.0
  0
LINE
  5
31F
330
4A
100
AcDbEntity
  8
0
  6
Continuous
 62
     2
100
AcDbLine
 10
286.1336548258274
 20
781.1800580971914
 30
0.0
 11
292.4167158565064
 21
787.4631191278693
 31
0.0
  0
LINE
  5
320
330
4A
100
AcDbEntity
  8
0
  6
Continuous
 62
     2
100
AcDbLine
 10
294.1844828094728
 20
789.2308860808357
 30
0.0
 11
300.4675438401517
 21
782.9478250501568
 31
0.0
  0
LINE
  5
321
330
4A
100
AcDbEntity
  8
0
  6
Continuous
 62
     2
100
AcDbLine
 10
292.4167158565064
 20
787.4631191278693
 30
0.0
 11
298.6997768871861
 21
781.180058097191
 31
0.0
  0
LINE
  5
322
330
4A
100
AcDbEntity
  8
0
  6
Continuous
 62
     2
100
AcDbLine
 10
300.4675438401516
 20
795.5139471115148
 30
0.0
 11
294.1844828094728
 21
789.2308860808357
 31
0.0
  0
LINE
  5
323
330
4A
100
AcDbEntity
  8
0
  6
Continuous
 62
     2
100
AcDbLine
 10
292.4167158565062
 20
790.998653033802
 30
0.0
 11
298.6997768871853
 21
797.2817140644809
 31
0.0
  0
LINE
  5
324
330
4A
100
AcDbEntity
  8
0
  6
Continuous
 62
     2
100
AcDbLine
 10
284.3658878728609
 20
782.9478250501567
 30
0.0
 11
290.6489489035398
 21
789.2308860808357
 31
0.0
  0
LINE
  5
325
330
4A
100
AcDbEntity
  8
0
  6
Continuous
 62
     2
100
AcDbLine
 10
286.1336548258273
 20
797.2817140644808
 30
0.0
 11
292.4167158565062
 21
790.998653033802
 31
0.0
  0
LINE
  5
326
330
4A
100
AcDbEntity
  8
0
  6
Continuous
 62
     2
100
AcDbLine
 10
290.6489489035398
 20
789.2308860808357
 30
0.0
 11
284.3658878728609
 21
795.5139471115145
 31
0.0
  0
LINE
  5
327
330
4A
100
AcDbEntity
  8
0
  6
Continuous
 62
     2
100
AcDbLine
 10
253.9303428912458
 20
781.1800580971902
 30
0.0
 11
260.2134039219249
 21
787.4631191278693
 31
0.0
  0
LINE
  5
328
330
4A
100
AcDbEntity
  8
0
  6
Continuous
 62
     2
100
AcDbLine
 10
261.9811708748914
 20
789.2308860808357
 30
0.0
 11
268.26423190557
 21
782.9478250501568
 31
0.0
  0
LINE
  5
329
330
4A
100
AcDbEntity
  8
0
  6
Continuous
 62
     2
100
AcDbLine
 10
260.2134039219249
 20
787.4631191278693
 30
0.0
 11
266.4964649526046
 21
781.180058097191
 31
0.0
  0
LINE
  5
32A
330
4A
100
AcDbEntity
  8
0
  6
Continuous
 62
     2
100
AcDbLine
 10
268.2642319055701
 20
795.5139471115148
 30
0.0
 11
261.9811708748914
 21
789.2308860808357
 31
0.0
  0
LINE
  5
32B
330
4A
100
AcDbEntity
  8
0
  6
Continuous
 62
     2
100
AcDbLine
 10
260.2134039219247
 20
790.998653033802
 30
0.0
 11
266.4964649526038
 21
797.2817140644809
 31
0.0
  0
LINE
  5
32C
330
4A
100
AcDbEntity
  8
0
  6
Continuous
 62
     2
100
AcDbLine
 10
252.1625759382794
 20
782.9478250501567
 30
0.0
 11
258.4456369689584
 21
789.2308860808357
 31
0.0
  0
LINE
  5
32D
330
4A
100
AcDbEntity
  8
0
  6
Continuous
 62
     2
100
AcDbLine
 10
253.9303428912458
 20
797.2817140644808
 30
0.0
 11
260.2134039219247
 21
790.998653033802
 31
0.0
  0
LINE
  5
32E
330
4A
100
AcDbEntity
  8
0
  6
Continuous
 62
     2
100
AcDbLine
 10
258.4456369689584
 20
789.2308860808357
 30
0.0
 11
252.1625759382794
 21
795.5139471115145
 31
0.0
  0
LINE
  5
32F
330
4A
100
AcDbEntity
  8
0
  6
Continuous
 62
     2
100
AcDbLine
 10
276.3150598892153
 20
787.4631191278693
 30
0.0
 11
282.5981209198943
 21
781.1800580971914
 31
0.0
  0
LINE
  5
330
330
4A
100
AcDbEntity
  8
0
  6
Continuous
 62
     2
100
AcDbLine
 10
268.26423190557
 20
782.9478250501568
 30
0.0
 11
274.5472929362491
 21
789.2308860808357
 31
0.0
  0
LINE
  5
331
330
4A
100
AcDbEntity
  8
0
  6
Continuous
 62
     2
100
AcDbLine
 10
270.0319988585356
 20
781.180058097191
 30
0.0
 11
276.3150598892153
 21
787.4631191278693
 31
0.0
  0
LINE
  5
332
330
4A
100
AcDbEntity
  8
0
  6
Continuous
 62
     2
100
AcDbLine
 10
274.5472929362491
 20
789.2308860808357
 30
0.0
 11
268.2642319055701
 21
795.5139471115148
 31
0.0
  0
LINE
  5
333
330
4A
100
AcDbEntity
  8
0
  6
Continuous
 62
     2
100
AcDbLine
 10
270.0319988585366
 20
797.2817140644809
 30
0.0
 11
276.3150598892155
 21
790.998653033802
 31
0.0
  0
LINE
  5
334
330
4A
100
AcDbEntity
  8
0
  6
Continuous
 62
     2
100
AcDbLine
 10
278.0828268421819
 20
789.2308860808357
 30
0.0
 11
284.3658878728609
 21
782.9478250501567
 31
0.0
  0
LINE
  5
335
330
4A
100
AcDbEntity
  8
0
  6
Continuous
 62
     2
100
AcDbLine
 10
276.3150598892155
 20
790.998653033802
 30
0.0
 11
282.5981209198944
 21
797.2817140644808
 31
0.0
  0
LINE
  5
336
330
4A
100
AcDbEntity
  8
0
  6
Continuous
 62
     2
100
AcDbLine
 10
284.3658878728609
 20
795.5139471115145
 30
0.0
 11
278.0828268421819
 21
789.2308860808357
 31
0.0
  0
LINE
  5
337
330
4A
100
AcDbEntity
  8
0
  6
Continuous
 62
     2
100
AcDbLine
 10
244.111747954634
 20
787.4631191278693
 30
0.0
 11
250.3948089853128
 21
781.1800580971914
 31
0.0
  0
LINE
  5
338
330
4A
100
AcDbEntity
  8
0
  6
Continuous
 62
     2
100
AcDbLine
 10
236.0609199709888
 20
782.9478250501568
 30
0.0
 11
242.3439810016675
 21
789.2308860808357
 31
0.0
  0
LINE
  5
339
330
4A
100
AcDbEntity
  8
0
  6
Continuous
 62
     2
100
AcDbLine
 10
237.8286869239543
 20
781.180058097191
 30
0.0
 11
244.111747954634
 21
787.4631191278693
 31
0.0
  0
LINE
  5
33A
330
4A
100
AcDbEntity
  8
0
  6
Continuous
 62
     2
100
AcDbLine
 10
242.3439810016675
 20
789.2308860808357
 30
0.0
 11
236.0609199709886
 21
795.5139471115148
 31
0.0
  0
LINE
  5
33B
330
4A
100
AcDbEntity
  8
0
  6
Continuous
 62
     2
100
AcDbLine
 10
237.8286869239551
 20
797.2817140644809
 30
0.0
 11
244.1117479546342
 21
790.998653033802
 31
0.0
  0
LINE
  5
33C
330
4A
100
AcDbEntity
  8
0
  6
Continuous
 62
     2
100
AcDbLine
 10
245.8795149076004
 20
789.2308860808357
 30
0.0
 11
252.1625759382794
 21
782.9478250501567
 31
0.0
  0
LINE
  5
33D
330
4A
100
AcDbEntity
  8
0
  6
Continuous
 62
     2
100
AcDbLine
 10
244.1117479546342
 20
790.998653033802
 30
0.0
 11
250.3948089853129
 21
797.2817140644808
 31
0.0
  0
LINE
  5
33E
330
4A
100
AcDbEntity
  8
0
  6
Continuous
 62
     2
100
AcDbLine
 10
252.1625759382794
 20
795.5139471115145
 30
0.0
 11
245.8795149076004
 21
789.2308860808357
 31
0.0
  0
LINE
  5
33F
330
4A
100
AcDbEntity
  8
0
  6
Continuous
 62
     2
100
AcDbLine
 10
221.7270309566645
 20
781.1800580971914
 30
0.0
 11
228.0100919873434
 21
787.4631191278693
 31
0.0
  0
LINE
  5
340
330
4A
100
AcDbEntity
  8
0
  6
Continuous
 62
     2
100
AcDbLine
 10
229.7778589403098
 20
789.2308860808357
 30
0.0
 11
236.0609199709888
 21
782.9478250501568
 31
0.0
  0
LINE
  5
341
330
4A
100
AcDbEntity
  8
0
  6
Continuous
 62
     2
100
AcDbLine
 10
228.0100919873434
 20
787.4631191278693
 30
0.0
 11
234.2931530180233
 21
781.180058097191
 31
0.0
  0
LINE
  5
342
330
4A
100
AcDbEntity
  8
0
  6
Continuous
 62
     2
100
AcDbLine
 10
236.0609199709886
 20
795.5139471115148
 30
0.0
 11
229.7778589403098
 21
789.2308860808357
 31
0.0
  0
LINE
  5
343
330
4A
100
AcDbEntity
  8
0
  6
Continuous
 62
     2
100
AcDbLine
 10
228.0100919873433
 20
790.998653033802
 30
0.0
 11
234.2931530180222
 21
797.2817140644809
 31
0.0
  0
LINE
  5
344
330
4A
100
AcDbEntity
  8
0
  6
Continuous
 62
     2
100
AcDbLine
 10
210.1406690670862
 20
789.2308860808357
 30
0.0
 11
218.1914970507316
 21
781.1800580971902
 31
0.0
  0
LINE
  5
345
330
4A
100
AcDbEntity
  8
0
  6
Continuous
 62
     2
100
AcDbLine
 10
219.9592640036979
 20
782.9478250501567
 30
0.0
 11
226.2423250343769
 21
789.2308860808357
 31
0.0
  0
LINE
  5
346
330
4A
100
AcDbEntity
  8
0
  6
Continuous
 62
     2
100
AcDbLine
 10
213.6762029730191
 20
789.2308860808357
 30
0.0
 11
219.9592640036979
 21
782.9478250501567
 31
0.0
  0
LINE
  5
347
330
4A
100
AcDbEntity
  8
0
  6
Continuous
 62
     2
100
AcDbLine
 10
218.1914970507316
 20
797.2817140644809
 30
0.0
 11
210.1406690670862
 21
789.2308860808357
 31
0.0
  0
LINE
  5
348
330
4A
100
AcDbEntity
  8
0
  6
Continuous
 62
     2
100
AcDbLine
 10
221.7270309566644
 20
797.2817140644808
 30
0.0
 11
228.0100919873433
 21
790.998653033802
 31
0.0
  0
LINE
  5
349
330
4A
100
AcDbEntity
  8
0
  6
Continuous
 62
     2
100
AcDbLine
 10
226.2423250343769
 20
789.2308860808357
 30
0.0
 11
219.9592640036979
 21
795.5139471115145
 31
0.0
  0
LINE
  5
34A
330
4A
100
AcDbEntity
  8
0
  6
Continuous
 62
     2
100
AcDbLine
 10
219.9592640036979
 20
795.5139471115145
 30
0.0
 11
213.6762029730191
 21
789.2308860808357
 31
0.0
  0
LINE
  5
34B
330
4A
100
AcDbEntity
  8
0
  6
Continuous
 62
     2
100
AcDbLine
 10
422.9977305477991
 20
805.332542048126
 30
0.0
 11
426.1406690670862
 21
802.1896035288387
 31
0.0
  0
LINE
  5
34C
330
4A
100
AcDbEntity
  8
0
  6
Continuous
 62
     2
100
AcDbLine
 10
421.2299635948327
 20
807.1003090010923
 30
0.0
 11
414.9469025641537
 21
813.3833700317703
 31
0.0
  0
LINE
  5
34D
330
4A
100
AcDbEntity
  8
0
  6
Continuous
 62
     2
100
AcDbLine
 10
426.1406690670862
 20
808.4754805674131
 30
0.0
 11
422.9977305477991
 21
805.332542048126
 31
0.0
  0
LINE
  5
34E
330
4A
100
AcDbEntity
  8
0
  6
Continuous
 62
     2
100
AcDbLine
 10
426.1406690670862
 20
812.011014473345
 30
0.0
 11
421.2299635948327
 21
807.1003090010923
 31
0.0
  0
LINE
  5
34F
330
4A
100
AcDbEntity
  8
0
  6
Continuous
 62
     2
100
AcDbLine
 10
426.1406690670862
 20
798.654069622906
 30
0.0
 11
421.2299635948326
 21
803.5647750951596
 31
0.0
  0
LINE
  5
350
330
4A
100
AcDbEntity
  8
0
  6
Continuous
 62
     2
100
AcDbLine
 10
419.4621966418661
 20
805.332542048126
 30
0.0
 11
413.1791356111871
 21
811.6156030788051
 31
0.0
  0
LINE
  5
351
330
4A
100
AcDbEntity
  8
0
  6
Continuous
 62
     2
100
AcDbLine
 10
421.2299635948326
 20
803.5647750951596
 30
0.0
 11
414.9469025641536
 21
797.2817140644808
 31
0.0
  0
LINE
  5
352
330
4A
100
AcDbEntity
  8
0
  6
Continuous
 62
     2
100
AcDbLine
 10
413.1791356111871
 20
799.0494810174471
 30
0.0
 11
419.4621966418661
 21
805.332542048126
 31
0.0
  0
LINE
  5
353
330
4A
100
AcDbEntity
  8
0
  6
Continuous
 62
     2
100
AcDbLine
 10
389.026651660251
 20
807.1003090010923
 30
0.0
 11
382.7435906295719
 21
813.3833700317714
 31
0.0
  0
LINE
  5
354
330
4A
100
AcDbEntity
  8
0
  6
Continuous
 62
     2
100
AcDbLine
 10
397.0774796438961
 20
811.6156030788048
 30
0.0
 11
390.7944186132173
 21
805.332542048126
 31
0.0
  0
LINE
  5
355
330
4A
100
AcDbEntity
  8
0
  6
Continuous
 62
     2
100
AcDbLine
 10
395.3097126909307
 20
813.3833700317707
 30
0.0
 11
389.026651660251
 21
807.1003090010923
 31
0.0
  0
LINE
  5
356
330
4A
100
AcDbEntity
  8
0
  6
Continuous
 62
     2
100
AcDbLine
 10
390.7944186132173
 20
805.332542048126
 30
0.0
 11
397.0774796438964
 21
799.049481017447
 31
0.0
  0
LINE
  5
357
330
4A
100
AcDbEntity
  8
0
  6
Continuous
 62
     2
100
AcDbLine
 10
395.3097126909298
 20
797.2817140644809
 30
0.0
 11
389.0266516602508
 21
803.5647750951596
 31
0.0
  0
LINE
  5
358
330
4A
100
AcDbEntity
  8
0
  6
Continuous
 62
     2
100
AcDbLine
 10
387.2588847072844
 20
805.332542048126
 30
0.0
 11
380.9758236766054
 21
811.6156030788051
 31
0.0
  0
LINE
  5
359
330
4A
100
AcDbEntity
  8
0
  6
Continuous
 62
     2
100
AcDbLine
 10
389.0266516602508
 20
803.5647750951596
 30
0.0
 11
382.7435906295719
 21
797.2817140644808
 31
0.0
  0
LINE
  5
35A
330
4A
100
AcDbEntity
  8
0
  6
Continuous
 62
     2
100
AcDbLine
 10
380.9758236766054
 20
799.0494810174471
 30
0.0
 11
387.2588847072844
 21
805.332542048126
 31
0.0
  0
LINE
  5
35B
330
4A
100
AcDbEntity
  8
0
  6
Continuous
 62
     2
100
AcDbLine
 10
411.4113686582205
 20
813.3833700317703
 30
0.0
 11
405.1283076275415
 21
807.1003090010923
 31
0.0
  0
LINE
  5
35C
330
4A
100
AcDbEntity
  8
0
  6
Continuous
 62
     2
100
AcDbLine
 10
403.3605406745751
 20
805.332542048126
 30
0.0
 11
397.0774796438961
 21
811.6156030788048
 31
0.0
  0
LINE
  5
35D
330
4A
100
AcDbEntity
  8
0
  6
Continuous
 62
     2
100
AcDbLine
 10
405.1283076275415
 20
807.1003090010923
 30
0.0
 11
398.8452465968618
 21
813.3833700317707
 31
0.0
  0
LINE
  5
35E
330
4A
100
AcDbEntity
  8
0
  6
Continuous
 62
     2
100
AcDbLine
 10
397.0774796438964
 20
799.049481017447
 30
0.0
 11
403.3605406745751
 21
805.332542048126
 31
0.0
  0
LINE
  5
35F
330
4A
100
AcDbEntity
  8
0
  6
Continuous
 62
     2
100
AcDbLine
 10
405.1283076275416
 20
803.5647750951596
 30
0.0
 11
398.8452465968626
 21
797.2817140644809
 31
0.0
  0
LINE
  5
360
330
4A
100
AcDbEntity
  8
0
  6
Continuous
 62
     2
100
AcDbLine
 10
413.1791356111871
 20
811.6156030788051
 30
0.0
 11
406.896074580508
 21
805.332542048126
 31
0.0
  0
LINE
  5
361
330
4A
100
AcDbEntity
  8
0
  6
Continuous
 62
     2
100
AcDbLine
 10
411.4113686582205
 20
797.2817140644808
 30
0.0
 11
405.1283076275416
 21
803.5647750951596
 31
0.0
  0
LINE
  5
362
330
4A
100
AcDbEntity
  8
0
  6
Continuous
 62
     2
100
AcDbLine
 10
406.896074580508
 20
805.332542048126
 30
0.0
 11
413.1791356111871
 21
799.0494810174471
 31
0.0
  0
LINE
  5
363
330
4A
100
AcDbEntity
  8
0
  6
Continuous
 62
     2
100
AcDbLine
 10
379.2080567236391
 20
813.3833700317714
 30
0.0
 11
372.9249956929599
 21
807.1003090010923
 31
0.0
  0
LINE
  5
364
330
4A
100
AcDbEntity
  8
0
  6
Continuous
 62
     2
100
AcDbLine
 10
371.1572287399937
 20
805.332542048126
 30
0.0
 11
364.8741677093149
 21
811.6156030788048
 31
0.0
  0
LINE
  5
365
330
4A
100
AcDbEntity
  8
0
  6
Continuous
 62
     2
100
AcDbLine
 10
372.9249956929599
 20
807.1003090010923
 30
0.0
 11
366.6419346622802
 21
813.3833700317707
 31
0.0
  0
LINE
  5
366
330
4A
100
AcDbEntity
  8
0
  6
Continuous
 62
     2
100
AcDbLine
 10
364.8741677093148
 20
799.049481017447
 30
0.0
 11
371.1572287399937
 21
805.332542048126
 31
0.0
  0
LINE
  5
367
330
4A
100
AcDbEntity
  8
0
  6
Continuous
 62
     2
100
AcDbLine
 10
372.92499569296
 20
803.5647750951596
 30
0.0
 11
366.6419346622811
 21
797.2817140644809
 31
0.0
  0
LINE
  5
368
330
4A
100
AcDbEntity
  8
0
  6
Continuous
 62
     2
100
AcDbLine
 10
380.9758236766054
 20
811.6156030788051
 30
0.0
 11
374.6927626459266
 21
805.332542048126
 31
0.0
  0
LINE
  5
369
330
4A
100
AcDbEntity
  8
0
  6
Continuous
 62
     2
100
AcDbLine
 10
379.2080567236391
 20
797.2817140644808
 30
0.0
 11
372.92499569296
 21
803.5647750951596
 31
0.0
  0
LINE
  5
36A
330
4A
100
AcDbEntity
  8
0
  6
Continuous
 62
     2
100
AcDbLine
 10
374.6927626459266
 20
805.332542048126
 30
0.0
 11
380.9758236766054
 21
799.0494810174471
 31
0.0
  0
LINE
  5
36B
330
4A
100
AcDbEntity
  8
0
  6
Continuous
 62
     2
100
AcDbLine
 10
356.8233397256694
 20
807.1003090010923
 30
0.0
 11
350.5402786949906
 21
813.3833700317703
 31
0.0
  0
LINE
  5
36C
330
4A
100
AcDbEntity
  8
0
  6
Continuous
 62
     2
100
AcDbLine
 10
364.8741677093149
 20
811.6156030788048
 30
0.0
 11
358.5911066786358
 21
805.332542048126
 31
0.0
  0
LINE
  5
36D
330
4A
100
AcDbEntity
  8
0
  6
Continuous
 62
     2
100
AcDbLine
 10
363.1064007563491
 20
813.3833700317707
 30
0.0
 11
356.8233397256694
 21
807.1003090010923
 31
0.0
  0
LINE
  5
36E
330
4A
100
AcDbEntity
  8
0
  6
Continuous
 62
     2
100
AcDbLine
 10
358.5911066786358
 20
805.332542048126
 30
0.0
 11
364.8741677093148
 21
799.049481017447
 31
0.0
  0
LINE
  5
36F
330
4A
100
AcDbEntity
  8
0
  6
Continuous
 62
     2
100
AcDbLine
 10
363.1064007563483
 20
797.2817140644809
 30
0.0
 11
356.8233397256693
 21
803.5647750951596
 31
0.0
  0
LINE
  5
370
330
4A
100
AcDbEntity
  8
0
  6
Continuous
 62
     2
100
AcDbLine
 10
355.0555727727029
 20
805.332542048126
 30
0.0
 11
348.7725117420238
 21
811.6156030788051
 31
0.0
  0
LINE
  5
371
330
4A
100
AcDbEntity
  8
0
  6
Continuous
 62
     2
100
AcDbLine
 10
356.8233397256693
 20
803.5647750951596
 30
0.0
 11
350.5402786949904
 21
797.2817140644808
 31
0.0
  0
LINE
  5
372
330
4A
100
AcDbEntity
  8
0
  6
Continuous
 62
     2
100
AcDbLine
 10
348.7725117420238
 20
799.0494810174471
 30
0.0
 11
355.0555727727029
 21
805.332542048126
 31
0.0
  0
LINE
  5
373
330
4A
100
AcDbEntity
  8
0
  6
Continuous
 62
     2
100
AcDbLine
 10
324.6200277910879
 20
807.1003090010923
 30
0.0
 11
318.3369667604087
 21
813.3833700317714
 31
0.0
  0
LINE
  5
374
330
4A
100
AcDbEntity
  8
0
  6
Continuous
 62
     2
100
AcDbLine
 10
332.6708557747329
 20
811.6156030788048
 30
0.0
 11
326.3877947440543
 21
805.332542048126
 31
0.0
  0
LINE
  5
375
330
4A
100
AcDbEntity
  8
0
  6
Continuous
 62
     2
100
AcDbLine
 10
330.9030888217675
 20
813.3833700317707
 30
0.0
 11
324.6200277910879
 21
807.1003090010923
 31
0.0
  0
LINE
  5
376
330
4A
100
AcDbEntity
  8
0
  6
Continuous
 62
     2
100
AcDbLine
 10
326.3877947440543
 20
805.332542048126
 30
0.0
 11
332.6708557747331
 21
799.049481017447
 31
0.0
  0
LINE
  5
377
330
4A
100
AcDbEntity
  8
0
  6
Continuous
 62
     2
100
AcDbLine
 10
330.9030888217667
 20
797.2817140644809
 30
0.0
 11
324.6200277910878
 21
803.5647750951596
 31
0.0
  0
LINE
  5
378
330
4A
100
AcDbEntity
  8
0
  6
Continuous
 62
     2
100
AcDbLine
 10
322.8522608381213
 20
805.332542048126
 30
0.0
 11
316.5691998074423
 21
811.6156030788051
 31
0.0
  0
LINE
  5
379
330
4A
100
AcDbEntity
  8
0
  6
Continuous
 62
     2
100
AcDbLine
 10
324.6200277910878
 20
803.5647750951596
 30
0.0
 11
318.3369667604088
 21
797.2817140644808
 31
0.0
  0
LINE
  5
37A
330
4A
100
AcDbEntity
  8
0
  6
Continuous
 62
     2
100
AcDbLine
 10
316.5691998074423
 20
799.0494810174471
 30
0.0
 11
322.8522608381213
 21
805.332542048126
 31
0.0
  0
LINE
  5
37B
330
4A
100
AcDbEntity
  8
0
  6
Continuous
 62
     2
100
AcDbLine
 10
347.0047447890572
 20
813.3833700317703
 30
0.0
 11
340.7216837583783
 21
807.1003090010923
 31
0.0
  0
LINE
  5
37C
330
4A
100
AcDbEntity
  8
0
  6
Continuous
 62
     2
100
AcDbLine
 10
338.9539168054121
 20
805.332542048126
 30
0.0
 11
332.6708557747329
 21
811.6156030788048
 31
0.0
  0
LINE
  5
37D
330
4A
100
AcDbEntity
  8
0
  6
Continuous
 62
     2
100
AcDbLine
 10
340.7216837583783
 20
807.1003090010923
 30
0.0
 11
334.4386227276987
 21
813.3833700317707
 31
0.0
  0
LINE
  5
37E
330
4A
100
AcDbEntity
  8
0
  6
Continuous
 62
     2
100
AcDbLine
 10
332.6708557747331
 20
799.049481017447
 30
0.0
 11
338.9539168054121
 21
805.332542048126
 31
0.0
  0
LINE
  5
37F
330
4A
100
AcDbEntity
  8
0
  6
Continuous
 62
     2
100
AcDbLine
 10
340.7216837583784
 20
803.5647750951596
 30
0.0
 11
334.4386227276996
 21
797.2817140644809
 31
0.0
  0
LINE
  5
380
330
4A
100
AcDbEntity
  8
0
  6
Continuous
 62
     2
100
AcDbLine
 10
348.7725117420238
 20
811.6156030788051
 30
0.0
 11
342.4894507113449
 21
805.332542048126
 31
0.0
  0
LINE
  5
381
330
4A
100
AcDbEntity
  8
0
  6
Continuous
 62
     2
100
AcDbLine
 10
347.0047447890573
 20
797.2817140644808
 30
0.0
 11
340.7216837583784
 21
803.5647750951596
 31
0.0
  0
LINE
  5
382
330
4A
100
AcDbEntity
  8
0
  6
Continuous
 62
     2
100
AcDbLine
 10
342.4894507113449
 20
805.332542048126
 30
0.0
 11
348.7725117420238
 21
799.0494810174471
 31
0.0
  0
LINE
  5
383
330
4A
100
AcDbEntity
  8
0
  6
Continuous
 62
     2
100
AcDbLine
 10
314.8014328544759
 20
813.3833700317714
 30
0.0
 11
308.5183718237969
 21
807.1003090010923
 31
0.0
  0
LINE
  5
384
330
4A
100
AcDbEntity
  8
0
  6
Continuous
 62
     2
100
AcDbLine
 10
306.7506048708306
 20
805.332542048126
 30
0.0
 11
300.4675438401517
 21
811.6156030788048
 31
0.0
  0
LINE
  5
385
330
4A
100
AcDbEntity
  8
0
  6
Continuous
 62
     2
100
AcDbLine
 10
308.5183718237969
 20
807.1003090010923
 30
0.0
 11
302.2353107931172
 21
813.3833700317707
 31
0.0
  0
LINE
  5
386
330
4A
100
AcDbEntity
  8
0
  6
Continuous
 62
     2
100
AcDbLine
 10
300.4675438401516
 20
799.049481017447
 30
0.0
 11
306.7506048708306
 21
805.332542048126
 31
0.0
  0
LINE
  5
387
330
4A
100
AcDbEntity
  8
0
  6
Continuous
 62
     2
100
AcDbLine
 10
308.518371823797
 20
803.5647750951596
 30
0.0
 11
302.2353107931181
 21
797.2817140644809
 31
0.0
  0
LINE
  5
388
330
4A
100
AcDbEntity
  8
0
  6
Continuous
 62
     2
100
AcDbLine
 10
316.5691998074423
 20
811.6156030788051
 30
0.0
 11
310.2861387767634
 21
805.332542048126
 31
0.0
  0
LINE
  5
389
330
4A
100
AcDbEntity
  8
0
  6
Continuous
 62
     2
100
AcDbLine
 10
314.8014328544759
 20
797.2817140644808
 30
0.0
 11
308.518371823797
 21
803.5647750951596
 31
0.0
  0
LINE
  5
38A
330
4A
100
AcDbEntity
  8
0
  6
Continuous
 62
     2
100
AcDbLine
 10
310.2861387767634
 20
805.332542048126
 30
0.0
 11
316.5691998074423
 21
799.0494810174471
 31
0.0
  0
LINE
  5
38B
330
4A
100
AcDbEntity
  8
0
  6
Continuous
 62
     2
100
AcDbLine
 10
292.4167158565064
 20
807.1003090010923
 30
0.0
 11
286.1336548258274
 21
813.3833700317703
 31
0.0
  0
LINE
  5
38C
330
4A
100
AcDbEntity
  8
0
  6
Continuous
 62
     2
100
AcDbLine
 10
300.4675438401517
 20
811.6156030788048
 30
0.0
 11
294.1844828094728
 21
805.332542048126
 31
0.0
  0
LINE
  5
38D
330
4A
100
AcDbEntity
  8
0
  6
Continuous
 62
     2
100
AcDbLine
 10
298.6997768871861
 20
813.3833700317707
 30
0.0
 11
292.4167158565064
 21
807.1003090010923
 31
0.0
  0
LINE
  5
38E
330
4A
100
AcDbEntity
  8
0
  6
Continuous
 62
     2
100
AcDbLine
 10
294.1844828094728
 20
805.332542048126
 30
0.0
 11
300.4675438401516
 21
799.049481017447
 31
0.0
  0
LINE
  5
38F
330
4A
100
AcDbEntity
  8
0
  6
Continuous
 62
     2
100
AcDbLine
 10
298.6997768871853
 20
797.2817140644809
 30
0.0
 11
292.4167158565062
 21
803.5647750951596
 31
0.0
  0
LINE
  5
390
330
4A
100
AcDbEntity
  8
0
  6
Continuous
 62
     2
100
AcDbLine
 10
290.6489489035398
 20
805.332542048126
 30
0.0
 11
284.3658878728609
 21
811.6156030788051
 31
0.0
  0
LINE
  5
391
330
4A
100
AcDbEntity
  8
0
  6
Continuous
 62
     2
100
AcDbLine
 10
292.4167158565062
 20
803.5647750951596
 30
0.0
 11
286.1336548258273
 21
797.2817140644808
 31
0.0
  0
LINE
  5
392
330
4A
100
AcDbEntity
  8
0
  6
Continuous
 62
     2
100
AcDbLine
 10
284.3658878728609
 20
799.0494810174471
 30
0.0
 11
290.6489489035398
 21
805.332542048126
 31
0.0
  0
LINE
  5
393
330
4A
100
AcDbEntity
  8
0
  6
Continuous
 62
     2
100
AcDbLine
 10
260.2134039219249
 20
807.1003090010923
 30
0.0
 11
253.9303428912458
 21
813.3833700317714
 31
0.0
  0
LINE
  5
394
330
4A
100
AcDbEntity
  8
0
  6
Continuous
 62
     2
100
AcDbLine
 10
268.26423190557
 20
811.6156030788048
 30
0.0
 11
261.9811708748914
 21
805.332542048126
 31
0.0
  0
LINE
  5
395
330
4A
100
AcDbEntity
  8
0
  6
Continuous
 62
     2
100
AcDbLine
 10
266.4964649526046
 20
813.3833700317707
 30
0.0
 11
260.2134039219249
 21
807.1003090010923
 31
0.0
  0
LINE
  5
396
330
4A
100
AcDbEntity
  8
0
  6
Continuous
 62
     2
100
AcDbLine
 10
261.9811708748914
 20
805.332542048126
 30
0.0
 11
268.2642319055701
 21
799.049481017447
 31
0.0
  0
LINE
  5
397
330
4A
100
AcDbEntity
  8
0
  6
Continuous
 62
     2
100
AcDbLine
 10
266.4964649526038
 20
797.2817140644809
 30
0.0
 11
260.2134039219247
 21
803.5647750951596
 31
0.0
  0
LINE
  5
398
330
4A
100
AcDbEntity
  8
0
  6
Continuous
 62
     2
100
AcDbLine
 10
258.4456369689584
 20
805.332542048126
 30
0.0
 11
252.1625759382794
 21
811.6156030788051
 31
0.0
  0
LINE
  5
399
330
4A
100
AcDbEntity
  8
0
  6
Continuous
 62
     2
100
AcDbLine
 10
260.2134039219247
 20
803.5647750951596
 30
0.0
 11
253.9303428912458
 21
797.2817140644808
 31
0.0
  0
LINE
  5
39A
330
4A
100
AcDbEntity
  8
0
  6
Continuous
 62
     2
100
AcDbLine
 10
252.1625759382794
 20
799.0494810174471
 30
0.0
 11
258.4456369689584
 21
805.332542048126
 31
0.0
  0
LINE
  5
39B
330
4A
100
AcDbEntity
  8
0
  6
Continuous
 62
     2
100
AcDbLine
 10
282.5981209198943
 20
813.3833700317703
 30
0.0
 11
276.3150598892153
 21
807.1003090010923
 31
0.0
  0
LINE
  5
39C
330
4A
100
AcDbEntity
  8
0
  6
Continuous
 62
     2
100
AcDbLine
 10
274.5472929362491
 20
805.332542048126
 30
0.0
 11
268.26423190557
 21
811.6156030788048
 31
0.0
  0
LINE
  5
39D
330
4A
100
AcDbEntity
  8
0
  6
Continuous
 62
     2
100
AcDbLine
 10
276.3150598892153
 20
807.1003090010923
 30
0.0
 11
270.0319988585356
 21
813.3833700317707
 31
0.0
  0
LINE
  5
39E
330
4A
100
AcDbEntity
  8
0
  6
Continuous
 62
     2
100
AcDbLine
 10
268.2642319055701
 20
799.049481017447
 30
0.0
 11
274.5472929362491
 21
805.332542048126
 31
0.0
  0
LINE
  5
39F
330
4A
100
AcDbEntity
  8
0
  6
Continuous
 62
     2
100
AcDbLine
 10
276.3150598892155
 20
803.5647750951596
 30
0.0
 11
270.0319988585366
 21
797.2817140644809
 31
0.0
  0
LINE
  5
3A0
330
4A
100
AcDbEntity
  8
0
  6
Continuous
 62
     2
100
AcDbLine
 10
284.3658878728609
 20
811.6156030788051
 30
0.0
 11
278.0828268421819
 21
805.332542048126
 31
0.0
  0
LINE
  5
3A1
330
4A
100
AcDbEntity
  8
0
  6
Continuous
 62
     2
100
AcDbLine
 10
282.5981209198944
 20
797.2817140644808
 30
0.0
 11
276.3150598892155
 21
803.5647750951596
 31
0.0
  0
LINE
  5
3A2
330
4A
100
AcDbEntity
  8
0
  6
Continuous
 62
     2
100
AcDbLine
 10
278.0828268421819
 20
805.332542048126
 30
0.0
 11
284.3658878728609
 21
799.0494810174471
 31
0.0
  0
LINE
  5
3A3
330
4A
100
AcDbEntity
  8
0
  6
Continuous
 62
     2
100
AcDbLine
 10
250.3948089853128
 20
813.3833700317703
 30
0.0
 11
244.111747954634
 21
807.1003090010923
 31
0.0
  0
LINE
  5
3A4
330
4A
100
AcDbEntity
  8
0
  6
Continuous
 62
     2
100
AcDbLine
 10
242.3439810016675
 20
805.332542048126
 30
0.0
 11
236.0609199709888
 21
811.6156030788048
 31
0.0
  0
LINE
  5
3A5
330
4A
100
AcDbEntity
  8
0
  6
Continuous
 62
     2
100
AcDbLine
 10
244.111747954634
 20
807.1003090010923
 30
0.0
 11
237.8286869239543
 21
813.3833700317707
 31
0.0
  0
LINE
  5
3A6
330
4A
100
AcDbEntity
  8
0
  6
Continuous
 62
     2
100
AcDbLine
 10
236.0609199709886
 20
799.049481017447
 30
0.0
 11
242.3439810016675
 21
805.332542048126
 31
0.0
  0
LINE
  5
3A7
330
4A
100
AcDbEntity
  8
0
  6
Continuous
 62
     2
100
AcDbLine
 10
244.1117479546342
 20
803.5647750951596
 30
0.0
 11
237.8286869239551
 21
797.2817140644809
 31
0.0
  0
LINE
  5
3A8
330
4A
100
AcDbEntity
  8
0
  6
Continuous
 62
     2
100
AcDbLine
 10
252.1625759382794
 20
811.6156030788051
 30
0.0
 11
245.8795149076004
 21
805.332542048126
 31
0.0
  0
LINE
  5
3A9
330
4A
100
AcDbEntity
  8
0
  6
Continuous
 62
     2
100
AcDbLine
 10
250.3948089853129
 20
797.2817140644808
 30
0.0
 11
244.1117479546342
 21
803.5647750951596
 31
0.0
  0
LINE
  5
3AA
330
4A
100
AcDbEntity
  8
0
  6
Continuous
 62
     2
100
AcDbLine
 10
245.8795149076004
 20
805.332542048126
 30
0.0
 11
252.1625759382794
 21
799.0494810174471
 31
0.0
  0
LINE
  5
3AB
330
4A
100
AcDbEntity
  8
0
  6
Continuous
 62
     2
100
AcDbLine
 10
228.0100919873434
 20
807.1003090010923
 30
0.0
 11
221.7270309566645
 21
813.3833700317703
 31
0.0
  0
LINE
  5
3AC
330
4A
100
AcDbEntity
  8
0
  6
Continuous
 62
     2
100
AcDbLine
 10
236.0609199709888
 20
811.6156030788048
 30
0.0
 11
229.7778589403098
 21
805.332542048126
 31
0.0
  0
LINE
  5
3AD
330
4A
100
AcDbEntity
  8
0
  6
Continuous
 62
     2
100
AcDbLine
 10
234.2931530180233
 20
813.3833700317707
 30
0.0
 11
228.0100919873434
 21
807.1003090010923
 31
0.0
  0
LINE
  5
3AE
330
4A
100
AcDbEntity
  8
0
  6
Continuous
 62
     2
100
AcDbLine
 10
229.7778589403098
 20
805.332542048126
 30
0.0
 11
236.0609199709886
 21
799.049481017447
 31
0.0
  0
LINE
  5
3AF
330
4A
100
AcDbEntity
  8
0
  6
Continuous
 62
     2
100
AcDbLine
 10
234.2931530180222
 20
797.2817140644809
 30
0.0
 11
228.0100919873433
 21
803.5647750951596
 31
0.0
  0
LINE
  5
3B0
330
4A
100
AcDbEntity
  8
0
  6
Continuous
 62
     2
100
AcDbLine
 10
218.1914970507316
 20
813.3833700317714
 30
0.0
 11
210.1406690670862
 21
805.332542048126
 31
0.0
  0
LINE
  5
3B1
330
4A
100
AcDbEntity
  8
0
  6
Continuous
 62
     2
100
AcDbLine
 10
226.2423250343769
 20
805.332542048126
 30
0.0
 11
219.9592640036979
 21
811.6156030788051
 31
0.0
  0
LINE
  5
3B2
330
4A
100
AcDbEntity
  8
0
  6
Continuous
 62
     2
100
AcDbLine
 10
219.9592640036979
 20
811.6156030788051
 30
0.0
 11
213.6762029730191
 21
805.332542048126
 31
0.0
  0
LINE
  5
3B3
330
4A
100
AcDbEntity
  8
0
  6
Continuous
 62
     2
100
AcDbLine
 10
210.1406690670862
 20
805.332542048126
 30
0.0
 11
218.1914970507316
 21
797.2817140644809
 31
0.0
  0
LINE
  5
3B4
330
4A
100
AcDbEntity
  8
0
  6
Continuous
 62
     2
100
AcDbLine
 10
228.0100919873433
 20
803.5647750951596
 30
0.0
 11
221.7270309566644
 21
797.2817140644808
 31
0.0
  0
LINE
  5
3B5
330
4A
100
AcDbEntity
  8
0
  6
Continuous
 62
     2
100
AcDbLine
 10
219.9592640036979
 20
799.0494810174471
 30
0.0
 11
226.2423250343769
 21
805.332542048126
 31
0.0
  0
LINE
  5
3B6
330
4A
100
AcDbEntity
  8
0
  6
Continuous
 62
     2
100
AcDbLine
 10
213.6762029730191
 20
805.332542048126
 30
0.0
 11
219.9592640036979
 21
799.0494810174471
 31
0.0
  0
LINE
  5
3B7
330
4A
100
AcDbEntity
  8
0
  6
Continuous
 62
     2
100
AcDbLine
 10
426.1406690670862
 20
824.5771365347027
 30
0.0
 11
422.9977305477991
 21
821.4341980154154
 31
0.0
  0
LINE
  5
3B8
330
4A
100
AcDbEntity
  8
0
  6
Continuous
 62
     2
100
AcDbLine
 10
414.9469025641537
 20
813.3833700317703
 30
0.0
 11
421.2299635948327
 21
819.6664310624491
 31
0.0
  0
LINE
  5
3B9
330
4A
100
AcDbEntity
  8
0
  6
Continuous
 62
     2
100
AcDbLine
 10
422.9977305477991
 20
821.4341980154154
 30
0.0
 11
426.1406690670862
 21
818.2912594961283
 31
0.0
  0
LINE
  5
3BA
330
4A
100
AcDbEntity
  8
0
  6
Continuous
 62
     2
100
AcDbLine
 10
421.2299635948327
 20
819.6664310624491
 30
0.0
 11
426.1406690670862
 21
814.7557255901966
 31
0.0
  0
LINE
  5
3BB
330
4A
100
AcDbEntity
  8
0
  6
Continuous
 62
     2
100
AcDbLine
 10
421.2299635948326
 20
823.2019649683818
 30
0.0
 11
426.1406690670862
 21
828.1126704406354
 31
0.0
  0
LINE
  5
3BC
330
4A
100
AcDbEntity
  8
0
  6
Continuous
 62
     2
100
AcDbLine
 10
413.1791356111871
 20
815.1511369847365
 30
0.0
 11
419.4621966418661
 21
821.4341980154154
 31
0.0
  0
LINE
  5
3BD
330
4A
100
AcDbEntity
  8
0
  6
Continuous
 62
     2
100
AcDbLine
 10
414.9469025641536
 20
829.4850259990608
 30
0.0
 11
421.2299635948326
 21
823.2019649683818
 31
0.0
  0
LINE
  5
3BE
330
4A
100
AcDbEntity
  8
0
  6
Continuous
 62
     2
100
AcDbLine
 10
419.4621966418661
 20
821.4341980154154
 30
0.0
 11
413.1791356111871
 21
827.7172590460945
 31
0.0
  0
LINE
  5
3BF
330
4A
100
AcDbEntity
  8
0
  6
Continuous
 62
     2
100
AcDbLine
 10
382.7435906295719
 20
813.38337003177
 30
0.0
 11
389.026651660251
 21
819.6664310624491
 31
0.0
  0
LINE
  5
3C0
330
4A
100
AcDbEntity
  8
0
  6
Continuous
 62
     2
100
AcDbLine
 10
390.7944186132173
 20
821.4341980154154
 30
0.0
 11
397.0774796438961
 21
815.1511369847367
 31
0.0
  0
LINE
  5
3C1
330
4A
100
AcDbEntity
  8
0
  6
Continuous
 62
     2
100
AcDbLine
 10
389.026651660251
 20
819.6664310624491
 30
0.0
 11
395.3097126909307
 21
813.3833700317707
 31
0.0
  0
LINE
  5
3C2
330
4A
100
AcDbEntity
  8
0
  6
Continuous
 62
     2
100
AcDbLine
 10
397.0774796438964
 20
827.7172590460946
 30
0.0
 11
390.7944186132173
 21
821.4341980154154
 31
0.0
  0
LINE
  5
3C3
330
4A
100
AcDbEntity
  8
0
  6
Continuous
 62
     2
100
AcDbLine
 10
389.0266516602508
 20
823.2019649683818
 30
0.0
 11
395.3097126909298
 21
829.4850259990607
 31
0.0
  0
LINE
  5
3C4
330
4A
100
AcDbEntity
  8
0
  6
Continuous
 62
     2
100
AcDbLine
 10
380.9758236766054
 20
815.1511369847365
 30
0.0
 11
387.2588847072844
 21
821.4341980154154
 31
0.0
  0
LINE
  5
3C5
330
4A
100
AcDbEntity
  8
0
  6
Continuous
 62
     2
100
AcDbLine
 10
382.7435906295719
 20
829.4850259990608
 30
0.0
 11
389.0266516602508
 21
823.2019649683818
 31
0.0
  0
LINE
  5
3C6
330
4A
100
AcDbEntity
  8
0
  6
Continuous
 62
     2
100
AcDbLine
 10
387.2588847072844
 20
821.4341980154154
 30
0.0
 11
380.9758236766054
 21
827.7172590460945
 31
0.0
  0
LINE
  5
3C7
330
4A
100
AcDbEntity
  8
0
  6
Continuous
 62
     2
100
AcDbLine
 10
405.1283076275415
 20
819.6664310624491
 30
0.0
 11
411.4113686582205
 21
813.3833700317703
 31
0.0
  0
LINE
  5
3C8
330
4A
100
AcDbEntity
  8
0
  6
Continuous
 62
     2
100
AcDbLine
 10
397.0774796438961
 20
815.1511369847367
 30
0.0
 11
403.3605406745751
 21
821.4341980154154
 31
0.0
  0
LINE
  5
3C9
330
4A
100
AcDbEntity
  8
0
  6
Continuous
 62
     2
100
AcDbLine
 10
398.8452465968618
 20
813.3833700317707
 30
0.0
 11
405.1283076275415
 21
819.6664310624491
 31
0.0
  0
LINE
  5
3CA
330
4A
100
AcDbEntity
  8
0
  6
Continuous
 62
     2
100
AcDbLine
 10
403.3605406745751
 20
821.4341980154154
 30
0.0
 11
397.0774796438964
 21
827.7172590460946
 31
0.0
  0
LINE
  5
3CB
330
4A
100
AcDbEntity
  8
0
  6
Continuous
 62
     2
100
AcDbLine
 10
398.8452465968626
 20
829.4850259990607
 30
0.0
 11
405.1283076275416
 21
823.2019649683818
 31
0.0
  0
LINE
  5
3CC
330
4A
100
AcDbEntity
  8
0
  6
Continuous
 62
     2
100
AcDbLine
 10
406.896074580508
 20
821.4341980154154
 30
0.0
 11
413.1791356111871
 21
815.1511369847365
 31
0.0
  0
LINE
  5
3CD
330
4A
100
AcDbEntity
  8
0
  6
Continuous
 62
     2
100
AcDbLine
 10
405.1283076275416
 20
823.2019649683818
 30
0.0
 11
411.4113686582205
 21
829.4850259990608
 31
0.0
  0
LINE
  5
3CE
330
4A
100
AcDbEntity
  8
0
  6
Continuous
 62
     2
100
AcDbLine
 10
413.1791356111871
 20
827.7172590460945
 30
0.0
 11
406.896074580508
 21
821.4341980154154
 31
0.0
  0
LINE
  5
3CF
330
4A
100
AcDbEntity
  8
0
  6
Continuous
 62
     2
100
AcDbLine
 10
372.9249956929599
 20
819.6664310624491
 30
0.0
 11
379.2080567236391
 21
813.38337003177
 31
0.0
  0
LINE
  5
3D0
330
4A
100
AcDbEntity
  8
0
  6
Continuous
 62
     2
100
AcDbLine
 10
364.8741677093149
 20
815.1511369847367
 30
0.0
 11
371.1572287399937
 21
821.4341980154154
 31
0.0
  0
LINE
  5
3D1
330
4A
100
AcDbEntity
  8
0
  6
Continuous
 62
     2
100
AcDbLine
 10
366.6419346622802
 20
813.3833700317707
 30
0.0
 11
372.9249956929599
 21
819.6664310624491
 31
0.0
  0
LINE
  5
3D2
330
4A
100
AcDbEntity
  8
0
  6
Continuous
 62
     2
100
AcDbLine
 10
371.1572287399937
 20
821.4341980154154
 30
0.0
 11
364.8741677093148
 21
827.7172590460946
 31
0.0
  0
LINE
  5
3D3
330
4A
100
AcDbEntity
  8
0
  6
Continuous
 62
     2
100
AcDbLine
 10
366.6419346622811
 20
829.4850259990607
 30
0.0
 11
372.92499569296
 21
823.2019649683818
 31
0.0
  0
LINE
  5
3D4
330
4A
100
AcDbEntity
  8
0
  6
Continuous
 62
     2
100
AcDbLine
 10
374.6927626459266
 20
821.4341980154154
 30
0.0
 11
380.9758236766054
 21
815.1511369847365
 31
0.0
  0
LINE
  5
3D5
330
4A
100
AcDbEntity
  8
0
  6
Continuous
 62
     2
100
AcDbLine
 10
372.92499569296
 20
823.2019649683818
 30
0.0
 11
379.2080567236391
 21
829.4850259990608
 31
0.0
  0
LINE
  5
3D6
330
4A
100
AcDbEntity
  8
0
  6
Continuous
 62
     2
100
AcDbLine
 10
380.9758236766054
 20
827.7172590460945
 30
0.0
 11
374.6927626459266
 21
821.4341980154154
 31
0.0
  0
LINE
  5
3D7
330
4A
100
AcDbEntity
  8
0
  6
Continuous
 62
     2
100
AcDbLine
 10
350.5402786949906
 20
813.3833700317703
 30
0.0
 11
356.8233397256694
 21
819.6664310624491
 31
0.0
  0
LINE
  5
3D8
330
4A
100
AcDbEntity
  8
0
  6
Continuous
 62
     2
100
AcDbLine
 10
358.5911066786358
 20
821.4341980154154
 30
0.0
 11
364.8741677093149
 21
815.1511369847367
 31
0.0
  0
LINE
  5
3D9
330
4A
100
AcDbEntity
  8
0
  6
Continuous
 62
     2
100
AcDbLine
 10
356.8233397256694
 20
819.6664310624491
 30
0.0
 11
363.1064007563491
 21
813.3833700317707
 31
0.0
  0
LINE
  5
3DA
330
4A
100
AcDbEntity
  8
0
  6
Continuous
 62
     2
100
AcDbLine
 10
364.8741677093148
 20
827.7172590460946
 30
0.0
 11
358.5911066786358
 21
821.4341980154154
 31
0.0
  0
LINE
  5
3DB
330
4A
100
AcDbEntity
  8
0
  6
Continuous
 62
     2
100
AcDbLine
 10
356.8233397256693
 20
823.2019649683818
 30
0.0
 11
363.1064007563483
 21
829.4850259990607
 31
0.0
  0
LINE
  5
3DC
330
4A
100
AcDbEntity
  8
0
  6
Continuous
 62
     2
100
AcDbLine
 10
348.7725117420238
 20
815.1511369847365
 30
0.0
 11
355.0555727727029
 21
821.4341980154154
 31
0.0
  0
LINE
  5
3DD
330
4A
100
AcDbEntity
  8
0
  6
Continuous
 62
     2
100
AcDbLine
 10
350.5402786949904
 20
829.4850259990608
 30
0.0
 11
356.8233397256693
 21
823.2019649683818
 31
0.0
  0
LINE
  5
3DE
330
4A
100
AcDbEntity
  8
0
  6
Continuous
 62
     2
100
AcDbLine
 10
355.0555727727029
 20
821.4341980154154
 30
0.0
 11
348.7725117420238
 21
827.7172590460945
 31
0.0
  0
LINE
  5
3DF
330
4A
100
AcDbEntity
  8
0
  6
Continuous
 62
     2
100
AcDbLine
 10
318.3369667604087
 20
813.38337003177
 30
0.0
 11
321.4352798663961
 21
816.4816831377573
 31
0.0
  0
LINE
  5
3E0
330
4A
100
AcDbEntity
  8
0
  6
Continuous
 62
     2
100
AcDbLine
 10
316.5691998074423
 20
815.1511369847365
 30
0.0
 11
317.6623142770561
 21
816.2442514543502
 31
0.0
  0
LINE
  5
3E1
330
4A
100
AcDbEntity
  8
0
  6
Continuous
 62
     2
100
AcDbLine
 10
340.7216837583783
 20
819.6664310624491
 30
0.0
 11
347.0047447890572
 21
813.3833700317703
 31
0.0
  0
LINE
  5
3E2
330
4A
100
AcDbEntity
  8
0
  6
Continuous
 62
     2
100
AcDbLine
 10
332.6708557747329
 20
815.1511369847367
 30
0.0
 11
338.9539168054121
 21
821.4341980154154
 31
0.0
  0
LINE
  5
3E3
330
4A
100
AcDbEntity
  8
0
  6
Continuous
 62
     2
100
AcDbLine
 10
334.4386227276987
 20
813.3833700317707
 30
0.0
 11
340.7216837583783
 21
819.6664310624491
 31
0.0
  0
LINE
  5
3E4
330
4A
100
AcDbEntity
  8
0
  6
Continuous
 62
     2
100
AcDbLine
 10
338.9539168054121
 20
821.4341980154154
 30
0.0
 11
335.707714889899
 21
824.6803999309286
 31
0.0
  0
LINE
  5
3E5
330
4A
100
AcDbEntity
  8
0
  6
Continuous
 62
     2
100
AcDbLine
 10
342.4894507113449
 20
821.4341980154154
 30
0.0
 11
348.7725117420238
 21
815.1511369847365
 31
0.0
  0
LINE
  5
3E6
330
4A
100
AcDbEntity
  8
0
  6
Continuous
 62
     2
100
AcDbLine
 10
340.7216837583784
 20
823.2019649683818
 30
0.0
 11
347.0047447890573
 21
829.4850259990608
 31
0.0
  0
LINE
  5
3E7
330
4A
100
AcDbEntity
  8
0
  6
Continuous
 62
     2
100
AcDbLine
 10
348.7725117420238
 20
827.7172590460945
 30
0.0
 11
342.4894507113449
 21
821.4341980154154
 31
0.0
  0
LINE
  5
3E8
330
4A
100
AcDbEntity
  8
0
  6
Continuous
 62
     2
100
AcDbLine
 10
300.4675438401517
 20
815.1511369847367
 30
0.0
 11
305.4655114595923
 21
820.1491046041772
 31
0.0
  0
LINE
  5
3E9
330
4A
100
AcDbEntity
  8
0
  6
Continuous
 62
     2
100
AcDbLine
 10
302.2353107931172
 20
813.3833700317707
 30
0.0
 11
307.673873285007
 21
818.8219325236594
 31
0.0
  0
LINE
  5
3EA
330
4A
100
AcDbEntity
  8
0
  6
Continuous
 62
     2
100
AcDbLine
 10
286.1336548258274
 20
813.3833700317703
 30
0.0
 11
292.4167158565064
 21
819.6664310624491
 31
0.0
  0
LINE
  5
3EB
330
4A
100
AcDbEntity
  8
0
  6
Continuous
 62
     2
100
AcDbLine
 10
294.1844828094728
 20
821.4341980154154
 30
0.0
 11
300.4675438401517
 21
815.1511369847367
 31
0.0
  0
LINE
  5
3EC
330
4A
100
AcDbEntity
  8
0
  6
Continuous
 62
     2
100
AcDbLine
 10
292.4167158565064
 20
819.6664310624491
 30
0.0
 11
298.6997768871861
 21
813.3833700317707
 31
0.0
  0
LINE
  5
3ED
330
4A
100
AcDbEntity
  8
0
  6
Continuous
 62
     2
100
AcDbLine
 10
292.4167158565062
 20
823.2019649683818
 30
0.0
 11
297.9747178546706
 21
828.7599669665461
 31
0.0
  0
LINE
  5
3EE
330
4A
100
AcDbEntity
  8
0
  6
Continuous
 62
     2
100
AcDbLine
 10
284.3658878728609
 20
815.1511369847365
 30
0.0
 11
290.6489489035398
 21
821.4341980154154
 31
0.0
  0
LINE
  5
3EF
330
4A
100
AcDbEntity
  8
0
  6
Continuous
 62
     2
100
AcDbLine
 10
286.1336548258273
 20
829.4850259990608
 30
0.0
 11
292.4167158565062
 21
823.2019649683818
 31
0.0
  0
LINE
  5
3F0
330
4A
100
AcDbEntity
  8
0
  6
Continuous
 62
     2
100
AcDbLine
 10
290.6489489035398
 20
821.4341980154154
 30
0.0
 11
284.3658878728609
 21
827.7172590460945
 31
0.0
  0
LINE
  5
3F1
330
4A
100
AcDbEntity
  8
0
  6
Continuous
 62
     2
100
AcDbLine
 10
253.9303428912458
 20
813.38337003177
 30
0.0
 11
260.2134039219249
 21
819.6664310624491
 31
0.0
  0
LINE
  5
3F2
330
4A
100
AcDbEntity
  8
0
  6
Continuous
 62
     2
100
AcDbLine
 10
261.9811708748914
 20
821.4341980154154
 30
0.0
 11
268.26423190557
 21
815.1511369847367
 31
0.0
  0
LINE
  5
3F3
330
4A
100
AcDbEntity
  8
0
  6
Continuous
 62
     2
100
AcDbLine
 10
260.2134039219249
 20
819.6664310624491
 30
0.0
 11
266.4964649526046
 21
813.3833700317707
 31
0.0
  0
LINE
  5
3F4
330
4A
100
AcDbEntity
  8
0
  6
Continuous
 62
     2
100
AcDbLine
 10
268.2642319055701
 20
827.7172590460946
 30
0.0
 11
261.9811708748914
 21
821.4341980154154
 31
0.0
  0
LINE
  5
3F5
330
4A
100
AcDbEntity
  8
0
  6
Continuous
 62
     2
100
AcDbLine
 10
260.2134039219247
 20
823.2019649683818
 30
0.0
 11
266.4964649526038
 21
829.4850259990607
 31
0.0
  0
LINE
  5
3F6
330
4A
100
AcDbEntity
  8
0
  6
Continuous
 62
     2
100
AcDbLine
 10
252.1625759382794
 20
815.1511369847365
 30
0.0
 11
258.4456369689584
 21
821.4341980154154
 31
0.0
  0
LINE
  5
3F7
330
4A
100
AcDbEntity
  8
0
  6
Continuous
 62
     2
100
AcDbLine
 10
253.9303428912458
 20
829.4850259990608
 30
0.0
 11
260.2134039219247
 21
823.2019649683818
 31
0.0
  0
LINE
  5
3F8
330
4A
100
AcDbEntity
  8
0
  6
Continuous
 62
     2
100
AcDbLine
 10
258.4456369689584
 20
821.4341980154154
 30
0.0
 11
252.1625759382794
 21
827.7172590460945
 31
0.0
  0
LINE
  5
3F9
330
4A
100
AcDbEntity
  8
0
  6
Continuous
 62
     2
100
AcDbLine
 10
276.3150598892153
 20
819.6664310624491
 30
0.0
 11
282.5981209198943
 21
813.3833700317703
 31
0.0
  0
LINE
  5
3FA
330
4A
100
AcDbEntity
  8
0
  6
Continuous
 62
     2
100
AcDbLine
 10
268.26423190557
 20
815.1511369847367
 30
0.0
 11
274.5472929362491
 21
821.4341980154154
 31
0.0
  0
LINE
  5
3FB
330
4A
100
AcDbEntity
  8
0
  6
Continuous
 62
     2
100
AcDbLine
 10
270.0319988585356
 20
813.3833700317707
 30
0.0
 11
276.3150598892153
 21
819.6664310624491
 31
0.0
  0
LINE
  5
3FC
330
4A
100
AcDbEntity
  8
0
  6
Continuous
 62
     2
100
AcDbLine
 10
274.5472929362491
 20
821.4341980154154
 30
0.0
 11
268.2642319055701
 21
827.7172590460946
 31
0.0
  0
LINE
  5
3FD
330
4A
100
AcDbEntity
  8
0
  6
Continuous
 62
     2
100
AcDbLine
 10
270.0319988585366
 20
829.4850259990607
 30
0.0
 11
276.3150598892155
 21
823.2019649683818
 31
0.0
  0
LINE
  5
3FE
330
4A
100
AcDbEntity
  8
0
  6
Continuous
 62
     2
100
AcDbLine
 10
278.0828268421819
 20
821.4341980154154
 30
0.0
 11
284.3658878728609
 21
815.1511369847365
 31
0.0
  0
LINE
  5
3FF
330
4A
100
AcDbEntity
  8
0
  6
Continuous
 62
     2
100
AcDbLine
 10
276.3150598892155
 20
823.2019649683818
 30
0.0
 11
282.5981209198944
 21
829.4850259990608
 31
0.0
  0
LINE
  5
400
330
4A
100
AcDbEntity
  8
0
  6
Continuous
 62
     2
100
AcDbLine
 10
284.3658878728609
 20
827.7172590460945
 30
0.0
 11
278.0828268421819
 21
821.4341980154154
 31
0.0
  0
LINE
  5
401
330
4A
100
AcDbEntity
  8
0
  6
Continuous
 62
     2
100
AcDbLine
 10
244.111747954634
 20
819.6664310624491
 30
0.0
 11
250.3948089853128
 21
813.3833700317703
 31
0.0
  0
LINE
  5
402
330
4A
100
AcDbEntity
  8
0
  6
Continuous
 62
     2
100
AcDbLine
 10
236.0609199709888
 20
815.1511369847367
 30
0.0
 11
242.3439810016675
 21
821.4341980154154
 31
0.0
  0
LINE
  5
403
330
4A
100
AcDbEntity
  8
0
  6
Continuous
 62
     2
100
AcDbLine
 10
237.8286869239543
 20
813.3833700317707
 30
0.0
 11
244.111747954634
 21
819.6664310624491
 31
0.0
  0
LINE
  5
404
330
4A
100
AcDbEntity
  8
0
  6
Continuous
 62
     2
100
AcDbLine
 10
242.3439810016675
 20
821.4341980154154
 30
0.0
 11
236.0609199709886
 21
827.7172590460946
 31
0.0
  0
LINE
  5
405
330
4A
100
AcDbEntity
  8
0
  6
Continuous
 62
     2
100
AcDbLine
 10
237.8286869239551
 20
829.4850259990607
 30
0.0
 11
244.1117479546342
 21
823.2019649683818
 31
0.0
  0
LINE
  5
406
330
4A
100
AcDbEntity
  8
0
  6
Continuous
 62
     2
100
AcDbLine
 10
245.8795149076004
 20
821.4341980154154
 30
0.0
 11
252.1625759382794
 21
815.1511369847365
 31
0.0
  0
LINE
  5
407
330
4A
100
AcDbEntity
  8
0
  6
Continuous
 62
     2
100
AcDbLine
 10
244.1117479546342
 20
823.2019649683818
 30
0.0
 11
250.3948089853129
 21
829.4850259990608
 31
0.0
  0
LINE
  5
408
330
4A
100
AcDbEntity
  8
0
  6
Continuous
 62
     2
100
AcDbLine
 10
252.1625759382794
 20
827.7172590460945
 30
0.0
 11
245.8795149076004
 21
821.4341980154154
 31
0.0
  0
LINE
  5
409
330
4A
100
AcDbEntity
  8
0
  6
Continuous
 62
     2
100
AcDbLine
 10
221.7270309566645
 20
813.3833700317703
 30
0.0
 11
228.0100919873434
 21
819.6664310624491
 31
0.0
  0
LINE
  5
40A
330
4A
100
AcDbEntity
  8
0
  6
Continuous
 62
     2
100
AcDbLine
 10
229.7778589403098
 20
821.4341980154154
 30
0.0
 11
236.0609199709888
 21
815.1511369847367
 31
0.0
  0
LINE
  5
40B
330
4A
100
AcDbEntity
  8
0
  6
Continuous
 62
     2
100
AcDbLine
 10
228.0100919873434
 20
819.6664310624491
 30
0.0
 11
234.2931530180233
 21
813.3833700317707
 31
0.0
  0
LINE
  5
40C
330
4A
100
AcDbEntity
  8
0
  6
Continuous
 62
     2
100
AcDbLine
 10
236.0609199709886
 20
827.7172590460946
 30
0.0
 11
229.7778589403098
 21
821.4341980154154
 31
0.0
  0
LINE
  5
40D
330
4A
100
AcDbEntity
  8
0
  6
Continuous
 62
     2
100
AcDbLine
 10
228.0100919873433
 20
823.2019649683818
 30
0.0
 11
234.2931530180222
 21
829.4850259990607
 31
0.0
  0
LINE
  5
40E
330
4A
100
AcDbEntity
  8
0
  6
Continuous
 62
     2
100
AcDbLine
 10
210.1406690670862
 20
821.4341980154154
 30
0.0
 11
218.1914970507316
 21
813.38337003177
 31
0.0
  0
LINE
  5
40F
330
4A
100
AcDbEntity
  8
0
  6
Continuous
 62
     2
100
AcDbLine
 10
219.9592640036979
 20
815.1511369847365
 30
0.0
 11
226.2423250343769
 21
821.4341980154154
 31
0.0
  0
LINE
  5
410
330
4A
100
AcDbEntity
  8
0
  6
Continuous
 62
     2
100
AcDbLine
 10
213.6762029730191
 20
821.4341980154154
 30
0.0
 11
219.9592640036979
 21
815.1511369847365
 31
0.0
  0
LINE
  5
411
330
4A
100
AcDbEntity
  8
0
  6
Continuous
 62
     2
100
AcDbLine
 10
218.1914970507316
 20
829.4850259990608
 30
0.0
 11
210.1406690670862
 21
821.4341980154154
 31
0.0
  0
LINE
  5
412
330
4A
100
AcDbEntity
  8
0
  6
Continuous
 62
     2
100
AcDbLine
 10
221.7270309566644
 20
829.4850259990608
 30
0.0
 11
228.0100919873433
 21
823.2019649683818
 31
0.0
  0
LINE
  5
413
330
4A
100
AcDbEntity
  8
0
  6
Continuous
 62
     2
100
AcDbLine
 10
226.2423250343769
 20
821.4341980154154
 30
0.0
 11
219.9592640036979
 21
827.7172590460945
 31
0.0
  0
LINE
  5
414
330
4A
100
AcDbEntity
  8
0
  6
Continuous
 62
     2
100
AcDbLine
 10
219.9592640036979
 20
827.7172590460945
 30
0.0
 11
213.6762029730191
 21
821.4341980154154
 31
0.0
  0
LINE
  5
415
330
4A
100
AcDbEntity
  8
0
  6
Continuous
 62
     2
100
AcDbLine
 10
422.9977305477991
 20
837.535853982706
 30
0.0
 11
426.1406690670862
 21
834.3929154634186
 31
0.0
  0
LINE
  5
416
330
4A
100
AcDbEntity
  8
0
  6
Continuous
 62
     2
100
AcDbLine
 10
421.2299635948327
 20
839.3036209356724
 30
0.0
 11
414.9469025641537
 21
845.5866819663512
 31
0.0
  0
LINE
  5
417
330
4A
100
AcDbEntity
  8
0
  6
Continuous
 62
     2
100
AcDbLine
 10
426.1406690670862
 20
840.6787925019931
 30
0.0
 11
422.9977305477991
 21
837.535853982706
 31
0.0
  0
LINE
  5
418
330
4A
100
AcDbEntity
  8
0
  6
Continuous
 62
     2
100
AcDbLine
 10
426.1406690670862
 20
844.2143264079249
 30
0.0
 11
421.2299635948327
 21
839.3036209356724
 31
0.0
  0
LINE
  5
419
330
4A
100
AcDbEntity
  8
0
  6
Continuous
 62
     2
100
AcDbLine
 10
426.1406690670862
 20
830.857381557486
 30
0.0
 11
421.2299635948326
 21
835.7680870297395
 31
0.0
  0
LINE
  5
41A
330
4A
100
AcDbEntity
  8
0
  6
Continuous
 62
     2
100
AcDbLine
 10
419.4621966418661
 20
837.535853982706
 30
0.0
 11
413.1791356111871
 21
843.818915013385
 31
0.0
  0
LINE
  5
41B
330
4A
100
AcDbEntity
  8
0
  6
Continuous
 62
     2
100
AcDbLine
 10
421.2299635948326
 20
835.7680870297395
 30
0.0
 11
414.9469025641536
 21
829.4850259990608
 31
0.0
  0
LINE
  5
41C
330
4A
100
AcDbEntity
  8
0
  6
Continuous
 62
     2
100
AcDbLine
 10
413.1791356111871
 20
831.252792952027
 30
0.0
 11
419.4621966418661
 21
837.535853982706
 31
0.0
  0
LINE
  5
41D
330
4A
100
AcDbEntity
  8
0
  6
Continuous
 62
     2
100
AcDbLine
 10
389.026651660251
 20
839.3036209356724
 30
0.0
 11
382.7435906295719
 21
845.5866819663514
 31
0.0
  0
LINE
  5
41E
330
4A
100
AcDbEntity
  8
0
  6
Continuous
 62
     2
100
AcDbLine
 10
397.0774796438961
 20
843.8189150133848
 30
0.0
 11
390.7944186132173
 21
837.535853982706
 31
0.0
  0
LINE
  5
41F
330
4A
100
AcDbEntity
  8
0
  6
Continuous
 62
     2
100
AcDbLine
 10
395.3097126909307
 20
845.5866819663507
 30
0.0
 11
389.026651660251
 21
839.3036209356724
 31
0.0
  0
LINE
  5
420
330
4A
100
AcDbEntity
  8
0
  6
Continuous
 62
     2
100
AcDbLine
 10
390.7944186132173
 20
837.535853982706
 30
0.0
 11
397.0774796438964
 21
831.252792952027
 31
0.0
  0
LINE
  5
421
330
4A
100
AcDbEntity
  8
0
  6
Continuous
 62
     2
100
AcDbLine
 10
395.3097126909298
 20
829.4850259990607
 30
0.0
 11
389.0266516602508
 21
835.7680870297395
 31
0.0
  0
LINE
  5
422
330
4A
100
AcDbEntity
  8
0
  6
Continuous
 62
     2
100
AcDbLine
 10
387.2588847072844
 20
837.535853982706
 30
0.0
 11
380.9758236766054
 21
843.818915013385
 31
0.0
  0
LINE
  5
423
330
4A
100
AcDbEntity
  8
0
  6
Continuous
 62
     2
100
AcDbLine
 10
389.0266516602508
 20
835.7680870297395
 30
0.0
 11
382.7435906295719
 21
829.4850259990608
 31
0.0
  0
LINE
  5
424
330
4A
100
AcDbEntity
  8
0
  6
Continuous
 62
     2
100
AcDbLine
 10
380.9758236766054
 20
831.252792952027
 30
0.0
 11
387.2588847072844
 21
837.535853982706
 31
0.0
  0
LINE
  5
425
330
4A
100
AcDbEntity
  8
0
  6
Continuous
 62
     2
100
AcDbLine
 10
411.4113686582205
 20
845.5866819663512
 30
0.0
 11
405.1283076275415
 21
839.3036209356724
 31
0.0
  0
LINE
  5
426
330
4A
100
AcDbEntity
  8
0
  6
Continuous
 62
     2
100
AcDbLine
 10
403.3605406745751
 20
837.535853982706
 30
0.0
 11
397.0774796438961
 21
843.8189150133848
 31
0.0
  0
LINE
  5
427
330
4A
100
AcDbEntity
  8
0
  6
Continuous
 62
     2
100
AcDbLine
 10
405.1283076275415
 20
839.3036209356724
 30
0.0
 11
398.8452465968618
 21
845.5866819663507
 31
0.0
  0
LINE
  5
428
330
4A
100
AcDbEntity
  8
0
  6
Continuous
 62
     2
100
AcDbLine
 10
397.0774796438964
 20
831.252792952027
 30
0.0
 11
403.3605406745751
 21
837.535853982706
 31
0.0
  0
LINE
  5
429
330
4A
100
AcDbEntity
  8
0
  6
Continuous
 62
     2
100
AcDbLine
 10
405.1283076275416
 20
835.7680870297395
 30
0.0
 11
398.8452465968626
 21
829.4850259990607
 31
0.0
  0
LINE
  5
42A
330
4A
100
AcDbEntity
  8
0
  6
Continuous
 62
     2
100
AcDbLine
 10
413.1791356111871
 20
843.818915013385
 30
0.0
 11
406.896074580508
 21
837.535853982706
 31
0.0
  0
LINE
  5
42B
330
4A
100
AcDbEntity
  8
0
  6
Continuous
 62
     2
100
AcDbLine
 10
411.4113686582205
 20
829.4850259990608
 30
0.0
 11
405.1283076275416
 21
835.7680870297395
 31
0.0
  0
LINE
  5
42C
330
4A
100
AcDbEntity
  8
0
  6
Continuous
 62
     2
100
AcDbLine
 10
406.896074580508
 20
837.535853982706
 30
0.0
 11
413.1791356111871
 21
831.252792952027
 31
0.0
  0
LINE
  5
42D
330
4A
100
AcDbEntity
  8
0
  6
Continuous
 62
     2
100
AcDbLine
 10
379.2080567236391
 20
845.5866819663514
 30
0.0
 11
372.9249956929599
 21
839.3036209356724
 31
0.0
  0
LINE
  5
42E
330
4A
100
AcDbEntity
  8
0
  6
Continuous
 62
     2
100
AcDbLine
 10
371.1572287399937
 20
837.535853982706
 30
0.0
 11
364.8741677093149
 21
843.8189150133848
 31
0.0
  0
LINE
  5
42F
330
4A
100
AcDbEntity
  8
0
  6
Continuous
 62
     2
100
AcDbLine
 10
372.9249956929599
 20
839.3036209356724
 30
0.0
 11
366.6419346622802
 21
845.5866819663507
 31
0.0
  0
LINE
  5
430
330
4A
100
AcDbEntity
  8
0
  6
Continuous
 62
     2
100
AcDbLine
 10
364.8741677093148
 20
831.252792952027
 30
0.0
 11
371.1572287399937
 21
837.535853982706
 31
0.0
  0
LINE
  5
431
330
4A
100
AcDbEntity
  8
0
  6
Continuous
 62
     2
100
AcDbLine
 10
372.92499569296
 20
835.7680870297395
 30
0.0
 11
366.6419346622811
 21
829.4850259990607
 31
0.0
  0
LINE
  5
432
330
4A
100
AcDbEntity
  8
0
  6
Continuous
 62
     2
100
AcDbLine
 10
380.9758236766054
 20
843.818915013385
 30
0.0
 11
374.6927626459266
 21
837.535853982706
 31
0.0
  0
LINE
  5
433
330
4A
100
AcDbEntity
  8
0
  6
Continuous
 62
     2
100
AcDbLine
 10
379.2080567236391
 20
829.4850259990608
 30
0.0
 11
372.92499569296
 21
835.7680870297395
 31
0.0
  0
LINE
  5
434
330
4A
100
AcDbEntity
  8
0
  6
Continuous
 62
     2
100
AcDbLine
 10
374.6927626459266
 20
837.535853982706
 30
0.0
 11
380.9758236766054
 21
831.252792952027
 31
0.0
  0
LINE
  5
435
330
4A
100
AcDbEntity
  8
0
  6
Continuous
 62
     2
100
AcDbLine
 10
356.8233397256694
 20
839.3036209356724
 30
0.0
 11
350.5402786949906
 21
845.5866819663512
 31
0.0
  0
LINE
  5
436
330
4A
100
AcDbEntity
  8
0
  6
Continuous
 62
     2
100
AcDbLine
 10
364.8741677093149
 20
843.8189150133848
 30
0.0
 11
358.5911066786358
 21
837.535853982706
 31
0.0
  0
LINE
  5
437
330
4A
100
AcDbEntity
  8
0
  6
Continuous
 62
     2
100
AcDbLine
 10
363.1064007563491
 20
845.5866819663507
 30
0.0
 11
356.8233397256694
 21
839.3036209356724
 31
0.0
  0
LINE
  5
438
330
4A
100
AcDbEntity
  8
0
  6
Continuous
 62
     2
100
AcDbLine
 10
358.5911066786358
 20
837.535853982706
 30
0.0
 11
364.8741677093148
 21
831.252792952027
 31
0.0
  0
LINE
  5
439
330
4A
100
AcDbEntity
  8
0
  6
Continuous
 62
     2
100
AcDbLine
 10
363.1064007563483
 20
829.4850259990607
 30
0.0
 11
356.8233397256693
 21
835.7680870297395
 31
0.0
  0
LINE
  5
43A
330
4A
100
AcDbEntity
  8
0
  6
Continuous
 62
     2
100
AcDbLine
 10
355.0555727727029
 20
837.535853982706
 30
0.0
 11
348.7725117420238
 21
843.818915013385
 31
0.0
  0
LINE
  5
43B
330
4A
100
AcDbEntity
  8
0
  6
Continuous
 62
     2
100
AcDbLine
 10
356.8233397256693
 20
835.7680870297395
 30
0.0
 11
350.5402786949904
 21
829.4850259990608
 31
0.0
  0
LINE
  5
43C
330
4A
100
AcDbEntity
  8
0
  6
Continuous
 62
     2
100
AcDbLine
 10
348.7725117420238
 20
831.252792952027
 30
0.0
 11
355.0555727727029
 21
837.535853982706
 31
0.0
  0
LINE
  5
43D
330
4A
100
AcDbEntity
  8
0
  6
Continuous
 62
     2
100
AcDbLine
 10
347.0047447890572
 20
845.5866819663512
 30
0.0
 11
340.6355835300233
 21
839.2175207073174
 31
0.0
  0
LINE
  5
43E
330
4A
100
AcDbEntity
  8
0
  6
Continuous
 62
     2
100
AcDbLine
 10
348.7725117420238
 20
843.818915013385
 30
0.0
 11
342.4894507113449
 21
837.535853982706
 31
0.0
  0
LINE
  5
43F
330
4A
100
AcDbEntity
  8
0
  6
Continuous
 62
     2
100
AcDbLine
 10
347.0047447890573
 20
829.4850259990608
 30
0.0
 11
340.4751064087733
 21
836.0146643793446
 31
0.0
  0
LINE
  5
440
330
4A
100
AcDbEntity
  8
0
  6
Continuous
 62
     2
100
AcDbLine
 10
342.4894507113449
 20
837.535853982706
 30
0.0
 11
348.7725117420238
 21
831.252792952027
 31
0.0
  0
LINE
  5
441
330
4A
100
AcDbEntity
  8
0
  6
Continuous
 62
     2
100
AcDbLine
 10
292.4167158565064
 20
839.3036209356724
 30
0.0
 11
286.1336548258274
 21
845.5866819663512
 31
0.0
  0
LINE
  5
442
330
4A
100
AcDbEntity
  8
0
  6
Continuous
 62
     2
100
AcDbLine
 10
294.1844828094728
 20
837.535853982706
 30
0.0
 11
295.8205445840115
 21
835.8997922081672
 31
0.0
  0
LINE
  5
443
330
4A
100
AcDbEntity
  8
0
  6
Continuous
 62
     2
100
AcDbLine
 10
290.6489489035398
 20
837.535853982706
 30
0.0
 11
284.3658878728609
 21
843.818915013385
 31
0.0
  0
LINE
  5
444
330
4A
100
AcDbEntity
  8
0
  6
Continuous
 62
     2
100
AcDbLine
 10
292.4167158565062
 20
835.7680870297395
 30
0.0
 11
286.1336548258273
 21
829.4850259990608
 31
0.0
  0
LINE
  5
445
330
4A
100
AcDbEntity
  8
0
  6
Continuous
 62
     2
100
AcDbLine
 10
284.3658878728609
 20
831.252792952027
 30
0.0
 11
290.6489489035398
 21
837.535853982706
 31
0.0
  0
LINE
  5
446
330
4A
100
AcDbEntity
  8
0
  6
Continuous
 62
     2
100
AcDbLine
 10
260.2134039219249
 20
839.3036209356724
 30
0.0
 11
253.9303428912458
 21
845.5866819663514
 31
0.0
  0
LINE
  5
447
330
4A
100
AcDbEntity
  8
0
  6
Continuous
 62
     2
100
AcDbLine
 10
268.26423190557
 20
843.8189150133848
 30
0.0
 11
261.9811708748914
 21
837.535853982706
 31
0.0
  0
LINE
  5
448
330
4A
100
AcDbEntity
  8
0
  6
Continuous
 62
     2
100
AcDbLine
 10
266.4964649526046
 20
845.5866819663507
 30
0.0
 11
260.2134039219249
 21
839.3036209356724
 31
0.0
  0
LINE
  5
449
330
4A
100
AcDbEntity
  8
0
  6
Continuous
 62
     2
100
AcDbLine
 10
261.9811708748914
 20
837.535853982706
 30
0.0
 11
268.2642319055701
 21
831.252792952027
 31
0.0
  0
LINE
  5
44A
330
4A
100
AcDbEntity
  8
0
  6
Continuous
 62
     2
100
AcDbLine
 10
266.4964649526038
 20
829.4850259990607
 30
0.0
 11
260.2134039219247
 21
835.7680870297395
 31
0.0
  0
LINE
  5
44B
330
4A
100
AcDbEntity
  8
0
  6
Continuous
 62
     2
100
AcDbLine
 10
258.4456369689584
 20
837.535853982706
 30
0.0
 11
252.1625759382794
 21
843.818915013385
 31
0.0
  0
LINE
  5
44C
330
4A
100
AcDbEntity
  8
0
  6
Continuous
 62
     2
100
AcDbLine
 10
260.2134039219247
 20
835.7680870297395
 30
0.0
 11
253.9303428912458
 21
829.4850259990608
 31
0.0
  0
LINE
  5
44D
330
4A
100
AcDbEntity
  8
0
  6
Continuous
 62
     2
100
AcDbLine
 10
252.1625759382794
 20
831.252792952027
 30
0.0
 11
258.4456369689584
 21
837.535853982706
 31
0.0
  0
LINE
  5
44E
330
4A
100
AcDbEntity
  8
0
  6
Continuous
 62
     2
100
AcDbLine
 10
282.5981209198943
 20
845.5866819663512
 30
0.0
 11
276.3150598892153
 21
839.3036209356724
 31
0.0
  0
LINE
  5
44F
330
4A
100
AcDbEntity
  8
0
  6
Continuous
 62
     2
100
AcDbLine
 10
274.5472929362491
 20
837.535853982706
 30
0.0
 11
268.26423190557
 21
843.8189150133848
 31
0.0
  0
LINE
  5
450
330
4A
100
AcDbEntity
  8
0
  6
Continuous
 62
     2
100
AcDbLine
 10
276.3150598892153
 20
839.3036209356724
 30
0.0
 11
270.0319988585356
 21
845.5866819663507
 31
0.0
  0
LINE
  5
451
330
4A
100
AcDbEntity
  8
0
  6
Continuous
 62
     2
100
AcDbLine
 10
268.2642319055701
 20
831.252792952027
 30
0.0
 11
274.5472929362491
 21
837.535853982706
 31
0.0
  0
LINE
  5
452
330
4A
100
AcDbEntity
  8
0
  6
Continuous
 62
     2
100
AcDbLine
 10
276.3150598892155
 20
835.7680870297395
 30
0.0
 11
270.0319988585366
 21
829.4850259990607
 31
0.0
  0
LINE
  5
453
330
4A
100
AcDbEntity
  8
0
  6
Continuous
 62
     2
100
AcDbLine
 10
284.3658878728609
 20
843.818915013385
 30
0.0
 11
278.0828268421819
 21
837.535853982706
 31
0.0
  0
LINE
  5
454
330
4A
100
AcDbEntity
  8
0
  6
Continuous
 62
     2
100
AcDbLine
 10
282.5981209198944
 20
829.4850259990608
 30
0.0
 11
276.3150598892155
 21
835.7680870297395
 31
0.0
  0
LINE
  5
455
330
4A
100
AcDbEntity
  8
0
  6
Continuous
 62
     2
100
AcDbLine
 10
278.0828268421819
 20
837.535853982706
 30
0.0
 11
284.3658878728609
 21
831.252792952027
 31
0.0
  0
LINE
  5
456
330
4A
100
AcDbEntity
  8
0
  6
Continuous
 62
     2
100
AcDbLine
 10
250.3948089853128
 20
845.5866819663512
 30
0.0
 11
244.111747954634
 21
839.3036209356724
 31
0.0
  0
LINE
  5
457
330
4A
100
AcDbEntity
  8
0
  6
Continuous
 62
     2
100
AcDbLine
 10
242.3439810016675
 20
837.535853982706
 30
0.0
 11
236.0609199709888
 21
843.8189150133848
 31
0.0
  0
LINE
  5
458
330
4A
100
AcDbEntity
  8
0
  6
Continuous
 62
     2
100
AcDbLine
 10
244.111747954634
 20
839.3036209356724
 30
0.0
 11
237.8286869239543
 21
845.5866819663507
 31
0.0
  0
LINE
  5
459
330
4A
100
AcDbEntity
  8
0
  6
Continuous
 62
     2
100
AcDbLine
 10
236.0609199709886
 20
831.252792952027
 30
0.0
 11
242.3439810016675
 21
837.535853982706
 31
0.0
  0
LINE
  5
45A
330
4A
100
AcDbEntity
  8
0
  6
Continuous
 62
     2
100
AcDbLine
 10
244.1117479546342
 20
835.7680870297395
 30
0.0
 11
237.8286869239551
 21
829.4850259990607
 31
0.0
  0
LINE
  5
45B
330
4A
100
AcDbEntity
  8
0
  6
Continuous
 62
     2
100
AcDbLine
 10
252.1625759382794
 20
843.818915013385
 30
0.0
 11
245.8795149076004
 21
837.535853982706
 31
0.0
  0
LINE
  5
45C
330
4A
100
AcDbEntity
  8
0
  6
Continuous
 62
     2
100
AcDbLine
 10
250.3948089853129
 20
829.4850259990608
 30
0.0
 11
244.1117479546342
 21
835.7680870297395
 31
0.0
  0
LINE
  5
45D
330
4A
100
AcDbEntity
  8
0
  6
Continuous
 62
     2
100
AcDbLine
 10
245.8795149076004
 20
837.535853982706
 30
0.0
 11
252.1625759382794
 21
831.252792952027
 31
0.0
  0
LINE
  5
45E
330
4A
100
AcDbEntity
  8
0
  6
Continuous
 62
     2
100
AcDbLine
 10
228.0100919873434
 20
839.3036209356724
 30
0.0
 11
221.7270309566645
 21
845.5866819663512
 31
0.0
  0
LINE
  5
45F
330
4A
100
AcDbEntity
  8
0
  6
Continuous
 62
     2
100
AcDbLine
 10
236.0609199709888
 20
843.8189150133848
 30
0.0
 11
229.7778589403098
 21
837.535853982706
 31
0.0
  0
LINE
  5
460
330
4A
100
AcDbEntity
  8
0
  6
Continuous
 62
     2
100
AcDbLine
 10
234.2931530180233
 20
845.5866819663507
 30
0.0
 11
228.0100919873434
 21
839.3036209356724
 31
0.0
  0
LINE
  5
461
330
4A
100
AcDbEntity
  8
0
  6
Continuous
 62
     2
100
AcDbLine
 10
229.7778589403098
 20
837.535853982706
 30
0.0
 11
236.0609199709886
 21
831.252792952027
 31
0.0
  0
LINE
  5
462
330
4A
100
AcDbEntity
  8
0
  6
Continuous
 62
     2
100
AcDbLine
 10
234.2931530180222
 20
829.4850259990607
 30
0.0
 11
228.0100919873433
 21
835.7680870297395
 31
0.0
  0
LINE
  5
463
330
4A
100
AcDbEntity
  8
0
  6
Continuous
 62
     2
100
AcDbLine
 10
218.1914970507316
 20
845.5866819663514
 30
0.0
 11
210.1406690670862
 21
837.535853982706
 31
0.0
  0
LINE
  5
464
330
4A
100
AcDbEntity
  8
0
  6
Continuous
 62
     2
100
AcDbLine
 10
226.2423250343769
 20
837.535853982706
 30
0.0
 11
219.9592640036979
 21
843.818915013385
 31
0.0
  0
LINE
  5
465
330
4A
100
AcDbEntity
  8
0
  6
Continuous
 62
     2
100
AcDbLine
 10
219.9592640036979
 20
843.818915013385
 30
0.0
 11
213.6762029730191
 21
837.535853982706
 31
0.0
  0
LINE
  5
466
330
4A
100
AcDbEntity
  8
0
  6
Continuous
 62
     2
100
AcDbLine
 10
210.1406690670862
 20
837.535853982706
 30
0.0
 11
218.1914970507316
 21
829.4850259990608
 31
0.0
  0
LINE
  5
467
330
4A
100
AcDbEntity
  8
0
  6
Continuous
 62
     2
100
AcDbLine
 10
228.0100919873433
 20
835.7680870297395
 30
0.0
 11
221.7270309566644
 21
829.4850259990608
 31
0.0
  0
LINE
  5
468
330
4A
100
AcDbEntity
  8
0
  6
Continuous
 62
     2
100
AcDbLine
 10
219.9592640036979
 20
831.252792952027
 30
0.0
 11
226.2423250343769
 21
837.535853982706
 31
0.0
  0
LINE
  5
469
330
4A
100
AcDbEntity
  8
0
  6
Continuous
 62
     2
100
AcDbLine
 10
213.6762029730191
 20
837.535853982706
 30
0.0
 11
219.9592640036979
 21
831.252792952027
 31
0.0
  0
LINE
  5
46A
330
4A
100
AcDbEntity
  8
0
  6
Continuous
 62
     2
100
AcDbLine
 10
426.1406690670862
 20
856.7804484692841
 30
0.0
 11
422.9977305477991
 21
853.6375099499967
 31
0.0
  0
LINE
  5
46B
330
4A
100
AcDbEntity
  8
0
  6
Continuous
 62
     2
100
AcDbLine
 10
426.1406690670862
 20
863.0606934920672
 30
0.0
 11
421.2299635948326
 21
867.971398964321
 31
0.0
  0
LINE
  5
46C
330
4A
100
AcDbEntity
  8
0
  6
Continuous
 62
     2
100
AcDbLine
 10
426.1406690670862
 20
866.5962273980002
 30
0.0
 11
422.9977305477991
 21
869.7391659172873
 31
0.0
  0
LINE
  5
46D
330
4A
100
AcDbEntity
  8
0
  6
Continuous
 62
     2
100
AcDbLine
 10
414.9469025641537
 20
845.5866819663512
 30
0.0
 11
421.2299635948327
 21
851.8697429970304
 31
0.0
  0
LINE
  5
46E
330
4A
100
AcDbEntity
  8
0
  6
Continuous
 62
     2
100
AcDbLine
 10
421.2299635948326
 20
867.971398964321
 30
0.0
 11
414.9469025641536
 21
861.6883379336421
 31
0.0
  0
LINE
  5
46F
330
4A
100
AcDbEntity
  8
0
  6
Continuous
 62
     2
100
AcDbLine
 10
422.9977305477991
 20
853.6375099499967
 30
0.0
 11
426.1406690670862
 21
850.4945714307096
 31
0.0
  0
LINE
  5
470
330
4A
100
AcDbEntity
  8
0
  6
Continuous
 62
     2
100
AcDbLine
 10
421.2299635948327
 20
851.8697429970304
 30
0.0
 11
426.1406690670862
 21
846.9590375247778
 31
0.0
  0
LINE
  5
471
330
4A
100
AcDbEntity
  8
0
  6
Continuous
 62
     2
100
AcDbLine
 10
421.2299635948326
 20
855.4052769029631
 30
0.0
 11
426.1406690670862
 21
860.3159823752168
 31
0.0
  0
LINE
  5
472
330
4A
100
AcDbEntity
  8
0
  6
Continuous
 62
     2
100
AcDbLine
 10
413.1791356111871
 20
847.3544489193177
 30
0.0
 11
419.4621966418661
 21
853.6375099499967
 31
0.0
  0
LINE
  5
473
330
4A
100
AcDbEntity
  8
0
  6
Continuous
 62
     2
100
AcDbLine
 10
414.9469025641536
 20
861.6883379336421
 30
0.0
 11
421.2299635948326
 21
855.4052769029631
 31
0.0
  0
LINE
  5
474
330
4A
100
AcDbEntity
  8
0
  6
Continuous
 62
     2
100
AcDbLine
 10
419.4621966418661
 20
853.6375099499967
 30
0.0
 11
413.1791356111871
 21
859.9205709806756
 31
0.0
  0
LINE
  5
475
330
4A
100
AcDbEntity
  8
0
  6
Continuous
 62
     2
100
AcDbLine
 10
413.1791356111871
 20
863.4561048866084
 30
0.0
 11
419.4621966418661
 21
869.7391659172873
 31
0.0
  0
LINE
  5
476
330
4A
100
AcDbEntity
  8
0
  6
Continuous
 62
     2
100
AcDbLine
 10
382.7435906295719
 20
845.5866819663514
 30
0.0
 11
389.026651660251
 21
851.8697429970304
 31
0.0
  0
LINE
  5
477
330
4A
100
AcDbEntity
  8
0
  6
Continuous
 62
     2
100
AcDbLine
 10
389.0266516602508
 20
867.971398964321
 30
0.0
 11
382.7435906295719
 21
861.6883379336421
 31
0.0
  0
LINE
  5
478
330
4A
100
AcDbEntity
  8
0
  6
Continuous
 62
     2
100
AcDbLine
 10
390.7944186132173
 20
853.6375099499967
 30
0.0
 11
397.0774796438961
 21
847.354448919318
 31
0.0
  0
LINE
  5
479
330
4A
100
AcDbEntity
  8
0
  6
Continuous
 62
     2
100
AcDbLine
 10
389.026651660251
 20
851.8697429970304
 30
0.0
 11
395.3097126909307
 21
845.586681966352
 31
0.0
  0
LINE
  5
47A
330
4A
100
AcDbEntity
  8
0
  6
Continuous
 62
     2
100
AcDbLine
 10
397.0774796438964
 20
859.9205709806757
 30
0.0
 11
390.7944186132173
 21
853.6375099499967
 31
0.0
  0
LINE
  5
47B
330
4A
100
AcDbEntity
  8
0
  6
Continuous
 62
     2
100
AcDbLine
 10
397.0774796438963
 20
863.4561048866084
 30
0.0
 11
390.7944186132173
 21
869.7391659172873
 31
0.0
  0
LINE
  5
47C
330
4A
100
AcDbEntity
  8
0
  6
Continuous
 62
     2
100
AcDbLine
 10
389.0266516602508
 20
855.4052769029631
 30
0.0
 11
395.3097126909298
 21
861.6883379336421
 31
0.0
  0
LINE
  5
47D
330
4A
100
AcDbEntity
  8
0
  6
Continuous
 62
     2
100
AcDbLine
 10
395.3097126909298
 20
861.6883379336421
 30
0.0
 11
389.0266516602508
 21
867.971398964321
 31
0.0
  0
LINE
  5
47E
330
4A
100
AcDbEntity
  8
0
  6
Continuous
 62
     2
100
AcDbLine
 10
380.9758236766054
 20
847.3544489193177
 30
0.0
 11
387.2588847072844
 21
853.6375099499967
 31
0.0
  0
LINE
  5
47F
330
4A
100
AcDbEntity
  8
0
  6
Continuous
 62
     2
100
AcDbLine
 10
382.7435906295719
 20
861.6883379336421
 30
0.0
 11
389.0266516602508
 21
855.4052769029631
 31
0.0
  0
LINE
  5
480
330
4A
100
AcDbEntity
  8
0
  6
Continuous
 62
     2
100
AcDbLine
 10
387.2588847072844
 20
853.6375099499967
 30
0.0
 11
380.9758236766054
 21
859.9205709806756
 31
0.0
  0
LINE
  5
481
330
4A
100
AcDbEntity
  8
0
  6
Continuous
 62
     2
100
AcDbLine
 10
380.9758236766054
 20
863.4561048866084
 30
0.0
 11
387.2588847072844
 21
869.7391659172873
 31
0.0
  0
LINE
  5
482
330
4A
100
AcDbEntity
  8
0
  6
Continuous
 62
     2
100
AcDbLine
 10
405.1283076275415
 20
851.8697429970304
 30
0.0
 11
411.4113686582205
 21
845.5866819663512
 31
0.0
  0
LINE
  5
483
330
4A
100
AcDbEntity
  8
0
  6
Continuous
 62
     2
100
AcDbLine
 10
411.4113686582205
 20
861.6883379336421
 30
0.0
 11
405.1283076275416
 21
867.971398964321
 31
0.0
  0
LINE
  5
484
330
4A
100
AcDbEntity
  8
0
  6
Continuous
 62
     2
100
AcDbLine
 10
397.0774796438961
 20
847.354448919318
 30
0.0
 11
403.3605406745751
 21
853.6375099499967
 31
0.0
  0
LINE
  5
485
330
4A
100
AcDbEntity
  8
0
  6
Continuous
 62
     2
100
AcDbLine
 10
398.8452465968618
 20
845.586681966352
 30
0.0
 11
405.1283076275415
 21
851.8697429970304
 31
0.0
  0
LINE
  5
486
330
4A
100
AcDbEntity
  8
0
  6
Continuous
 62
     2
100
AcDbLine
 10
403.3605406745751
 20
853.6375099499967
 30
0.0
 11
397.0774796438964
 21
859.9205709806757
 31
0.0
  0
LINE
  5
487
330
4A
100
AcDbEntity
  8
0
  6
Continuous
 62
     2
100
AcDbLine
 10
403.3605406745751
 20
869.7391659172873
 30
0.0
 11
397.0774796438963
 21
863.4561048866084
 31
0.0
  0
LINE
  5
488
330
4A
100
AcDbEntity
  8
0
  6
Continuous
 62
     2
100
AcDbLine
 10
398.8452465968626
 20
861.6883379336421
 30
0.0
 11
405.1283076275416
 21
855.4052769029631
 31
0.0
  0
LINE
  5
489
330
4A
100
AcDbEntity
  8
0
  6
Continuous
 62
     2
100
AcDbLine
 10
405.1283076275416
 20
867.971398964321
 30
0.0
 11
398.8452465968626
 21
861.6883379336421
 31
0.0
  0
LINE
  5
48A
330
4A
100
AcDbEntity
  8
0
  6
Continuous
 62
     2
100
AcDbLine
 10
406.896074580508
 20
853.6375099499967
 30
0.0
 11
413.1791356111871
 21
847.3544489193177
 31
0.0
  0
LINE
  5
48B
330
4A
100
AcDbEntity
  8
0
  6
Continuous
 62
     2
100
AcDbLine
 10
405.1283076275416
 20
855.4052769029631
 30
0.0
 11
411.4113686582205
 21
861.6883379336421
 31
0.0
  0
LINE
  5
48C
330
4A
100
AcDbEntity
  8
0
  6
Continuous
 62
     2
100
AcDbLine
 10
413.1791356111871
 20
859.9205709806756
 30
0.0
 11
406.896074580508
 21
853.6375099499967
 31
0.0
  0
LINE
  5
48D
330
4A
100
AcDbEntity
  8
0
  6
Continuous
 62
     2
100
AcDbLine
 10
406.896074580508
 20
869.7391659172873
 30
0.0
 11
413.1791356111871
 21
863.4561048866084
 31
0.0
  0
LINE
  5
48E
330
4A
100
AcDbEntity
  8
0
  6
Continuous
 62
     2
100
AcDbLine
 10
372.9249956929599
 20
851.8697429970304
 30
0.0
 11
379.2080567236391
 21
845.5866819663514
 31
0.0
  0
LINE
  5
48F
330
4A
100
AcDbEntity
  8
0
  6
Continuous
 62
     2
100
AcDbLine
 10
379.2080567236391
 20
861.6883379336421
 30
0.0
 11
372.92499569296
 21
867.971398964321
 31
0.0
  0
LINE
  5
490
330
4A
100
AcDbEntity
  8
0
  6
Continuous
 62
     2
100
AcDbLine
 10
364.8741677093149
 20
847.354448919318
 30
0.0
 11
371.1572287399937
 21
853.6375099499967
 31
0.0
  0
LINE
  5
491
330
4A
100
AcDbEntity
  8
0
  6
Continuous
 62
     2
100
AcDbLine
 10
366.6419346622802
 20
845.586681966352
 30
0.0
 11
372.9249956929599
 21
851.8697429970304
 31
0.0
  0
LINE
  5
492
330
4A
100
AcDbEntity
  8
0
  6
Continuous
 62
     2
100
AcDbLine
 10
371.1572287399937
 20
853.6375099499967
 30
0.0
 11
364.8741677093148
 21
859.9205709806757
 31
0.0
  0
LINE
  5
493
330
4A
100
AcDbEntity
  8
0
  6
Continuous
 62
     2
100
AcDbLine
 10
371.1572287399937
 20
869.7391659172873
 30
0.0
 11
364.8741677093148
 21
863.4561048866084
 31
0.0
  0
LINE
  5
494
330
4A
100
AcDbEntity
  8
0
  6
Continuous
 62
     2
100
AcDbLine
 10
366.6419346622811
 20
861.6883379336421
 30
0.0
 11
372.92499569296
 21
855.4052769029631
 31
0.0
  0
LINE
  5
495
330
4A
100
AcDbEntity
  8
0
  6
Continuous
 62
     2
100
AcDbLine
 10
372.92499569296
 20
867.971398964321
 30
0.0
 11
366.6419346622811
 21
861.6883379336421
 31
0.0
  0
LINE
  5
496
330
4A
100
AcDbEntity
  8
0
  6
Continuous
 62
     2
100
AcDbLine
 10
374.6927626459266
 20
853.6375099499967
 30
0.0
 11
380.9758236766054
 21
847.3544489193177
 31
0.0
  0
LINE
  5
497
330
4A
100
AcDbEntity
  8
0
  6
Continuous
 62
     2
100
AcDbLine
 10
372.92499569296
 20
855.4052769029631
 30
0.0
 11
379.2080567236391
 21
861.6883379336421
 31
0.0
  0
LINE
  5
498
330
4A
100
AcDbEntity
  8
0
  6
Continuous
 62
     2
100
AcDbLine
 10
380.9758236766054
 20
859.9205709806756
 30
0.0
 11
374.6927626459266
 21
853.6375099499967
 31
0.0
  0
LINE
  5
499
330
4A
100
AcDbEntity
  8
0
  6
Continuous
 62
     2
100
AcDbLine
 10
374.6927626459266
 20
869.7391659172873
 30
0.0
 11
380.9758236766054
 21
863.4561048866084
 31
0.0
  0
LINE
  5
49A
330
4A
100
AcDbEntity
  8
0
  6
Continuous
 62
     2
100
AcDbLine
 10
350.5402786949906
 20
845.5866819663512
 30
0.0
 11
356.8233397256694
 21
851.8697429970304
 31
0.0
  0
LINE
  5
49B
330
4A
100
AcDbEntity
  8
0
  6
Continuous
 62
     2
100
AcDbLine
 10
356.8233397256693
 20
867.971398964321
 30
0.0
 11
350.5402786949904
 21
861.6883379336421
 31
0.0
  0
LINE
  5
49C
330
4A
100
AcDbEntity
  8
0
  6
Continuous
 62
     2
100
AcDbLine
 10
358.5911066786358
 20
853.6375099499967
 30
0.0
 11
364.8741677093149
 21
847.354448919318
 31
0.0
  0
LINE
  5
49D
330
4A
100
AcDbEntity
  8
0
  6
Continuous
 62
     2
100
AcDbLine
 10
356.8233397256694
 20
851.8697429970304
 30
0.0
 11
363.1064007563491
 21
845.586681966352
 31
0.0
  0
LINE
  5
49E
330
4A
100
AcDbEntity
  8
0
  6
Continuous
 62
     2
100
AcDbLine
 10
364.8741677093148
 20
859.9205709806757
 30
0.0
 11
358.5911066786358
 21
853.6375099499967
 31
0.0
  0
LINE
  5
49F
330
4A
100
AcDbEntity
  8
0
  6
Continuous
 62
     2
100
AcDbLine
 10
364.8741677093148
 20
863.4561048866084
 30
0.0
 11
358.5911066786358
 21
869.7391659172873
 31
0.0
  0
LINE
  5
4A0
330
4A
100
AcDbEntity
  8
0
  6
Continuous
 62
     2
100
AcDbLine
 10
356.8233397256693
 20
855.4052769029631
 30
0.0
 11
363.1064007563483
 21
861.6883379336421
 31
0.0
  0
LINE
  5
4A1
330
4A
100
AcDbEntity
  8
0
  6
Continuous
 62
     2
100
AcDbLine
 10
363.1064007563483
 20
861.6883379336421
 30
0.0
 11
356.8233397256693
 21
867.971398964321
 31
0.0
  0
LINE
  5
4A2
330
4A
100
AcDbEntity
  8
0
  6
Continuous
 62
     2
100
AcDbLine
 10
348.7725117420238
 20
847.3544489193177
 30
0.0
 11
355.0555727727029
 21
853.6375099499967
 31
0.0
  0
LINE
  5
4A3
330
4A
100
AcDbEntity
  8
0
  6
Continuous
 62
     2
100
AcDbLine
 10
350.5402786949904
 20
861.6883379336421
 30
0.0
 11
356.8233397256693
 21
855.4052769029631
 31
0.0
  0
LINE
  5
4A4
330
4A
100
AcDbEntity
  8
0
  6
Continuous
 62
     2
100
AcDbLine
 10
355.0555727727029
 20
853.6375099499967
 30
0.0
 11
348.7725117420238
 21
859.9205709806756
 31
0.0
  0
LINE
  5
4A5
330
4A
100
AcDbEntity
  8
0
  6
Continuous
 62
     2
100
AcDbLine
 10
348.7725117420238
 20
863.4561048866084
 30
0.0
 11
355.0555727727029
 21
869.7391659172873
 31
0.0
  0
LINE
  5
4A6
330
4A
100
AcDbEntity
  8
0
  6
Continuous
 62
     2
100
AcDbLine
 10
324.6200277910878
 20
867.971398964321
 30
0.0
 11
318.3369667604088
 21
861.6883379336421
 31
0.0
  0
LINE
  5
4A7
330
4A
100
AcDbEntity
  8
0
  6
Continuous
 62
     2
100
AcDbLine
 10
332.6708557747331
 20
859.9205709806757
 30
0.0
 11
330.3735085135501
 21
857.6232237194928
 31
0.0
  0
LINE
  5
4A8
330
4A
100
AcDbEntity
  8
0
  6
Continuous
 62
     2
100
AcDbLine
 10
332.670855774733
 20
863.4561048866084
 30
0.0
 11
326.3877947440543
 21
869.7391659172873
 31
0.0
  0
LINE
  5
4A9
330
4A
100
AcDbEntity
  8
0
  6
Continuous
 62
     2
100
AcDbLine
 10
330.9030888217667
 20
861.6883379336421
 30
0.0
 11
324.6200277910878
 21
867.971398964321
 31
0.0
  0
LINE
  5
4AA
330
4A
100
AcDbEntity
  8
0
  6
Continuous
 62
     2
100
AcDbLine
 10
318.3369667604088
 20
861.6883379336421
 30
0.0
 11
318.795674854962
 21
861.2296298390887
 31
0.0
  0
LINE
  5
4AB
330
4A
100
AcDbEntity
  8
0
  6
Continuous
 62
     2
100
AcDbLine
 10
316.5691998074423
 20
863.4561048866084
 30
0.0
 11
322.8522608381213
 21
869.7391659172873
 31
0.0
  0
LINE
  5
4AC
330
4A
100
AcDbEntity
  8
0
  6
Continuous
 62
     2
100
AcDbLine
 10
340.7216837583783
 20
851.8697429970304
 30
0.0
 11
347.0047447890572
 21
845.5866819663512
 31
0.0
  0
LINE
  5
4AD
330
4A
100
AcDbEntity
  8
0
  6
Continuous
 62
     2
100
AcDbLine
 10
347.0047447890573
 20
861.6883379336421
 30
0.0
 11
340.7216837583784
 21
867.971398964321
 31
0.0
  0
LINE
  5
4AE
330
4A
100
AcDbEntity
  8
0
  6
Continuous
 62
     2
100
AcDbLine
 10
338.9539168054121
 20
853.6375099499967
 30
0.0
 11
332.6708557747331
 21
859.9205709806757
 31
0.0
  0
LINE
  5
4AF
330
4A
100
AcDbEntity
  8
0
  6
Continuous
 62
     2
100
AcDbLine
 10
338.9539168054121
 20
869.7391659172873
 30
0.0
 11
332.670855774733
 21
863.4561048866084
 31
0.0
  0
LINE
  5
4B0
330
4A
100
AcDbEntity
  8
0
  6
Continuous
 62
     2
100
AcDbLine
 10
334.4386227276996
 20
861.6883379336421
 30
0.0
 11
340.7216837583784
 21
855.4052769029631
 31
0.0
  0
LINE
  5
4B1
330
4A
100
AcDbEntity
  8
0
  6
Continuous
 62
     2
100
AcDbLine
 10
340.7216837583784
 20
867.971398964321
 30
0.0
 11
334.4386227276996
 21
861.6883379336421
 31
0.0
  0
LINE
  5
4B2
330
4A
100
AcDbEntity
  8
0
  6
Continuous
 62
     2
100
AcDbLine
 10
342.4894507113449
 20
853.6375099499967
 30
0.0
 11
348.7725117420238
 21
847.3544489193177
 31
0.0
  0
LINE
  5
4B3
330
4A
100
AcDbEntity
  8
0
  6
Continuous
 62
     2
100
AcDbLine
 10
340.7216837583784
 20
855.4052769029631
 30
0.0
 11
347.0047447890573
 21
861.6883379336421
 31
0.0
  0
LINE
  5
4B4
330
4A
100
AcDbEntity
  8
0
  6
Continuous
 62
     2
100
AcDbLine
 10
348.7725117420238
 20
859.9205709806756
 30
0.0
 11
342.4894507113449
 21
853.6375099499967
 31
0.0
  0
LINE
  5
4B5
330
4A
100
AcDbEntity
  8
0
  6
Continuous
 62
     2
100
AcDbLine
 10
342.4894507113449
 20
869.7391659172873
 30
0.0
 11
348.7725117420238
 21
863.4561048866084
 31
0.0
  0
LINE
  5
4B6
330
4A
100
AcDbEntity
  8
0
  6
Continuous
 62
     2
100
AcDbLine
 10
314.8014328544759
 20
861.6883379336421
 30
0.0
 11
308.518371823797
 21
867.971398964321
 31
0.0
  0
LINE
  5
4B7
330
4A
100
AcDbEntity
  8
0
  6
Continuous
 62
     2
100
AcDbLine
 10
306.7506048708306
 20
869.7391659172873
 30
0.0
 11
300.4675438401516
 21
863.4561048866084
 31
0.0
  0
LINE
  5
4B8
330
4A
100
AcDbEntity
  8
0
  6
Continuous
 62
     2
100
AcDbLine
 10
302.2353107931181
 20
861.6883379336421
 30
0.0
 11
306.147384286526
 21
857.7762644402342
 31
0.0
  0
LINE
  5
4B9
330
4A
100
AcDbEntity
  8
0
  6
Continuous
 62
     2
100
AcDbLine
 10
308.518371823797
 20
867.971398964321
 30
0.0
 11
302.2353107931181
 21
861.6883379336421
 31
0.0
  0
LINE
  5
4BA
330
4A
100
AcDbEntity
  8
0
  6
Continuous
 62
     2
100
AcDbLine
 10
310.2861387767634
 20
869.7391659172873
 30
0.0
 11
316.5691998074423
 21
863.4561048866084
 31
0.0
  0
LINE
  5
4BB
330
4A
100
AcDbEntity
  8
0
  6
Continuous
 62
     2
100
AcDbLine
 10
286.1336548258274
 20
845.5866819663512
 30
0.0
 11
292.4167158565064
 21
851.8697429970304
 31
0.0
  0
LINE
  5
4BC
330
4A
100
AcDbEntity
  8
0
  6
Continuous
 62
     2
100
AcDbLine
 10
292.4167158565062
 20
867.971398964321
 30
0.0
 11
286.1336548258273
 21
861.6883379336421
 31
0.0
  0
LINE
  5
4BD
330
4A
100
AcDbEntity
  8
0
  6
Continuous
 62
     2
100
AcDbLine
 10
294.1844828094728
 20
853.6375099499967
 30
0.0
 11
297.3832094207603
 21
850.4387833387092
 31
0.0
  0
LINE
  5
4BE
330
4A
100
AcDbEntity
  8
0
  6
Continuous
 62
     2
100
AcDbLine
 10
292.4167158565064
 20
851.8697429970304
 30
0.0
 11
297.2331384726824
 21
847.0533203808553
 31
0.0
  0
LINE
  5
4BF
330
4A
100
AcDbEntity
  8
0
  6
Continuous
 62
     2
100
AcDbLine
 10
300.4675438401516
 20
859.9205709806757
 30
0.0
 11
294.1844828094728
 21
853.6375099499967
 31
0.0
  0
LINE
  5
4C0
330
4A
100
AcDbEntity
  8
0
  6
Continuous
 62
     2
100
AcDbLine
 10
300.4675438401516
 20
863.4561048866084
 30
0.0
 11
294.1844828094728
 21
869.7391659172873
 31
0.0
  0
LINE
  5
4C1
330
4A
100
AcDbEntity
  8
0
  6
Continuous
 62
     2
100
AcDbLine
 10
292.4167158565062
 20
855.4052769029631
 30
0.0
 11
298.6997768871853
 21
861.6883379336421
 31
0.0
  0
LINE
  5
4C2
330
4A
100
AcDbEntity
  8
0
  6
Continuous
 62
     2
100
AcDbLine
 10
298.6997768871853
 20
861.6883379336421
 30
0.0
 11
292.4167158565062
 21
867.971398964321
 31
0.0
  0
LINE
  5
4C3
330
4A
100
AcDbEntity
  8
0
  6
Continuous
 62
     2
100
AcDbLine
 10
284.3658878728609
 20
847.3544489193177
 30
0.0
 11
290.6489489035398
 21
853.6375099499967
 31
0.0
  0
LINE
  5
4C4
330
4A
100
AcDbEntity
  8
0
  6
Continuous
 62
     2
100
AcDbLine
 10
286.1336548258273
 20
861.6883379336421
 30
0.0
 11
292.4167158565062
 21
855.4052769029631
 31
0.0
  0
LINE
  5
4C5
330
4A
100
AcDbEntity
  8
0
  6
Continuous
 62
     2
100
AcDbLine
 10
290.6489489035398
 20
853.6375099499967
 30
0.0
 11
284.3658878728609
 21
859.9205709806756
 31
0.0
  0
LINE
  5
4C6
330
4A
100
AcDbEntity
  8
0
  6
Continuous
 62
     2
100
AcDbLine
 10
284.3658878728609
 20
863.4561048866084
 30
0.0
 11
290.6489489035398
 21
869.7391659172873
 31
0.0
  0
LINE
  5
4C7
330
4A
100
AcDbEntity
  8
0
  6
Continuous
 62
     2
100
AcDbLine
 10
253.9303428912458
 20
845.5866819663514
 30
0.0
 11
260.2134039219249
 21
851.8697429970304
 31
0.0
  0
LINE
  5
4C8
330
4A
100
AcDbEntity
  8
0
  6
Continuous
 62
     2
100
AcDbLine
 10
260.2134039219247
 20
867.971398964321
 30
0.0
 11
253.9303428912458
 21
861.6883379336421
 31
0.0
  0
LINE
  5
4C9
330
4A
100
AcDbEntity
  8
0
  6
Continuous
 62
     2
100
AcDbLine
 10
261.9811708748914
 20
853.6375099499967
 30
0.0
 11
268.26423190557
 21
847.354448919318
 31
0.0
  0
LINE
  5
4CA
330
4A
100
AcDbEntity
  8
0
  6
Continuous
 62
     2
100
AcDbLine
 10
260.2134039219249
 20
851.8697429970304
 30
0.0
 11
266.4964649526046
 21
845.586681966352
 31
0.0
  0
LINE
  5
4CB
330
4A
100
AcDbEntity
  8
0
  6
Continuous
 62
     2
100
AcDbLine
 10
268.2642319055701
 20
859.9205709806757
 30
0.0
 11
261.9811708748914
 21
853.6375099499967
 31
0.0
  0
LINE
  5
4CC
330
4A
100
AcDbEntity
  8
0
  6
Continuous
 62
     2
100
AcDbLine
 10
268.2642319055701
 20
863.4561048866084
 30
0.0
 11
261.9811708748914
 21
869.7391659172873
 31
0.0
  0
LINE
  5
4CD
330
4A
100
AcDbEntity
  8
0
  6
Continuous
 62
     2
100
AcDbLine
 10
260.2134039219247
 20
855.4052769029631
 30
0.0
 11
266.4964649526038
 21
861.6883379336421
 31
0.0
  0
LINE
  5
4CE
330
4A
100
AcDbEntity
  8
0
  6
Continuous
 62
     2
100
AcDbLine
 10
266.4964649526038
 20
861.6883379336421
 30
0.0
 11
260.2134039219247
 21
867.971398964321
 31
0.0
  0
LINE
  5
4CF
330
4A
100
AcDbEntity
  8
0
  6
Continuous
 62
     2
100
AcDbLine
 10
252.1625759382794
 20
847.3544489193177
 30
0.0
 11
258.4456369689584
 21
853.6375099499967
 31
0.0
  0
LINE
  5
4D0
330
4A
100
AcDbEntity
  8
0
  6
Continuous
 62
     2
100
AcDbLine
 10
253.9303428912458
 20
861.6883379336421
 30
0.0
 11
260.2134039219247
 21
855.4052769029631
 31
0.0
  0
LINE
  5
4D1
330
4A
100
AcDbEntity
  8
0
  6
Continuous
 62
     2
100
AcDbLine
 10
258.4456369689584
 20
853.6375099499967
 30
0.0
 11
252.1625759382794
 21
859.9205709806756
 31
0.0
  0
LINE
  5
4D2
330
4A
100
AcDbEntity
  8
0
  6
Continuous
 62
     2
100
AcDbLine
 10
252.1625759382794
 20
863.4561048866084
 30
0.0
 11
258.4456369689584
 21
869.7391659172873
 31
0.0
  0
LINE
  5
4D3
330
4A
100
AcDbEntity
  8
0
  6
Continuous
 62
     2
100
AcDbLine
 10
276.3150598892153
 20
851.8697429970304
 30
0.0
 11
282.5981209198943
 21
845.5866819663512
 31
0.0
  0
LINE
  5
4D4
330
4A
100
AcDbEntity
  8
0
  6
Continuous
 62
     2
100
AcDbLine
 10
282.5981209198944
 20
861.6883379336421
 30
0.0
 11
276.3150598892155
 21
867.971398964321
 31
0.0
  0
LINE
  5
4D5
330
4A
100
AcDbEntity
  8
0
  6
Continuous
 62
     2
100
AcDbLine
 10
268.26423190557
 20
847.354448919318
 30
0.0
 11
274.5472929362491
 21
853.6375099499967
 31
0.0
  0
LINE
  5
4D6
330
4A
100
AcDbEntity
  8
0
  6
Continuous
 62
     2
100
AcDbLine
 10
270.0319988585356
 20
845.586681966352
 30
0.0
 11
276.3150598892153
 21
851.8697429970304
 31
0.0
  0
LINE
  5
4D7
330
4A
100
AcDbEntity
  8
0
  6
Continuous
 62
     2
100
AcDbLine
 10
274.5472929362491
 20
853.6375099499967
 30
0.0
 11
268.2642319055701
 21
859.9205709806757
 31
0.0
  0
LINE
  5
4D8
330
4A
100
AcDbEntity
  8
0
  6
Continuous
 62
     2
100
AcDbLine
 10
274.5472929362491
 20
869.7391659172873
 30
0.0
 11
268.2642319055701
 21
863.4561048866084
 31
0.0
  0
LINE
  5
4D9
330
4A
100
AcDbEntity
  8
0
  6
Continuous
 62
     2
100
AcDbLine
 10
270.0319988585366
 20
861.6883379336421
 30
0.0
 11
276.3150598892155
 21
855.4052769029631
 31
0.0
  0
LINE
  5
4DA
330
4A
100
AcDbEntity
  8
0
  6
Continuous
 62
     2
100
AcDbLine
 10
276.3150598892155
 20
867.971398964321
 30
0.0
 11
270.0319988585366
 21
861.6883379336421
 31
0.0
  0
LINE
  5
4DB
330
4A
100
AcDbEntity
  8
0
  6
Continuous
 62
     2
100
AcDbLine
 10
278.0828268421819
 20
853.6375099499967
 30
0.0
 11
284.3658878728609
 21
847.3544489193177
 31
0.0
  0
LINE
  5
4DC
330
4A
100
AcDbEntity
  8
0
  6
Continuous
 62
     2
100
AcDbLine
 10
276.3150598892155
 20
855.4052769029631
 30
0.0
 11
282.5981209198944
 21
861.6883379336421
 31
0.0
  0
LINE
  5
4DD
330
4A
100
AcDbEntity
  8
0
  6
Continuous
 62
     2
100
AcDbLine
 10
284.3658878728609
 20
859.9205709806756
 30
0.0
 11
278.0828268421819
 21
853.6375099499967
 31
0.0
  0
LINE
  5
4DE
330
4A
100
AcDbEntity
  8
0
  6
Continuous
 62
     2
100
AcDbLine
 10
278.0828268421819
 20
869.7391659172873
 30
0.0
 11
284.3658878728609
 21
863.4561048866084
 31
0.0
  0
LINE
  5
4DF
330
4A
100
AcDbEntity
  8
0
  6
Continuous
 62
     2
100
AcDbLine
 10
244.111747954634
 20
851.8697429970304
 30
0.0
 11
250.3948089853128
 21
845.5866819663512
 31
0.0
  0
LINE
  5
4E0
330
4A
100
AcDbEntity
  8
0
  6
Continuous
 62
     2
100
AcDbLine
 10
250.3948089853129
 20
861.6883379336421
 30
0.0
 11
244.1117479546342
 21
867.971398964321
 31
0.0
  0
LINE
  5
4E1
330
4A
100
AcDbEntity
  8
0
  6
Continuous
 62
     2
100
AcDbLine
 10
236.0609199709888
 20
847.354448919318
 30
0.0
 11
242.3439810016675
 21
853.6375099499967
 31
0.0
  0
LINE
  5
4E2
330
4A
100
AcDbEntity
  8
0
  6
Continuous
 62
     2
100
AcDbLine
 10
237.8286869239543
 20
845.586681966352
 30
0.0
 11
244.111747954634
 21
851.8697429970304
 31
0.0
  0
LINE
  5
4E3
330
4A
100
AcDbEntity
  8
0
  6
Continuous
 62
     2
100
AcDbLine
 10
242.3439810016675
 20
853.6375099499967
 30
0.0
 11
236.0609199709886
 21
859.9205709806757
 31
0.0
  0
LINE
  5
4E4
330
4A
100
AcDbEntity
  8
0
  6
Continuous
 62
     2
100
AcDbLine
 10
242.3439810016675
 20
869.7391659172873
 30
0.0
 11
236.0609199709887
 21
863.4561048866084
 31
0.0
  0
LINE
  5
4E5
330
4A
100
AcDbEntity
  8
0
  6
Continuous
 62
     2
100
AcDbLine
 10
237.8286869239551
 20
861.6883379336421
 30
0.0
 11
244.1117479546342
 21
855.4052769029631
 31
0.0
  0
LINE
  5
4E6
330
4A
100
AcDbEntity
  8
0
  6
Continuous
 62
     2
100
AcDbLine
 10
244.1117479546342
 20
867.971398964321
 30
0.0
 11
237.8286869239551
 21
861.6883379336421
 31
0.0
  0
LINE
  5
4E7
330
4A
100
AcDbEntity
  8
0
  6
Continuous
 62
     2
100
AcDbLine
 10
245.8795149076004
 20
853.6375099499967
 30
0.0
 11
252.1625759382794
 21
847.3544489193177
 31
0.0
  0
LINE
  5
4E8
330
4A
100
AcDbEntity
  8
0
  6
Continuous
 62
     2
100
AcDbLine
 10
244.1117479546342
 20
855.4052769029631
 30
0.0
 11
250.3948089853129
 21
861.6883379336421
 31
0.0
  0
LINE
  5
4E9
330
4A
100
AcDbEntity
  8
0
  6
Continuous
 62
     2
100
AcDbLine
 10
252.1625759382794
 20
859.9205709806756
 30
0.0
 11
245.8795149076004
 21
853.6375099499967
 31
0.0
  0
LINE
  5
4EA
330
4A
100
AcDbEntity
  8
0
  6
Continuous
 62
     2
100
AcDbLine
 10
245.8795149076004
 20
869.7391659172873
 30
0.0
 11
252.1625759382794
 21
863.4561048866084
 31
0.0
  0
LINE
  5
4EB
330
4A
100
AcDbEntity
  8
0
  6
Continuous
 62
     2
100
AcDbLine
 10
221.7270309566645
 20
845.5866819663512
 30
0.0
 11
228.0100919873434
 21
851.8697429970304
 31
0.0
  0
LINE
  5
4EC
330
4A
100
AcDbEntity
  8
0
  6
Continuous
 62
     2
100
AcDbLine
 10
228.0100919873433
 20
867.971398964321
 30
0.0
 11
221.7270309566644
 21
861.6883379336421
 31
0.0
  0
LINE
  5
4ED
330
4A
100
AcDbEntity
  8
0
  6
Continuous
 62
     2
100
AcDbLine
 10
229.7778589403098
 20
853.6375099499967
 30
0.0
 11
236.0609199709888
 21
847.354448919318
 31
0.0
  0
LINE
  5
4EE
330
4A
100
AcDbEntity
  8
0
  6
Continuous
 62
     2
100
AcDbLine
 10
228.0100919873434
 20
851.8697429970304
 30
0.0
 11
234.2931530180233
 21
845.586681966352
 31
0.0
  0
LINE
  5
4EF
330
4A
100
AcDbEntity
  8
0
  6
Continuous
 62
     2
100
AcDbLine
 10
236.0609199709886
 20
859.9205709806757
 30
0.0
 11
229.7778589403098
 21
853.6375099499967
 31
0.0
  0
LINE
  5
4F0
330
4A
100
AcDbEntity
  8
0
  6
Continuous
 62
     2
100
AcDbLine
 10
236.0609199709887
 20
863.4561048866084
 30
0.0
 11
229.7778589403098
 21
869.7391659172873
 31
0.0
  0
LINE
  5
4F1
330
4A
100
AcDbEntity
  8
0
  6
Continuous
 62
     2
100
AcDbLine
 10
228.0100919873433
 20
855.4052769029631
 30
0.0
 11
234.2931530180222
 21
861.6883379336421
 31
0.0
  0
LINE
  5
4F2
330
4A
100
AcDbEntity
  8
0
  6
Continuous
 62
     2
100
AcDbLine
 10
234.2931530180222
 20
861.6883379336421
 30
0.0
 11
228.0100919873433
 21
867.971398964321
 31
0.0
  0
LINE
  5
4F3
330
4A
100
AcDbEntity
  8
0
  6
Continuous
 62
     2
100
AcDbLine
 10
266.1406690670862
 20
755.7391659172874
 30
0.0
 11
266.1406690670862
 21
752.8680759540607
 31
0.0
  0
LINE
  5
4F4
330
4A
100
AcDbEntity
  8
0
  6
Continuous
 62
     2
100
AcDbLine
 10
370.1406690670863
 20
719.7391659172874
 30
0.0
 11
370.1406690670863
 21
720.2721686328364
 31
0.0
  0
LINE
  5
4F5
330
4A
100
AcDbEntity
  8
0
  6
Continuous
 62
     2
100
AcDbLine
 10
269.1406690670862
 20
752.7391659172874
 30
0.0
 11
269.1406690670862
 21
722.7391659172874
 31
0.0
  0
LINE
  5
4F6
330
4A
100
AcDbEntity
  8
0
  6
Continuous
 62
     2
100
AcDbLine
 10
367.1406690670863
 20
752.7391659172874
 30
0.0
 11
269.1406690670862
 21
752.7391659172874
 31
0.0
  0
LINE
  5
4F7
330
4A
100
AcDbEntity
  8
0
  6
Continuous
 62
     2
100
AcDbLine
 10
367.1406690670863
 20
722.7391659172874
 30
0.0
 11
367.1406690670863
 21
752.7391659172874
 31
0.0
  0
LINE
  5
4F8
330
4A
100
AcDbEntity
  8
0
  6
Continuous
 62
     2
100
AcDbLine
 10
269.1406690670862
 20
722.7391659172874
 30
0.0
 11
367.1406690670863
 21
722.7391659172874
 31
0.0
  0
LINE
  5
4F9
330
4A
100
AcDbEntity
  8
0
  6
Continuous
 62
     2
100
AcDbLine
 10
210.1406690670862
 20
853.6375099499967
 30
0.0
 11
218.1914970507316
 21
845.5866819663514
 31
0.0
  0
LINE
  5
4FA
330
4A
100
AcDbEntity
  8
0
  6
Continuous
 62
     2
100
AcDbLine
 10
219.9592640036979
 20
847.3544489193177
 30
0.0
 11
226.2423250343769
 21
853.6375099499967
 31
0.0
  0
LINE
  5
4FB
330
4A
100
AcDbEntity
  8
0
  6
Continuous
 62
     2
100
AcDbLine
 10
213.6762029730191
 20
853.6375099499967
 30
0.0
 11
219.9592640036979
 21
847.3544489193177
 31
0.0
  0
LINE
  5
4FC
330
4A
100
AcDbEntity
  8
0
  6
Continuous
 62
     2
100
AcDbLine
 10
218.1914970507316
 20
861.6883379336421
 30
0.0
 11
210.1406690670862
 21
853.6375099499967
 31
0.0
  0
LINE
  5
4FD
330
4A
100
AcDbEntity
  8
0
  6
Continuous
 62
     2
100
AcDbLine
 10
221.7270309566644
 20
861.6883379336421
 30
0.0
 11
228.0100919873433
 21
855.4052769029631
 31
0.0
  0
LINE
  5
4FE
330
4A
100
AcDbEntity
  8
0
  6
Continuous
 62
     2
100
AcDbLine
 10
226.2423250343769
 20
853.6375099499967
 30
0.0
 11
219.9592640036979
 21
859.9205709806756
 31
0.0
  0
LINE
  5
4FF
330
4A
100
AcDbEntity
  8
0
  6
Continuous
 62
     2
100
AcDbLine
 10
219.9592640036979
 20
859.9205709806756
 30
0.0
 11
213.6762029730191
 21
853.6375099499967
 31
0.0
  0
LINE
  5
500
330
4A
100
AcDbEntity
  8
0
  6
Continuous
 62
     2
100
AcDbLine
 10
210.1406690670862
 20
869.7391659172873
 30
0.0
 11
218.1914970507316
 21
861.6883379336421
 31
0.0
  0
LINE
  5
501
330
4A
100
AcDbEntity
  8
0
  6
Continuous
 62
     2
100
AcDbLine
 10
219.9592640036979
 20
863.4561048866084
 30
0.0
 11
226.2423250343769
 21
869.7391659172873
 31
0.0
  0
LINE
  5
502
330
4A
100
AcDbEntity
  8
0
  6
Continuous
 62
     2
100
AcDbLine
 10
213.6762029730191
 20
869.7391659172873
 30
0.0
 11
219.9592640036979
 21
863.4561048866084
 31
0.0
  0
LINE
  5
503
330
4A
100
AcDbEntity
  8
0
  6
Continuous
 62
     2
100
AcDbLine
 10
210.1406690670862
 20
869.7391659172873
 30
0.0
 11
210.1406690670862
 21
712.7391659172874
 31
0.0
  0
LINE
  5
504
330
4A
100
AcDbEntity
  8
0
  6
Continuous
 62
     2
100
AcDbLine
 10
426.1406690670862
 20
869.7391659172873
 30
0.0
 11
210.1406690670862
 21
869.7391659172873
 31
0.0
  0
LINE
  5
505
330
4A
100
AcDbEntity
  8
0
  6
Continuous
 62
     2
100
AcDbLine
 10
426.1406690670862
 20
712.7391659172874
 30
0.0
 11
426.1406690670862
 21
869.7391659172873
 31
0.0
  0
LINE
  5
506
330
4A
100
AcDbEntity
  8
0
  6
Continuous
 62
     2
100
AcDbLine
 10
210.1406690670862
 20
712.7391659172874
 30
0.0
 11
308.6406690670863
 21
712.7391659172874
 31
0.0
  0
LINE
  5
507
330
4A
100
AcDbEntity
  8
0
  6
Continuous
 62
     7
100
AcDbLine
 10
200.1406690670862
 20
878.7391659172873
 30
0.0
 11
200.1406690670862
 21
702.7391659172874
 31
0.0
  0
LINE
  5
508
330
4A
100
AcDbEntity
  8
0
  6
Continuous
 62
     7
100
AcDbLine
 10
435.1406690670863
 20
879.7391659172873
 30
0.0
 11
201.1406690670862
 21
879.7391659172873
 31
0.0
  0
LINE
  5
509
330
4A
100
AcDbEntity
  8
0
  6
Continuous
 62
     7
100
AcDbLine
 10
436.1406690670863
 20
703.7391659172874
 30
0.0
 11
436.1406690670863
 21
878.7391659172873
 31
0.0
  0
LINE
  5
50A
330
4A
100
AcDbEntity
  8
0
  6
Continuous
 62
     7
100
AcDbLine
 10
200.1406690670862
 20
702.7391659172874
 30
0.0
 11
308.6406690670863
 21
702.7391659172874
 31
0.0
  0
ARC
  5
50B
330
4A
100
AcDbEntity
  8
0
  6
Continuous
 62
     2
100
AcDbCircle
 10
292.0573357337529
 20
838.7391659172874
 30
0.0
 40
22.08333333333331
100
AcDbArc
 50
339.6661098313927
 51
20.33389016860699
  0
ARC
  5
50C
330
4A
100
AcDbEntity
  8
0
  6
Continuous
 62
     2
100
AcDbCircle
 10
289.0573357337529
 20
838.7391659172874
 30
0.0
 40
22.08333333333329
100
AcDbArc
 50
340.6035116650049
 51
19.39648833499485
  0
ARC
  5
50D
330
4A
100
AcDbEntity
  8
0
  6
Continuous
 62
     2
100
AcDbCircle
 10
344.2240024004195
 20
838.7391659172874
 30
0.0
 40
22.08333333333327
100
AcDbArc
 50
159.666109831393
 51
200.3338901686073
  0
ARC
  5
50E
330
4A
100
AcDbEntity
  8
0
  6
Continuous
 62
     2
100
AcDbCircle
 10
347.2240024004195
 20
838.7391659172874
 30
0.0
 40
22.08333333333325
100
AcDbArc
 50
160.6035116650052
 51
199.3964883349951
  0
ARC
  5
50F
330
4A
100
AcDbEntity
  8
0
  6
Continuous
 62
     2
100
AcDbCircle
 10
318.1406690670863
 20
838.7391659172874
 30
0.0
 40
22.49999999999982
100
AcDbArc
 50
63.67131536933884
 51
88.33180577650602
  0
ARC
  5
510
330
4A
100
AcDbEntity
  8
0
  6
Continuous
 62
     2
100
AcDbCircle
 10
318.1406690670863
 20
838.7391659172874
 30
0.0
 40
22.49999999999995
100
AcDbArc
 50
100.7067792827761
 51
122.2107396550022
  0
ARC
  5
511
330
4A
100
AcDbEntity
  8
0
  6
Continuous
 62
     2
100
AcDbCircle
 10
318.1406690670863
 20
838.7391659172874
 30
0.0
 40
22.49999999999999
100
AcDbArc
 50
128.6700077491783
 51
151.538557203359
  0
ARC
  5
512
330
4A
100
AcDbEntity
  8
0
  6
Continuous
 62
     2
100
AcDbCircle
 10
318.1406690670863
 20
838.7391659172874
 30
0.0
 40
22.50000000000003
100
AcDbArc
 50
158.3141072982652
 51
169.2932207172274
  0
ARC
  5
513
330
4A
100
AcDbEntity
  8
0
  6
Continuous
 62
     2
100
AcDbCircle
 10
318.1406690670863
 20
838.7391659172874
 30
0.0
 40
22.50000000000001
100
AcDbArc
 50
179.3523870966238
 51
187.2497353512789
  0
ARC
  5
514
330
4A
100
AcDbEntity
  8
0
  6
Continuous
 62
     2
100
AcDbCircle
 10
318.1406690670863
 20
838.7391659172874
 30
0.0
 40
22.49999999999997
100
AcDbArc
 50
199.3954031273973
 51
206.328684630661
  0
ARC
  5
515
330
4A
100
AcDbEntity
  8
0
  6
Continuous
 62
     2
100
AcDbCircle
 10
318.1406690670863
 20
838.7391659172874
 30
0.0
 40
22.50000000000009
100
AcDbArc
 50
212.93462521514
 51
235.7128793764658
  0
ARC
  5
516
330
4A
100
AcDbEntity
  8
0
  6
Continuous
 62
     2
100
AcDbCircle
 10
318.1406690670863
 20
838.7391659172874
 30
0.0
 40
22.50000000000014
100
AcDbArc
 50
242.2774210017284
 51
250.6045968726033
  0
ARC
  5
517
330
4A
100
AcDbEntity
  8
0
  6
Continuous
 62
     2
100
AcDbCircle
 10
318.1406690670863
 20
838.7391659172874
 30
0.0
 40
22.50000000000014
100
AcDbArc
 50
262.7502646487217
 51
268.7817877467747
  0
ARC
  5
518
330
4A
100
AcDbEntity
  8
0
  6
Continuous
 62
     2
100
AcDbCircle
 10
318.1406690670863
 20
838.7391659172874
 30
0.0
 40
22.50000000000023
100
AcDbArc
 50
278.4199308313958
 51
291.685892701734
  0
ARC
  5
519
330
4A
100
AcDbEntity
  8
0
  6
Continuous
 62
     2
100
AcDbCircle
 10
318.1406690670863
 20
838.7391659172874
 30
0.0
 40
22.50000000000002
100
AcDbArc
 50
298.4614427966409
 51
321.3299922508226
  0
ARC
  5
51A
330
4A
100
AcDbEntity
  8
0
  6
Continuous
 62
     2
100
AcDbCircle
 10
318.1406690670863
 20
838.7391659172874
 30
0.0
 40
22.49999999999996
100
AcDbArc
 50
327.7892603449978
 51
353.0450464494968
  0
ARC
  5
51B
330
4A
100
AcDbEntity
  8
0
  6
Continuous
 62
     2
100
AcDbCircle
 10
318.1406690670863
 20
838.7391659172874
 30
0.0
 40
22.49999999999993
100
AcDbArc
 50
1.21821225322468
 51
27.72257899827173
  0
ARC
  5
51C
330
4A
100
AcDbEntity
  8
0
  6
Continuous
 62
     2
100
AcDbCircle
 10
318.1406690670863
 20
838.7391659172874
 30
0.0
 40
22.49999999999985
100
AcDbArc
 50
34.28712062353387
 51
57.06537478485964
  0
LWPOLYLINE
  5
51D
330
4A
100
AcDbEntity
  8
0
  6
Continuous
 62
     2
100
AcDbPolyline
 90
        2
 70
     1
 43
0.0
 10
318.1406690670863
 20
857.2391659172873
 42
1.0
 10
318.1406690670863
 20
820.2391659172876
 42
1.0
  0
ARC
  5
51E
330
4A
100
AcDbEntity
  8
0
  6
Continuous
 62
     2
100
AcDbCircle
 10
400.0127381396983
 20
784.0029110751847
 30
0.0
 40
120.4541133822672
100
AcDbArc
 50
201.9224782046081
 51
204.9960223081894
  0
ARC
  5
51F
330
4A
100
AcDbEntity
  8
0
  6
Continuous
 62
     2
100
AcDbCircle
 10
401.5821332728656
 20
784.7500231901688
 30
0.0
 40
120.6953096312852
100
AcDbArc
 50
201.9251863677456
 51
204.4008904518009
  0
ARC
  5
520
330
4A
100
AcDbEntity
  8
0
  6
Continuous
 62
     2
100
AcDbCircle
 10
183.3225853710403
 20
784.0029110751847
 30
0.0
 40
120.4541133822671
100
AcDbArc
 50
331.3962260592728
 51
334.0887223729723
  0
ARC
  5
521
330
4A
100
AcDbEntity
  8
0
  6
Continuous
 62
     2
100
AcDbCircle
 10
181.7531902378728
 20
784.7500231901688
 30
0.0
 40
120.6953096312854
100
AcDbArc
 50
331.4891139874184
 51
334.6655754484091
  0
ARC
  5
522
330
4A
100
AcDbEntity
  8
0
  6
Continuous
 62
     2
100
AcDbCircle
 10
400.0127381396983
 20
784.0029110751847
 30
0.0
 40
120.4541133822671
100
AcDbArc
 50
205.9112776270278
 51
208.6037739407272
  0
ARC
  5
523
330
4A
100
AcDbEntity
  8
0
  6
Continuous
 62
     2
100
AcDbCircle
 10
401.5821332728656
 20
784.7500231901688
 30
0.0
 40
120.6953096312851
100
AcDbArc
 50
205.334424551591
 51
208.5108860125817
  0
ARC
  5
524
330
4A
100
AcDbEntity
  8
0
  6
Continuous
 62
     2
100
AcDbCircle
 10
288.9427106136764
 20
739.3567377334009
 30
0.0
 40
0.7485463595753459
100
AcDbArc
 50
25.83368036168613
 51
205.7822664660111
  0
ARC
  5
525
330
4A
100
AcDbEntity
  8
0
  6
Continuous
 62
     2
100
AcDbCircle
 10
294.8917696954358
 20
726.7375382205694
 30
0.0
 40
0.7489268009027865
100
AcDbArc
 50
212.4635622021335
 51
32.41938000652387
  0
ARC
  5
526
330
4A
100
AcDbEntity
  8
0
  6
Continuous
 62
     2
100
AcDbCircle
 10
183.3225853710403
 20
784.0029110751847
 30
0.0
 40
120.4541133822672
100
AcDbArc
 50
335.0039776918106
 51
338.0775217953919
  0
ARC
  5
527
330
4A
100
AcDbEntity
  8
0
  6
Continuous
 62
     2
100
AcDbCircle
 10
181.7531902378728
 20
784.7500231901688
 30
0.0
 40
120.6953096312854
100
AcDbArc
 50
335.5991095481991
 51
338.0748136322545
  0
ARC
  5
528
330
4A
100
AcDbEntity
  8
0
  6
Continuous
 62
     2
100
AcDbCircle
 10
294.3926128970622
 20
739.3567377334009
 30
0.0
 40
0.7485463595756082
100
AcDbArc
 50
334.217733533987
 51
154.1663196383158
  0
ARC
  5
529
330
4A
100
AcDbEntity
  8
0
  6
Continuous
 62
     2
100
AcDbCircle
 10
288.4435538153028
 20
726.7375382205694
 30
0.0
 40
0.7489268009025772
100
AcDbArc
 50
147.5806199934761
 51
327.5364377978665
  0
ARC
  5
52A
330
4A
100
AcDbEntity
  8
0
  6
Continuous
 62
     2
100
AcDbCircle
 10
326.4480177330166
 20
732.1409994358997
 30
0.0
 40
1.249999999999995
100
AcDbArc
 50
208.2374455381685
 51
28.23744553816845
  0
ARC
  5
52B
330
4A
100
AcDbEntity
  8
0
  6
Continuous
 62
     2
100
AcDbCircle
 10
354.4112772167964
 20
749.1391417188216
 30
0.0
 40
31.47616316639391
100
AcDbArc
 50
195.0063043380077
 51
211.4156755723138
  0
ARC
  5
52C
330
4A
100
AcDbEntity
  8
0
  6
Continuous
 62
     2
100
AcDbCircle
 10
351.2858100731272
 20
747.9563251239296
 30
0.0
 40
30.69225433795363
100
AcDbArc
 50
190.0819033483729
 51
212.3138170904555
  0
ARC
  5
52D
330
4A
100
AcDbEntity
  8
0
  6
Continuous
 62
     2
100
AcDbCircle
 10
309.8333204011559
 20
732.1409994358997
 30
0.0
 40
1.249999999999995
100
AcDbArc
 50
151.7625544618315
 51
331.7625544618315
  0
ARC
  5
52E
330
4A
100
AcDbEntity
  8
0
  6
Continuous
 62
     2
100
AcDbCircle
 10
281.8700609173761
 20
749.1391417188216
 30
0.0
 40
31.47616316639398
100
AcDbArc
 50
328.5843244276862
 51
344.9936956619923
  0
ARC
  5
52F
330
4A
100
AcDbEntity
  8
0
  6
Continuous
 62
     2
100
AcDbCircle
 10
284.9955280610453
 20
747.9563251239296
 30
0.0
 40
30.69225433795367
100
AcDbArc
 50
327.6861829095445
 51
349.9180966516271
  0
ARC
  5
530
330
4A
100
AcDbEntity
  8
0
  6
Continuous
 62
     2
100
AcDbCircle
 10
312.2956725670448
 20
831.2391659172874
 30
0.0
 40
0.5
100
AcDbArc
 50
270.0
 51
339.6661098313797
  0
ARC
  5
531
330
4A
100
AcDbEntity
  8
0
  6
Continuous
 62
     2
100
AcDbCircle
 10
310.3589071416196
 20
831.2391659172874
 30
0.0
 40
0.5000000000000672
100
AcDbArc
 50
160.6035116650099
 51
270.0
  0
ARC
  5
532
330
4A
100
AcDbEntity
  8
0
  6
Continuous
 62
     2
100
AcDbCircle
 10
310.3589071416196
 20
846.2391659172873
 30
0.0
 40
0.5
100
AcDbArc
 50
90.0
 51
199.3964883349901
  0
ARC
  5
533
330
4A
100
AcDbEntity
  8
0
  6
Continuous
 62
     2
100
AcDbCircle
 10
312.2956725670448
 20
846.2391659172873
 30
0.0
 40
0.4999999999999351
100
AcDbArc
 50
20.33389016862033
 51
90.0
  0
ARC
  5
534
330
4A
100
AcDbEntity
  8
0
  6
Continuous
 62
     2
100
AcDbCircle
 10
323.9856655671277
 20
831.2391659172874
 30
0.0
 40
0.4999999999999883
100
AcDbArc
 50
200.333890168618
 51
270.0
  0
ARC
  5
535
330
4A
100
AcDbEntity
  8
0
  6
Continuous
 62
     2
100
AcDbCircle
 10
325.9224309925529
 20
831.2391659172874
 30
0.0
 40
0.5
100
AcDbArc
 50
270.0
 51
19.39648833499441
  0
ARC
  5
536
330
4A
100
AcDbEntity
  8
0
  6
Continuous
 62
     2
100
AcDbCircle
 10
325.9224309925529
 20
846.2391659172873
 30
0.0
 40
0.4999999999999599
100
AcDbArc
 50
340.6035116650056
 51
90.0
  0
ARC
  5
537
330
4A
100
AcDbEntity
  8
0
  6
Continuous
 62
     2
100
AcDbCircle
 10
323.9856655671277
 20
846.2391659172873
 30
0.0
 40
0.5
100
AcDbArc
 50
90.0
 51
159.6661098313819
  0
ARC
  5
538
330
4A
100
AcDbEntity
  8
0
  6
Continuous
 62
     2
100
AcDbCircle
 10
317.1406690670863
 20
827.2391659172874
 30
0.0
 40
0.5
100
AcDbArc
 50
180.0
 51
270.0
  0
ARC
  5
539
330
4A
100
AcDbEntity
  8
0
  6
Continuous
 62
     2
100
AcDbCircle
 10
319.1406690670863
 20
827.2391659172874
 30
0.0
 40
0.5
100
AcDbArc
 50
270.0
 51
0.0
  0
ARC
  5
53A
330
4A
100
AcDbEntity
  8
0
  6
Continuous
 62
     2
100
AcDbCircle
 10
319.1406690670863
 20
850.2391659172873
 30
0.0
 40
0.5
100
AcDbArc
 50
0.0
 51
90.0
  0
ARC
  5
53B
330
4A
100
AcDbEntity
  8
0
  6
Continuous
 62
     2
100
AcDbCircle
 10
317.1406690670863
 20
850.2391659172873
 30
0.0
 40
0.5
100
AcDbArc
 50
90.0
 51
180.0
  0
ARC
  5
53C
330
4A
100
AcDbEntity
  8
0
  6
Continuous
 62
     2
100
AcDbCircle
 10
358.3906690670863
 20
733.9891659172874
 30
0.0
 40
0.75
100
AcDbArc
 50
270.0
 51
0.0
  0
ARC
  5
53D
330
4A
100
AcDbEntity
  8
0
  6
Continuous
 62
     2
100
AcDbCircle
 10
358.3906690670863
 20
733.9891659172874
 30
0.0
 40
0.75
100
AcDbArc
 50
0.0
 51
90.0
  0
ARC
  5
53E
330
4A
100
AcDbEntity
  8
0
  6
Continuous
 62
     2
100
AcDbCircle
 10
352.8906690670863
 20
733.9891659172874
 30
0.0
 40
0.75
100
AcDbArc
 50
180.0
 51
270.0
  0
ARC
  5
53F
330
4A
100
AcDbEntity
  8
0
  6
Continuous
 62
     2
100
AcDbCircle
 10
352.8906690670863
 20
733.9891659172874
 30
0.0
 40
0.75
100
AcDbArc
 50
90.0
 51
180.0
  0
ARC
  5
540
330
4A
100
AcDbEntity
  8
0
  6
Continuous
 62
     2
100
AcDbCircle
 10
351.8906690670863
 20
726.7391659172874
 30
0.0
 40
0.75
100
AcDbArc
 50
180.0
 51
270.0
  0
ARC
  5
541
330
4A
100
AcDbEntity
  8
0
  6
Continuous
 62
     2
100
AcDbCircle
 10
351.8906690670863
 20
726.7391659172874
 30
0.0
 40
0.75
100
AcDbArc
 50
90.0
 51
180.0
  0
ARC
  5
542
330
4A
100
AcDbEntity
  8
0
  6
Continuous
 62
     2
100
AcDbCircle
 10
359.3906690670863
 20
726.7391659172874
 30
0.0
 40
0.75
100
AcDbArc
 50
270.0
 51
0.0
  0
ARC
  5
543
330
4A
100
AcDbEntity
  8
0
  6
Continuous
 62
     2
100
AcDbCircle
 10
359.3906690670863
 20
726.7391659172874
 30
0.0
 40
0.75
100
AcDbArc
 50
0.0
 51
90.0
  0
ARC
  5
544
330
4A
100
AcDbEntity
  8
0
  6
Continuous
 62
     2
100
AcDbCircle
 10
355.882344233537
 20
748.8641659172874
 30
0.0
 40
0.6249999999998838
100
AcDbArc
 50
26.95677792924363
 51
90.0
  0
ARC
  5
545
330
4A
100
AcDbEntity
  8
0
  6
Continuous
 62
     2
100
AcDbCircle
 10
355.3989939006355
 20
748.8641659172874
 30
0.0
 40
0.625
100
AcDbArc
 50
90.0
 51
153.0432220707611
  0
ARC
  5
546
330
4A
100
AcDbEntity
  8
0
  6
Continuous
 62
     2
100
AcDbCircle
 10
359.9233044154909
 20
739.9985118020996
 30
0.0
 40
0.500000000000085
100
AcDbArc
 50
206.5650511770605
 51
296.5650511770605
  0
ARC
  5
547
330
4A
100
AcDbEntity
  8
0
  6
Continuous
 62
     2
100
AcDbCircle
 10
360.1438431489443
 20
740.1087811688263
 30
0.0
 40
0.4999999999998308
100
AcDbArc
 50
296.5650511770605
 51
26.95677792926225
  0
ARC
  5
548
330
4A
100
AcDbEntity
  8
0
  6
Continuous
 62
     2
100
AcDbCircle
 10
351.3611653519022
 20
739.9985118020996
 30
0.0
 40
0.4999999999998817
100
AcDbArc
 50
243.4349488229279
 51
333.4349488229366
  0
ARC
  5
549
330
4A
100
AcDbEntity
  8
0
  6
Continuous
 62
     2
100
AcDbCircle
 10
351.1406266184488
 20
740.1087811688263
 30
0.0
 40
0.4999999999999385
100
AcDbArc
 50
153.0432220707377
 51
243.4349488229279
  0
ARC
  5
54A
330
4A
100
AcDbEntity
  8
0
  6
Continuous
 62
     2
100
AcDbCircle
 10
345.6406690670863
 20
726.7391659172874
 30
0.0
 40
0.75
100
AcDbArc
 50
270.0
 51
0.0
  0
ARC
  5
54B
330
4A
100
AcDbEntity
  8
0
  6
Continuous
 62
     2
100
AcDbCircle
 10
345.3906690670863
 20
726.7391659172874
 30
0.0
 40
0.75
100
AcDbArc
 50
180.0
 51
270.0
  0
ARC
  5
54C
330
4A
100
AcDbEntity
  8
0
  6
Continuous
 62
     2
100
AcDbCircle
 10
348.8906690670863
 20
743.4891659172874
 30
0.0
 40
0.75
100
AcDbArc
 50
270.0
 51
0.0
  0
ARC
  5
54D
330
4A
100
AcDbEntity
  8
0
  6
Continuous
 62
     2
100
AcDbCircle
 10
348.8906690670863
 20
743.7391659172874
 30
0.0
 40
0.75
100
AcDbArc
 50
0.0
 51
90.0
  0
ARC
  5
54E
330
4A
100
AcDbEntity
  8
0
  6
Continuous
 62
     2
100
AcDbCircle
 10
341.3906690670863
 20
743.4891659172874
 30
0.0
 40
0.75
100
AcDbArc
 50
180.0
 51
270.0
  0
ARC
  5
54F
330
4A
100
AcDbEntity
  8
0
  6
Continuous
 62
     2
100
AcDbCircle
 10
341.3906690670863
 20
743.7391659172874
 30
0.0
 40
0.75
100
AcDbArc
 50
90.0
 51
180.0
  0
ARC
  5
550
330
4A
100
AcDbEntity
  8
0
  6
Continuous
 62
     2
100
AcDbCircle
 10
345.6406690670863
 20
748.7391659172874
 30
0.0
 40
0.75
100
AcDbArc
 50
0.0
 51
90.0
  0
ARC
  5
551
330
4A
100
AcDbEntity
  8
0
  6
Continuous
 62
     2
100
AcDbCircle
 10
345.3906690670863
 20
748.7391659172874
 30
0.0
 40
0.75
100
AcDbArc
 50
90.0
 51
180.0
  0
ARC
  5
552
330
4A
100
AcDbEntity
  8
0
  6
Continuous
 62
     2
100
AcDbCircle
 10
348.5800088953064
 20
738.5498260890672
 30
0.0
 40
0.7500000000000865
100
AcDbArc
 50
314.999999999997
 51
44.99999999999078
  0
ARC
  5
553
330
4A
100
AcDbEntity
  8
0
  6
Continuous
 62
     2
100
AcDbCircle
 10
348.5800088953064
 20
738.5498260890672
 30
0.0
 40
0.7500000000000463
100
AcDbArc
 50
225.0000000000061
 51
314.999999999997
  0
ARC
  5
554
330
4A
100
AcDbEntity
  8
0
  6
Continuous
 62
     2
100
AcDbCircle
 10
341.5864244957379
 20
732.3855419175333
 30
0.0
 40
0.7500000000000123
100
AcDbArc
 50
251.916554616952
 51
341.9165546169534
  0
ARC
  5
555
330
4A
100
AcDbEntity
  8
0
  6
Continuous
 62
     2
100
AcDbCircle
 10
341.5864244957379
 20
732.3855419175333
 30
0.0
 40
0.7499999999998502
100
AcDbArc
 50
161.916554616948
 51
251.916554616952
  0
ARC
  5
556
330
4A
100
AcDbEntity
  8
0
  6
Continuous
 62
     2
100
AcDbCircle
 10
294.8906690670863
 20
743.3549448262676
 30
0.0
 40
0.7499999999998863
100
AcDbArc
 50
270.0
 51
0.0
  0
ARC
  5
557
330
4A
100
AcDbEntity
  8
0
  6
Continuous
 62
     2
100
AcDbCircle
 10
294.8906690670863
 20
743.8549448262676
 30
0.0
 40
0.75
100
AcDbArc
 50
0.0
 51
90.0
  0
ARC
  5
558
330
4A
100
AcDbEntity
  8
0
  6
Continuous
 62
     2
100
AcDbCircle
 10
287.8751935100997
 20
742.1524690379579
 30
0.0
 40
0.7499999999999631
100
AcDbArc
 50
239.9999999999984
 51
330.0000000000027
  0
ARC
  5
559
330
4A
100
AcDbEntity
  8
0
  6
Continuous
 62
     2
100
AcDbCircle
 10
287.4421808082075
 20
742.4024690379579
 30
0.0
 40
0.7499999999999138
100
AcDbArc
 50
149.9999999999962
 51
239.9999999999984
  0
ARC
  5
55A
330
4A
100
AcDbEntity
  8
0
  6
Continuous
 62
     2
100
AcDbCircle
 10
291.3751935100997
 20
748.2146468644489
 30
0.0
 40
0.7500000000000616
100
AcDbArc
 50
330.0000000000027
 51
60.00000000000706
  0
ARC
  5
55B
330
4A
100
AcDbEntity
  8
0
  6
Continuous
 62
     2
100
AcDbCircle
 10
290.9421808082075
 20
748.4646468644489
 30
0.0
 40
0.75000000000016
100
AcDbArc
 50
60.00000000000706
 51
149.9999999999962
  0
ARC
  5
55C
330
4A
100
AcDbEntity
  8
0
  6
Continuous
 62
     2
100
AcDbCircle
 10
283.3906690670863
 20
726.4891659172874
 30
0.0
 40
0.5
100
AcDbArc
 50
270.0
 51
0.0
  0
ARC
  5
55D
330
4A
100
AcDbEntity
  8
0
  6
Continuous
 62
     2
100
AcDbCircle
 10
283.1406690670863
 20
726.4891659172874
 30
0.0
 40
0.5
100
AcDbArc
 50
180.0
 51
270.0
  0
ARC
  5
55E
330
4A
100
AcDbEntity
  8
0
  6
Continuous
 62
     2
100
AcDbCircle
 10
278.1406690670863
 20
726.4891659172874
 30
0.0
 40
0.5
100
AcDbArc
 50
270.0
 51
0.0
  0
ARC
  5
55F
330
4A
100
AcDbEntity
  8
0
  6
Continuous
 62
     2
100
AcDbCircle
 10
277.8906690670863
 20
726.4891659172874
 30
0.0
 40
0.5
100
AcDbArc
 50
180.0
 51
270.0
  0
ARC
  5
560
330
4A
100
AcDbEntity
  8
0
  6
Continuous
 62
     2
100
AcDbCircle
 10
277.8906690670863
 20
738.4891659172874
 30
0.0
 40
0.5
100
AcDbArc
 50
90.0
 51
180.0
  0
ARC
  5
561
330
4A
100
AcDbEntity
  8
0
  6
Continuous
 62
     2
100
AcDbCircle
 10
283.3906690670863
 20
738.4891659172874
 30
0.0
 40
0.5
100
AcDbArc
 50
0.0
 51
90.0
  0
ARC
  5
562
330
4A
100
AcDbEntity
  8
0
  6
Continuous
 62
     2
100
AcDbCircle
 10
284.9406690670862
 20
741.1891659172874
 30
0.0
 40
0.6999999999999318
100
AcDbArc
 50
270.0
 51
0.0
  0
ARC
  5
563
330
4A
100
AcDbEntity
  8
0
  6
Continuous
 62
     2
100
AcDbCircle
 10
284.9406690670862
 20
741.2891659172874
 30
0.0
 40
0.7000000000001023
100
AcDbArc
 50
0.0
 51
90.0
  0
ARC
  5
564
330
4A
100
AcDbEntity
  8
0
  6
Continuous
 62
     2
100
AcDbCircle
 10
276.3406690670862
 20
741.1891659172874
 30
0.0
 40
0.6999999999998749
100
AcDbArc
 50
180.0
 51
270.0
  0
ARC
  5
565
330
4A
100
AcDbEntity
  8
0
  6
Continuous
 62
     2
100
AcDbCircle
 10
276.3406690670862
 20
741.2891659172874
 30
0.0
 40
0.7000000000000455
100
AcDbArc
 50
90.0
 51
180.0
  0
ARC
  5
566
330
4A
100
AcDbEntity
  8
0
  6
Continuous
 62
     2
100
AcDbCircle
 10
276.3406690670862
 20
746.6891659172874
 30
0.0
 40
0.6999999999998749
100
AcDbArc
 50
180.0
 51
270.0
  0
ARC
  5
567
330
4A
100
AcDbEntity
  8
0
  6
Continuous
 62
     2
100
AcDbCircle
 10
276.3406690670862
 20
746.7891659172874
 30
0.0
 40
0.7000000000000455
100
AcDbArc
 50
90.0
 51
180.0
  0
ARC
  5
568
330
4A
100
AcDbEntity
  8
0
  6
Continuous
 62
     2
100
AcDbCircle
 10
284.9406690670862
 20
746.6891659172874
 30
0.0
 40
0.6999999999999318
100
AcDbArc
 50
270.0
 51
0.0
  0
ARC
  5
569
330
4A
100
AcDbEntity
  8
0
  6
Continuous
 62
     2
100
AcDbCircle
 10
284.9406690670862
 20
746.7891659172874
 30
0.0
 40
0.7000000000001023
100
AcDbArc
 50
0.0
 51
90.0
  0
ARC
  5
56A
330
4A
100
AcDbEntity
  8
0
  6
Continuous
 62
     2
100
AcDbCircle
 10
278.3906690670863
 20
748.9891659172874
 30
0.0
 40
0.5
100
AcDbArc
 50
90.0
 51
180.0
  0
ARC
  5
56B
330
4A
100
AcDbEntity
  8
0
  6
Continuous
 62
     2
100
AcDbCircle
 10
278.6406690670863
 20
748.9891659172874
 30
0.0
 40
0.5
100
AcDbArc
 50
0.0
 51
90.0
  0
ARC
  5
56C
330
4A
100
AcDbEntity
  8
0
  6
Continuous
 62
     2
100
AcDbCircle
 10
282.8906690670863
 20
748.9891659172874
 30
0.0
 40
0.5
100
AcDbArc
 50
0.0
 51
90.0
  0
ARC
  5
56D
330
4A
100
AcDbEntity
  8
0
  6
Continuous
 62
     2
100
AcDbCircle
 10
282.6406690670863
 20
748.9891659172874
 30
0.0
 40
0.5
100
AcDbArc
 50
90.0
 51
180.0
  0
ARC
  5
56E
330
4A
100
AcDbEntity
  8
0
  6
Continuous
 62
     2
100
AcDbCircle
 10
327.1406690670863
 20
741.9891659172874
 30
0.0
 40
1.0
100
AcDbArc
 50
270.0
 51
0.0
  0
ARC
  5
56F
330
4A
100
AcDbEntity
  8
0
  6
Continuous
 62
     2
100
AcDbCircle
 10
327.1406690670863
 20
742.4891659172874
 30
0.0
 40
1.0
100
AcDbArc
 50
0.0
 51
90.0
  0
ARC
  5
570
330
4A
100
AcDbEntity
  8
0
  6
Continuous
 62
     2
100
AcDbCircle
 10
321.8011505861789
 20
742.7391659172874
 30
0.0
 40
0.75
100
AcDbArc
 50
90.0
 51
191.9814994835651
  0
ARC
  5
571
330
4A
100
AcDbEntity
  8
0
  6
Continuous
 62
     2
100
AcDbCircle
 10
309.1406690670863
 20
741.9891659172874
 30
0.0
 40
1.0
100
AcDbArc
 50
180.0
 51
270.0
  0
ARC
  5
572
330
4A
100
AcDbEntity
  8
0
  6
Continuous
 62
     2
100
AcDbCircle
 10
309.1406690670863
 20
742.4891659172874
 30
0.0
 40
1.0
100
AcDbArc
 50
90.0
 51
180.0
  0
ARC
  5
573
330
4A
100
AcDbEntity
  8
0
  6
Continuous
 62
     2
100
AcDbCircle
 10
314.4801875479938
 20
742.7391659172874
 30
0.0
 40
0.7499999999999064
100
AcDbArc
 50
348.0185005164322
 51
90.0
  0
ARC
  5
574
330
4A
100
AcDbEntity
  8
0
  6
Continuous
 62
     2
100
AcDbCircle
 10
318.3906690670863
 20
726.9891659172874
 30
0.0
 40
1.0
100
AcDbArc
 50
270.0
 51
0.0
  0
ARC
  5
575
330
4A
100
AcDbEntity
  8
0
  6
Continuous
 62
     2
100
AcDbCircle
 10
317.8906690670863
 20
726.9891659172874
 30
0.0
 40
1.0
100
AcDbArc
 50
180.0
 51
270.0
  0
ARC
  5
576
330
4A
100
AcDbEntity
  8
0
  6
Continuous
 62
     2
100
AcDbCircle
 10
317.8906690670863
 20
748.4891659172874
 30
0.0
 40
1.0
100
AcDbArc
 50
90.0
 51
180.0
  0
ARC
  5
577
330
4A
100
AcDbEntity
  8
0
  6
Continuous
 62
     2
100
AcDbCircle
 10
318.3906690670863
 20
748.4891659172874
 30
0.0
 40
1.0
100
AcDbArc
 50
0.0
 51
90.0
  0
ARC
  5
578
330
4A
100
AcDbEntity
  8
1
  6
Continuous
 62
     7
100
AcDbCircle
 10
435.1406690670863
 20
878.7391659172873
 30
0.0
 40
1.0
100
AcDbArc
 50
0.0
 51
90.0
  0
ARC
  5
579
330
4A
100
AcDbEntity
  8
1
  6
Continuous
 62
     7
100
AcDbCircle
 10
435.1406690670863
 20
703.7391659172874
 30
0.0
 40
1.0
100
AcDbArc
 50
270.0
 51
0.0
  0
ARC
  5
57A
330
4A
100
AcDbEntity
  8
1
  6
Continuous
 62
     7
100
AcDbCircle
 10
201.1406690670862
 20
878.7391659172873
 30
0.0
 40
1.0
100
AcDbArc
 50
90.0
 51
180.0
  0
ENDBLK
  5
4C
330
4A
100
AcDbEntity
  8
0
100
AcDbBlockEnd
  0
BLOCK
  5
4E
330
4D
100
AcDbEntity
  8
0
100
AcDbBlockBegin
  2
R81-8-1
 70
     0
 10
178.6406690670862
 20
376.6125994510707
 30
0.0
  3
R81-8-1
  1

  0
LINE
  5
57B
330
4D
100
AcDbEntity
  8
0
  6
Continuous
 62
     7
100
AcDbLine
 10
660.7360097627577
 20
449.2284972672568
 30
0.0
 11
668.1761489095644
 21
456.6686364140635
 31
0.0
  0
LINE
  5
57C
330
4D
100
AcDbEntity
  8
0
  6
Continuous
 62
     7
100
AcDbLine
 10
668.1761489095644
 20
456.6686364140635
 30
0.0
 11
664.994168394225
 21
459.8506169294029
 31
0.0
  0
LINE
  5
57D
330
4D
100
AcDbEntity
  8
0
  6
Continuous
 62
     7
100
AcDbLine
 10
664.994168394225
 20
459.8506169294029
 30
0.0
 11
657.5540292474182
 21
452.4104777825963
 31
0.0
  0
LINE
  5
57E
330
4D
100
AcDbEntity
  8
0
  6
Continuous
 62
     7
100
AcDbLine
 10
640.2415623408324
 20
470.1034820607965
 30
0.0
 11
637.9915623408324
 21
470.1034820607965
 31
0.0
  0
LINE
  5
57F
330
4D
100
AcDbEntity
  8
0
  6
Continuous
 62
     7
100
AcDbLine
 10
640.2415623408324
 20
459.5815363734396
 30
0.0
 11
640.2415623408324
 21
470.1034820607965
 31
0.0
  0
LINE
  5
580
330
4D
100
AcDbEntity
  8
0
  6
Continuous
 62
     7
100
AcDbLine
 10
699.4915623408324
 20
524.5915845781248
 30
0.0
 11
699.4915623408324
 21
534.5915845781248
 31
0.0
  0
LINE
  5
581
330
4D
100
AcDbEntity
  8
0
  6
Continuous
 62
     7
100
AcDbLine
 10
703.9915623408324
 20
524.5915845781248
 30
0.0
 11
699.4915623408324
 21
524.5915845781248
 31
0.0
  0
LINE
  5
582
330
4D
100
AcDbEntity
  8
0
  6
Continuous
 62
     7
100
AcDbLine
 10
703.9915623408324
 20
534.5915845781248
 30
0.0
 11
703.9915623408324
 21
524.5915845781248
 31
0.0
  0
LINE
  5
583
330
4D
100
AcDbEntity
  8
0
  6
Continuous
 62
     7
100
AcDbLine
 10
737.9915623408324
 20
429.5915845781248
 30
0.0
 11
667.9914699711144
 21
429.5915845781248
 31
0.0
  0
LINE
  5
584
330
4D
100
AcDbEntity
  8
0
  6
Continuous
 62
     7
100
AcDbLine
 10
699.4915623408324
 20
439.5915845781248
 30
0.0
 11
699.4915623408324
 21
429.5915845781248
 31
0.0
  0
LINE
  5
585
330
4D
100
AcDbEntity
  8
0
  6
Continuous
 62
     7
100
AcDbLine
 10
703.9915623408324
 20
439.5915845781248
 30
0.0
 11
699.4915623408324
 21
439.5915845781248
 31
0.0
  0
LINE
  5
586
330
4D
100
AcDbEntity
  8
0
  6
Continuous
 62
     7
100
AcDbLine
 10
703.9915623408324
 20
429.5915845781248
 30
0.0
 11
703.9915623408324
 21
439.5915845781248
 31
0.0
  0
LINE
  5
587
330
4D
100
AcDbEntity
  8
1
  6
Continuous
 62
     7
100
AcDbLine
 10
747.9915623408324
 20
429.5915845781248
 30
0.0
 11
747.9915623408322
 21
461.0915845781248
 31
0.0
  0
LINE
  5
588
330
4D
100
AcDbEntity
  8
1
  6
Continuous
 62
     7
100
AcDbLine
 10
747.9915623408322
 20
461.0915845781248
 30
0.0
 11
737.2924073952477
 21
461.0915845781248
 31
0.0
  0
LINE
  5
589
330
4D
100
AcDbEntity
  8
0
  6
Continuous
 62
     7
100
AcDbLine
 10
397.6406690670862
 20
429.5915845781248
 30
0.0
 11
397.6406690670862
 21
439.5915845781248
 31
0.0
  0
LINE
  5
58A
330
4D
100
AcDbEntity
  8
0
  6
Continuous
 62
     7
100
AcDbLine
 10
397.6406690670862
 20
439.5915845781248
 30
0.0
 11
393.1406690670862
 21
439.5915845781248
 31
0.0
  0
LINE
  5
58B
330
4D
100
AcDbEntity
  8
0
  6
Continuous
 62
     7
100
AcDbLine
 10
393.1406690670862
 20
439.5915845781248
 30
0.0
 11
393.1406690670862
 21
429.5915845781248
 31
0.0
  0
LINE
  5
58C
330
4D
100
AcDbEntity
  8
0
  6
Continuous
 62
     7
100
AcDbLine
 10
344.6406690670863
 20
439.5915845781248
 30
0.0
 11
344.6406690670863
 21
429.5915845781248
 31
0.0
  0
LINE
  5
58D
330
4D
100
AcDbEntity
  8
0
  6
Continuous
 62
     7
100
AcDbLine
 10
340.1406690670863
 20
439.5915845781248
 30
0.0
 11
344.6406690670863
 21
439.5915845781248
 31
0.0
  0
LINE
  5
58E
330
4D
100
AcDbEntity
  8
0
  6
Continuous
 62
     7
100
AcDbLine
 10
445.1036320300492
 20
539.5915845781246
 30
0.0
 11
318.1406690670863
 21
539.5915845781246
 31
0.0
  0
LINE
  5
58F
330
4D
100
AcDbEntity
  8
0
  6
Continuous
 62
     7
100
AcDbLine
 10
445.1962246226418
 20
534.5915845781246
 30
0.0
 11
451.6406690670863
 21
534.5915845781246
 31
0.0
  0
LINE
  5
590
330
4D
100
AcDbEntity
  8
0
  6
Continuous
 62
     7
100
AcDbLine
 10
447.1406690670863
 20
439.5915845781248
 30
0.0
 11
457.1406690670862
 21
429.5915845781248
 31
0.0
  0
LINE
  5
591
330
4D
100
AcDbEntity
  8
1
  6
Continuous
 62
     7
100
AcDbLine
 10
457.6406690670862
 20
454.5915845781248
 30
0.0
 11
457.6406690670862
 21
429.5915845781248
 31
0.0
  0
LINE
  5
592
330
4D
100
AcDbEntity
  8
1
  6
Continuous
 62
     7
100
AcDbLine
 10
446.6777061041234
 20
454.5915845781248
 30
0.0
 11
457.6406690670862
 21
454.5915845781248
 31
0.0
  0
LINE
  5
593
330
4D
100
AcDbEntity
  8
0
  6
Continuous
 62
     7
100
AcDbLine
 10
446.4043270243309
 20
465.32792662088
 30
0.0
 11
457.1406690670862
 21
454.5915845781248
 31
0.0
  0
LINE
  5
594
330
4D
100
AcDbEntity
  8
0
  6
Continuous
 62
     7
100
AcDbLine
 10
457.6406690670862
 20
429.5915845781248
 30
0.0
 11
340.1406690670863
 21
429.5915845781248
 31
0.0
  0
LINE
  5
595
330
4D
100
AcDbEntity
  8
0
  6
Continuous
 62
     7
100
AcDbLine
 10
397.6406690670862
 20
524.5915845781246
 30
0.0
 11
397.6406690670862
 21
534.5915845781246
 31
0.0
  0
LINE
  5
596
330
4D
100
AcDbEntity
  8
0
  6
Continuous
 62
     7
100
AcDbLine
 10
393.1406690670862
 20
524.5915845781246
 30
0.0
 11
397.6406690670862
 21
524.5915845781246
 31
0.0
  0
LINE
  5
597
330
4D
100
AcDbEntity
  8
0
  6
Continuous
 62
     7
100
AcDbLine
 10
393.1406690670862
 20
534.5915845781246
 30
0.0
 11
393.1406690670862
 21
524.5915845781246
 31
0.0
  0
LINE
  5
598
330
4D
100
AcDbEntity
  8
0
  6
Continuous
 62
     7
100
AcDbLine
 10
344.6406690670862
 20
524.5915845781246
 30
0.0
 11
344.6406690670862
 21
534.5915845781246
 31
0.0
  0
LINE
  5
599
330
4D
100
AcDbEntity
  8
0
  6
Continuous
 62
     7
100
AcDbLine
 10
340.1406690670862
 20
524.5915845781246
 30
0.0
 11
344.6406690670862
 21
524.5915845781246
 31
0.0
  0
LINE
  5
59A
330
4D
100
AcDbEntity
  8
0
  6
Continuous
 62
     7
100
AcDbLine
 10
340.1406690670862
 20
534.5915845781246
 30
0.0
 11
340.1406690670862
 21
524.5915845781246
 31
0.0
  0
LINE
  5
59B
330
4D
100
AcDbEntity
  8
1
  6
Continuous
 62
     7
100
AcDbLine
 10
527.9915623408324
 20
461.0915845781248
 30
0.0
 11
527.9915623408324
 21
429.5915845781248
 31
0.0
  0
LINE
  5
59C
330
4D
100
AcDbEntity
  8
0
  6
Continuous
 62
     7
100
AcDbLine
 10
538.6907172864169
 20
461.0915845781248
 30
0.0
 11
540.3220788261144
 21
534.5915845781248
 31
0.0
  0
LINE
  5
59D
330
4D
100
AcDbEntity
  8
1
  6
Continuous
 62
     7
100
AcDbLine
 10
538.6907172864169
 20
461.0915845781248
 30
0.0
 11
527.9915623408324
 21
461.0915845781248
 31
0.0
  0
LINE
  5
59E
330
4D
100
AcDbEntity
  8
0
  6
Continuous
 62
     7
100
AcDbLine
 10
540.1520512481728
 20
526.9310956707843
 30
0.0
 11
532.4915623408323
 21
534.5915845781248
 31
0.0
  0
LINE
  5
59F
330
4D
100
AcDbEntity
  8
0
  6
Continuous
 62
     7
100
AcDbLine
 10
637.9915623408324
 20
470.1034820607965
 30
0.0
 11
635.7415623408324
 21
470.1034820607965
 31
0.0
  0
LINE
  5
5A0
330
4D
100
AcDbEntity
  8
0
  6
Continuous
 62
     7
100
AcDbLine
 10
735.5500688800604
 20
539.5915845781248
 30
0.0
 11
540.3220788261144
 21
539.5915845781248
 31
0.0
  0
LINE
  5
5A1
330
4D
100
AcDbEntity
  8
0
  6
Continuous
 62
     7
100
AcDbLine
 10
737.7645702098212
 20
439.8185767091359
 30
0.0
 11
747.9915623408324
 21
429.5915845781248
 31
0.0
  0
LINE
  5
5A2
330
4D
100
AcDbEntity
  8
0
  6
Continuous
 62
     7
100
AcDbLine
 10
747.9915623408324
 20
424.5915845781248
 30
0.0
 11
731.9915623408324
 21
424.5915845781248
 31
0.0
  0
LINE
  5
5A3
330
4D
100
AcDbEntity
  8
0
  6
Continuous
 62
     7
100
AcDbLine
 10
747.9915623408324
 20
429.5915845781248
 30
0.0
 11
737.9915623408324
 21
429.5915845781248
 31
0.0
  0
LINE
  5
5A4
330
4D
100
AcDbEntity
  8
0
  6
Continuous
 62
     7
100
AcDbLine
 10
747.9915623408324
 20
424.5915845781248
 30
0.0
 11
747.9915623408324
 21
429.5915845781248
 31
0.0
  0
LINE
  5
5A5
330
4D
100
AcDbEntity
  8
0
  6
Continuous
 62
     7
100
AcDbLine
 10
527.9915623408324
 20
429.5915845781248
 30
0.0
 11
538.2185544718435
 21
439.8185767091359
 31
0.0
  0
LINE
  5
5A6
330
4D
100
AcDbEntity
  8
0
  6
Continuous
 62
     7
100
AcDbLine
 10
576.4915623408323
 20
429.5915845781248
 30
0.0
 11
576.4915623408323
 21
439.5915845781248
 31
0.0
  0
LINE
  5
5A7
330
4D
100
AcDbEntity
  8
0
  6
Continuous
 62
     7
100
AcDbLine
 10
576.4915623408323
 20
439.5915845781248
 30
0.0
 11
571.9915623408323
 21
439.5915845781248
 31
0.0
  0
LINE
  5
5A8
330
4D
100
AcDbEntity
  8
0
  6
Continuous
 62
     7
100
AcDbLine
 10
571.9915623408323
 20
439.5915845781248
 30
0.0
 11
571.9915623408323
 21
429.5915845781248
 31
0.0
  0
LINE
  5
5A9
330
4D
100
AcDbEntity
  8
0
  6
Continuous
 62
     7
100
AcDbLine
 10
576.4915623408323
 20
534.5915845781248
 30
0.0
 11
576.4915623408323
 21
524.5915845781248
 31
0.0
  0
LINE
  5
5AA
330
4D
100
AcDbEntity
  8
0
  6
Continuous
 62
     7
100
AcDbLine
 10
576.4915623408323
 20
524.5915845781248
 30
0.0
 11
571.9915623408323
 21
524.5915845781248
 31
0.0
  0
LINE
  5
5AB
330
4D
100
AcDbEntity
  8
0
  6
Continuous
 62
     7
100
AcDbLine
 10
571.9915623408323
 20
524.5915845781248
 30
0.0
 11
571.9915623408323
 21
534.5915845781248
 31
0.0
  0
LINE
  5
5AC
330
4D
100
AcDbEntity
  8
0
  6
Continuous
 62
     7
100
AcDbLine
 10
527.9915623408324
 20
424.5915845781248
 30
0.0
 11
612.4915623408323
 21
424.5915845781248
 31
0.0
  0
LINE
  5
5AD
330
4D
100
AcDbEntity
  8
0
  6
Continuous
 62
     7
100
AcDbLine
 10
540.9915623408323
 20
564.5915845781246
 30
0.0
 11
540.4330558016042
 21
539.5915845781248
 31
0.0
  0
LINE
  5
5AE
330
4D
100
AcDbEntity
  8
0
  6
Continuous
 62
     7
100
AcDbLine
 10
532.4915623408323
 20
534.5915845781248
 30
0.0
 11
540.3220788261144
 21
534.5915845781248
 31
0.0
  0
LINE
  5
5AF
330
4D
100
AcDbEntity
  8
0
  6
Continuous
 62
     7
100
AcDbLine
 10
537.9915623408323
 20
429.5915845781248
 30
0.0
 11
538.6907172864169
 21
461.0915845781248
 31
0.0
  0
LINE
  5
5B0
330
4D
100
AcDbEntity
  8
0
  6
Continuous
 62
     7
100
AcDbLine
 10
540.4330558016042
 20
539.5915845781248
 30
0.0
 11
532.4915623408323
 21
539.5915845781248
 31
0.0
  0
LINE
  5
5B1
330
4D
100
AcDbEntity
  8
0
  6
Continuous
 62
     7
100
AcDbLine
 10
532.4915623408323
 20
539.5915845781248
 30
0.0
 11
532.4915623408323
 21
534.5915845781248
 31
0.0
  0
LINE
  5
5B2
330
4D
100
AcDbEntity
  8
0
  6
Continuous
 62
     7
100
AcDbLine
 10
537.9915623408323
 20
429.5915845781248
 30
0.0
 11
527.9915623408324
 21
429.5915845781248
 31
0.0
  0
LINE
  5
5B3
330
4D
100
AcDbEntity
  8
0
  6
Continuous
 62
     7
100
AcDbLine
 10
527.9915623408324
 20
429.5915845781248
 30
0.0
 11
527.9915623408324
 21
424.5915845781248
 31
0.0
  0
LINE
  5
5B4
330
4D
100
AcDbEntity
  8
1
  6
Continuous
 62
     7
100
AcDbLine
 10
178.6406690670862
 20
429.5915845781248
 30
0.0
 11
178.6406690670862
 21
454.5915845781248
 31
0.0
  0
LINE
  5
5B5
330
4D
100
AcDbEntity
  8
1
  6
Continuous
 62
     7
100
AcDbLine
 10
178.6406690670862
 20
454.5915845781248
 30
0.0
 11
189.6036320300491
 21
454.5915845781248
 31
0.0
  0
LINE
  5
5B6
330
4D
100
AcDbEntity
  8
0
  6
Continuous
 62
     7
100
AcDbLine
 10
179.1406690670862
 20
454.5915845781248
 30
0.0
 11
189.8770111098417
 21
465.32792662088
 31
0.0
  0
LINE
  5
5B7
330
4D
100
AcDbEntity
  8
0
  6
Continuous
 62
     7
100
AcDbLine
 10
445.1962246226418
 20
534.5915845781246
 30
0.0
 11
447.1406690670863
 21
429.5915845781248
 31
0.0
  0
LINE
  5
5B8
330
4D
100
AcDbEntity
  8
0
  6
Continuous
 62
     7
100
AcDbLine
 10
318.1406690670863
 20
539.5915845781246
 30
0.0
 11
191.1777061041232
 21
539.5915845781246
 31
0.0
  0
LINE
  5
5B9
330
4D
100
AcDbEntity
  8
1
  6
Continuous
 62
     7
100
AcDbLine
 10
178.6406690670862
 20
891.2391659172873
 30
0.0
 11
178.6406690670862
 21
691.2391659172874
 31
0.0
  0
LINE
  5
5BA
330
4D
100
AcDbEntity
  8
1
  6
Continuous
 62
     7
100
AcDbLine
 10
447.6406690670863
 20
901.2391659172873
 30
0.0
 11
188.6406690670862
 21
901.2391659172873
 31
0.0
  0
LINE
  5
5BB
330
4D
100
AcDbEntity
  8
1
  6
Continuous
 62
     7
100
AcDbLine
 10
457.6406690670862
 20
691.2391659172874
 30
0.0
 11
457.6406690670862
 21
891.2391659172873
 31
0.0
  0
LINE
  5
5BC
330
4D
100
AcDbEntity
  8
1
  6
Continuous
 62
     7
100
AcDbLine
 10
188.6406690670862
 20
681.2391659172872
 30
0.0
 11
447.6406690670863
 21
681.2391659172872
 31
0.0
  0
LINE
  5
5BD
330
4D
100
AcDbEntity
  8
0
  6
Continuous
 62
     7
100
AcDbLine
 10
737.7645702098212
 20
439.8185767091359
 30
0.0
 11
747.9915623408324
 21
429.5915845781248
 31
0.0
  0
LINE
  5
5BE
330
4D
100
AcDbEntity
  8
0
  6
Continuous
 62
     7
100
AcDbLine
 10
743.4915623408324
 20
534.5915845781248
 30
0.0
 11
735.8310734334917
 21
526.9310956707843
 31
0.0
  0
LINE
  5
5BF
330
4D
100
AcDbEntity
  8
0
  6
Continuous
 62
     7
100
AcDbLine
 10
179.1406690670862
 20
429.5915845781248
 30
0.0
 11
189.1406690670862
 21
439.5915845781248
 31
0.0
  0
LINE
  5
5C0
330
4D
100
AcDbEntity
  8
0
  6
Continuous
 62
     7
100
AcDbLine
 10
183.9277061041232
 20
534.5915845781246
 30
0.0
 11
190.9174640722891
 21
525.624734570692
 31
0.0
  0
LINE
  5
5C1
330
4D
100
AcDbEntity
  8
0
  6
Continuous
 62
     7
100
AcDbLine
 10
635.7415623408324
 20
470.1034820607965
 30
0.0
 11
635.7415623408324
 21
459.5815363734396
 31
0.0
  0
LINE
  5
5C2
330
4D
100
AcDbEntity
  8
0
  6
Continuous
 62
     7
100
AcDbLine
 10
607.8069757721001
 20
456.6686364140635
 30
0.0
 11
615.2471149189068
 21
449.2284972672568
 31
0.0
  0
LINE
  5
5C3
330
4D
100
AcDbEntity
  8
0
  6
Continuous
 62
     7
100
AcDbLine
 10
610.9889562874396
 20
459.8506169294029
 30
0.0
 11
607.8069757721001
 21
456.6686364140635
 31
0.0
  0
LINE
  5
5C4
330
4D
100
AcDbEntity
  8
0
  6
Continuous
 62
     7
100
AcDbLine
 10
618.4290954342463
 20
452.4104777825963
 30
0.0
 11
610.9889562874396
 21
459.8506169294029
 31
0.0
  0
LINE
  5
5C5
330
4D
100
AcDbEntity
  8
0
  6
Continuous
 62
     7
100
AcDbLine
 10
291.6406690670863
 20
429.5915845781248
 30
0.0
 11
291.6406690670863
 21
439.5915845781248
 31
0.0
  0
LINE
  5
5C6
330
4D
100
AcDbEntity
  8
0
  6
Continuous
 62
     7
100
AcDbLine
 10
291.6406690670863
 20
439.5915845781248
 30
0.0
 11
296.1406690670863
 21
439.5915845781248
 31
0.0
  0
LINE
  5
5C7
330
4D
100
AcDbEntity
  8
0
  6
Continuous
 62
     7
100
AcDbLine
 10
291.6406690670863
 20
534.5915845781246
 30
0.0
 11
291.6406690670863
 21
524.5915845781246
 31
0.0
  0
LINE
  5
5C8
330
4D
100
AcDbEntity
  8
0
  6
Continuous
 62
     7
100
AcDbLine
 10
291.6406690670863
 20
524.5915845781246
 30
0.0
 11
296.1406690670863
 21
524.5915845781246
 31
0.0
  0
LINE
  5
5C9
330
4D
100
AcDbEntity
  8
0
  6
Continuous
 62
     7
100
AcDbLine
 10
296.1406690670863
 20
524.5915845781246
 30
0.0
 11
296.1406690670863
 21
534.5915845781246
 31
0.0
  0
LINE
  5
5CA
330
4D
100
AcDbEntity
  8
0
  6
Continuous
 62
     7
100
AcDbLine
 10
238.6406690670863
 20
534.5915845781246
 30
0.0
 11
238.6406690670863
 21
524.5915845781246
 31
0.0
  0
LINE
  5
5CB
330
4D
100
AcDbEntity
  8
0
  6
Continuous
 62
     7
100
AcDbLine
 10
238.6406690670863
 20
524.5915845781246
 30
0.0
 11
243.1406690670863
 21
524.5915845781246
 31
0.0
  0
LINE
  5
5CC
330
4D
100
AcDbEntity
  8
0
  6
Continuous
 62
     7
100
AcDbLine
 10
243.1406690670863
 20
524.5915845781246
 30
0.0
 11
243.1406690670863
 21
534.5915845781246
 31
0.0
  0
LINE
  5
5CD
330
4D
100
AcDbEntity
  8
0
  6
Continuous
 62
     7
100
AcDbLine
 10
222.6406690670862
 20
429.5915845781248
 30
0.0
 11
189.1406690670862
 21
429.5915845781248
 31
0.0
  0
LINE
  5
5CE
330
4D
100
AcDbEntity
  8
0
  6
DASH_CENTER
 62
     2
100
AcDbLine
 10
233.1406690670862
 20
464.9407784455469
 30
0.0
 11
233.1406690670862
 21
422.5007178870308
 31
0.0
  0
LINE
  5
5CF
330
4D
100
AcDbEntity
  8
0
  6
DASH_CENTER
 62
     2
100
AcDbLine
 10
212.5129915877332
 20
443.5915845781248
 30
0.0
 11
253.7722321307092
 21
443.5915845781248
 31
0.0
  0
LINE
  5
5D0
330
4D
100
AcDbEntity
  8
0
  6
Continuous
 62
     7
100
AcDbLine
 10
318.1406690670863
 20
424.5915845781248
 30
0.0
 11
178.6406690670862
 21
424.5915845781248
 31
0.0
  0
LINE
  5
5D1
330
4D
100
AcDbEntity
  8
0
  6
Continuous
 62
     7
100
AcDbLine
 10
191.6406690670862
 20
564.5915845781246
 30
0.0
 11
318.1406690670863
 21
564.5915845781246
 31
0.0
  0
LINE
  5
5D2
330
4D
100
AcDbEntity
  8
0
  6
Continuous
 62
     7
100
AcDbLine
 10
457.6406690670862
 20
424.5915845781248
 30
0.0
 11
318.1406690670863
 21
424.5915845781248
 31
0.0
  0
LINE
  5
5D3
330
4D
100
AcDbEntity
  8
0
  6
Continuous
 62
     7
100
AcDbLine
 10
439.1406690670863
 20
564.5915845781246
 30
0.0
 11
444.6406690670863
 21
564.5915845781246
 31
0.0
  0
LINE
  5
5D4
330
4D
100
AcDbEntity
  8
0
  6
Continuous
 62
     7
100
AcDbLine
 10
318.1406690670863
 20
564.5915845781246
 30
0.0
 11
439.1406690670863
 21
564.5915845781246
 31
0.0
  0
LINE
  5
5D5
330
4D
100
AcDbEntity
  8
0
  6
Continuous
 62
     7
100
AcDbLine
 10
189.1406690670862
 20
429.5915845781248
 30
0.0
 11
178.6406690670862
 21
429.5915845781248
 31
0.0
  0
LINE
  5
5D6
330
4D
100
AcDbEntity
  8
0
  6
Continuous
 62
     7
100
AcDbLine
 10
191.0851135115307
 20
534.5915845781246
 30
0.0
 11
318.1406690670863
 21
534.5915845781246
 31
0.0
  0
LINE
  5
5D7
330
4D
100
AcDbEntity
  8
0
  6
Continuous
 62
     7
100
AcDbLine
 10
191.0851135115307
 20
534.5915845781246
 30
0.0
 11
189.1406690670862
 21
429.5915845781248
 31
0.0
  0
LINE
  5
5D8
330
4D
100
AcDbEntity
  8
0
  6
Continuous
 62
     7
100
AcDbLine
 10
191.1777061041232
 20
539.5915845781246
 30
0.0
 11
183.9277061041232
 21
539.5915845781246
 31
0.0
  0
LINE
  5
5D9
330
4D
100
AcDbEntity
  8
0
  6
Continuous
 62
     7
100
AcDbLine
 10
191.6406690670862
 20
564.5915845781246
 30
0.0
 11
191.1777061041232
 21
539.5915845781246
 31
0.0
  0
LINE
  5
5DA
330
4D
100
AcDbEntity
  8
0
  6
Continuous
 62
     7
100
AcDbLine
 10
445.1036320300492
 20
539.5915845781246
 30
0.0
 11
444.6406690670863
 21
564.5915845781246
 31
0.0
  0
LINE
  5
5DB
330
4D
100
AcDbEntity
  8
0
  6
Continuous
 62
     7
100
AcDbLine
 10
318.1406690670863
 20
534.5915845781246
 30
0.0
 11
445.1962246226418
 21
534.5915845781246
 31
0.0
  0
LINE
  5
5DC
330
4D
100
AcDbEntity
  8
0
  6
Continuous
 62
     7
100
AcDbLine
 10
451.6406690670863
 20
539.5915845781246
 30
0.0
 11
445.1036320300492
 21
539.5915845781246
 31
0.0
  0
LINE
  5
5DD
330
4D
100
AcDbEntity
  8
0
  6
Continuous
 62
     7
100
AcDbLine
 10
451.6406690670863
 20
534.5915845781246
 30
0.0
 11
451.6406690670863
 21
539.5915845781246
 31
0.0
  0
LINE
  5
5DE
330
4D
100
AcDbEntity
  8
0
  6
Continuous
 62
     7
100
AcDbLine
 10
183.9277061041232
 20
534.5915845781246
 30
0.0
 11
191.0851135115307
 21
534.5915845781246
 31
0.0
  0
LINE
  5
5DF
330
4D
100
AcDbEntity
  8
0
  6
Continuous
 62
     7
100
AcDbLine
 10
183.9277061041232
 20
539.5915845781246
 30
0.0
 11
183.9277061041232
 21
534.5915845781246
 31
0.0
  0
LINE
  5
5E0
330
4D
100
AcDbEntity
  8
0
  6
Continuous
 62
     7
100
AcDbLine
 10
178.6406690670862
 20
429.5915845781248
 30
0.0
 11
178.6406690670862
 21
424.5915845781248
 31
0.0
  0
LINE
  5
5E1
330
4D
100
AcDbEntity
  8
0
  6
Continuous
 62
     7
100
AcDbLine
 10
457.6406690670862
 20
424.5915845781248
 30
0.0
 11
457.6406690670862
 21
429.5915845781248
 31
0.0
  0
LINE
  5
5E2
330
4D
100
AcDbEntity
  8
0
  6
Continuous
 62
     7
100
AcDbLine
 10
436.1406690670863
 20
849.7391659172873
 30
0.0
 11
439.6406690670863
 21
849.7391659172873
 31
0.0
  0
LINE
  5
5E3
330
4D
100
AcDbEntity
  8
0
  6
Continuous
 62
     7
100
AcDbLine
 10
200.1406690670862
 20
864.7391659172873
 30
0.0
 11
196.6406690670862
 21
864.7391659172873
 31
0.0
  0
LINE
  5
5E4
330
4D
100
AcDbEntity
  8
0
  6
Continuous
 62
     7
100
AcDbLine
 10
415.6406690670862
 20
879.7391659172873
 30
0.0
 11
415.6406690670862
 21
881.7391659172873
 31
0.0
  0
LINE
  5
5E5
330
4D
100
AcDbEntity
  8
0
  6
Continuous
 62
     7
100
AcDbLine
 10
436.1406690670863
 20
873.7391659172873
 30
0.0
 11
439.6406690670863
 21
873.7391659172873
 31
0.0
  0
LINE
  5
5E6
330
4D
100
AcDbEntity
  8
0
  6
Continuous
 62
     7
100
AcDbLine
 10
731.9915623408324
 20
424.5915845781248
 30
0.0
 11
663.4915623408324
 21
424.5915845781248
 31
0.0
  0
LINE
  5
5E7
330
4D
100
AcDbEntity
  8
0
  6
Continuous
 62
     7
100
AcDbLine
 10
729.4915623408324
 20
564.5915845781248
 30
0.0
 11
734.9915623408322
 21
564.5915845781246
 31
0.0
  0
LINE
  5
5E8
330
4D
100
AcDbEntity
  8
0
  6
Continuous
 62
     7
100
AcDbLine
 10
747.9915623408324
 20
424.5915845781248
 30
0.0
 11
731.9915623408324
 21
424.5915845781248
 31
0.0
  0
LINE
  5
5E9
330
4D
100
AcDbEntity
  8
0
  6
Continuous
 62
     7
100
AcDbLine
 10
637.9915623408324
 20
564.5915845781246
 30
0.0
 11
729.4915623408324
 21
564.5915845781248
 31
0.0
  0
LINE
  5
5EA
330
4D
100
AcDbEntity
  8
0
  6
Continuous
 62
     7
100
AcDbLine
 10
540.3220788261144
 20
534.5915845781248
 30
0.0
 11
735.66104585555
 21
534.5915845781248
 31
0.0
  0
LINE
  5
5EB
330
4D
100
AcDbEntity
  8
0
  6
Continuous
 62
     7
100
AcDbLine
 10
637.9915623408324
 20
564.5915845781246
 30
0.0
 11
540.9915623408323
 21
564.5915845781246
 31
0.0
  0
LINE
  5
5EC
330
4D
100
AcDbEntity
  8
0
  6
Continuous
 62
     7
100
AcDbLine
 10
735.5500688800604
 20
539.5915845781248
 30
0.0
 11
734.9915623408322
 21
564.5915845781246
 31
0.0
  0
LINE
  5
5ED
330
4D
100
AcDbEntity
  8
0
  6
Continuous
 62
     7
100
AcDbLine
 10
735.66104585555
 20
534.5915845781248
 30
0.0
 11
743.4915623408324
 21
534.5915845781248
 31
0.0
  0
LINE
  5
5EE
330
4D
100
AcDbEntity
  8
0
  6
Continuous
 62
     7
100
AcDbLine
 10
735.66104585555
 20
534.5915845781248
 30
0.0
 11
737.9915623408324
 21
429.5915845781248
 31
0.0
  0
LINE
  5
5EF
330
4D
100
AcDbEntity
  8
0
  6
Continuous
 62
     7
100
AcDbLine
 10
743.4915623408324
 20
539.5915845781248
 30
0.0
 11
735.5500688800604
 21
539.5915845781248
 31
0.0
  0
LINE
  5
5F0
330
4D
100
AcDbEntity
  8
0
  6
Continuous
 62
     7
100
AcDbLine
 10
743.4915623408324
 20
534.5915845781248
 30
0.0
 11
743.4915623408324
 21
539.5915845781248
 31
0.0
  0
LINE
  5
5F1
330
4D
100
AcDbEntity
  8
0
  6
Continuous
 62
     7
100
AcDbLine
 10
607.9916547105502
 20
429.5915845781248
 30
0.0
 11
537.9915623408323
 21
429.5915845781248
 31
0.0
  0
LINE
  5
5F2
330
4D
100
AcDbEntity
  8
0
  6
Continuous
 62
     7
100
AcDbLine
 10
747.9915623408324
 20
429.5915845781248
 30
0.0
 11
737.9915623408324
 21
429.5915845781248
 31
0.0
  0
LINE
  5
5F3
330
4D
100
AcDbEntity
  8
0
  6
Continuous
 62
     7
100
AcDbLine
 10
747.9915623408324
 20
424.5915845781248
 30
0.0
 11
747.9915623408324
 21
429.5915845781248
 31
0.0
  0
LINE
  5
5F4
330
4D
100
AcDbEntity
  8
0
  6
Continuous
 62
     7
100
AcDbLine
 10
663.4782920273251
 20
424.5915845781248
 30
0.0
 11
663.4915623408324
 21
424.5915845781248
 31
0.0
  0
LINE
  5
5F5
330
4D
100
AcDbEntity
  8
0
  6
Continuous
 62
     7
100
AcDbLine
 10
415.6406690670862
 20
881.7391659172873
 30
0.0
 11
222.1406690670862
 21
881.7391659172873
 31
0.0
  0
LINE
  5
5F6
330
4D
100
AcDbEntity
  8
0
  6
Continuous
 62
     7
100
AcDbLine
 10
222.1406690670862
 20
881.7391659172873
 30
0.0
 11
199.1406690670862
 21
881.7391659172873
 31
0.0
  0
LINE
  5
5F7
330
4D
100
AcDbEntity
  8
0
  6
Continuous
 62
     7
100
AcDbLine
 10
222.1406690670862
 20
881.7391659172873
 30
0.0
 11
222.1406690670862
 21
879.7391659172873
 31
0.0
  0
LINE
  5
5F8
330
4D
100
AcDbEntity
  8
0
  6
Continuous
 62
     7
100
AcDbLine
 10
439.6406690670863
 20
864.7391659172873
 30
0.0
 11
436.1406690670863
 21
864.7391659172873
 31
0.0
  0
LINE
  5
5F9
330
4D
100
AcDbEntity
  8
0
  6
Continuous
 62
     7
100
AcDbLine
 10
439.6406690670863
 20
864.7391659172873
 30
0.0
 11
439.6406690670863
 21
873.7391659172873
 31
0.0
  0
LINE
  5
5FA
330
4D
100
AcDbEntity
  8
0
  6
DASH_CENTER
 62
     2
100
AcDbLine
 10
428.6406690670863
 20
869.2391659172873
 30
0.0
 11
448.4804865301053
 21
869.2391659172873
 31
0.0
  0
LINE
  5
5FB
330
4D
100
AcDbEntity
  8
0
  6
Continuous
 62
     7
100
AcDbLine
 10
318.1406690670863
 20
685.7391659172874
 30
0.0
 11
427.192681017117
 21
687.7422058927256
 31
0.0
  0
LINE
  5
5FC
330
4D
100
AcDbEntity
  8
0
  6
Continuous
 62
     7
100
AcDbLine
 10
450.1406690670863
 20
711.0637212376241
 30
0.0
 11
450.1406690670863
 21
791.2391659172874
 31
0.0
  0
LINE
  5
5FD
330
4D
100
AcDbEntity
  8
0
  6
Continuous
 62
     7
100
AcDbLine
 10
450.1406690670863
 20
791.2391659172874
 30
0.0
 11
450.1406690670863
 21
871.4146105969505
 31
0.0
  0
LINE
  5
5FE
330
4D
100
AcDbEntity
  8
0
  6
Continuous
 62
     7
100
AcDbLine
 10
427.192681017117
 20
894.7361259418492
 30
0.0
 11
318.1406690670863
 21
896.7391659172873
 31
0.0
  0
LINE
  5
5FF
330
4D
100
AcDbEntity
  8
0
  6
Continuous
 62
     7
100
AcDbLine
 10
186.1406690670862
 20
791.2391659172874
 30
0.0
 11
186.1406690670862
 21
711.0637212376241
 31
0.0
  0
LINE
  5
600
330
4D
100
AcDbEntity
  8
0
  6
Continuous
 62
     7
100
AcDbLine
 10
209.0886571170555
 20
687.7422058927256
 30
0.0
 11
318.1406690670863
 21
685.7391659172874
 31
0.0
  0
LINE
  5
601
330
4D
100
AcDbEntity
  8
0
  6
Continuous
 62
     7
100
AcDbLine
 10
186.1406690670862
 20
871.4146105969505
 30
0.0
 11
186.1406690670862
 21
791.2391659172874
 31
0.0
  0
LINE
  5
602
330
4D
100
AcDbEntity
  8
0
  6
Continuous
 62
     7
100
AcDbLine
 10
318.1406690670863
 20
896.7391659172873
 30
0.0
 11
209.0886571170555
 21
894.7361259418492
 31
0.0
  0
LINE
  5
603
330
4D
100
AcDbEntity
  8
0
  6
Continuous
 62
     7
100
AcDbLine
 10
196.6406690670862
 20
864.7391659172873
 30
0.0
 11
196.6406690670862
 21
849.7391659172873
 31
0.0
  0
LINE
  5
604
330
4D
100
AcDbEntity
  8
0
  6
Continuous
 62
     7
100
AcDbLine
 10
196.6406690670862
 20
873.7391659172873
 30
0.0
 11
196.6406690670862
 21
864.7391659172873
 31
0.0
  0
LINE
  5
605
330
4D
100
AcDbEntity
  8
0
  6
Continuous
 62
     7
100
AcDbLine
 10
196.6406690670862
 20
873.7391659172873
 30
0.0
 11
200.1406690670862
 21
873.7391659172873
 31
0.0
  0
LINE
  5
606
330
4D
100
AcDbEntity
  8
0
  6
DASH_CENTER
 62
     2
100
AcDbLine
 10
187.8008516040673
 20
869.2391659172873
 30
0.0
 11
207.6406690670862
 21
869.2391659172873
 31
0.0
  0
LINE
  5
607
330
4D
100
AcDbEntity
  8
0
  6
Continuous
 62
     7
100
AcDbLine
 10
439.6406690670863
 20
849.7391659172873
 30
0.0
 11
439.6406690670863
 21
879.2391659172873
 31
0.0
  0
LINE
  5
608
330
4D
100
AcDbEntity
  8
0
  6
Continuous
 62
     7
100
AcDbLine
 10
196.6406690670862
 20
849.7391659172873
 30
0.0
 11
196.6406690670862
 21
703.2391659172874
 31
0.0
  0
LINE
  5
609
330
4D
100
AcDbEntity
  8
0
  6
Continuous
 62
     7
100
AcDbLine
 10
196.6406690670862
 20
849.7391659172873
 30
0.0
 11
200.1406690670862
 21
849.7391659172873
 31
0.0
  0
LINE
  5
60A
330
4D
100
AcDbEntity
  8
0
  6
Continuous
 62
     7
100
AcDbLine
 10
439.6406690670863
 20
703.2391659172874
 30
0.0
 11
439.6406690670863
 21
849.7391659172873
 31
0.0
  0
LINE
  5
60B
330
4D
100
AcDbEntity
  8
0
  6
Continuous
 62
     7
100
AcDbLine
 10
199.1406690670862
 20
700.7391659172874
 30
0.0
 11
437.1406690670863
 21
700.7391659172874
 31
0.0
  0
LINE
  5
60C
330
4D
100
AcDbEntity
  8
0
  6
Continuous
 62
     7
100
AcDbLine
 10
196.6406690670862
 20
879.2391659172873
 30
0.0
 11
196.6406690670862
 21
871.2391659172873
 31
0.0
  0
LINE
  5
60D
330
4D
100
AcDbEntity
  8
0
  6
Continuous
 62
     7
100
AcDbLine
 10
437.1406690670863
 20
881.7391659172873
 30
0.0
 11
415.6406690670862
 21
881.7391659172873
 31
0.0
  0
LINE
  5
60E
330
4D
100
AcDbEntity
  8
0
  6
Continuous
 62
     7
100
AcDbLine
 10
191.6406690670862
 20
881.7391659172873
 30
0.0
 11
191.6406690670862
 21
700.7391659172874
 31
0.0
  0
LINE
  5
60F
330
4D
100
AcDbEntity
  8
0
  6
Continuous
 62
     7
100
AcDbLine
 10
439.6406690670863
 20
886.7391659172873
 30
0.0
 11
196.6406690670862
 21
886.7391659172873
 31
0.0
  0
LINE
  5
610
330
4D
100
AcDbEntity
  8
0
  6
Continuous
 62
     7
100
AcDbLine
 10
444.6406690670863
 20
700.7391659172874
 30
0.0
 11
444.6406690670863
 21
881.7391659172873
 31
0.0
  0
LINE
  5
611
330
4D
100
AcDbEntity
  8
0
  6
Continuous
 62
     7
100
AcDbLine
 10
196.6406690670862
 20
695.7391659172874
 30
0.0
 11
439.6406690670863
 21
695.7391659172874
 31
0.0
  0
LINE
  5
612
330
4D
100
AcDbEntity
  8
0
  6
Continuous
 62
     7
100
AcDbLine
 10
445.3803597887358
 20
525.6482856090524
 30
0.0
 11
451.6406690670863
 21
534.5915845781246
 31
0.0
  0
LINE
  5
613
330
4D
100
AcDbEntity
  8
1
  6
Continuous
 62
     7
100
AcDbLine
 10
340.1406690670863
 20
439.5915845781248
 30
0.0
 11
340.1406690670863
 21
429.5915845781248
 31
0.0
  0
LINE
  5
614
330
4D
100
AcDbEntity
  8
0
  6
Continuous
 62
     7
100
AcDbLine
 10
340.1406690670863
 20
429.5915845781248
 30
0.0
 11
296.1406690670863
 21
429.5915845781248
 31
0.0
  0
LINE
  5
615
330
4D
100
AcDbEntity
  8
1
  6
Continuous
 62
     7
100
AcDbLine
 10
296.1406690670863
 20
439.5915845781248
 30
0.0
 11
296.1406690670863
 21
429.5915845781248
 31
0.0
  0
LINE
  5
616
330
4D
100
AcDbEntity
  8
0
  6
Continuous
 62
     7
100
AcDbLine
 10
296.1406690670863
 20
429.5915845781248
 30
0.0
 11
243.6406690670862
 21
429.5915845781248
 31
0.0
  0
ARC
  5
617
330
4D
100
AcDbEntity
  8
1
  6
Continuous
 62
     7
100
AcDbCircle
 10
637.9915623408324
 20
429.6660303606709
 30
0.0
 40
29.99999999999985
100
AcDbArc
 50
359.8578188826605
 51
90.0
  0
ARC
  5
618
330
4D
100
AcDbEntity
  8
1
  6
Continuous
 62
     7
100
AcDbCircle
 10
637.9915623408324
 20
429.6660303606709
 30
0.0
 40
26.0
100
AcDbArc
 50
348.745287381771
 51
191.2547126182289
  0
ARC
  5
619
330
4D
100
AcDbEntity
  8
1
  6
Continuous
 62
     7
100
AcDbCircle
 10
637.9915623408324
 20
429.6660303606709
 30
0.0
 40
30.0
100
AcDbArc
 50
90.0
 51
180.1421811173394
  0
ARC
  5
61A
330
4D
100
AcDbEntity
  8
0
  6
Continuous
 62
     7
100
AcDbCircle
 10
233.1406690670862
 20
443.5915845781248
 30
0.0
 40
17.5
100
AcDbArc
 50
90.0
 51
233.130102354156
  0
LWPOLYLINE
  5
61B
330
4D
100
AcDbEntity
  8
0
  6
Continuous
 62
     7
100
AcDbPolyline
 90
        2
 70
     1
 43
0.0
 10
233.1406690670862
 20
456.5915845781248
 42
1.0
 10
233.1406690670862
 20
430.5915845781248
 42
1.0
  0
ARC
  5
61C
330
4D
100
AcDbEntity
  8
0
  6
Continuous
 62
     7
100
AcDbCircle
 10
233.1406690670862
 20
443.5915845781248
 30
0.0
 40
17.5
100
AcDbArc
 50
306.869897645844
 51
90.0
  0
ARC
  5
61D
330
4D
100
AcDbEntity
  8
0
  6
Continuous
 62
     7
100
AcDbCircle
 10
426.8161137467495
 20
711.0637212376241
 30
0.0
 40
23.32455532033678
100
AcDbArc
 50
270.9250616954926
 51
0.0
  0
ARC
  5
61E
330
4D
100
AcDbEntity
  8
0
  6
Continuous
 62
     7
100
AcDbCircle
 10
426.8161137467495
 20
871.4146105969505
 30
0.0
 40
23.3245553203368
100
AcDbArc
 50
0.0
 51
89.07493830450738
  0
ARC
  5
61F
330
4D
100
AcDbEntity
  8
0
  6
Continuous
 62
     7
100
AcDbCircle
 10
209.465224387423
 20
711.0637212376241
 30
0.0
 40
23.3245553203368
100
AcDbArc
 50
180.0
 51
269.0749383045074
  0
ARC
  5
620
330
4D
100
AcDbEntity
  8
0
  6
Continuous
 62
     7
100
AcDbCircle
 10
209.465224387423
 20
871.4146105969505
 30
0.0
 40
23.32455532033689
100
AcDbArc
 50
90.92506169549264
 51
180.0
  0
ARC
  5
621
330
4D
100
AcDbEntity
  8
1
  6
Continuous
 62
     7
100
AcDbCircle
 10
188.6406690670862
 20
891.2391659172873
 30
0.0
 40
10.0
100
AcDbArc
 50
90.0
 51
180.0
  0
ARC
  5
622
330
4D
100
AcDbEntity
  8
1
  6
Continuous
 62
     7
100
AcDbCircle
 10
447.6406690670863
 20
691.2391659172872
 30
0.0
 40
10.0
100
AcDbArc
 50
270.0
 51
0.0000000000013
  0
ARC
  5
623
330
4D
100
AcDbEntity
  8
1
  6
Continuous
 62
     7
100
AcDbCircle
 10
188.6406690670862
 20
691.2391659172872
 30
0.0
 40
10.0
100
AcDbArc
 50
179.9999999999987
 51
270.0
  0
ARC
  5
624
330
4D
100
AcDbEntity
  8
1
  6
Continuous
 62
     7
100
AcDbCircle
 10
447.6406690670863
 20
891.2391659172873
 30
0.0
 40
9.999999999999886
100
AcDbArc
 50
0.0
 51
90.0
  0
ARC
  5
625
330
4D
100
AcDbEntity
  8
0
  6
Continuous
 62
     7
100
AcDbCircle
 10
196.6406690670862
 20
700.7391659172874
 30
0.0
 40
5.0
100
AcDbArc
 50
180.0
 51
270.0
  0
ARC
  5
626
330
4D
100
AcDbEntity
  8
0
  6
Continuous
 62
     7
100
AcDbCircle
 10
196.6406690670862
 20
881.7391659172873
 30
0.0
 40
5.0
100
AcDbArc
 50
90.0
 51
180.0
  0
ARC
  5
627
330
4D
100
AcDbEntity
  8
0
  6
Continuous
 62
     7
100
AcDbCircle
 10
439.6406690670863
 20
700.7391659172874
 30
0.0
 40
5.0
100
AcDbArc
 50
270.0
 51
0.0
  0
ARC
  5
628
330
4D
100
AcDbEntity
  8
0
  6
Continuous
 62
     7
100
AcDbCircle
 10
439.6406690670863
 20
881.7391659172873
 30
0.0
 40
5.0
100
AcDbArc
 50
0.0
 51
90.0
  0
ARC
  5
629
330
4D
100
AcDbEntity
  8
0
  6
Continuous
 62
     7
100
AcDbCircle
 10
199.1406690670862
 20
703.2391659172874
 30
0.0
 40
2.5
100
AcDbArc
 50
180.0
 51
270.0
  0
ARC
  5
62A
330
4D
100
AcDbEntity
  8
0
  6
Continuous
 62
     7
100
AcDbCircle
 10
437.1406690670863
 20
703.2391659172874
 30
0.0
 40
2.5
100
AcDbArc
 50
270.0
 51
0.0
  0
ARC
  5
62B
330
4D
100
AcDbEntity
  8
0
  6
Continuous
 62
     7
100
AcDbCircle
 10
437.1406690670863
 20
879.2391659172873
 30
0.0
 40
2.5
100
AcDbArc
 50
0.0
 51
90.0
  0
ARC
  5
62C
330
4D
100
AcDbEntity
  8
0
  6
Continuous
 62
     7
100
AcDbCircle
 10
199.1406690670862
 20
879.2391659172873
 30
0.0
 40
2.5
100
AcDbArc
 50
90.0
 51
180.0
  0
ENDBLK
  5
4F
330
4D
100
AcDbEntity
  8
0
100
AcDbBlockEnd
  0
BLOCK
  5
64B
330
644
100
AcDbEntity
  8
0
100
AcDbBlockBegin
  2
*D4
 70
     1
 10
0.0
 20
0.0
 30
0.0
  3
*D4
  1

  0
LINE
  5
645
330
644
100
AcDbEntity
  8
1
  6
Continuous
 62
     2
100
AcDbLine
 10
529.6406690670863
 20
901.2391659172873
 30
0.0
 11
529.6406690670863
 21
681.2391659172872
 31
0.0
  0
LINE
  5
646
330
644
100
AcDbEntity
  8
1
  6
Continuous
 62
     2
100
AcDbLine
 10
447.6406690670863
 20
901.2391659172873
 30
0.0
 11
533.6406690670863
 21
901.2391659172873
 31
0.0
  0
LINE
  5
647
330
644
100
AcDbEntity
  8
1
  6
Continuous
 62
     2
100
AcDbLine
 10
447.6406690670863
 20
681.2391659172872
 30
0.0
 11
533.6406690670863
 21
681.2391659172872
 31
0.0
  0
SOLID
  5
648
330
644
100
AcDbEntity
  8
1
 62
     2
100
AcDbTrace
 10
531.4838040333098
 20
887.2391659172873
 30
0.0
 11
527.7975341008628
 21
887.2391659172873
 31
0.0
 12
529.6406690670863
 22
901.2391659172873
 32
0.0
 13
529.6406690670863
 23
901.2391659172873
 33
0.0
  0
SOLID
  5
649
330
644
100
AcDbEntity
  8
1
 62
     2
100
AcDbTrace
 10
527.7975341008628
 20
695.2391659172872
 30
0.0
 11
531.4838040333098
 21
695.2391659172872
 31
0.0
 12
529.6406690670863
 22
681.2391659172872
 32
0.0
 13
529.6406690670863
 23
681.2391659172872
 33
0.0
  0
MTEXT
  5
64A
330
644
100
AcDbEntity
  8
1
 62
     7
100
AcDbMText
 10
525.6406690670863
 20
774.4391659172875
 30
0.0
 40
14.0
 41
0.0
 71
     7
 72
     1
  1
220
  7
CONVERTER_12
 11
0.0
 21
1.0
 31
0.0
 73
     1
 44
0.60024009603842
  0
ENDBLK
  5
64C
330
644
100
AcDbEntity
  8
0
100
AcDbBlockEnd
  0
BLOCK
  5
656
330
64F
100
AcDbEntity
  8
0
100
AcDbBlockBegin
  2
*D5
 70
     1
 10
0.0
 20
0.0
 30
0.0
  3
*D5
  1

  0
LINE
  5
650
330
64F
100
AcDbEntity
  8
1
  6
Continuous
 62
     2
100
AcDbLine
 10
178.6406690670862
 20
973.2391659172873
 30
0.0
 11
457.6406690670862
 21
973.2391659172873
 31
0.0
  0
LINE
  5
651
330
64F
100
AcDbEntity
  8
1
  6
Continuous
 62
     2
100
AcDbLine
 10
178.6406690670862
 20
891.2391659172873
 30
0.0
 11
178.6406690670862
 21
977.2391659172873
 31
0.0
  0
LINE
  5
652
330
64F
100
AcDbEntity
  8
1
  6
Continuous
 62
     2
100
AcDbLine
 10
457.6406690670862
 20
891.2391659172873
 30
0.0
 11
457.6406690670862
 21
977.2391659172873
 31
0.0
  0
SOLID
  5
653
330
64F
100
AcDbEntity
  8
1
 62
     2
100
AcDbTrace
 10
192.6406690670862
 20
975.0823008835108
 30
0.0
 11
192.6406690670862
 21
971.3960309510638
 31
0.0
 12
178.6406690670862
 22
973.2391659172873
 32
0.0
 13
178.6406690670862
 23
973.2391659172873
 33
0.0
  0
SOLID
  5
654
330
64F
100
AcDbEntity
  8
1
 62
     2
100
AcDbTrace
 10
443.6406690670862
 20
971.3960309510638
 30
0.0
 11
443.6406690670862
 21
975.0823008835108
 31
0.0
 12
457.6406690670862
 22
973.2391659172873
 32
0.0
 13
457.6406690670862
 23
973.2391659172873
 33
0.0
  0
MTEXT
  5
655
330
64F
100
AcDbEntity
  8
1
 62
     7
100
AcDbMText
 10
301.3406690670863
 20
977.2391659172873
 30
0.0
 40
14.0
 41
0.0
 71
     7
 72
     1
  1
279
  7
CONVERTER_12
 11
0.9999999999970619
 21
2.424068405545306E-6
 31
0.0
 73
     1
 44
0.60024009603842
  0
ENDBLK
  5
657
330
64F
100
AcDbEntity
  8
0
100
AcDbBlockEnd
  0
BLOCK
  5
661
330
65A
100
AcDbEntity
  8
0
100
AcDbBlockBegin
  2
*D6
 70
     1
 10
0.0
 20
0.0
 30
0.0
  3
*D6
  1

  0
LINE
  5
65B
330
65A
100
AcDbEntity
  8
1
  6
Continuous
 62
     2
100
AcDbLine
 10
138.6406690670862
 20
564.5915845781246
 30
0.0
 11
138.6406690670862
 21
424.5915845781248
 31
0.0
  0
LINE
  5
65C
330
65A
100
AcDbEntity
  8
1
  6
Continuous
 62
     2
100
AcDbLine
 10
191.6406690670862
 20
564.5915845781246
 30
0.0
 11
134.6406690670862
 21
564.5915845781246
 31
0.0
  0
LINE
  5
65D
330
65A
100
AcDbEntity
  8
1
  6
Continuous
 62
     2
100
AcDbLine
 10
178.6406690670862
 20
424.5915845781248
 30
0.0
 11
134.6406690670862
 21
424.5915845781248
 31
0.0
  0
SOLID
  5
65E
330
65A
100
AcDbEntity
  8
1
 62
     2
100
AcDbTrace
 10
140.4838040333098
 20
550.5915845781246
 30
0.0
 11
136.7975341008627
 21
550.5915845781246
 31
0.0
 12
138.6406690670862
 22
564.5915845781246
 32
0.0
 13
138.6406690670862
 23
564.5915845781246
 33
0.0
  0
SOLID
  5
65F
330
65A
100
AcDbEntity
  8
1
 62
     2
100
AcDbTrace
 10
136.7975341008627
 20
438.5915845781248
 30
0.0
 11
140.4838040333098
 21
438.5915845781248
 31
0.0
 12
138.6406690670862
 22
424.5915845781248
 32
0.0
 13
138.6406690670862
 23
424.5915845781248
 33
0.0
  0
MTEXT
  5
660
330
65A
100
AcDbEntity
  8
1
 62
     7
100
AcDbMText
 10
134.6406690670862
 20
479.8915845781247
 30
0.0
 40
14.0
 41
0.0
 71
     7
 72
     1
  1
140
  7
CONVERTER_12
 11
0.0
 21
1.0
 31
0.0
 73
     1
 44
0.60024009603842
  0
ENDBLK
  5
662
330
65A
100
AcDbEntity
  8
0
100
AcDbBlockEnd
  0
BLOCK
  5
66C
330
665
100
AcDbEntity
  8
0
100
AcDbBlockBegin
  2
*D7
 70
     1
 10
0.0
 20
0.0
 30
0.0
  3
*D7
  1

  0
LINE
  5
666
330
665
100
AcDbEntity
  8
1
  6
Continuous
 62
     2
100
AcDbLine
 10
191.6406690670862
 20
604.5915845781246
 30
0.0
 11
444.6406690670863
 21
604.5915845781246
 31
0.0
  0
LINE
  5
667
330
665
100
AcDbEntity
  8
1
  6
Continuous
 62
     2
100
AcDbLine
 10
191.6406690670862
 20
564.5915845781246
 30
0.0
 11
191.6406690670862
 21
608.5915845781246
 31
0.0
  0
LINE
  5
668
330
665
100
AcDbEntity
  8
1
  6
Continuous
 62
     2
100
AcDbLine
 10
444.6406690670863
 20
564.5915845781246
 30
0.0
 11
444.6406690670863
 21
608.5915845781246
 31
0.0
  0
SOLID
  5
669
330
665
100
AcDbEntity
  8
1
 62
     2
100
AcDbTrace
 10
205.6406690670862
 20
606.4347195443481
 30
0.0
 11
205.6406690670862
 21
602.7484496119012
 31
0.0
 12
191.6406690670862
 22
604.5915845781246
 32
0.0
 13
191.6406690670862
 23
604.5915845781246
 33
0.0
  0
SOLID
  5
66A
330
665
100
AcDbEntity
  8
1
 62
     2
100
AcDbTrace
 10
430.6406690670863
 20
602.7484496119012
 30
0.0
 11
430.6406690670863
 21
606.4347195443481
 31
0.0
 12
444.6406690670863
 22
604.5915845781246
 32
0.0
 13
444.6406690670863
 23
604.5915845781246
 33
0.0
  0
MTEXT
  5
66B
330
665
100
AcDbEntity
  8
1
 62
     7
100
AcDbMText
 10
301.3406690670863
 20
608.5915845781246
 30
0.0
 40
14.0
 41
0.0
 71
     7
 72
     1
  1
253
  7
CONVERTER_12
 11
0.9999999999970619
 21
2.424068405545306E-6
 31
0.0
 73
     1
 44
0.60024009603842
  0
ENDBLK
  5
66D
330
665
100
AcDbEntity
  8
0
100
AcDbBlockEnd
  0
BLOCK
  5
677
330
670
100
AcDbEntity
  8
0
100
AcDbBlockBegin
  2
*D8
 70
     1
 10
0.0
 20
0.0
 30
0.0
  3
*D8
  1

  0
LINE
  5
671
330
670
100
AcDbEntity
  8
0
  6
Continuous
 62
     2
100
AcDbLine
 10
200.1406690670862
 20
941.2391659172873
 30
0.0
 11
436.1406690670863
 21
941.2391659172873
 31
0.0
  0
LINE
  5
672
330
670
100
AcDbEntity
  8
0
  6
Continuous
 62
     2
100
AcDbLine
 10
200.1406690670862
 20
878.7391659172873
 30
0.0
 11
200.1406690670862
 21
945.2391659172873
 31
0.0
  0
LINE
  5
673
330
670
100
AcDbEntity
  8
0
  6
Continuous
 62
     2
100
AcDbLine
 10
436.1406690670863
 20
878.7391659172873
 30
0.0
 11
436.1406690670863
 21
945.2391659172873
 31
0.0
  0
SOLID
  5
674
330
670
100
AcDbEntity
  8
0
 62
     2
100
AcDbTrace
 10
214.1406690670862
 20
943.0823008835108
 30
0.0
 11
214.1406690670862
 21
939.3960309510638
 31
0.0
 12
200.1406690670862
 22
941.2391659172873
 32
0.0
 13
200.1406690670862
 23
941.2391659172873
 33
0.0
  0
SOLID
  5
675
330
670
100
AcDbEntity
  8
0
 62
     2
100
AcDbTrace
 10
422.1406690670863
 20
939.3960309510638
 30
0.0
 11
422.1406690670863
 21
943.0823008835108
 31
0.0
 12
436.1406690670863
 22
941.2391659172873
 32
0.0
 13
436.1406690670863
 23
941.2391659172873
 33
0.0
  0
MTEXT
  5
676
330
670
100
AcDbEntity
  8
0
 62
     7
100
AcDbMText
 10
301.3406690670863
 20
945.2391659172873
 30
0.0
 40
14.0
 41
0.0
 71
     7
 72
     1
  1
236
  7
CONVERTER_12
 11
0.9999999999970619
 21
2.424068405545306E-6
 31
0.0
 73
     1
 44
0.60024009603842
  0
ENDBLK
  5
678
330
670
100
AcDbEntity
  8
0
100
AcDbBlockEnd
  0
BLOCK
  5
682
330
67B
100
AcDbEntity
  8
0
100
AcDbBlockBegin
  2
*D9
 70
     1
 10
0.0
 20
0.0
 30
0.0
  3
*D9
  1

  0
LINE
  5
67C
330
67B
100
AcDbEntity
  8
1
  6
Continuous
 62
     2
100
AcDbLine
 10
497.6406690670862
 20
879.7391659172873
 30
0.0
 11
497.6406690670862
 21
702.7391659172874
 31
0.0
  0
LINE
  5
67D
330
67B
100
AcDbEntity
  8
1
  6
Continuous
 62
     2
100
AcDbLine
 10
435.1406690670863
 20
879.7391659172873
 30
0.0
 11
501.6406690670862
 21
879.7391659172873
 31
0.0
  0
LINE
  5
67E
330
67B
100
AcDbEntity
  8
1
  6
Continuous
 62
     2
100
AcDbLine
 10
435.1406690670863
 20
702.7391659172874
 30
0.0
 11
501.6406690670862
 21
702.7391659172874
 31
0.0
  0
SOLID
  5
67F
330
67B
100
AcDbEntity
  8
1
 62
     2
100
AcDbTrace
 10
499.4838040333098
 20
865.7391659172873
 30
0.0
 11
495.7975341008627
 21
865.7391659172873
 31
0.0
 12
497.6406690670862
 22
879.7391659172873
 32
0.0
 13
497.6406690670862
 23
879.7391659172873
 33
0.0
  0
SOLID
  5
680
330
67B
100
AcDbEntity
  8
1
 62
     2
100
AcDbTrace
 10
495.7975341008627
 20
716.7391659172874
 30
0.0
 11
499.4838040333098
 21
716.7391659172874
 31
0.0
 12
497.6406690670862
 22
702.7391659172874
 32
0.0
 13
497.6406690670862
 23
702.7391659172874
 33
0.0
  0
MTEXT
  5
681
330
67B
100
AcDbEntity
  8
1
 62
     7
100
AcDbMText
 10
493.6406690670862
 20
776.5391659172874
 30
0.0
 40
14.0
 41
0.0
 71
     7
 72
     1
  1
177
  7
CONVERTER_12
 11
0.0
 21
1.0
 31
0.0
 73
     1
 44
0.60024009603842
  0
ENDBLK
  5
683
330
67B
100
AcDbEntity
  8
0
100
AcDbBlockEnd
  0
BLOCK
  5
68D
330
686
100
AcDbEntity
  8
0
100
AcDbBlockBegin
  2
*D10
 70
     1
 10
0.0
 20
0.0
 30
0.0
  3
*D10
  1

  0
LINE
  5
687
330
686
100
AcDbEntity
  8
1
  6
Continuous
 62
     2
100
AcDbLine
 10
612.4915623408323
 20
384.5915845781248
 30
0.0
 11
663.4915623408324
 21
384.5915845781248
 31
0.0
  0
LINE
  5
688
330
686
100
AcDbEntity
  8
1
  6
Continuous
 62
     2
100
AcDbLine
 10
612.4915623408323
 20
424.5915845781248
 30
0.0
 11
612.4915623408323
 21
380.5915845781248
 31
0.0
  0
LINE
  5
689
330
686
100
AcDbEntity
  8
1
  6
Continuous
 62
     2
100
AcDbLine
 10
663.4915623408324
 20
424.5915845781248
 30
0.0
 11
663.4915623408324
 21
380.5915845781248
 31
0.0
  0
SOLID
  5
68A
330
686
100
AcDbEntity
  8
1
 62
     2
100
AcDbTrace
 10
626.4915623408323
 20
386.4347195443484
 30
0.0
 11
626.4915623408323
 21
382.7484496119013
 31
0.0
 12
612.4915623408323
 22
384.5915845781248
 32
0.0
 13
612.4915623408323
 23
384.5915845781248
 33
0.0
  0
SOLID
  5
68B
330
686
100
AcDbEntity
  8
1
 62
     2
100
AcDbTrace
 10
649.4915623408324
 20
382.7484496119013
 30
0.0
 11
649.4915623408324
 21
386.4347195443484
 31
0.0
 12
663.4915623408324
 22
384.5915845781248
 32
0.0
 13
663.4915623408324
 23
384.5915845781248
 33
0.0
  0
MTEXT
  5
68C
330
686
100
AcDbEntity
  8
1
 62
     7
100
AcDbMText
 10
629.5915623408324
 20
388.5915845781248
 30
0.0
 40
14.0
 41
0.0
 71
     7
 72
     1
  1
51
  7
CONVERTER_12
 11
0.9999999999970619
 21
2.424068405545306E-6
 31
0.0
 73
     1
 44
0.60024009603842
  0
ENDBLK
  5
68E
330
686
100
AcDbEntity
  8
0
100
AcDbBlockEnd
  0
BLOCK
  5
697
330
691
100
AcDbEntity
  8
0
100
AcDbBlockBegin
  2
*D11
 70
     1
 10
0.0
 20
0.0
 30
0.0
  3
*D11
  1

  0
LINE
  5
692
330
691
100
AcDbEntity
  8
0
  6
Continuous
 62
     2
100
AcDbLine
 10
211.337061010053
 20
417.503221737669
 30
0.0
 11
274.2202866113948
 21
492.7439984831882
 31
0.0
  0
ARC
  5
693
330
691
100
AcDbEntity
  8
0
  6
Continuous
 62
     2
100
AcDbCircle
 10
233.1406690670863
 20
443.5915845781248
 30
0.0
 40
13.0
100
AcDbArc
 50
90.0
 51
247.7419450011106
  0
SOLID
  5
694
330
691
100
AcDbEntity
  8
0
 62
     2
100
AcDbTrace
 10
249.0410527075901
 20
465.4907842573028
 30
0.0
 11
251.8695452818707
 21
463.1268435279057
 31
0.0
 12
241.4773427359519
 22
453.5665468406519
 32
0.0
 13
241.4773427359519
 23
453.5665468406519
 33
0.0
  0
SOLID
  5
695
330
691
100
AcDbEntity
  8
0
 62
     2
100
AcDbTrace
 10
217.2402854265825
 20
421.6923848989467
 30
0.0
 11
214.4117928523018
 21
424.0563256283438
 31
0.0
 12
224.8039953982206
 22
433.6166223155976
 32
0.0
 13
224.8039953982206
 23
433.6166223155976
 33
0.0
  0
MTEXT
  5
696
330
691
100
AcDbEntity
  8
0
 62
     7
100
AcDbMText
 10
250.3222089333282
 20
470.3870692823097
 30
0.0
 40
14.0
 41
0.0
 71
     7
 72
     1
  1
\C7;{\Fgdt;n}\C7;26
  7
CONVERTER_12
 11
0.641282589912743
 21
0.7673047894251701
 31
0.0
 73
     1
 44
0.60024009603842
  0
ENDBLK
  5
698
330
691
100
AcDbEntity
  8
0
100
AcDbBlockEnd
  0
ENDSEC
  0
SECTION
  2
ENTITIES
  0
INSERT
  5
50
330
1F
100
AcDbEntity
  8
1
100
AcDbBlockReference
  2
開示A4
 10
0.0
 20
0.0
 30
0.0
 41
4.0
 42
4.0
 43
4.0
  0
INSERT
  5
51
330
1F
100
AcDbEntity
  8
0
100
AcDbBlockReference
  2
R81-8-2
 10
200.1406690670862
 20
636.7391659172874
 30
0.0
  0
INSERT
  5
52
330
1F
100
AcDbEntity
  8
0
100
AcDbBlockReference
  2
R81-8-1
 10
178.6406690670862
 20
376.6125994510707
 30
0.0
  0
LINE
  5
62D
330
1F
100
AcDbEntity
  8
0
  6
DASH_CENTER
 62
     2
100
AcDbLine
 10
318.1406690670863
 20
670.7391659172872
 30
0.0
 11
318.1406690670863
 21
905.8391499514538
 31
0.0
  0
LINE
  5
62E
330
1F
100
AcDbEntity
  8
0
  6
DASH_CENTER
 62
     2
100
AcDbLine
 10
318.1406690670863
 20
575.0915845781246
 30
0.0
 11
318.1406690670863
 21
414.0915845781247
 31
0.0
  0
LINE
  5
62F
330
1F
100
AcDbEntity
  8
0
  6
DASH_CENTER
 62
     2
100
AcDbLine
 10
168.1406690670862
 20
791.2391659172874
 30
0.0
 11
468.1406690670862
 21
791.2391659172874
 31
0.0
  0
LINE
  5
630
330
1F
100
AcDbEntity
  8
0
  6
DASH_CENTER
 62
     2
100
AcDbLine
 10
318.1406690670863
 20
905.8391499514538
 30
0.0
 11
318.1406690670863
 21
911.7391659172873
 31
0.0
  0
LINE
  5
631
330
1F
100
AcDbEntity
  8
0
  6
DASH_CENTER
 62
     2
100
AcDbLine
 10
637.9915623408324
 20
575.0915845781246
 30
0.0
 11
637.9915623408324
 21
414.0915845781246
 31
0.0
  0
LINE
  5
632
330
1F
100
AcDbEntity
  8
1
  6
Continuous
 62
     7
100
AcDbLine
 10
753.7314540650982
 20
305.5945083687957
 30
0.0
 11
529.7314540650982
 21
305.5945083687957
 31
0.0
  0
LINE
  5
633
330
1F
100
AcDbEntity
  8
1
  6
Continuous
 62
     2
100
AcDbLine
 10
641.7314540650982
 20
305.5945083687957
 30
0.0
 11
641.7314540650982
 21
221.5945083687956
 31
0.0
  0
LINE
  5
634
330
1F
100
AcDbEntity
  8
1
  6
Continuous
 62
     7
100
AcDbLine
 10
529.7314540650982
 20
305.5945083687957
 30
0.0
 11
529.7314540650982
 21
221.5945083687957
 31
0.0
  0
LINE
  5
635
330
1F
100
AcDbEntity
  8
1
  6
Continuous
 62
     7
100
AcDbLine
 10
529.7314540650982
 20
221.5945083687957
 30
0.0
 11
753.7314540650982
 21
221.5945083687955
 31
0.0
  0
LINE
  5
636
330
1F
100
AcDbEntity
  8
1
  6
Continuous
 62
     2
100
AcDbLine
 10
529.7314540650982
 20
249.5945083687957
 30
0.0
 11
753.7314540650982
 21
249.5945083687957
 31
0.0
  0
LINE
  5
637
330
1F
100
AcDbEntity
  8
1
  6
Continuous
 62
     2
100
AcDbLine
 10
529.7314540650982
 20
277.5945083687957
 30
0.0
 11
753.7314540650982
 21
277.5945083687957
 31
0.0
  0
LINE
  5
638
330
1F
100
AcDbEntity
  8
1
  6
Continuous
 62
     7
100
AcDbLine
 10
753.7314540650982
 20
221.5945083687955
 30
0.0
 11
753.7314540650982
 21
305.5945083687957
 31
0.0
  0
MTEXT
  5
639
330
1F
100
AcDbEntity
  8
1
 62
     7
100
AcDbMText
 10
697.7314540650982
 20
235.607841702129
 30
0.0
 40
14.0
 41
0.0
 71
     5
 72
     1
  1
黒 色
  7
CONVERTER_11
 73
     1
 44
1.0
  0
MTEXT
  5
63A
330
1F
100
AcDbEntity
  8
1
 62
     7
100
AcDbMText
 10
697.7314540650982
 20
263.5945083687957
 30
0.0
 40
14.0
 41
0.0
 71
     5
 72
     1
  1
青 色
  7
CONVERTER_11
 73
     1
 44
1.0
  0
MTEXT
  5
63C
330
1F
100
AcDbEntity
  8
1
 62
     7
100
AcDbMText
 10
585.7314540650982
 20
263.5945083687957
 30
0.0
 40
14.0
 41
0.0
 71
     5
 72
     1
  1
R81-8-B
  7
CONVERTER_12
 73
     1
 44
1.32052821128451
  0
MTEXT
  5
63D
330
1F
100
AcDbEntity
  8
1
 62
     7
100
AcDbMText
 10
697.7314540650982
 20
291.5945083687957
 30
0.0
 40
14.0
 41
0.0
 71
     5
 72
     1
  1
蓋の色
  7
CONVERTER_11
 73
     1
 44
1.0
  0
MTEXT
  5
63E
330
1F
100
AcDbEntity
  8
1
 62
     7
100
AcDbMText
 10
585.7314540650982
 20
235.607841702129
 30
0.0
 40
14.0
 41
0.0
 71
     5
 72
     1
  1
R81-8-D
  7
CONVERTER_12
 73
     1
 44
1.32052821128451
  0
MTEXT
  5
63F
330
1F
100
AcDbEntity
  8
1
 62
     7
100
AcDbMText
 10
585.7314540650982
 20
291.5945083687957
 30
0.0
 40
14.0
 41
0.0
 71
     5
 72
     1
  1
品番
  7
CONVERTER_11
 73
     1
 44
1.0
  0
MTEXT
  5
640
330
1F
100
AcDbEntity
  8
0
 62
     7
100
AcDbMText
 10
228.0
 20
91.00000000000004
 30
0.0
 40
14.0
 41
0.0
 71
     5
 72
     1
  1
散水栓ボックス(床面用)
  7
CONVERTER_11
 73
     1
 44
1.0
  0
MTEXT
  5
641
330
1F
100
AcDbEntity
  8
0
 62
     7
100
AcDbMText
 10
228.0
 20
57.0
 30
0.0
 40
14.0
 41
0.0
 71
     5
 72
     1
  1
R81-8-色
  7
CONVERTER_11
 73
     1
 44
0.63636363636364
  0
MTEXT
  5
642
330
1F
100
AcDbEntity
  8
0
 62
     7
100
AcDbMText
 10
341.0
 20
68.0
 30
0.0
 40
14.0
 41
0.0
 71
     5
 72
     1
  1
1
  7
CONVERTER_12
 73
     1
 44
0.84033613445378
  0
MTEXT
  5
643
330
1F
100
AcDbEntity
  8
0
 62
     7
100
AcDbMText
 10
375.0
 20
68.0
 30
0.0
 40
14.0
 41
0.0
 71
     5
 72
     1
  1
4
  7
CONVERTER_12
 73
     1
 44
0.84033613445378
  0
DIMENSION
  5
64E
330
1F
100
AcDbEntity
  8
1
100
AcDbDimension
  2
*D4
 10
529.6406690670863
 20
901.2391659172873
 30
0.0
 11
518.6406690670863
 21
791.2391659172874
 31
0.0
 70
    32
  1
<>
 71
     5
 42
-1.0
 53
90.0
  3
ME10_DIM_10
100
AcDbAlignedDimension
 13
447.6406690670863
 23
681.2391659172872
 33
0.0
 14
447.6406690670863
 24
901.2391659172873
 34
0.0
 50
90.0
100
AcDbRotatedDimension
  0
DIMENSION
  5
659
330
1F
100
AcDbEntity
  8
1
100
AcDbDimension
  2
*D5
 10
178.6406690670862
 20
973.2391659172873
 30
0.0
 11
318.1406690670863
 21
984.2391659172873
 31
0.0
 70
    32
  1
<>
 71
     5
 42
-1.0
 53
0.00013888888889
  3
ME10_DIM_11
100
AcDbAlignedDimension
 13
457.6406690670862
 23
891.2391659172873
 33
0.0
 14
178.6406690670862
 24
891.2391659172873
 34
0.0
100
AcDbRotatedDimension
  0
DIMENSION
  5
664
330
1F
100
AcDbEntity
  8
1
100
AcDbDimension
  2
*D6
 10
138.6406690670862
 20
564.5915845781246
 30
0.0
 11
127.6406690670862
 21
494.5915845781247
 31
0.0
 70
    32
  1
<>
 71
     5
 42
-1.0
 53
90.0
  3
ME10_DIM_12
100
AcDbAlignedDimension
 13
178.6406690670862
 23
424.5915845781248
 33
0.0
 14
191.6406690670862
 24
564.5915845781246
 34
0.0
 50
90.0
100
AcDbRotatedDimension
  0
DIMENSION
  5
66F
330
1F
100
AcDbEntity
  8
1
100
AcDbDimension
  2
*D7
 10
191.6406690670862
 20
604.5915845781246
 30
0.0
 11
318.1406690670863
 21
615.5915845781246
 31
0.0
 70
    32
  1
<>
 71
     5
 42
-1.0
 53
0.00013888888889
  3
ME10_DIM_13
100
AcDbAlignedDimension
 13
444.6406690670863
 23
564.5915845781246
 33
0.0
 14
191.6406690670862
 24
564.5915845781246
 34
0.0
100
AcDbRotatedDimension
  0
DIMENSION
  5
67A
330
1F
100
AcDbEntity
  8
0
100
AcDbDimension
  2
*D8
 10
200.1406690670862
 20
941.2391659172873
 30
0.0
 11
318.1406690670863
 21
952.2391659172873
 31
0.0
 70
    32
  1
<>
 71
     5
 42
-1.0
 53
0.00013888888889
  3
ME10_DIM_14
100
AcDbAlignedDimension
 13
436.1406690670863
 23
878.7391659172873
 33
0.0
 14
200.1406690670862
 24
878.7391659172873
 34
0.0
100
AcDbRotatedDimension
  0
DIMENSION
  5
685
330
1F
100
AcDbEntity
  8
1
100
AcDbDimension
  2
*D9
 10
497.6406690670862
 20
879.7391659172873
 30
0.0
 11
486.6406690670862
 21
791.2391659172874
 31
0.0
 70
    32
  1
<>
 71
     5
 42
-1.0
 53
90.0
  3
ME10_DIM_15
100
AcDbAlignedDimension
 13
435.1406690670863
 23
702.7391659172874
 33
0.0
 14
435.1406690670863
 24
879.7391659172873
 34
0.0
 50
90.0
100
AcDbRotatedDimension
  0
DIMENSION
  5
690
330
1F
100
AcDbEntity
  8
1
100
AcDbDimension
  2
*D10
 10
612.4915623408323
 20
384.5915845781248
 30
0.0
 11
637.9915623408324
 21
395.5915845781248
 31
0.0
 70
    32
  1
<>
 71
     5
 42
-1.0
 53
0.00013888888889
  3
ME10_DIM_16
100
AcDbAlignedDimension
 13
663.4915623408324
 23
424.5915845781248
 33
0.0
 14
612.4915623408323
 24
424.5915845781248
 34
0.0
100
AcDbRotatedDimension
  0
INSERT
  5
699
330
1F
100
AcDbEntity
  8
0
100
AcDbBlockReference
  2
*D11
 10
0.0
 20
0.0
 30
0.0
  0
ENDSEC
  0
SECTION
  2
OBJECTS
  0
DICTIONARY
  5
C
330
0
100
AcDbDictionary
281
     1
  3
ACAD_GROUP
350
D
  3
ACAD_LAYOUT
350
1A
  3
ACAD_MATERIAL
350
3B
  3
ACAD_MLEADERSTYLE
350
69C
  3
ACAD_MLINESTYLE
350
17
  3
ACAD_PLOTSETTINGS
350
19
  3
ACAD_PLOTSTYLENAME
350
E
  3
ACAD_VISUALSTYLE
350
2A
  3
AcDbVariableDictionary
350
69A
  0
DICTIONARY
  5
D
102
{ACAD_REACTORS
330
C
102
}
330
C
100
AcDbDictionary
281
     1
  0
DICTIONARY
  5
1A
102
{ACAD_REACTORS
330
C
102
}
330
C
100
AcDbDictionary
281
     1
  3
Layout1
350
1E
  3
Layout2
350
26
  3
Model
350
22
  0
DICTIONARY
  5
3B
102
{ACAD_REACTORS
330
C
102
}
330
C
100
AcDbDictionary
281
     1
  3
ByBlock
350
3D
  3
ByLayer
350
3C
  3
Global
350
3E
  0
DICTIONARY
  5
69C
102
{ACAD_REACTORS
330
C
102
}
330
C
100
AcDbDictionary
281
     1
  0
DICTIONARY
  5
17
102
{ACAD_REACTORS
330
C
102
}
330
C
100
AcDbDictionary
281
     1
  3
Standard
350
18
  0
DICTIONARY
  5
19
102
{ACAD_REACTORS
330
C
102
}
330
C
100
AcDbDictionary
281
     1
  0
ACDBDICTIONARYWDFLT
  5
E
102
{ACAD_REACTORS
330
C
102
}
330
C
100
AcDbDictionary
281
     1
  3
Normal
350
F
100
AcDbDictionaryWithDefault
340
F
  0
DICTIONARY
  5
2A
102
{ACAD_REACTORS
330
C
102
}
330
C
100
AcDbDictionary
281
     1
  3
2dWireframe
350
2F
  3
3D Hidden
350
31
  3
3dWireframe
350
30
  3
Basic
350
32
  3
Brighten
350
36
  3
ColorChange
350
3A
  3
Conceptual
350
34
  3
Dim
350
35
  3
Facepattern
350
39
  3
Flat
350
2B
  3
FlatWithEdges
350
2C
  3
Gouraud
350
2D
  3
GouraudWithEdges
350
2E
  3
Linepattern
350
38
  3
Realistic
350
33
  3
Thicken
350
37
  0
DICTIONARY
  5
69A
102
{ACAD_REACTORS
330
C
102
}
330
C
100
AcDbDictionary
281
     1
  3
DIMASSOC
350
69D
  3
HIDETEXT
350
69E
  0
LAYOUT
  5
1E
102
{ACAD_REACTORS
330
1A
102
}
330
1A
100
AcDbPlotSettings
  1

  2
none_device
  4

  6

 40
0.0
 41
0.0
 42
0.0
 43
0.0
 44
0.0
 45
0.0
 46
0.0
 47
0.0
 48
0.0
 49
0.0
140
0.0
141
0.0
142
1.0
143
1.0
 70
   688
 72
     0
 73
     0
 74
     5
  7

 75
    16
147
1.0
148
0.0
149
0.0
100
AcDbLayout
  1
Layout1
 70
     1
 71
     1
 10
0.0
 20
0.0
 11
12.0
 21
9.0
 12
0.0
 22
0.0
 32
0.0
 14
1.00000000000000E+20
 24
1.00000000000000E+20
 34
1.00000000000000E+20
 15
-1.00000000000000E+20
 25
-1.00000000000000E+20
 35
-1.00000000000000E+20
146
0.0
 13
0.0
 23
0.0
 33
0.0
 16
1.0
 26
0.0
 36
0.0
 17
0.0
 27
1.0
 37
0.0
 76
     0
330
1B
  0
LAYOUT
  5
26
102
{ACAD_REACTORS
330
1A
102
}
330
1A
100
AcDbPlotSettings
  1

  2
none_device
  4

  6

 40
0.0
 41
0.0
 42
0.0
 43
0.0
 44
0.0
 45
0.0
 46
0.0
 47
0.0
 48
0.0
 49
0.0
140
0.0
141
0.0
142
1.0
143
1.0
 70
   688
 72
     0
 73
     0
 74
     5
  7

 75
    16
147
1.0
148
0.0
149
0.0
100
AcDbLayout
  1
Layout2
 70
     1
 71
     2
 10
0.0
 20
0.0
 11
0.0
 21
0.0
 12
0.0
 22
0.0
 32
0.0
 14
0.0
 24
0.0
 34
0.0
 15
0.0
 25
0.0
 35
0.0
146
0.0
 13
0.0
 23
0.0
 33
0.0
 16
1.0
 26
0.0
 36
0.0
 17
0.0
 27
1.0
 37
0.0
 76
     0
330
23
  0
LAYOUT
  5
22
102
{ACAD_REACTORS
330
1A
102
}
330
1A
100
AcDbPlotSettings
  1

  2
none_device
  4

  6

 40
0.0
 41
0.0
 42
0.0
 43
0.0
 44
0.0
 45
0.0
 46
0.0
 47
0.0
 48
0.0
 49
0.0
140
0.0
141
0.0
142
1.0
143
1.0
 70
  1712
 72
     0
 73
     0
 74
     0
  7

 75
     0
147
1.0
148
0.0
149
0.0
100
AcDbLayout
  1
Model
 70
     1
 71
     0
 10
0.0
 20
0.0
 11
12.0
 21
9.0
 12
0.0
 22
0.0
 32
0.0
 14
0.0
 24
0.0
 34
0.0
 15
840.0
 25
1188.0
 35
0.0
146
0.0
 13
0.0
 23
0.0
 33
0.0
 16
1.0
 26
0.0
 36
0.0
 17
0.0
 27
1.0
 37
0.0
 76
     0
330
1F
331
29
  0
MATERIAL
  5
3D
102
{ACAD_REACTORS
330
3B
102
}
102
{ACAD_XDICTIONARY
360
6C1
102
}
330
3B
100
AcDbMaterial
  1
ByBlock
  0
MATERIAL
  5
3C
102
{ACAD_REACTORS
330
3B
102
}
102
{ACAD_XDICTIONARY
360
6BF
102
}
330
3B
100
AcDbMaterial
  1
ByLayer
  0
MATERIAL
  5
3E
102
{ACAD_REACTORS
330
3B
102
}
102
{ACAD_XDICTIONARY
360
6C3
102
}
330
3B
100
AcDbMaterial
  1
Global
  0
MLINESTYLE
  5
18
102
{ACAD_REACTORS
330
17
102
}
330
17
100
AcDbMlineStyle
  2
Standard
 70
     0
  3

 62
   256
 51
90.0
 52
90.0
 71
     2
 49
0.5
 62
   256
  6
BYLAYER
 49
-0.5
 62
   256
  6
BYLAYER
  0
ACDBPLACEHOLDER
  5
F
102
{ACAD_REACTORS
330
E
102
}
330
E
  0
VISUALSTYLE
  5
2F
102
{ACAD_REACTORS
330
2A
102
}
102
{ACAD_XDICTIONARY
360
6A7
102
}
330
2A
100
AcDbVisualStyle
  2
2dWireframe
 70
     4
 71
     0
 72
     2
 73
     0
 90
        0
 40
-0.6
 41
-30.0
 62
     5
 63
     7
 74
     1
 91
        4
 64
     7
 65
   257
 75
     1
175
     1
 42
1.0
 92
        0
 66
   257
 43
1.0
 76
     1
 77
     6
 78
     2
 67
     7
 79
     5
170
     0
171
     0
290
     0
174
     0
 93
        1
 44
0.0
173
     0
291
     0
 45
0.0
1001
ACAD
1000
AcDbSavedByObjectVersion
1070
     0
  0
VISUALSTYLE
  5
31
102
{ACAD_REACTORS
330
2A
102
}
102
{ACAD_XDICTIONARY
360
6AB
102
}
330
2A
100
AcDbVisualStyle
  2
3D Hidden
 70
     6
 71
     1
 72
     2
 73
     2
 90
        0
 40
-0.6
 41
-30.0
 62
     5
 63
     7
 74
     2
 91
        2
 64
     7
 65
   257
 75
     2
175
     1
 42
40.0
 92
        0
 66
   257
 43
1.0
 76
     1
 77
     6
 78
     2
 67
     7
 79
     3
170
     0
171
     0
290
     0
174
     0
 93
        1
 44
0.0
173
     0
291
     0
 45
0.0
1001
ACAD
1000
AcDbSavedByObjectVersion
1070
     0
  0
VISUALSTYLE
  5
30
102
{ACAD_REACTORS
330
2A
102
}
102
{ACAD_XDICTIONARY
360
6A9
102
}
330
2A
100
AcDbVisualStyle
  2
3dWireframe
 70
     5
 71
     0
 72
     2
 73
     0
 90
        0
 40
-0.6
 41
-30.0
 62
     5
 63
     7
 74
     1
 91
        4
 64
     7
 65
   257
 75
     1
175
     1
 42
1.0
 92
        0
 66
   257
 43
1.0
 76
     1
 77
     6
 78
     2
 67
     7
 79
     5
170
     0
171
     0
290
     0
174
     0
 93
        1
 44
0.0
173
     0
291
     0
 45
0.0
1001
ACAD
1000
AcDbSavedByObjectVersion
1070
     0
  0
VISUALSTYLE
  5
32
102
{ACAD_REACTORS
330
2A
102
}
102
{ACAD_XDICTIONARY
360
6AD
102
}
330
2A
100
AcDbVisualStyle
  2
Basic
 70
     7
 71
     1
 72
     0
 73
     1
 90
        0
 40
-0.6
 41
-30.0
 62
     5
 63
     7
 74
     0
 91
        4
 64
     7
 65
   257
 75
     1
175
     1
 42
1.0
 92
        8
 66
     7
 43
1.0
 76
     1
 77
     6
 78
     2
 67
     7
 79
     5
170
     0
171
     0
290
     0
174
     0
 93
        1
 44
0.0
173
     0
291
     1
 45
0.0
1001
ACAD
1000
AcDbSavedByObjectVersion
1070
     0
  0
VISUALSTYLE
  5
36
102
{ACAD_REACTORS
330
2A
102
}
102
{ACAD_XDICTIONARY
360
6B5
102
}
330
2A
100
AcDbVisualStyle
  2
Brighten
 70
    12
 71
     2
 72
     2
 73
     0
 90
        0
 40
-0.6
 41
-30.0
 62
     5
 63
     7
 74
     1
 91
        4
 64
     7
 65
   257
 75
     1
175
     1
 42
1.0
 92
        8
 66
     7
 43
1.0
 76
     1
 77
     6
 78
     2
 67
     7
 79
     5
170
     0
171
     0
290
     0
174
     0
 93
        1
 44
50.0
173
     0
291
     1
 45
0.0
1001
ACAD
1000
AcDbSavedByObjectVersion
1070
     0
  0
VISUALSTYLE
  5
3A
102
{ACAD_REACTORS
330
2A
102
}
102
{ACAD_XDICTIONARY
360
6BD
102
}
330
2A
100
AcDbVisualStyle
  2
ColorChange
 70
    16
 71
     2
 72
     2
 73
     3
 90
        0
 40
-0.6
 41
-30.0
 62
     5
 63
     8
 74
     1
 91
        4
 64
     7
 65
   257
 75
     1
175
     1
 42
1.0
 92
        8
 66
     8
 43
1.0
 76
     1
 77
     6
 78
     2
 67
     7
 79
     5
170
     0
171
     0
290
     0
174
     0
 93
        1
 44
0.0
173
     0
291
     1
 45
0.0
1001
ACAD
1000
AcDbSavedByObjectVersion
1070
     0
  0
VISUALSTYLE
  5
34
102
{ACAD_REACTORS
330
2A
102
}
102
{ACAD_XDICTIONARY
360
6B1
102
}
330
2A
100
AcDbVisualStyle
  2
Conceptual
 70
     9
 71
     3
 72
     2
 73
     0
 90
        0
 40
-0.6
 41
-30.0
 62
     5
 63
     7
 74
     2
 91
        2
 64
     7
 65
   257
 75
     1
175
     1
 42
40.0
 92
        8
 66
     7
 43
1.0
 76
     1
 77
     6
 78
     2
 67
     7
 79
     3
170
     0
171
     0
290
     0
174
     0
 93
        1
 44
0.0
173
     0
291
     0
 45
0.0
1001
ACAD
1000
AcDbSavedByObjectVersion
1070
     0
  0
VISUALSTYLE
  5
35
102
{ACAD_REACTORS
330
2A
102
}
102
{ACAD_XDICTIONARY
360
6B3
102
}
330
2A
100
AcDbVisualStyle
  2
Dim
 70
    11
 71
     2
 72
     2
 73
     0
 90
        0
 40
-0.6
 41
-30.0
 62
     5
 63
     7
 74
     1
 91
        4
 64
     7
 65
   257
 75
     1
175
     1
 42
1.0
 92
        8
 66
     7
 43
1.0
 76
     1
 77
     6
 78
     2
 67
     7
 79
     5
170
     0
171
     0
290
     0
174
     0
 93
        1
 44
-50.0
173
     0
291
     1
 45
0.0
1001
ACAD
1000
AcDbSavedByObjectVersion
1070
     0
  0
VISUALSTYLE
  5
39
102
{ACAD_REACTORS
330
2A
102
}
102
{ACAD_XDICTIONARY
360
6BB
102
}
330
2A
100
AcDbVisualStyle
  2
Facepattern
 70
    15
 71
     2
 72
     2
 73
     0
 90
        0
 40
-0.6
 41
-30.0
 62
     5
 63
     7
 74
     1
 91
        4
 64
     7
 65
   257
 75
     1
175
     1
 42
1.0
 92
        8
 66
     7
 43
1.0
 76
     1
 77
     6
 78
     2
 67
     7
 79
     5
170
     0
171
     0
290
     0
174
     0
 93
        1
 44
0.0
173
     0
291
     1
 45
0.0
1001
ACAD
1000
AcDbSavedByObjectVersion
1070
     0
  0
VISUALSTYLE
  5
2B
102
{ACAD_REACTORS
330
2A
102
}
102
{ACAD_XDICTIONARY
360
69F
102
}
330
2A
100
AcDbVisualStyle
  2
Flat
 70
     0
 71
     2
 72
     1
 73
     1
 90
        2
 40
-0.6
 41
30.0
 62
     5
 63
     7
 74
     0
 91
        4
 64
     7
 65
   257
 75
     1
175
     1
 42
1.0
 92
        8
 66
     7
 43
1.0
 76
     1
 77
     6
 78
     2
 67
     7
 79
     5
170
     0
171
     0
290
     0
174
     0
 93
       13
 44
0.0
173
     0
291
     1
 45
0.0
1001
ACAD
1000
AcDbSavedByObjectVersion
1070
     0
  0
VISUALSTYLE
  5
2C
102
{ACAD_REACTORS
330
2A
102
}
102
{ACAD_XDICTIONARY
360
6A1
102
}
330
2A
100
AcDbVisualStyle
  2
FlatWithEdges
 70
     1
 71
     2
 72
     1
 73
     1
 90
        2
 40
-0.6
 41
30.0
 62
     5
 63
     7
 74
     1
 91
        4
 64
     7
 65
   257
 75
     1
175
     1
 42
1.0
 92
        0
 66
   257
 43
1.0
 76
     1
 77
     6
 78
     2
 67
     7
 79
     5
170
     0
171
     0
290
     0
174
     0
 93
       13
 44
0.0
173
     0
291
     1
 45
0.0
1001
ACAD
1000
AcDbSavedByObjectVersion
1070
     0
  0
VISUALSTYLE
  5
2D
102
{ACAD_REACTORS
330
2A
102
}
102
{ACAD_XDICTIONARY
360
6A3
102
}
330
2A
100
AcDbVisualStyle
  2
Gouraud
 70
     2
 71
     2
 72
     2
 73
     1
 90
        2
 40
-0.6
 41
30.0
 62
     5
 63
     7
 74
     0
 91
        4
 64
     7
 65
   257
 75
     1
175
     1
 42
1.0
 92
        0
 66
     7
 43
1.0
 76
     1
 77
     6
 78
     2
 67
     7
 79
     5
170
     0
171
     0
290
     0
174
     0
 93
       13
 44
0.0
173
     0
291
     1
 45
0.0
1001
ACAD
1000
AcDbSavedByObjectVersion
1070
     0
  0
VISUALSTYLE
  5
2E
102
{ACAD_REACTORS
330
2A
102
}
102
{ACAD_XDICTIONARY
360
6A5
102
}
330
2A
100
AcDbVisualStyle
  2
GouraudWithEdges
 70
     3
 71
     2
 72
     2
 73
     1
 90
        2
 40
-0.6
 41
30.0
 62
     5
 63
     7
 74
     1
 91
        4
 64
     7
 65
   257
 75
     1
175
     1
 42
1.0
 92
        0
 66
   257
 43
1.0
 76
     1
 77
     6
 78
     2
 67
     7
 79
     5
170
     0
171
     0
290
     0
174
     0
 93
       13
 44
0.0
173
     0
291
     1
 45
0.0
1001
ACAD
1000
AcDbSavedByObjectVersion
1070
     0
  0
VISUALSTYLE
  5
38
102
{ACAD_REACTORS
330
2A
102
}
102
{ACAD_XDICTIONARY
360
6B9
102
}
330
2A
100
AcDbVisualStyle
  2
Linepattern
 70
    14
 71
     2
 72
     2
 73
     0
 90
        0
 40
-0.6
 41
-30.0
 62
     5
 63
     7
 74
     1
 91
        4
 64
     7
 65
   257
 75
     7
175
     7
 42
1.0
 92
        8
 66
     7
 43
1.0
 76
     1
 77
     6
 78
     2
 67
     7
 79
     5
170
     0
171
     0
290
     0
174
     0
 93
        1
 44
0.0
173
     0
291
     1
 45
0.0
1001
ACAD
1000
AcDbSavedByObjectVersion
1070
     0
  0
VISUALSTYLE
  5
33
102
{ACAD_REACTORS
330
2A
102
}
102
{ACAD_XDICTIONARY
360
6AF
102
}
330
2A
100
AcDbVisualStyle
  2
Realistic
 70
     8
 71
     2
 72
     2
 73
     0
 90
        0
 40
-0.6
 41
-30.0
 62
     5
 63
     7
 74
     1
 91
        0
 64
     7
 65
   257
 75
     1
175
     1
 42
1.0
 92
        8
 66
     8
 43
1.0
 76
     1
 77
     6
 78
     2
 67
     7
 79
     5
170
     0
171
     0
290
     0
174
     0
 93
       13
 44
0.0
173
     0
291
     0
 45
0.0
1001
ACAD
1000
AcDbSavedByObjectVersion
1070
     0
  0
VISUALSTYLE
  5
37
102
{ACAD_REACTORS
330
2A
102
}
102
{ACAD_XDICTIONARY
360
6B7
102
}
330
2A
100
AcDbVisualStyle
  2
Thicken
 70
    13
 71
     2
 72
     2
 73
     0
 90
        0
 40
-0.6
 41
-30.0
 62
     5
 63
     7
 74
     1
 91
        4
 64
     7
 65
   257
 75
     1
175
     1
 42
1.0
 92
       12
 66
     7
 43
1.0
 76
     1
 77
     6
 78
     2
 67
     7
 79
     5
170
     0
171
     0
290
     0
174
     0
 93
        1
 44
0.0
173
     0
291
     1
 45
0.0
1001
ACAD
1000
AcDbSavedByObjectVersion
1070
     0
  0
DICTIONARYVAR
  5
69D
102
{ACAD_REACTORS
330
69A
102
}
330
69A
100
DictionaryVariables
280
     0
  1
2
  0
DICTIONARYVAR
  5
69E
102
{ACAD_REACTORS
330
69A
102
}
330
69A
100
DictionaryVariables
280
     0
  1
1
  0
DICTIONARY
  5
6C1
330
3D
100
AcDbDictionary
280
     1
281
     1
  3
ACAD_XREC_ROUNDTRIP
360
6C2
  0
DICTIONARY
  5
6BF
330
3C
100
AcDbDictionary
280
     1
281
     1
  3
ACAD_XREC_ROUNDTRIP
360
6C0
  0
DICTIONARY
  5
6C3
330
3E
100
AcDbDictionary
280
     1
281
     1
  3
ACAD_XREC_ROUNDTRIP
360
6C4
  0
DICTIONARY
  5
6A7
330
2F
100
AcDbDictionary
280
     1
281
     1
  3
ACAD_XREC_ROUNDTRIP
360
6A8
  0
DICTIONARY
  5
6AB
330
31
100
AcDbDictionary
280
     1
281
     1
  3
ACAD_XREC_ROUNDTRIP
360
6AC
  0
DICTIONARY
  5
6A9
330
30
100
AcDbDictionary
280
     1
281
     1
  3
ACAD_XREC_ROUNDTRIP
360
6AA
  0
DICTIONARY
  5
6AD
330
32
100
AcDbDictionary
280
     1
281
     1
  3
ACAD_XREC_ROUNDTRIP
360
6AE
  0
DICTIONARY
  5
6B5
330
36
100
AcDbDictionary
280
     1
281
     1
  3
ACAD_XREC_ROUNDTRIP
360
6B6
  0
DICTIONARY
  5
6BD
330
3A
100
AcDbDictionary
280
     1
281
     1
  3
ACAD_XREC_ROUNDTRIP
360
6BE
  0
DICTIONARY
  5
6B1
330
34
100
AcDbDictionary
280
     1
281
     1
  3
ACAD_XREC_ROUNDTRIP
360
6B2
  0
DICTIONARY
  5
6B3
330
35
100
AcDbDictionary
280
     1
281
     1
  3
ACAD_XREC_ROUNDTRIP
360
6B4
  0
DICTIONARY
  5
6BB
330
39
100
AcDbDictionary
280
     1
281
     1
  3
ACAD_XREC_ROUNDTRIP
360
6BC
  0
DICTIONARY
  5
69F
330
2B
100
AcDbDictionary
280
     1
281
     1
  3
ACAD_XREC_ROUNDTRIP
360
6A0
  0
DICTIONARY
  5
6A1
330
2C
100
AcDbDictionary
280
     1
281
     1
  3
ACAD_XREC_ROUNDTRIP
360
6A2
  0
DICTIONARY
  5
6A3
330
2D
100
AcDbDictionary
280
     1
281
     1
  3
ACAD_XREC_ROUNDTRIP
360
6A4
  0
DICTIONARY
  5
6A5
330
2E
100
AcDbDictionary
280
     1
281
     1
  3
ACAD_XREC_ROUNDTRIP
360
6A6
  0
DICTIONARY
  5
6B9
330
38
100
AcDbDictionary
280
     1
281
     1
  3
ACAD_XREC_ROUNDTRIP
360
6BA
  0
DICTIONARY
  5
6AF
330
33
100
AcDbDictionary
280
     1
281
     1
  3
ACAD_XREC_ROUNDTRIP
360
6B0
  0
DICTIONARY
  5
6B7
330
37
100
AcDbDictionary
280
     1
281
     1
  3
ACAD_XREC_ROUNDTRIP
360
6B8
  0
XRECORD
  5
6C2
102
{ACAD_REACTORS
330
6C1
102
}
330
6C1
100
AcDbXrecord
280
     1
102
MATERIAL
148
0.0
149
0.0
149
0.0
 93
        0
 94
      127
282
     0
 72
     1
 77
     1
171
     1
175
     1
179
     1
273
     0
  0
XRECORD
  5
6C0
102
{ACAD_REACTORS
330
6BF
102
}
330
6BF
100
AcDbXrecord
280
     1
102
MATERIAL
148
0.0
149
0.0
149
0.0
 93
        0
 94
      127
282
     0
 72
     1
 77
     1
171
     1
175
     1
179
     1
273
     0
  0
XRECORD
  5
6C4
102
{ACAD_REACTORS
330
6C3
102
}
330
6C3
100
AcDbXrecord
280
     1
102
MATERIAL
148
0.0
149
0.0
149
0.0
 93
        0
 94
      127
282
     0
 72
     1
 77
     1
171
     1
175
     1
179
     1
273
     0
  0
XRECORD
  5
6A8
102
{ACAD_REACTORS
330
6A7
102
}
330
6A7
100
AcDbXrecord
280
     1
102
RTVSPropertyOp0
 70
     1
102
RTVSPropertyOp1
 70
     1
102
RTVSPropertyOp2
 70
     1
102
RTVSPropertyOp3
 70
     1
102
RTVSPropertyOp4
 70
     1
102
RTVSPropertyOp5
 70
     1
102
RTVSPropertyOp6
 70
     1
102
RTVSPropertyOp7
 70
     1
102
RTVSPropertyOp8
 70
     1
102
RTVSPropertyOp9
 70
     1
102
RTVSPropertyOp10
 70
     1
102
RTVSPropertyOp11
 70
     1
102
RTVSPropertyOp12
 70
     1
102
RTVSPropertyOp13
 70
     1
102
RTVSPropertyOp14
 70
     1
102
RTVSPropertyOp15
 70
     1
102
RTVSPropertyOp16
 70
     1
102
RTVSPropertyOp17
 70
     1
102
RTVSPropertyOp18
 70
     1
102
RTVSPropertyOp19
 70
     1
102
RTVSPropertyOp20
 70
     1
102
RTVSPropertyOp21
 70
     1
102
RTVSPropertyOp22
 70
     1
102
RTVSPropertyOp23
 70
     1
102
RTVSPropertyOp24
 70
     1
102
RTVSPropertyOp25
 70
     1
102
RTVSPropertyOp26
 70
     1
102
RTVSPropertyOp27
 70
     1
102
RTVSPropertyOp28
 70
     1
102
RTVSPropertyOp29
 70
     1
102
RTVSPropertyOp30
 70
     1
102
RTVSPropertyOp31
 70
     1
102
RTVSPropertyOp32
 70
     1
  0
XRECORD
  5
6AC
102
{ACAD_REACTORS
330
6AB
102
}
330
6AB
100
AcDbXrecord
280
     1
102
RTVSPropertyOp0
 70
     1
102
RTVSPropertyOp1
 70
     1
102
RTVSPropertyOp2
 70
     1
102
RTVSPropertyOp3
 70
     1
102
RTVSPropertyOp4
 70
     1
102
RTVSPropertyOp5
 70
     1
102
RTVSPropertyOp6
 70
     1
102
RTVSPropertyOp7
 70
     1
102
RTVSPropertyOp8
 70
     1
102
RTVSPropertyOp9
 70
     1
102
RTVSPropertyOp10
 70
     1
102
RTVSPropertyOp11
 70
     1
102
RTVSPropertyOp12
 70
     1
102
RTVSPropertyOp13
 70
     1
102
RTVSPropertyOp14
 70
     1
102
RTVSPropertyOp15
 70
     1
102
RTVSPropertyOp16
 70
     1
102
RTVSPropertyOp17
 70
     1
102
RTVSPropertyOp18
 70
     1
102
RTVSPropertyOp19
 70
     1
102
RTVSPropertyOp20
 70
     1
102
RTVSPropertyOp21
 70
     1
102
RTVSPropertyOp22
 70
     1
102
RTVSPropertyOp23
 70
     1
102
RTVSPropertyOp24
 70
     1
102
RTVSPropertyOp25
 70
     1
102
RTVSPropertyOp26
 70
     1
102
RTVSPropertyOp27
 70
     1
102
RTVSPropertyOp28
 70
     1
102
RTVSPropertyOp29
 70
     1
102
RTVSPropertyOp30
 70
     1
102
RTVSPropertyOp31
 70
     1
102
RTVSPropertyOp32
 70
     1
  0
XRECORD
  5
6AA
102
{ACAD_REACTORS
330
6A9
102
}
330
6A9
100
AcDbXrecord
280
     1
102
RTVSPropertyOp0
 70
     1
102
RTVSPropertyOp1
 70
     1
102
RTVSPropertyOp2
 70
     1
102
RTVSPropertyOp3
 70
     1
102
RTVSPropertyOp4
 70
     1
102
RTVSPropertyOp5
 70
     1
102
RTVSPropertyOp6
 70
     1
102
RTVSPropertyOp7
 70
     1
102
RTVSPropertyOp8
 70
     1
102
RTVSPropertyOp9
 70
     1
102
RTVSPropertyOp10
 70
     1
102
RTVSPropertyOp11
 70
     1
102
RTVSPropertyOp12
 70
     1
102
RTVSPropertyOp13
 70
     1
102
RTVSPropertyOp14
 70
     1
102
RTVSPropertyOp15
 70
     1
102
RTVSPropertyOp16
 70
     1
102
RTVSPropertyOp17
 70
     1
102
RTVSPropertyOp18
 70
     1
102
RTVSPropertyOp19
 70
     1
102
RTVSPropertyOp20
 70
     1
102
RTVSPropertyOp21
 70
     1
102
RTVSPropertyOp22
 70
     1
102
RTVSPropertyOp23
 70
     1
102
RTVSPropertyOp24
 70
     1
102
RTVSPropertyOp25
 70
     1
102
RTVSPropertyOp26
 70
     1
102
RTVSPropertyOp27
 70
     1
102
RTVSPropertyOp28
 70
     1
102
RTVSPropertyOp29
 70
     1
102
RTVSPropertyOp30
 70
     1
102
RTVSPropertyOp31
 70
     1
102
RTVSPropertyOp32
 70
     1
  0
XRECORD
  5
6AE
102
{ACAD_REACTORS
330
6AD
102
}
330
6AD
100
AcDbXrecord
280
     1
102
RTVSPropertyOp0
 70
     1
102
RTVSPropertyOp1
 70
     1
102
RTVSPropertyOp2
 70
     1
102
RTVSPropertyOp3
 70
     1
102
RTVSPropertyOp4
 70
     1
102
RTVSPropertyOp5
 70
     1
102
RTVSPropertyOp6
 70
     1
102
RTVSPropertyOp7
 70
     1
102
RTVSPropertyOp8
 70
     1
102
RTVSPropertyOp9
 70
     1
102
RTVSPropertyOp10
 70
     1
102
RTVSPropertyOp11
 70
     1
102
RTVSPropertyOp12
 70
     1
102
RTVSPropertyOp13
 70
     1
102
RTVSPropertyOp14
 70
     1
102
RTVSPropertyOp15
 70
     1
102
RTVSPropertyOp16
 70
     1
102
RTVSPropertyOp17
 70
     1
102
RTVSPropertyOp18
 70
     1
102
RTVSPropertyOp19
 70
     1
102
RTVSPropertyOp20
 70
     1
102
RTVSPropertyOp21
 70
     1
102
RTVSPropertyOp22
 70
     1
102
RTVSPropertyOp23
 70
     1
102
RTVSPropertyOp24
 70
     1
102
RTVSPropertyOp25
 70
     1
102
RTVSPropertyOp26
 70
     1
102
RTVSPropertyOp27
 70
     1
102
RTVSPropertyOp28
 70
     1
102
RTVSPropertyOp29
 70
     1
102
RTVSPropertyOp30
 70
     1
102
RTVSPropertyOp31
 70
     1
102
RTVSPropertyOp32
 70
     1
  0
XRECORD
  5
6B6
102
{ACAD_REACTORS
330
6B5
102
}
330
6B5
100
AcDbXrecord
280
     1
102
RTVSPropertyOp0
 70
     1
102
RTVSPropertyOp1
 70
     1
102
RTVSPropertyOp2
 70
     1
102
RTVSPropertyOp3
 70
     1
102
RTVSPropertyOp4
 70
     1
102
RTVSPropertyOp5
 70
     1
102
RTVSPropertyOp6
 70
     1
102
RTVSPropertyOp7
 70
     1
102
RTVSPropertyOp8
 70
     1
102
RTVSPropertyOp9
 70
     1
102
RTVSPropertyOp10
 70
     1
102
RTVSPropertyOp11
 70
     1
102
RTVSPropertyOp12
 70
     1
102
RTVSPropertyOp13
 70
     1
102
RTVSPropertyOp14
 70
     1
102
RTVSPropertyOp15
 70
     1
102
RTVSPropertyOp16
 70
     1
102
RTVSPropertyOp17
 70
     1
102
RTVSPropertyOp18
 70
     1
102
RTVSPropertyOp19
 70
     1
102
RTVSPropertyOp20
 70
     1
102
RTVSPropertyOp21
 70
     1
102
RTVSPropertyOp22
 70
     1
102
RTVSPropertyOp23
 70
     1
102
RTVSPropertyOp24
 70
     1
102
RTVSPropertyOp25
 70
     1
102
RTVSPropertyOp26
 70
     1
102
RTVSPropertyOp27
 70
     1
102
RTVSPropertyOp28
 70
     1
102
RTVSPropertyOp29
 70
     1
102
RTVSPropertyOp30
 70
     1
102
RTVSPropertyOp31
 70
     1
102
RTVSPropertyOp32
 70
     1
  0
XRECORD
  5
6BE
102
{ACAD_REACTORS
330
6BD
102
}
330
6BD
100
AcDbXrecord
280
     1
102
RTVSPropertyOp0
 70
     1
102
RTVSPropertyOp1
 70
     1
102
RTVSPropertyOp2
 70
     1
102
RTVSPropertyOp3
 70
     1
102
RTVSPropertyOp4
 70
     1
102
RTVSPropertyOp5
 70
     1
102
RTVSPropertyOp6
 70
     1
102
RTVSPropertyOp7
 70
     1
102
RTVSPropertyOp8
 70
     1
102
RTVSPropertyOp9
 70
     1
102
RTVSPropertyOp10
 70
     1
102
RTVSPropertyOp11
 70
     1
102
RTVSPropertyOp12
 70
     1
102
RTVSPropertyOp13
 70
     1
102
RTVSPropertyOp14
 70
     1
102
RTVSPropertyOp15
 70
     1
102
RTVSPropertyOp16
 70
     1
102
RTVSPropertyOp17
 70
     1
102
RTVSPropertyOp18
 70
     1
102
RTVSPropertyOp19
 70
     1
102
RTVSPropertyOp20
 70
     1
102
RTVSPropertyOp21
 70
     1
102
RTVSPropertyOp22
 70
     1
102
RTVSPropertyOp23
 70
     1
102
RTVSPropertyOp24
 70
     1
102
RTVSPropertyOp25
 70
     1
102
RTVSPropertyOp26
 70
     1
102
RTVSPropertyOp27
 70
     1
102
RTVSPropertyOp28
 70
     1
102
RTVSPropertyOp29
 70
     1
102
RTVSPropertyOp30
 70
     1
102
RTVSPropertyOp31
 70
     1
102
RTVSPropertyOp32
 70
     1
  0
XRECORD
  5
6B2
102
{ACAD_REACTORS
330
6B1
102
}
330
6B1
100
AcDbXrecord
280
     1
102
RTVSPropertyOp0
 70
     1
102
RTVSPropertyOp1
 70
     1
102
RTVSPropertyOp2
 70
     1
102
RTVSPropertyOp3
 70
     1
102
RTVSPropertyOp4
 70
     1
102
RTVSPropertyOp5
 70
     1
102
RTVSPropertyOp6
 70
     1
102
RTVSPropertyOp7
 70
     1
102
RTVSPropertyOp8
 70
     1
102
RTVSPropertyOp9
 70
     1
102
RTVSPropertyOp10
 70
     1
102
RTVSPropertyOp11
 70
     1
102
RTVSPropertyOp12
 70
     1
102
RTVSPropertyOp13
 70
     1
102
RTVSPropertyOp14
 70
     1
102
RTVSPropertyOp15
 70
     1
102
RTVSPropertyOp16
 70
     1
102
RTVSPropertyOp17
 70
     1
102
RTVSPropertyOp18
 70
     1
102
RTVSPropertyOp19
 70
     1
102
RTVSPropertyOp20
 70
     1
102
RTVSPropertyOp21
 70
     1
102
RTVSPropertyOp22
 70
     1
102
RTVSPropertyOp23
 70
     1
102
RTVSPropertyOp24
 70
     1
102
RTVSPropertyOp25
 70
     1
102
RTVSPropertyOp26
 70
     1
102
RTVSPropertyOp27
 70
     1
102
RTVSPropertyOp28
 70
     1
102
RTVSPropertyOp29
 70
     1
102
RTVSPropertyOp30
 70
     1
102
RTVSPropertyOp31
 70
     1
102
RTVSPropertyOp32
 70
     1
  0
XRECORD
  5
6B4
102
{ACAD_REACTORS
330
6B3
102
}
330
6B3
100
AcDbXrecord
280
     1
102
RTVSPropertyOp0
 70
     1
102
RTVSPropertyOp1
 70
     1
102
RTVSPropertyOp2
 70
     1
102
RTVSPropertyOp3
 70
     1
102
RTVSPropertyOp4
 70
     1
102
RTVSPropertyOp5
 70
     1
102
RTVSPropertyOp6
 70
     1
102
RTVSPropertyOp7
 70
     1
102
RTVSPropertyOp8
 70
     1
102
RTVSPropertyOp9
 70
     1
102
RTVSPropertyOp10
 70
     1
102
RTVSPropertyOp11
 70
     1
102
RTVSPropertyOp12
 70
     1
102
RTVSPropertyOp13
 70
     1
102
RTVSPropertyOp14
 70
     1
102
RTVSPropertyOp15
 70
     1
102
RTVSPropertyOp16
 70
     1
102
RTVSPropertyOp17
 70
     1
102
RTVSPropertyOp18
 70
     1
102
RTVSPropertyOp19
 70
     1
102
RTVSPropertyOp20
 70
     1
102
RTVSPropertyOp21
 70
     1
102
RTVSPropertyOp22
 70
     1
102
RTVSPropertyOp23
 70
     1
102
RTVSPropertyOp24
 70
     1
102
RTVSPropertyOp25
 70
     1
102
RTVSPropertyOp26
 70
     1
102
RTVSPropertyOp27
 70
     1
102
RTVSPropertyOp28
 70
     1
102
RTVSPropertyOp29
 70
     1
102
RTVSPropertyOp30
 70
     1
102
RTVSPropertyOp31
 70
     1
102
RTVSPropertyOp32
 70
     1
  0
XRECORD
  5
6BC
102
{ACAD_REACTORS
330
6BB
102
}
330
6BB
100
AcDbXrecord
280
     1
102
RTVSPropertyOp0
 70
     1
102
RTVSPropertyOp1
 70
     1
102
RTVSPropertyOp2
 70
     1
102
RTVSPropertyOp3
 70
     1
102
RTVSPropertyOp4
 70
     1
102
RTVSPropertyOp5
 70
     1
102
RTVSPropertyOp6
 70
     1
102
RTVSPropertyOp7
 70
     1
102
RTVSPropertyOp8
 70
     1
102
RTVSPropertyOp9
 70
     1
102
RTVSPropertyOp10
 70
     1
102
RTVSPropertyOp11
 70
     1
102
RTVSPropertyOp12
 70
     1
102
RTVSPropertyOp13
 70
     1
102
RTVSPropertyOp14
 70
     1
102
RTVSPropertyOp15
 70
     1
102
RTVSPropertyOp16
 70
     1
102
RTVSPropertyOp17
 70
     1
102
RTVSPropertyOp18
 70
     1
102
RTVSPropertyOp19
 70
     1
102
RTVSPropertyOp20
 70
     1
102
RTVSPropertyOp21
 70
     1
102
RTVSPropertyOp22
 70
     1
102
RTVSPropertyOp23
 70
     1
102
RTVSPropertyOp24
 70
     1
102
RTVSPropertyOp25
 70
     1
102
RTVSPropertyOp26
 70
     1
102
RTVSPropertyOp27
 70
     1
102
RTVSPropertyOp28
 70
     1
102
RTVSPropertyOp29
 70
     1
102
RTVSPropertyOp30
 70
     1
102
RTVSPropertyOp31
 70
     1
102
RTVSPropertyOp32
 70
     1
  0
XRECORD
  5
6A0
102
{ACAD_REACTORS
330
69F
102
}
330
69F
100
AcDbXrecord
280
     1
102
RTVSPropertyOp0
 70
     1
102
RTVSPropertyOp1
 70
     1
102
RTVSPropertyOp2
 70
     1
102
RTVSPropertyOp3
 70
     1
102
RTVSPropertyOp4
 70
     1
102
RTVSPropertyOp5
 70
     1
102
RTVSPropertyOp6
 70
     1
102
RTVSPropertyOp7
 70
     1
102
RTVSPropertyOp8
 70
     1
102
RTVSPropertyOp9
 70
     1
102
RTVSPropertyOp10
 70
     1
102
RTVSPropertyOp11
 70
     1
102
RTVSPropertyOp12
 70
     1
102
RTVSPropertyOp13
 70
     1
102
RTVSPropertyOp14
 70
     1
102
RTVSPropertyOp15
 70
     1
102
RTVSPropertyOp16
 70
     1
102
RTVSPropertyOp17
 70
     1
102
RTVSPropertyOp18
 70
     1
102
RTVSPropertyOp19
 70
     1
102
RTVSPropertyOp20
 70
     1
102
RTVSPropertyOp21
 70
     1
102
RTVSPropertyOp22
 70
     1
102
RTVSPropertyOp23
 70
     1
102
RTVSPropertyOp24
 70
     1
102
RTVSPropertyOp25
 70
     1
102
RTVSPropertyOp26
 70
     1
102
RTVSPropertyOp27
 70
     1
102
RTVSPropertyOp28
 70
     1
102
RTVSPropertyOp29
 70
     1
102
RTVSPropertyOp30
 70
     1
102
RTVSPropertyOp31
 70
     1
102
RTVSPropertyOp32
 70
     1
  0
XRECORD
  5
6A2
102
{ACAD_REACTORS
330
6A1
102
}
330
6A1
100
AcDbXrecord
280
     1
102
RTVSPropertyOp0
 70
     1
102
RTVSPropertyOp1
 70
     1
102
RTVSPropertyOp2
 70
     1
102
RTVSPropertyOp3
 70
     1
102
RTVSPropertyOp4
 70
     1
102
RTVSPropertyOp5
 70
     1
102
RTVSPropertyOp6
 70
     1
102
RTVSPropertyOp7
 70
     1
102
RTVSPropertyOp8
 70
     1
102
RTVSPropertyOp9
 70
     1
102
RTVSPropertyOp10
 70
     1
102
RTVSPropertyOp11
 70
     1
102
RTVSPropertyOp12
 70
     1
102
RTVSPropertyOp13
 70
     1
102
RTVSPropertyOp14
 70
     1
102
RTVSPropertyOp15
 70
     1
102
RTVSPropertyOp16
 70
     1
102
RTVSPropertyOp17
 70
     1
102
RTVSPropertyOp18
 70
     1
102
RTVSPropertyOp19
 70
     1
102
RTVSPropertyOp20
 70
     1
102
RTVSPropertyOp21
 70
     1
102
RTVSPropertyOp22
 70
     1
102
RTVSPropertyOp23
 70
     1
102
RTVSPropertyOp24
 70
     1
102
RTVSPropertyOp25
 70
     1
102
RTVSPropertyOp26
 70
     1
102
RTVSPropertyOp27
 70
     1
102
RTVSPropertyOp28
 70
     1
102
RTVSPropertyOp29
 70
     1
102
RTVSPropertyOp30
 70
     1
102
RTVSPropertyOp31
 70
     1
102
RTVSPropertyOp32
 70
     1
  0
XRECORD
  5
6A4
102
{ACAD_REACTORS
330
6A3
102
}
330
6A3
100
AcDbXrecord
280
     1
102
RTVSPropertyOp0
 70
     1
102
RTVSPropertyOp1
 70
     1
102
RTVSPropertyOp2
 70
     1
102
RTVSPropertyOp3
 70
     1
102
RTVSPropertyOp4
 70
     1
102
RTVSPropertyOp5
 70
     1
102
RTVSPropertyOp6
 70
     1
102
RTVSPropertyOp7
 70
     1
102
RTVSPropertyOp8
 70
     1
102
RTVSPropertyOp9
 70
     1
102
RTVSPropertyOp10
 70
     1
102
RTVSPropertyOp11
 70
     1
102
RTVSPropertyOp12
 70
     1
102
RTVSPropertyOp13
 70
     1
102
RTVSPropertyOp14
 70
     1
102
RTVSPropertyOp15
 70
     1
102
RTVSPropertyOp16
 70
     1
102
RTVSPropertyOp17
 70
     1
102
RTVSPropertyOp18
 70
     1
102
RTVSPropertyOp19
 70
     1
102
RTVSPropertyOp20
 70
     1
102
RTVSPropertyOp21
 70
     1
102
RTVSPropertyOp22
 70
     1
102
RTVSPropertyOp23
 70
     1
102
RTVSPropertyOp24
 70
     1
102
RTVSPropertyOp25
 70
     1
102
RTVSPropertyOp26
 70
     1
102
RTVSPropertyOp27
 70
     1
102
RTVSPropertyOp28
 70
     1
102
RTVSPropertyOp29
 70
     1
102
RTVSPropertyOp30
 70
     1
102
RTVSPropertyOp31
 70
     1
102
RTVSPropertyOp32
 70
     1
  0
XRECORD
  5
6A6
102
{ACAD_REACTORS
330
6A5
102
}
330
6A5
100
AcDbXrecord
280
     1
102
RTVSPropertyOp0
 70
     1
102
RTVSPropertyOp1
 70
     1
102
RTVSPropertyOp2
 70
     1
102
RTVSPropertyOp3
 70
     1
102
RTVSPropertyOp4
 70
     1
102
RTVSPropertyOp5
 70
     1
102
RTVSPropertyOp6
 70
     1
102
RTVSPropertyOp7
 70
     1
102
RTVSPropertyOp8
 70
     1
102
RTVSPropertyOp9
 70
     1
102
RTVSPropertyOp10
 70
     1
102
RTVSPropertyOp11
 70
     1
102
RTVSPropertyOp12
 70
     1
102
RTVSPropertyOp13
 70
     1
102
RTVSPropertyOp14
 70
     1
102
RTVSPropertyOp15
 70
     1
102
RTVSPropertyOp16
 70
     1
102
RTVSPropertyOp17
 70
     1
102
RTVSPropertyOp18
 70
     1
102
RTVSPropertyOp19
 70
     1
102
RTVSPropertyOp20
 70
     1
102
RTVSPropertyOp21
 70
     1
102
RTVSPropertyOp22
 70
     1
102
RTVSPropertyOp23
 70
     1
102
RTVSPropertyOp24
 70
     1
102
RTVSPropertyOp25
 70
     1
102
RTVSPropertyOp26
 70
     1
102
RTVSPropertyOp27
 70
     1
102
RTVSPropertyOp28
 70
     1
102
RTVSPropertyOp29
 70
     1
102
RTVSPropertyOp30
 70
     1
102
RTVSPropertyOp31
 70
     1
102
RTVSPropertyOp32
 70
     1
  0
XRECORD
  5
6BA
102
{ACAD_REACTORS
330
6B9
102
}
330
6B9
100
AcDbXrecord
280
     1
102
RTVSPropertyOp0
 70
     1
102
RTVSPropertyOp1
 70
     1
102
RTVSPropertyOp2
 70
     1
102
RTVSPropertyOp3
 70
     1
102
RTVSPropertyOp4
 70
     1
102
RTVSPropertyOp5
 70
     1
102
RTVSPropertyOp6
 70
     1
102
RTVSPropertyOp7
 70
     1
102
RTVSPropertyOp8
 70
     1
102
RTVSPropertyOp9
 70
     1
102
RTVSPropertyOp10
 70
     1
102
RTVSPropertyOp11
 70
     1
102
RTVSPropertyOp12
 70
     1
102
RTVSPropertyOp13
 70
     1
102
RTVSPropertyOp14
 70
     1
102
RTVSPropertyOp15
 70
     1
102
RTVSPropertyOp16
 70
     1
102
RTVSPropertyOp17
 70
     1
102
RTVSPropertyOp18
 70
     1
102
RTVSPropertyOp19
 70
     1
102
RTVSPropertyOp20
 70
     1
102
RTVSPropertyOp21
 70
     1
102
RTVSPropertyOp22
 70
     1
102
RTVSPropertyOp23
 70
     1
102
RTVSPropertyOp24
 70
     1
102
RTVSPropertyOp25
 70
     1
102
RTVSPropertyOp26
 70
     1
102
RTVSPropertyOp27
 70
     1
102
RTVSPropertyOp28
 70
     1
102
RTVSPropertyOp29
 70
     1
102
RTVSPropertyOp30
 70
     1
102
RTVSPropertyOp31
 70
     1
102
RTVSPropertyOp32
 70
     1
  0
XRECORD
  5
6B0
102
{ACAD_REACTORS
330
6AF
102
}
330
6AF
100
AcDbXrecord
280
     1
102
RTVSPropertyOp0
 70
     1
102
RTVSPropertyOp1
 70
     1
102
RTVSPropertyOp2
 70
     1
102
RTVSPropertyOp3
 70
     1
102
RTVSPropertyOp4
 70
     1
102
RTVSPropertyOp5
 70
     1
102
RTVSPropertyOp6
 70
     1
102
RTVSPropertyOp7
 70
     1
102
RTVSPropertyOp8
 70
     1
102
RTVSPropertyOp9
 70
     1
102
RTVSPropertyOp10
 70
     1
102
RTVSPropertyOp11
 70
     1
102
RTVSPropertyOp12
 70
     1
102
RTVSPropertyOp13
 70
     1
102
RTVSPropertyOp14
 70
     1
102
RTVSPropertyOp15
 70
     1
102
RTVSPropertyOp16
 70
     1
102
RTVSPropertyOp17
 70
     1
102
RTVSPropertyOp18
 70
     1
102
RTVSPropertyOp19
 70
     1
102
RTVSPropertyOp20
 70
     1
102
RTVSPropertyOp21
 70
     1
102
RTVSPropertyOp22
 70
     1
102
RTVSPropertyOp23
 70
     1
102
RTVSPropertyOp24
 70
     1
102
RTVSPropertyOp25
 70
     1
102
RTVSPropertyOp26
 70
     1
102
RTVSPropertyOp27
 70
     1
102
RTVSPropertyOp28
 70
     1
102
RTVSPropertyOp29
 70
     1
102
RTVSPropertyOp30
 70
     1
102
RTVSPropertyOp31
 70
     1
102
RTVSPropertyOp32
 70
     1
  0
XRECORD
  5
6B8
102
{ACAD_REACTORS
330
6B7
102
}
330
6B7
100
AcDbXrecord
280
     1
102
RTVSPropertyOp0
 70
     1
102
RTVSPropertyOp1
 70
     1
102
RTVSPropertyOp2
 70
     1
102
RTVSPropertyOp3
 70
     1
102
RTVSPropertyOp4
 70
     1
102
RTVSPropertyOp5
 70
     1
102
RTVSPropertyOp6
 70
     1
102
RTVSPropertyOp7
 70
     1
102
RTVSPropertyOp8
 70
     1
102
RTVSPropertyOp9
 70
     1
102
RTVSPropertyOp10
 70
     1
102
RTVSPropertyOp11
 70
     1
102
RTVSPropertyOp12
 70
     1
102
RTVSPropertyOp13
 70
     1
102
RTVSPropertyOp14
 70
     1
102
RTVSPropertyOp15
 70
     1
102
RTVSPropertyOp16
 70
     1
102
RTVSPropertyOp17
 70
     1
102
RTVSPropertyOp18
 70
     1
102
RTVSPropertyOp19
 70
     1
102
RTVSPropertyOp20
 70
     1
102
RTVSPropertyOp21
 70
     1
102
RTVSPropertyOp22
 70
     1
102
RTVSPropertyOp23
 70
     1
102
RTVSPropertyOp24
 70
     1
102
RTVSPropertyOp25
 70
     1
102
RTVSPropertyOp26
 70
     1
102
RTVSPropertyOp27
 70
     1
102
RTVSPropertyOp28
 70
     1
102
RTVSPropertyOp29
 70
     1
102
RTVSPropertyOp30
 70
     1
102
RTVSPropertyOp31
 70
     1
102
RTVSPropertyOp32
 70
     1
  0
ENDSEC
  0
EOF
